  0
SECTION
  2
HEADER
  9
$ACADVER
  1
AC1015
  9
$ACADMAINTVER
 70
    20
  9
$DWGCODEPAGE
  3
ANSI_932
  9
$INSBASE
 10
922.019522
 20
-675.4306699999999
 30
0.0
  9
$EXTMIN
 10
-1066.154854249254
 20
-0.0600126988438206
 30
-0.0015258207003583
  9
$EXTMAX
 10
1175.705688418845
 20
1966.706178473542
 30
0.0000000349246037
  9
$LIMMIN
 10
0.0
 20
0.0
  9
$LIMMAX
 10
420.0
 20
297.0
  9
$ORTHOMODE
 70
     0
  9
$REGENMODE
 70
     1
  9
$FILLMODE
 70
     1
  9
$QTEXTMODE
 70
     0
  9
$MIRRTEXT
 70
     1
  9
$LTSCALE
 40
1.0
  9
$ATTMODE
 70
     1
  9
$TEXTSIZE
 40
30.0
  9
$TRACEWID
 40
0.05
  9
$TEXTSTYLE
  7
SUNPOU
  9
$CLAYER
  8
0
  9
$CELTYPE
  6
BYLAYER
  9
$CECOLOR
 62
   256
  9
$CELTSCALE
 40
1.0
  9
$DISPSILH
 70
     0
  9
$DIMSCALE
 40
1.0
  9
$DIMASZ
 40
2.0
  9
$DIMEXO
 40
10.0
  9
$DIMDLI
 40
0.38
  9
$DIMRND
 40
0.0
  9
$DIMDLE
 40
0.0
  9
$DIMEXE
 40
0.0
  9
$DIMTP
 40
0.0
  9
$DIMTM
 40
0.0
  9
$DIMTXT
 40
10.0
  9
$DIMCEN
 40
0.0
  9
$DIMTSZ
 40
0.0
  9
$DIMTOL
 70
     0
  9
$DIMLIM
 70
     0
  9
$DIMTIH
 70
     0
  9
$DIMTOH
 70
     0
  9
$DIMSE1
 70
     0
  9
$DIMSE2
 70
     0
  9
$DIMTAD
 70
     1
  9
$DIMZIN
 70
     0
  9
$DIMBLK
  1
Dot
  9
$DIMASO
 70
     1
  9
$DIMSHO
 70
     1
  9
$DIMPOST
  1

  9
$DIMAPOST
  1

  9
$DIMALT
 70
     0
  9
$DIMALTD
 70
     2
  9
$DIMALTF
 40
25.4
  9
$DIMLFAC
 40
1.0
  9
$DIMTOFL
 70
     0
  9
$DIMTVP
 40
0.0
  9
$DIMTIX
 70
     0
  9
$DIMSOXD
 70
     0
  9
$DIMSAH
 70
     0
  9
$DIMBLK1
  1

  9
$DIMBLK2
  1

  9
$DIMSTYLE
  2
STANDARD
  9
$DIMCLRD
 70
    60
  9
$DIMCLRE
 70
    70
  9
$DIMCLRT
 70
    60
  9
$DIMTFAC
 40
0.064286
  9
$DIMGAP
 40
3.0
  9
$DIMJUST
 70
     0
  9
$DIMSD1
 70
     0
  9
$DIMSD2
 70
     0
  9
$DIMTOLJ
 70
     1
  9
$DIMTZIN
 70
     0
  9
$DIMALTZ
 70
     0
  9
$DIMALTTZ
 70
     0
  9
$DIMUPT
 70
     0
  9
$DIMDEC
 70
     0
  9
$DIMTDEC
 70
     0
  9
$DIMALTU
 70
     2
  9
$DIMALTTD
 70
     2
  9
$DIMTXSTY
  7
SUNPOU
  9
$DIMAUNIT
 70
     0
  9
$DIMADEC
 70
     0
  9
$DIMALTRND
 40
0.0
  9
$DIMAZIN
 70
     0
  9
$DIMDSEP
 70
    46
  9
$DIMATFIT
 70
     3
  9
$DIMFRAC
 70
     0
  9
$DIMLDRBLK
  1

  9
$DIMLUNIT
 70
     2
  9
$DIMLWD
 70
    -2
  9
$DIMLWE
 70
    -2
  9
$DIMTMOVE
 70
     0
  9
$LUNITS
 70
     2
  9
$LUPREC
 70
     5
  9
$SKETCHINC
 40
0.1
  9
$FILLETRAD
 40
0.0
  9
$AUNITS
 70
     0
  9
$AUPREC
 70
     0
  9
$MENU
  1
acad
  9
$ELEVATION
 40
0.0
  9
$PELEVATION
 40
0.0
  9
$THICKNESS
 40
0.0
  9
$LIMCHECK
 70
     0
  9
$CHAMFERA
 40
0.0
  9
$CHAMFERB
 40
0.0
  9
$CHAMFERC
 40
0.0
  9
$CHAMFERD
 40
0.0
  9
$SKPOLY
 70
     0
  9
$TDCREATE
 40
2450623.654673033
  9
$TDUCREATE
 40
2450623.279673032
  9
$TDUPDATE
 40
2454574.784850116
  9
$TDUUPDATE
 40
2454574.409850116
  9
$TDINDWG
 40
0.5016727546
  9
$TDUSRTIMER
 40
0.5016725810
  9
$USRTIMER
 70
     1
  9
$ANGBASE
 50
0.0
  9
$ANGDIR
 70
     0
  9
$PDMODE
 70
     0
  9
$PDSIZE
 40
0.0
  9
$PLINEWID
 40
0.0
  9
$SPLFRAME
 70
     0
  9
$SPLINETYPE
 70
     6
  9
$SPLINESEGS
 70
     8
  9
$HANDSEED
  5
730C
  9
$SURFTAB1
 70
     6
  9
$SURFTAB2
 70
     6
  9
$SURFTYPE
 70
     6
  9
$SURFU
 70
     6
  9
$SURFV
 70
     6
  9
$UCSBASE
  2

  9
$UCSNAME
  2

  9
$UCSORG
 10
0.0
 20
0.0
 30
0.0
  9
$UCSXDIR
 10
1.0
 20
0.0
 30
0.0
  9
$UCSYDIR
 10
0.0
 20
1.0
 30
0.0
  9
$UCSORTHOREF
  2

  9
$UCSORTHOVIEW
 70
     0
  9
$UCSORGTOP
 10
0.0
 20
0.0
 30
0.0
  9
$UCSORGBOTTOM
 10
0.0
 20
0.0
 30
0.0
  9
$UCSORGLEFT
 10
0.0
 20
0.0
 30
0.0
  9
$UCSORGRIGHT
 10
0.0
 20
0.0
 30
0.0
  9
$UCSORGFRONT
 10
0.0
 20
0.0
 30
0.0
  9
$UCSORGBACK
 10
0.0
 20
0.0
 30
0.0
  9
$PUCSBASE
  2

  9
$PUCSNAME
  2

  9
$PUCSORG
 10
0.0
 20
0.0
 30
0.0
  9
$PUCSXDIR
 10
1.0
 20
0.0
 30
0.0
  9
$PUCSYDIR
 10
0.0
 20
1.0
 30
0.0
  9
$PUCSORTHOREF
  2

  9
$PUCSORTHOVIEW
 70
     0
  9
$PUCSORGTOP
 10
0.0
 20
0.0
 30
0.0
  9
$PUCSORGBOTTOM
 10
0.0
 20
0.0
 30
0.0
  9
$PUCSORGLEFT
 10
0.0
 20
0.0
 30
0.0
  9
$PUCSORGRIGHT
 10
0.0
 20
0.0
 30
0.0
  9
$PUCSORGFRONT
 10
0.0
 20
0.0
 30
0.0
  9
$PUCSORGBACK
 10
0.0
 20
0.0
 30
0.0
  9
$USERI1
 70
     0
  9
$USERI2
 70
     0
  9
$USERI3
 70
     0
  9
$USERI4
 70
     0
  9
$USERI5
 70
     0
  9
$USERR1
 40
0.0
  9
$USERR2
 40
0.0
  9
$USERR3
 40
0.0
  9
$USERR4
 40
0.0
  9
$USERR5
 40
0.0
  9
$WORLDVIEW
 70
     1
  9
$SHADEDGE
 70
     3
  9
$SHADEDIF
 70
    70
  9
$TILEMODE
 70
     1
  9
$MAXACTVP
 70
    16
  9
$PINSBASE
 10
0.0
 20
0.0
 30
0.0
  9
$PLIMCHECK
 70
     0
  9
$PEXTMIN
 10
1.000000000000000E+20
 20
1.000000000000000E+20
 30
1.000000000000000E+20
  9
$PEXTMAX
 10
-1.000000000000000E+20
 20
-1.000000000000000E+20
 30
-1.000000000000000E+20
  9
$PLIMMIN
 10
0.0
 20
0.0
  9
$PLIMMAX
 10
12.0
 20
9.0
  9
$UNITMODE
 70
     0
  9
$VISRETAIN
 70
     0
  9
$PLINEGEN
 70
     0
  9
$PSLTSCALE
 70
     1
  9
$TREEDEPTH
 70
  3020
  9
$CMLSTYLE
  2
STANDARD
  9
$CMLJUST
 70
     0
  9
$CMLSCALE
 40
1.0
  9
$PROXYGRAPHICS
 70
     1
  9
$MEASUREMENT
 70
     0
  9
$CELWEIGHT
370
    -1
  9
$ENDCAPS
280
     0
  9
$JOINSTYLE
280
     0
  9
$LWDISPLAY
290
     0
  9
$INSUNITS
 70
     0
  9
$HYPERLINKBASE
  1

  9
$STYLESHEET
  1
monochrome.ctb
  9
$XEDIT
290
     1
  9
$CEPSNTYPE
380
     0
  9
$PSTYLEMODE
290
     1
  9
$FINGERPRINTGUID
  2
{FB88A696-E29C-4009-92AF-A3599A8169D5}
  9
$VERSIONGUID
  2
{EA2CC1CD-FA90-46B9-B5D1-A05B435D3A9E}
  9
$EXTNAMES
290
     1
  9
$PSVPSCALE
 40
0.0
  9
$OLESTARTUP
290
     0
  0
ENDSEC
  0
SECTION
  2
CLASSES
  0
CLASS
  1
DICTIONARYVAR
  2
AcDbDictionaryVar
  3
ObjectDBX Classes
 90
        0
280
     0
281
     0
  0
CLASS
  1
ACDBDICTIONARYWDFLT
  2
AcDbDictionaryWithDefault
  3
ObjectDBX Classes
 90
        0
280
     0
281
     0
  0
CLASS
  1
ACDBPLACEHOLDER
  2
AcDbPlaceHolder
  3
ObjectDBX Classes
 90
        0
280
     0
281
     0
  0
CLASS
  1
LAYOUT
  2
AcDbLayout
  3
ObjectDBX Classes
 90
        0
280
     0
281
     0
  0
CLASS
  1
TABLESTYLE
  2
AcDbTableStyle
  3
ObjectDBX Classes
 90
     2047
280
     0
281
     0
  0
CLASS
  1
SORTENTSTABLE
  2
AcDbSortentsTable
  3
ObjectDBX Classes
 90
        0
280
     0
281
     0
  0
ENDSEC
  0
SECTION
  2
TABLES
  0
TABLE
  2
VPORT
  5
12
330
0
100
AcDbSymbolTable
 70
     3
  0
VPORT
  5
7306
330
12
100
AcDbSymbolTableRecord
100
AcDbViewportTableRecord
  2
*Active
 70
     0
 10
0.0
 20
0.0
 11
1.0
 21
1.0
 12
54.7754170847952
 22
983.3230828873492
 13
0.0
 23
0.0
 14
1.0
 24
1.0
 15
0.0
 25
0.0
 16
0.0
 26
0.0
 36
1.0
 17
0.0
 27
0.0
 37
0.0
 40
1981.760596695937
 41
1.529262086513995
 42
50.0
 43
0.0
 44
0.0
 50
0.0
 51
0.0
 71
     0
 72
 20000
 73
     1
 74
     1
 75
     0
 76
     0
 77
     0
 78
     0
281
     0
 65
     1
110
0.0
120
0.0
130
0.0
111
1.0
121
0.0
131
0.0
112
0.0
122
1.0
132
0.0
 79
     0
146
0.0
  0
ENDTAB
  0
TABLE
  2
LTYPE
  5
D
330
0
100
AcDbSymbolTable
 70
     2
  0
LTYPE
  5
E
330
D
100
AcDbSymbolTableRecord
100
AcDbLinetypeTableRecord
  2
BYBLOCK
 70
     0
  3

 72
    65
 73
     0
 40
0.0
  0
LTYPE
  5
F
330
D
100
AcDbSymbolTableRecord
100
AcDbLinetypeTableRecord
  2
BYLAYER
 70
     0
  3

 72
    65
 73
     0
 40
0.0
  0
LTYPE
  5
5
330
D
100
AcDbSymbolTableRecord
100
AcDbLinetypeTableRecord
  2
CONTINUOUS
 70
     0
  3
Solid line
 72
    65
 73
     0
 40
0.0
  0
LTYPE
  5
6648
330
D
100
AcDbSymbolTableRecord
100
AcDbLinetypeTableRecord
  2
CENTER
 70
     0
  3
Center ____ _ ____ _ ____ _ ____ _ ____ _ ____
 72
    65
 73
     4
 40
50.8
 49
31.75
 74
     0
 49
-6.349999999999998
 74
     0
 49
6.349999999999998
 74
     0
 49
-6.349999999999998
 74
     0
  0
ENDTAB
  0
TABLE
  2
LAYER
  5
A
102
{ACAD_XDICTIONARY
360
1B4
102
}
330
0
100
AcDbSymbolTable
 70
     6
  0
LAYER
  5
4
330
A
100
AcDbSymbolTableRecord
100
AcDbLayerTableRecord
  2
0
 70
     0
 62
     7
  6
CONTINUOUS
370
    -3
390
57
  0
LAYER
  5
25
330
A
100
AcDbSymbolTableRecord
100
AcDbLayerTableRecord
  2
KIJUN
 70
     0
 62
     7
  6
CONTINUOUS
370
    -3
390
57
  0
LAYER
  5
22
330
A
100
AcDbSymbolTableRecord
100
AcDbLayerTableRecord
  2
HOJO
 70
     0
 62
     3
  6
CONTINUOUS
370
    -3
390
57
  0
LAYER
  5
1B
330
A
100
AcDbSymbolTableRecord
100
AcDbLayerTableRecord
  2
WAKU
 70
     0
 62
     1
  6
CONTINUOUS
370
    -3
390
57
  0
LAYER
  5
31
330
A
100
AcDbSymbolTableRecord
100
AcDbLayerTableRecord
  2
DEFPOINTS
 70
     0
 62
     7
  6
CONTINUOUS
290
     0
370
    -3
390
57
  0
LAYER
  5
28
330
A
100
AcDbSymbolTableRecord
100
AcDbLayerTableRecord
  2
SUNPOU
 70
     0
 62
    70
  6
CONTINUOUS
370
    -3
390
57
  0
ENDTAB
  0
TABLE
  2
STYLE
  5
B
330
0
100
AcDbSymbolTable
 70
     2
  0
STYLE
  5
C
330
B
100
AcDbSymbolTableRecord
100
AcDbTextStyleTableRecord
  2
STANDARD
 70
     0
 40
0.0
 41
1.0
 50
0.0
 71
     0
 42
0.2
  3
txt
  4

  0
STYLE
  5
1C
330
B
100
AcDbSymbolTableRecord
100
AcDbTextStyleTableRecord
  2
SUNPOU
 70
     0
 40
0.0
 41
1.0
 50
0.0
 71
     0
 42
30.0
  3
txt
  4
bigfont
  0
ENDTAB
  0
TABLE
  2
VIEW
  5
10
330
0
100
AcDbSymbolTable
 70
     0
  0
ENDTAB
  0
TABLE
  2
UCS
  5
11
330
0
100
AcDbSymbolTable
 70
     0
  0
ENDTAB
  0
TABLE
  2
APPID
  5
14
330
0
100
AcDbSymbolTable
 70
    11
  0
APPID
  5
15
330
14
100
AcDbSymbolTableRecord
100
AcDbRegAppTableRecord
  2
ACAD
 70
     0
  0
APPID
  5
1D3
330
14
100
AcDbSymbolTableRecord
100
AcDbRegAppTableRecord
  2
ACAD_DSTYLE_DIMTEXT_FILL
 70
     0
  0
APPID
  5
1D4
330
14
100
AcDbSymbolTableRecord
100
AcDbRegAppTableRecord
  2
ACAD_DSTYLE_DIMEXT_LENGTH
 70
     0
  0
APPID
  5
1D5
330
14
100
AcDbSymbolTableRecord
100
AcDbRegAppTableRecord
  2
ACAD_DSTYLE_DIMEXT_ENABLED
 70
     0
  0
APPID
  5
1D6
330
14
100
AcDbSymbolTableRecord
100
AcDbRegAppTableRecord
  2
ACAD_DSTYLE_DIM_LINETYPE
 70
     0
  0
APPID
  5
1D7
330
14
100
AcDbSymbolTableRecord
100
AcDbRegAppTableRecord
  2
ACAD_DSTYLE_DIM_EXT1_LINETYPE
 70
     0
  0
APPID
  5
1D8
330
14
100
AcDbSymbolTableRecord
100
AcDbRegAppTableRecord
  2
ACAD_DSTYLE_DIM_EXT2_LINETYPE
 70
     0
  0
APPID
  5
294
330
14
100
AcDbSymbolTableRecord
100
AcDbRegAppTableRecord
  2
ACAD_DSTYLE_DIMJOGGED_JOGANGLE_SYMBOL
 70
     0
  0
APPID
  5
478
330
14
100
AcDbSymbolTableRecord
100
AcDbRegAppTableRecord
  2
ACAD_DSTYLE_DIMARC_LENGTH_SYMBOL
 70
     0
  0
APPID
  5
157B
330
14
100
AcDbSymbolTableRecord
100
AcDbRegAppTableRecord
  2
ACAD_EXEMPT_FROM_CAD_STANDARDS
 70
     0
  0
APPID
  5
5228
330
14
100
AcDbSymbolTableRecord
100
AcDbRegAppTableRecord
  2
ACAD_PSEXT
 70
     0
  0
ENDTAB
  0
TABLE
  2
DIMSTYLE
  5
16
330
0
100
AcDbSymbolTable
 70
     1
100
AcDbDimStyleTable
 71
     1
340
1E
  0
DIMSTYLE
105
1E
102
{ACAD_REACTORS
330
707B
330
707C
330
707E
330
707F
330
7080
330
7085
330
7088
330
7089
330
708B
330
708E
330
7095
330
7098
330
709A
330
709B
330
70AC
330
70BA
330
70BC
102
}
330
16
100
AcDbSymbolTableRecord
100
AcDbDimStyleTableRecord
  2
STANDARD
 70
     0
340
C
  0
ENDTAB
  0
TABLE
  2
BLOCK_RECORD
  5
1
330
0
100
AcDbSymbolTable
 70
    18
  0
BLOCK_RECORD
  5
2
102
{ACAD_XDICTIONARY
360
1578
102
}
330
1
100
AcDbSymbolTableRecord
100
AcDbBlockTableRecord
  2
*MODEL_SPACE
340
5A
  0
BLOCK_RECORD
  5
7
330
1
100
AcDbSymbolTableRecord
100
AcDbBlockTableRecord
  2
*PAPER_SPACE
340
5B
  0
BLOCK_RECORD
  5
109
330
1
100
AcDbSymbolTableRecord
100
AcDbBlockTableRecord
  2
_Dot
340
0
  0
BLOCK_RECORD
  5
70BD
330
1
100
AcDbSymbolTableRecord
100
AcDbBlockTableRecord
  2
*D1
340
0
  0
BLOCK_RECORD
  5
70CA
330
1
100
AcDbSymbolTableRecord
100
AcDbBlockTableRecord
  2
*D2
340
0
  0
BLOCK_RECORD
  5
70D8
330
1
100
AcDbSymbolTableRecord
100
AcDbBlockTableRecord
  2
*D3
340
0
  0
BLOCK_RECORD
  5
70E1
330
1
100
AcDbSymbolTableRecord
100
AcDbBlockTableRecord
  2
*D4
340
0
  0
BLOCK_RECORD
  5
70ED
330
1
100
AcDbSymbolTableRecord
100
AcDbBlockTableRecord
  2
*D5
340
0
  0
BLOCK_RECORD
  5
70F9
330
1
100
AcDbSymbolTableRecord
100
AcDbBlockTableRecord
  2
*D6
340
0
  0
BLOCK_RECORD
  5
7102
330
1
100
AcDbSymbolTableRecord
100
AcDbBlockTableRecord
  2
*D7
340
0
  0
BLOCK_RECORD
  5
710B
330
1
100
AcDbSymbolTableRecord
100
AcDbBlockTableRecord
  2
*D8
340
0
  0
BLOCK_RECORD
  5
7117
330
1
100
AcDbSymbolTableRecord
100
AcDbBlockTableRecord
  2
*D9
340
0
  0
BLOCK_RECORD
  5
7123
330
1
100
AcDbSymbolTableRecord
100
AcDbBlockTableRecord
  2
*D10
340
0
  0
BLOCK_RECORD
  5
712F
330
1
100
AcDbSymbolTableRecord
100
AcDbBlockTableRecord
  2
*D11
340
0
  0
BLOCK_RECORD
  5
713D
330
1
100
AcDbSymbolTableRecord
100
AcDbBlockTableRecord
  2
*D12
340
0
  0
BLOCK_RECORD
  5
714A
330
1
100
AcDbSymbolTableRecord
100
AcDbBlockTableRecord
  2
*D13
340
0
  0
BLOCK_RECORD
  5
7157
330
1
100
AcDbSymbolTableRecord
100
AcDbBlockTableRecord
  2
*D14
340
0
  0
BLOCK_RECORD
  5
7160
330
1
100
AcDbSymbolTableRecord
100
AcDbBlockTableRecord
  2
*D15
340
0
  0
BLOCK_RECORD
  5
716C
330
1
100
AcDbSymbolTableRecord
100
AcDbBlockTableRecord
  2
*D16
340
0
  0
BLOCK_RECORD
  5
7178
330
1
100
AcDbSymbolTableRecord
100
AcDbBlockTableRecord
  2
*D17
340
0
  0
ENDTAB
  0
ENDSEC
  0
SECTION
  2
BLOCKS
  0
BLOCK
  5
3
330
2
100
AcDbEntity
  8
0
100
AcDbBlockBegin
  2
*MODEL_SPACE
 70
     0
 10
0.0
 20
0.0
 30
0.0
  3
*MODEL_SPACE
  1

  0
ENDBLK
  5
6
330
2
100
AcDbEntity
  8
0
100
AcDbBlockEnd
  0
BLOCK
  5
8
330
7
100
AcDbEntity
 67
     1
  8
0
100
AcDbBlockBegin
  2
*PAPER_SPACE
 70
     0
 10
0.0
 20
0.0
 30
0.0
  3
*PAPER_SPACE
  1

  0
ENDBLK
  5
9
330
7
100
AcDbEntity
 67
     1
  8
0
100
AcDbBlockEnd
  0
BLOCK
  5
10C
330
109
100
AcDbEntity
  8
0
100
AcDbBlockBegin
  2
_Dot
 70
     0
 10
0.0
 20
0.0
 30
0.0
  3
_Dot
  1

  0
LWPOLYLINE
  5
10A
330
109
100
AcDbEntity
  8
0
  6
ByBlock
 62
     0
100
AcDbPolyline
 90
        2
 70
     1
 43
0.5
 10
-0.25
 20
0.0
 42
1.0
 10
0.25
 20
0.0
 42
1.0
  0
LINE
  5
10B
330
109
100
AcDbEntity
  8
0
  6
ByBlock
 62
     0
370
    -2
100
AcDbLine
 10
-0.5
 20
0.0
 30
0.0
 11
-1.0
 21
0.0
 31
0.0
  0
ENDBLK
  5
10D
330
109
100
AcDbEntity
  8
0
100
AcDbBlockEnd
  0
BLOCK
  5
70C8
330
70BD
100
AcDbEntity
  8
0
100
AcDbBlockBegin
  2
*D1
 70
     1
 10
0.0
 20
0.0
 30
0.0
  3
*D1
  1

  0
ARC
  5
7218
330
70BD
100
AcDbEntity
  8
SUNPOU
 62
    60
370
    -2
100
AcDbCircle
 10
91.86131819353846
 20
535.8664695995653
 30
0.0
 40
744.1421365435958
100
AcDbArc
 50
102.4656294746999
 51
105.385490856319
  0
ARC
  5
7219
330
70BD
100
AcDbEntity
  8
SUNPOU
 62
    60
370
    -2
100
AcDbCircle
 10
91.86131819353846
 20
535.8664695995653
 30
0.0
 40
744.1421365435958
100
AcDbArc
 50
116.7171919361476
 51
120.2854709239533
  0
SOLID
  5
721A
330
70BD
100
AcDbEntity
  8
SUNPOU
 62
    60
100
AcDbTrace
 10
-69.74531491712622
 20
1267.368844796109
 30
0.0
 11
-67.78403674805293
 21
1257.563061403461
 31
0.0
 12
-39.3473256546477
 22
1268.349787607004
 32
0.0
 13
-39.3473256546477
 23
1268.349787607004
 33
0.0
  0
SOLID
  5
721B
330
70BD
100
AcDbEntity
  8
SUNPOU
 62
    60
100
AcDbTrace
 10
-280.8079480523454
 20
1174.18475068788
 30
0.0
 11
-286.0240742825876
 21
1182.716575061961
 31
0.0
 12
-309.0114842897124
 22
1162.802284184194
 32
0.0
 13
-309.0114842897124
 23
1162.802284184194
 33
0.0
  0
MTEXT
  5
721C
330
70BD
100
AcDbEntity
  8
SUNPOU
 62
    60
100
AcDbMText
 10
-174.5155523309896
 20
1227.947681663741
 30
0.0
 40
27.99999999999999
 41
0.0
 71
     5
 72
     1
  1
\A1;22.4°
  7
SUNPOU
 11
0.9332589266650771
 21
0.3592043649511351
 31
0.0
 73
     1
 44
1.0
1001
ACAD
1000
MTEXTBEGIN
1070
    73
1070
     1
1070
    44
1040
1.0
1070
    74
1070
     0
1000
MTEXTEND
  0
POINT
  5
721D
330
70BD
100
AcDbEntity
  8
DEFPOINTS
 62
     0
100
AcDbPoint
 10
-223.9860276073664
 20
1209.652766232401
 30
0.0
  0
POINT
  5
721E
330
70BD
100
AcDbEntity
  8
DEFPOINTS
 62
     0
100
AcDbPoint
 10
-638.0834338773389
 20
1677.446803577073
 30
0.0
  0
POINT
  5
721F
330
70BD
100
AcDbEntity
  8
DEFPOINTS
 62
     0
100
AcDbPoint
 10
-72.11815936379247
 20
1451.295730077971
 30
0.0
  0
POINT
  5
7220
330
70BD
100
AcDbEntity
  8
DEFPOINTS
 62
     0
100
AcDbPoint
 10
165.9165661226539
 20
122.4468035770696
 30
0.0
  0
POINT
  5
7221
330
70BD
100
AcDbEntity
  8
DEFPOINTS
 62
     0
100
AcDbPoint
 10
91.86131819353883
 20
535.8664695995648
 30
0.0
  0
ENDBLK
  5
70C9
330
70BD
100
AcDbEntity
  8
0
100
AcDbBlockEnd
  0
BLOCK
  5
70D6
330
70CA
100
AcDbEntity
  8
0
100
AcDbBlockBegin
  2
*D2
 70
     1
 10
0.0
 20
0.0
 30
0.0
  3
*D2
  1

  0
LINE
  5
7222
330
70CA
100
AcDbEntity
  8
SUNPOU
 62
    70
370
    -2
100
AcDbLine
 10
-638.083433877346
 20
1251.821803577072
 30
0.0
 11
-638.0834338773462
 21
1057.388964115368
 31
0.0
  0
ARC
  5
7223
330
70CA
100
AcDbEntity
  8
SUNPOU
 62
    60
370
    -2
100
AcDbCircle
 10
-638.083433877346
 20
1677.446803577061
 30
0.0
 40
618.2578394616932
100
AcDbArc
 50
272.7804614042266
 51
281.9080899568167
  0
ARC
  5
7224
330
70CA
100
AcDbEntity
  8
SUNPOU
 62
    60
370
    -2
100
AcDbCircle
 10
-638.083433877346
 20
1677.446803577061
 30
0.0
 40
618.2578394616932
100
AcDbArc
 50
295.5570863905595
 51
299.8150383771818
  0
SOLID
  5
7225
330
70CA
100
AcDbEntity
  8
SUNPOU
 62
    60
100
AcDbTrace
 10
-607.9709560331629
 20
1054.918287578381
 30
0.0
 11
-608.2135732559879
 21
1064.915343989305
 31
0.0
 12
-638.0834338773462
 22
1059.188964115368
 32
0.0
 13
-638.0834338773462
 23
1059.188964115368
 33
0.0
  0
SOLID
  5
7226
330
70CA
100
AcDbEntity
  8
SUNPOU
 62
    60
100
AcDbTrace
 10
-333.2751099360846
 20
1145.30125655598
 30
0.0
 11
-328.0940532474876
 21
1136.748090382595
 31
0.0
 12
-305.02508307163
 22
1156.567843535079
 32
0.0
 13
-305.02508307163
 23
1156.567843535079
 33
0.0
  0
MTEXT
  5
7227
330
70CA
100
AcDbEntity
  8
SUNPOU
 62
    60
100
AcDbMText
 10
-439.1800816116841
 20
1090.910885655397
 30
0.0
 40
27.99999999999999
 41
0.0
 71
     5
 72
     1
  1
\A1;32.6°
  7
SUNPOU
 11
0.9470277691962218
 21
0.3211516843661696
 31
0.0
 73
     1
 44
1.0
1001
ACAD
1000
MTEXTBEGIN
1070
    73
1070
     1
1070
    44
1040
1.0
1070
    74
1070
     0
1000
MTEXTEND
  0
POINT
  5
7228
330
70CA
100
AcDbEntity
  8
DEFPOINTS
 62
     0
100
AcDbPoint
 10
-521.542808733642
 20
1070.272167457472
 30
0.0
  0
POINT
  5
7229
330
70CA
100
AcDbEntity
  8
DEFPOINTS
 62
     0
100
AcDbPoint
 10
-638.0834338773533
 20
1677.446803577073
 30
0.0
  0
POINT
  5
722A
330
70CA
100
AcDbEntity
  8
DEFPOINTS
 62
     0
100
AcDbPoint
 10
-638.083433877346
 20
1677.446803577072
 30
0.0
  0
POINT
  5
722B
330
70CA
100
AcDbEntity
  8
DEFPOINTS
 62
     0
100
AcDbPoint
 10
-638.083433877346
 20
1252.446803577072
 30
0.0
  0
POINT
  5
722C
330
70CA
100
AcDbEntity
  8
DEFPOINTS
 62
     0
100
AcDbPoint
 10
91.86131819353205
 20
535.8664695995721
 30
0.0
  0
ENDBLK
  5
70D7
330
70CA
100
AcDbEntity
  8
0
100
AcDbBlockEnd
  0
BLOCK
  5
70DF
330
70D8
100
AcDbEntity
  8
0
100
AcDbBlockBegin
  2
*D3
 70
     1
 10
0.0
 20
0.0
 30
0.0
  3
*D3
  1

  0
LINE
  5
722D
330
70D8
100
AcDbEntity
  8
SUNPOU
 62
    60
370
    -2
100
AcDbLine
 10
91.86131819353025
 20
535.8664695995717
 30
0.0
 11
-26.25274719297457
 21
958.9878839858915
 31
0.0
  0
LINE
  5
722E
330
70D8
100
AcDbEntity
  8
SUNPOU
 62
    60
370
    -2
100
AcDbLine
 10
-150.1217499413284
 20
1402.725278596768
 30
0.0
 11
-57.97941612621162
 21
1072.642705609968
 31
0.0
  0
MTEXT
  5
722F
330
70D8
100
AcDbEntity
  8
SUNPOU
 62
    60
100
AcDbMText
 10
-53.61941071060255
 20
1012.604148036039
 30
0.0
 40
27.99999999999999
 41
0.0
 71
     5
 72
     1
  1
\A1;R930
  7
SUNPOU
 11
0.2688700757053988
 21
-0.9631764544413309
 31
0.0
 73
     1
 44
1.0
1001
ACAD
1000
MTEXTBEGIN
1070
    73
1070
     1
1070
    44
1040
1.0
1070
    74
1070
     0
1000
MTEXTEND
  0
SOLID
  5
7230
330
70D8
100
AcDbEntity
  8
SUNPOU
 62
    60
100
AcDbTrace
 10
-145.3058676691212
 20
1404.069628975295
 30
0.0
 11
-154.9376322135345
 21
1401.380928218241
 31
0.0
 12
-158.1878522124898
 22
1431.620572230008
 32
0.0
 13
-158.1878522124898
 23
1431.620572230008
 33
0.0
  0
POINT
  5
7231
330
70D8
100
AcDbEntity
  8
DEFPOINTS
 62
     0
100
AcDbPoint
 10
-158.1878522124898
 20
1431.620572230008
 30
0.0
  0
POINT
  5
7232
330
70D8
100
AcDbEntity
  8
DEFPOINTS
 62
     0
100
AcDbPoint
 10
91.86131819353025
 20
535.8664695995717
 30
0.0
  0
ENDBLK
  5
70E0
330
70D8
100
AcDbEntity
  8
0
100
AcDbBlockEnd
  0
BLOCK
  5
70EB
330
70E1
100
AcDbEntity
  8
0
100
AcDbBlockBegin
  2
*D4
 70
     1
 10
0.0
 20
0.0
 30
0.0
  3
*D4
  1

  0
LINE
  5
7233
330
70E1
100
AcDbEntity
  8
SUNPOU
 62
    70
370
    -2
100
AcDbLine
 10
-734.0834338773461
 20
1731.653095693628
 30
0.0
 11
-734.0834338773461
 21
1930.446156616788
 31
0.0
  0
LINE
  5
7234
330
70E1
100
AcDbEntity
  8
SUNPOU
 62
    70
370
    -2
100
AcDbLine
 10
1065.916566122654
 20
1732.028095693628
 30
0.0
 11
1065.916566122654
 21
1930.446156616788
 31
0.0
  0
LINE
  5
7235
330
70E1
100
AcDbEntity
  8
SUNPOU
 62
    60
370
    -2
100
AcDbLine
 10
-704.0834338773461
 20
1928.646156616789
 30
0.0
 11
1035.916566122654
 21
1928.646156616789
 31
0.0
  0
SOLID
  5
7236
330
70E1
100
AcDbEntity
  8
SUNPOU
 62
    60
100
AcDbTrace
 10
-704.0834338773461
 20
1933.646156616789
 30
0.0
 11
-704.0834338773461
 21
1923.646156616788
 31
0.0
 12
-734.0834338773461
 22
1928.646156616789
 32
0.0
 13
-734.0834338773461
 23
1928.646156616789
 33
0.0
  0
SOLID
  5
7237
330
70E1
100
AcDbEntity
  8
SUNPOU
 62
    60
100
AcDbTrace
 10
1035.916566122654
 20
1933.646156616789
 30
0.0
 11
1035.916566122654
 21
1923.646156616788
 31
0.0
 12
1065.916566122654
 22
1928.646156616789
 32
0.0
 13
1065.916566122654
 23
1928.646156616789
 33
0.0
  0
MTEXT
  5
7238
330
70E1
100
AcDbEntity
  8
SUNPOU
 62
    60
100
AcDbMText
 10
165.9165661226541
 20
1952.646156616788
 30
0.0
 40
27.99999999999999
 41
0.0
 71
     5
 72
     1
  1
\A1;1800
  7
SUNPOU
 73
     1
 44
1.0
1001
ACAD
1000
MTEXTBEGIN
1070
    73
1070
     1
1070
    44
1040
1.0
1070
    74
1070
     0
1000
MTEXTEND
  0
POINT
  5
7239
330
70E1
100
AcDbEntity
  8
DEFPOINTS
 62
     0
100
AcDbPoint
 10
-734.0834338773461
 20
1731.028095693629
 30
0.0
  0
POINT
  5
723A
330
70E1
100
AcDbEntity
  8
DEFPOINTS
 62
     0
100
AcDbPoint
 10
1065.916566122654
 20
1731.403095693629
 30
0.0
  0
POINT
  5
723B
330
70E1
100
AcDbEntity
  8
DEFPOINTS
 62
     0
100
AcDbPoint
 10
1065.916566122654
 20
1928.646156616789
 30
0.0
  0
ENDBLK
  5
70EC
330
70E1
100
AcDbEntity
  8
0
100
AcDbBlockEnd
  0
BLOCK
  5
70F7
330
70ED
100
AcDbEntity
  8
0
100
AcDbBlockBegin
  2
*D5
 70
     1
 10
0.0
 20
0.0
 30
0.0
  3
*D5
  1

  0
LINE
  5
723C
330
70ED
100
AcDbEntity
  8
SUNPOU
 62
    70
370
    -2
100
AcDbLine
 10
-638.083433877346
 20
1731.653095693628
 30
0.0
 11
-638.083433877346
 21
1845.349157365396
 31
0.0
  0
LINE
  5
723D
330
70ED
100
AcDbEntity
  8
SUNPOU
 62
    70
370
    -2
100
AcDbLine
 10
969.9165661226542
 20
1731.653095693628
 30
0.0
 11
969.9165661226542
 21
1845.349157365396
 31
0.0
  0
LINE
  5
723E
330
70ED
100
AcDbEntity
  8
SUNPOU
 62
    60
370
    -2
100
AcDbLine
 10
-608.0834338773461
 20
1843.549157365396
 30
0.0
 11
939.9165661226543
 21
1843.549157365396
 31
0.0
  0
SOLID
  5
723F
330
70ED
100
AcDbEntity
  8
SUNPOU
 62
    60
100
AcDbTrace
 10
-608.0834338773461
 20
1848.549157365396
 30
0.0
 11
-608.0834338773461
 21
1838.549157365395
 31
0.0
 12
-638.083433877346
 22
1843.549157365396
 32
0.0
 13
-638.083433877346
 23
1843.549157365396
 33
0.0
  0
SOLID
  5
7240
330
70ED
100
AcDbEntity
  8
SUNPOU
 62
    60
100
AcDbTrace
 10
939.9165661226543
 20
1848.549157365396
 30
0.0
 11
939.9165661226543
 21
1838.549157365395
 31
0.0
 12
969.9165661226542
 22
1843.549157365396
 32
0.0
 13
969.9165661226542
 23
1843.549157365396
 33
0.0
  0
MTEXT
  5
7241
330
70ED
100
AcDbEntity
  8
SUNPOU
 62
    60
100
AcDbMText
 10
165.9165661226541
 20
1867.549157365395
 30
0.0
 40
27.99999999999999
 41
0.0
 71
     5
 72
     1
  1
\A1;1608
  7
SUNPOU
 73
     1
 44
1.0
1001
ACAD
1000
MTEXTBEGIN
1070
    73
1070
     1
1070
    44
1040
1.0
1070
    74
1070
     0
1000
MTEXTEND
  0
POINT
  5
7242
330
70ED
100
AcDbEntity
  8
DEFPOINTS
 62
     0
100
AcDbPoint
 10
-638.083433877346
 20
1731.028095693629
 30
0.0
  0
POINT
  5
7243
330
70ED
100
AcDbEntity
  8
DEFPOINTS
 62
     0
100
AcDbPoint
 10
969.9165661226542
 20
1731.028095693629
 30
0.0
  0
POINT
  5
7244
330
70ED
100
AcDbEntity
  8
DEFPOINTS
 62
     0
100
AcDbPoint
 10
969.9165661226542
 20
1843.549157365396
 30
0.0
  0
ENDBLK
  5
70F8
330
70ED
100
AcDbEntity
  8
0
100
AcDbBlockEnd
  0
BLOCK
  5
7100
330
70F9
100
AcDbEntity
  8
0
100
AcDbBlockBegin
  2
*D6
 70
     1
 10
0.0
 20
0.0
 30
0.0
  3
*D6
  1

  0
LINE
  5
7245
330
70F9
100
AcDbEntity
  8
SUNPOU
 62
    60
370
    -2
100
AcDbLine
 10
-638.0834338773532
 20
1677.446803577076
 30
0.0
 11
-553.3344561412303
 21
1472.021061597943
 31
0.0
  0
LINE
  5
7246
330
70F9
100
AcDbEntity
  8
SUNPOU
 62
    60
370
    -2
100
AcDbLine
 10
-487.4412239840037
 20
1312.300360901727
 30
0.0
 11
-506.5527403262513
 21
1358.62537307092
 31
0.0
  0
MTEXT
  5
7247
330
70F9
100
AcDbEntity
  8
SUNPOU
 62
    60
100
AcDbMText
 10
-547.1624250474228
 20
1408.219541056007
 30
0.0
 40
27.99999999999999
 41
0.0
 71
     5
 72
     1
  1
\A1;R425
  7
SUNPOU
 11
0.3813726832742849
 21
-0.9244213738616021
 31
0.0
 73
     1
 44
1.0
1001
ACAD
1000
MTEXTBEGIN
1070
    73
1070
     1
1070
    44
1040
1.0
1070
    74
1070
     0
1000
MTEXTEND
  0
SOLID
  5
7248
330
70F9
100
AcDbEntity
  8
SUNPOU
 62
    60
100
AcDbTrace
 10
-482.8191171146959
 20
1314.207224318099
 30
0.0
 11
-492.0633308533118
 21
1310.393497485356
 31
0.0
 12
-476.0000434857753
 22
1284.567719685879
 32
0.0
 13
-476.0000434857753
 23
1284.567719685879
 33
0.0
  0
POINT
  5
7249
330
70F9
100
AcDbEntity
  8
DEFPOINTS
 62
     0
100
AcDbPoint
 10
-476.0000434857753
 20
1284.567719685879
 30
0.0
  0
POINT
  5
724A
330
70F9
100
AcDbEntity
  8
DEFPOINTS
 62
     0
100
AcDbPoint
 10
-638.0834338773532
 20
1677.446803577076
 30
0.0
  0
ENDBLK
  5
7101
330
70F9
100
AcDbEntity
  8
0
100
AcDbBlockEnd
  0
BLOCK
  5
7109
330
7102
100
AcDbEntity
  8
0
100
AcDbBlockBegin
  2
*D7
 70
     1
 10
0.0
 20
0.0
 30
0.0
  3
*D7
  1

  0
LINE
  5
72DF
330
7102
100
AcDbEntity
  8
SUNPOU
 62
    70
370
    -2
100
AcDbLine
 10
-958.5718378571979
 20
1192.446803577072
 30
0.0
 11
-962.171837857198
 21
1192.446803577072
 31
0.0
  0
LINE
  5
72E0
330
7102
100
AcDbEntity
  8
SUNPOU
 62
    70
370
    -2
100
AcDbLine
 10
-958.5718378571979
 20
1252.446803577072
 30
0.0
 11
-962.171837857198
 21
1252.446803577072
 31
0.0
  0
LINE
  5
72E1
330
7102
100
AcDbEntity
  8
SUNPOU
 62
    60
370
    -2
100
AcDbLine
 10
-960.3718378571979
 20
1162.446803577072
 30
0.0
 11
-960.3718378571979
 21
1132.446803577072
 31
0.0
  0
LINE
  5
72E2
330
7102
100
AcDbEntity
  8
SUNPOU
 62
    60
370
    -2
100
AcDbLine
 10
-960.3718378571979
 20
1282.446803577072
 30
0.0
 11
-960.3718378571979
 21
1312.446803577073
 31
0.0
  0
MTEXT
  5
72E3
330
7102
100
AcDbEntity
  8
SUNPOU
 62
    60
100
AcDbMText
 10
-996.371837857198
 20
1140.6388976554
 30
0.0
 40
27.99999999999999
 41
0.0
 71
     5
 72
     1
  1
\A1;60
  7
SUNPOU
 11
0.0000000000000001
 21
1.0
 31
0.0
 73
     1
 44
1.0
1001
ACAD
1000
MTEXTBEGIN
1070
    73
1070
     1
1070
    44
1040
1.0
1070
    74
1070
     0
1000
MTEXTEND
  0
LINE
  5
72E4
330
7102
100
AcDbEntity
  8
SUNPOU
 62
    60
370
    -2
100
AcDbLine
 10
-960.3718378571979
 20
1192.446803577072
 30
0.0
 11
-960.3718378571979
 21
1252.446803577072
 31
0.0
  0
SOLID
  5
72E5
330
7102
100
AcDbEntity
  8
SUNPOU
 62
    60
100
AcDbTrace
 10
-965.371837857198
 20
1162.446803577072
 30
0.0
 11
-955.371837857198
 21
1162.446803577072
 31
0.0
 12
-960.3718378571979
 22
1192.446803577072
 32
0.0
 13
-960.3718378571979
 23
1192.446803577072
 33
0.0
  0
SOLID
  5
72E6
330
7102
100
AcDbEntity
  8
SUNPOU
 62
    60
100
AcDbTrace
 10
-965.3718378571978
 20
1282.446803577072
 30
0.0
 11
-955.3718378571979
 21
1282.446803577072
 31
0.0
 12
-960.3718378571979
 22
1252.446803577072
 32
0.0
 13
-960.3718378571979
 23
1252.446803577072
 33
0.0
  0
POINT
  5
72E7
330
7102
100
AcDbEntity
  8
DEFPOINTS
 62
     0
100
AcDbPoint
 10
-812.2972600537073
 20
1192.446803577072
 30
0.0
  0
POINT
  5
72E8
330
7102
100
AcDbEntity
  8
DEFPOINTS
 62
     0
100
AcDbPoint
 10
-812.2972600537073
 20
1252.446803577072
 30
0.0
  0
POINT
  5
72E9
330
7102
100
AcDbEntity
  8
DEFPOINTS
 62
     0
100
AcDbPoint
 10
-960.3718378571979
 20
1252.446803577072
 30
0.0
  0
ENDBLK
  5
710A
330
7102
100
AcDbEntity
  8
0
100
AcDbBlockEnd
  0
BLOCK
  5
7115
330
710B
100
AcDbEntity
  8
0
100
AcDbBlockBegin
  2
*D8
 70
     1
 10
0.0
 20
0.0
 30
0.0
  3
*D8
  1

  0
LINE
  5
7251
330
710B
100
AcDbEntity
  8
SUNPOU
 62
    70
370
    -2
100
AcDbLine
 10
-812.9222600537072
 20
1472.446803577073
 30
0.0
 11
-1029.886447489874
 21
1472.446803577073
 31
0.0
  0
LINE
  5
7252
330
710B
100
AcDbEntity
  8
SUNPOU
 62
    70
370
    -2
100
AcDbLine
 10
-813.5472600537072
 20
1192.446803577072
 30
0.0
 11
-1029.886447489874
 21
1192.446803577072
 31
0.0
  0
LINE
  5
7253
330
710B
100
AcDbEntity
  8
SUNPOU
 62
    60
370
    -2
100
AcDbLine
 10
-1028.086447489874
 20
1442.446803577072
 30
0.0
 11
-1028.086447489874
 21
1222.446803577073
 31
0.0
  0
SOLID
  5
7254
330
710B
100
AcDbEntity
  8
SUNPOU
 62
    60
100
AcDbTrace
 10
-1033.086447489874
 20
1442.446803577072
 30
0.0
 11
-1023.086447489874
 21
1442.446803577072
 31
0.0
 12
-1028.086447489874
 22
1472.446803577073
 32
0.0
 13
-1028.086447489874
 23
1472.446803577073
 33
0.0
  0
SOLID
  5
7255
330
710B
100
AcDbEntity
  8
SUNPOU
 62
    60
100
AcDbTrace
 10
-1033.086447489874
 20
1222.446803577073
 30
0.0
 11
-1023.086447489874
 21
1222.446803577073
 31
0.0
 12
-1028.086447489874
 22
1192.446803577072
 32
0.0
 13
-1028.086447489874
 23
1192.446803577072
 33
0.0
  0
MTEXT
  5
7256
330
710B
100
AcDbEntity
  8
SUNPOU
 62
    60
100
AcDbMText
 10
-1052.086447489874
 20
1332.446803577072
 30
0.0
 40
27.99999999999999
 41
0.0
 71
     5
 72
     1
  1
\A1;280
  7
SUNPOU
 11
0.0000000000000001
 21
1.0
 31
0.0
 73
     1
 44
1.0
1001
ACAD
1000
MTEXTBEGIN
1070
    73
1070
     1
1070
    44
1040
1.0
1070
    74
1070
     0
1000
MTEXTEND
  0
POINT
  5
7257
330
710B
100
AcDbEntity
  8
DEFPOINTS
 62
     0
100
AcDbPoint
 10
-812.2972600537073
 20
1472.446803577073
 30
0.0
  0
POINT
  5
7258
330
710B
100
AcDbEntity
  8
DEFPOINTS
 62
     0
100
AcDbPoint
 10
-812.9222600537072
 20
1192.446803577072
 30
0.0
  0
POINT
  5
7259
330
710B
100
AcDbEntity
  8
DEFPOINTS
 62
     0
100
AcDbPoint
 10
-1028.086447489874
 20
1192.446803577072
 30
0.0
  0
ENDBLK
  5
7116
330
710B
100
AcDbEntity
  8
0
100
AcDbBlockEnd
  0
BLOCK
  5
7121
330
7117
100
AcDbEntity
  8
0
100
AcDbBlockBegin
  2
*D9
 70
     1
 10
0.0
 20
0.0
 30
0.0
  3
*D9
  1

  0
LINE
  5
725A
330
7117
100
AcDbEntity
  8
SUNPOU
 62
    70
370
    -2
100
AcDbLine
 10
-813.5472600537072
 20
1252.446803577072
 30
0.0
 11
-962.1718378571982
 21
1252.446803577072
 31
0.0
  0
LINE
  5
725B
330
7117
100
AcDbEntity
  8
SUNPOU
 62
    70
370
    -2
100
AcDbLine
 10
-813.5472600537072
 20
1472.446803577073
 30
0.0
 11
-962.171837857198
 21
1472.446803577073
 31
0.0
  0
LINE
  5
725C
330
7117
100
AcDbEntity
  8
SUNPOU
 62
    60
370
    -2
100
AcDbLine
 10
-960.3718378571979
 20
1282.446803577072
 30
0.0
 11
-960.3718378571979
 21
1442.446803577072
 31
0.0
  0
SOLID
  5
725D
330
7117
100
AcDbEntity
  8
SUNPOU
 62
    60
100
AcDbTrace
 10
-965.371837857198
 20
1282.446803577072
 30
0.0
 11
-955.371837857198
 21
1282.446803577072
 31
0.0
 12
-960.3718378571981
 22
1252.446803577072
 32
0.0
 13
-960.3718378571981
 23
1252.446803577072
 33
0.0
  0
SOLID
  5
725E
330
7117
100
AcDbEntity
  8
SUNPOU
 62
    60
100
AcDbTrace
 10
-965.371837857198
 20
1442.446803577072
 30
0.0
 11
-955.371837857198
 21
1442.446803577072
 31
0.0
 12
-960.3718378571979
 22
1472.446803577073
 32
0.0
 13
-960.3718378571979
 23
1472.446803577073
 33
0.0
  0
MTEXT
  5
725F
330
7117
100
AcDbEntity
  8
SUNPOU
 62
    60
100
AcDbMText
 10
-984.3718378571981
 20
1362.446803577072
 30
0.0
 40
27.99999999999999
 41
0.0
 71
     5
 72
     1
  1
\A1;220
  7
SUNPOU
 11
0.0000000000000001
 21
1.0
 31
0.0
 73
     1
 44
1.0
1001
ACAD
1000
MTEXTBEGIN
1070
    73
1070
     1
1070
    44
1040
1.0
1070
    74
1070
     0
1000
MTEXTEND
  0
POINT
  5
7260
330
7117
100
AcDbEntity
  8
DEFPOINTS
 62
     0
100
AcDbPoint
 10
-812.9222600537072
 20
1252.446803577072
 30
0.0
  0
POINT
  5
7261
330
7117
100
AcDbEntity
  8
DEFPOINTS
 62
     0
100
AcDbPoint
 10
-812.9222600537072
 20
1472.446803577073
 30
0.0
  0
POINT
  5
7262
330
7117
100
AcDbEntity
  8
DEFPOINTS
 62
     0
100
AcDbPoint
 10
-960.3718378571979
 20
1472.446803577073
 30
0.0
  0
ENDBLK
  5
7122
330
7117
100
AcDbEntity
  8
0
100
AcDbBlockEnd
  0
BLOCK
  5
712D
330
7123
100
AcDbEntity
  8
0
100
AcDbBlockBegin
  2
*D10
 70
     1
 10
0.0
 20
0.0
 30
0.0
  3
*D10
  1

  0
LINE
  5
7263
330
7123
100
AcDbEntity
  8
SUNPOU
 62
    70
370
    -2
100
AcDbLine
 10
-734.0834338773461
 20
1731.653095693628
 30
0.0
 11
-734.0834338773461
 21
1845.349157365396
 31
0.0
  0
LINE
  5
7264
330
7123
100
AcDbEntity
  8
SUNPOU
 62
    70
370
    -2
100
AcDbLine
 10
-638.083433877346
 20
1731.653095693628
 30
0.0
 11
-638.083433877346
 21
1845.349157365396
 31
0.0
  0
LINE
  5
7265
330
7123
100
AcDbEntity
  8
SUNPOU
 62
    60
370
    -2
100
AcDbLine
 10
-704.0834338773461
 20
1843.549157365396
 30
0.0
 11
-668.0834338773461
 21
1843.549157365396
 31
0.0
  0
SOLID
  5
7266
330
7123
100
AcDbEntity
  8
SUNPOU
 62
    60
100
AcDbTrace
 10
-704.0834338773461
 20
1848.549157365396
 30
0.0
 11
-704.0834338773461
 21
1838.549157365395
 31
0.0
 12
-734.0834338773461
 22
1843.549157365396
 32
0.0
 13
-734.0834338773461
 23
1843.549157365396
 33
0.0
  0
SOLID
  5
7267
330
7123
100
AcDbEntity
  8
SUNPOU
 62
    60
100
AcDbTrace
 10
-668.0834338773461
 20
1848.549157365396
 30
0.0
 11
-668.0834338773461
 21
1838.549157365395
 31
0.0
 12
-638.083433877346
 22
1843.549157365396
 32
0.0
 13
-638.083433877346
 23
1843.549157365396
 33
0.0
  0
MTEXT
  5
7268
330
7123
100
AcDbEntity
  8
SUNPOU
 62
    60
100
AcDbMText
 10
-686.0834338773461
 20
1867.549157365395
 30
0.0
 40
27.99999999999999
 41
0.0
 71
     5
 72
     1
  1
\A1;96
  7
SUNPOU
 73
     1
 44
1.0
1001
ACAD
1000
MTEXTBEGIN
1070
    73
1070
     1
1070
    44
1040
1.0
1070
    74
1070
     0
1000
MTEXTEND
  0
POINT
  5
7269
330
7123
100
AcDbEntity
  8
DEFPOINTS
 62
     0
100
AcDbPoint
 10
-734.0834338773461
 20
1731.028095693629
 30
0.0
  0
POINT
  5
726A
330
7123
100
AcDbEntity
  8
DEFPOINTS
 62
     0
100
AcDbPoint
 10
-638.083433877346
 20
1731.028095693629
 30
0.0
  0
POINT
  5
726B
330
7123
100
AcDbEntity
  8
DEFPOINTS
 62
     0
100
AcDbPoint
 10
-638.083433877346
 20
1843.549157365396
 30
0.0
  0
ENDBLK
  5
712E
330
7123
100
AcDbEntity
  8
0
100
AcDbBlockEnd
  0
BLOCK
  5
713B
330
712F
100
AcDbEntity
  8
0
100
AcDbBlockBegin
  2
*D11
 70
     1
 10
0.0
 20
0.0
 30
0.0
  3
*D11
  1

  0
LINE
  5
726C
330
712F
100
AcDbEntity
  8
SUNPOU
 62
    70
370
    -2
100
AcDbLine
 10
969.9165661226542
 20
1251.821803577073
 30
0.0
 11
969.9165661226542
 21
1053.492150715516
 31
0.0
  0
ARC
  5
726D
330
712F
100
AcDbEntity
  8
SUNPOU
 62
    60
370
    -2
100
AcDbCircle
 10
969.9165661226542
 20
1677.446803577044
 30
0.0
 40
622.1546528615282
100
AcDbArc
 50
240.1675430499498
 51
245.2321108752033
  0
ARC
  5
726E
330
712F
100
AcDbEntity
  8
SUNPOU
 62
    60
370
    -2
100
AcDbCircle
 10
969.9165661226542
 20
1677.446803577044
 30
0.0
 40
622.1546528615282
100
AcDbArc
 50
258.7952152189859
 51
267.2369571686417
  0
SOLID
  5
726F
330
712F
100
AcDbEntity
  8
SUNPOU
 62
    60
100
AcDbTrace
 10
657.8249411516931
 20
1133.461539315297
 30
0.0
 11
663.0072979106437
 21
1142.0139178396
 31
0.0
 12
634.7589839582597
 22
1153.284798854301
 32
0.0
 13
634.7589839582597
 23
1153.284798854301
 33
0.0
  0
SOLID
  5
7270
330
712F
100
AcDbEntity
  8
SUNPOU
 62
    60
100
AcDbTrace
 10
940.0458354038645
 20
1061.013990133532
 30
0.0
 11
939.804737793632
 21
1051.016896958897
 31
0.0
 12
969.9165661226542
 22
1055.292150715516
 32
0.0
 13
969.9165661226542
 23
1055.292150715516
 33
0.0
  0
MTEXT
  5
7271
330
712F
100
AcDbEntity
  8
SUNPOU
 62
    60
100
AcDbMText
 10
776.3162709317084
 20
1081.122540865748
 30
0.0
 40
27.99999999999999
 41
0.0
 71
     5
 72
     1
  1
\A1;32.6°
  7
SUNPOU
 11
0.9511301790395227
 21
-0.3087901917487757
 31
0.0
 73
     1
 44
1.0
1001
ACAD
1000
MTEXTBEGIN
1070
    73
1070
     1
1070
    44
1040
1.0
1070
    74
1070
     0
1000
MTEXTEND
  0
POINT
  5
7272
330
712F
100
AcDbEntity
  8
DEFPOINTS
 62
     0
100
AcDbPoint
 10
852.6413978147573
 20
1066.445210309397
 30
0.0
  0
POINT
  5
7273
330
712F
100
AcDbEntity
  8
DEFPOINTS
 62
     0
100
AcDbPoint
 10
969.9165661226606
 20
1677.446803577054
 30
0.0
  0
POINT
  5
7274
330
712F
100
AcDbEntity
  8
DEFPOINTS
 62
     0
100
AcDbPoint
 10
969.9165661226542
 20
1677.446803577073
 30
0.0
  0
POINT
  5
7275
330
712F
100
AcDbEntity
  8
DEFPOINTS
 62
     0
100
AcDbPoint
 10
969.9165661226542
 20
1252.446803577073
 30
0.0
  0
POINT
  5
7276
330
712F
100
AcDbEntity
  8
DEFPOINTS
 62
     0
100
AcDbPoint
 10
239.971814051783
 20
535.8664695995649
 30
0.0
  0
ENDBLK
  5
713C
330
712F
100
AcDbEntity
  8
0
100
AcDbBlockEnd
  0
BLOCK
  5
7148
330
713D
100
AcDbEntity
  8
0
100
AcDbBlockBegin
  2
*D12
 70
     1
 10
0.0
 20
0.0
 30
0.0
  3
*D12
  1

  0
ARC
  5
7277
330
713D
100
AcDbEntity
  8
SUNPOU
 62
    60
370
    -2
100
AcDbCircle
 10
165.9165661226539
 20
122.4468035770697
 30
0.0
 40
1161.463675156861
100
AcDbArc
 50
81.32436057973317
 51
86.35898480385042
  0
ARC
  5
7278
330
713D
100
AcDbEntity
  8
SUNPOU
 62
    60
370
    -2
100
AcDbCircle
 10
165.9165661226539
 20
122.4468035770697
 30
0.0
 40
1161.463675156861
100
AcDbArc
 50
93.38148936224639
 51
98.67563942026739
  0
SOLID
  5
7279
330
713D
100
AcDbEntity
  8
SUNPOU
 62
    60
100
AcDbTrace
 10
341.9303327948943
 20
1275.553776392904
 30
0.0
 11
340.2943836327145
 21
1265.688500403924
 31
0.0
 12
370.7081861807471
 22
1265.713290911875
 32
0.0
 13
370.7081861807471
 23
1265.713290911875
 33
0.0
  0
SOLID
  5
727A
330
713D
100
AcDbEntity
  8
SUNPOU
 62
    60
100
AcDbTrace
 10
-8.461251387417831
 20
1265.688500403922
 30
0.0
 11
-10.09720054959771
 21
1275.553776392903
 31
0.0
 12
-38.87505393545045
 22
1265.713290911873
 32
0.0
 13
-38.87505393545045
 23
1265.713290911873
 33
0.0
  0
MTEXT
  5
727B
330
713D
100
AcDbEntity
  8
SUNPOU
 62
    60
100
AcDbMText
 10
168.5680884303174
 20
1293.20329807136
 30
0.0
 40
27.99999999999999
 41
0.0
 71
     5
 72
     1
  1
\A1;20.3°
  7
SUNPOU
 11
0.9999974353638894
 21
-0.0022647882116758
 31
0.0
 73
     1
 44
1.0
1001
ACAD
1000
MTEXTBEGIN
1070
    73
1070
     1
1070
    44
1040
1.0
1070
    74
1070
     0
1000
MTEXTEND
  0
POINT
  5
727C
330
713D
100
AcDbEntity
  8
DEFPOINTS
 62
     0
100
AcDbPoint
 10
97.33385376596448
 20
1281.883856751877
 30
0.0
  0
POINT
  5
727D
330
713D
100
AcDbEntity
  8
DEFPOINTS
 62
     0
100
AcDbPoint
 10
-72.11815936379252
 20
1451.29573007797
 30
0.0
  0
POINT
  5
727E
330
713D
100
AcDbEntity
  8
DEFPOINTS
 62
     0
100
AcDbPoint
 10
403.9512916090847
 20
1451.29573007797
 30
0.0
  0
POINT
  5
727F
330
713D
100
AcDbEntity
  8
DEFPOINTS
 62
     0
100
AcDbPoint
 10
165.9165661226539
 20
122.4468035770696
 30
0.0
  0
POINT
  5
7280
330
713D
100
AcDbEntity
  8
DEFPOINTS
 62
     0
100
AcDbPoint
 10
165.9165661226539
 20
122.4468035770696
 30
0.0
  0
ENDBLK
  5
7149
330
713D
100
AcDbEntity
  8
0
100
AcDbBlockEnd
  0
BLOCK
  5
7155
330
714A
100
AcDbEntity
  8
0
100
AcDbBlockBegin
  2
*D13
 70
     1
 10
0.0
 20
0.0
 30
0.0
  3
*D13
  1

  0
ARC
  5
7281
330
714A
100
AcDbEntity
  8
SUNPOU
 62
    60
370
    -2
100
AcDbCircle
 10
239.9718140517628
 20
535.8664695995755
 30
0.0
 40
738.2249152843544
100
AcDbArc
 50
59.73304758686523
 51
62.62183806086826
  0
ARC
  5
7282
330
714A
100
AcDbEntity
  8
SUNPOU
 62
    60
370
    -2
100
AcDbCircle
 10
239.9718140517628
 20
535.8664695995755
 30
0.0
 40
738.2249152843544
100
AcDbArc
 50
74.04466890813388
 51
77.51585201448063
  0
SOLID
  5
7283
330
714A
100
AcDbEntity
  8
SUNPOU
 62
    60
100
AcDbTrace
 10
614.6663541943446
 20
1177.72763231597
 30
0.0
 11
609.4516068133624
 21
1169.194965103865
 31
0.0
 12
637.6569821401699
 22
1157.817056566971
 32
0.0
 13
637.6569821401699
 23
1157.817056566971
 33
0.0
  0
SOLID
  5
7284
330
714A
100
AcDbEntity
  8
SUNPOU
 62
    60
100
AcDbTrace
 10
398.5720890400329
 20
1251.733952623163
 30
0.0
 11
400.5349518421443
 21
1261.539418936403
 31
0.0
 12
370.1371215013681
 22
1262.525274186117
 32
0.0
 13
370.1371215013681
 23
1262.525274186117
 33
0.0
  0
MTEXT
  5
7285
330
714A
100
AcDbEntity
  8
SUNPOU
 62
    60
100
AcDbMText
 10
514.9192035910918
 20
1227.94768166374
 30
0.0
 40
27.99999999999999
 41
0.0
 71
     5
 72
     1
  1
\A1;22.4°
  7
SUNPOU
 11
0.9293470096909929
 21
-0.3692074424742943
 31
0.0
 73
     1
 44
1.0
1001
ACAD
1000
MTEXTBEGIN
1070
    73
1070
     1
1070
    44
1040
1.0
1070
    74
1070
     0
1000
MTEXTEND
  0
POINT
  5
7286
330
714A
100
AcDbEntity
  8
DEFPOINTS
 62
     0
100
AcDbPoint
 10
463.6255685784994
 20
1239.396869534565
 30
0.0
  0
POINT
  5
7287
330
714A
100
AcDbEntity
  8
DEFPOINTS
 62
     0
100
AcDbPoint
 10
403.9512916090925
 20
1451.295730077973
 30
0.0
  0
POINT
  5
7288
330
714A
100
AcDbEntity
  8
DEFPOINTS
 62
     0
100
AcDbPoint
 10
969.9165661226542
 20
1677.446803577073
 30
0.0
  0
POINT
  5
7289
330
714A
100
AcDbEntity
  8
DEFPOINTS
 62
     0
100
AcDbPoint
 10
239.9718140517607
 20
535.8664695995721
 30
0.0
  0
POINT
  5
728A
330
714A
100
AcDbEntity
  8
DEFPOINTS
 62
     0
100
AcDbPoint
 10
165.9165661226461
 20
122.4468035770733
 30
0.0
  0
ENDBLK
  5
7156
330
714A
100
AcDbEntity
  8
0
100
AcDbBlockEnd
  0
BLOCK
  5
715E
330
7157
100
AcDbEntity
  8
0
100
AcDbBlockBegin
  2
*D14
 70
     1
 10
0.0
 20
0.0
 30
0.0
  3
*D14
  1

  0
LINE
  5
728B
330
7157
100
AcDbEntity
  8
SUNPOU
 62
    60
370
    -2
100
AcDbLine
 10
165.9165661226552
 20
122.4468035770732
 30
0.0
 11
250.598869000952
 21
984.0245351708002
 31
0.0
  0
LINE
  5
728C
330
7157
100
AcDbEntity
  8
SUNPOU
 62
    60
370
    -2
100
AcDbLine
 10
295.0338726417426
 20
1436.116747344251
 30
0.0
 11
263.9670749789382
 21
1120.035817227502
 31
0.0
  0
MTEXT
  5
728D
330
7157
100
AcDbEntity
  8
SUNPOU
 62
    60
100
AcDbMText
 10
260.0570725900106
 20
1051.757516845717
 30
0.0
 40
27.99999999999999
 41
0.0
 71
     5
 72
     1
  1
\A1;R1350
  7
SUNPOU
 11
0.0978161413023388
 21
0.9952045028539215
 31
0.0
 73
     1
 44
1.0
1001
ACAD
1000
MTEXTBEGIN
1070
    73
1070
     1
1070
    44
1040
1.0
1070
    74
1070
     0
1000
MTEXTEND
  0
SOLID
  5
728E
330
7157
100
AcDbEntity
  8
SUNPOU
 62
    60
100
AcDbTrace
 10
290.0578501274739
 20
1436.605828050763
 30
0.0
 11
300.0098951560131
 21
1435.62766663774
 31
0.0
 12
297.9683568808137
 22
1465.972882429869
 32
0.0
 13
297.9683568808137
 23
1465.972882429869
 33
0.0
  0
POINT
  5
728F
330
7157
100
AcDbEntity
  8
DEFPOINTS
 62
     0
100
AcDbPoint
 10
297.9683568808137
 20
1465.972882429869
 30
0.0
  0
POINT
  5
7290
330
7157
100
AcDbEntity
  8
DEFPOINTS
 62
     0
100
AcDbPoint
 10
165.9165661226552
 20
122.4468035770732
 30
0.0
  0
ENDBLK
  5
715F
330
7157
100
AcDbEntity
  8
0
100
AcDbBlockEnd
  0
BLOCK
  5
716A
330
7160
100
AcDbEntity
  8
0
100
AcDbBlockBegin
  2
*D15
 70
     1
 10
0.0
 20
0.0
 30
0.0
  3
*D15
  1

  0
LINE
  5
7291
330
7160
100
AcDbEntity
  8
SUNPOU
 62
    70
370
    -2
100
AcDbLine
 10
1150.358312647479
 20
1192.446803577072
 30
0.0
 11
1158.355425647476
 21
1192.446803577072
 31
0.0
  0
LINE
  5
7292
330
7160
100
AcDbEntity
  8
SUNPOU
 62
    70
370
    -2
100
AcDbLine
 10
1150.358312647479
 20
1252.446803577072
 30
0.0
 11
1158.355425647476
 21
1252.446803577072
 31
0.0
  0
LINE
  5
7293
330
7160
100
AcDbEntity
  8
SUNPOU
 62
    60
370
    -2
100
AcDbLine
 10
1158.355425647476
 20
1195.446803577072
 30
0.0
 11
1158.355425647476
 21
1249.446803577072
 31
0.0
  0
SOLID
  5
7294
330
7160
100
AcDbEntity
  8
SUNPOU
 62
    60
100
AcDbTrace
 10
1157.855425647476
 20
1195.446803577072
 30
0.0
 11
1158.855425647476
 21
1195.446803577072
 31
0.0
 12
1158.355425647476
 22
1192.446803577072
 32
0.0
 13
1158.355425647476
 23
1192.446803577072
 33
0.0
  0
SOLID
  5
7295
330
7160
100
AcDbEntity
  8
SUNPOU
 62
    60
100
AcDbTrace
 10
1157.855425647476
 20
1249.446803577072
 30
0.0
 11
1158.855425647476
 21
1249.446803577072
 31
0.0
 12
1158.355425647476
 22
1252.446803577072
 32
0.0
 13
1158.355425647476
 23
1252.446803577072
 33
0.0
  0
MTEXT
  5
7296
330
7160
100
AcDbEntity
  8
SUNPOU
 62
    60
100
AcDbMText
 10
1156.865425647476
 20
1222.446803577073
 30
0.0
 40
2.799999999999998
 41
0.0
 71
     5
 72
     1
  1
\A1;60
 11
0.0000000000000001
 21
1.0
 31
0.0
 73
     1
 44
1.0
1001
ACAD
1000
MTEXTBEGIN
1070
    73
1070
     1
1070
    44
1040
1.0
1070
    74
1070
     0
1000
MTEXTEND
  0
POINT
  5
7297
330
7160
100
AcDbEntity
  8
DEFPOINTS
 62
     0
100
AcDbPoint
 10
1148.358312647479
 20
1192.446803577072
 30
0.0
  0
POINT
  5
7298
330
7160
100
AcDbEntity
  8
DEFPOINTS
 62
     0
100
AcDbPoint
 10
1148.358312647479
 20
1252.446803577072
 30
0.0
  0
POINT
  5
7299
330
7160
100
AcDbEntity
  8
DEFPOINTS
 62
     0
100
AcDbPoint
 10
1158.355425647476
 20
1252.446803577072
 30
0.0
  0
ENDBLK
  5
716B
330
7160
100
AcDbEntity
  8
0
100
AcDbBlockEnd
  0
BLOCK
  5
7176
330
716C
100
AcDbEntity
  8
0
100
AcDbBlockBegin
  2
*D16
 70
     1
 10
0.0
 20
0.0
 30
0.0
  3
*D16
  1

  0
LINE
  5
729A
330
716C
100
AcDbEntity
  8
SUNPOU
 62
    70
370
    -2
100
AcDbLine
 10
1148.358312647479
 20
1254.446803577073
 30
0.0
 11
1148.358312647479
 21
1262.509545577073
 31
0.0
  0
LINE
  5
729B
330
716C
100
AcDbEntity
  8
SUNPOU
 62
    70
370
    -2
100
AcDbLine
 10
1118.358312647477
 20
1254.446803577073
 30
0.0
 11
1118.358312647477
 21
1262.509545577073
 31
0.0
  0
LINE
  5
729C
330
716C
100
AcDbEntity
  8
SUNPOU
 62
    60
370
    -2
100
AcDbLine
 10
1145.358312647478
 20
1262.509545577073
 30
0.0
 11
1121.358312647477
 21
1262.509545577073
 31
0.0
  0
SOLID
  5
729D
330
716C
100
AcDbEntity
  8
SUNPOU
 62
    60
100
AcDbTrace
 10
1145.358312647478
 20
1263.009545577072
 30
0.0
 11
1145.358312647478
 21
1262.009545577073
 31
0.0
 12
1148.358312647479
 22
1262.509545577073
 32
0.0
 13
1148.358312647479
 23
1262.509545577073
 33
0.0
  0
SOLID
  5
729E
330
716C
100
AcDbEntity
  8
SUNPOU
 62
    60
100
AcDbTrace
 10
1121.358312647477
 20
1263.009545577072
 30
0.0
 11
1121.358312647477
 21
1262.009545577073
 31
0.0
 12
1118.358312647477
 22
1262.509545577073
 32
0.0
 13
1118.358312647477
 23
1262.509545577073
 33
0.0
  0
MTEXT
  5
729F
330
716C
100
AcDbEntity
  8
SUNPOU
 62
    60
100
AcDbMText
 10
1133.358312647477
 20
1263.999545577072
 30
0.0
 40
2.799999999999998
 41
0.0
 71
     5
 72
     1
  1
\A1;30
 73
     1
 44
1.0
1001
ACAD
1000
MTEXTBEGIN
1070
    73
1070
     1
1070
    44
1040
1.0
1070
    74
1070
     0
1000
MTEXTEND
  0
POINT
  5
72A0
330
716C
100
AcDbEntity
  8
DEFPOINTS
 62
     0
100
AcDbPoint
 10
1148.358312647479
 20
1252.446803577072
 30
0.0
  0
POINT
  5
72A1
330
716C
100
AcDbEntity
  8
DEFPOINTS
 62
     0
100
AcDbPoint
 10
1118.358312647477
 20
1252.446803577072
 30
0.0
  0
POINT
  5
72A2
330
716C
100
AcDbEntity
  8
DEFPOINTS
 62
     0
100
AcDbPoint
 10
1118.358312647477
 20
1262.509545577073
 30
0.0
  0
ENDBLK
  5
7177
330
716C
100
AcDbEntity
  8
0
100
AcDbBlockEnd
  0
BLOCK
  5
7182
330
7178
100
AcDbEntity
  8
0
100
AcDbBlockBegin
  2
*D17
 70
     1
 10
0.0
 20
0.0
 30
0.0
  3
*D17
  1

  0
LINE
  5
72A3
330
7178
100
AcDbEntity
  8
SUNPOU
 62
    70
370
    -2
100
AcDbLine
 10
969.9165661226542
 20
1731.653095693628
 30
0.0
 11
969.9165661226542
 21
1845.349157365396
 31
0.0
  0
LINE
  5
72A4
330
7178
100
AcDbEntity
  8
SUNPOU
 62
    70
370
    -2
100
AcDbLine
 10
1065.916566122654
 20
1731.653095693628
 30
0.0
 11
1065.916566122654
 21
1845.349157365396
 31
0.0
  0
LINE
  5
72A5
330
7178
100
AcDbEntity
  8
SUNPOU
 62
    60
370
    -2
100
AcDbLine
 10
999.9165661226543
 20
1843.549157365396
 30
0.0
 11
1035.916566122654
 21
1843.549157365396
 31
0.0
  0
SOLID
  5
72A6
330
7178
100
AcDbEntity
  8
SUNPOU
 62
    60
100
AcDbTrace
 10
999.9165661226543
 20
1848.549157365396
 30
0.0
 11
999.9165661226543
 21
1838.549157365395
 31
0.0
 12
969.9165661226542
 22
1843.549157365396
 32
0.0
 13
969.9165661226542
 23
1843.549157365396
 33
0.0
  0
SOLID
  5
72A7
330
7178
100
AcDbEntity
  8
SUNPOU
 62
    60
100
AcDbTrace
 10
1035.916566122654
 20
1848.549157365396
 30
0.0
 11
1035.916566122654
 21
1838.549157365395
 31
0.0
 12
1065.916566122654
 22
1843.549157365396
 32
0.0
 13
1065.916566122654
 23
1843.549157365396
 33
0.0
  0
MTEXT
  5
72A8
330
7178
100
AcDbEntity
  8
SUNPOU
 62
    60
100
AcDbMText
 10
1017.916566122654
 20
1867.549157365395
 30
0.0
 40
27.99999999999999
 41
0.0
 71
     5
 72
     1
  1
\A1;96
  7
SUNPOU
 73
     1
 44
1.0
1001
ACAD
1000
MTEXTBEGIN
1070
    73
1070
     1
1070
    44
1040
1.0
1070
    74
1070
     0
1000
MTEXTEND
  0
POINT
  5
72A9
330
7178
100
AcDbEntity
  8
DEFPOINTS
 62
     0
100
AcDbPoint
 10
969.9165661226542
 20
1731.028095693629
 30
0.0
  0
POINT
  5
72AA
330
7178
100
AcDbEntity
  8
DEFPOINTS
 62
     0
100
AcDbPoint
 10
1065.916566122654
 20
1731.028095693629
 30
0.0
  0
POINT
  5
72AB
330
7178
100
AcDbEntity
  8
DEFPOINTS
 62
     0
100
AcDbPoint
 10
1065.916566122654
 20
1843.549157365396
 30
0.0
  0
ENDBLK
  5
7183
330
7178
100
AcDbEntity
  8
0
100
AcDbBlockEnd
  0
ENDSEC
  0
SECTION
  2
ENTITIES
  0
LINE
  5
1F
330
2
100
AcDbEntity
  8
WAKU
100
AcDbLine
 10
0.0
 20
28.0
 30
0.0
 11
324.6663596030067
 21
28.0
 31
0.0
  0
LINE
  5
20
330
2
100
AcDbEntity
  8
WAKU
100
AcDbLine
 10
0.0
 20
0.0
 30
0.0
 11
324.6663596030067
 21
0.0
 31
0.0
  0
TEXT
  5
21
330
2
100
AcDbEntity
  8
HOJO
100
AcDbText
 10
19.30793200000005
 20
4.733252000000049
 30
0.0
 40
18.0
  1
51535-1828
  7
SUNPOU
100
AcDbText
  0
TEXT
  5
23
330
2
100
AcDbEntity
  8
HOJO
100
AcDbText
 10
232.5739697629265
 20
10.08877200000006
 30
0.0
 40
12.0
  1
1800×280
  7
SUNPOU
100
AcDbText
  0
DIMENSION
  5
707B
330
2
100
AcDbEntity
  8
SUNPOU
100
AcDbDimension
  2
*D1
 10
91.86131819353887
 20
535.8664695995648
 30
0.0
 11
-174.5155523309896
 21
1227.947681663741
 31
0.0
 70
   162
 71
     5
 42
0.3916501242301604
  3
STANDARD
100
AcDb2LineAngularDimension
 13
-72.11815936379252
 23
1451.29573007797
 33
0.0
 14
165.9165661226539
 24
122.4468035770696
 34
0.0
 15
-638.0834338773389
 25
1677.446803577073
 35
0.0
 16
-223.9860276073664
 26
1209.652766232401
 36
0.0
1001
ACAD
1000
DSTYLE
1002
{
1070
   287
1070
     5
1070
   271
1070
     1
1070
    40
1040
10.0
1070
    41
1040
3.0
1070
    73
1070
     0
1070
    74
1070
     0
1070
    77
1070
     1
1070
    78
1070
     8
1070
    79
1070
     2
1070
   140
1040
2.799999999999998
1070
   141
1040
5.0
1070
   146
1040
0.0642857142857143
1070
   147
1040
1.0
1070
   174
1070
     1
1070
   175
1070
     1
1070
   176
1070
    60
1070
   177
1070
    70
1070
   178
1070
    60
1070
   179
1070
     1
1070
   271
1070
     2
1070
   272
1070
     2
1070
   279
1070
     2
1070
   340
1005
1C
1002
}
  0
DIMENSION
  5
707C
330
2
100
AcDbEntity
  8
SUNPOU
100
AcDbDimension
  2
*D2
 10
91.86131819353205
 20
535.8664695995721
 30
0.0
 11
-439.180081611684
 21
1090.910885655397
 31
0.0
 70
   162
 71
     5
 42
0.5688987925186684
  3
STANDARD
100
AcDb2LineAngularDimension
 13
-638.083433877346
 23
1677.446803577073
 33
0.0
 14
-638.083433877346
 24
1252.446803577072
 34
0.0
 15
-638.0834338773533
 25
1677.446803577073
 35
0.0
 16
-521.542808733642
 26
1070.272167457472
 36
0.0
1001
ACAD
1000
DSTYLE
1002
{
1070
   287
1070
     5
1070
   271
1070
     1
1070
    40
1040
10.0
1070
    41
1040
3.0
1070
    73
1070
     0
1070
    74
1070
     0
1070
    77
1070
     1
1070
    78
1070
     8
1070
    79
1070
     2
1070
   140
1040
2.799999999999998
1070
   141
1040
5.0
1070
   146
1040
0.0642857142857143
1070
   147
1040
1.0
1070
   174
1070
     1
1070
   175
1070
     1
1070
   176
1070
    60
1070
   177
1070
    70
1070
   178
1070
    60
1070
   179
1070
     1
1070
   271
1070
     2
1070
   272
1070
     2
1070
   279
1070
     2
1070
   340
1005
1C
1002
}
  0
LINE
  5
707D
330
2
100
AcDbEntity
  8
HOJO
  6
CENTER
100
AcDbLine
 10
-638.083433877346
 20
1677.446803577073
 30
0.0
 11
91.86131819353205
 21
535.8664695995721
 31
0.0
  0
DIMENSION
  5
707E
330
2
100
AcDbEntity
  8
SUNPOU
100
AcDbDimension
  2
*D3
 10
91.86131819353025
 20
535.8664695995717
 30
0.0
 11
-53.61941071060255
 21
1012.604148036039
 31
0.0
 70
   164
 71
     5
 42
929.9999999999988
  3
STANDARD
100
AcDbRadialDimension
 15
-158.1878522124898
 25
1431.620572230008
 35
0.0
 40
0.0
1001
ACAD
1000
DSTYLE
1002
{
1070
   287
1070
     5
1070
    40
1040
10.0
1070
    41
1040
3.0
1070
    73
1070
     0
1070
    74
1070
     0
1070
    77
1070
     1
1070
    78
1070
     8
1070
    79
1070
     2
1070
   140
1040
2.799999999999998
1070
   141
1040
5.0
1070
   146
1040
0.0642857142857143
1070
   147
1040
1.0
1070
   174
1070
     1
1070
   175
1070
     1
1070
   176
1070
    60
1070
   177
1070
    70
1070
   178
1070
    60
1070
   271
1070
     2
1070
   272
1070
     2
1070
   279
1070
     2
1070
   340
1005
1C
1002
}
  0
DIMENSION
  5
707F
330
2
100
AcDbEntity
  8
SUNPOU
100
AcDbDimension
  2
*D4
 10
1065.916566122654
 20
1928.646156616789
 30
0.0
 11
165.9165661226541
 21
1952.646156616788
 31
0.0
 70
    32
 71
     5
 42
1800.0
  3
STANDARD
100
AcDbAlignedDimension
 13
-734.0834338773461
 23
1731.028095693629
 33
0.0
 14
1065.916566122654
 24
1731.403095693629
 34
0.0
100
AcDbRotatedDimension
1001
ACAD
1000
DSTYLE
1002
{
1070
   287
1070
     5
1070
    40
1040
10.0
1070
    41
1040
3.0
1070
    73
1070
     0
1070
    74
1070
     0
1070
    77
1070
     1
1070
    78
1070
     8
1070
    79
1070
     2
1070
   140
1040
2.799999999999998
1070
   141
1040
5.0
1070
   146
1040
0.0642857142857143
1070
   147
1040
1.0
1070
   174
1070
     1
1070
   175
1070
     1
1070
   176
1070
    60
1070
   177
1070
    70
1070
   178
1070
    60
1070
   271
1070
     2
1070
   272
1070
     2
1070
   279
1070
     2
1070
   340
1005
1C
1002
}
  0
DIMENSION
  5
7080
330
2
100
AcDbEntity
  8
SUNPOU
100
AcDbDimension
  2
*D5
 10
969.9165661226542
 20
1843.549157365396
 30
0.0
 11
165.9165661226541
 21
1867.549157365395
 31
0.0
 70
    32
 71
     5
 42
1608.0
  3
STANDARD
100
AcDbAlignedDimension
 13
-638.083433877346
 23
1731.028095693629
 33
0.0
 14
969.9165661226542
 24
1731.028095693629
 34
0.0
100
AcDbRotatedDimension
1001
ACAD
1000
DSTYLE
1002
{
1070
   287
1070
     5
1070
    40
1040
10.0
1070
    41
1040
3.0
1070
    73
1070
     0
1070
    74
1070
     0
1070
    77
1070
     1
1070
    78
1070
     8
1070
    79
1070
     2
1070
   140
1040
2.799999999999998
1070
   141
1040
5.0
1070
   146
1040
0.0642857142857143
1070
   147
1040
1.0
1070
   174
1070
     1
1070
   175
1070
     1
1070
   176
1070
    60
1070
   177
1070
    70
1070
   178
1070
    60
1070
   271
1070
     2
1070
   272
1070
     2
1070
   279
1070
     2
1070
   340
1005
1C
1002
}
  0
LINE
  5
7081
330
2
100
AcDbEntity
  8
SUNPOU
 62
    70
100
AcDbLine
 10
-638.083433877346
 20
1647.446803577073
 30
0.0
 11
-638.083433877346
 21
1707.446803577073
 31
0.0
  0
LINE
  5
7082
330
2
100
AcDbEntity
  8
SUNPOU
 62
    70
100
AcDbLine
 10
-668.0834338773461
 20
1677.446803577073
 30
0.0
 11
-608.0834338773461
 21
1677.446803577073
 31
0.0
  0
DIMENSION
  5
7085
330
2
100
AcDbEntity
  8
SUNPOU
100
AcDbDimension
  2
*D6
 10
-638.0834338773532
 20
1677.446803577076
 30
0.0
 11
-547.1624250474228
 21
1408.219541056007
 31
0.0
 70
   164
 71
     5
 42
425.0000000000179
  3
STANDARD
100
AcDbRadialDimension
 15
-476.0000434857753
 25
1284.567719685879
 35
0.0
 40
0.0
1001
ACAD
1000
DSTYLE
1002
{
1070
   287
1070
     5
1070
    40
1040
10.0
1070
    41
1040
3.0
1070
    73
1070
     0
1070
    74
1070
     0
1070
    77
1070
     1
1070
    78
1070
     8
1070
    79
1070
     2
1070
   140
1040
2.799999999999998
1070
   141
1040
5.0
1070
   146
1040
0.0642857142857143
1070
   147
1040
1.0
1070
   174
1070
     1
1070
   175
1070
     1
1070
   176
1070
    60
1070
   177
1070
    70
1070
   178
1070
    60
1070
   271
1070
     2
1070
   272
1070
     2
1070
   279
1070
     2
1070
   340
1005
1C
1002
}
  0
DIMENSION
  5
7088
330
2
100
AcDbEntity
  8
SUNPOU
100
AcDbDimension
  2
*D7
 10
-960.3718378571979
 20
1252.446803577072
 30
0.0
 11
-996.371837857198
 21
1140.6388976554
 31
0.0
 70
   160
 71
     5
 42
60.0
  3
STANDARD
100
AcDbAlignedDimension
 13
-812.2972600537073
 23
1192.446803577072
 33
0.0
 14
-812.2972600537073
 24
1252.446803577072
 34
0.0
 50
90.0
100
AcDbRotatedDimension
1001
ACAD_DSTYLE_DIMEXT_ENABLED
1070
   383
1070
     1
1001
ACAD_DSTYLE_DIMEXT_LENGTH
1070
   378
1040
0.18
1001
ACAD
1000
DSTYLE
1002
{
1070
   172
1070
     1
1070
   287
1070
     5
1070
    40
1040
10.0
1070
    41
1040
3.0
1070
    73
1070
     0
1070
    74
1070
     0
1070
    77
1070
     1
1070
    78
1070
     8
1070
    79
1070
     2
1070
   140
1040
2.799999999999998
1070
   141
1040
5.0
1070
   146
1040
0.0642857142857143
1070
   147
1040
1.0
1070
   174
1070
     1
1070
   175
1070
     0
1070
   176
1070
    60
1070
   177
1070
    70
1070
   178
1070
    60
1070
   271
1070
     2
1070
   272
1070
     2
1070
   279
1070
     2
1070
   340
1005
1C
1002
}
  0
DIMENSION
  5
7089
330
2
100
AcDbEntity
  8
SUNPOU
100
AcDbDimension
  2
*D8
 10
-1028.086447489874
 20
1192.446803577072
 30
0.0
 11
-1052.086447489874
 21
1332.446803577072
 31
0.0
 70
    32
 71
     5
 42
280.0
  3
STANDARD
100
AcDbAlignedDimension
 13
-812.2972600537073
 23
1472.446803577073
 33
0.0
 14
-812.9222600537072
 24
1192.446803577072
 34
0.0
 50
90.0
100
AcDbRotatedDimension
1001
ACAD
1000
DSTYLE
1002
{
1070
   287
1070
     5
1070
    40
1040
10.0
1070
    41
1040
3.0
1070
    73
1070
     0
1070
    74
1070
     0
1070
    77
1070
     1
1070
    78
1070
     8
1070
    79
1070
     2
1070
   140
1040
2.799999999999998
1070
   141
1040
5.0
1070
   146
1040
0.0642857142857143
1070
   147
1040
1.0
1070
   174
1070
     1
1070
   175
1070
     1
1070
   176
1070
    60
1070
   177
1070
    70
1070
   178
1070
    60
1070
   271
1070
     2
1070
   272
1070
     2
1070
   279
1070
     2
1070
   340
1005
1C
1002
}
  0
DIMENSION
  5
708B
330
2
100
AcDbEntity
  8
SUNPOU
100
AcDbDimension
  2
*D9
 10
-960.3718378571979
 20
1472.446803577073
 30
0.0
 11
-984.3718378571981
 21
1362.446803577072
 31
0.0
 70
    32
 71
     5
 42
220.0
  3
STANDARD
100
AcDbAlignedDimension
 13
-812.9222600537072
 23
1252.446803577072
 33
0.0
 14
-812.9222600537072
 24
1472.446803577073
 34
0.0
 50
90.0
100
AcDbRotatedDimension
1001
ACAD
1000
DSTYLE
1002
{
1070
   287
1070
     5
1070
    40
1040
10.0
1070
    41
1040
3.0
1070
    73
1070
     0
1070
    74
1070
     0
1070
    77
1070
     1
1070
    78
1070
     8
1070
    79
1070
     2
1070
   140
1040
2.799999999999998
1070
   141
1040
5.0
1070
   146
1040
0.0642857142857143
1070
   147
1040
1.0
1070
   174
1070
     1
1070
   175
1070
     1
1070
   176
1070
    60
1070
   177
1070
    70
1070
   178
1070
    60
1070
   271
1070
     2
1070
   272
1070
     2
1070
   279
1070
     2
1070
   340
1005
1C
1002
}
  0
LINE
  5
708C
330
2
100
AcDbEntity
  8
HOJO
  6
CENTER
100
AcDbLine
 10
-638.083433877346
 20
1677.446803577073
 30
0.0
 11
-638.083433877346
 21
1252.446803577072
 31
0.0
  0
DIMENSION
  5
708E
330
2
100
AcDbEntity
  8
SUNPOU
100
AcDbDimension
  2
*D10
 10
-638.083433877346
 20
1843.549157365396
 30
0.0
 11
-686.0834338773461
 21
1867.549157365395
 31
0.0
 70
    32
 71
     5
 42
96.0
  3
STANDARD
100
AcDbAlignedDimension
 13
-734.0834338773461
 23
1731.028095693629
 33
0.0
 14
-638.083433877346
 24
1731.028095693629
 34
0.0
100
AcDbRotatedDimension
1001
ACAD
1000
DSTYLE
1002
{
1070
   287
1070
     5
1070
    40
1040
10.0
1070
    41
1040
3.0
1070
    73
1070
     0
1070
    74
1070
     0
1070
    77
1070
     1
1070
    78
1070
     8
1070
    79
1070
     2
1070
   140
1040
2.799999999999998
1070
   141
1040
5.0
1070
   146
1040
0.0642857142857143
1070
   147
1040
1.0
1070
   174
1070
     1
1070
   175
1070
     1
1070
   176
1070
    60
1070
   177
1070
    70
1070
   178
1070
    60
1070
   271
1070
     2
1070
   272
1070
     2
1070
   279
1070
     2
1070
   340
1005
1C
1002
}
  0
LINE
  5
708F
330
2
100
AcDbEntity
  8
SUNPOU
 62
    70
100
AcDbLine
 10
969.9165661226542
 20
1647.446803577073
 30
0.0
 11
969.9165661226542
 21
1707.446803577073
 31
0.0
  0
LINE
  5
7090
330
2
100
AcDbEntity
  8
SUNPOU
 62
    70
100
AcDbLine
 10
939.9165661226543
 20
1677.446803577073
 30
0.0
 11
999.9165661226543
 21
1677.446803577073
 31
0.0
  0
DIMENSION
  5
7095
330
2
100
AcDbEntity
  8
SUNPOU
100
AcDbDimension
  2
*D11
 10
239.971814051783
 20
535.8664695995648
 30
0.0
 11
776.3162709317086
 21
1081.122540865749
 31
0.0
 70
   162
 71
     5
 42
0.5688987925186684
  3
STANDARD
100
AcDb2LineAngularDimension
 13
969.9165661226542
 23
1677.446803577073
 33
0.0
 14
969.9165661226542
 24
1252.446803577072
 34
0.0
 15
969.9165661226606
 25
1677.446803577054
 35
0.0
 16
852.6413978147573
 26
1066.445210309397
 36
0.0
1001
ACAD
1000
DSTYLE
1002
{
1070
   287
1070
     5
1070
   271
1070
     1
1070
    40
1040
10.0
1070
    41
1040
3.0
1070
    73
1070
     0
1070
    74
1070
     0
1070
    77
1070
     1
1070
    78
1070
     8
1070
    79
1070
     2
1070
   140
1040
2.799999999999998
1070
   141
1040
5.0
1070
   146
1040
0.0642857142857143
1070
   147
1040
1.0
1070
   174
1070
     1
1070
   175
1070
     1
1070
   176
1070
    60
1070
   177
1070
    70
1070
   178
1070
    60
1070
   179
1070
     1
1070
   271
1070
     2
1070
   272
1070
     2
1070
   279
1070
     2
1070
   340
1005
1C
1002
}
  0
LINE
  5
7096
330
2
100
AcDbEntity
  8
HOJO
  6
CENTER
100
AcDbLine
 10
969.9165661226542
 20
1677.446803577073
 30
0.0
 11
239.9718140517607
 21
535.8664695995721
 31
0.0
  0
LINE
  5
7097
330
2
100
AcDbEntity
  8
HOJO
  6
CENTER
100
AcDbLine
 10
-72.11815936379252
 20
1451.29573007797
 30
0.0
 11
165.9165661226539
 21
122.4468035770696
 31
0.0
  0
DIMENSION
  5
7098
330
2
100
AcDbEntity
  8
SUNPOU
100
AcDbDimension
  2
*D12
 10
165.9165661226539
 20
122.4468035770696
 30
0.0
 11
168.5680884303174
 21
1293.20329807136
 31
0.0
 70
   162
 71
     5
 42
0.3544973365769888
  3
STANDARD
100
AcDb2LineAngularDimension
 13
403.9512916090847
 23
1451.29573007797
 33
0.0
 14
165.9165661226539
 24
122.4468035770696
 34
0.0
 15
-72.11815936379252
 25
1451.29573007797
 35
0.0
 16
97.33385376596448
 26
1281.883856751877
 36
0.0
1001
ACAD
1000
DSTYLE
1002
{
1070
   287
1070
     5
1070
   271
1070
     1
1070
    40
1040
10.0
1070
    41
1040
3.0
1070
    73
1070
     0
1070
    74
1070
     0
1070
    77
1070
     1
1070
    78
1070
     8
1070
    79
1070
     2
1070
   140
1040
2.799999999999998
1070
   141
1040
5.0
1070
   146
1040
0.0642857142857143
1070
   147
1040
1.0
1070
   174
1070
     1
1070
   175
1070
     1
1070
   176
1070
    60
1070
   177
1070
    70
1070
   178
1070
    60
1070
   179
1070
     1
1070
   271
1070
     2
1070
   272
1070
     2
1070
   279
1070
     2
1070
   340
1005
1C
1002
}
  0
LINE
  5
7099
330
2
100
AcDbEntity
  8
HOJO
  6
CENTER
100
AcDbLine
 10
403.9512916090847
 20
1451.29573007797
 30
0.0
 11
165.9165661226539
 21
122.4468035770696
 31
0.0
  0
DIMENSION
  5
709A
330
2
100
AcDbEntity
  8
SUNPOU
100
AcDbDimension
  2
*D13
 10
165.9165661226461
 20
122.4468035770733
 30
0.0
 11
514.9192035910918
 21
1227.94768166374
 31
0.0
 70
   162
 71
     5
 42
0.3916501242301729
  3
STANDARD
100
AcDb2LineAngularDimension
 13
969.9165661226542
 23
1677.446803577073
 33
0.0
 14
239.9718140517607
 24
535.8664695995721
 34
0.0
 15
403.9512916090925
 25
1451.295730077973
 35
0.0
 16
463.6255685784994
 26
1239.396869534565
 36
0.0
1001
ACAD
1000
DSTYLE
1002
{
1070
   287
1070
     5
1070
   271
1070
     1
1070
    40
1040
10.0
1070
    41
1040
3.0
1070
    73
1070
     0
1070
    74
1070
     0
1070
    77
1070
     1
1070
    78
1070
     8
1070
    79
1070
     2
1070
   140
1040
2.799999999999998
1070
   141
1040
5.0
1070
   146
1040
0.0642857142857143
1070
   147
1040
1.0
1070
   174
1070
     1
1070
   175
1070
     1
1070
   176
1070
    60
1070
   177
1070
    70
1070
   178
1070
    60
1070
   179
1070
     1
1070
   271
1070
     2
1070
   272
1070
     2
1070
   279
1070
     2
1070
   340
1005
1C
1002
}
  0
DIMENSION
  5
709B
330
2
100
AcDbEntity
  8
SUNPOU
100
AcDbDimension
  2
*D14
 10
165.9165661226552
 20
122.4468035770732
 30
0.0
 11
260.0570725900106
 21
1051.757516845717
 31
0.0
 70
   164
 71
     5
 42
1350.000000000002
  3
STANDARD
100
AcDbRadialDimension
 15
297.9683568808137
 25
1465.972882429869
 35
0.0
 40
0.0
1001
ACAD
1000
DSTYLE
1002
{
1070
   287
1070
     5
1070
    40
1040
10.0
1070
    41
1040
3.0
1070
    73
1070
     0
1070
    74
1070
     0
1070
    77
1070
     1
1070
    78
1070
     8
1070
    79
1070
     2
1070
   140
1040
2.799999999999998
1070
   141
1040
5.0
1070
   146
1040
0.0642857142857143
1070
   147
1040
1.0
1070
   174
1070
     1
1070
   175
1070
     1
1070
   176
1070
    60
1070
   177
1070
    70
1070
   178
1070
    60
1070
   271
1070
     2
1070
   272
1070
     2
1070
   279
1070
     2
1070
   340
1005
1C
1002
}
  0
LINE
  5
709C
330
2
100
AcDbEntity
  8
SUNPOU
 62
    70
100
AcDbLine
 10
135.9165661226539
 20
122.4468035770733
 30
0.0
 11
195.9165661226539
 21
122.4468035770733
 31
0.0
  0
LINE
  5
709D
330
2
100
AcDbEntity
  8
SUNPOU
 62
    70
100
AcDbLine
 10
165.9165661226539
 20
92.44680357707329
 30
0.0
 11
165.9165661226539
 21
152.4468035770733
 31
0.0
  0
LINE
  5
709E
330
2
100
AcDbEntity
  8
SUNPOU
 62
    70
100
AcDbLine
 10
61.86131819353204
 20
535.8664695995721
 30
0.0
 11
121.8613181935316
 21
535.8664695995721
 31
0.0
  0
LINE
  5
709F
330
2
100
AcDbEntity
  8
SUNPOU
 62
    70
100
AcDbLine
 10
91.86131819353205
 20
505.8664695995721
 30
0.0
 11
91.86131819353205
 21
565.8664695995721
 31
0.0
  0
LINE
  5
70A0
330
2
100
AcDbEntity
  8
SUNPOU
 62
    70
100
AcDbLine
 10
209.9718140517607
 20
535.8664695995721
 30
0.0
 11
269.9718140517607
 21
535.8664695995721
 31
0.0
  0
LINE
  5
70A1
330
2
100
AcDbEntity
  8
SUNPOU
 62
    70
100
AcDbLine
 10
239.9718140517607
 20
505.8664695995721
 30
0.0
 11
239.9718140517607
 21
565.8664695995721
 31
0.0
  0
LINE
  5
70AB
330
2
100
AcDbEntity
  8
HOJO
  6
CENTER
100
AcDbLine
 10
969.9165661226542
 20
1677.446803577073
 30
0.0
 11
969.9165661226542
 21
1252.446803577072
 31
0.0
  0
DIMENSION
  5
70AC
330
2
100
AcDbEntity
  8
SUNPOU
100
AcDbDimension
  2
*D15
 10
1158.355425647476
 20
1252.446803577072
 30
0.0
 11
1156.865425647476
 21
1222.446803577073
 31
0.0
 70
    32
 71
     5
 42
60.0
  3
STANDARD
100
AcDbAlignedDimension
 13
1148.358312647479
 23
1192.446803577072
 33
0.0
 14
1148.358312647479
 24
1252.446803577072
 34
0.0
 50
90.0
100
AcDbRotatedDimension
1001
ACAD
1000
DSTYLE
1002
{
1070
    41
1040
3.0
1070
    42
1040
2.0
1070
    44
1040
0.0
1070
    73
1070
     0
1070
    74
1070
     0
1070
    77
1070
     1
1070
   140
1040
2.799999999999998
1070
   141
1040
0.0
1070
   146
1040
0.064286
1070
   174
1070
     1
1070
   176
1070
    60
1070
   177
1070
    70
1070
   178
1070
    60
1070
   271
1070
     0
1002
}
  0
LINE
  5
70B0
330
2
100
AcDbEntity
  8
WAKU
100
AcDbLine
 10
1120.637271220624
 20
1141.667975599743
 30
0.0
 11
1175.637271220626
 21
1141.667975599743
 31
0.0
  0
LINE
  5
70B1
330
2
100
AcDbEntity
  8
WAKU
100
AcDbLine
 10
1120.637271220624
 20
1134.667975599743
 30
0.0
 11
1175.637271220626
 21
1134.667975599743
 31
0.0
  0
TEXT
  5
70B2
330
2
100
AcDbEntity
  8
HOJO
100
AcDbText
 10
1125.464253220625
 20
1135.851287599742
 30
0.0
 40
4.5
  1
1153-5
  7
SUNPOU
100
AcDbText
  0
TEXT
  5
70B3
330
2
100
AcDbEntity
  8
HOJO
100
AcDbText
 10
1152.120130220624
 20
1137.190168599743
 30
0.0
 40
3.0
  1
60×30
  7
SUNPOU
100
AcDbText
  0
DIMENSION
  5
70BA
330
2
100
AcDbEntity
  8
SUNPOU
100
AcDbDimension
  2
*D16
 10
1118.358312647477
 20
1262.509545577073
 30
0.0
 11
1133.358312647477
 21
1263.999545577072
 31
0.0
 70
    32
 71
     5
 42
30.00000000000182
  3
STANDARD
100
AcDbAlignedDimension
 13
1148.358312647479
 23
1252.446803577072
 33
0.0
 14
1118.358312647477
 24
1252.446803577072
 34
0.0
 50
180.0
100
AcDbRotatedDimension
1001
ACAD
1000
DSTYLE
1002
{
1070
    41
1040
3.0
1070
    42
1040
2.0
1070
    44
1040
0.0
1070
    73
1070
     0
1070
    74
1070
     0
1070
    77
1070
     1
1070
   140
1040
2.799999999999998
1070
   141
1040
0.0
1070
   146
1040
0.064286
1070
   174
1070
     1
1070
   176
1070
    60
1070
   177
1070
    70
1070
   178
1070
    60
1070
   271
1070
     0
1002
}
  0
DIMENSION
  5
70BC
330
2
100
AcDbEntity
  8
SUNPOU
100
AcDbDimension
  2
*D17
 10
1065.916566122654
 20
1843.549157365396
 30
0.0
 11
1017.916566122654
 21
1867.549157365395
 31
0.0
 70
    32
 71
     5
 42
96.0
  3
STANDARD
100
AcDbAlignedDimension
 13
969.9165661226542
 23
1731.028095693629
 33
0.0
 14
1065.916566122654
 24
1731.028095693629
 34
0.0
100
AcDbRotatedDimension
1001
ACAD
1000
DSTYLE
1002
{
1070
   287
1070
     5
1070
    40
1040
10.0
1070
    41
1040
3.0
1070
    73
1070
     0
1070
    74
1070
     0
1070
    77
1070
     1
1070
    78
1070
     8
1070
    79
1070
     2
1070
   140
1040
2.799999999999998
1070
   141
1040
5.0
1070
   146
1040
0.0642857142857143
1070
   147
1040
1.0
1070
   174
1070
     1
1070
   175
1070
     1
1070
   176
1070
    60
1070
   177
1070
    70
1070
   178
1070
    60
1070
   271
1070
     2
1070
   272
1070
     2
1070
   279
1070
     2
1070
   340
1005
1C
1002
}
  0
LWPOLYLINE
  5
72B6
330
2
100
AcDbEntity
  8
KIJUN
100
AcDbPolyline
 90
        9
 70
     1
 43
0.0
 10
1134.569194711537
 20
1200.709101121369
 42
0.6415407037140766
 10
1138.358312647478
 20
1192.446803577072
 10
1148.358312647479
 20
1192.446803577072
 10
1148.358312647479
 20
1252.446803577072
 10
1118.358312647477
 20
1252.446803577072
 10
1121.358312647477
 20
1236.446803577073
 10
1125.596956647477
 20
1236.446803577073
 42
-0.6623827067814161
 10
1126.315335412667
 20
1234.751151401252
 42
0.5563122373273787
 10
1130.293593084578
 20
1217.570429181894
 42
-0.5312269162900407
  0
LWPOLYLINE
  5
72C4
330
2
100
AcDbEntity
  8
KIJUN
100
AcDbPolyline
 90
       18
 70
     1
 43
0.0
 10
-734.0834338773461
 20
1192.446803577072
 10
-638.0834338773462
 20
1192.446803577072
 42
0.1431914886467914
 10
-376.8116960509832
 20
1268.836868537318
 42
-0.0976120361029465
 10
-61.53883823313444
 20
1392.235777788672
 42
-0.0443411931906343
 10
165.9165661226539
 20
1412.446803577073
 42
-0.0443411931906343
 10
393.3719704784422
 20
1392.235777788672
 42
-0.0967936552719837
 10
708.6448282962915
 20
1268.836868537318
 42
0.1431914886467914
 10
969.9165661226542
 20
1192.446803577072
 10
1065.916566122654
 20
1192.446803577072
 10
1065.916566122654
 20
1252.446803577072
 10
969.9165661226542
 20
1252.446803577072
 42
-0.1431914886467914
 10
740.9671051407899
 20
1319.386551222649
 42
0.0984272380785129
 10
403.9512916112697
 20
1451.295730077584
 42
0.0443411931906343
 10
165.9165661226539
 20
1472.446803577073
 42
0.0443411931906343
 10
-72.11815936596181
 20
1451.295730077584
 42
0.0825772341867032
 10
-409.1339728954816
 20
1319.386551222648
 42
-0.1431914886467914
 10
-638.0834338773462
 20
1252.446803577072
 10
-734.0834338773461
 20
1252.446803577072
  0
ENDSEC
  0
SECTION
  2
OBJECTS
  0
DICTIONARY
  5
1A
330
0
100
AcDbDictionary
281
     1
  3
ACAD_COLOR
350
144
  3
ACAD_GROUP
350
18
  3
ACAD_LAYOUT
350
58
  3
ACAD_MATERIAL
350
143
  3
ACAD_MLINESTYLE
350
19
  3
ACAD_PLOTSETTINGS
350
59
  3
ACAD_PLOTSTYLENAME
350
56
  3
ACAD_TABLESTYLE
350
145
  3
ACDBHEADERROUNDTRIPXREC
350
7307
  3
AcDbVariableDictionary
350
1D1
  0
DICTIONARY
  5
1B4
330
A
100
AcDbDictionary
280
     1
281
     1
  3
ACAD_LAYERFILTERS
360
72C6
  3
ACLYDICTIONARY
360
72C5
  0
DICTIONARY
  5
1578
330
2
100
AcDbDictionary
280
     1
281
     1
  3
ACAD_SORTENTS
360
1579
  0
DICTIONARY
  5
144
102
{ACAD_REACTORS
330
1A
102
}
330
1A
100
AcDbDictionary
281
     1
  0
DICTIONARY
  5
18
102
{ACAD_REACTORS
330
1A
102
}
330
1A
100
AcDbDictionary
281
     1
  3
*A1
350
CFC
  3
*A10
350
3BBC
  3
*A11
350
58EE
  3
*A12
350
18ED
  3
*A13
350
5A5E
  3
*A14
350
3D8C
  3
*A15
350
419F
  3
*A16
350
327B
  3
*A17
350
5AF5
  3
*A18
350
439B
  3
*A19
350
4590
  3
*A2
350
563B
  3
*A20
350
312A
  3
*A21
350
481A
  3
*A22
350
299B
  3
*A23
350
19E5
  3
*A24
350
46F3
  3
*A25
350
61CC
  3
*A26
350
2C07
  3
*A27
350
2DB5
  3
*A28
350
2FBC
  3
*A29
350
4B40
  3
*A3
350
38C3
  3
*A30
350
1827
  3
*A31
350
2E88
  3
*A32
350
640B
  3
*A33
350
6570
  3
*A34
350
5075
  3
*A35
350
5167
  3
*A36
350
15D1
  3
*A37
350
4CED
  3
*A38
350
3837
  3
*A39
350
4EB3
  3
*A4
350
3154
  3
*A40
350
32AA
  3
*A41
350
218C
  3
*A42
350
527D
  3
*A43
350
3FA3
  3
*A44
350
52B3
  3
*A45
350
1F8A
  3
*A46
350
2FE9
  3
*A47
350
3650
  3
*A48
350
2862
  3
*A49
350
367C
  3
*A5
350
39C3
  3
*A50
350
1682
  3
*A51
350
2108
  3
*A52
350
4989
  3
*A53
350
3732
  3
*A6
350
37CF
  3
*A7
350
2335
  3
*A8
350
5141
  3
*A9
350
3AB4
  0
DICTIONARY
  5
58
102
{ACAD_REACTORS
330
1A
102
}
330
1A
100
AcDbDictionary
281
     1
  3
Model
350
5A
  3
ﾚｲｱｳﾄ1
350
5B
  0
DICTIONARY
  5
143
102
{ACAD_REACTORS
330
1A
102
}
330
1A
100
AcDbDictionary
281
     1
  0
DICTIONARY
  5
19
102
{ACAD_REACTORS
330
1A
102
}
330
1A
100
AcDbDictionary
281
     1
  3
STANDARD
350
1D
  0
DICTIONARY
  5
59
102
{ACAD_REACTORS
330
1A
102
}
330
1A
100
AcDbDictionary
281
     1
  0
ACDBDICTIONARYWDFLT
  5
56
102
{ACAD_REACTORS
330
1A
102
}
330
1A
100
AcDbDictionary
281
     1
  3
Normal
350
57
100
AcDbDictionaryWithDefault
340
57
  0
DICTIONARY
  5
145
102
{ACAD_REACTORS
330
1A
102
}
330
1A
100
AcDbDictionary
281
     1
  3
Standard
350
146
  0
DICTIONARY
  5
7307
102
{ACAD_REACTORS
330
1A
102
}
330
1A
100
AcDbDictionary
281
     1
  0
DICTIONARY
  5
1D1
102
{ACAD_REACTORS
330
1A
102
}
330
1A
100
AcDbDictionary
281
     1
  3
CTABLESTYLE
350
1D2
  3
DIMASSOC
350
D03
  3
PROJECTNAME
350
D04
  0
DICTIONARY
  5
72C6
102
{ACAD_REACTORS
330
1B4
102
}
330
1B4
100
AcDbDictionary
281
     1
  0
DICTIONARY
  5
72C5
102
{ACAD_REACTORS
330
1B4
102
}
330
1B4
100
AcDbDictionary
281
     1
1001
ACAD
1000
<All
  0
SORTENTSTABLE
  5
1579
102
{ACAD_REACTORS
330
1578
102
}
330
1578
100
AcDbSortentsTable
330
2
331
709A
  5
709B
331
7095
  5
7096
331
70B3
  5
70BA
331
7090
  5
7090
331
7085
  5
7085
331
20
  5
20
331
7080
  5
7080
331
708B
  5
708B
331
70A0
  5
70A1
331
709B
  5
709C
331
707B
  5
707B
331
7096
  5
7097
331
21
  5
21
331
7081
  5
7081
331
708C
  5
708C
331
70A1
  5
70A2
331
70BA
  5
70BC
331
709C
  5
709D
331
707C
  5
707C
331
7097
  5
7098
331
72C4
  5
7092
331
70B0
  5
70B1
331
70AB
  5
70AC
331
7082
  5
7082
331
7088
  5
7088
331
709D
  5
709E
331
707D
  5
707D
331
7098
  5
7099
331
70B1
  5
70B2
331
1F
  5
1F
331
23
  5
23
331
70AC
  5
70AF
331
708E
  5
708E
331
70BC
  5
72C4
331
709E
  5
709F
331
707E
  5
707E
331
7089
  5
7089
331
7099
  5
709A
331
70B2
  5
70B3
331
708F
  5
708F
331
709F
  5
70A0
331
707F
  5
707F
  0
GROUP
  5
CFC
102
{ACAD_REACTORS
330
18
102
}
330
18
100
AcDbGroup
300

 70
     1
 71
     1
  0
GROUP
  5
3BBC
102
{ACAD_REACTORS
330
18
102
}
330
18
100
AcDbGroup
300

 70
     1
 71
     1
  0
GROUP
  5
58EE
102
{ACAD_REACTORS
330
18
102
}
330
18
100
AcDbGroup
300

 70
     1
 71
     1
  0
GROUP
  5
18ED
102
{ACAD_REACTORS
330
18
102
}
330
18
100
AcDbGroup
300

 70
     1
 71
     1
  0
GROUP
  5
5A5E
102
{ACAD_REACTORS
330
18
102
}
330
18
100
AcDbGroup
300

 70
     1
 71
     1
  0
GROUP
  5
3D8C
102
{ACAD_REACTORS
330
18
102
}
330
18
100
AcDbGroup
300

 70
     1
 71
     1
  0
GROUP
  5
419F
102
{ACAD_REACTORS
330
18
102
}
330
18
100
AcDbGroup
300

 70
     1
 71
     1
  0
GROUP
  5
327B
102
{ACAD_REACTORS
330
18
102
}
330
18
100
AcDbGroup
300

 70
     1
 71
     1
  0
GROUP
  5
5AF5
102
{ACAD_REACTORS
330
18
102
}
330
18
100
AcDbGroup
300

 70
     1
 71
     1
  0
GROUP
  5
439B
102
{ACAD_REACTORS
330
18
102
}
330
18
100
AcDbGroup
300

 70
     1
 71
     1
  0
GROUP
  5
4590
102
{ACAD_REACTORS
330
18
102
}
330
18
100
AcDbGroup
300

 70
     1
 71
     1
  0
GROUP
  5
563B
102
{ACAD_REACTORS
330
18
102
}
330
18
100
AcDbGroup
300

 70
     1
 71
     1
  0
GROUP
  5
312A
102
{ACAD_REACTORS
330
18
102
}
330
18
100
AcDbGroup
300

 70
     1
 71
     1
  0
GROUP
  5
481A
102
{ACAD_REACTORS
330
18
102
}
330
18
100
AcDbGroup
300

 70
     1
 71
     1
  0
GROUP
  5
299B
102
{ACAD_REACTORS
330
18
102
}
330
18
100
AcDbGroup
300

 70
     1
 71
     1
  0
GROUP
  5
19E5
102
{ACAD_REACTORS
330
18
102
}
330
18
100
AcDbGroup
300

 70
     1
 71
     1
  0
GROUP
  5
46F3
102
{ACAD_REACTORS
330
18
102
}
330
18
100
AcDbGroup
300

 70
     1
 71
     1
  0
GROUP
  5
61CC
102
{ACAD_REACTORS
330
18
102
}
330
18
100
AcDbGroup
300

 70
     1
 71
     1
  0
GROUP
  5
2C07
102
{ACAD_REACTORS
330
18
102
}
330
18
100
AcDbGroup
300

 70
     1
 71
     1
  0
GROUP
  5
2DB5
102
{ACAD_REACTORS
330
18
102
}
330
18
100
AcDbGroup
300

 70
     1
 71
     1
  0
GROUP
  5
2FBC
102
{ACAD_REACTORS
330
18
102
}
330
18
100
AcDbGroup
300

 70
     1
 71
     1
  0
GROUP
  5
4B40
102
{ACAD_REACTORS
330
18
102
}
330
18
100
AcDbGroup
300

 70
     1
 71
     1
  0
GROUP
  5
38C3
102
{ACAD_REACTORS
330
18
102
}
330
18
100
AcDbGroup
300

 70
     1
 71
     1
  0
GROUP
  5
1827
102
{ACAD_REACTORS
330
18
102
}
330
18
100
AcDbGroup
300

 70
     1
 71
     1
  0
GROUP
  5
2E88
102
{ACAD_REACTORS
330
18
102
}
330
18
100
AcDbGroup
300

 70
     1
 71
     1
  0
GROUP
  5
640B
102
{ACAD_REACTORS
330
18
102
}
330
18
100
AcDbGroup
300

 70
     1
 71
     1
  0
GROUP
  5
6570
102
{ACAD_REACTORS
330
18
102
}
330
18
100
AcDbGroup
300

 70
     1
 71
     1
  0
GROUP
  5
5075
102
{ACAD_REACTORS
330
18
102
}
330
18
100
AcDbGroup
300

 70
     1
 71
     1
  0
GROUP
  5
5167
102
{ACAD_REACTORS
330
18
102
}
330
18
100
AcDbGroup
300

 70
     1
 71
     1
  0
GROUP
  5
15D1
102
{ACAD_REACTORS
330
18
102
}
330
18
100
AcDbGroup
300

 70
     1
 71
     1
  0
GROUP
  5
4CED
102
{ACAD_REACTORS
330
18
102
}
330
18
100
AcDbGroup
300

 70
     1
 71
     1
  0
GROUP
  5
3837
102
{ACAD_REACTORS
330
18
102
}
330
18
100
AcDbGroup
300

 70
     1
 71
     1
  0
GROUP
  5
4EB3
102
{ACAD_REACTORS
330
18
102
}
330
18
100
AcDbGroup
300

 70
     1
 71
     1
  0
GROUP
  5
3154
102
{ACAD_REACTORS
330
18
102
}
330
18
100
AcDbGroup
300

 70
     1
 71
     1
  0
GROUP
  5
32AA
102
{ACAD_REACTORS
330
18
102
}
330
18
100
AcDbGroup
300

 70
     1
 71
     1
  0
GROUP
  5
218C
102
{ACAD_REACTORS
330
18
102
}
330
18
100
AcDbGroup
300

 70
     1
 71
     1
  0
GROUP
  5
527D
102
{ACAD_REACTORS
330
18
102
}
330
18
100
AcDbGroup
300

 70
     1
 71
     1
  0
GROUP
  5
3FA3
102
{ACAD_REACTORS
330
18
102
}
330
18
100
AcDbGroup
300

 70
     1
 71
     1
  0
GROUP
  5
52B3
102
{ACAD_REACTORS
330
18
102
}
330
18
100
AcDbGroup
300

 70
     1
 71
     1
  0
GROUP
  5
1F8A
102
{ACAD_REACTORS
330
18
102
}
330
18
100
AcDbGroup
300

 70
     1
 71
     1
  0
GROUP
  5
2FE9
102
{ACAD_REACTORS
330
18
102
}
330
18
100
AcDbGroup
300

 70
     1
 71
     1
  0
GROUP
  5
3650
102
{ACAD_REACTORS
330
18
102
}
330
18
100
AcDbGroup
300

 70
     1
 71
     1
  0
GROUP
  5
2862
102
{ACAD_REACTORS
330
18
102
}
330
18
100
AcDbGroup
300

 70
     1
 71
     1
  0
GROUP
  5
367C
102
{ACAD_REACTORS
330
18
102
}
330
18
100
AcDbGroup
300

 70
     1
 71
     1
  0
GROUP
  5
39C3
102
{ACAD_REACTORS
330
18
102
}
330
18
100
AcDbGroup
300

 70
     1
 71
     1
  0
GROUP
  5
1682
102
{ACAD_REACTORS
330
18
102
}
330
18
100
AcDbGroup
300

 70
     1
 71
     1
  0
GROUP
  5
2108
102
{ACAD_REACTORS
330
18
102
}
330
18
100
AcDbGroup
300

 70
     1
 71
     1
  0
GROUP
  5
4989
102
{ACAD_REACTORS
330
18
102
}
330
18
100
AcDbGroup
300

 70
     1
 71
     1
  0
GROUP
  5
3732
102
{ACAD_REACTORS
330
18
102
}
330
18
100
AcDbGroup
300

 70
     1
 71
     1
  0
GROUP
  5
37CF
102
{ACAD_REACTORS
330
18
102
}
330
18
100
AcDbGroup
300

 70
     1
 71
     1
  0
GROUP
  5
2335
102
{ACAD_REACTORS
330
18
102
}
330
18
100
AcDbGroup
300

 70
     1
 71
     1
  0
GROUP
  5
5141
102
{ACAD_REACTORS
330
18
102
}
330
18
100
AcDbGroup
300

 70
     1
 71
     1
  0
GROUP
  5
3AB4
102
{ACAD_REACTORS
330
18
102
}
330
18
100
AcDbGroup
300

 70
     1
 71
     1
  0
LAYOUT
  5
5A
102
{ACAD_XDICTIONARY
360
7308
102
}
102
{ACAD_REACTORS
330
58
102
}
330
58
100
AcDbPlotSettings
  1

  2
none_device
  4
Letter_(8.50_x_11.00_Inches)
  6

 40
6.349999904632568
 41
6.349999904632568
 42
6.350006103515625
 43
6.350006103515625
 44
215.8999938964844
 45
279.3999938964844
 46
0.0
 47
0.0
 48
0.0
 49
0.0
140
0.0
141
0.0
142
1.0
143
76.54229552604896
 70
 11952
 72
     0
 73
     1
 74
     0
  7
monochrome.ctb
 75
     0
147
0.0130646721936851
148
9973.459437949902
149
463.9633285297773
100
AcDbLayout
  1
Model
 70
     1
 71
     0
 10
0.0
 20
0.0
 11
12.0
 21
9.0
 12
0.0
 22
0.0
 32
0.0
 14
0.0
 24
0.0
 34
0.0
 15
0.0
 25
0.0
 35
0.0
146
0.0
 13
0.0
 23
0.0
 33
0.0
 16
1.0
 26
0.0
 36
0.0
 17
0.0
 27
1.0
 37
0.0
 76
     0
330
2
1001
ACAD_PSEXT
1000
なし
1000
なし
1000
適切ではありません
1000
新しいプロッタ環境設定名を選択しない限り、レイアウトは印刷されません。
1070
     0
  0
LAYOUT
  5
5B
102
{ACAD_XDICTIONARY
360
730A
102
}
102
{ACAD_REACTORS
330
58
102
}
330
58
100
AcDbPlotSettings
  1

  2
なし
  4

  6

 40
0.0
 41
0.0
 42
0.0
 43
0.0
 44
0.0
 45
0.0
 46
0.0
 47
0.0
 48
0.0
 49
0.0
140
0.0
141
0.0
142
1.0
143
1.0
 70
   688
 72
     0
 73
     0
 74
     5
  7
monochrome.ctb
 75
    16
147
1.0
148
0.0
149
0.0
100
AcDbLayout
  1
ﾚｲｱｳﾄ1
 70
     1
 71
     1
 10
0.0
 20
0.0
 11
12.0
 21
9.0
 12
0.0
 22
0.0
 32
0.0
 14
1.000000000000000E+20
 24
1.000000000000000E+20
 34
1.000000000000000E+20
 15
-1.000000000000000E+20
 25
-1.000000000000000E+20
 35
-1.000000000000000E+20
146
0.0
 13
0.0
 23
0.0
 33
0.0
 16
1.0
 26
0.0
 36
0.0
 17
0.0
 27
1.0
 37
0.0
 76
     0
330
7
  0
MLINESTYLE
  5
1D
102
{ACAD_REACTORS
330
19
102
}
330
19
100
AcDbMlineStyle
  2
STANDARD
 70
     0
  3

 62
   256
 51
90.0
 52
90.0
 71
     2
 49
0.5
 62
   256
  6
BYLAYER
 49
-0.5
 62
   256
  6
BYLAYER
  0
ACDBPLACEHOLDER
  5
57
102
{ACAD_REACTORS
330
56
102
}
330
56
  0
TABLESTYLE
  5
146
102
{ACAD_REACTORS
330
145
102
}
330
145
100
AcDbTableStyle
  3
Standard
 70
     0
 71
     0
 40
0.06
 41
0.06
280
     0
281
     0
  7
STANDARD
140
0.18
170
     2
 62
     0
 63
     7
283
     0
274
    -2
284
     1
 64
     0
275
    -2
285
     1
 65
     0
276
    -2
286
     1
 66
     0
277
    -2
287
     1
 67
     0
278
    -2
288
     1
 68
     0
279
    -2
289
     1
 69
     0
  7
STANDARD
140
0.25
170
     5
 62
     0
 63
     7
283
     0
274
    -2
284
     1
 64
     0
275
    -2
285
     1
 65
     0
276
    -2
286
     1
 66
     0
277
    -2
287
     1
 67
     0
278
    -2
288
     1
 68
     0
279
    -2
289
     1
 69
     0
  7
STANDARD
140
0.18
170
     5
 62
     0
 63
     7
283
     0
274
    -2
284
     1
 64
     0
275
    -2
285
     1
 65
     0
276
    -2
286
     1
 66
     0
277
    -2
287
     1
 67
     0
278
    -2
288
     1
 68
     0
279
    -2
289
     1
 69
     0
  0
DICTIONARYVAR
  5
1D2
102
{ACAD_REACTORS
330
1D1
102
}
330
1D1
100
DictionaryVariables
280
     0
  1
STANDARD
  0
DICTIONARYVAR
  5
D03
102
{ACAD_REACTORS
330
1D1
102
}
330
1D1
100
DictionaryVariables
280
     0
  1
1
  0
DICTIONARYVAR
  5
D04
102
{ACAD_REACTORS
330
1D1
102
}
330
1D1
100
DictionaryVariables
280
     0
  1

  0
DICTIONARY
  5
7308
330
5A
100
AcDbDictionary
280
     1
281
     1
  3
ACAD_XREC_ROUNDTRIP
360
7309
  0
DICTIONARY
  5
730A
330
5B
100
AcDbDictionary
280
     1
281
     1
  3
ACAD_XREC_ROUNDTRIP
360
730B
  0
XRECORD
  5
7309
102
{ACAD_REACTORS
330
7308
102
}
330
7308
100
AcDbXrecord
280
     1
102
SHADEPLOT
 70
     0
102
SHADEPLOTRESLEVEL
 70
     2
102
SHADEPLOTCUSTOMDPI
 70
   300
  0
XRECORD
  5
730B
102
{ACAD_REACTORS
330
730A
102
}
330
730A
100
AcDbXrecord
280
     1
102
SHADEPLOT
 70
     0
102
SHADEPLOTRESLEVEL
 70
     2
102
SHADEPLOTCUSTOMDPI
 70
   300
  0
ENDSEC
  0
EOF
