  0
SECTION
  2
HEADER
  9
$ACADVER
  1
AC1015
  9
$ACADMAINTVER
 70
    18
  9
$DWGCODEPAGE
  3
ANSI_932
  9
$INSBASE
 10
0.0
 20
0.0
 30
0.0
  9
$EXTMIN
 10
-327.0761246648367
 20
0.0
 30
0.0
  9
$EXTMAX
 10
608.9029385117919
 20
419.8865706978824
 30
0.0
  9
$LIMMIN
 10
0.0
 20
0.0
  9
$LIMMAX
 10
420.0
 20
297.0
  9
$ORTHOMODE
 70
     1
  9
$REGENMODE
 70
     1
  9
$FILLMODE
 70
     1
  9
$QTEXTMODE
 70
     0
  9
$MIRRTEXT
 70
     1
  9
$LTSCALE
 40
1.0
  9
$ATTMODE
 70
     1
  9
$TEXTSIZE
 40
30.0
  9
$TRACEWID
 40
0.05
  9
$TEXTSTYLE
  7
SUNPOU
  9
$CLAYER
  8
0
  9
$CELTYPE
  6
BYLAYER
  9
$CECOLOR
 62
   256
  9
$CELTSCALE
 40
1.0
  9
$DISPSILH
 70
     0
  9
$DIMSCALE
 40
1.0
  9
$DIMASZ
 40
2.0
  9
$DIMEXO
 40
10.0
  9
$DIMDLI
 40
0.38
  9
$DIMRND
 40
0.0
  9
$DIMDLE
 40
0.0
  9
$DIMEXE
 40
0.0
  9
$DIMTP
 40
0.0
  9
$DIMTM
 40
0.0
  9
$DIMTXT
 40
10.0
  9
$DIMCEN
 40
0.0
  9
$DIMTSZ
 40
0.0
  9
$DIMTOL
 70
     0
  9
$DIMLIM
 70
     0
  9
$DIMTIH
 70
     0
  9
$DIMTOH
 70
     0
  9
$DIMSE1
 70
     0
  9
$DIMSE2
 70
     0
  9
$DIMTAD
 70
     1
  9
$DIMZIN
 70
     0
  9
$DIMBLK
  1
Dot
  9
$DIMASO
 70
     1
  9
$DIMSHO
 70
     1
  9
$DIMPOST
  1

  9
$DIMAPOST
  1

  9
$DIMALT
 70
     0
  9
$DIMALTD
 70
     2
  9
$DIMALTF
 40
25.4
  9
$DIMLFAC
 40
1.0
  9
$DIMTOFL
 70
     0
  9
$DIMTVP
 40
0.0
  9
$DIMTIX
 70
     0
  9
$DIMSOXD
 70
     0
  9
$DIMSAH
 70
     0
  9
$DIMBLK1
  1

  9
$DIMBLK2
  1

  9
$DIMSTYLE
  2
STANDARD
  9
$DIMCLRD
 70
    60
  9
$DIMCLRE
 70
    70
  9
$DIMCLRT
 70
    60
  9
$DIMTFAC
 40
0.064286
  9
$DIMGAP
 40
3.0
  9
$DIMJUST
 70
     0
  9
$DIMSD1
 70
     0
  9
$DIMSD2
 70
     0
  9
$DIMTOLJ
 70
     1
  9
$DIMTZIN
 70
     0
  9
$DIMALTZ
 70
     0
  9
$DIMALTTZ
 70
     0
  9
$DIMUPT
 70
     0
  9
$DIMDEC
 70
     0
  9
$DIMTDEC
 70
     0
  9
$DIMALTU
 70
     2
  9
$DIMALTTD
 70
     2
  9
$DIMTXSTY
  7
SUNPOU
  9
$DIMAUNIT
 70
     0
  9
$DIMADEC
 70
     0
  9
$DIMALTRND
 40
0.0
  9
$DIMAZIN
 70
     0
  9
$DIMDSEP
 70
    46
  9
$DIMATFIT
 70
     3
  9
$DIMFRAC
 70
     0
  9
$DIMLDRBLK
  1

  9
$DIMLUNIT
 70
     2
  9
$DIMLWD
 70
    -2
  9
$DIMLWE
 70
    -2
  9
$DIMTMOVE
 70
     0
  9
$LUNITS
 70
     2
  9
$LUPREC
 70
     5
  9
$SKETCHINC
 40
0.1
  9
$FILLETRAD
 40
0.0
  9
$AUNITS
 70
     0
  9
$AUPREC
 70
     0
  9
$MENU
  1
acad
  9
$ELEVATION
 40
0.0
  9
$PELEVATION
 40
0.0
  9
$THICKNESS
 40
0.0
  9
$LIMCHECK
 70
     0
  9
$CHAMFERA
 40
0.0
  9
$CHAMFERB
 40
0.0
  9
$CHAMFERC
 40
0.0
  9
$CHAMFERD
 40
0.0
  9
$SKPOLY
 70
     0
  9
$TDCREATE
 40
2450623.654673033
  9
$TDUCREATE
 40
2450623.279673032
  9
$TDUPDATE
 40
2454998.419013866
  9
$TDUUPDATE
 40
2454998.044013866
  9
$TDINDWG
 40
0.5786287963
  9
$TDUSRTIMER
 40
0.5786280671
  9
$USRTIMER
 70
     1
  9
$ANGBASE
 50
0.0
  9
$ANGDIR
 70
     0
  9
$PDMODE
 70
     0
  9
$PDSIZE
 40
0.0
  9
$PLINEWID
 40
0.0
  9
$SPLFRAME
 70
     0
  9
$SPLINETYPE
 70
     6
  9
$SPLINESEGS
 70
     8
  9
$HANDSEED
  5
1B4
  9
$SURFTAB1
 70
     6
  9
$SURFTAB2
 70
     6
  9
$SURFTYPE
 70
     6
  9
$SURFU
 70
     6
  9
$SURFV
 70
     6
  9
$UCSBASE
  2

  9
$UCSNAME
  2

  9
$UCSORG
 10
0.0
 20
0.0
 30
0.0
  9
$UCSXDIR
 10
1.0
 20
0.0
 30
0.0
  9
$UCSYDIR
 10
0.0
 20
1.0
 30
0.0
  9
$UCSORTHOREF
  2

  9
$UCSORTHOVIEW
 70
     0
  9
$UCSORGTOP
 10
0.0
 20
0.0
 30
0.0
  9
$UCSORGBOTTOM
 10
0.0
 20
0.0
 30
0.0
  9
$UCSORGLEFT
 10
0.0
 20
0.0
 30
0.0
  9
$UCSORGRIGHT
 10
0.0
 20
0.0
 30
0.0
  9
$UCSORGFRONT
 10
0.0
 20
0.0
 30
0.0
  9
$UCSORGBACK
 10
0.0
 20
0.0
 30
0.0
  9
$PUCSBASE
  2

  9
$PUCSNAME
  2

  9
$PUCSORG
 10
0.0
 20
0.0
 30
0.0
  9
$PUCSXDIR
 10
1.0
 20
0.0
 30
0.0
  9
$PUCSYDIR
 10
0.0
 20
1.0
 30
0.0
  9
$PUCSORTHOREF
  2

  9
$PUCSORTHOVIEW
 70
     0
  9
$PUCSORGTOP
 10
0.0
 20
0.0
 30
0.0
  9
$PUCSORGBOTTOM
 10
0.0
 20
0.0
 30
0.0
  9
$PUCSORGLEFT
 10
0.0
 20
0.0
 30
0.0
  9
$PUCSORGRIGHT
 10
0.0
 20
0.0
 30
0.0
  9
$PUCSORGFRONT
 10
0.0
 20
0.0
 30
0.0
  9
$PUCSORGBACK
 10
0.0
 20
0.0
 30
0.0
  9
$USERI1
 70
     0
  9
$USERI2
 70
     0
  9
$USERI3
 70
     0
  9
$USERI4
 70
     0
  9
$USERI5
 70
     0
  9
$USERR1
 40
0.0
  9
$USERR2
 40
0.0
  9
$USERR3
 40
0.0
  9
$USERR4
 40
0.0
  9
$USERR5
 40
0.0
  9
$WORLDVIEW
 70
     1
  9
$SHADEDGE
 70
     3
  9
$SHADEDIF
 70
    70
  9
$TILEMODE
 70
     1
  9
$MAXACTVP
 70
    16
  9
$PINSBASE
 10
0.0
 20
0.0
 30
0.0
  9
$PLIMCHECK
 70
     0
  9
$PEXTMIN
 10
1.000000000000000E+20
 20
1.000000000000000E+20
 30
1.000000000000000E+20
  9
$PEXTMAX
 10
-1.000000000000000E+20
 20
-1.000000000000000E+20
 30
-1.000000000000000E+20
  9
$PLIMMIN
 10
0.0
 20
0.0
  9
$PLIMMAX
 10
12.0
 20
9.0
  9
$UNITMODE
 70
     0
  9
$VISRETAIN
 70
     0
  9
$PLINEGEN
 70
     0
  9
$PSLTSCALE
 70
     1
  9
$TREEDEPTH
 70
  3020
  9
$CMLSTYLE
  2
STANDARD
  9
$CMLJUST
 70
     0
  9
$CMLSCALE
 40
1.0
  9
$PROXYGRAPHICS
 70
     1
  9
$MEASUREMENT
 70
     0
  9
$CELWEIGHT
370
    -1
  9
$ENDCAPS
280
     0
  9
$JOINSTYLE
280
     0
  9
$LWDISPLAY
290
     0
  9
$INSUNITS
 70
     0
  9
$HYPERLINKBASE
  1

  9
$STYLESHEET
  1

  9
$XEDIT
290
     1
  9
$CEPSNTYPE
380
     0
  9
$PSTYLEMODE
290
     1
  9
$FINGERPRINTGUID
  2
{EC51DB16-2767-46A9-B927-8EABF286B66B}
  9
$VERSIONGUID
  2
{055F30DE-3618-4357-ADF8-30C30AA01744}
  9
$EXTNAMES
290
     1
  9
$PSVPSCALE
 40
0.0
  9
$OLESTARTUP
290
     0
  0
ENDSEC
  0
SECTION
  2
CLASSES
  0
CLASS
  1
DICTIONARYVAR
  2
AcDbDictionaryVar
  3
ObjectDBX Classes
 90
        0
280
     0
281
     0
  0
CLASS
  1
ACDBDICTIONARYWDFLT
  2
AcDbDictionaryWithDefault
  3
ObjectDBX Classes
 90
        0
280
     0
281
     0
  0
CLASS
  1
ACDBPLACEHOLDER
  2
AcDbPlaceHolder
  3
ObjectDBX Classes
 90
        0
280
     0
281
     0
  0
CLASS
  1
LAYOUT
  2
AcDbLayout
  3
ObjectDBX Classes
 90
        0
280
     0
281
     0
  0
CLASS
  1
TABLESTYLE
  2
AcDbTableStyle
  3
ObjectDBX Classes
 90
     4095
280
     0
281
     0
  0
CLASS
  1
SORTENTSTABLE
  2
AcDbSortentsTable
  3
ObjectDBX Classes
 90
        0
280
     0
281
     0
  0
CLASS
  1
MATERIAL
  2
AcDbMaterial
  3
ObjectDBX Classes
 90
     1153
280
     0
281
     0
  0
CLASS
  1
VISUALSTYLE
  2
AcDbVisualStyle
  3
ObjectDBX Classes
 90
     4095
280
     0
281
     0
  0
CLASS
  1
SCALE
  2
AcDbScale
  3
ObjectDBX Classes
 90
     1153
280
     0
281
     0
  0
CLASS
  1
MLEADERSTYLE
  2
AcDbMLeaderStyle
  3
ACDB_MLEADERSTYLE_CLASS
 90
    36863
280
     0
281
     0
  0
CLASS
  1
CELLSTYLEMAP
  2
AcDbCellStyleMap
  3
ObjectDBX Classes
 90
     1152
280
     0
281
     0
  0
CLASS
  1
ACDBSECTIONVIEWSTYLE
  2
AcDbSectionViewStyle
  3
ObjectDBX Classes
 90
    33793
280
     0
281
     0
  0
CLASS
  1
ACDBDETAILVIEWSTYLE
  2
AcDbDetailViewStyle
  3
ObjectDBX Classes
 90
    33793
280
     0
281
     0
  0
ENDSEC
  0
SECTION
  2
TABLES
  0
TABLE
  2
VPORT
  5
2C
330
0
100
AcDbSymbolTable
 70
     1
  0
VPORT
  5
2D
330
2C
100
AcDbSymbolTableRecord
100
AcDbViewportTableRecord
  2
*Active
 70
     0
 10
0.0
 20
0.0
 11
1.0
 21
1.0
 12
177.5383477270394
 22
194.4969139670229
 13
0.0
 23
0.0
 14
1.0
 24
1.0
 15
0.0
 25
0.0
 16
0.0
 26
0.0
 36
1.0
 17
0.0
 27
0.0
 37
0.0
 40
697.5404145558136
 41
2.036505867014341
 42
50.0
 43
0.0
 44
0.0
 50
0.0
 51
0.0
 71
     0
 72
 20000
 73
     1
 74
     1
 75
     0
 76
     0
 77
     0
 78
     0
281
     0
 65
     1
110
0.0
120
0.0
130
0.0
111
1.0
121
0.0
131
0.0
112
0.0
122
1.0
132
0.0
 79
     0
146
0.0
1001
ACAD_NAV_VCDISPLAY
1070
     3
  0
ENDTAB
  0
TABLE
  2
LTYPE
  5
27
330
0
100
AcDbSymbolTable
 70
     2
  0
LTYPE
  5
28
330
27
100
AcDbSymbolTableRecord
100
AcDbLinetypeTableRecord
  2
BYBLOCK
 70
     0
  3

 72
    65
 73
     0
 40
0.0
  0
LTYPE
  5
29
330
27
100
AcDbSymbolTableRecord
100
AcDbLinetypeTableRecord
  2
BYLAYER
 70
     0
  3

 72
    65
 73
     0
 40
0.0
  0
LTYPE
  5
16
330
27
100
AcDbSymbolTableRecord
100
AcDbLinetypeTableRecord
  2
CONTINUOUS
 70
     0
  3
Solid line
 72
    65
 73
     0
 40
0.0
  0
LTYPE
  5
CC
330
27
100
AcDbSymbolTableRecord
100
AcDbLinetypeTableRecord
  2
CENTER
 70
     0
  3
Center ____ _ ____ _ ____ _ ____ _ ____ _ ____
 72
    65
 73
     4
 40
50.8
 49
31.75
 74
     0
 49
-6.349999999999997
 74
     0
 49
6.349999999999997
 74
     0
 49
-6.349999999999997
 74
     0
  0
ENDTAB
  0
TABLE
  2
LAYER
  5
1F
102
{ACAD_XDICTIONARY
360
20
102
}
330
0
100
AcDbSymbolTable
 70
     7
  0
LAYER
  5
6
102
{ACAD_XDICTIONARY
360
7
102
}
330
1F
100
AcDbSymbolTableRecord
100
AcDbLayerTableRecord
  2
0
 70
     0
 62
     7
  6
CONTINUOUS
370
    -3
390
9
  0
LAYER
  5
AA
102
{ACAD_XDICTIONARY
360
AB
102
}
330
1F
100
AcDbSymbolTableRecord
100
AcDbLayerTableRecord
  2
KIJUN
 70
     0
 62
     7
  6
CONTINUOUS
370
    -3
390
9
  0
LAYER
  5
84
102
{ACAD_XDICTIONARY
360
85
102
}
330
1F
100
AcDbSymbolTableRecord
100
AcDbLayerTableRecord
  2
HOJO
 70
     0
 62
     3
  6
CONTINUOUS
370
    -3
390
9
  0
LAYER
  5
7F
102
{ACAD_XDICTIONARY
360
80
102
}
330
1F
100
AcDbSymbolTableRecord
100
AcDbLayerTableRecord
  2
WAKU
 70
     0
 62
     1
  6
CONTINUOUS
370
    -3
390
9
  0
LAYER
  5
94
330
1F
100
AcDbSymbolTableRecord
100
AcDbLayerTableRecord
  2
DEFPOINTS
 70
     0
 62
     7
  6
CONTINUOUS
290
     0
370
    -3
390
9
  0
LAYER
  5
12E
102
{ACAD_XDICTIONARY
360
12F
102
}
330
1F
100
AcDbSymbolTableRecord
100
AcDbLayerTableRecord
  2
SUNPOU
 70
     0
 62
    70
  6
CONTINUOUS
370
    -3
390
9
  0
LAYER
  5
C9
102
{ACAD_XDICTIONARY
360
CA
102
}
330
1F
100
AcDbSymbolTableRecord
100
AcDbLayerTableRecord
  2
CENTER
 70
     0
 62
     4
  6
CENTER
370
    -3
390
9
  0
ENDTAB
  0
TABLE
  2
STYLE
  5
24
330
0
100
AcDbSymbolTable
 70
     2
  0
STYLE
  5
25
330
24
100
AcDbSymbolTableRecord
100
AcDbTextStyleTableRecord
  2
STANDARD
 70
     0
 40
0.0
 41
1.0
 50
0.0
 71
     0
 42
0.2
  3
txt
  4

  0
STYLE
  5
52
330
24
100
AcDbSymbolTableRecord
100
AcDbTextStyleTableRecord
  2
SUNPOU
 70
     0
 40
0.0
 41
1.0
 50
0.0
 71
     0
 42
30.0
  3
txt
  4
bigfont
  0
ENDTAB
  0
TABLE
  2
VIEW
  5
2A
330
0
100
AcDbSymbolTable
 70
     0
  0
ENDTAB
  0
TABLE
  2
UCS
  5
2B
330
0
100
AcDbSymbolTable
 70
     0
  0
ENDTAB
  0
TABLE
  2
APPID
  5
31
330
0
100
AcDbSymbolTable
 70
     5
  0
APPID
  5
23
330
31
100
AcDbSymbolTableRecord
100
AcDbRegAppTableRecord
  2
ACAD
 70
     0
  0
APPID
  5
1A
330
31
100
AcDbSymbolTableRecord
100
AcDbRegAppTableRecord
  2
ACAD_PSEXT
 70
     0
  0
APPID
  5
34
330
31
100
AcDbSymbolTableRecord
100
AcDbRegAppTableRecord
  2
ACAD_DSTYLE_DIMJAG
 70
     0
  0
APPID
  5
35
330
31
100
AcDbSymbolTableRecord
100
AcDbRegAppTableRecord
  2
ACAD_DSTYLE_DIMTALN
 70
     0
  0
APPID
  5
30
330
31
100
AcDbSymbolTableRecord
100
AcDbRegAppTableRecord
  2
ACAD_NAV_VCDISPLAY
 70
     0
  0
ENDTAB
  0
TABLE
  2
DIMSTYLE
  5
32
330
0
100
AcDbSymbolTable
 70
     3
100
AcDbDimStyleTable
 71
     3
340
33
340
36
340
37
  0
DIMSTYLE
105
37
330
32
100
AcDbSymbolTableRecord
100
AcDbDimStyleTableRecord
  2
STANDARD
 70
     0
340
25
  0
DIMSTYLE
105
36
330
32
100
AcDbSymbolTableRecord
100
AcDbDimStyleTableRecord
  2
MIHASI
 70
     0
 41
3.0
 42
2.0
 43
1.0
 44
0.0
 73
     0
 74
     0
 77
     1
 78
     8
140
2.799999999999998
141
2.0
143
0.03937007874016
147
1.0
171
     3
172
     1
175
     1
176
     2
177
     2
178
     2
271
     3
272
     3
274
     3
283
     0
284
     8
288
     1
340
25
  0
DIMSTYLE
105
33
102
{ACAD_REACTORS
330
10A
330
114
330
E5
330
FF
330
F2
330
DB
330
18C
330
15A
330
13C
330
132
330
168
330
150
330
146
330
88
330
9C
330
BA
330
11E
330
AD
330
177
330
CE
102
}
330
32
100
AcDbSymbolTableRecord
100
AcDbDimStyleTableRecord
  2
ISO-25
 70
     0
 41
2.5
 42
0.625
 43
3.75
 44
1.25
 73
     0
 74
     0
 77
     1
 78
     8
140
2.5
141
2.5
143
0.03937007874016
147
0.625
171
     3
172
     1
271
     2
272
     2
274
     3
283
     0
284
     8
340
25
1001
ACAD_DSTYLE_DIMJAG
1070
   388
1040
1.5
1001
ACAD_DSTYLE_DIMTALN
1070
   392
1070
     0
  0
ENDTAB
  0
TABLE
  2
BLOCK_RECORD
  5
1
330
0
100
AcDbSymbolTable
 70
    21
  0
BLOCK_RECORD
  5
2
102
{ACAD_XDICTIONARY
360
3
102
}
330
1
100
AcDbSymbolTableRecord
100
AcDbBlockTableRecord
  2
*MODEL_SPACE
340
18
  0
BLOCK_RECORD
  5
1B
330
1
100
AcDbSymbolTableRecord
100
AcDbBlockTableRecord
  2
*PAPER_SPACE
340
1E
  0
BLOCK_RECORD
  5
53
330
1
100
AcDbSymbolTableRecord
100
AcDbBlockTableRecord
  2
_Dot
340
0
  0
BLOCK_RECORD
  5
89
330
1
100
AcDbSymbolTableRecord
100
AcDbBlockTableRecord
  2
*D1
340
0
  0
BLOCK_RECORD
  5
9D
330
1
100
AcDbSymbolTableRecord
100
AcDbBlockTableRecord
  2
*D2
340
0
  0
BLOCK_RECORD
  5
AE
330
1
100
AcDbSymbolTableRecord
100
AcDbBlockTableRecord
  2
*D3
340
0
  0
BLOCK_RECORD
  5
BB
330
1
100
AcDbSymbolTableRecord
100
AcDbBlockTableRecord
  2
*D4
340
0
  0
BLOCK_RECORD
  5
CF
330
1
100
AcDbSymbolTableRecord
100
AcDbBlockTableRecord
  2
*D5
340
0
  0
BLOCK_RECORD
  5
DC
330
1
100
AcDbSymbolTableRecord
100
AcDbBlockTableRecord
  2
*D6
340
0
  0
BLOCK_RECORD
  5
E6
330
1
100
AcDbSymbolTableRecord
100
AcDbBlockTableRecord
  2
*D7
340
0
  0
BLOCK_RECORD
  5
F3
330
1
100
AcDbSymbolTableRecord
100
AcDbBlockTableRecord
  2
*D8
340
0
  0
BLOCK_RECORD
  5
100
330
1
100
AcDbSymbolTableRecord
100
AcDbBlockTableRecord
  2
*D9
340
0
  0
BLOCK_RECORD
  5
10B
330
1
100
AcDbSymbolTableRecord
100
AcDbBlockTableRecord
  2
*D10
340
0
  0
BLOCK_RECORD
  5
115
330
1
100
AcDbSymbolTableRecord
100
AcDbBlockTableRecord
  2
*D11
340
0
  0
BLOCK_RECORD
  5
11F
330
1
100
AcDbSymbolTableRecord
100
AcDbBlockTableRecord
  2
*D12
340
0
  0
BLOCK_RECORD
  5
133
330
1
100
AcDbSymbolTableRecord
100
AcDbBlockTableRecord
  2
*D13
340
0
  0
BLOCK_RECORD
  5
13D
330
1
100
AcDbSymbolTableRecord
100
AcDbBlockTableRecord
  2
*D14
340
0
  0
BLOCK_RECORD
  5
147
330
1
100
AcDbSymbolTableRecord
100
AcDbBlockTableRecord
  2
*D15
340
0
  0
BLOCK_RECORD
  5
151
330
1
100
AcDbSymbolTableRecord
100
AcDbBlockTableRecord
  2
*D16
340
0
  0
BLOCK_RECORD
  5
15B
330
1
100
AcDbSymbolTableRecord
100
AcDbBlockTableRecord
  2
*D17
340
0
  0
BLOCK_RECORD
  5
169
330
1
100
AcDbSymbolTableRecord
100
AcDbBlockTableRecord
  2
*D18
340
0
  0
BLOCK_RECORD
  5
178
330
1
100
AcDbSymbolTableRecord
100
AcDbBlockTableRecord
  2
*D19
340
0
  0
BLOCK_RECORD
  5
18D
330
1
100
AcDbSymbolTableRecord
100
AcDbBlockTableRecord
  2
*D20
340
0
  0
ENDTAB
  0
ENDSEC
  0
SECTION
  2
BLOCKS
  0
BLOCK
  5
5
330
2
100
AcDbEntity
  8
0
100
AcDbBlockBegin
  2
*MODEL_SPACE
 70
     0
 10
0.0
 20
0.0
 30
0.0
  3
*MODEL_SPACE
  1

  0
ENDBLK
  5
17
330
2
100
AcDbEntity
  8
0
100
AcDbBlockEnd
  0
BLOCK
  5
1C
330
1B
100
AcDbEntity
 67
     1
  8
0
100
AcDbBlockBegin
  2
*PAPER_SPACE
 70
     0
 10
0.0
 20
0.0
 30
0.0
  3
*PAPER_SPACE
  1

  0
ENDBLK
  5
1D
330
1B
100
AcDbEntity
 67
     1
  8
0
100
AcDbBlockEnd
  0
BLOCK
  5
54
330
53
100
AcDbEntity
  8
0
100
AcDbBlockBegin
  2
_Dot
 70
     0
 10
0.0
 20
0.0
 30
0.0
  3
_Dot
  1

  0
LWPOLYLINE
  5
55
330
53
100
AcDbEntity
  8
0
  6
ByBlock
 62
     0
100
AcDbPolyline
 90
        2
 70
     1
 43
0.5
 10
-0.25
 20
0.0
 42
1.0
 10
0.25
 20
0.0
 42
1.0
  0
LINE
  5
56
330
53
100
AcDbEntity
  8
0
  6
ByBlock
 62
     0
370
    -2
100
AcDbLine
 10
-0.5
 20
0.0
 30
0.0
 11
-1.0
 21
0.0
 31
0.0
  0
ENDBLK
  5
57
330
53
100
AcDbEntity
  8
0
100
AcDbBlockEnd
  0
BLOCK
  5
8A
330
89
100
AcDbEntity
  8
0
100
AcDbBlockBegin
  2
*D1
 70
     1
 10
0.0
 20
0.0
 30
0.0
  3
*D1
  1

  0
LINE
  5
8B
330
89
100
AcDbEntity
  8
0
 62
     0
370
    -2
100
AcDbLine
 10
567.9029385117919
 20
201.0045005641748
 30
0.0
 11
567.9029385117919
 21
213.7386196291311
 31
0.0
  0
LINE
  5
8C
330
89
100
AcDbEntity
  8
0
 62
     0
370
    -2
100
AcDbLine
 10
588.9029385117919
 20
201.0045005641748
 30
0.0
 11
588.9029385117919
 21
213.7386196291311
 31
0.0
  0
LINE
  5
8D
330
89
100
AcDbEntity
  8
0
 62
     0
370
    -2
100
AcDbLine
 10
557.9029385117919
 20
212.4886196291311
 30
0.0
 11
547.9029385117919
 21
212.4886196291311
 31
0.0
  0
LINE
  5
8E
330
89
100
AcDbEntity
  8
0
 62
     0
370
    -2
100
AcDbLine
 10
598.9029385117919
 20
212.4886196291311
 30
0.0
 11
608.9029385117919
 21
212.4886196291311
 31
0.0
  0
LINE
  5
8F
330
89
100
AcDbEntity
  8
0
 62
     0
370
    -2
100
AcDbLine
 10
567.9029385117919
 20
212.4886196291311
 30
0.0
 11
588.9029385117919
 21
212.4886196291311
 31
0.0
  0
SOLID
  5
90
330
89
100
AcDbEntity
  8
0
 62
     0
100
AcDbTrace
 10
557.9029385117919
 20
214.1552862957978
 30
0.0
 11
557.9029385117919
 21
210.8219529624645
 31
0.0
 12
567.9029385117919
 22
212.4886196291311
 32
0.0
 13
567.9029385117919
 23
212.4886196291311
 33
0.0
  0
SOLID
  5
91
330
89
100
AcDbEntity
  8
0
 62
     0
100
AcDbTrace
 10
598.9029385117919
 20
214.1552862957978
 30
0.0
 11
598.9029385117919
 21
210.8219529624645
 31
0.0
 12
588.9029385117919
 22
212.4886196291311
 32
0.0
 13
588.9029385117919
 23
212.4886196291311
 33
0.0
  0
MTEXT
  5
92
330
89
100
AcDbEntity
  8
0
 62
     0
100
AcDbMText
 10
578.4029385117919
 20
221.4886196291311
 30
0.0
 40
8.0
 41
0.0
 71
     5
 72
     1
  1
21
 73
     1
 44
1.0
1001
ACAD
1000
MTEXTBEGIN
1070
    73
1070
     1
1070
    44
1040
1.0
1070
    74
1070
     0
1000
MTEXTEND
  0
POINT
  5
93
330
89
100
AcDbEntity
  8
DEFPOINTS
 62
     0
100
AcDbPoint
 10
567.9029385117919
 20
198.0045005641748
 30
0.0
  0
POINT
  5
95
330
89
100
AcDbEntity
  8
DEFPOINTS
 62
     0
100
AcDbPoint
 10
588.9029385117919
 20
198.0045005641748
 30
0.0
  0
POINT
  5
96
330
89
100
AcDbEntity
  8
DEFPOINTS
 62
     0
100
AcDbPoint
 10
588.9029385117919
 20
212.4886196291311
 30
0.0
  0
ENDBLK
  5
97
330
89
100
AcDbEntity
  8
0
100
AcDbBlockEnd
  0
BLOCK
  5
9E
330
9D
100
AcDbEntity
  8
0
100
AcDbBlockBegin
  2
*D2
 70
     1
 10
0.0
 20
0.0
 30
0.0
  3
*D2
  1

  0
LINE
  5
9F
330
9D
100
AcDbEntity
  8
0
 62
     0
370
    -2
100
AcDbLine
 10
564.9029385117919
 20
158.0045005641748
 30
0.0
 11
551.6294715117919
 21
158.0045005641748
 31
0.0
  0
LINE
  5
A0
330
9D
100
AcDbEntity
  8
0
 62
     0
370
    -2
100
AcDbLine
 10
564.9029385117919
 20
198.0045005641748
 30
0.0
 11
551.6294715117919
 21
198.0045005641748
 31
0.0
  0
LINE
  5
A1
330
9D
100
AcDbEntity
  8
0
 62
     0
370
    -2
100
AcDbLine
 10
552.8794715117919
 20
168.0045005641748
 30
0.0
 11
552.8794715117919
 21
188.0045005641748
 31
0.0
  0
SOLID
  5
A2
330
9D
100
AcDbEntity
  8
0
 62
     0
100
AcDbTrace
 10
551.2128048451253
 20
168.0045005641748
 30
0.0
 11
554.5461381784585
 21
168.0045005641748
 31
0.0
 12
552.8794715117919
 22
158.0045005641748
 32
0.0
 13
552.8794715117919
 23
158.0045005641748
 33
0.0
  0
SOLID
  5
A3
330
9D
100
AcDbEntity
  8
0
 62
     0
100
AcDbTrace
 10
551.2128048451253
 20
188.0045005641748
 30
0.0
 11
554.5461381784585
 21
188.0045005641748
 31
0.0
 12
552.8794715117919
 22
198.0045005641748
 32
0.0
 13
552.8794715117919
 23
198.0045005641748
 33
0.0
  0
MTEXT
  5
A4
330
9D
100
AcDbEntity
  8
0
 62
     0
100
AcDbMText
 10
543.879471511792
 20
178.0045005641749
 30
0.0
 40
8.0
 41
0.0
 71
     5
 72
     1
  1
40
 11
0.0000000000000001
 21
1.0
 31
0.0
 73
     1
 44
1.0
1001
ACAD
1000
MTEXTBEGIN
1070
    73
1070
     1
1070
    44
1040
1.0
1070
    74
1070
     0
1000
MTEXTEND
  0
POINT
  5
A5
330
9D
100
AcDbEntity
  8
DEFPOINTS
 62
     0
100
AcDbPoint
 10
567.9029385117919
 20
158.0045005641748
 30
0.0
  0
POINT
  5
A6
330
9D
100
AcDbEntity
  8
DEFPOINTS
 62
     0
100
AcDbPoint
 10
567.9029385117919
 20
198.0045005641748
 30
0.0
  0
POINT
  5
A7
330
9D
100
AcDbEntity
  8
DEFPOINTS
 62
     0
100
AcDbPoint
 10
552.8794715117919
 20
198.0045005641748
 30
0.0
  0
ENDBLK
  5
A8
330
9D
100
AcDbEntity
  8
0
100
AcDbBlockEnd
  0
BLOCK
  5
AF
330
AE
100
AcDbEntity
  8
0
100
AcDbBlockBegin
  2
*D3
 70
     1
 10
0.0
 20
0.0
 30
0.0
  3
*D3
  1

  0
ARC
  5
B0
330
AE
100
AcDbEntity
  8
0
 62
     0
370
    -2
100
AcDbCircle
 10
-79.0278290656704
 20
143.0045005641751
 30
0.0
 40
164.7755061393175
100
AcDbArc
 50
96.68810779322591
 51
124.7354743998762
  0
SOLID
  5
B1
330
AE
100
AcDbEntity
  8
0
 62
     0
100
AcDbTrace
 10
-98.36213004899843
 20
308.3191362330373
 30
0.0
 11
-98.07455290053257
 21
304.9982311614053
 31
0.0
 12
-88.2556262598694
 22
307.5214151426189
 32
0.0
 13
-88.2556262598694
 23
307.5214151426189
 33
0.0
  0
SOLID
  5
B2
330
AE
100
AcDbEntity
  8
0
 62
     0
100
AcDbTrace
 10
-171.9242365203975
 20
277.0753919748569
 30
0.0
 11
-173.9057790351349
 21
279.7558024608457
 31
0.0
 12
-180.9562392357328
 22
272.4709696736391
 32
0.0
 13
-180.9562392357328
 23
272.4709696736391
 33
0.0
  0
MTEXT
  5
B3
330
AE
100
AcDbEntity
  8
0
 62
     0
100
AcDbMText
 10
-136.0430517944951
 20
307.1604962242741
 30
0.0
 40
8.0
 41
0.0
 71
     5
 72
     1
  1
35\U+00B0
 11
0.9446440370514224
 21
0.3280970028256743
 31
0.0
 73
     1
 44
1.0
1001
ACAD
1000
MTEXTBEGIN
1070
    73
1070
     1
1070
    44
1040
1.0
1070
    74
1070
     0
1000
MTEXTEND
  0
POINT
  5
B4
330
AE
100
AcDbEntity
  8
DEFPOINTS
 62
     0
100
AcDbPoint
 10
-152.6676317757838
 20
290.4092049676772
 30
0.0
  0
POINT
  5
B5
330
AE
100
AcDbEntity
  8
DEFPOINTS
 62
     0
100
AcDbPoint
 10
-90.22827676618842
 20
342.6906292043684
 30
0.0
  0
POINT
  5
B6
330
AE
100
AcDbEntity
  8
DEFPOINTS
 62
     0
100
AcDbPoint
 10
-208.9316396333356
 20
308.004500564175
 30
0.0
  0
POINT
  5
B7
330
AE
100
AcDbEntity
  8
DEFPOINTS
 62
     0
100
AcDbPoint
 10
-79.0278290656704
 20
143.0045005641751
 30
0.0
  0
POINT
  5
B8
330
AE
100
AcDbEntity
  8
DEFPOINTS
 62
     0
100
AcDbPoint
 10
-79.0278290656704
 20
143.0045005641751
 30
0.0
  0
ENDBLK
  5
B9
330
AE
100
AcDbEntity
  8
0
100
AcDbBlockEnd
  0
BLOCK
  5
BC
330
BB
100
AcDbEntity
  8
0
100
AcDbBlockBegin
  2
*D4
 70
     1
 10
0.0
 20
0.0
 30
0.0
  3
*D4
  1

  0
LINE
  5
BD
330
BB
100
AcDbEntity
  8
0
 62
     0
370
    -2
100
AcDbLine
 10
-208.9316396333356
 20
155.004500564175
 30
0.0
 11
-208.9316396333356
 21
121.8369164829181
 31
0.0
  0
ARC
  5
BE
330
BB
100
AcDbEntity
  8
0
 62
     0
370
    -2
100
AcDbCircle
 10
-208.9316396333356
 20
308.004500564175
 30
0.0
 40
184.9175840812568
100
AcDbArc
 50
273.0988271718902
 51
305.1143835298479
  0
SOLID
  5
BF
330
BB
100
AcDbEntity
  8
0
 62
     0
100
AcDbTrace
 10
-198.8902307378267
 20
121.6912499142232
 30
0.0
 11
-198.9803609801694
 21
125.0233645056691
 31
0.0
 12
-208.9316396333356
 22
123.0869164829181
 32
0.0
 13
-208.9316396333356
 23
123.0869164829181
 33
0.0
  0
SOLID
  5
C0
330
BB
100
AcDbEntity
  8
0
 62
     0
100
AcDbTrace
 10
-103.5602784036788
 20
158.0778507226489
 30
0.0
 11
-101.5698836765816
 21
155.4040070582857
 31
0.0
 12
-94.54355004704067
 22
162.7121130717586
 32
0.0
 13
-94.54355004704067
 23
162.7121130717586
 33
0.0
  0
MTEXT
  5
C1
330
BB
100
AcDbEntity
  8
0
 62
     0
100
AcDbMText
 10
-151.7143958361733
 20
141.6519129640953
 30
0.0
 40
8.0
 41
0.0
 71
     5
 72
     1
  1
38\U+00B0
 11
0.9456279681696907
 21
0.3252502818065841
 31
0.0
 73
     1
 44
1.0
1001
ACAD
1000
MTEXTBEGIN
1070
    73
1070
     1
1070
    44
1040
1.0
1070
    74
1070
     0
1000
MTEXTEND
  0
POINT
  5
C2
330
BB
100
AcDbEntity
  8
DEFPOINTS
 62
     0
100
AcDbPoint
 10
-129.394020349956
 20
141.066547955486
 30
0.0
  0
POINT
  5
C3
330
BB
100
AcDbEntity
  8
DEFPOINTS
 62
     0
100
AcDbPoint
 10
-208.9316396333356
 20
308.004500564175
 30
0.0
  0
POINT
  5
C4
330
BB
100
AcDbEntity
  8
DEFPOINTS
 62
     0
100
AcDbPoint
 10
-208.9316396333356
 20
158.004500564175
 30
0.0
  0
POINT
  5
C5
330
BB
100
AcDbEntity
  8
DEFPOINTS
 62
     0
100
AcDbPoint
 10
-208.9316396333356
 20
308.004500564175
 30
0.0
  0
POINT
  5
C6
330
BB
100
AcDbEntity
  8
DEFPOINTS
 62
     0
100
AcDbPoint
 10
-79.02782906567039
 20
143.0045005641751
 30
0.0
  0
ENDBLK
  5
C7
330
BB
100
AcDbEntity
  8
0
100
AcDbBlockEnd
  0
BLOCK
  5
D0
330
CF
100
AcDbEntity
  8
0
100
AcDbBlockBegin
  2
*D5
 70
     1
 10
0.0
 20
0.0
 30
0.0
  3
*D5
  1

  0
LINE
  5
D1
330
CF
100
AcDbEntity
  8
0
 62
     0
370
    -2
100
AcDbLine
 10
-246.9316396333357
 20
198.0045005641749
 30
0.0
 11
-276.6481081786064
 21
198.0045005641749
 31
0.0
  0
LINE
  5
D2
330
CF
100
AcDbEntity
  8
0
 62
     0
370
    -2
100
AcDbLine
 10
-246.9316396333357
 20
158.0045005641749
 30
0.0
 11
-276.6481081786064
 21
158.0045005641749
 31
0.0
  0
LINE
  5
D3
330
CF
100
AcDbEntity
  8
0
 62
     0
370
    -2
100
AcDbLine
 10
-275.3981081786065
 20
188.0045005641749
 30
0.0
 11
-275.3981081786065
 21
168.0045005641749
 31
0.0
  0
SOLID
  5
D4
330
CF
100
AcDbEntity
  8
0
 62
     0
100
AcDbTrace
 10
-277.0647748452731
 20
188.0045005641749
 30
0.0
 11
-273.7314415119397
 21
188.0045005641749
 31
0.0
 12
-275.3981081786065
 22
198.0045005641749
 32
0.0
 13
-275.3981081786065
 23
198.0045005641749
 33
0.0
  0
SOLID
  5
D5
330
CF
100
AcDbEntity
  8
0
 62
     0
100
AcDbTrace
 10
-277.0647748452731
 20
168.0045005641749
 30
0.0
 11
-273.7314415119397
 21
168.0045005641749
 31
0.0
 12
-275.3981081786065
 22
158.0045005641749
 32
0.0
 13
-275.3981081786065
 23
158.0045005641749
 33
0.0
  0
MTEXT
  5
D6
330
CF
100
AcDbEntity
  8
0
 62
     0
100
AcDbMText
 10
-284.3981081786065
 20
177.3833458111264
 30
0.0
 40
8.0
 41
0.0
 71
     5
 72
     1
  1
40
 11
0.0000000000000001
 21
1.0
 31
0.0
 73
     1
 44
1.0
1001
ACAD
1000
MTEXTBEGIN
1070
    73
1070
     1
1070
    44
1040
1.0
1070
    74
1070
     0
1000
MTEXTEND
  0
POINT
  5
D7
330
CF
100
AcDbEntity
  8
DEFPOINTS
 62
     0
100
AcDbPoint
 10
-243.9316396333357
 20
198.0045005641749
 30
0.0
  0
POINT
  5
D8
330
CF
100
AcDbEntity
  8
DEFPOINTS
 62
     0
100
AcDbPoint
 10
-243.9316396333357
 20
158.0045005641749
 30
0.0
  0
POINT
  5
D9
330
CF
100
AcDbEntity
  8
DEFPOINTS
 62
     0
100
AcDbPoint
 10
-275.3981081786065
 20
158.0045005641749
 30
0.0
  0
ENDBLK
  5
DA
330
CF
100
AcDbEntity
  8
0
100
AcDbBlockEnd
  0
BLOCK
  5
DD
330
DC
100
AcDbEntity
  8
0
100
AcDbBlockBegin
  2
*D6
 70
     1
 10
0.0
 20
0.0
 30
0.0
  3
*D6
  1

  0
LINE
  5
DE
330
DC
100
AcDbEntity
  8
0
 62
     0
370
    -2
100
AcDbLine
 10
274.7123648221483
 20
141.4227990716008
 30
0.0
 11
312.769857592824
 21
240.0640006142726
 31
0.0
  0
MTEXT
  5
DF
330
DC
100
AcDbEntity
  8
0
 62
     0
100
AcDbMText
 10
272.4348895594476
 20
160.5228803915268
 30
0.0
 40
8.0
 41
0.0
 71
     5
 72
     1
  1
R100
 11
0.3599558173335714
 21
0.9329693508190505
 31
0.0
 73
     1
 44
1.0
1001
ACAD
1000
MTEXTBEGIN
1070
    73
1070
     1
1070
    44
1040
1.0
1070
    74
1070
     0
1000
MTEXTEND
  0
LINE
  5
E0
330
DC
100
AcDbEntity
  8
0
 62
     0
370
    -2
100
AcDbLine
 10
352.3649974995169
 20
342.6906292043681
 30
0.0
 11
316.3694157661597
 21
249.3936941224631
 31
0.0
  0
SOLID
  5
E1
330
DC
100
AcDbEntity
  8
0
 62
     0
100
AcDbTrace
 10
311.2149086747923
 20
240.6639269764952
 30
0.0
 11
314.3248065108557
 21
239.46407425205
 31
0.0
 12
316.3694157661597
 22
249.3936941224631
 32
0.0
 13
316.3694157661597
 23
249.3936941224631
 33
0.0
  0
POINT
  5
E2
330
DC
100
AcDbEntity
  8
DEFPOINTS
 62
     0
100
AcDbPoint
 10
316.3694157661597
 20
249.3936941224631
 30
0.0
  0
POINT
  5
E3
330
DC
100
AcDbEntity
  8
DEFPOINTS
 62
     0
100
AcDbPoint
 10
352.3649974995169
 20
342.6906292043681
 30
0.0
  0
ENDBLK
  5
E4
330
DC
100
AcDbEntity
  8
0
100
AcDbBlockEnd
  0
BLOCK
  5
E7
330
E6
100
AcDbEntity
  8
0
100
AcDbBlockBegin
  2
*D7
 70
     1
 10
0.0
 20
0.0
 30
0.0
  3
*D7
  1

  0
ARC
  5
E8
330
E6
100
AcDbEntity
  8
0
 62
     0
370
    -2
100
AcDbCircle
 10
131.0683603666644
 20
188.0045005641749
 30
0.0
 40
95.06367564335581
100
AcDbArc
 50
40.98338743447379
 51
139.0166125655261
  0
SOLID
  5
E9
330
E6
100
AcDbEntity
  8
0
 62
     0
100
AcDbTrace
 10
204.1458232389694
 20
251.376457590163
 30
0.0
 11
201.5179910334051
 21
249.3256994351114
 31
0.0
 12
208.984181601342
 22
242.4675818959445
 32
0.0
 13
208.984181601342
 23
242.4675818959445
 33
0.0
  0
SOLID
  5
EA
330
E6
100
AcDbEntity
  8
0
 62
     0
100
AcDbTrace
 10
60.61872969992375
 20
249.3256994351114
 30
0.0
 11
57.99089749435951
 21
251.376457590163
 31
0.0
 12
53.15253913198693
 22
242.4675818959445
 32
0.0
 13
53.15253913198693
 23
242.4675818959445
 33
0.0
  0
MTEXT
  5
EB
330
E6
100
AcDbEntity
  8
0
 62
     0
100
AcDbMText
 10
129.4559448565652
 20
292.055683664745
 30
0.0
 40
8.0
 41
0.0
 71
     5
 72
     1
  1
110\U+00B0
 11
0.9998799528970266
 21
0.0154945085317298
 31
0.0
 73
     1
 44
1.0
1001
ACAD
1000
MTEXTBEGIN
1070
    73
1070
     1
1070
    44
1040
1.0
1070
    74
1070
     0
1000
MTEXTEND
  0
POINT
  5
EC
330
E6
100
AcDbEntity
  8
DEFPOINTS
 62
     0
100
AcDbPoint
 10
160.9945464548429
 20
278.2349046031733
 30
0.0
  0
POINT
  5
ED
330
E6
100
AcDbEntity
  8
DEFPOINTS
 62
     0
100
AcDbPoint
 10
131.0683603666645
 20
188.0045005641749
 30
0.0
  0
POINT
  5
EE
330
E6
100
AcDbEntity
  8
DEFPOINTS
 62
     0
100
AcDbPoint
 10
131.0683603666642
 20
188.0045005641749
 30
0.0
  0
POINT
  5
EF
330
E6
100
AcDbEntity
  8
DEFPOINTS
 62
     0
100
AcDbPoint
 10
352.3649974995171
 20
342.6906292043685
 30
0.0
  0
POINT
  5
F0
330
E6
100
AcDbEntity
  8
DEFPOINTS
 62
     0
100
AcDbPoint
 10
-90.22827676618843
 20
342.6906292043688
 30
0.0
  0
ENDBLK
  5
F1
330
E6
100
AcDbEntity
  8
0
100
AcDbBlockEnd
  0
BLOCK
  5
F4
330
F3
100
AcDbEntity
  8
0
100
AcDbBlockBegin
  2
*D8
 70
     1
 10
0.0
 20
0.0
 30
0.0
  3
*D8
  1

  0
ARC
  5
F5
330
F3
100
AcDbEntity
  8
0
 62
     0
370
    -2
100
AcDbCircle
 10
352.3649974995172
 20
342.6906292043685
 30
0.0
 40
174.8948641565294
100
AcDbArc
 50
218.2299693089492
 51
263.5131693981616
  0
SOLID
  5
F6
330
F3
100
AcDbEntity
  8
0
 62
     0
100
AcDbTrace
 10
213.6410819984287
 20
233.4687854751365
 30
0.0
 11
216.3174267440636
 21
235.4558159010796
 31
0.0
 12
209.0181630934169
 22
242.4913349250127
 32
0.0
 13
209.0181630934169
 23
242.4913349250127
 33
0.0
  0
SOLID
  5
F7
330
F3
100
AcDbEntity
  8
0
 62
     0
100
AcDbTrace
 10
332.7471502032484
 20
170.5761708921405
 30
0.0
 11
332.4654065816359
 21
167.254765821573
 31
0.0
 12
342.5704936041447
 22
168.0702374920189
 32
0.0
 13
342.5704936041447
 23
168.0702374920189
 33
0.0
  0
MTEXT
  5
F8
330
F3
100
AcDbEntity
  8
0
 62
     0
100
AcDbMText
 10
264.532750285968
 20
201.9546981031342
 30
0.0
 40
8.0
 41
0.0
 71
     5
 72
     1
  1
52\U+00B0
 11
0.8483441112947501
 21
-0.5294452463017498
 31
0.0
 73
     1
 44
1.0
1001
ACAD
1000
MTEXTBEGIN
1070
    73
1070
     1
1070
    44
1040
1.0
1070
    74
1070
     0
1000
MTEXTEND
  0
POINT
  5
F9
330
F3
100
AcDbEntity
  8
DEFPOINTS
 62
     0
100
AcDbPoint
 10
291.1467554026316
 20
178.8598007779152
 30
0.0
  0
POINT
  5
FA
330
F3
100
AcDbEntity
  8
DEFPOINTS
 62
     0
100
AcDbPoint
 10
131.0683603666643
 20
188.0045005641749
 30
0.0
  0
POINT
  5
FB
330
F3
100
AcDbEntity
  8
DEFPOINTS
 62
     0
100
AcDbPoint
 10
352.3649974995172
 20
342.6906292043684
 30
0.0
  0
POINT
  5
FC
330
F3
100
AcDbEntity
  8
DEFPOINTS
 62
     0
100
AcDbPoint
 10
341.1645497989987
 20
143.0045005641751
 30
0.0
  0
POINT
  5
FD
330
F3
100
AcDbEntity
  8
DEFPOINTS
 62
     0
100
AcDbPoint
 10
352.3649974995171
 20
342.6906292043685
 30
0.0
  0
ENDBLK
  5
FE
330
F3
100
AcDbEntity
  8
0
100
AcDbBlockEnd
  0
BLOCK
  5
101
330
100
100
AcDbEntity
  8
0
100
AcDbBlockBegin
  2
*D9
 70
     1
 10
0.0
 20
0.0
 30
0.0
  3
*D9
  1

  0
LINE
  5
102
330
100
100
AcDbEntity
  8
0
 62
     0
370
    -2
100
AcDbLine
 10
202.5093736527055
 20
166.4371824258229
 30
0.0
 11
255.2026057147423
 21
228.4125927202653
 31
0.0
  0
MTEXT
  5
103
330
100
100
AcDbEntity
  8
0
 62
     0
100
AcDbMText
 10
207.0962620516439
 20
185.7263391188149
 30
0.0
 40
8.0
 41
0.0
 71
     5
 72
     1
  1
R140
 11
0.6477492785651629
 21
0.7618535765606874
 31
0.0
 73
     1
 44
1.0
1001
ACAD
1000
MTEXTBEGIN
1070
    73
1070
     1
1070
    44
1040
1.0
1070
    74
1070
     0
1000
MTEXTEND
  0
LINE
  5
104
330
100
100
AcDbEntity
  8
0
 62
     0
370
    -2
100
AcDbLine
 10
352.3649974995166
 20
342.6906292043683
 30
0.0
 11
261.6800985003939
 21
236.0311284858722
 31
0.0
  0
SOLID
  5
105
330
100
100
AcDbEntity
  8
0
 62
     0
100
AcDbTrace
 10
253.9328497538078
 20
229.4921748512072
 30
0.0
 11
256.4723616756768
 21
227.3330105893234
 31
0.0
 12
261.6800985003939
 22
236.0311284858722
 32
0.0
 13
261.6800985003939
 23
236.0311284858722
 33
0.0
  0
POINT
  5
106
330
100
100
AcDbEntity
  8
DEFPOINTS
 62
     0
100
AcDbPoint
 10
261.6800985003939
 20
236.0311284858722
 30
0.0
  0
POINT
  5
107
330
100
100
AcDbEntity
  8
DEFPOINTS
 62
     0
100
AcDbPoint
 10
352.3649974995166
 20
342.6906292043683
 30
0.0
  0
ENDBLK
  5
108
330
100
100
AcDbEntity
  8
0
100
AcDbBlockEnd
  0
BLOCK
  5
10C
330
10B
100
AcDbEntity
  8
0
100
AcDbBlockBegin
  2
*D10
 70
     1
 10
0.0
 20
0.0
 30
0.0
  3
*D10
  1

  0
LINE
  5
10D
330
10B
100
AcDbEntity
  8
0
 62
     0
370
    -2
100
AcDbLine
 10
217.4956457646276
 20
419.8865706978824
 30
0.0
 11
193.93343541707
 21
356.669797347203
 31
0.0
  0
MTEXT
  5
10E
330
10B
100
AcDbEntity
  8
0
 62
     0
100
AcDbMText
 10
202.8922902260845
 20
406.4756379142907
 30
0.0
 40
8.0
 41
0.0
 71
     5
 72
     1
  1
R170
 11
0.3492504169466976
 21
0.9370294265723771
 31
0.0
 73
     1
 44
1.0
1001
ACAD
1000
MTEXTBEGIN
1070
    73
1070
     1
1070
    44
1040
1.0
1070
    74
1070
     0
1000
MTEXTEND
  0
LINE
  5
10F
330
10B
100
AcDbEntity
  8
0
 62
     0
370
    -2
100
AcDbLine
 10
131.0683603666642
 20
188.0045005641746
 30
0.0
 11
190.440931247603
 21
347.2995030814793
 31
0.0
  0
SOLID
  5
110
330
10B
100
AcDbEntity
  8
0
 62
     0
100
AcDbTrace
 10
192.371719706116
 20
357.2518813754475
 30
0.0
 11
195.4951511280239
 21
356.0877133189586
 31
0.0
 12
190.440931247603
 22
347.2995030814793
 32
0.0
 13
190.440931247603
 23
347.2995030814793
 33
0.0
  0
POINT
  5
111
330
10B
100
AcDbEntity
  8
DEFPOINTS
 62
     0
100
AcDbPoint
 10
190.440931247603
 20
347.2995030814793
 30
0.0
  0
POINT
  5
112
330
10B
100
AcDbEntity
  8
DEFPOINTS
 62
     0
100
AcDbPoint
 10
131.0683603666642
 20
188.0045005641746
 30
0.0
  0
ENDBLK
  5
113
330
10B
100
AcDbEntity
  8
0
100
AcDbBlockEnd
  0
BLOCK
  5
116
330
115
100
AcDbEntity
  8
0
100
AcDbBlockBegin
  2
*D11
 70
     1
 10
0.0
 20
0.0
 30
0.0
  3
*D11
  1

  0
LINE
  5
117
330
115
100
AcDbEntity
  8
0
 62
     0
370
    -2
100
AcDbLine
 10
260.7941588240225
 20
371.238197870332
 30
0.0
 11
211.9639040512724
 21
302.2669660196861
 31
0.0
  0
MTEXT
  5
118
330
115
100
AcDbEntity
  8
0
 62
     0
100
AcDbMText
 10
243.2404674369201
 20
362.0197907520995
 30
0.0
 40
8.0
 41
0.0
 71
     5
 72
     1
  1
R130
 11
0.5778253120329119
 21
0.8161604675393608
 31
0.0
 73
     1
 44
1.0
1001
ACAD
1000
MTEXTBEGIN
1070
    73
1070
     1
1070
    44
1040
1.0
1070
    74
1070
     0
1000
MTEXTEND
  0
LINE
  5
119
330
115
100
AcDbEntity
  8
0
 62
     0
370
    -2
100
AcDbLine
 10
131.0683603666641
 20
188.0045005641747
 30
0.0
 11
206.1856509309433
 21
294.1053613442925
 31
0.0
  0
SOLID
  5
11A
330
115
100
AcDbEntity
  8
0
 62
     0
100
AcDbTrace
 10
210.6036366053735
 20
303.2300082064076
 30
0.0
 11
213.3241714971714
 21
301.3039238329646
 31
0.0
 12
206.1856509309433
 22
294.1053613442925
 32
0.0
 13
206.1856509309433
 23
294.1053613442925
 33
0.0
  0
POINT
  5
11B
330
115
100
AcDbEntity
  8
DEFPOINTS
 62
     0
100
AcDbPoint
 10
206.1856509309433
 20
294.1053613442925
 30
0.0
  0
POINT
  5
11C
330
115
100
AcDbEntity
  8
DEFPOINTS
 62
     0
100
AcDbPoint
 10
131.0683603666641
 20
188.0045005641747
 30
0.0
  0
ENDBLK
  5
11D
330
115
100
AcDbEntity
  8
0
100
AcDbBlockEnd
  0
BLOCK
  5
120
330
11F
100
AcDbEntity
  8
0
100
AcDbBlockBegin
  2
*D12
 70
     1
 10
0.0
 20
0.0
 30
0.0
  3
*D12
  1

  0
ARC
  5
121
330
11F
100
AcDbEntity
  8
0
 62
     0
370
    -2
100
AcDbCircle
 10
-90.22827676618843
 20
342.6906292043687
 30
0.0
 40
174.8948641565298
100
AcDbArc
 50
276.4868306018383
 51
321.7700306910507
  0
SOLID
  5
122
330
11F
100
AcDbEntity
  8
0
 62
     0
100
AcDbTrace
 10
-70.32868584830744
 20
167.2547658215727
 30
0.0
 11
-70.61042946992003
 21
170.5761708921402
 31
0.0
 12
-80.43377287081634
 22
168.0702374920186
 32
0.0
 13
-80.43377287081634
 23
168.0702374920186
 33
0.0
  0
SOLID
  5
123
330
11F
100
AcDbEntity
  8
0
 62
     0
100
AcDbTrace
 10
45.81929398926527
 20
235.4558159010793
 30
0.0
 11
48.49563873490021
 21
233.4687854751362
 31
0.0
 12
53.118557639912
 22
242.4913349250124
 32
0.0
 13
53.118557639912
 23
242.4913349250124
 33
0.0
  0
MTEXT
  5
124
330
11F
100
AcDbEntity
  8
0
 62
     0
100
AcDbMText
 10
-2.396029552639475
 20
201.9546981031339
 30
0.0
 40
8.0
 41
0.0
 71
     5
 72
     1
  1
52\U+00B0
 11
0.848344111294751
 21
0.5294452463017484
 31
0.0
 73
     1
 44
1.0
1001
ACAD
1000
MTEXTBEGIN
1070
    73
1070
     1
1070
    44
1040
1.0
1070
    74
1070
     0
1000
MTEXTEND
  0
POINT
  5
125
330
11F
100
AcDbEntity
  8
DEFPOINTS
 62
     0
100
AcDbPoint
 10
-29.01003466930291
 20
178.8598007779149
 30
0.0
  0
POINT
  5
126
330
11F
100
AcDbEntity
  8
DEFPOINTS
 62
     0
100
AcDbPoint
 10
131.0683603666641
 20
188.0045005641749
 30
0.0
  0
POINT
  5
127
330
11F
100
AcDbEntity
  8
DEFPOINTS
 62
     0
100
AcDbPoint
 10
-90.22827676618843
 20
342.6906292043685
 30
0.0
  0
POINT
  5
128
330
11F
100
AcDbEntity
  8
DEFPOINTS
 62
     0
100
AcDbPoint
 10
-79.0278290656704
 20
143.0045005641751
 30
0.0
  0
POINT
  5
129
330
11F
100
AcDbEntity
  8
DEFPOINTS
 62
     0
100
AcDbPoint
 10
-90.22827676618843
 20
342.6906292043687
 30
0.0
  0
ENDBLK
  5
12A
330
11F
100
AcDbEntity
  8
0
100
AcDbBlockEnd
  0
BLOCK
  5
134
330
133
100
AcDbEntity
  8
0
100
AcDbBlockBegin
  2
*D13
 70
     1
 10
0.0
 20
0.0
 30
0.0
  3
*D13
  1

  0
LINE
  5
135
330
133
100
AcDbEntity
  8
0
 62
     0
370
    -2
100
AcDbLine
 10
425.5234249071685
 20
78.64834136329696
 30
0.0
 11
439.9044874592164
 21
151.0688034605258
 31
0.0
  0
MTEXT
  5
136
330
133
100
AcDbEntity
  8
0
 62
     0
100
AcDbMText
 10
420.1368029119525
 20
97.72962576953565
 30
0.0
 40
8.0
 41
0.0
 71
     5
 72
     1
  1
R150
 11
0.1947742056715614
 21
0.9808481068978071
 31
0.0
 73
     1
 44
1.0
1001
ACAD
1000
MTEXTBEGIN
1070
    73
1070
     1
1070
    44
1040
1.0
1070
    74
1070
     0
1000
MTEXTEND
  0
LINE
  5
137
330
133
100
AcDbEntity
  8
0
 62
     0
370
    -2
100
AcDbLine
 10
471.0683603666664
 20
308.0045005641748
 30
0.0
 11
441.8522295159321
 21
160.8772845295039
 31
0.0
  0
SOLID
  5
138
330
133
100
AcDbEntity
  8
0
 62
     0
100
AcDbTrace
 10
438.2697406143868
 20
151.3934271366451
 30
0.0
 11
441.5392343040462
 21
150.7441797844066
 31
0.0
 12
441.8522295159321
 22
160.8772845295039
 32
0.0
 13
441.8522295159321
 23
160.8772845295039
 33
0.0
  0
POINT
  5
139
330
133
100
AcDbEntity
  8
DEFPOINTS
 62
     0
100
AcDbPoint
 10
441.8522295159321
 20
160.8772845295039
 30
0.0
  0
POINT
  5
13A
330
133
100
AcDbEntity
  8
DEFPOINTS
 62
     0
100
AcDbPoint
 10
471.0683603666664
 20
308.0045005641748
 30
0.0
  0
ENDBLK
  5
13B
330
133
100
AcDbEntity
  8
0
100
AcDbBlockEnd
  0
BLOCK
  5
13E
330
13D
100
AcDbEntity
  8
0
100
AcDbBlockBegin
  2
*D14
 70
     1
 10
0.0
 20
0.0
 30
0.0
  3
*D14
  1

  0
LINE
  5
13F
330
13D
100
AcDbEntity
  8
0
 62
     0
370
    -2
100
AcDbLine
 10
370.0477544599319
 20
109.1030336732082
 30
0.0
 11
416.7282301751026
 21
201.0131446013482
 31
0.0
  0
MTEXT
  5
140
330
13D
100
AcDbEntity
  8
0
 62
     0
100
AcDbMText
 10
369.4196982610157
 20
127.74125577696
 30
0.0
 40
8.0
 41
0.0
 71
     5
 72
     1
  1
R110
 11
0.4528344182630041
 21
0.8915946330235545
 31
0.0
 73
     1
 44
1.0
1001
ACAD
1000
MTEXTBEGIN
1070
    73
1070
     1
1070
    44
1040
1.0
1070
    74
1070
     0
1000
MTEXTEND
  0
LINE
  5
141
330
13D
100
AcDbEntity
  8
0
 62
     0
370
    -2
100
AcDbLine
 10
471.0683603666627
 20
308.0045005641742
 30
0.0
 11
421.2565743577325
 21
209.9290909315838
 31
0.0
  0
SOLID
  5
142
330
13D
100
AcDbEntity
  8
0
 62
     0
100
AcDbTrace
 10
415.2422391200632
 20
201.7678686317866
 30
0.0
 11
418.2142212301418
 21
200.2584205709099
 31
0.0
 12
421.2565743577325
 22
209.9290909315838
 32
0.0
 13
421.2565743577325
 23
209.9290909315838
 33
0.0
  0
POINT
  5
143
330
13D
100
AcDbEntity
  8
DEFPOINTS
 62
     0
100
AcDbPoint
 10
421.2565743577325
 20
209.9290909315838
 30
0.0
  0
POINT
  5
144
330
13D
100
AcDbEntity
  8
DEFPOINTS
 62
     0
100
AcDbPoint
 10
471.0683603666627
 20
308.0045005641742
 30
0.0
  0
ENDBLK
  5
145
330
13D
100
AcDbEntity
  8
0
100
AcDbBlockEnd
  0
BLOCK
  5
148
330
147
100
AcDbEntity
  8
0
100
AcDbBlockBegin
  2
*D15
 70
     1
 10
0.0
 20
0.0
 30
0.0
  3
*D15
  1

  0
LINE
  5
149
330
147
100
AcDbEntity
  8
0
 62
     0
370
    -2
100
AcDbLine
 10
406.481585110793
 20
265.1128821987933
 30
0.0
 11
374.1814846074139
 21
204.7287422837519
 31
0.0
  0
MTEXT
  5
14A
330
147
100
AcDbEntity
  8
0
 62
     0
100
AcDbMText
 10
391.4705537164725
 20
256.1312934485375
 30
0.0
 40
8.0
 41
0.0
 71
     5
 72
     1
  1
R60
 11
0.4716704972630886
 21
0.8817748817082458
 31
0.0
 73
     1
 44
1.0
1001
ACAD
1000
MTEXTBEGIN
1070
    73
1070
     1
1070
    44
1040
1.0
1070
    74
1070
     0
1000
MTEXTEND
  0
LINE
  5
14B
330
147
100
AcDbEntity
  8
0
 62
     0
370
    -2
100
AcDbLine
 10
341.1645497989979
 20
143.004500564175
 30
0.0
 11
369.4647796347831
 21
195.9109934666694
 31
0.0
  0
SOLID
  5
14C
330
147
100
AcDbEntity
  8
0
 62
     0
100
AcDbTrace
 10
372.7118598045669
 20
205.5148597791903
 30
0.0
 11
375.651109410261
 21
203.9426247883134
 31
0.0
 12
369.4647796347831
 22
195.9109934666694
 32
0.0
 13
369.4647796347831
 23
195.9109934666694
 33
0.0
  0
POINT
  5
14D
330
147
100
AcDbEntity
  8
DEFPOINTS
 62
     0
100
AcDbPoint
 10
369.4647796347831
 20
195.9109934666694
 30
0.0
  0
POINT
  5
14E
330
147
100
AcDbEntity
  8
DEFPOINTS
 62
     0
100
AcDbPoint
 10
341.1645497989979
 20
143.004500564175
 30
0.0
  0
ENDBLK
  5
14F
330
147
100
AcDbEntity
  8
0
100
AcDbBlockEnd
  0
BLOCK
  5
152
330
151
100
AcDbEntity
  8
0
100
AcDbBlockBegin
  2
*D16
 70
     1
 10
0.0
 20
0.0
 30
0.0
  3
*D16
  1

  0
LINE
  5
153
330
151
100
AcDbEntity
  8
0
 62
     0
370
    -2
100
AcDbLine
 10
384.0172362372137
 20
290.9222049305829
 30
0.0
 11
371.7736115405811
 21
248.6600036830378
 31
0.0
  0
MTEXT
  5
154
330
151
100
AcDbEntity
  8
0
 62
     0
100
AcDbMText
 10
370.6422037128804
 20
277.0980049547063
 30
0.0
 40
8.0
 41
0.0
 71
     5
 72
     1
  1
R100
 11
0.2782641976507402
 21
0.9605045738078448
 31
0.0
 73
     1
 44
1.0
1001
ACAD
1000
MTEXTBEGIN
1070
    73
1070
     1
1070
    44
1040
1.0
1070
    74
1070
     0
1000
MTEXTEND
  0
LINE
  5
155
330
151
100
AcDbEntity
  8
0
 62
     0
370
    -2
100
AcDbLine
 10
341.1645497989996
 20
143.0045005641751
 30
0.0
 11
368.9909695640736
 21
239.0549579449593
 31
0.0
  0
SOLID
  5
156
330
151
100
AcDbEntity
  8
0
 62
     0
100
AcDbTrace
 10
370.1727705842346
 20
249.123777345789
 30
0.0
 11
373.3744524969275
 21
248.1962300202865
 31
0.0
 12
368.9909695640736
 22
239.0549579449593
 32
0.0
 13
368.9909695640736
 23
239.0549579449593
 33
0.0
  0
POINT
  5
157
330
151
100
AcDbEntity
  8
DEFPOINTS
 62
     0
100
AcDbPoint
 10
368.9909695640736
 20
239.0549579449593
 30
0.0
  0
POINT
  5
158
330
151
100
AcDbEntity
  8
DEFPOINTS
 62
     0
100
AcDbPoint
 10
341.1645497989996
 20
143.0045005641751
 30
0.0
  0
ENDBLK
  5
159
330
151
100
AcDbEntity
  8
0
100
AcDbBlockEnd
  0
BLOCK
  5
15C
330
15B
100
AcDbEntity
  8
0
100
AcDbBlockBegin
  2
*D17
 70
     1
 10
0.0
 20
0.0
 30
0.0
  3
*D17
  1

  0
LINE
  5
15D
330
15B
100
AcDbEntity
  8
0
 62
     0
370
    -2
100
AcDbLine
 10
471.068360366664
 20
155.0045005641748
 30
0.0
 11
471.0683603666639
 21
121.8369164829182
 31
0.0
  0
ARC
  5
15E
330
15B
100
AcDbEntity
  8
0
 62
     0
370
    -2
100
AcDbCircle
 10
471.0683603666643
 20
308.0045005641748
 30
0.0
 40
184.9175840812565
100
AcDbArc
 50
234.885616470152
 51
266.9011728281097
  0
SOLID
  5
15F
330
15B
100
AcDbEntity
  8
0
 62
     0
100
AcDbTrace
 10
363.7066044099101
 20
155.404007058286
 30
0.0
 11
365.6969991370072
 21
158.0778507226492
 31
0.0
 12
356.6802707803691
 22
162.712113071759
 32
0.0
 13
356.6802707803691
 23
162.712113071759
 33
0.0
  0
SOLID
  5
160
330
15B
100
AcDbEntity
  8
0
 62
     0
100
AcDbTrace
 10
461.1170817134977
 20
125.0233645056691
 30
0.0
 11
461.0269514711551
 21
121.6912499142233
 31
0.0
 12
471.0683603666639
 22
123.0869164829182
 32
0.0
 13
471.0683603666639
 23
123.0869164829182
 33
0.0
  0
MTEXT
  5
161
330
15B
100
AcDbEntity
  8
0
 62
     0
100
AcDbMText
 10
413.8511165695025
 20
141.6519129640953
 30
0.0
 40
8.0
 41
0.0
 71
     5
 72
     1
  1
38\U+00B0
 11
0.9456279681696912
 21
-0.3252502818065824
 31
0.0
 73
     1
 44
1.0
1001
ACAD
1000
MTEXTBEGIN
1070
    73
1070
     1
1070
    44
1040
1.0
1070
    74
1070
     0
1000
MTEXTEND
  0
POINT
  5
162
330
15B
100
AcDbEntity
  8
DEFPOINTS
 62
     0
100
AcDbPoint
 10
391.5307410832844
 20
141.0665479554863
 30
0.0
  0
POINT
  5
163
330
15B
100
AcDbEntity
  8
DEFPOINTS
 62
     0
100
AcDbPoint
 10
471.0683603666643
 20
308.0045005641748
 30
0.0
  0
POINT
  5
164
330
15B
100
AcDbEntity
  8
DEFPOINTS
 62
     0
100
AcDbPoint
 10
471.0683603666641
 20
158.0045005641748
 30
0.0
  0
POINT
  5
165
330
15B
100
AcDbEntity
  8
DEFPOINTS
 62
     0
100
AcDbPoint
 10
471.0683603666643
 20
308.0045005641748
 30
0.0
  0
POINT
  5
166
330
15B
100
AcDbEntity
  8
DEFPOINTS
 62
     0
100
AcDbPoint
 10
341.1645497989986
 20
143.0045005641751
 30
0.0
  0
ENDBLK
  5
167
330
15B
100
AcDbEntity
  8
0
100
AcDbBlockEnd
  0
BLOCK
  5
16A
330
169
100
AcDbEntity
  8
0
100
AcDbBlockBegin
  2
*D18
 70
     1
 10
0.0
 20
0.0
 30
0.0
  3
*D18
  1

  0
ARC
  5
16B
330
169
100
AcDbEntity
  8
0
 62
     0
370
    -2
100
AcDbCircle
 10
341.1645497989987
 20
143.0045005641751
 30
0.0
 40
164.775506139318
100
AcDbArc
 50
55.26452560012362
 51
83.31189220677403
  0
SOLID
  5
16C
330
169
100
AcDbEntity
  8
0
 62
     0
100
AcDbTrace
 10
436.0424997684638
 20
279.7558024608461
 30
0.0
 11
434.0609572537263
 21
277.0753919748571
 31
0.0
 12
443.0929599690617
 22
272.4709696736393
 32
0.0
 13
443.0929599690617
 23
272.4709696736393
 33
0.0
  0
SOLID
  5
16D
330
169
100
AcDbEntity
  8
0
 62
     0
100
AcDbTrace
 10
360.2112736338611
 20
304.9982311614058
 30
0.0
 11
360.498850782327
 21
308.3191362330378
 31
0.0
 12
350.392346993198
 22
307.5214151426194
 32
0.0
 13
350.392346993198
 23
307.5214151426194
 33
0.0
  0
MTEXT
  5
16E
330
169
100
AcDbEntity
  8
0
 62
     0
100
AcDbMText
 10
398.1797725278238
 20
307.1604962242747
 30
0.0
 40
8.0
 41
0.0
 71
     5
 72
     1
  1
35\U+00B0
 11
0.9446440370514221
 21
-0.3280970028256756
 31
0.0
 73
     1
 44
1.0
1001
ACAD
1000
MTEXTBEGIN
1070
    73
1070
     1
1070
    44
1040
1.0
1070
    74
1070
     0
1000
MTEXTEND
  0
POINT
  5
16F
330
169
100
AcDbEntity
  8
DEFPOINTS
 62
     0
100
AcDbPoint
 10
414.8043525091125
 20
290.4092049676776
 30
0.0
  0
POINT
  5
170
330
169
100
AcDbEntity
  8
DEFPOINTS
 62
     0
100
AcDbPoint
 10
352.3649974995171
 20
342.6906292043684
 30
0.0
  0
POINT
  5
171
330
169
100
AcDbEntity
  8
DEFPOINTS
 62
     0
100
AcDbPoint
 10
471.0683603666644
 20
308.0045005641748
 30
0.0
  0
POINT
  5
172
330
169
100
AcDbEntity
  8
DEFPOINTS
 62
     0
100
AcDbPoint
 10
341.1645497989987
 20
143.0045005641751
 30
0.0
  0
POINT
  5
173
330
169
100
AcDbEntity
  8
DEFPOINTS
 62
     0
100
AcDbPoint
 10
341.1645497989987
 20
143.0045005641751
 30
0.0
  0
ENDBLK
  5
174
330
169
100
AcDbEntity
  8
0
100
AcDbBlockEnd
  0
BLOCK
  5
179
330
178
100
AcDbEntity
  8
0
100
AcDbBlockBegin
  2
*D19
 70
     1
 10
0.0
 20
0.0
 30
0.0
  3
*D19
  1

  0
LINE
  5
17A
330
178
100
AcDbEntity
  8
0
 62
     0
370
    -2
100
AcDbLine
 10
-246.9316396333357
 20
158.0045005641749
 30
0.0
 11
-315.3261246648366
 21
158.0045005641749
 31
0.0
  0
LINE
  5
17B
330
178
100
AcDbEntity
  8
0
 62
     0
370
    -2
100
AcDbLine
 10
128.0683603666643
 20
358.004500564175
 30
0.0
 11
-315.3261246648366
 21
358.0045005641752
 31
0.0
  0
LINE
  5
17C
330
178
100
AcDbEntity
  8
0
 62
     0
370
    -2
100
AcDbLine
 10
-314.0761246648366
 20
168.0045005641749
 30
0.0
 11
-314.0761246648366
 21
348.0045005641752
 31
0.0
  0
SOLID
  5
17D
330
178
100
AcDbEntity
  8
0
 62
     0
100
AcDbTrace
 10
-315.7427913315033
 20
168.0045005641749
 30
0.0
 11
-312.4094579981699
 21
168.0045005641749
 31
0.0
 12
-314.0761246648366
 22
158.0045005641749
 32
0.0
 13
-314.0761246648366
 23
158.0045005641749
 33
0.0
  0
SOLID
  5
17E
330
178
100
AcDbEntity
  8
0
 62
     0
100
AcDbTrace
 10
-315.7427913315033
 20
348.0045005641752
 30
0.0
 11
-312.4094579981699
 21
348.0045005641752
 31
0.0
 12
-314.0761246648366
 22
358.0045005641752
 32
0.0
 13
-314.0761246648366
 23
358.0045005641752
 33
0.0
  0
MTEXT
  5
17F
330
178
100
AcDbEntity
  8
0
 62
     0
100
AcDbMText
 10
-323.0761246648367
 20
245.1368088297222
 30
0.0
 40
8.0
 41
0.0
 71
     5
 72
     1
  1
200
 11
0.0000000000000001
 21
1.0
 31
0.0
 73
     1
 44
1.0
1001
ACAD
1000
MTEXTBEGIN
1070
    73
1070
     1
1070
    44
1040
1.0
1070
    74
1070
     0
1000
MTEXTEND
  0
POINT
  5
180
330
178
100
AcDbEntity
  8
DEFPOINTS
 62
     0
100
AcDbPoint
 10
-243.9316396333357
 20
158.0045005641749
 30
0.0
  0
POINT
  5
181
330
178
100
AcDbEntity
  8
DEFPOINTS
 62
     0
100
AcDbPoint
 10
131.0683603666643
 20
358.004500564175
 30
0.0
  0
POINT
  5
182
330
178
100
AcDbEntity
  8
DEFPOINTS
 62
     0
100
AcDbPoint
 10
-314.0761246648366
 20
358.0045005641752
 30
0.0
  0
ENDBLK
  5
183
330
178
100
AcDbEntity
  8
0
100
AcDbBlockEnd
  0
BLOCK
  5
18E
330
18D
100
AcDbEntity
  8
0
100
AcDbBlockBegin
  2
*D20
 70
     1
 10
0.0
 20
0.0
 30
0.0
  3
*D20
  1

  0
LINE
  5
18F
330
18D
100
AcDbEntity
  8
0
 62
     0
370
    -2
100
AcDbLine
 10
506.0683603666643
 20
155.0045005641749
 30
0.0
 11
506.0683603666643
 21
71.41611381518373
 31
0.0
  0
LINE
  5
190
330
18D
100
AcDbEntity
  8
0
 62
     0
370
    -2
100
AcDbLine
 10
-243.9316396333357
 20
155.0045005641749
 30
0.0
 11
-243.9316396333357
 21
71.41611381518373
 31
0.0
  0
LINE
  5
191
330
18D
100
AcDbEntity
  8
0
 62
     0
370
    -2
100
AcDbLine
 10
496.0683603666644
 20
72.66611381518373
 30
0.0
 11
-233.9316396333357
 21
72.66611381518373
 31
0.0
  0
SOLID
  5
192
330
18D
100
AcDbEntity
  8
0
 62
     0
100
AcDbTrace
 10
496.0683603666644
 20
74.33278048185041
 30
0.0
 11
496.0683603666644
 21
70.99944714851706
 31
0.0
 12
506.0683603666643
 22
72.66611381518373
 32
0.0
 13
506.0683603666643
 23
72.66611381518373
 33
0.0
  0
SOLID
  5
193
330
18D
100
AcDbEntity
  8
0
 62
     0
100
AcDbTrace
 10
-233.9316396333357
 20
74.33278048185041
 30
0.0
 11
-233.9316396333357
 21
70.99944714851706
 31
0.0
 12
-243.9316396333357
 22
72.66611381518373
 32
0.0
 13
-243.9316396333357
 23
72.66611381518373
 33
0.0
  0
MTEXT
  5
194
330
18D
100
AcDbEntity
  8
0
 62
     0
100
AcDbMText
 10
152.0847273610141
 20
81.66611381518373
 30
0.0
 40
8.0
 41
0.0
 71
     5
 72
     1
  1
750
 73
     1
 44
1.0
1001
ACAD
1000
MTEXTBEGIN
1070
    73
1070
     1
1070
    44
1040
1.0
1070
    74
1070
     0
1000
MTEXTEND
  0
POINT
  5
195
330
18D
100
AcDbEntity
  8
DEFPOINTS
 62
     0
100
AcDbPoint
 10
506.0683603666643
 20
158.0045005641749
 30
0.0
  0
POINT
  5
196
330
18D
100
AcDbEntity
  8
DEFPOINTS
 62
     0
100
AcDbPoint
 10
-243.9316396333357
 20
158.0045005641749
 30
0.0
  0
POINT
  5
197
330
18D
100
AcDbEntity
  8
DEFPOINTS
 62
     0
100
AcDbPoint
 10
-243.9316396333357
 20
72.66611381518373
 30
0.0
  0
ENDBLK
  5
198
330
18D
100
AcDbEntity
  8
0
100
AcDbBlockEnd
  0
ENDSEC
  0
SECTION
  2
ENTITIES
  0
LINE
  5
7E
330
2
100
AcDbEntity
  8
WAKU
100
AcDbLine
 10
0.0
 20
28.0
 30
0.0
 11
324.6663596030066
 21
28.0
 31
0.0
  0
LINE
  5
82
330
2
100
AcDbEntity
  8
WAKU
100
AcDbLine
 10
0.0
 20
0.0
 30
0.0
 11
324.6663596030066
 21
0.0
 31
0.0
  0
TEXT
  5
83
330
2
100
AcDbEntity
  8
HOJO
100
AcDbText
 10
19.30793200000005
 20
4.733252000000049
 30
0.0
 40
18.0
  1
YR150E75
  7
SUNPOU
100
AcDbText
  0
TEXT
  5
87
330
2
100
AcDbEntity
  8
HOJO
100
AcDbText
 10
232.5739697629265
 20
10.08877200000006
 30
0.0
 40
12.0
  1
750\U+00D7200
  7
SUNPOU
100
AcDbText
  0
DIMENSION
  5
88
330
2
100
AcDbEntity
  8
0
 62
    60
100
AcDbDimension
  2
*D1
 10
588.9029385117919
 20
212.4886196291311
 30
0.0
 11
578.4029385117919
 21
221.4886196291311
 31
0.0
 71
     5
 42
21.0
  3
ISO-25
100
AcDbAlignedDimension
 13
567.9029385117919
 23
198.0045005641748
 33
0.0
 14
588.9029385117919
 24
198.0045005641748
 34
0.0
100
AcDbRotatedDimension
1001
ACAD
1000
DSTYLE
1002
{
1070
    41
1040
10.0
1070
    42
1040
3.0
1070
    77
1070
     3
1070
    90
1070
     1
1070
   140
1040
8.0
1070
   147
1040
5.0
1070
   345
1005
29
1070
   346
1005
29
1070
   347
1005
29
1002
}
  0
LINE
  5
98
330
2
100
AcDbEntity
  8
WAKU
100
AcDbLine
 10
544.1344152468588
 20
145.2369779389579
 30
0.0
 11
599.1344152468589
 21
145.2369779389579
 31
0.0
  0
LINE
  5
99
330
2
100
AcDbEntity
  8
WAKU
100
AcDbLine
 10
544.1344152468588
 20
152.2369779389579
 30
0.0
 11
599.1344152468589
 21
152.2369779389579
 31
0.0
  0
TEXT
  5
9A
330
2
100
AcDbEntity
  8
HOJO
100
AcDbText
 10
555.5398232468589
 20
146.4202899389579
 30
0.0
 40
4.5
  1
A150
  7
SUNPOU
100
AcDbText
  0
TEXT
  5
9B
330
2
100
AcDbEntity
  8
HOJO
100
AcDbText
 10
575.6172742468586
 20
147.7591699389579
 30
0.0
 40
3.0
  1
40\U+00D721
  7
SUNPOU
100
AcDbText
  0
DIMENSION
  5
9C
330
2
100
AcDbEntity
  8
0
 62
    60
100
AcDbDimension
  2
*D2
 10
552.8794715117919
 20
198.0045005641748
 30
0.0
 11
543.879471511792
 21
178.0045005641749
 31
0.0
 71
     5
 42
40.0
  3
ISO-25
100
AcDbAlignedDimension
 13
567.9029385117919
 23
158.0045005641748
 33
0.0
 14
567.9029385117919
 24
198.0045005641748
 34
0.0
 50
90.0
100
AcDbRotatedDimension
1001
ACAD
1000
DSTYLE
1002
{
1070
    41
1040
10.0
1070
    42
1040
3.0
1070
    77
1070
     3
1070
    90
1070
     1
1070
   140
1040
8.0
1070
   147
1040
5.0
1070
   345
1005
29
1070
   346
1005
29
1070
   347
1005
29
1002
}
  0
LWPOLYLINE
  5
A9
330
2
100
AcDbEntity
  8
KIJUN
100
AcDbPolyline
 90
       11
 70
     1
 43
0.0
 10
579.9029385117919
 20
173.0045005641748
 42
-0.4142135623731011
 10
576.9029385117919
 20
170.0045005641748
 10
576.9029385117919
 20
170.0045005641748
 42
0.4142135623730982
 10
573.9029385117919
 20
167.0045005641747
 10
573.9029385117919
 20
161.0045005641748
 42
-0.4142135623730951
 10
570.9029385117919
 20
158.0045005641748
 10
567.9029385117919
 20
158.0045005641748
 10
567.9029385117919
 20
198.0045005641748
 10
579.9029385117919
 20
198.0045005641748
 42
-0.9125200918361219
 10
581.5393021377342
 20
180.1545108943191
 42
0.3616214932884901
 10
579.9029385117919
 20
178.1878465641748
  0
DIMENSION
  5
AD
330
2
100
AcDbEntity
  8
0
 62
    60
100
AcDbDimension
  2
*D3
 10
-79.0278290656704
 20
143.0045005641751
 30
0.0
 11
-133.0901787690641
 21
298.6586998908114
 31
0.0
 70
   130
 71
     5
 42
0.6109147917671991
  3
ISO-25
100
AcDb2LineAngularDimension
 13
-208.9316396333356
 23
308.004500564175
 33
0.0
 14
-79.0278290656704
 24
143.0045005641751
 34
0.0
 15
-90.22827676618843
 25
342.6906292043685
 35
0.0
 16
-152.6676317757838
 26
290.4092049676772
 36
0.0
1001
ACAD
1000
DSTYLE
1002
{
1070
    41
1040
10.0
1070
    42
1040
3.0
1070
    77
1070
     3
1070
    90
1070
     1
1070
   140
1040
8.0
1070
   147
1040
5.0
1070
   345
1005
29
1070
   346
1005
29
1070
   347
1005
29
1002
}
  0
DIMENSION
  5
BA
330
2
100
AcDbEntity
  8
0
 62
    60
100
AcDbDimension
  2
*D4
 10
-79.0278290656704
 20
143.0045005641751
 30
0.0
 11
-148.7871432999141
 21
133.1412612505681
 31
0.0
 70
   130
 71
     5
 42
0.6669463445036623
  3
ISO-25
100
AcDb2LineAngularDimension
 13
-208.9316396333356
 23
158.004500564175
 33
0.0
 14
-208.9316396333356
 24
308.004500564175
 34
0.0
 15
-208.9316396333356
 25
308.004500564175
 35
0.0
 16
-129.394020349956
 26
141.066547955486
 36
0.0
1001
ACAD
1000
DSTYLE
1002
{
1070
    41
1040
10.0
1070
    42
1040
3.0
1070
    77
1070
     3
1070
    90
1070
     1
1070
   140
1040
8.0
1070
   147
1040
5.0
1070
   345
1005
29
1070
   346
1005
29
1070
   347
1005
29
1002
}
  0
LINE
  5
C8
330
2
100
AcDbEntity
  8
CENTER
100
AcDbLine
 10
-208.9316396333356
 20
308.0045005641748
 30
0.0
 11
-79.02782906566996
 21
143.0045005641751
 31
0.0
  0
LINE
  5
CD
330
2
100
AcDbEntity
  8
CENTER
100
AcDbLine
 10
-208.9316396333354
 20
158.0045005641748
 30
0.0
 11
-208.9316396333356
 21
308.0045005641748
 31
0.0
  0
DIMENSION
  5
CE
330
2
100
AcDbEntity
  8
0
 62
    60
100
AcDbDimension
  2
*D5
 10
-275.3981081786065
 20
158.0045005641749
 30
0.0
 11
-275.3981081786065
 21
177.3833458111264
 31
0.0
 70
   128
 71
     5
 42
40.00000000000002
  3
ISO-25
100
AcDbAlignedDimension
 13
-243.9316396333357
 23
198.0045005641749
 33
0.0
 14
-243.9316396333357
 24
158.0045005641749
 34
0.0
 50
90.0
100
AcDbRotatedDimension
1001
ACAD
1000
DSTYLE
1002
{
1070
    41
1040
10.0
1070
    42
1040
3.0
1070
    77
1070
     3
1070
    90
1070
     1
1070
   140
1040
8.0
1070
   147
1040
5.0
1070
   345
1005
29
1070
   346
1005
29
1070
   347
1005
29
1002
}
  0
DIMENSION
  5
DB
330
2
100
AcDbEntity
  8
0
 62
    60
100
AcDbDimension
  2
*D6
 10
352.3649974995169
 20
342.6906292043681
 30
0.0
 11
280.8316137168191
 21
157.2832780355246
 31
0.0
 70
   132
 71
     5
 42
99.99999999999989
  3
ISO-25
100
AcDbRadialDimension
 15
316.3694157661597
 25
249.3936941224631
 35
0.0
 40
0.0
1001
ACAD
1000
DSTYLE
1002
{
1070
    41
1040
10.0
1070
    42
1040
3.0
1070
    77
1070
     3
1070
    90
1070
     1
1070
   140
1040
8.0
1070
   147
1040
5.0
1070
   345
1005
29
1070
   346
1005
29
1070
   347
1005
29
1002
}
  0
DIMENSION
  5
E5
330
2
100
AcDbEntity
  8
0
 62
    60
100
AcDbDimension
  2
*D7
 10
-90.22827676618843
 20
342.6906292043688
 30
0.0
 11
129.5953954333508
 21
283.0567640886718
 31
0.0
 70
   130
 71
     5
 42
1.921484977404183
  3
ISO-25
100
AcDb2LineAngularDimension
 13
131.0683603666643
 23
188.0045005641749
 33
0.0
 14
352.3649974995171
 24
342.6906292043685
 34
0.0
 15
131.0683603666646
 25
188.0045005641749
 35
0.0
 16
160.9945464548429
 26
278.2349046031733
 36
0.0
1001
ACAD
1000
DSTYLE
1002
{
1070
    41
1040
10.0
1070
    42
1040
3.0
1070
    77
1070
     3
1070
    90
1070
     1
1070
   140
1040
8.0
1070
   147
1040
5.0
1070
   345
1005
29
1070
   346
1005
29
1070
   347
1005
29
1002
}
  0
DIMENSION
  5
F2
330
2
100
AcDbEntity
  8
0
 62
    60
100
AcDbDimension
  2
*D8
 10
352.3649974995171
 20
342.6906292043685
 30
0.0
 11
259.7677430692523
 21
194.3196011014815
 31
0.0
 70
   130
 71
     5
 42
0.9047109359656257
  3
ISO-25
100
AcDb2LineAngularDimension
 13
352.3649974995171
 23
342.6906292043684
 33
0.0
 14
341.1645497989987
 24
143.0045005641751
 34
0.0
 15
131.0683603666643
 25
188.0045005641749
 35
0.0
 16
291.1467554026316
 26
178.8598007779152
 36
0.0
1001
ACAD
1000
DSTYLE
1002
{
1070
    41
1040
10.0
1070
    42
1040
3.0
1070
    77
1070
     3
1070
    90
1070
     1
1070
   140
1040
8.0
1070
   147
1040
5.0
1070
   345
1005
29
1070
   346
1005
29
1070
   347
1005
29
1002
}
  0
DIMENSION
  5
FF
330
2
100
AcDbEntity
  8
0
 62
    60
100
AcDbDimension
  2
*D9
 10
352.3649974995166
 20
342.6906292043683
 30
0.0
 11
213.9529442406901
 21
179.8965956117284
 31
0.0
 70
   132
 71
     5
 42
139.9999999999998
  3
ISO-25
100
AcDbRadialDimension
 15
261.6800985003939
 25
236.0311284858722
 35
0.0
 40
0.0
1001
ACAD
1000
DSTYLE
1002
{
1070
    41
1040
10.0
1070
    42
1040
3.0
1070
    77
1070
     3
1070
    90
1070
     1
1070
   140
1040
8.0
1070
   147
1040
5.0
1070
   345
1005
29
1070
   346
1005
29
1070
   347
1005
29
1002
}
  0
LINE
  5
109
330
2
100
AcDbEntity
  8
CENTER
100
AcDbLine
 10
131.0683603666643
 20
188.0045005641749
 30
0.0
 11
352.3649974995171
 21
342.6906292043686
 31
0.0
  0
DIMENSION
  5
10A
330
2
100
AcDbEntity
  8
0
 62
    60
100
AcDbDimension
  2
*D10
 10
131.0683603666642
 20
188.0045005641746
 30
0.0
 11
211.3255550652359
 21
403.3323841617703
 31
0.0
 70
   132
 71
     5
 42
170.0000000000005
  3
ISO-25
100
AcDbRadialDimension
 15
190.440931247603
 25
347.2995030814793
 35
0.0
 40
0.0
1001
ACAD
1000
DSTYLE
1002
{
1070
    41
1040
10.0
1070
    42
1040
3.0
1070
    77
1070
     3
1070
    90
1070
     1
1070
   140
1040
8.0
1070
   147
1040
5.0
1070
   345
1005
29
1070
   346
1005
29
1070
   347
1005
29
1002
}
  0
DIMENSION
  5
114
330
2
100
AcDbEntity
  8
0
 62
    60
100
AcDbDimension
  2
*D11
 10
131.0683603666641
 20
188.0045005641747
 30
0.0
 11
250.5859116447743
 21
356.8193629438034
 31
0.0
 70
   132
 71
     5
 42
130.0000000000011
  3
ISO-25
100
AcDbRadialDimension
 15
206.1856509309433
 25
294.1053613442925
 35
0.0
 40
0.0
1001
ACAD
1000
DSTYLE
1002
{
1070
    41
1040
10.0
1070
    42
1040
3.0
1070
    77
1070
     3
1070
    90
1070
     1
1070
   140
1040
8.0
1070
   147
1040
5.0
1070
   345
1005
29
1070
   346
1005
29
1070
   347
1005
29
1002
}
  0
DIMENSION
  5
11E
330
2
100
AcDbEntity
  8
0
 62
    60
100
AcDbDimension
  2
*D12
 10
-90.22827676618843
 20
342.6906292043686
 30
0.0
 11
2.368977664076297
 21
194.3196011014811
 31
0.0
 70
   130
 71
     5
 42
0.9047109359656266
  3
ISO-25
100
AcDb2LineAngularDimension
 13
-90.22827676618843
 23
342.6906292043685
 33
0.0
 14
-79.0278290656704
 24
143.0045005641751
 34
0.0
 15
131.0683603666641
 25
188.0045005641749
 35
0.0
 16
-29.01003466930291
 26
178.8598007779149
 36
0.0
1001
ACAD
1000
DSTYLE
1002
{
1070
    41
1040
10.0
1070
    42
1040
3.0
1070
    77
1070
     3
1070
    90
1070
     1
1070
   140
1040
8.0
1070
   147
1040
5.0
1070
   345
1005
29
1070
   346
1005
29
1070
   347
1005
29
1002
}
  0
LINE
  5
12B
330
2
100
AcDbEntity
  8
CENTER
100
AcDbLine
 10
131.0683603666646
 20
188.0045005641749
 30
0.0
 11
-90.22827676618843
 21
342.6906292043688
 31
0.0
  0
LINE
  5
12C
330
2
100
AcDbEntity
  8
CENTER
100
AcDbLine
 10
-90.22827676618843
 20
342.6906292043688
 30
0.0
 11
-79.02782906566996
 21
143.0045005641751
 31
0.0
  0
LINE
  5
12D
330
2
100
AcDbEntity
  8
SUNPOU
 62
     2
100
AcDbLine
 10
129.0683603666643
 20
188.0045005641749
 30
0.0
 11
133.0683603666643
 21
188.0045005641749
 31
0.0
  0
LINE
  5
131
330
2
100
AcDbEntity
  8
SUNPOU
 62
     2
100
AcDbLine
 10
131.0683603666643
 20
186.0045005641749
 30
0.0
 11
131.0683603666643
 21
190.0045005641749
 31
0.0
  0
DIMENSION
  5
132
330
2
100
AcDbEntity
  8
0
 62
    60
100
AcDbDimension
  2
*D13
 10
471.0683603666664
 20
308.0045005641748
 30
0.0
 11
428.9644358740328
 21
95.97665791849159
 31
0.0
 70
   132
 71
     5
 42
149.9999999999998
  3
ISO-25
100
AcDbRadialDimension
 15
441.8522295159321
 25
160.8772845295039
 35
0.0
 40
0.0
1001
ACAD
1000
DSTYLE
1002
{
1070
    41
1040
10.0
1070
    42
1040
3.0
1070
    77
1070
     3
1070
    90
1070
     1
1070
   140
1040
8.0
1070
   147
1040
5.0
1070
   345
1005
29
1070
   346
1005
29
1070
   347
1005
29
1002
}
  0
DIMENSION
  5
13C
330
2
100
AcDbEntity
  8
0
 62
    60
100
AcDbDimension
  2
*D14
 10
471.0683603666627
 20
308.0045005641742
 30
0.0
 11
377.4440499582277
 21
123.665746012593
 31
0.0
 70
   132
 71
     5
 42
109.9999999999994
  3
ISO-25
100
AcDbRadialDimension
 15
421.2565743577325
 25
209.9290909315838
 35
0.0
 40
0.0
1001
ACAD
1000
DSTYLE
1002
{
1070
    41
1040
10.0
1070
    42
1040
3.0
1070
    77
1070
     3
1070
    90
1070
     1
1070
   140
1040
8.0
1070
   147
1040
5.0
1070
   345
1005
29
1070
   346
1005
29
1070
   347
1005
29
1002
}
  0
DIMENSION
  5
146
330
2
100
AcDbEntity
  8
0
 62
    60
100
AcDbDimension
  2
*D15
 10
341.1645497989979
 20
143.004500564175
 30
0.0
 11
399.4065276518468
 21
251.8862589731696
 31
0.0
 70
   132
 71
     5
 42
59.99999999999954
  3
ISO-25
100
AcDbRadialDimension
 15
369.4647796347831
 25
195.9109934666694
 35
0.0
 40
0.0
1001
ACAD
1000
DSTYLE
1002
{
1070
    41
1040
10.0
1070
    42
1040
3.0
1070
    77
1070
     3
1070
    90
1070
     1
1070
   140
1040
8.0
1070
   147
1040
5.0
1070
   345
1005
29
1070
   346
1005
29
1070
   347
1005
29
1002
}
  0
DIMENSION
  5
150
330
2
100
AcDbEntity
  8
0
 62
    60
100
AcDbDimension
  2
*D16
 10
341.1645497989996
 20
143.0045005641751
 30
0.0
 11
370.6422037128804
 21
277.0980049547063
 31
0.0
 70
     4
 71
     5
 42
99.99999999999969
  3
ISO-25
100
AcDbRadialDimension
 15
368.9909695640736
 25
239.0549579449593
 35
0.0
 40
0.0
1001
ACAD
1000
DSTYLE
1002
{
1070
    41
1040
10.0
1070
    42
1040
3.0
1070
    77
1070
     3
1070
    90
1070
     1
1070
   140
1040
8.0
1070
   147
1040
5.0
1070
   345
1005
29
1070
   346
1005
29
1070
   347
1005
29
1002
}
  0
DIMENSION
  5
15A
330
2
100
AcDbEntity
  8
0
 62
    60
100
AcDbDimension
  2
*D17
 10
341.1645497989987
 20
143.0045005641751
 30
0.0
 11
410.9238640332432
 21
133.141261250568
 31
0.0
 70
   130
 71
     5
 42
0.6669463445036632
  3
ISO-25
100
AcDb2LineAngularDimension
 13
471.0683603666641
 23
158.0045005641748
 33
0.0
 14
471.0683603666644
 24
308.0045005641748
 34
0.0
 15
471.0683603666644
 25
308.0045005641748
 35
0.0
 16
391.5307410832844
 26
141.0665479554863
 36
0.0
1001
ACAD
1000
DSTYLE
1002
{
1070
    41
1040
10.0
1070
    42
1040
3.0
1070
    77
1070
     3
1070
    90
1070
     1
1070
   140
1040
8.0
1070
   147
1040
5.0
1070
   345
1005
29
1070
   346
1005
29
1070
   347
1005
29
1002
}
  0
DIMENSION
  5
168
330
2
100
AcDbEntity
  8
0
 62
    60
100
AcDbDimension
  2
*D18
 10
341.1645497989987
 20
143.0045005641751
 30
0.0
 11
395.2268995023927
 21
298.6586998908119
 31
0.0
 70
   130
 71
     5
 42
0.6109147917671991
  3
ISO-25
100
AcDb2LineAngularDimension
 13
471.0683603666644
 23
308.0045005641748
 33
0.0
 14
341.1645497989987
 24
143.0045005641751
 34
0.0
 15
352.3649974995171
 25
342.6906292043684
 35
0.0
 16
414.8043525091125
 26
290.4092049676776
 36
0.0
1001
ACAD
1000
DSTYLE
1002
{
1070
    41
1040
10.0
1070
    42
1040
3.0
1070
    77
1070
     3
1070
    90
1070
     1
1070
   140
1040
8.0
1070
   147
1040
5.0
1070
   345
1005
29
1070
   346
1005
29
1070
   347
1005
29
1002
}
  0
LINE
  5
175
330
2
100
AcDbEntity
  8
CENTER
100
AcDbLine
 10
471.0683603666644
 20
308.0045005641748
 30
0.0
 11
341.1645497989987
 21
143.0045005641751
 31
0.0
  0
LINE
  5
176
330
2
100
AcDbEntity
  8
CENTER
100
AcDbLine
 10
352.3649974995171
 20
342.6906292043684
 30
0.0
 11
341.1645497989987
 21
143.0045005641751
 31
0.0
  0
DIMENSION
  5
177
330
2
100
AcDbEntity
  8
0
 62
    60
100
AcDbDimension
  2
*D19
 10
-314.0761246648366
 20
358.0045005641752
 30
0.0
 11
-314.0761246648367
 21
245.1368088297222
 31
0.0
 70
   128
 71
     5
 42
200.0000000000003
  3
ISO-25
100
AcDbAlignedDimension
 13
-243.9316396333357
 23
158.0045005641749
 33
0.0
 14
131.0683603666643
 24
358.004500564175
 34
0.0
 50
90.0
100
AcDbRotatedDimension
1001
ACAD
1000
DSTYLE
1002
{
1070
    41
1040
10.0
1070
    42
1040
3.0
1070
    77
1070
     3
1070
    90
1070
     1
1070
   140
1040
8.0
1070
   147
1040
5.0
1070
   345
1005
29
1070
   346
1005
29
1070
   347
1005
29
1002
}
  0
LINE
  5
184
330
2
100
AcDbEntity
  8
CENTER
100
AcDbLine
 10
471.0683603666641
 20
158.0045005641748
 30
0.0
 11
471.0683603666644
 21
308.0045005641748
 31
0.0
  0
LINE
  5
185
330
2
100
AcDbEntity
  8
SUNPOU
 62
     2
100
AcDbLine
 10
341.1645497989984
 20
141.0045005641749
 30
0.0
 11
341.1645497989984
 21
145.0045005641749
 31
0.0
  0
LINE
  5
186
330
2
100
AcDbEntity
  8
SUNPOU
 62
     2
100
AcDbLine
 10
339.1645497989984
 20
143.0045005641749
 30
0.0
 11
343.1645497989984
 21
143.0045005641749
 31
0.0
  0
LWPOLYLINE
  5
187
330
2
100
AcDbEntity
  8
KIJUN
100
AcDbPolyline
 90
       20
 70
     1
 43
0.0
 10
-243.9316396333357
 20
158.0045005641749
 10
-208.9316396333359
 20
158.004500564175
 42
0.168299117355738
 10
-116.1432035135696
 20
190.1473577070359
 42
-0.1539274029540897
 10
-82.38796337583632
 20
202.9103391562324
 42
0.2301151332968122
 10
24.5181276730718
 20
262.4830069464949
 42
-0.521082800235111
 10
237.6185930602636
 20
262.4830069464855
 42
0.2301151332967534
 10
344.5246841091542
 20
202.910339156233
 42
-0.1539274029540884
 10
378.2799242469153
 20
190.1473577070223
 42
0.168299117355738
 10
471.0683603666641
 20
158.0045005641748
 10
506.0683603666643
 20
158.0045005641748
 10
506.0683603666642
 20
198.0045005641751
 10
471.0683603666644
 20
198.0045005641747
 42
-0.168299117355738
 10
403.0235072121816
 20
221.5759291355963
 42
0.1539274029540889
 10
346.7647736492579
 20
242.8475648842717
 42
-0.2301151332967534
 10
270.4032800429075
 20
285.3994704487378
 42
0.521082800235111
 10
-8.26655930957207
 20
285.3994704487472
 42
-0.2301151332968122
 10
-84.6280529159369
 20
242.8475648842713
 42
0.1539274029540897
 10
-140.886786478836
 20
221.5759291356099
 42
-0.168299117355738
 10
-208.9316396333359
 20
198.0045005641749
 10
-243.9316396333357
 20
198.0045005641749
  0
LINE
  5
188
330
2
100
AcDbEntity
  8
SUNPOU
 62
     2
100
AcDbLine
 10
350.3649974995171
 20
342.6906292043686
 30
0.0
 11
354.3649974995171
 21
342.6906292043686
 31
0.0
  0
LINE
  5
189
330
2
100
AcDbEntity
  8
SUNPOU
 62
     2
100
AcDbLine
 10
352.3649974995171
 20
340.6906292043686
 30
0.0
 11
352.3649974995171
 21
344.6906292043686
 31
0.0
  0
LINE
  5
18A
330
2
100
AcDbEntity
  8
SUNPOU
 62
     2
100
AcDbLine
 10
469.0683603666641
 20
308.0045005641748
 30
0.0
 11
473.0683603666641
 21
308.0045005641748
 31
0.0
  0
LINE
  5
18B
330
2
100
AcDbEntity
  8
SUNPOU
 62
     2
100
AcDbLine
 10
471.0683603666644
 20
306.0045005641748
 30
0.0
 11
471.0683603666644
 21
310.0045005641748
 31
0.0
  0
DIMENSION
  5
18C
330
2
100
AcDbEntity
  8
0
 62
    60
100
AcDbDimension
  2
*D20
 10
-243.9316396333357
 20
72.66611381518373
 30
0.0
 11
152.0847273610141
 21
72.66611381518373
 31
0.0
 70
   128
 71
     5
 42
750.0
  3
ISO-25
100
AcDbAlignedDimension
 13
506.0683603666643
 23
158.0045005641749
 33
0.0
 14
-243.9316396333357
 24
158.0045005641749
 34
0.0
100
AcDbRotatedDimension
1001
ACAD
1000
DSTYLE
1002
{
1070
    41
1040
10.0
1070
    42
1040
3.0
1070
    77
1070
     3
1070
    90
1070
     1
1070
   140
1040
8.0
1070
   147
1040
5.0
1070
   345
1005
29
1070
   346
1005
29
1070
   347
1005
29
1002
}
  0
ENDSEC
  0
SECTION
  2
OBJECTS
  0
DICTIONARY
  5
B
330
0
100
AcDbDictionary
281
     1
  3
ACAD_COLOR
350
4E
  3
ACAD_GROUP
350
39
  3
ACAD_LAYOUT
350
19
  3
ACAD_MATERIAL
350
D
  3
ACAD_MLEADERSTYLE
350
51
  3
ACAD_MLINESTYLE
350
3A
  3
ACAD_PLOTSETTINGS
350
3B
  3
ACAD_PLOTSTYLENAME
350
A
  3
ACAD_SCALELIST
350
4F
  3
ACAD_TABLESTYLE
350
50
  3
ACAD_VISUALSTYLE
350
2F
  3
ACDB_RECOMPOSE_DATA
350
1A8
  3
AcDbVariableDictionary
350
19C
  0
DICTIONARY
  5
20
330
1F
100
AcDbDictionary
280
     1
281
     1
  3
ACAD_LAYERFILTERS
360
21
  3
ACLYDICTIONARY
360
22
  0
DICTIONARY
  5
7
330
6
100
AcDbDictionary
280
     1
281
     1
  3
ADSK_XREC_LAYER_RECONCILED
360
8
  0
DICTIONARY
  5
AB
330
AA
100
AcDbDictionary
280
     1
281
     1
  3
ADSK_XREC_LAYER_RECONCILED
360
AC
  0
DICTIONARY
  5
85
330
84
100
AcDbDictionary
280
     1
281
     1
  3
ADSK_XREC_LAYER_RECONCILED
360
86
  0
DICTIONARY
  5
80
330
7F
100
AcDbDictionary
280
     1
281
     1
  3
ADSK_XREC_LAYER_RECONCILED
360
81
  0
DICTIONARY
  5
12F
330
12E
100
AcDbDictionary
280
     1
281
     1
  3
ADSK_XREC_LAYER_RECONCILED
360
130
  0
DICTIONARY
  5
CA
330
C9
100
AcDbDictionary
280
     1
281
     1
  3
ADSK_XREC_LAYER_RECONCILED
360
CB
  0
DICTIONARY
  5
3
330
2
100
AcDbDictionary
280
     1
281
     1
  3
ACAD_SORTENTS
360
199
  0
DICTIONARY
  5
4E
102
{ACAD_REACTORS
330
B
102
}
330
B
100
AcDbDictionary
281
     1
  0
DICTIONARY
  5
39
102
{ACAD_REACTORS
330
B
102
}
330
B
100
AcDbDictionary
281
     1
  0
DICTIONARY
  5
19
102
{ACAD_REACTORS
330
B
102
}
330
B
100
AcDbDictionary
281
     1
  3
Model
350
18
  3
ﾚｲｱｳﾄ1
350
1E
  0
DICTIONARY
  5
D
102
{ACAD_REACTORS
330
B
102
}
330
B
100
AcDbDictionary
281
     1
  3
ByBlock
350
45
  3
ByLayer
350
3C
  3
Global
350
C
  0
DICTIONARY
  5
51
102
{ACAD_REACTORS
330
B
102
}
330
B
100
AcDbDictionary
281
     1
  0
DICTIONARY
  5
3A
102
{ACAD_REACTORS
330
B
102
}
330
B
100
AcDbDictionary
281
     1
  3
STANDARD
350
58
  0
DICTIONARY
  5
3B
102
{ACAD_REACTORS
330
B
102
}
330
B
100
AcDbDictionary
281
     1
  0
ACDBDICTIONARYWDFLT
  5
A
102
{ACAD_REACTORS
330
B
102
}
330
B
100
AcDbDictionary
281
     1
  3
Normal
350
9
100
AcDbDictionaryWithDefault
340
9
  0
DICTIONARY
  5
4F
102
{ACAD_REACTORS
330
B
102
}
330
B
100
AcDbDictionary
281
     1
  3
A0
350
5D
  3
A1
350
5E
  3
A2
350
5F
  3
A3
350
60
  3
A4
350
61
  3
A5
350
62
  3
A6
350
63
  3
A7
350
64
  3
A8
350
65
  3
A9
350
66
  3
B0
350
67
  3
B1
350
68
  3
B2
350
69
  3
B3
350
6A
  3
B4
350
6B
  3
B5
350
6C
  3
B6
350
6D
  3
B7
350
6E
  3
B8
350
6F
  3
B9
350
70
  3
C0
350
71
  3
C1
350
72
  3
C2
350
73
  3
C3
350
74
  3
C4
350
75
  3
C5
350
76
  3
C6
350
77
  3
C7
350
78
  3
C8
350
79
  3
C9
350
7A
  3
D0
350
7B
  3
D1
350
7C
  3
D2
350
7D
  0
DICTIONARY
  5
50
102
{ACAD_REACTORS
330
B
102
}
330
B
100
AcDbDictionary
281
     1
  3
Standard
350
59
  0
DICTIONARY
  5
2F
102
{ACAD_REACTORS
330
B
102
}
330
B
100
AcDbDictionary
281
     1
  3
2dWireframe
350
2E
  3
Realistic
350
5B
  3
Wireframe
350
5C
  0
XRECORD
  5
1A8
102
{ACAD_REACTORS
330
B
102
}
330
B
100
AcDbXrecord
280
     1
 90
        1
330
59
  0
DICTIONARY
  5
19C
102
{ACAD_REACTORS
330
B
102
}
330
B
100
AcDbDictionary
281
     1
  3
CANNOSCALE
350
1A1
  3
CMLEADERSTYLE
350
19E
  3
CTABLESTYLE
350
19D
  3
CVIEWDETAILSTYLE
350
19F
  3
CVIEWSECTIONSTYLE
350
1A0
  3
DIMASSOC
350
1A5
  3
HIDETEXT
350
1A4
  3
INDEXCTL
350
1A3
  3
SORTENTS
350
1A2
  3
XCLIPFRAME
350
1A6
  0
DICTIONARY
  5
21
102
{ACAD_REACTORS
330
20
102
}
330
20
100
AcDbDictionary
281
     1
  0
DICTIONARY
  5
22
102
{ACAD_REACTORS
330
20
102
}
330
20
100
AcDbDictionary
281
     1
1001
ACAD
1000
<All
  0
XRECORD
  5
8
102
{ACAD_REACTORS
330
7
102
}
330
7
100
AcDbXrecord
280
     1
290
     1
  0
XRECORD
  5
AC
102
{ACAD_REACTORS
330
AB
102
}
330
AB
100
AcDbXrecord
280
     1
290
     1
  0
XRECORD
  5
86
102
{ACAD_REACTORS
330
85
102
}
330
85
100
AcDbXrecord
280
     1
290
     1
  0
XRECORD
  5
81
102
{ACAD_REACTORS
330
80
102
}
330
80
100
AcDbXrecord
280
     1
290
     1
  0
XRECORD
  5
130
102
{ACAD_REACTORS
330
12F
102
}
330
12F
100
AcDbXrecord
280
     1
290
     1
  0
XRECORD
  5
CB
102
{ACAD_REACTORS
330
CA
102
}
330
CA
100
AcDbXrecord
280
     1
290
     1
  0
SORTENTSTABLE
  5
199
102
{ACAD_REACTORS
330
3
102
}
330
3
100
AcDbSortentsTable
330
2
  0
LAYOUT
  5
18
102
{ACAD_XDICTIONARY
360
1A9
102
}
102
{ACAD_REACTORS
330
19
102
}
330
19
100
AcDbPlotSettings
  1

  2
none_device
  4
Letter_(8.50_x_11.00_Inches)
  6

 40
6.349999904632567
 41
6.349999904632567
 42
6.350006103515625
 43
6.350006103515625
 44
215.8999938964844
 45
279.3999938964844
 46
0.0
 47
0.0
 48
0.0
 49
0.0
140
0.0
141
0.0
142
1.0
143
76.54229552604896
 70
 11952
 72
     0
 73
     1
 74
     0
  7
monochrome.ctb
 75
     0
147
0.0130646721936851
148
9973.459437949903
149
463.9633285297772
100
AcDbLayout
  1
Model
 70
     1
 71
     0
 10
0.0
 20
0.0
 11
12.0
 21
9.0
 12
0.0
 22
0.0
 32
0.0
 14
0.0
 24
0.0
 34
0.0
 15
0.0
 25
0.0
 35
0.0
146
0.0
 13
0.0
 23
0.0
 33
0.0
 16
1.0
 26
0.0
 36
0.0
 17
0.0
 27
1.0
 37
0.0
 76
     0
330
2
331
2D
1001
ACAD_PSEXT
1000
なし
1000
なし
1000
適切ではありません
1000
新しいプロッタ環境設定名を選択しない限り、レイアウトは印刷されません。
1070
     0
  0
LAYOUT
  5
1E
102
{ACAD_XDICTIONARY
360
1AB
102
}
102
{ACAD_REACTORS
330
19
102
}
330
19
100
AcDbPlotSettings
  1

  2
なし
  4

  6

 40
0.0
 41
0.0
 42
0.0
 43
0.0
 44
0.0
 45
0.0
 46
0.0
 47
0.0
 48
0.0
 49
0.0
140
0.0
141
0.0
142
1.0
143
1.0
 70
   688
 72
     0
 73
     0
 74
     5
  7
monochrome.ctb
 75
    16
147
1.0
148
0.0
149
0.0
100
AcDbLayout
  1
ﾚｲｱｳﾄ1
 70
     1
 71
     1
 10
0.0
 20
0.0
 11
12.0
 21
9.0
 12
0.0
 22
0.0
 32
0.0
 14
1.000000000000000E+20
 24
1.000000000000000E+20
 34
1.000000000000000E+20
 15
-1.000000000000000E+20
 25
-1.000000000000000E+20
 35
-1.000000000000000E+20
146
0.0
 13
0.0
 23
0.0
 33
0.0
 16
1.0
 26
0.0
 36
0.0
 17
0.0
 27
1.0
 37
0.0
 76
     0
330
1B
  0
MATERIAL
  5
45
102
{ACAD_XDICTIONARY
360
46
102
}
102
{ACAD_REACTORS
330
D
102
}
330
D
100
AcDbMaterial
  1
ByBlock
 72
     0
 43
0.0208333333333333
 43
0.0
 43
0.0
 43
0.0
 43
0.0
 43
0.0208333333333333
 43
0.0
 43
0.0
 43
0.0
 43
0.0
 43
1.0
 43
0.0
 43
0.0
 43
0.0
 43
0.0
 43
1.0
 77
     0
 47
0.0208333333333333
 47
0.0
 47
0.0
 47
0.0
 47
0.0
 47
0.0208333333333333
 47
0.0
 47
0.0
 47
0.0
 47
0.0
 47
1.0
 47
0.0
 47
0.0
 47
0.0
 47
0.0
 47
1.0
171
     0
 49
0.0208333333333333
 49
0.0
 49
0.0
 49
0.0
 49
0.0
 49
0.0208333333333333
 49
0.0
 49
0.0
 49
0.0
 49
0.0
 49
1.0
 49
0.0
 49
0.0
 49
0.0
 49
0.0
 49
1.0
175
     0
142
0.0208333333333333
142
0.0
142
0.0
142
0.0
142
0.0
142
0.0208333333333333
142
0.0
142
0.0
142
0.0
142
0.0
142
1.0
142
0.0
142
0.0
142
0.0
142
0.0
142
1.0
179
     0
144
0.0208333333333333
144
0.0
144
0.0
144
0.0
144
0.0
144
0.0208333333333333
144
0.0
144
0.0
144
0.0
144
0.0
144
1.0
144
0.0
144
0.0
144
0.0
144
0.0
144
1.0
147
0.0208333333333333
147
0.0
147
0.0
147
0.0
147
0.0
147
0.0208333333333333
147
0.0
147
0.0
147
0.0
147
0.0
147
1.0
147
0.0
147
0.0
147
0.0
147
0.0
147
1.0
  0
MATERIAL
  5
3C
102
{ACAD_XDICTIONARY
360
3D
102
}
102
{ACAD_REACTORS
330
D
102
}
330
D
100
AcDbMaterial
  1
ByLayer
 72
     0
 43
0.0208333333333333
 43
0.0
 43
0.0
 43
0.0
 43
0.0
 43
0.0208333333333333
 43
0.0
 43
0.0
 43
0.0
 43
0.0
 43
1.0
 43
0.0
 43
0.0
 43
0.0
 43
0.0
 43
1.0
 77
     0
 47
0.0208333333333333
 47
0.0
 47
0.0
 47
0.0
 47
0.0
 47
0.0208333333333333
 47
0.0
 47
0.0
 47
0.0
 47
0.0
 47
1.0
 47
0.0
 47
0.0
 47
0.0
 47
0.0
 47
1.0
171
     0
 49
0.0208333333333333
 49
0.0
 49
0.0
 49
0.0
 49
0.0
 49
0.0208333333333333
 49
0.0
 49
0.0
 49
0.0
 49
0.0
 49
1.0
 49
0.0
 49
0.0
 49
0.0
 49
0.0
 49
1.0
175
     0
142
0.0208333333333333
142
0.0
142
0.0
142
0.0
142
0.0
142
0.0208333333333333
142
0.0
142
0.0
142
0.0
142
0.0
142
1.0
142
0.0
142
0.0
142
0.0
142
0.0
142
1.0
179
     0
144
0.0208333333333333
144
0.0
144
0.0
144
0.0
144
0.0
144
0.0208333333333333
144
0.0
144
0.0
144
0.0
144
0.0
144
1.0
144
0.0
144
0.0
144
0.0
144
0.0
144
1.0
147
0.0208333333333333
147
0.0
147
0.0
147
0.0
147
0.0
147
0.0208333333333333
147
0.0
147
0.0
147
0.0
147
0.0
147
1.0
147
0.0
147
0.0
147
0.0
147
0.0
147
1.0
  0
MATERIAL
  5
C
102
{ACAD_XDICTIONARY
360
E
102
}
102
{ACAD_REACTORS
330
D
102
}
330
D
100
AcDbMaterial
  1
Global
 72
     0
 43
0.0208333333333333
 43
0.0
 43
0.0
 43
0.0
 43
0.0
 43
0.0208333333333333
 43
0.0
 43
0.0
 43
0.0
 43
0.0
 43
1.0
 43
0.0
 43
0.0
 43
0.0
 43
0.0
 43
1.0
 77
     0
 47
0.0208333333333333
 47
0.0
 47
0.0
 47
0.0
 47
0.0
 47
0.0208333333333333
 47
0.0
 47
0.0
 47
0.0
 47
0.0
 47
1.0
 47
0.0
 47
0.0
 47
0.0
 47
0.0
 47
1.0
171
     0
 49
0.0208333333333333
 49
0.0
 49
0.0
 49
0.0
 49
0.0
 49
0.0208333333333333
 49
0.0
 49
0.0
 49
0.0
 49
0.0
 49
1.0
 49
0.0
 49
0.0
 49
0.0
 49
0.0
 49
1.0
175
     0
142
0.0208333333333333
142
0.0
142
0.0
142
0.0
142
0.0
142
0.0208333333333333
142
0.0
142
0.0
142
0.0
142
0.0
142
1.0
142
0.0
142
0.0
142
0.0
142
0.0
142
1.0
179
     0
144
0.0208333333333333
144
0.0
144
0.0
144
0.0
144
0.0
144
0.0208333333333333
144
0.0
144
0.0
144
0.0
144
0.0
144
1.0
144
0.0
144
0.0
144
0.0
144
0.0
144
1.0
147
0.0208333333333333
147
0.0
147
0.0
147
0.0
147
0.0
147
0.0208333333333333
147
0.0
147
0.0
147
0.0
147
0.0
147
1.0
147
0.0
147
0.0
147
0.0
147
0.0
147
1.0
  0
MLINESTYLE
  5
58
102
{ACAD_REACTORS
330
3A
102
}
330
3A
100
AcDbMlineStyle
  2
STANDARD
 70
     0
  3

 62
   256
 51
90.0
 52
90.0
 71
     2
 49
0.5
 62
   256
  6
BYLAYER
 49
-0.5
 62
   256
  6
BYLAYER
  0
ACDBPLACEHOLDER
  5
9
102
{ACAD_REACTORS
330
A
102
}
330
A
  0
SCALE
  5
5D
102
{ACAD_REACTORS
330
4F
102
}
330
4F
100
AcDbScale
 70
     0
300
1:1
140
1.0
141
1.0
290
     1
  0
SCALE
  5
5E
102
{ACAD_REACTORS
330
4F
102
}
330
4F
100
AcDbScale
 70
     0
300
1:2
140
1.0
141
2.0
290
     0
  0
SCALE
  5
5F
102
{ACAD_REACTORS
330
4F
102
}
330
4F
100
AcDbScale
 70
     0
300
1:4
140
1.0
141
4.0
290
     0
  0
SCALE
  5
60
102
{ACAD_REACTORS
330
4F
102
}
330
4F
100
AcDbScale
 70
     0
300
1:5
140
1.0
141
5.0
290
     0
  0
SCALE
  5
61
102
{ACAD_REACTORS
330
4F
102
}
330
4F
100
AcDbScale
 70
     0
300
1:8
140
1.0
141
8.0
290
     0
  0
SCALE
  5
62
102
{ACAD_REACTORS
330
4F
102
}
330
4F
100
AcDbScale
 70
     0
300
1:10
140
1.0
141
10.0
290
     0
  0
SCALE
  5
63
102
{ACAD_REACTORS
330
4F
102
}
330
4F
100
AcDbScale
 70
     0
300
1:16
140
1.0
141
16.0
290
     0
  0
SCALE
  5
64
102
{ACAD_REACTORS
330
4F
102
}
330
4F
100
AcDbScale
 70
     0
300
1:20
140
1.0
141
20.0
290
     0
  0
SCALE
  5
65
102
{ACAD_REACTORS
330
4F
102
}
330
4F
100
AcDbScale
 70
     0
300
1:30
140
1.0
141
30.0
290
     0
  0
SCALE
  5
66
102
{ACAD_REACTORS
330
4F
102
}
330
4F
100
AcDbScale
 70
     0
300
1:40
140
1.0
141
40.0
290
     0
  0
SCALE
  5
67
102
{ACAD_REACTORS
330
4F
102
}
330
4F
100
AcDbScale
 70
     0
300
1:50
140
1.0
141
50.0
290
     0
  0
SCALE
  5
68
102
{ACAD_REACTORS
330
4F
102
}
330
4F
100
AcDbScale
 70
     0
300
1:100
140
1.0
141
100.0
290
     0
  0
SCALE
  5
69
102
{ACAD_REACTORS
330
4F
102
}
330
4F
100
AcDbScale
 70
     0
300
2:1
140
2.0
141
1.0
290
     0
  0
SCALE
  5
6A
102
{ACAD_REACTORS
330
4F
102
}
330
4F
100
AcDbScale
 70
     0
300
4:1
140
4.0
141
1.0
290
     0
  0
SCALE
  5
6B
102
{ACAD_REACTORS
330
4F
102
}
330
4F
100
AcDbScale
 70
     0
300
8:1
140
8.0
141
1.0
290
     0
  0
SCALE
  5
6C
102
{ACAD_REACTORS
330
4F
102
}
330
4F
100
AcDbScale
 70
     0
300
10:1
140
10.0
141
1.0
290
     0
  0
SCALE
  5
6D
102
{ACAD_REACTORS
330
4F
102
}
330
4F
100
AcDbScale
 70
     0
300
100:1
140
100.0
141
1.0
290
     0
  0
SCALE
  5
6E
102
{ACAD_REACTORS
330
4F
102
}
330
4F
100
AcDbScale
 70
     0
300
1/128" = 1'-0"
140
0.0078125
141
12.0
290
     0
  0
SCALE
  5
6F
102
{ACAD_REACTORS
330
4F
102
}
330
4F
100
AcDbScale
 70
     0
300
1/64" = 1'-0"
140
0.015625
141
12.0
290
     0
  0
SCALE
  5
70
102
{ACAD_REACTORS
330
4F
102
}
330
4F
100
AcDbScale
 70
     0
300
1/32" = 1'-0"
140
0.03125
141
12.0
290
     0
  0
SCALE
  5
71
102
{ACAD_REACTORS
330
4F
102
}
330
4F
100
AcDbScale
 70
     0
300
1/16" = 1'-0"
140
0.0625
141
12.0
290
     0
  0
SCALE
  5
72
102
{ACAD_REACTORS
330
4F
102
}
330
4F
100
AcDbScale
 70
     0
300
3/32" = 1'-0"
140
0.09375
141
12.0
290
     0
  0
SCALE
  5
73
102
{ACAD_REACTORS
330
4F
102
}
330
4F
100
AcDbScale
 70
     0
300
1/8" = 1'-0"
140
0.125
141
12.0
290
     0
  0
SCALE
  5
74
102
{ACAD_REACTORS
330
4F
102
}
330
4F
100
AcDbScale
 70
     0
300
3/16" = 1'-0"
140
0.1875
141
12.0
290
     0
  0
SCALE
  5
75
102
{ACAD_REACTORS
330
4F
102
}
330
4F
100
AcDbScale
 70
     0
300
1/4" = 1'-0"
140
0.25
141
12.0
290
     0
  0
SCALE
  5
76
102
{ACAD_REACTORS
330
4F
102
}
330
4F
100
AcDbScale
 70
     0
300
3/8" = 1'-0"
140
0.375
141
12.0
290
     0
  0
SCALE
  5
77
102
{ACAD_REACTORS
330
4F
102
}
330
4F
100
AcDbScale
 70
     0
300
1/2" = 1'-0"
140
0.5
141
12.0
290
     0
  0
SCALE
  5
78
102
{ACAD_REACTORS
330
4F
102
}
330
4F
100
AcDbScale
 70
     0
300
3/4" = 1'-0"
140
0.75
141
12.0
290
     0
  0
SCALE
  5
79
102
{ACAD_REACTORS
330
4F
102
}
330
4F
100
AcDbScale
 70
     0
300
1" = 1'-0"
140
1.0
141
12.0
290
     0
  0
SCALE
  5
7A
102
{ACAD_REACTORS
330
4F
102
}
330
4F
100
AcDbScale
 70
     0
300
1-1/2" = 1'-0"
140
1.5
141
12.0
290
     0
  0
SCALE
  5
7B
102
{ACAD_REACTORS
330
4F
102
}
330
4F
100
AcDbScale
 70
     0
300
3" = 1'-0"
140
3.0
141
12.0
290
     0
  0
SCALE
  5
7C
102
{ACAD_REACTORS
330
4F
102
}
330
4F
100
AcDbScale
 70
     0
300
6" = 1'-0"
140
6.0
141
12.0
290
     0
  0
SCALE
  5
7D
102
{ACAD_REACTORS
330
4F
102
}
330
4F
100
AcDbScale
 70
     0
300
1'-0" = 1'-0"
140
12.0
141
12.0
290
     0
  0
TABLESTYLE
  5
59
102
{ACAD_XDICTIONARY
360
5A
102
}
102
{ACAD_REACTORS
330
50
102
}
330
50
100
AcDbTableStyle
  3
Standard
 70
     0
 71
     0
 40
0.06
 41
0.06
280
     0
281
     0
  7
STANDARD
140
0.18
170
     2
 62
     0
 63
     7
283
     0
274
    -2
284
     1
 64
     0
275
    -2
285
     1
 65
     0
276
    -2
286
     1
 66
     0
277
    -2
287
     1
 67
     0
278
    -2
288
     1
 68
     0
279
    -2
289
     1
 69
     0
  7
STANDARD
140
0.25
170
     5
 62
     0
 63
     7
283
     0
274
    -2
284
     1
 64
     0
275
    -2
285
     1
 65
     0
276
    -2
286
     1
 66
     0
277
    -2
287
     1
 67
     0
278
    -2
288
     1
 68
     0
279
    -2
289
     1
 69
     0
  7
STANDARD
140
0.18
170
     5
 62
     0
 63
     7
283
     0
274
    -2
284
     1
 64
     0
275
    -2
285
     1
 65
     0
276
    -2
286
     1
 66
     0
277
    -2
287
     1
 67
     0
278
    -2
288
     1
 68
     0
279
    -2
289
     1
 69
     0
  0
VISUALSTYLE
  5
2E
102
{ACAD_XDICTIONARY
360
1AD
102
}
102
{ACAD_REACTORS
330
2F
102
}
330
2F
100
AcDbVisualStyle
  2

 70
     4
 71
     0
 72
     2
 73
     0
 90
        0
 40
-0.6
 41
-30.0
 62
     5
 63
     7
 74
     1
 91
        4
 64
     7
 65
   257
 75
     1
175
     1
 42
1.0
 92
        0
 66
   257
 43
1.0
 76
     1
 77
     6
 78
     2
 67
     7
 79
     5
170
     0
171
     0
290
     0
174
     0
 93
        1
 44
0.0
173
     0
291
     0
 45
0.0
1001
ACAD
1000
AcDbSavedByObjectVersion
1070
     0
  0
VISUALSTYLE
  5
5B
102
{ACAD_XDICTIONARY
360
1B0
102
}
102
{ACAD_REACTORS
330
2F
102
}
330
2F
100
AcDbVisualStyle
  2

 70
     8
 71
     2
 72
     2
 73
     0
 90
        0
 40
-0.6
 41
-30.0
 62
     5
 63
     7
 74
     1
 91
        0
 64
     7
 65
   257
 75
     1
175
     1
 42
1.0
 92
        8
 66
     8
 43
1.0
 76
     1
 77
     6
 78
     2
 67
     7
 79
     5
170
     0
171
     0
290
     0
174
     0
 93
       13
 44
0.0
173
     0
291
     0
 45
0.0
1001
ACAD
1000
AcDbSavedByObjectVersion
1070
     0
  0
VISUALSTYLE
  5
5C
102
{ACAD_XDICTIONARY
360
1B2
102
}
102
{ACAD_REACTORS
330
2F
102
}
330
2F
100
AcDbVisualStyle
  2
Wireframe
 70
     5
 71
     0
 72
     2
 73
     0
 90
        0
 40
-0.6
 41
-30.0
 62
     5
 63
     7
 74
     1
 91
        4
 64
     7
 65
   257
 75
     1
175
     1
 42
1.0
 92
        0
 66
   257
 43
1.0
 76
     1
 77
     6
 78
     2
 67
     7
 79
     3
170
     0
171
     0
290
     0
174
     0
 93
        1
 44
0.0
173
     0
291
     0
 45
0.0
1001
ACAD
1000
AcDbSavedByObjectVersion
1070
     0
  0
DICTIONARYVAR
  5
1A1
102
{ACAD_REACTORS
330
19C
102
}
330
19C
100
DictionaryVariables
280
     0
  1
1:1
  0
DICTIONARYVAR
  5
19E
102
{ACAD_REACTORS
330
19C
102
}
330
19C
100
DictionaryVariables
280
     0
  1
STANDARD
  0
DICTIONARYVAR
  5
19D
102
{ACAD_REACTORS
330
19C
102
}
330
19C
100
DictionaryVariables
280
     0
  1
STANDARD
  0
DICTIONARYVAR
  5
19F
102
{ACAD_REACTORS
330
19C
102
}
330
19C
100
DictionaryVariables
280
     0
  1

  0
DICTIONARYVAR
  5
1A0
102
{ACAD_REACTORS
330
19C
102
}
330
19C
100
DictionaryVariables
280
     0
  1

  0
DICTIONARYVAR
  5
1A5
102
{ACAD_REACTORS
330
19C
102
}
330
19C
100
DictionaryVariables
280
     0
  1
1
  0
DICTIONARYVAR
  5
1A4
102
{ACAD_REACTORS
330
19C
102
}
330
19C
100
DictionaryVariables
280
     0
  1
1
  0
DICTIONARYVAR
  5
1A3
102
{ACAD_REACTORS
330
19C
102
}
330
19C
100
DictionaryVariables
280
     0
  1
0
  0
DICTIONARYVAR
  5
1A2
102
{ACAD_REACTORS
330
19C
102
}
330
19C
100
DictionaryVariables
280
     0
  1
127
  0
DICTIONARYVAR
  5
1A6
102
{ACAD_REACTORS
330
19C
102
}
330
19C
100
DictionaryVariables
280
     0
  1
2
  0
DICTIONARY
  5
1A9
330
18
100
AcDbDictionary
280
     1
281
     1
  3
ACAD_XREC_ROUNDTRIP
360
1AA
  0
DICTIONARY
  5
1AB
330
1E
100
AcDbDictionary
280
     1
281
     1
  3
ACAD_XREC_ROUNDTRIP
360
1AC
  0
DICTIONARY
  5
46
330
45
100
AcDbDictionary
280
     1
281
     1
  3
ACAD_XREC_ROUNDTRIP
360
47
  3
BUMPTILE
360
48
  3
DIFFUSETILE
360
49
  3
OPACITYTILE
360
4A
  3
REFLECTIONTILE
360
4B
  3
REFRACTIONTILE
360
4C
  3
SPECULARTILE
360
4D
  0
DICTIONARY
  5
3D
330
3C
100
AcDbDictionary
280
     1
281
     1
  3
ACAD_XREC_ROUNDTRIP
360
3E
  3
BUMPTILE
360
3F
  3
DIFFUSETILE
360
40
  3
OPACITYTILE
360
41
  3
REFLECTIONTILE
360
42
  3
REFRACTIONTILE
360
43
  3
SPECULARTILE
360
44
  0
DICTIONARY
  5
E
330
C
100
AcDbDictionary
280
     1
281
     1
  3
ACAD_XREC_ROUNDTRIP
360
F
  3
BUMPTILE
360
10
  3
DIFFUSETILE
360
11
  3
OPACITYTILE
360
12
  3
REFLECTIONTILE
360
13
  3
REFRACTIONTILE
360
14
  3
SPECULARTILE
360
15
  0
DICTIONARY
  5
5A
330
59
100
AcDbDictionary
280
     1
281
     1
  3
ACAD_ROUNDTRIP_2008_TABLESTYLE_CELLSTYLEMAP
360
1A7
  3
ACAD_XREC_ROUNDTRIP
360
1AF
  0
DICTIONARY
  5
1AD
330
2E
100
AcDbDictionary
280
     1
281
     1
  3
ACAD_XREC_ROUNDTRIP
360
1AE
  0
DICTIONARY
  5
1B0
330
5B
100
AcDbDictionary
280
     1
281
     1
  3
ACAD_XREC_ROUNDTRIP
360
1B1
  0
DICTIONARY
  5
1B2
330
5C
100
AcDbDictionary
280
     1
281
     1
  3
ACAD_XREC_ROUNDTRIP
360
1B3
  0
XRECORD
  5
1AA
102
{ACAD_REACTORS
330
1A9
102
}
330
1A9
100
AcDbXrecord
280
     1
102
SHADEPLOT
 70
     0
102
SHADEPLOTRESLEVEL
 70
     2
102
SHADEPLOTCUSTOMDPI
 70
   300
  0
XRECORD
  5
1AC
102
{ACAD_REACTORS
330
1AB
102
}
330
1AB
100
AcDbXrecord
280
     1
102
SHADEPLOT
 70
     0
102
SHADEPLOTRESLEVEL
 70
     2
102
SHADEPLOTCUSTOMDPI
 70
   300
  0
XRECORD
  5
47
102
{ACAD_REACTORS
330
46
102
}
330
46
100
AcDbXrecord
280
     1
102
MATERIAL
148
0.0
149
0.0
149
0.0
 93
        0
 94
      127
282
     0
 72
     0
 77
     0
171
     0
175
     0
179
     0
273
     0
  0
XRECORD
  5
48
102
{ACAD_REACTORS
330
46
102
}
330
46
100
AcDbXrecord
280
     1
270
     1
271
     1
  0
XRECORD
  5
49
102
{ACAD_REACTORS
330
46
102
}
330
46
100
AcDbXrecord
280
     1
270
     1
271
     1
  0
XRECORD
  5
4A
102
{ACAD_REACTORS
330
46
102
}
330
46
100
AcDbXrecord
280
     1
270
     1
271
     1
  0
XRECORD
  5
4B
102
{ACAD_REACTORS
330
46
102
}
330
46
100
AcDbXrecord
280
     1
270
     1
271
     1
  0
XRECORD
  5
4C
102
{ACAD_REACTORS
330
46
102
}
330
46
100
AcDbXrecord
280
     1
270
     1
271
     1
  0
XRECORD
  5
4D
102
{ACAD_REACTORS
330
46
102
}
330
46
100
AcDbXrecord
280
     1
270
     1
271
     1
  0
XRECORD
  5
3E
102
{ACAD_REACTORS
330
3D
102
}
330
3D
100
AcDbXrecord
280
     1
102
MATERIAL
148
0.0
149
0.0
149
0.0
 93
        0
 94
      127
282
     0
 72
     0
 77
     0
171
     0
175
     0
179
     0
273
     0
  0
XRECORD
  5
3F
102
{ACAD_REACTORS
330
3D
102
}
330
3D
100
AcDbXrecord
280
     1
270
     1
271
     1
  0
XRECORD
  5
40
102
{ACAD_REACTORS
330
3D
102
}
330
3D
100
AcDbXrecord
280
     1
270
     1
271
     1
  0
XRECORD
  5
41
102
{ACAD_REACTORS
330
3D
102
}
330
3D
100
AcDbXrecord
280
     1
270
     1
271
     1
  0
XRECORD
  5
42
102
{ACAD_REACTORS
330
3D
102
}
330
3D
100
AcDbXrecord
280
     1
270
     1
271
     1
  0
XRECORD
  5
43
102
{ACAD_REACTORS
330
3D
102
}
330
3D
100
AcDbXrecord
280
     1
270
     1
271
     1
  0
XRECORD
  5
44
102
{ACAD_REACTORS
330
3D
102
}
330
3D
100
AcDbXrecord
280
     1
270
     1
271
     1
  0
XRECORD
  5
F
102
{ACAD_REACTORS
330
E
102
}
330
E
100
AcDbXrecord
280
     1
102
MATERIAL
148
0.0
149
0.0
149
0.0
 93
        0
 94
      127
282
     0
 72
     0
 77
     0
171
     0
175
     0
179
     0
273
     0
  0
XRECORD
  5
10
102
{ACAD_REACTORS
330
E
102
}
330
E
100
AcDbXrecord
280
     1
270
     1
271
     1
  0
XRECORD
  5
11
102
{ACAD_REACTORS
330
E
102
}
330
E
100
AcDbXrecord
280
     1
270
     1
271
     1
  0
XRECORD
  5
12
102
{ACAD_REACTORS
330
E
102
}
330
E
100
AcDbXrecord
280
     1
270
     1
271
     1
  0
XRECORD
  5
13
102
{ACAD_REACTORS
330
E
102
}
330
E
100
AcDbXrecord
280
     1
270
     1
271
     1
  0
XRECORD
  5
14
102
{ACAD_REACTORS
330
E
102
}
330
E
100
AcDbXrecord
280
     1
270
     1
271
     1
  0
XRECORD
  5
15
102
{ACAD_REACTORS
330
E
102
}
330
E
100
AcDbXrecord
280
     1
270
     1
271
     1
  0
CELLSTYLEMAP
  5
1A7
102
{ACAD_REACTORS
330
5A
102
}
330
5A
100
AcDbCellStyleMap
 90
        3
300
CELLSTYLE
  1
TABLEFORMAT_BEGIN
 90
        5
170
     1
 91
        0
 92
    32768
 62
   257
 93
        1
300
CONTENTFORMAT
  1
CONTENTFORMAT_BEGIN
 90
        0
 91
        0
 92
        4
 93
        0
300

 40
0.0
140
1.0
 94
        5
 62
     0
340
25
144
0.25
309
CONTENTFORMAT_END
171
     1
301
MARGIN
  1
CELLMARGIN_BEGIN
 40
0.06
 40
0.06
 40
0.06
 40
0.06
 40
0.18
 40
0.18
309
CELLMARGIN_END
 94
        6
 95
        1
302
GRIDFORMAT
  1
GRIDFORMAT_BEGIN
 90
        0
 91
        1
 62
     0
 92
       -2
340
0
 93
        0
 40
0.045
309
GRIDFORMAT_END
 95
        2
302
GRIDFORMAT
  1
GRIDFORMAT_BEGIN
 90
        0
 91
        1
 62
     0
 92
       -2
340
0
 93
        0
 40
0.045
309
GRIDFORMAT_END
 95
        4
302
GRIDFORMAT
  1
GRIDFORMAT_BEGIN
 90
        0
 91
        1
 62
     0
 92
       -2
340
0
 93
        0
 40
0.045
309
GRIDFORMAT_END
 95
        8
302
GRIDFORMAT
  1
GRIDFORMAT_BEGIN
 90
        0
 91
        1
 62
     0
 92
       -2
340
0
 93
        0
 40
0.045
309
GRIDFORMAT_END
 95
       16
302
GRIDFORMAT
  1
GRIDFORMAT_BEGIN
 90
        0
 91
        1
 62
     0
 92
       -2
340
0
 93
        0
 40
0.045
309
GRIDFORMAT_END
 95
       32
302
GRIDFORMAT
  1
GRIDFORMAT_BEGIN
 90
        0
 91
        1
 62
     0
 92
       -2
340
0
 93
        0
 40
0.045
309
GRIDFORMAT_END
309
TABLEFORMAT_END
  1
CELLSTYLE_BEGIN
 90
        1
 91
        1
300
_TITLE
309
CELLSTYLE_END
300
CELLSTYLE
  1
TABLEFORMAT_BEGIN
 90
        5
170
     1
 91
        0
 92
        0
 62
   257
 93
        1
300
CONTENTFORMAT
  1
CONTENTFORMAT_BEGIN
 90
        0
 91
        0
 92
        4
 93
        0
300

 40
0.0
140
1.0
 94
        5
 62
     0
340
25
144
0.18
309
CONTENTFORMAT_END
171
     1
301
MARGIN
  1
CELLMARGIN_BEGIN
 40
0.06
 40
0.06
 40
0.06
 40
0.06
 40
0.18
 40
0.18
309
CELLMARGIN_END
 94
        6
 95
        1
302
GRIDFORMAT
  1
GRIDFORMAT_BEGIN
 90
        0
 91
        1
 62
     0
 92
       -2
340
0
 93
        0
 40
0.045
309
GRIDFORMAT_END
 95
        2
302
GRIDFORMAT
  1
GRIDFORMAT_BEGIN
 90
        0
 91
        1
 62
     0
 92
       -2
340
0
 93
        0
 40
0.045
309
GRIDFORMAT_END
 95
        4
302
GRIDFORMAT
  1
GRIDFORMAT_BEGIN
 90
        0
 91
        1
 62
     0
 92
       -2
340
0
 93
        0
 40
0.045
309
GRIDFORMAT_END
 95
        8
302
GRIDFORMAT
  1
GRIDFORMAT_BEGIN
 90
        0
 91
        1
 62
     0
 92
       -2
340
0
 93
        0
 40
0.045
309
GRIDFORMAT_END
 95
       16
302
GRIDFORMAT
  1
GRIDFORMAT_BEGIN
 90
        0
 91
        1
 62
     0
 92
       -2
340
0
 93
        0
 40
0.045
309
GRIDFORMAT_END
 95
       32
302
GRIDFORMAT
  1
GRIDFORMAT_BEGIN
 90
        0
 91
        1
 62
     0
 92
       -2
340
0
 93
        0
 40
0.045
309
GRIDFORMAT_END
309
TABLEFORMAT_END
  1
CELLSTYLE_BEGIN
 90
        2
 91
        1
300
_HEADER
309
CELLSTYLE_END
300
CELLSTYLE
  1
TABLEFORMAT_BEGIN
 90
        5
170
     1
 91
        0
 92
        0
 62
   257
 93
        1
300
CONTENTFORMAT
  1
CONTENTFORMAT_BEGIN
 90
        0
 91
        0
 92
        4
 93
        0
300

 40
0.0
140
1.0
 94
        2
 62
     0
340
25
144
0.18
309
CONTENTFORMAT_END
171
     1
301
MARGIN
  1
CELLMARGIN_BEGIN
 40
0.06
 40
0.06
 40
0.06
 40
0.06
 40
0.18
 40
0.18
309
CELLMARGIN_END
 94
        6
 95
        1
302
GRIDFORMAT
  1
GRIDFORMAT_BEGIN
 90
        0
 91
        1
 62
     0
 92
       -2
340
0
 93
        0
 40
0.045
309
GRIDFORMAT_END
 95
        2
302
GRIDFORMAT
  1
GRIDFORMAT_BEGIN
 90
        0
 91
        1
 62
     0
 92
       -2
340
0
 93
        0
 40
0.045
309
GRIDFORMAT_END
 95
        4
302
GRIDFORMAT
  1
GRIDFORMAT_BEGIN
 90
        0
 91
        1
 62
     0
 92
       -2
340
0
 93
        0
 40
0.045
309
GRIDFORMAT_END
 95
        8
302
GRIDFORMAT
  1
GRIDFORMAT_BEGIN
 90
        0
 91
        1
 62
     0
 92
       -2
340
0
 93
        0
 40
0.045
309
GRIDFORMAT_END
 95
       16
302
GRIDFORMAT
  1
GRIDFORMAT_BEGIN
 90
        0
 91
        1
 62
     0
 92
       -2
340
0
 93
        0
 40
0.045
309
GRIDFORMAT_END
 95
       32
302
GRIDFORMAT
  1
GRIDFORMAT_BEGIN
 90
        0
 91
        1
 62
     0
 92
       -2
340
0
 93
        0
 40
0.045
309
GRIDFORMAT_END
309
TABLEFORMAT_END
  1
CELLSTYLE_BEGIN
 90
        3
 91
        2
300
_DATA
309
CELLSTYLE_END
  0
XRECORD
  5
1AF
102
{ACAD_REACTORS
330
5A
102
}
330
5A
100
AcDbXrecord
280
     1
102
ACAD_ROUNDTRIP_PRE2007_TABLESTYLE
 90
        4
 91
        0
  1

 92
        4
 93
        0
  2

 94
        4
 95
        0
  3

  0
XRECORD
  5
1AE
102
{ACAD_REACTORS
330
1AD
102
}
330
1AD
100
AcDbXrecord
280
     1
102
RTVSPost2010Prop28
280
     1
102
RTVSPost2010PropOp28
 70
     1
102
RTVSPost2010Prop29
280
     1
102
RTVSPost2010PropOp29
 70
     1
102
RTVSPost2010Prop30
280
     0
102
RTVSPost2010PropOp30
 70
     1
102
RTVSPost2010Prop31
280
     0
102
RTVSPost2010PropOp31
 70
     1
102
RTVSPost2010Prop32
280
     0
102
RTVSPost2010PropOp32
 70
     1
102
RTVSPost2010Prop33
280
     0
102
RTVSPost2010PropOp33
 70
     1
102
RTVSPost2010Prop34
280
     0
102
RTVSPost2010PropOp34
 70
     1
102
RTVSPost2010Prop35
280
     0
102
RTVSPost2010PropOp35
 70
     1
102
RTVSPost2010Prop36
280
     0
102
RTVSPost2010PropOp36
 70
     1
102
RTVSPost2010Prop37
 90
       50
102
RTVSPost2010PropOp37
 70
     1
102
RTVSPost2010Prop38
140
0.0
102
RTVSPost2010PropOp38
 70
     1
102
RTVSPost2010Prop39
140
1.0
102
RTVSPost2010PropOp39
 70
     1
102
RTVSPost2010Prop40
 90
        0
102
RTVSPost2010PropOp40
 70
     1
102
RTVSPost2010Prop41ColorIndex
 90
       18
102
RTVSPost2010Prop41ColorRGB
 90
        0
102
RTVSPost2010PropOp41
 70
     1
102
RTVSPost2010Prop42
 90
       50
102
RTVSPost2010PropOp42
 70
     1
102
RTVSPost2010Prop43
 90
        3
102
RTVSPost2010PropOp43
 70
     1
102
RTVSPost2010Prop44ColorIndex
 90
        5
102
RTVSPost2010Prop44ColorRGB
 90
      255
102
RTVSPost2010PropOp44
 70
     1
102
RTVSPost2010Prop45
280
     0
102
RTVSPost2010PropOp45
 70
     1
102
RTVSPost2010Prop46
 90
       50
102
RTVSPost2010PropOp46
 70
     1
102
RTVSPost2010Prop47
 90
       50
102
RTVSPost2010PropOp47
 70
     1
102
RTVSPost2010Prop48
 90
       50
102
RTVSPost2010PropOp48
 70
     1
102
RTVSPost2010Prop49
280
     0
102
RTVSPost2010PropOp49
 70
     1
102
RTVSPost2010Prop50
 90
       50
102
RTVSPost2010PropOp50
 70
     1
102
RTVSPost2010Prop51ColorIndex
 90
      256
102
RTVSPost2010Prop51ColorRGB
 90
-16777216
102
RTVSPost2010PropOp51
 70
     0
102
RTVSPost2010Prop52
140
1.0
102
RTVSPost2010PropOp52
 70
     0
102
RTVSPost2010Prop53
 90
        2
102
RTVSPost2010PropOp53
 70
     1
102
RTVSPost2010Prop54
  1
strokes_ogs.tif
102
RTVSPost2010PropOp54
 70
     1
102
RTVSPost2010Prop55
280
     0
102
RTVSPost2010PropOp55
 70
     1
102
RTVSPost2010Prop56
140
1.0
102
RTVSPost2010PropOp56
 70
     1
102
RTVSPost2010Prop57
140
1.0
102
RTVSPost2010PropOp57
 70
     1
102
RTVSPropertyOp0
 70
     1
102
RTVSPropertyOp1
 70
     1
102
RTVSPropertyOp2
 70
     1
102
RTVSPropertyOp3
 70
     1
102
RTVSPropertyOp4
 70
     1
102
RTVSPropertyOp5
 70
     1
102
RTVSPropertyOp6
 70
     1
102
RTVSPropertyOp7
 70
     1
102
RTVSPropertyOp8
 70
     1
102
RTVSPropertyOp9
 70
     1
102
RTVSPropertyOp10
 70
     1
102
RTVSPropertyOp11
 70
     1
102
RTVSPropertyOp12
 70
     1
102
RTVSPropertyOp13
 70
     1
102
RTVSPropertyOp14
 70
     1
102
RTVSPropertyOp15
 70
     1
102
RTVSPropertyOp16
 70
     1
102
RTVSPropertyOp17
 70
     1
102
RTVSPropertyOp18
 70
     1
102
RTVSPropertyOp19
 70
     1
102
RTVSPropertyOp20
 70
     1
102
RTVSPropertyOp21
 70
     1
102
RTVSPropertyOp22
 70
     1
102
RTVSPropertyOp23
 70
     1
102
RTVSPropertyOp24
 70
     1
102
RTVSPropertyOp25
 70
     1
102
RTVSPropertyOp26
 70
     1
102
RTVSPropertyOp27
 70
     1
102
RTVSPropertyOp28
 70
     1
102
RTVSPropertyOp29
 70
     1
102
RTVSPropertyOp30
 70
     1
102
RTVSPropertyOp31
 70
     1
102
RTVSPropertyOp32
 70
     1
102
RTVSPropertyOp33
 70
     1
102
RTVSPropertyOp34
 70
     1
102
RTVSPropertyOp35
 70
     1
102
RTVSPropertyOp36
 70
     1
102
RTVSPropertyOp37
 70
     1
102
RTVSPropertyOp38
 70
     1
102
RTVSPropertyOp39
 70
     1
102
RTVSPropertyOp40
 70
     1
102
RTVSPropertyOp41
 70
     1
102
RTVSPropertyOp42
 70
     1
102
RTVSPropertyOp43
 70
     1
102
RTVSPropertyOp44
 70
     1
102
RTVSPropertyOp45
 70
     1
102
RTVSPropertyOp46
 70
     1
102
RTVSPropertyOp47
 70
     1
102
RTVSPropertyOp48
 70
     1
102
RTVSPropertyOp49
 70
     1
102
RTVSPropertyOp50
 70
     1
102
RTVSPropertyOp51
 70
     0
102
RTVSPropertyOp52
 70
     0
102
RTVSPropertyOp53
 70
     1
102
RTVSPropertyOp54
 70
     1
102
RTVSPropertyOp55
 70
     1
102
RTVSPropertyOp56
 70
     1
102
RTVSPropertyOp57
 70
     1
102
RTVSPropertyOp58
 70
     1
102
RTVSPropertyOp59
 70
     1
102
RTVSPropertyOp60
 70
     1
102
RTVSPropertyOp61
 70
     1
102
RTVSPropertyOp62
 70
     1
  0
XRECORD
  5
1B1
102
{ACAD_REACTORS
330
1B0
102
}
330
1B0
100
AcDbXrecord
280
     1
102
RTVSPost2010Prop28
280
     0
102
RTVSPost2010PropOp28
 70
     1
102
RTVSPost2010Prop29
280
     1
102
RTVSPost2010PropOp29
 70
     1
102
RTVSPost2010Prop30
280
     1
102
RTVSPost2010PropOp30
 70
     1
102
RTVSPost2010Prop31
280
     0
102
RTVSPost2010PropOp31
 70
     1
102
RTVSPost2010Prop32
280
     0
102
RTVSPost2010PropOp32
 70
     1
102
RTVSPost2010Prop33
280
     0
102
RTVSPost2010PropOp33
 70
     1
102
RTVSPost2010Prop34
280
     0
102
RTVSPost2010PropOp34
 70
     1
102
RTVSPost2010Prop35
280
     0
102
RTVSPost2010PropOp35
 70
     1
102
RTVSPost2010Prop36
280
     0
102
RTVSPost2010PropOp36
 70
     1
102
RTVSPost2010Prop37
 90
       50
102
RTVSPost2010PropOp37
 70
     1
102
RTVSPost2010Prop38
140
0.0
102
RTVSPost2010PropOp38
 70
     1
102
RTVSPost2010Prop39
140
1.0
102
RTVSPost2010PropOp39
 70
     1
102
RTVSPost2010Prop40
 90
        0
102
RTVSPost2010PropOp40
 70
     1
102
RTVSPost2010Prop41ColorIndex
 90
       18
102
RTVSPost2010Prop41ColorRGB
 90
        0
102
RTVSPost2010PropOp41
 70
     1
102
RTVSPost2010Prop42
 90
       50
102
RTVSPost2010PropOp42
 70
     1
102
RTVSPost2010Prop43
 90
        3
102
RTVSPost2010PropOp43
 70
     1
102
RTVSPost2010Prop44ColorIndex
 90
        5
102
RTVSPost2010Prop44ColorRGB
 90
      255
102
RTVSPost2010PropOp44
 70
     1
102
RTVSPost2010Prop45
280
     0
102
RTVSPost2010PropOp45
 70
     1
102
RTVSPost2010Prop46
 90
       50
102
RTVSPost2010PropOp46
 70
     1
102
RTVSPost2010Prop47
 90
       50
102
RTVSPost2010PropOp47
 70
     1
102
RTVSPost2010Prop48
 90
       50
102
RTVSPost2010PropOp48
 70
     1
102
RTVSPost2010Prop49
280
     0
102
RTVSPost2010PropOp49
 70
     1
102
RTVSPost2010Prop50
 90
       50
102
RTVSPost2010PropOp50
 70
     1
102
RTVSPost2010Prop51ColorIndex
 90
      256
102
RTVSPost2010Prop51ColorRGB
 90
-16777216
102
RTVSPost2010PropOp51
 70
     0
102
RTVSPost2010Prop52
140
1.0
102
RTVSPost2010PropOp52
 70
     0
102
RTVSPost2010Prop53
 90
        2
102
RTVSPost2010PropOp53
 70
     1
102
RTVSPost2010Prop54
  1
strokes_ogs.tif
102
RTVSPost2010PropOp54
 70
     1
102
RTVSPost2010Prop55
280
     0
102
RTVSPost2010PropOp55
 70
     1
102
RTVSPost2010Prop56
140
1.0
102
RTVSPost2010PropOp56
 70
     1
102
RTVSPost2010Prop57
140
1.0
102
RTVSPost2010PropOp57
 70
     1
102
RTVSPropertyOp0
 70
     1
102
RTVSPropertyOp1
 70
     1
102
RTVSPropertyOp2
 70
     1
102
RTVSPropertyOp3
 70
     1
102
RTVSPropertyOp4
 70
     1
102
RTVSPropertyOp5
 70
     1
102
RTVSPropertyOp6
 70
     1
102
RTVSPropertyOp7
 70
     1
102
RTVSPropertyOp8
 70
     1
102
RTVSPropertyOp9
 70
     1
102
RTVSPropertyOp10
 70
     1
102
RTVSPropertyOp11
 70
     1
102
RTVSPropertyOp12
 70
     1
102
RTVSPropertyOp13
 70
     1
102
RTVSPropertyOp14
 70
     1
102
RTVSPropertyOp15
 70
     1
102
RTVSPropertyOp16
 70
     1
102
RTVSPropertyOp17
 70
     1
102
RTVSPropertyOp18
 70
     1
102
RTVSPropertyOp19
 70
     1
102
RTVSPropertyOp20
 70
     1
102
RTVSPropertyOp21
 70
     1
102
RTVSPropertyOp22
 70
     1
102
RTVSPropertyOp23
 70
     1
102
RTVSPropertyOp24
 70
     1
102
RTVSPropertyOp25
 70
     1
102
RTVSPropertyOp26
 70
     1
102
RTVSPropertyOp27
 70
     1
102
RTVSPropertyOp28
 70
     1
102
RTVSPropertyOp29
 70
     1
102
RTVSPropertyOp30
 70
     1
102
RTVSPropertyOp31
 70
     1
102
RTVSPropertyOp32
 70
     1
102
RTVSPropertyOp33
 70
     1
102
RTVSPropertyOp34
 70
     1
102
RTVSPropertyOp35
 70
     1
102
RTVSPropertyOp36
 70
     1
102
RTVSPropertyOp37
 70
     1
102
RTVSPropertyOp38
 70
     1
102
RTVSPropertyOp39
 70
     1
102
RTVSPropertyOp40
 70
     1
102
RTVSPropertyOp41
 70
     1
102
RTVSPropertyOp42
 70
     1
102
RTVSPropertyOp43
 70
     1
102
RTVSPropertyOp44
 70
     1
102
RTVSPropertyOp45
 70
     1
102
RTVSPropertyOp46
 70
     1
102
RTVSPropertyOp47
 70
     1
102
RTVSPropertyOp48
 70
     1
102
RTVSPropertyOp49
 70
     1
102
RTVSPropertyOp50
 70
     1
102
RTVSPropertyOp51
 70
     0
102
RTVSPropertyOp52
 70
     0
102
RTVSPropertyOp53
 70
     1
102
RTVSPropertyOp54
 70
     1
102
RTVSPropertyOp55
 70
     1
102
RTVSPropertyOp56
 70
     1
102
RTVSPropertyOp57
 70
     1
102
RTVSPropertyOp58
 70
     1
102
RTVSPropertyOp59
 70
     1
102
RTVSPropertyOp60
 70
     1
102
RTVSPropertyOp61
 70
     1
102
RTVSPropertyOp62
 70
     1
  0
XRECORD
  5
1B3
102
{ACAD_REACTORS
330
1B2
102
}
330
1B2
100
AcDbXrecord
280
     1
102
RTVSPost2010Prop28
280
     0
102
RTVSPost2010PropOp28
 70
     1
102
RTVSPost2010Prop29
280
     1
102
RTVSPost2010PropOp29
 70
     1
102
RTVSPost2010Prop30
280
     1
102
RTVSPost2010PropOp30
 70
     1
102
RTVSPost2010Prop31
280
     0
102
RTVSPost2010PropOp31
 70
     1
102
RTVSPost2010Prop32
280
     0
102
RTVSPost2010PropOp32
 70
     1
102
RTVSPost2010Prop33
280
     0
102
RTVSPost2010PropOp33
 70
     1
102
RTVSPost2010Prop34
280
     0
102
RTVSPost2010PropOp34
 70
     1
102
RTVSPost2010Prop35
280
     0
102
RTVSPost2010PropOp35
 70
     1
102
RTVSPost2010Prop36
280
     0
102
RTVSPost2010PropOp36
 70
     1
102
RTVSPost2010Prop37
 90
       50
102
RTVSPost2010PropOp37
 70
     1
102
RTVSPost2010Prop38
140
0.0
102
RTVSPost2010PropOp38
 70
     1
102
RTVSPost2010Prop39
140
1.0
102
RTVSPost2010PropOp39
 70
     1
102
RTVSPost2010Prop40
 90
        0
102
RTVSPost2010PropOp40
 70
     1
102
RTVSPost2010Prop41ColorIndex
 90
       18
102
RTVSPost2010Prop41ColorRGB
 90
        0
102
RTVSPost2010PropOp41
 70
     1
102
RTVSPost2010Prop42
 90
       50
102
RTVSPost2010PropOp42
 70
     1
102
RTVSPost2010Prop43
 90
        3
102
RTVSPost2010PropOp43
 70
     1
102
RTVSPost2010Prop44ColorIndex
 90
        5
102
RTVSPost2010Prop44ColorRGB
 90
      255
102
RTVSPost2010PropOp44
 70
     1
102
RTVSPost2010Prop45
280
     0
102
RTVSPost2010PropOp45
 70
     1
102
RTVSPost2010Prop46
 90
       50
102
RTVSPost2010PropOp46
 70
     1
102
RTVSPost2010Prop47
 90
       50
102
RTVSPost2010PropOp47
 70
     1
102
RTVSPost2010Prop48
 90
       50
102
RTVSPost2010PropOp48
 70
     1
102
RTVSPost2010Prop49
280
     0
102
RTVSPost2010PropOp49
 70
     1
102
RTVSPost2010Prop50
 90
       50
102
RTVSPost2010PropOp50
 70
     1
102
RTVSPost2010Prop51ColorIndex
 90
      256
102
RTVSPost2010Prop51ColorRGB
 90
-16777216
102
RTVSPost2010PropOp51
 70
     0
102
RTVSPost2010Prop52
140
1.0
102
RTVSPost2010PropOp52
 70
     0
102
RTVSPost2010Prop53
 90
        2
102
RTVSPost2010PropOp53
 70
     1
102
RTVSPost2010Prop54
  1
strokes_ogs.tif
102
RTVSPost2010PropOp54
 70
     1
102
RTVSPost2010Prop55
280
     0
102
RTVSPost2010PropOp55
 70
     1
102
RTVSPost2010Prop56
140
1.0
102
RTVSPost2010PropOp56
 70
     1
102
RTVSPost2010Prop57
140
1.0
102
RTVSPost2010PropOp57
 70
     1
102
RTVSPropertyOp0
 70
     1
102
RTVSPropertyOp1
 70
     1
102
RTVSPropertyOp2
 70
     1
102
RTVSPropertyOp3
 70
     1
102
RTVSPropertyOp4
 70
     1
102
RTVSPropertyOp5
 70
     1
102
RTVSPropertyOp6
 70
     1
102
RTVSPropertyOp7
 70
     1
102
RTVSPropertyOp8
 70
     1
102
RTVSPropertyOp9
 70
     1
102
RTVSPropertyOp10
 70
     1
102
RTVSPropertyOp11
 70
     1
102
RTVSPropertyOp12
 70
     1
102
RTVSPropertyOp13
 70
     1
102
RTVSPropertyOp14
 70
     1
102
RTVSPropertyOp15
 70
     1
102
RTVSPropertyOp16
 70
     1
102
RTVSPropertyOp17
 70
     1
102
RTVSPropertyOp18
 70
     1
102
RTVSPropertyOp19
 70
     1
102
RTVSPropertyOp20
 70
     1
102
RTVSPropertyOp21
 70
     1
102
RTVSPropertyOp22
 70
     1
102
RTVSPropertyOp23
 70
     1
102
RTVSPropertyOp24
 70
     1
102
RTVSPropertyOp25
 70
     1
102
RTVSPropertyOp26
 70
     1
102
RTVSPropertyOp27
 70
     1
102
RTVSPropertyOp28
 70
     1
102
RTVSPropertyOp29
 70
     1
102
RTVSPropertyOp30
 70
     1
102
RTVSPropertyOp31
 70
     1
102
RTVSPropertyOp32
 70
     1
102
RTVSPropertyOp33
 70
     1
102
RTVSPropertyOp34
 70
     1
102
RTVSPropertyOp35
 70
     1
102
RTVSPropertyOp36
 70
     1
102
RTVSPropertyOp37
 70
     1
102
RTVSPropertyOp38
 70
     1
102
RTVSPropertyOp39
 70
     1
102
RTVSPropertyOp40
 70
     1
102
RTVSPropertyOp41
 70
     1
102
RTVSPropertyOp42
 70
     1
102
RTVSPropertyOp43
 70
     1
102
RTVSPropertyOp44
 70
     1
102
RTVSPropertyOp45
 70
     1
102
RTVSPropertyOp46
 70
     1
102
RTVSPropertyOp47
 70
     1
102
RTVSPropertyOp48
 70
     1
102
RTVSPropertyOp49
 70
     1
102
RTVSPropertyOp50
 70
     1
102
RTVSPropertyOp51
 70
     0
102
RTVSPropertyOp52
 70
     0
102
RTVSPropertyOp53
 70
     1
102
RTVSPropertyOp54
 70
     1
102
RTVSPropertyOp55
 70
     1
102
RTVSPropertyOp56
 70
     1
102
RTVSPropertyOp57
 70
     1
102
RTVSPropertyOp58
 70
     1
102
RTVSPropertyOp59
 70
     1
102
RTVSPropertyOp60
 70
     1
102
RTVSPropertyOp61
 70
     1
102
RTVSPropertyOp62
 70
     1
  0
ENDSEC
  0
EOF
