  0
SECTION
  2
HEADER
  9
$ACADVER
  1
AC1015
  9
$ACADMAINTVER
 70
    18
  9
$DWGCODEPAGE
  3
ANSI_932
  9
$INSBASE
 10
0.0
 20
0.0
 30
0.0
  9
$EXTMIN
 10
-134.2226550108739
 20
0.0
 30
0.0
  9
$EXTMAX
 10
491.4322506791983
 20
311.5222782389088
 30
0.0
  9
$LIMMIN
 10
0.0
 20
0.0
  9
$LIMMAX
 10
420.0
 20
297.0
  9
$ORTHOMODE
 70
     1
  9
$REGENMODE
 70
     1
  9
$FILLMODE
 70
     1
  9
$QTEXTMODE
 70
     0
  9
$MIRRTEXT
 70
     1
  9
$LTSCALE
 40
1.0
  9
$ATTMODE
 70
     1
  9
$TEXTSIZE
 40
30.0
  9
$TRACEWID
 40
0.05
  9
$TEXTSTYLE
  7
SUNPOU
  9
$CLAYER
  8
0
  9
$CELTYPE
  6
BYLAYER
  9
$CECOLOR
 62
   256
  9
$CELTSCALE
 40
1.0
  9
$DISPSILH
 70
     0
  9
$DIMSCALE
 40
1.0
  9
$DIMASZ
 40
2.0
  9
$DIMEXO
 40
10.0
  9
$DIMDLI
 40
0.38
  9
$DIMRND
 40
0.0
  9
$DIMDLE
 40
0.0
  9
$DIMEXE
 40
0.0
  9
$DIMTP
 40
0.0
  9
$DIMTM
 40
0.0
  9
$DIMTXT
 40
10.0
  9
$DIMCEN
 40
0.0
  9
$DIMTSZ
 40
0.0
  9
$DIMTOL
 70
     0
  9
$DIMLIM
 70
     0
  9
$DIMTIH
 70
     0
  9
$DIMTOH
 70
     0
  9
$DIMSE1
 70
     0
  9
$DIMSE2
 70
     0
  9
$DIMTAD
 70
     1
  9
$DIMZIN
 70
     0
  9
$DIMBLK
  1
Dot
  9
$DIMASO
 70
     1
  9
$DIMSHO
 70
     1
  9
$DIMPOST
  1

  9
$DIMAPOST
  1

  9
$DIMALT
 70
     0
  9
$DIMALTD
 70
     2
  9
$DIMALTF
 40
25.4
  9
$DIMLFAC
 40
1.0
  9
$DIMTOFL
 70
     0
  9
$DIMTVP
 40
0.0
  9
$DIMTIX
 70
     0
  9
$DIMSOXD
 70
     0
  9
$DIMSAH
 70
     0
  9
$DIMBLK1
  1

  9
$DIMBLK2
  1

  9
$DIMSTYLE
  2
STANDARD
  9
$DIMCLRD
 70
    60
  9
$DIMCLRE
 70
    70
  9
$DIMCLRT
 70
    60
  9
$DIMTFAC
 40
0.064286
  9
$DIMGAP
 40
3.0
  9
$DIMJUST
 70
     0
  9
$DIMSD1
 70
     0
  9
$DIMSD2
 70
     0
  9
$DIMTOLJ
 70
     1
  9
$DIMTZIN
 70
     0
  9
$DIMALTZ
 70
     0
  9
$DIMALTTZ
 70
     0
  9
$DIMUPT
 70
     0
  9
$DIMDEC
 70
     0
  9
$DIMTDEC
 70
     0
  9
$DIMALTU
 70
     2
  9
$DIMALTTD
 70
     2
  9
$DIMTXSTY
  7
SUNPOU
  9
$DIMAUNIT
 70
     0
  9
$DIMADEC
 70
     0
  9
$DIMALTRND
 40
0.0
  9
$DIMAZIN
 70
     0
  9
$DIMDSEP
 70
    46
  9
$DIMATFIT
 70
     3
  9
$DIMFRAC
 70
     0
  9
$DIMLDRBLK
  1

  9
$DIMLUNIT
 70
     2
  9
$DIMLWD
 70
    -2
  9
$DIMLWE
 70
    -2
  9
$DIMTMOVE
 70
     0
  9
$LUNITS
 70
     2
  9
$LUPREC
 70
     5
  9
$SKETCHINC
 40
0.1
  9
$FILLETRAD
 40
0.0
  9
$AUNITS
 70
     0
  9
$AUPREC
 70
     0
  9
$MENU
  1
acad
  9
$ELEVATION
 40
0.0
  9
$PELEVATION
 40
0.0
  9
$THICKNESS
 40
0.0
  9
$LIMCHECK
 70
     0
  9
$CHAMFERA
 40
0.0
  9
$CHAMFERB
 40
0.0
  9
$CHAMFERC
 40
0.0
  9
$CHAMFERD
 40
0.0
  9
$SKPOLY
 70
     0
  9
$TDCREATE
 40
2450623.654673033
  9
$TDUCREATE
 40
2450623.279673032
  9
$TDUPDATE
 40
2454574.774101042
  9
$TDUUPDATE
 40
2454574.399101042
  9
$TDINDWG
 40
0.5418741551
  9
$TDUSRTIMER
 40
0.5418739699
  9
$USRTIMER
 70
     1
  9
$ANGBASE
 50
0.0
  9
$ANGDIR
 70
     0
  9
$PDMODE
 70
     0
  9
$PDSIZE
 40
0.0
  9
$PLINEWID
 40
0.0
  9
$SPLFRAME
 70
     0
  9
$SPLINETYPE
 70
     6
  9
$SPLINESEGS
 70
     8
  9
$HANDSEED
  5
148
  9
$SURFTAB1
 70
     6
  9
$SURFTAB2
 70
     6
  9
$SURFTYPE
 70
     6
  9
$SURFU
 70
     6
  9
$SURFV
 70
     6
  9
$UCSBASE
  2

  9
$UCSNAME
  2

  9
$UCSORG
 10
0.0
 20
0.0
 30
0.0
  9
$UCSXDIR
 10
1.0
 20
0.0
 30
0.0
  9
$UCSYDIR
 10
0.0
 20
1.0
 30
0.0
  9
$UCSORTHOREF
  2

  9
$UCSORTHOVIEW
 70
     0
  9
$UCSORGTOP
 10
0.0
 20
0.0
 30
0.0
  9
$UCSORGBOTTOM
 10
0.0
 20
0.0
 30
0.0
  9
$UCSORGLEFT
 10
0.0
 20
0.0
 30
0.0
  9
$UCSORGRIGHT
 10
0.0
 20
0.0
 30
0.0
  9
$UCSORGFRONT
 10
0.0
 20
0.0
 30
0.0
  9
$UCSORGBACK
 10
0.0
 20
0.0
 30
0.0
  9
$PUCSBASE
  2

  9
$PUCSNAME
  2

  9
$PUCSORG
 10
0.0
 20
0.0
 30
0.0
  9
$PUCSXDIR
 10
1.0
 20
0.0
 30
0.0
  9
$PUCSYDIR
 10
0.0
 20
1.0
 30
0.0
  9
$PUCSORTHOREF
  2

  9
$PUCSORTHOVIEW
 70
     0
  9
$PUCSORGTOP
 10
0.0
 20
0.0
 30
0.0
  9
$PUCSORGBOTTOM
 10
0.0
 20
0.0
 30
0.0
  9
$PUCSORGLEFT
 10
0.0
 20
0.0
 30
0.0
  9
$PUCSORGRIGHT
 10
0.0
 20
0.0
 30
0.0
  9
$PUCSORGFRONT
 10
0.0
 20
0.0
 30
0.0
  9
$PUCSORGBACK
 10
0.0
 20
0.0
 30
0.0
  9
$USERI1
 70
     0
  9
$USERI2
 70
     0
  9
$USERI3
 70
     0
  9
$USERI4
 70
     0
  9
$USERI5
 70
     0
  9
$USERR1
 40
0.0
  9
$USERR2
 40
0.0
  9
$USERR3
 40
0.0
  9
$USERR4
 40
0.0
  9
$USERR5
 40
0.0
  9
$WORLDVIEW
 70
     1
  9
$SHADEDGE
 70
     3
  9
$SHADEDIF
 70
    70
  9
$TILEMODE
 70
     1
  9
$MAXACTVP
 70
    16
  9
$PINSBASE
 10
0.0
 20
0.0
 30
0.0
  9
$PLIMCHECK
 70
     0
  9
$PEXTMIN
 10
1.000000000000000E+20
 20
1.000000000000000E+20
 30
1.000000000000000E+20
  9
$PEXTMAX
 10
-1.000000000000000E+20
 20
-1.000000000000000E+20
 30
-1.000000000000000E+20
  9
$PLIMMIN
 10
0.0
 20
0.0
  9
$PLIMMAX
 10
12.0
 20
9.0
  9
$UNITMODE
 70
     0
  9
$VISRETAIN
 70
     0
  9
$PLINEGEN
 70
     0
  9
$PSLTSCALE
 70
     1
  9
$TREEDEPTH
 70
  3020
  9
$CMLSTYLE
  2
STANDARD
  9
$CMLJUST
 70
     0
  9
$CMLSCALE
 40
1.0
  9
$PROXYGRAPHICS
 70
     1
  9
$MEASUREMENT
 70
     0
  9
$CELWEIGHT
370
    -1
  9
$ENDCAPS
280
     0
  9
$JOINSTYLE
280
     0
  9
$LWDISPLAY
290
     0
  9
$INSUNITS
 70
     0
  9
$HYPERLINKBASE
  1

  9
$STYLESHEET
  1

  9
$XEDIT
290
     1
  9
$CEPSNTYPE
380
     0
  9
$PSTYLEMODE
290
     1
  9
$FINGERPRINTGUID
  2
{1655C512-7F1F-47EF-B026-38749AC62BE8}
  9
$VERSIONGUID
  2
{97D3636F-2EC8-4305-85B2-6006964A31C8}
  9
$EXTNAMES
290
     1
  9
$PSVPSCALE
 40
0.0
  9
$OLESTARTUP
290
     0
  0
ENDSEC
  0
SECTION
  2
CLASSES
  0
CLASS
  1
DICTIONARYVAR
  2
AcDbDictionaryVar
  3
ObjectDBX Classes
 90
        0
280
     0
281
     0
  0
CLASS
  1
ACDBDICTIONARYWDFLT
  2
AcDbDictionaryWithDefault
  3
ObjectDBX Classes
 90
        0
280
     0
281
     0
  0
CLASS
  1
ACDBPLACEHOLDER
  2
AcDbPlaceHolder
  3
ObjectDBX Classes
 90
        0
280
     0
281
     0
  0
CLASS
  1
LAYOUT
  2
AcDbLayout
  3
ObjectDBX Classes
 90
        0
280
     0
281
     0
  0
CLASS
  1
TABLESTYLE
  2
AcDbTableStyle
  3
ObjectDBX Classes
 90
     4095
280
     0
281
     0
  0
CLASS
  1
SORTENTSTABLE
  2
AcDbSortentsTable
  3
ObjectDBX Classes
 90
        0
280
     0
281
     0
  0
CLASS
  1
MATERIAL
  2
AcDbMaterial
  3
ObjectDBX Classes
 90
     1153
280
     0
281
     0
  0
CLASS
  1
VISUALSTYLE
  2
AcDbVisualStyle
  3
ObjectDBX Classes
 90
     4095
280
     0
281
     0
  0
CLASS
  1
SCALE
  2
AcDbScale
  3
ObjectDBX Classes
 90
     1153
280
     0
281
     0
  0
CLASS
  1
MLEADERSTYLE
  2
AcDbMLeaderStyle
  3
ACDB_MLEADERSTYLE_CLASS
 90
    36863
280
     0
281
     0
  0
CLASS
  1
ACDBSECTIONVIEWSTYLE
  2
AcDbSectionViewStyle
  3
ObjectDBX Classes
 90
    33793
280
     0
281
     0
  0
CLASS
  1
ACDBDETAILVIEWSTYLE
  2
AcDbDetailViewStyle
  3
ObjectDBX Classes
 90
    33793
280
     0
281
     0
  0
CLASS
  1
CELLSTYLEMAP
  2
AcDbCellStyleMap
  3
ObjectDBX Classes
 90
     1152
280
     0
281
     0
  0
ENDSEC
  0
SECTION
  2
TABLES
  0
TABLE
  2
VPORT
  5
29
330
0
100
AcDbSymbolTable
 70
     1
  0
VPORT
  5
2A
330
29
100
AcDbSymbolTableRecord
100
AcDbViewportTableRecord
  2
*Active
 70
     0
 10
0.0
 20
0.0
 11
1.0
 21
1.0
 12
483.198972708426
 22
15.69293144754795
 13
0.0
 23
0.0
 14
1.0
 24
1.0
 15
0.0
 25
0.0
 16
0.0
 26
0.0
 36
1.0
 17
0.0
 27
0.0
 37
0.0
 40
1031.576698229728
 41
2.036505867014341
 42
50.0
 43
0.0
 44
0.0
 50
0.0
 51
0.0
 71
     0
 72
 20000
 73
     1
 74
     1
 75
     0
 76
     0
 77
     0
 78
     0
281
     0
 65
     1
110
0.0
120
0.0
130
0.0
111
1.0
121
0.0
131
0.0
112
0.0
122
1.0
132
0.0
 79
     0
146
0.0
1001
ACAD_NAV_VCDISPLAY
1070
     3
  0
ENDTAB
  0
TABLE
  2
LTYPE
  5
24
330
0
100
AcDbSymbolTable
 70
     1
  0
LTYPE
  5
25
330
24
100
AcDbSymbolTableRecord
100
AcDbLinetypeTableRecord
  2
BYBLOCK
 70
     0
  3

 72
    65
 73
     0
 40
0.0
  0
LTYPE
  5
26
330
24
100
AcDbSymbolTableRecord
100
AcDbLinetypeTableRecord
  2
BYLAYER
 70
     0
  3

 72
    65
 73
     0
 40
0.0
  0
LTYPE
  5
13
330
24
100
AcDbSymbolTableRecord
100
AcDbLinetypeTableRecord
  2
CONTINUOUS
 70
     0
  3
Solid line
 72
    65
 73
     0
 40
0.0
  0
ENDTAB
  0
TABLE
  2
LAYER
  5
1C
102
{ACAD_XDICTIONARY
360
1D
102
}
330
0
100
AcDbSymbolTable
 70
     5
  0
LAYER
  5
6
330
1C
100
AcDbSymbolTableRecord
100
AcDbLayerTableRecord
  2
0
 70
     0
 62
     7
  6
CONTINUOUS
370
    -3
390
7
  0
LAYER
  5
107
330
1C
100
AcDbSymbolTableRecord
100
AcDbLayerTableRecord
  2
KIJUN
 70
     0
 62
     7
  6
CONTINUOUS
370
    -3
390
7
  0
LAYER
  5
104
330
1C
100
AcDbSymbolTableRecord
100
AcDbLayerTableRecord
  2
HOJO
 70
     0
 62
     3
  6
CONTINUOUS
370
    -3
390
7
  0
LAYER
  5
101
330
1C
100
AcDbSymbolTableRecord
100
AcDbLayerTableRecord
  2
WAKU
 70
     0
 62
     1
  6
CONTINUOUS
370
    -3
390
7
  0
LAYER
  5
72
330
1C
100
AcDbSymbolTableRecord
100
AcDbLayerTableRecord
  2
DEFPOINTS
 70
     0
 62
     7
  6
CONTINUOUS
290
     0
370
    -3
390
7
  0
ENDTAB
  0
TABLE
  2
STYLE
  5
21
330
0
100
AcDbSymbolTable
 70
     2
  0
STYLE
  5
22
330
21
100
AcDbSymbolTableRecord
100
AcDbTextStyleTableRecord
  2
STANDARD
 70
     0
 40
0.0
 41
1.0
 50
0.0
 71
     0
 42
0.2
  3
txt
  4

  0
STYLE
  5
4D
330
21
100
AcDbSymbolTableRecord
100
AcDbTextStyleTableRecord
  2
SUNPOU
 70
     0
 40
0.0
 41
1.0
 50
0.0
 71
     0
 42
30.0
  3
txt
  4
bigfont
  0
ENDTAB
  0
TABLE
  2
VIEW
  5
27
330
0
100
AcDbSymbolTable
 70
     0
  0
ENDTAB
  0
TABLE
  2
UCS
  5
28
330
0
100
AcDbSymbolTable
 70
     0
  0
ENDTAB
  0
TABLE
  2
APPID
  5
2E
330
0
100
AcDbSymbolTable
 70
     5
  0
APPID
  5
20
330
2E
100
AcDbSymbolTableRecord
100
AcDbRegAppTableRecord
  2
ACAD
 70
     0
  0
APPID
  5
17
330
2E
100
AcDbSymbolTableRecord
100
AcDbRegAppTableRecord
  2
ACAD_PSEXT
 70
     0
  0
APPID
  5
31
330
2E
100
AcDbSymbolTableRecord
100
AcDbRegAppTableRecord
  2
ACAD_DSTYLE_DIMJAG
 70
     0
  0
APPID
  5
32
330
2E
100
AcDbSymbolTableRecord
100
AcDbRegAppTableRecord
  2
ACAD_DSTYLE_DIMTALN
 70
     0
  0
APPID
  5
2D
330
2E
100
AcDbSymbolTableRecord
100
AcDbRegAppTableRecord
  2
ACAD_NAV_VCDISPLAY
 70
     0
  0
ENDTAB
  0
TABLE
  2
DIMSTYLE
  5
2F
330
0
100
AcDbSymbolTable
 70
     3
100
AcDbDimStyleTable
 71
     3
340
30
340
33
340
34
  0
DIMSTYLE
105
33
330
2F
100
AcDbSymbolTableRecord
100
AcDbDimStyleTableRecord
  2
STANDARD
 70
     0
340
22
  0
DIMSTYLE
105
34
330
2F
100
AcDbSymbolTableRecord
100
AcDbDimStyleTableRecord
  2
MIHASI
 70
     0
 41
3.0
 42
2.0
 43
1.0
 44
0.0
 73
     0
 74
     0
 77
     1
 78
     8
140
2.799999999999998
141
2.0
143
0.03937007874016
147
1.0
171
     3
172
     1
175
     1
176
     2
177
     2
178
     2
271
     3
272
     3
274
     3
283
     0
284
     8
288
     1
340
22
  0
DIMSTYLE
105
30
102
{ACAD_REACTORS
330
E6
330
F3
330
D7
330
CA
330
BD
330
99
330
AB
330
A2
330
B4
330
90
330
83
330
68
330
76
330
11B
330
108
102
}
330
2F
100
AcDbSymbolTableRecord
100
AcDbDimStyleTableRecord
  2
ISO-25
 70
     0
 41
2.5
 42
0.625
 43
3.75
 44
1.25
 73
     0
 74
     0
 77
     1
 78
     8
140
2.5
141
2.5
143
0.03937007874016
147
0.625
171
     3
172
     1
271
     2
272
     2
274
     3
283
     0
284
     8
340
22
1001
ACAD_DSTYLE_DIMJAG
1070
   388
1040
1.5
1001
ACAD_DSTYLE_DIMTALN
1070
   392
1070
     0
  0
ENDTAB
  0
TABLE
  2
BLOCK_RECORD
  5
1
330
0
100
AcDbSymbolTable
 70
    16
  0
BLOCK_RECORD
  5
2
102
{ACAD_XDICTIONARY
360
3
102
}
330
1
100
AcDbSymbolTableRecord
100
AcDbBlockTableRecord
  2
*MODEL_SPACE
340
15
  0
BLOCK_RECORD
  5
18
330
1
100
AcDbSymbolTableRecord
100
AcDbBlockTableRecord
  2
*PAPER_SPACE
340
1B
  0
BLOCK_RECORD
  5
4E
330
1
100
AcDbSymbolTableRecord
100
AcDbBlockTableRecord
  2
_Dot
340
0
  0
BLOCK_RECORD
  5
69
330
1
100
AcDbSymbolTableRecord
100
AcDbBlockTableRecord
  2
*D1
340
0
  0
BLOCK_RECORD
  5
77
330
1
100
AcDbSymbolTableRecord
100
AcDbBlockTableRecord
  2
*D2
340
0
  0
BLOCK_RECORD
  5
84
330
1
100
AcDbSymbolTableRecord
100
AcDbBlockTableRecord
  2
*D3
340
0
  0
BLOCK_RECORD
  5
91
330
1
100
AcDbSymbolTableRecord
100
AcDbBlockTableRecord
  2
*D4
340
0
  0
BLOCK_RECORD
  5
9A
330
1
100
AcDbSymbolTableRecord
100
AcDbBlockTableRecord
  2
*D5
340
0
  0
BLOCK_RECORD
  5
A3
330
1
100
AcDbSymbolTableRecord
100
AcDbBlockTableRecord
  2
*D6
340
0
  0
BLOCK_RECORD
  5
AC
330
1
100
AcDbSymbolTableRecord
100
AcDbBlockTableRecord
  2
*D7
340
0
  0
BLOCK_RECORD
  5
B5
330
1
100
AcDbSymbolTableRecord
100
AcDbBlockTableRecord
  2
*D8
340
0
  0
BLOCK_RECORD
  5
BE
330
1
100
AcDbSymbolTableRecord
100
AcDbBlockTableRecord
  2
*D9
340
0
  0
BLOCK_RECORD
  5
CB
330
1
100
AcDbSymbolTableRecord
100
AcDbBlockTableRecord
  2
*D10
340
0
  0
BLOCK_RECORD
  5
D8
330
1
100
AcDbSymbolTableRecord
100
AcDbBlockTableRecord
  2
*D11
340
0
  0
BLOCK_RECORD
  5
E7
330
1
100
AcDbSymbolTableRecord
100
AcDbBlockTableRecord
  2
*D12
340
0
  0
BLOCK_RECORD
  5
F4
330
1
100
AcDbSymbolTableRecord
100
AcDbBlockTableRecord
  2
*D13
340
0
  0
BLOCK_RECORD
  5
109
330
1
100
AcDbSymbolTableRecord
100
AcDbBlockTableRecord
  2
*D14
340
0
  0
BLOCK_RECORD
  5
11C
330
1
100
AcDbSymbolTableRecord
100
AcDbBlockTableRecord
  2
*D15
340
0
  0
ENDTAB
  0
ENDSEC
  0
SECTION
  2
BLOCKS
  0
BLOCK
  5
5
330
2
100
AcDbEntity
  8
0
100
AcDbBlockBegin
  2
*MODEL_SPACE
 70
     0
 10
0.0
 20
0.0
 30
0.0
  3
*MODEL_SPACE
  1

  0
ENDBLK
  5
14
330
2
100
AcDbEntity
  8
0
100
AcDbBlockEnd
  0
BLOCK
  5
19
330
18
100
AcDbEntity
 67
     1
  8
0
100
AcDbBlockBegin
  2
*PAPER_SPACE
 70
     0
 10
0.0
 20
0.0
 30
0.0
  3
*PAPER_SPACE
  1

  0
ENDBLK
  5
1A
330
18
100
AcDbEntity
 67
     1
  8
0
100
AcDbBlockEnd
  0
BLOCK
  5
4F
330
4E
100
AcDbEntity
  8
0
100
AcDbBlockBegin
  2
_Dot
 70
     0
 10
0.0
 20
0.0
 30
0.0
  3
_Dot
  1

  0
LWPOLYLINE
  5
50
330
4E
100
AcDbEntity
  8
0
  6
ByBlock
 62
     0
100
AcDbPolyline
 90
        2
 70
     1
 43
0.5
 10
-0.25
 20
0.0
 42
1.0
 10
0.25
 20
0.0
 42
1.0
  0
LINE
  5
51
330
4E
100
AcDbEntity
  8
0
  6
ByBlock
 62
     0
370
    -2
100
AcDbLine
 10
-0.5
 20
0.0
 30
0.0
 11
-1.0
 21
0.0
 31
0.0
  0
ENDBLK
  5
52
330
4E
100
AcDbEntity
  8
0
100
AcDbBlockEnd
  0
BLOCK
  5
6A
330
69
100
AcDbEntity
  8
0
100
AcDbBlockBegin
  2
*D1
 70
     1
 10
0.0
 20
0.0
 30
0.0
  3
*D1
  1

  0
LINE
  5
6B
330
69
100
AcDbEntity
  8
0
 62
     0
370
    -2
100
AcDbLine
 10
149.4336988448508
 20
239.9701369894418
 30
0.0
 11
-115.4726550108738
 21
239.9701369894419
 31
0.0
  0
LINE
  5
6C
330
69
100
AcDbEntity
  8
0
 62
     0
370
    -2
100
AcDbLine
 10
-75.56630115514906
 20
119.9701369894419
 30
0.0
 11
-115.4726550108739
 21
119.9701369894419
 31
0.0
  0
LINE
  5
6D
330
69
100
AcDbEntity
  8
0
 62
     0
370
    -2
100
AcDbLine
 10
-114.2226550108738
 20
229.9701369894419
 30
0.0
 11
-114.2226550108739
 21
129.9701369894419
 31
0.0
  0
SOLID
  5
6E
330
69
100
AcDbEntity
  8
0
 62
     0
100
AcDbTrace
 10
-115.8893216775405
 20
229.9701369894419
 30
0.0
 11
-112.5559883442072
 21
229.9701369894419
 31
0.0
 12
-114.2226550108738
 22
239.9701369894419
 32
0.0
 13
-114.2226550108738
 23
239.9701369894419
 33
0.0
  0
SOLID
  5
6F
330
69
100
AcDbEntity
  8
0
 62
     0
100
AcDbTrace
 10
-115.8893216775406
 20
129.9701369894419
 30
0.0
 11
-112.5559883442072
 21
129.9701369894419
 31
0.0
 12
-114.2226550108739
 22
119.9701369894419
 32
0.0
 13
-114.2226550108739
 23
119.9701369894419
 33
0.0
  0
MTEXT
  5
70
330
69
100
AcDbEntity
  8
0
 62
     0
100
AcDbMText
 10
-123.2226550108739
 20
179.9701369894418
 30
0.0
 40
8.0
 41
0.0
 71
     5
 72
     1
  1
120
 11
0.0000000000000001
 21
1.0
 31
0.0
 73
     1
 44
1.0
1001
ACAD
1000
MTEXTBEGIN
1070
    73
1070
     1
1070
    44
1040
1.0
1070
    74
1070
     0
1000
MTEXTEND
  0
POINT
  5
71
330
69
100
AcDbEntity
  8
DEFPOINTS
 62
     0
100
AcDbPoint
 10
152.4336988448508
 20
239.9701369894418
 30
0.0
  0
POINT
  5
73
330
69
100
AcDbEntity
  8
DEFPOINTS
 62
     0
100
AcDbPoint
 10
-72.56630115514906
 20
119.9701369894419
 30
0.0
  0
POINT
  5
74
330
69
100
AcDbEntity
  8
DEFPOINTS
 62
     0
100
AcDbPoint
 10
-114.2226550108739
 20
119.9701369894419
 30
0.0
  0
ENDBLK
  5
75
330
69
100
AcDbEntity
  8
0
100
AcDbBlockEnd
  0
BLOCK
  5
78
330
77
100
AcDbEntity
  8
0
100
AcDbBlockBegin
  2
*D2
 70
     1
 10
0.0
 20
0.0
 30
0.0
  3
*D2
  1

  0
LINE
  5
79
330
77
100
AcDbEntity
  8
0
 62
     0
370
    -2
100
AcDbLine
 10
-72.56630115514917
 20
116.9701369894418
 30
0.0
 11
-72.56630115514917
 21
62.32239431700964
 31
0.0
  0
LINE
  5
7A
330
77
100
AcDbEntity
  8
0
 62
     0
370
    -2
100
AcDbLine
 10
377.433698844851
 20
116.9701369894418
 30
0.0
 11
377.433698844851
 21
62.32239431700964
 31
0.0
  0
LINE
  5
7B
330
77
100
AcDbEntity
  8
0
 62
     0
370
    -2
100
AcDbLine
 10
-62.56630115514917
 20
63.57239431700964
 30
0.0
 11
367.433698844851
 21
63.57239431700964
 31
0.0
  0
SOLID
  5
7C
330
77
100
AcDbEntity
  8
0
 62
     0
100
AcDbTrace
 10
-62.56630115514917
 20
65.23906098367631
 30
0.0
 11
-62.56630115514917
 21
61.90572765034297
 31
0.0
 12
-72.56630115514917
 22
63.57239431700964
 32
0.0
 13
-72.56630115514917
 23
63.57239431700964
 33
0.0
  0
SOLID
  5
7D
330
77
100
AcDbEntity
  8
0
 62
     0
100
AcDbTrace
 10
367.433698844851
 20
65.23906098367631
 30
0.0
 11
367.433698844851
 21
61.90572765034297
 31
0.0
 12
377.433698844851
 22
63.57239431700964
 32
0.0
 13
377.433698844851
 23
63.57239431700964
 33
0.0
  0
MTEXT
  5
7E
330
77
100
AcDbEntity
  8
0
 62
     0
100
AcDbMText
 10
149.5000866037699
 20
72.57239431700964
 30
0.0
 40
8.0
 41
0.0
 71
     5
 72
     1
  1
450
 73
     1
 44
1.0
1001
ACAD
1000
MTEXTBEGIN
1070
    73
1070
     1
1070
    44
1040
1.0
1070
    74
1070
     0
1000
MTEXTEND
  0
POINT
  5
7F
330
77
100
AcDbEntity
  8
DEFPOINTS
 62
     0
100
AcDbPoint
 10
-72.56630115514917
 20
119.9701369894418
 30
0.0
  0
POINT
  5
80
330
77
100
AcDbEntity
  8
DEFPOINTS
 62
     0
100
AcDbPoint
 10
377.433698844851
 20
119.9701369894418
 30
0.0
  0
POINT
  5
81
330
77
100
AcDbEntity
  8
DEFPOINTS
 62
     0
100
AcDbPoint
 10
377.433698844851
 20
63.57239431700964
 30
0.0
  0
ENDBLK
  5
82
330
77
100
AcDbEntity
  8
0
100
AcDbBlockEnd
  0
BLOCK
  5
85
330
84
100
AcDbEntity
  8
0
100
AcDbBlockBegin
  2
*D3
 70
     1
 10
0.0
 20
0.0
 30
0.0
  3
*D3
  1

  0
LINE
  5
86
330
84
100
AcDbEntity
  8
0
 62
     0
370
    -2
100
AcDbLine
 10
-75.56630115514893
 20
159.9701369894419
 30
0.0
 11
-97.33193313427999
 21
159.9701369894419
 31
0.0
  0
LINE
  5
87
330
84
100
AcDbEntity
  8
0
 62
     0
370
    -2
100
AcDbLine
 10
-75.56630115514917
 20
119.9701369894419
 30
0.0
 11
-97.33193313427999
 21
119.9701369894419
 31
0.0
  0
LINE
  5
88
330
84
100
AcDbEntity
  8
0
 62
     0
370
    -2
100
AcDbLine
 10
-96.08193313427999
 20
149.9701369894419
 30
0.0
 11
-96.08193313427999
 21
129.9701369894419
 31
0.0
  0
SOLID
  5
89
330
84
100
AcDbEntity
  8
0
 62
     0
100
AcDbTrace
 10
-97.74859980094667
 20
149.9701369894419
 30
0.0
 11
-94.41526646761332
 21
149.9701369894419
 31
0.0
 12
-96.08193313427999
 22
159.9701369894419
 32
0.0
 13
-96.08193313427999
 23
159.9701369894419
 33
0.0
  0
SOLID
  5
8A
330
84
100
AcDbEntity
  8
0
 62
     0
100
AcDbTrace
 10
-97.74859980094667
 20
129.9701369894419
 30
0.0
 11
-94.41526646761332
 21
129.9701369894419
 31
0.0
 12
-96.08193313427999
 22
119.9701369894419
 32
0.0
 13
-96.08193313427999
 23
119.9701369894419
 33
0.0
  0
MTEXT
  5
8B
330
84
100
AcDbEntity
  8
0
 62
     0
100
AcDbMText
 10
-105.08193313428
 20
139.9701369894418
 30
0.0
 40
8.0
 41
0.0
 71
     5
 72
     1
  1
40
 11
0.0000000000000001
 21
1.0
 31
0.0
 73
     1
 44
1.0
1001
ACAD
1000
MTEXTBEGIN
1070
    73
1070
     1
1070
    44
1040
1.0
1070
    74
1070
     0
1000
MTEXTEND
  0
POINT
  5
8C
330
84
100
AcDbEntity
  8
DEFPOINTS
 62
     0
100
AcDbPoint
 10
-72.56630115514894
 20
159.9701369894419
 30
0.0
  0
POINT
  5
8D
330
84
100
AcDbEntity
  8
DEFPOINTS
 62
     0
100
AcDbPoint
 10
-72.56630115514917
 20
119.9701369894419
 30
0.0
  0
POINT
  5
8E
330
84
100
AcDbEntity
  8
DEFPOINTS
 62
     0
100
AcDbPoint
 10
-96.08193313427999
 20
119.9701369894419
 30
0.0
  0
ENDBLK
  5
8F
330
84
100
AcDbEntity
  8
0
100
AcDbBlockEnd
  0
BLOCK
  5
92
330
91
100
AcDbEntity
  8
0
100
AcDbBlockBegin
  2
*D4
 70
     1
 10
0.0
 20
0.0
 30
0.0
  3
*D4
  1

  0
LINE
  5
93
330
91
100
AcDbEntity
  8
0
 62
     0
370
    -2
100
AcDbLine
 10
160.2481995648216
 20
169.7311106116497
 30
0.0
 11
181.8529956729738
 21
224.3643906259886
 31
0.0
  0
MTEXT
  5
94
330
91
100
AcDbEntity
  8
0
 62
     0
100
AcDbMText
 10
157.394964185983
 20
186.989704061666
 30
0.0
 40
8.0
 41
0.0
 71
     5
 72
     1
  1
R90
 11
0.3677412103515288
 21
0.9299281704568329
 31
0.0
 73
     1
 44
1.0
1001
ACAD
1000
MTEXTBEGIN
1070
    73
1070
     1
1070
    44
1040
1.0
1070
    74
1070
     0
1000
MTEXTEND
  0
SOLID
  5
95
330
91
100
AcDbEntity
  8
0
 62
     0
100
AcDbTrace
 10
180.3031153888791
 20
224.9772926432411
 30
0.0
 11
183.4028759570686
 21
223.751488608736
 31
0.0
 12
185.5304077764891
 22
233.6636723305569
 32
0.0
 13
185.5304077764891
 23
233.6636723305569
 33
0.0
  0
POINT
  5
96
330
91
100
AcDbEntity
  8
DEFPOINTS
 62
     0
100
AcDbPoint
 10
185.5304077764891
 20
233.6636723305569
 30
0.0
  0
POINT
  5
97
330
91
100
AcDbEntity
  8
DEFPOINTS
 62
     0
100
AcDbPoint
 10
152.4336988448516
 20
149.970136989442
 30
0.0
  0
ENDBLK
  5
98
330
91
100
AcDbEntity
  8
0
100
AcDbBlockEnd
  0
BLOCK
  5
9B
330
9A
100
AcDbEntity
  8
0
100
AcDbBlockBegin
  2
*D5
 70
     1
 10
0.0
 20
0.0
 30
0.0
  3
*D5
  1

  0
LINE
  5
9C
330
9A
100
AcDbEntity
  8
0
 62
     0
370
    -2
100
AcDbLine
 10
259.9166152960424
 20
267.8480602862426
 30
0.0
 11
232.7408107251151
 21
213.6085904292539
 31
0.0
  0
MTEXT
  5
9D
330
9A
100
AcDbEntity
  8
0
 62
     0
100
AcDbMText
 10
244.8521729830078
 20
257.8727396276523
 30
0.0
 40
8.0
 41
0.0
 71
     5
 72
     1
  1
R45
 11
0.4479528225977037
 21
0.8940571954448721
 31
0.0
 73
     1
 44
1.0
1001
ACAD
1000
MTEXTBEGIN
1070
    73
1070
     1
1070
    44
1040
1.0
1070
    74
1070
     0
1000
MTEXTEND
  0
SOLID
  5
9E
330
9A
100
AcDbEntity
  8
0
 62
     0
100
AcDbTrace
 10
231.2507153993736
 20
214.3551784669167
 30
0.0
 11
234.2309060508565
 21
212.862002391591
 31
0.0
 12
228.2612824991381
 22
204.6680184748051
 32
0.0
 13
228.2612824991381
 23
204.6680184748051
 33
0.0
  0
POINT
  5
9F
330
9A
100
AcDbEntity
  8
DEFPOINTS
 62
     0
100
AcDbPoint
 10
228.2612824991381
 20
204.6680184748051
 30
0.0
  0
POINT
  5
A0
330
9A
100
AcDbEntity
  8
DEFPOINTS
 62
     0
100
AcDbPoint
 10
248.4191595160348
 20
244.9005922698244
 30
0.0
  0
ENDBLK
  5
A1
330
9A
100
AcDbEntity
  8
0
100
AcDbBlockEnd
  0
BLOCK
  5
A4
330
A3
100
AcDbEntity
  8
0
100
AcDbBlockBegin
  2
*D6
 70
     1
 10
0.0
 20
0.0
 30
0.0
  3
*D6
  1

  0
LINE
  5
A5
330
A3
100
AcDbEntity
  8
0
 62
     0
370
    -2
100
AcDbLine
 10
245.0240070967057
 20
153.1593427126518
 30
0.0
 11
285.7061813727423
 21
190.0483786712126
 31
0.0
  0
MTEXT
  5
A6
330
A3
100
AcDbEntity
  8
0
 62
     0
100
AcDbMText
 10
249.1027031479128
 20
169.0068035912799
 30
0.0
 40
8.0
 41
0.0
 71
     5
 72
     1
  1
R10
 11
0.7407983176213
 21
0.6717275136611955
 31
0.0
 73
     1
 44
1.0
1001
ACAD
1000
MTEXTBEGIN
1070
    73
1070
     1
1070
    44
1040
1.0
1070
    74
1070
     0
1000
MTEXTEND
  0
SOLID
  5
A7
330
A3
100
AcDbEntity
  8
0
 62
     0
100
AcDbTrace
 10
284.5866355166402
 20
191.2830425339148
 30
0.0
 11
286.8257272288442
 21
188.8137148085104
 31
0.0
 12
293.1141645489552
 22
196.7656538078245
 32
0.0
 13
293.1141645489552
 23
196.7656538078245
 33
0.0
  0
POINT
  5
A8
330
A3
100
AcDbEntity
  8
DEFPOINTS
 62
     0
100
AcDbPoint
 10
293.1141645489552
 20
196.7656538078245
 30
0.0
  0
POINT
  5
A9
330
A3
100
AcDbEntity
  8
DEFPOINTS
 62
     0
100
AcDbPoint
 10
285.7061813727422
 20
190.0483786712126
 30
0.0
  0
ENDBLK
  5
AA
330
A3
100
AcDbEntity
  8
0
100
AcDbBlockEnd
  0
BLOCK
  5
AD
330
AC
100
AcDbEntity
  8
0
100
AcDbBlockBegin
  2
*D7
 70
     1
 10
0.0
 20
0.0
 30
0.0
  3
*D7
  1

  0
LINE
  5
AE
330
AC
100
AcDbEntity
  8
0
 62
     0
370
    -2
100
AcDbLine
 10
355.832231068959
 20
230.4988717827562
 30
0.0
 11
333.8417103165486
 21
173.9580772934475
 31
0.0
  0
MTEXT
  5
AF
330
AC
100
AcDbEntity
  8
0
 62
     0
100
AcDbMText
 10
341.7654402636038
 20
219.1600076031825
 30
0.0
 40
8.0
 41
0.0
 71
     5
 72
     1
  1
R72
 11
0.362481111303468
 21
0.9319911179556395
 31
0.0
 73
     1
 44
1.0
1001
ACAD
1000
MTEXTBEGIN
1070
    73
1070
     1
1070
    44
1040
1.0
1070
    74
1070
     0
1000
MTEXTEND
  0
SOLID
  5
B0
330
AC
100
AcDbEntity
  8
0
 62
     0
100
AcDbTrace
 10
332.2883917866225
 20
174.5622124789532
 30
0.0
 11
335.3950288464746
 21
173.3539421079417
 31
0.0
 12
330.2168992035139
 22
164.6381661138911
 32
0.0
 13
330.2168992035139
 23
164.6381661138911
 33
0.0
  0
POINT
  5
B1
330
AC
100
AcDbEntity
  8
DEFPOINTS
 62
     0
100
AcDbPoint
 10
330.2168992035139
 20
164.6381661138911
 30
0.0
  0
POINT
  5
B2
330
AC
100
AcDbEntity
  8
DEFPOINTS
 62
     0
100
AcDbPoint
 10
356.3155392173635
 20
231.7415266066969
 30
0.0
  0
ENDBLK
  5
B3
330
AC
100
AcDbEntity
  8
0
100
AcDbBlockEnd
  0
BLOCK
  5
B6
330
B5
100
AcDbEntity
  8
0
100
AcDbBlockBegin
  2
*D8
 70
     1
 10
0.0
 20
0.0
 30
0.0
  3
*D8
  1

  0
LINE
  5
B7
330
B5
100
AcDbEntity
  8
0
 62
     0
370
    -2
100
AcDbLine
 10
246.181693237214
 20
88.69474604505658
 30
0.0
 11
262.6431574148749
 21
147.085367223222
 31
0.0
  0
MTEXT
  5
B8
330
B5
100
AcDbEntity
  8
0
 62
     0
100
AcDbMText
 10
241.7703857896293
 20
106.2157280679721
 30
0.0
 40
8.0
 41
0.0
 71
     5
 72
     1
  1
R45
 11
0.2713428161152895
 21
0.9624827666730579
 31
0.0
 73
     1
 44
1.0
1001
ACAD
1000
MTEXTBEGIN
1070
    73
1070
     1
1070
    44
1040
1.0
1070
    74
1070
     0
1000
MTEXTEND
  0
SOLID
  5
B9
330
B5
100
AcDbEntity
  8
0
 62
     0
100
AcDbTrace
 10
261.0390194704198
 20
147.5376052500809
 30
0.0
 11
264.24729535933
 21
146.6331291963632
 31
0.0
 12
265.3565855760278
 22
156.7101948899527
 32
0.0
 13
265.3565855760278
 23
156.7101948899527
 33
0.0
  0
POINT
  5
BA
330
B5
100
AcDbEntity
  8
DEFPOINTS
 62
     0
100
AcDbPoint
 10
265.3565855760278
 20
156.7101948899527
 30
0.0
  0
POINT
  5
BB
330
B5
100
AcDbEntity
  8
DEFPOINTS
 62
     0
100
AcDbPoint
 10
253.1461588508398
 20
113.3984703896652
 30
0.0
  0
ENDBLK
  5
BC
330
B5
100
AcDbEntity
  8
0
100
AcDbBlockEnd
  0
BLOCK
  5
BF
330
BE
100
AcDbEntity
  8
0
100
AcDbBlockBegin
  2
*D9
 70
     1
 10
0.0
 20
0.0
 30
0.0
  3
*D9
  1

  0
LINE
  5
C0
330
BE
100
AcDbEntity
  8
0
 62
     0
370
    -2
100
AcDbLine
 10
88.4433917307283
 20
216.2571071763631
 30
0.0
 11
88.4433917307283
 21
272.0139404127551
 31
0.0
  0
LINE
  5
C1
330
BE
100
AcDbEntity
  8
0
 62
     0
370
    -2
100
AcDbLine
 10
216.4240059589724
 20
216.2571071763642
 30
0.0
 11
216.4240059589724
 21
272.0139404127551
 31
0.0
  0
LINE
  5
C2
330
BE
100
AcDbEntity
  8
0
 62
     0
370
    -2
100
AcDbLine
 10
98.44339173072832
 20
270.7639404127551
 30
0.0
 11
206.4240059589724
 21
270.7639404127551
 31
0.0
  0
SOLID
  5
C3
330
BE
100
AcDbEntity
  8
0
 62
     0
100
AcDbTrace
 10
98.44339173072832
 20
272.4306070794217
 30
0.0
 11
98.44339173072832
 21
269.0972737460884
 31
0.0
 12
88.4433917307283
 22
270.7639404127551
 32
0.0
 13
88.4433917307283
 23
270.7639404127551
 33
0.0
  0
SOLID
  5
C4
330
BE
100
AcDbEntity
  8
0
 62
     0
100
AcDbTrace
 10
206.4240059589724
 20
272.4306070794217
 30
0.0
 11
206.4240059589724
 21
269.0972737460884
 31
0.0
 12
216.4240059589724
 22
270.7639404127551
 32
0.0
 13
216.4240059589724
 23
270.7639404127551
 33
0.0
  0
MTEXT
  5
C5
330
BE
100
AcDbEntity
  8
0
 62
     0
100
AcDbMText
 10
150.7813770912143
 20
279.7639404127551
 30
0.0
 40
8.0
 41
0.0
 71
     5
 72
     1
  1
127.98
 73
     1
 44
1.0
1001
ACAD
1000
MTEXTBEGIN
1070
    73
1070
     1
1070
    44
1040
1.0
1070
    74
1070
     0
1000
MTEXTEND
  0
POINT
  5
C6
330
BE
100
AcDbEntity
  8
DEFPOINTS
 62
     0
100
AcDbPoint
 10
88.4433917307283
 20
213.2571071763631
 30
0.0
  0
POINT
  5
C7
330
BE
100
AcDbEntity
  8
DEFPOINTS
 62
     0
100
AcDbPoint
 10
216.4240059589724
 20
213.2571071763642
 30
0.0
  0
POINT
  5
C8
330
BE
100
AcDbEntity
  8
DEFPOINTS
 62
     0
100
AcDbPoint
 10
216.4240059589724
 20
270.7639404127551
 30
0.0
  0
ENDBLK
  5
C9
330
BE
100
AcDbEntity
  8
0
100
AcDbBlockEnd
  0
BLOCK
  5
CC
330
CB
100
AcDbEntity
  8
0
100
AcDbBlockBegin
  2
*D10
 70
     1
 10
0.0
 20
0.0
 30
0.0
  3
*D10
  1

  0
LINE
  5
CD
330
CB
100
AcDbEntity
  8
0
 62
     0
370
    -2
100
AcDbLine
 10
-72.56630115514917
 20
162.8884904241758
 30
0.0
 11
-72.56630115514917
 21
272.0139404127551
 31
0.0
  0
LINE
  5
CE
330
CB
100
AcDbEntity
  8
0
 62
     0
370
    -2
100
AcDbLine
 10
10.50293957485746
 20
198.0527878680994
 30
0.0
 11
10.50293957485746
 21
272.0139404127551
 31
0.0
  0
LINE
  5
CF
330
CB
100
AcDbEntity
  8
0
 62
     0
370
    -2
100
AcDbLine
 10
-62.56630115514917
 20
270.7639404127551
 30
0.0
 11
0.5029395748574661
 21
270.7639404127551
 31
0.0
  0
SOLID
  5
D0
330
CB
100
AcDbEntity
  8
0
 62
     0
100
AcDbTrace
 10
-62.56630115514917
 20
272.4306070794217
 30
0.0
 11
-62.56630115514917
 21
269.0972737460884
 31
0.0
 12
-72.56630115514917
 22
270.7639404127551
 32
0.0
 13
-72.56630115514917
 23
270.7639404127551
 33
0.0
  0
SOLID
  5
D1
330
CB
100
AcDbEntity
  8
0
 62
     0
100
AcDbTrace
 10
0.5029395748574661
 20
272.4306070794217
 30
0.0
 11
0.5029395748574661
 21
269.0972737460884
 31
0.0
 12
10.50293957485746
 22
270.7639404127551
 32
0.0
 13
10.50293957485746
 23
270.7639404127551
 33
0.0
  0
MTEXT
  5
D2
330
CB
100
AcDbEntity
  8
0
 62
     0
100
AcDbMText
 10
-28.97401449737663
 20
279.7639404127551
 30
0.0
 40
8.0
 41
0.0
 71
     5
 72
     1
  1
83.07
 73
     1
 44
1.0
1001
ACAD
1000
MTEXTBEGIN
1070
    73
1070
     1
1070
    44
1040
1.0
1070
    74
1070
     0
1000
MTEXTEND
  0
POINT
  5
D3
330
CB
100
AcDbEntity
  8
DEFPOINTS
 62
     0
100
AcDbPoint
 10
-72.56630115514917
 20
159.8884904241758
 30
0.0
  0
POINT
  5
D4
330
CB
100
AcDbEntity
  8
DEFPOINTS
 62
     0
100
AcDbPoint
 10
10.50293957485746
 20
195.0527878680994
 30
0.0
  0
POINT
  5
D5
330
CB
100
AcDbEntity
  8
DEFPOINTS
 62
     0
100
AcDbPoint
 10
10.50293957485746
 20
270.7639404127551
 30
0.0
  0
ENDBLK
  5
D6
330
CB
100
AcDbEntity
  8
0
100
AcDbBlockEnd
  0
BLOCK
  5
D9
330
D8
100
AcDbEntity
  8
0
100
AcDbBlockBegin
  2
*D11
 70
     1
 10
0.0
 20
0.0
 30
0.0
  3
*D11
  1

  0
LINE
  5
DA
330
D8
100
AcDbEntity
  8
0
 62
     0
370
    -2
100
AcDbLine
 10
10.50293957485746
 20
207.4886259344524
 30
0.0
 11
10.50293957485746
 21
297.7722782389087
 31
0.0
  0
LINE
  5
DB
330
D8
100
AcDbEntity
  8
0
 62
     0
370
    -2
100
AcDbLine
 10
19.10725639465215
 20
212.3929677763143
 30
0.0
 11
19.10725639465215
 21
297.7722782389087
 31
0.0
  0
LINE
  5
DC
330
D8
100
AcDbEntity
  8
0
 62
     0
370
    -2
100
AcDbLine
 10
0.5029395748574661
 20
296.5222782389087
 30
0.0
 11
-9.497060425142533
 21
296.5222782389087
 31
0.0
  0
LINE
  5
DD
330
D8
100
AcDbEntity
  8
0
 62
     0
370
    -2
100
AcDbLine
 10
29.10725639465216
 20
296.5222782389087
 30
0.0
 11
39.10725639465216
 21
296.5222782389087
 31
0.0
  0
LINE
  5
DE
330
D8
100
AcDbEntity
  8
0
 62
     0
370
    -2
100
AcDbLine
 10
10.50293957485746
 20
296.5222782389087
 30
0.0
 11
19.10725639465215
 21
296.5222782389087
 31
0.0
  0
SOLID
  5
DF
330
D8
100
AcDbEntity
  8
0
 62
     0
100
AcDbTrace
 10
0.5029395748574661
 20
298.1889449055754
 30
0.0
 11
0.5029395748574661
 21
294.855611572242
 31
0.0
 12
10.50293957485746
 22
296.5222782389087
 32
0.0
 13
10.50293957485746
 23
296.5222782389087
 33
0.0
  0
SOLID
  5
E0
330
D8
100
AcDbEntity
  8
0
 62
     0
100
AcDbTrace
 10
29.10725639465216
 20
298.1889449055754
 30
0.0
 11
29.10725639465216
 21
294.855611572242
 31
0.0
 12
19.10725639465215
 22
296.5222782389087
 32
0.0
 13
19.10725639465215
 23
296.5222782389087
 33
0.0
  0
MTEXT
  5
E1
330
D8
100
AcDbEntity
  8
0
 62
     0
100
AcDbMText
 10
14.80509798475481
 20
305.5222782389087
 30
0.0
 40
8.0
 41
0.0
 71
     5
 72
     1
  1
8.6
 73
     1
 44
1.0
1001
ACAD
1000
MTEXTBEGIN
1070
    73
1070
     1
1070
    44
1040
1.0
1070
    74
1070
     0
1000
MTEXTEND
  0
POINT
  5
E2
330
D8
100
AcDbEntity
  8
DEFPOINTS
 62
     0
100
AcDbPoint
 10
10.50293957485746
 20
204.4886259344524
 30
0.0
  0
POINT
  5
E3
330
D8
100
AcDbEntity
  8
DEFPOINTS
 62
     0
100
AcDbPoint
 10
19.10725639465215
 20
209.3929677763143
 30
0.0
  0
POINT
  5
E4
330
D8
100
AcDbEntity
  8
DEFPOINTS
 62
     0
100
AcDbPoint
 10
19.10725639465215
 20
296.5222782389087
 30
0.0
  0
ENDBLK
  5
E5
330
D8
100
AcDbEntity
  8
0
100
AcDbBlockEnd
  0
BLOCK
  5
E8
330
E7
100
AcDbEntity
  8
0
100
AcDbBlockBegin
  2
*D12
 70
     1
 10
0.0
 20
0.0
 30
0.0
  3
*D12
  1

  0
LINE
  5
E9
330
E7
100
AcDbEntity
  8
0
 62
     0
370
    -2
100
AcDbLine
 10
19.10725639465215
 20
202.9571297099613
 30
0.0
 11
19.10725639465215
 21
272.0139404127551
 31
0.0
  0
LINE
  5
EA
330
E7
100
AcDbEntity
  8
0
 62
     0
370
    -2
100
AcDbLine
 10
54.19320532907716
 20
202.9571297099612
 30
0.0
 11
54.19320532907716
 21
272.0139404127551
 31
0.0
  0
LINE
  5
EB
330
E7
100
AcDbEntity
  8
0
 62
     0
370
    -2
100
AcDbLine
 10
29.10725639465215
 20
270.7639404127551
 30
0.0
 11
44.19320532907716
 21
270.7639404127551
 31
0.0
  0
SOLID
  5
EC
330
E7
100
AcDbEntity
  8
0
 62
     0
100
AcDbTrace
 10
29.10725639465215
 20
272.4306070794217
 30
0.0
 11
29.10725639465215
 21
269.0972737460884
 31
0.0
 12
19.10725639465215
 22
270.7639404127551
 32
0.0
 13
19.10725639465215
 23
270.7639404127551
 33
0.0
  0
SOLID
  5
ED
330
E7
100
AcDbEntity
  8
0
 62
     0
100
AcDbTrace
 10
44.19320532907716
 20
272.4306070794217
 30
0.0
 11
44.19320532907716
 21
269.0972737460884
 31
0.0
 12
54.19320532907716
 22
270.7639404127551
 32
0.0
 13
54.19320532907716
 23
270.7639404127551
 33
0.0
  0
MTEXT
  5
EE
330
E7
100
AcDbEntity
  8
0
 62
     0
100
AcDbMText
 10
36.65023086186466
 20
279.7639404127551
 30
0.0
 40
8.0
 41
0.0
 71
     5
 72
     1
  1
35.09
 73
     1
 44
1.0
1001
ACAD
1000
MTEXTBEGIN
1070
    73
1070
     1
1070
    44
1040
1.0
1070
    74
1070
     0
1000
MTEXTEND
  0
POINT
  5
EF
330
E7
100
AcDbEntity
  8
DEFPOINTS
 62
     0
100
AcDbPoint
 10
19.10725639465215
 20
199.9571297099613
 30
0.0
  0
POINT
  5
F0
330
E7
100
AcDbEntity
  8
DEFPOINTS
 62
     0
100
AcDbPoint
 10
54.19320532907716
 20
199.9571297099612
 30
0.0
  0
POINT
  5
F1
330
E7
100
AcDbEntity
  8
DEFPOINTS
 62
     0
100
AcDbPoint
 10
54.19320532907716
 20
270.7639404127551
 30
0.0
  0
ENDBLK
  5
F2
330
E7
100
AcDbEntity
  8
0
100
AcDbBlockEnd
  0
BLOCK
  5
F5
330
F4
100
AcDbEntity
  8
0
100
AcDbBlockBegin
  2
*D13
 70
     1
 10
0.0
 20
0.0
 30
0.0
  3
*D13
  1

  0
LINE
  5
F6
330
F4
100
AcDbEntity
  8
0
 62
     0
370
    -2
100
AcDbLine
 10
54.19320532907716
 20
212.3929677763142
 30
0.0
 11
54.19320532907716
 21
297.3906726066034
 31
0.0
  0
LINE
  5
F7
330
F4
100
AcDbEntity
  8
0
 62
     0
370
    -2
100
AcDbLine
 10
88.44339173072933
 20
225.6929452427172
 30
0.0
 11
88.44339173072933
 21
297.3906726066034
 31
0.0
  0
LINE
  5
F8
330
F4
100
AcDbEntity
  8
0
 62
     0
370
    -2
100
AcDbLine
 10
64.19320532907716
 20
296.1406726066034
 30
0.0
 11
78.44339173072933
 21
296.1406726066034
 31
0.0
  0
SOLID
  5
F9
330
F4
100
AcDbEntity
  8
0
 62
     0
100
AcDbTrace
 10
64.19320532907716
 20
297.8073392732701
 30
0.0
 11
64.19320532907716
 21
294.4740059399367
 31
0.0
 12
54.19320532907716
 22
296.1406726066034
 32
0.0
 13
54.19320532907716
 23
296.1406726066034
 33
0.0
  0
SOLID
  5
FA
330
F4
100
AcDbEntity
  8
0
 62
     0
100
AcDbTrace
 10
78.44339173072933
 20
297.8073392732701
 30
0.0
 11
78.44339173072933
 21
294.4740059399367
 31
0.0
 12
88.44339173072933
 22
296.1406726066034
 32
0.0
 13
88.44339173072933
 23
296.1406726066034
 33
0.0
  0
MTEXT
  5
FB
330
F4
100
AcDbEntity
  8
0
 62
     0
100
AcDbMText
 10
71.31829852990325
 20
305.1406726066034
 30
0.0
 40
8.0
 41
0.0
 71
     5
 72
     1
  1
34.25
 73
     1
 44
1.0
1001
ACAD
1000
MTEXTBEGIN
1070
    73
1070
     1
1070
    44
1040
1.0
1070
    74
1070
     0
1000
MTEXTEND
  0
POINT
  5
FC
330
F4
100
AcDbEntity
  8
DEFPOINTS
 62
     0
100
AcDbPoint
 10
54.19320532907716
 20
209.3929677763142
 30
0.0
  0
POINT
  5
FD
330
F4
100
AcDbEntity
  8
DEFPOINTS
 62
     0
100
AcDbPoint
 10
88.44339173072933
 20
222.6929452427172
 30
0.0
  0
POINT
  5
FE
330
F4
100
AcDbEntity
  8
DEFPOINTS
 62
     0
100
AcDbPoint
 10
88.44339173072933
 20
296.1406726066034
 30
0.0
  0
ENDBLK
  5
FF
330
F4
100
AcDbEntity
  8
0
100
AcDbBlockEnd
  0
BLOCK
  5
10A
330
109
100
AcDbEntity
  8
0
100
AcDbBlockBegin
  2
*D14
 70
     1
 10
0.0
 20
0.0
 30
0.0
  3
*D14
  1

  0
LINE
  5
10B
330
109
100
AcDbEntity
  8
0
 62
     0
370
    -2
100
AcDbLine
 10
440.4322506791984
 20
162.9701369894418
 30
0.0
 11
440.4322506791984
 21
171.1606969894419
 31
0.0
  0
LINE
  5
10C
330
109
100
AcDbEntity
  8
0
 62
     0
370
    -2
100
AcDbLine
 10
461.4322506791983
 20
162.9701369894418
 30
0.0
 11
461.4322506791983
 21
171.1606969894419
 31
0.0
  0
LINE
  5
10D
330
109
100
AcDbEntity
  8
0
 62
     0
370
    -2
100
AcDbLine
 10
430.4322506791983
 20
169.9106969894419
 30
0.0
 11
420.4322506791983
 21
169.9106969894419
 31
0.0
  0
LINE
  5
10E
330
109
100
AcDbEntity
  8
0
 62
     0
370
    -2
100
AcDbLine
 10
471.4322506791983
 20
169.9106969894419
 30
0.0
 11
481.4322506791984
 21
169.9106969894419
 31
0.0
  0
LINE
  5
10F
330
109
100
AcDbEntity
  8
0
 62
     0
370
    -2
100
AcDbLine
 10
440.4322506791984
 20
169.9106969894419
 30
0.0
 11
461.4322506791983
 21
169.9106969894419
 31
0.0
  0
SOLID
  5
110
330
109
100
AcDbEntity
  8
0
 62
     0
100
AcDbTrace
 10
430.4322506791983
 20
171.5773636561085
 30
0.0
 11
430.4322506791983
 21
168.2440303227752
 31
0.0
 12
440.4322506791984
 22
169.9106969894419
 32
0.0
 13
440.4322506791984
 23
169.9106969894419
 33
0.0
  0
SOLID
  5
111
330
109
100
AcDbEntity
  8
0
 62
     0
100
AcDbTrace
 10
471.4322506791983
 20
171.5773636561085
 30
0.0
 11
471.4322506791983
 21
168.2440303227752
 31
0.0
 12
461.4322506791983
 22
169.9106969894419
 32
0.0
 13
461.4322506791983
 23
169.9106969894419
 33
0.0
  0
MTEXT
  5
112
330
109
100
AcDbEntity
  8
0
 62
     0
100
AcDbMText
 10
450.9322506791983
 20
178.9106969894419
 30
0.0
 40
8.0
 41
0.0
 71
     5
 72
     1
  1
21
 73
     1
 44
1.0
1001
ACAD
1000
MTEXTBEGIN
1070
    73
1070
     1
1070
    44
1040
1.0
1070
    74
1070
     0
1000
MTEXTEND
  0
POINT
  5
113
330
109
100
AcDbEntity
  8
DEFPOINTS
 62
     0
100
AcDbPoint
 10
440.4322506791984
 20
159.9701369894418
 30
0.0
  0
POINT
  5
114
330
109
100
AcDbEntity
  8
DEFPOINTS
 62
     0
100
AcDbPoint
 10
461.4322506791983
 20
159.9701369894418
 30
0.0
  0
POINT
  5
115
330
109
100
AcDbEntity
  8
DEFPOINTS
 62
     0
100
AcDbPoint
 10
461.4322506791983
 20
169.9106969894419
 30
0.0
  0
ENDBLK
  5
116
330
109
100
AcDbEntity
  8
0
100
AcDbBlockEnd
  0
BLOCK
  5
11D
330
11C
100
AcDbEntity
  8
0
100
AcDbBlockBegin
  2
*D15
 70
     1
 10
0.0
 20
0.0
 30
0.0
  3
*D15
  1

  0
LINE
  5
11E
330
11C
100
AcDbEntity
  8
0
 62
     0
370
    -2
100
AcDbLine
 10
437.4322506791983
 20
119.9701369894418
 30
0.0
 11
429.1587836791984
 21
119.9701369894418
 31
0.0
  0
LINE
  5
11F
330
11C
100
AcDbEntity
  8
0
 62
     0
370
    -2
100
AcDbLine
 10
437.4322506791983
 20
159.9701369894418
 30
0.0
 11
429.1587836791984
 21
159.9701369894418
 31
0.0
  0
LINE
  5
120
330
11C
100
AcDbEntity
  8
0
 62
     0
370
    -2
100
AcDbLine
 10
430.4087836791985
 20
129.9701369894418
 30
0.0
 11
430.4087836791985
 21
149.9701369894418
 31
0.0
  0
SOLID
  5
121
330
11C
100
AcDbEntity
  8
0
 62
     0
100
AcDbTrace
 10
428.7421170125318
 20
129.9701369894418
 30
0.0
 11
432.0754503458651
 21
129.9701369894418
 31
0.0
 12
430.4087836791985
 22
119.9701369894418
 32
0.0
 13
430.4087836791985
 23
119.9701369894418
 33
0.0
  0
SOLID
  5
122
330
11C
100
AcDbEntity
  8
0
 62
     0
100
AcDbTrace
 10
428.7421170125318
 20
149.9701369894418
 30
0.0
 11
432.0754503458651
 21
149.9701369894418
 31
0.0
 12
430.4087836791985
 22
159.9701369894418
 32
0.0
 13
430.4087836791985
 23
159.9701369894418
 33
0.0
  0
MTEXT
  5
123
330
11C
100
AcDbEntity
  8
0
 62
     0
100
AcDbMText
 10
421.4087836791984
 20
139.9701369894418
 30
0.0
 40
8.0
 41
0.0
 71
     5
 72
     1
  1
40
 11
0.0000000000000001
 21
1.0
 31
0.0
 73
     1
 44
1.0
1001
ACAD
1000
MTEXTBEGIN
1070
    73
1070
     1
1070
    44
1040
1.0
1070
    74
1070
     0
1000
MTEXTEND
  0
POINT
  5
124
330
11C
100
AcDbEntity
  8
DEFPOINTS
 62
     0
100
AcDbPoint
 10
440.4322506791984
 20
119.9701369894418
 30
0.0
  0
POINT
  5
125
330
11C
100
AcDbEntity
  8
DEFPOINTS
 62
     0
100
AcDbPoint
 10
440.4322506791984
 20
159.9701369894418
 30
0.0
  0
POINT
  5
126
330
11C
100
AcDbEntity
  8
DEFPOINTS
 62
     0
100
AcDbPoint
 10
430.4087836791985
 20
159.9701369894418
 30
0.0
  0
ENDBLK
  5
127
330
11C
100
AcDbEntity
  8
0
100
AcDbBlockEnd
  0
ENDSEC
  0
SECTION
  2
ENTITIES
  0
DIMENSION
  5
68
330
2
100
AcDbEntity
  8
0
 62
    60
100
AcDbDimension
  2
*D1
 10
-114.2226550108739
 20
119.9701369894419
 30
0.0
 11
-123.2226550108739
 21
179.9701369894418
 31
0.0
 71
     5
 42
119.9999999999999
  3
ISO-25
100
AcDbAlignedDimension
 13
152.4336988448508
 23
239.9701369894418
 33
0.0
 14
-72.56630115514906
 24
119.9701369894419
 34
0.0
 50
90.0
100
AcDbRotatedDimension
1001
ACAD
1000
DSTYLE
1002
{
1070
    41
1040
10.0
1070
    42
1040
3.0
1070
    77
1070
     3
1070
    90
1070
     1
1070
   140
1040
8.0
1070
   147
1040
5.0
1070
   345
1005
26
1070
   346
1005
26
1070
   347
1005
26
1002
}
  0
DIMENSION
  5
76
330
2
100
AcDbEntity
  8
0
 62
    60
100
AcDbDimension
  2
*D2
 10
377.433698844851
 20
63.57239431700964
 30
0.0
 11
149.5000866037699
 21
63.57239431700964
 31
0.0
 70
   128
 71
     5
 42
450.0000000000001
  3
ISO-25
100
AcDbAlignedDimension
 13
-72.56630115514917
 23
119.9701369894418
 33
0.0
 14
377.433698844851
 24
119.9701369894418
 34
0.0
100
AcDbRotatedDimension
1001
ACAD
1000
DSTYLE
1002
{
1070
    41
1040
10.0
1070
    42
1040
3.0
1070
    77
1070
     3
1070
    90
1070
     1
1070
   140
1040
8.0
1070
   147
1040
5.0
1070
   345
1005
26
1070
   346
1005
26
1070
   347
1005
26
1002
}
  0
DIMENSION
  5
83
330
2
100
AcDbEntity
  8
0
 62
    60
100
AcDbDimension
  2
*D3
 10
-96.08193313427999
 20
119.9701369894419
 30
0.0
 11
-105.08193313428
 21
139.9701369894418
 31
0.0
 71
     5
 42
39.99999999999997
  3
ISO-25
100
AcDbAlignedDimension
 13
-72.56630115514894
 23
159.9701369894419
 33
0.0
 14
-72.56630115514917
 24
119.9701369894419
 34
0.0
 50
90.0
100
AcDbRotatedDimension
1001
ACAD
1000
DSTYLE
1002
{
1070
    41
1040
10.0
1070
    42
1040
3.0
1070
    77
1070
     3
1070
    90
1070
     1
1070
   140
1040
8.0
1070
   147
1040
5.0
1070
   345
1005
26
1070
   346
1005
26
1070
   347
1005
26
1002
}
  0
DIMENSION
  5
90
330
2
100
AcDbEntity
  8
0
 62
    60
100
AcDbDimension
  2
*D4
 10
152.4336988448516
 20
149.970136989442
 30
0.0
 11
165.7643177200945
 21
183.6800331685022
 31
0.0
 70
   132
 71
     5
 42
89.99999999999991
  3
ISO-25
100
AcDbRadialDimension
 15
185.5304077764891
 25
233.6636723305569
 35
0.0
 40
0.0
1001
ACAD
1000
DSTYLE
1002
{
1070
    41
1040
10.0
1070
    42
1040
3.0
1070
    77
1070
     3
1070
    90
1070
     1
1070
   140
1040
8.0
1070
   147
1040
5.0
1070
   345
1005
26
1070
   346
1005
26
1070
   347
1005
26
1002
}
  0
DIMENSION
  5
99
330
2
100
AcDbEntity
  8
0
 62
    60
100
AcDbDimension
  2
*D5
 10
248.4191595160348
 20
244.9005922698244
 30
0.0
 11
252.8986877420116
 21
253.841164224273
 31
0.0
 70
   132
 71
     5
 42
45.00000000000006
  3
ISO-25
100
AcDbRadialDimension
 15
228.2612824991381
 25
204.6680184748051
 35
0.0
 40
0.0
1001
ACAD
1000
DSTYLE
1002
{
1070
    41
1040
10.0
1070
    42
1040
3.0
1070
    77
1070
     3
1070
    90
1070
     1
1070
   140
1040
8.0
1070
   147
1040
5.0
1070
   345
1005
26
1070
   346
1005
26
1070
   347
1005
26
1002
}
  0
DIMENSION
  5
A2
330
2
100
AcDbEntity
  8
0
 62
    60
100
AcDbDimension
  2
*D6
 10
285.7061813727422
 20
190.0483786712126
 30
0.0
 11
255.1482507708636
 21
162.3396187326882
 31
0.0
 70
   132
 71
     5
 42
10.00000000000005
  3
ISO-25
100
AcDbRadialDimension
 15
293.1141645489552
 25
196.7656538078245
 35
0.0
 40
0.0
1001
ACAD
1000
DSTYLE
1002
{
1070
    41
1040
10.0
1070
    42
1040
3.0
1070
    77
1070
     3
1070
    90
1070
     1
1070
   140
1040
8.0
1070
   147
1040
5.0
1070
   345
1005
26
1070
   346
1005
26
1070
   347
1005
26
1002
}
  0
DIMENSION
  5
AB
330
2
100
AcDbEntity
  8
0
 62
    60
100
AcDbDimension
  2
*D7
 10
356.3155392173635
 20
231.7415266066969
 30
0.0
 11
350.1533603252046
 21
215.8976776014512
 31
0.0
 70
   132
 71
     5
 42
71.99999999999977
  3
ISO-25
100
AcDbRadialDimension
 15
330.2168992035139
 25
164.6381661138911
 35
0.0
 40
0.0
1001
ACAD
1000
DSTYLE
1002
{
1070
    41
1040
10.0
1070
    42
1040
3.0
1070
    77
1070
     3
1070
    90
1070
     1
1070
   140
1040
8.0
1070
   147
1040
5.0
1070
   345
1005
26
1070
   346
1005
26
1070
   347
1005
26
1002
}
  0
DIMENSION
  5
B4
330
2
100
AcDbEntity
  8
0
 62
    60
100
AcDbDimension
  2
*D8
 10
253.1461588508398
 20
113.3984703896652
 30
0.0
 11
250.4327306896868
 21
103.7736427229345
 31
0.0
 70
   132
 71
     5
 42
44.99999999999985
  3
ISO-25
100
AcDbRadialDimension
 15
265.3565855760278
 25
156.7101948899527
 35
0.0
 40
0.0
1001
ACAD
1000
DSTYLE
1002
{
1070
    41
1040
10.0
1070
    42
1040
3.0
1070
    77
1070
     3
1070
    90
1070
     1
1070
   140
1040
8.0
1070
   147
1040
5.0
1070
   345
1005
26
1070
   346
1005
26
1070
   347
1005
26
1002
}
  0
DIMENSION
  5
BD
330
2
100
AcDbEntity
  8
0
 62
    60
100
AcDbDimension
  2
*D9
 10
216.4240059589724
 20
270.7639404127551
 30
0.0
 11
150.7813770912143
 21
270.7639404127551
 31
0.0
 70
   128
 71
     5
 42
127.9806142282441
  3
ISO-25
100
AcDbAlignedDimension
 13
88.4433917307283
 23
213.2571071763631
 33
0.0
 14
216.4240059589724
 24
213.2571071763642
 34
0.0
100
AcDbRotatedDimension
1001
ACAD
1000
DSTYLE
1002
{
1070
    41
1040
10.0
1070
    42
1040
3.0
1070
    77
1070
     3
1070
    90
1070
     1
1070
   140
1040
8.0
1070
   147
1040
5.0
1070
   345
1005
26
1070
   346
1005
26
1070
   347
1005
26
1002
}
  0
DIMENSION
  5
CA
330
2
100
AcDbEntity
  8
0
 62
    60
100
AcDbDimension
  2
*D10
 10
10.50293957485746
 20
270.7639404127551
 30
0.0
 11
-28.97401449737663
 21
270.7639404127551
 31
0.0
 70
   128
 71
     5
 42
83.06924073000663
  3
ISO-25
100
AcDbAlignedDimension
 13
-72.56630115514917
 23
159.8884904241758
 33
0.0
 14
10.50293957485746
 24
195.0527878680994
 34
0.0
100
AcDbRotatedDimension
1001
ACAD
1000
DSTYLE
1002
{
1070
    41
1040
10.0
1070
    42
1040
3.0
1070
    77
1070
     3
1070
    90
1070
     1
1070
   140
1040
8.0
1070
   147
1040
5.0
1070
   345
1005
26
1070
   346
1005
26
1070
   347
1005
26
1002
}
  0
DIMENSION
  5
D7
330
2
100
AcDbEntity
  8
0
 62
    60
100
AcDbDimension
  2
*D11
 10
19.10725639465215
 20
296.5222782389087
 30
0.0
 11
14.80509798475481
 21
296.5222782389087
 31
0.0
 70
   128
 71
     5
 42
8.604316819794686
  3
ISO-25
100
AcDbAlignedDimension
 13
10.50293957485746
 23
204.4886259344524
 33
0.0
 14
19.10725639465215
 24
209.3929677763143
 34
0.0
100
AcDbRotatedDimension
1001
ACAD
1000
DSTYLE
1002
{
1070
    41
1040
10.0
1070
    42
1040
3.0
1070
    77
1070
     3
1070
    90
1070
     1
1070
   140
1040
8.0
1070
   147
1040
5.0
1070
   345
1005
26
1070
   346
1005
26
1070
   347
1005
26
1002
}
  0
DIMENSION
  5
E6
330
2
100
AcDbEntity
  8
0
 62
    60
100
AcDbDimension
  2
*D12
 10
54.19320532907716
 20
270.7639404127551
 30
0.0
 11
36.65023086186466
 21
270.7639404127551
 31
0.0
 70
   128
 71
     5
 42
35.08594893442501
  3
ISO-25
100
AcDbAlignedDimension
 13
19.10725639465215
 23
199.9571297099613
 33
0.0
 14
54.19320532907716
 24
199.9571297099612
 34
0.0
100
AcDbRotatedDimension
1001
ACAD
1000
DSTYLE
1002
{
1070
    41
1040
10.0
1070
    42
1040
3.0
1070
    77
1070
     3
1070
    90
1070
     1
1070
   140
1040
8.0
1070
   147
1040
5.0
1070
   345
1005
26
1070
   346
1005
26
1070
   347
1005
26
1002
}
  0
DIMENSION
  5
F3
330
2
100
AcDbEntity
  8
0
 62
    60
100
AcDbDimension
  2
*D13
 10
88.44339173072933
 20
296.1406726066034
 30
0.0
 11
71.31829852990325
 21
296.1406726066034
 31
0.0
 70
   128
 71
     5
 42
34.25018640165217
  3
ISO-25
100
AcDbAlignedDimension
 13
54.19320532907716
 23
209.3929677763142
 33
0.0
 14
88.44339173072933
 24
222.6929452427172
 34
0.0
100
AcDbRotatedDimension
1001
ACAD
1000
DSTYLE
1002
{
1070
    41
1040
10.0
1070
    42
1040
3.0
1070
    77
1070
     3
1070
    90
1070
     1
1070
   140
1040
8.0
1070
   147
1040
5.0
1070
   345
1005
26
1070
   346
1005
26
1070
   347
1005
26
1002
}
  0
LINE
  5
100
330
2
100
AcDbEntity
  8
WAKU
100
AcDbLine
 10
0.0
 20
28.0
 30
0.0
 11
324.6663596030066
 21
28.0
 31
0.0
  0
LINE
  5
102
330
2
100
AcDbEntity
  8
WAKU
100
AcDbLine
 10
0.0
 20
0.0
 30
0.0
 11
324.6663596030066
 21
0.0
 31
0.0
  0
TEXT
  5
103
330
2
100
AcDbEntity
  8
HOJO
100
AcDbText
 10
19.30793200000005
 20
4.733252000000049
 30
0.0
 40
18.0
  1
YR150E45
  7
SUNPOU
100
AcDbText
  0
TEXT
  5
105
330
2
100
AcDbEntity
  8
HOJO
100
AcDbText
 10
232.5739697629265
 20
10.08877200000006
 30
0.0
 40
12.0
  1
450\U+00D7120
  7
SUNPOU
100
AcDbText
  0
LWPOLYLINE
  5
106
330
2
100
AcDbEntity
  8
KIJUN
100
AcDbPolyline
 90
       22
 70
     1
 43
0.0
 10
-72.56630115514894
 20
159.9701369894419
 10
-45.71511157761813
 20
159.9701369894416
 42
0.2437647170330919
 10
10.50293957485781
 20
195.0527878680999
 42
-0.2649821546244268
 10
19.10725639465204
 20
199.9571297099612
 10
54.1932053290774
 20
199.9571297099612
 42
0.2134187059866899
 10
88.44339173072999
 20
213.2571071763649
 42
-0.4174543148454756
 10
216.4240059589737
 20
213.2571071763628
 42
0.2134187059866901
 10
250.6741923606244
 20
199.9571297099612
 10
285.6801244452652
 20
200.0483447229814
 42
-0.2660254822649942
 10
294.3170786708681
 20
195.1329089072449
 42
0.2441071491564859
 10
350.5825092673156
 20
159.9701369894418
 10
377.4336988448508
 20
159.9701369894418
 10
377.433698844851
 20
119.9701369894418
 10
349.1631645747911
 20
119.9701369894418
 42
-0.1647417205403459
 10
282.7170003571719
 20
147.3184546556903
 42
0.187638283254437
 10
252.0248090652924
 20
158.3844968274207
 42
-0.2134187059866799
 10
187.98386946381
 20
185.1295648710626
 42
0.4174543148454756
 10
116.8835282258948
 20
185.1295648710656
 42
-0.2134187059866799
 10
52.84258862441261
 20
158.3844968274207
 42
0.1876382832544371
 10
22.15039733253466
 20
147.3184546556946
 42
-0.1647417205403458
 10
-44.29576688508999
 20
119.9701369894418
 10
-72.56630115514917
 20
119.9701369894419
  0
DIMENSION
  5
108
330
2
100
AcDbEntity
  8
0
 62
    60
100
AcDbDimension
  2
*D14
 10
461.4322506791983
 20
169.9106969894419
 30
0.0
 11
450.9322506791983
 21
178.9106969894419
 31
0.0
 71
     5
 42
21.0
  3
ISO-25
100
AcDbAlignedDimension
 13
440.4322506791984
 23
159.9701369894418
 33
0.0
 14
461.4322506791983
 24
159.9701369894418
 34
0.0
100
AcDbRotatedDimension
1001
ACAD
1000
DSTYLE
1002
{
1070
    41
1040
10.0
1070
    42
1040
3.0
1070
    77
1070
     3
1070
    90
1070
     1
1070
   140
1040
8.0
1070
   147
1040
5.0
1070
   345
1005
26
1070
   346
1005
26
1070
   347
1005
26
1002
}
  0
LINE
  5
117
330
2
100
AcDbEntity
  8
WAKU
100
AcDbLine
 10
416.6637274142653
 20
107.202614364225
 30
0.0
 11
471.6637274142652
 21
107.202614364225
 31
0.0
  0
LINE
  5
118
330
2
100
AcDbEntity
  8
WAKU
100
AcDbLine
 10
416.6637274142653
 20
114.202614364225
 30
0.0
 11
471.6637274142652
 21
114.202614364225
 31
0.0
  0
TEXT
  5
119
330
2
100
AcDbEntity
  8
HOJO
100
AcDbText
 10
420.5488130890388
 20
108.385926364225
 30
0.0
 40
4.5
  1
A150
  7
SUNPOU
100
AcDbText
  0
TEXT
  5
11A
330
2
100
AcDbEntity
  8
HOJO
100
AcDbText
 10
448.1465864142653
 20
109.724806364225
 30
0.0
 40
3.0
  1
40\U+00D721
  7
SUNPOU
100
AcDbText
  0
DIMENSION
  5
11B
330
2
100
AcDbEntity
  8
0
 62
    60
100
AcDbDimension
  2
*D15
 10
430.4087836791985
 20
159.9701369894418
 30
0.0
 11
421.4087836791984
 21
139.9701369894418
 31
0.0
 71
     5
 42
40.0
  3
ISO-25
100
AcDbAlignedDimension
 13
440.4322506791984
 23
119.9701369894418
 33
0.0
 14
440.4322506791984
 24
159.9701369894418
 34
0.0
 50
90.0
100
AcDbRotatedDimension
1001
ACAD
1000
DSTYLE
1002
{
1070
    41
1040
10.0
1070
    42
1040
3.0
1070
    77
1070
     3
1070
    90
1070
     1
1070
   140
1040
8.0
1070
   147
1040
5.0
1070
   345
1005
26
1070
   346
1005
26
1070
   347
1005
26
1002
}
  0
LWPOLYLINE
  5
128
330
2
100
AcDbEntity
  8
KIJUN
100
AcDbPolyline
 90
       11
 70
     1
 43
0.0
 10
452.4322506791984
 20
134.9701369894418
 42
-0.414213562373101
 10
449.4322506791983
 20
131.9701369894417
 10
449.4322506791983
 20
131.9701369894417
 42
0.4142135623730982
 10
446.4322506791983
 20
128.9701369894418
 10
446.4322506791983
 20
122.9701369894418
 42
-0.4142135623730951
 10
443.4322506791984
 20
119.9701369894418
 10
440.4322506791984
 20
119.9701369894418
 10
440.4322506791984
 20
159.9701369894418
 10
452.4322506791984
 20
159.9701369894418
 42
-0.9125200918361219
 10
454.0686143051407
 20
142.1201473195861
 42
0.3616214932884901
 10
452.4322506791984
 20
140.1534829894418
  0
ENDSEC
  0
SECTION
  2
OBJECTS
  0
DICTIONARY
  5
9
330
0
100
AcDbDictionary
281
     1
  3
ACAD_COLOR
350
49
  3
ACAD_GROUP
350
36
  3
ACAD_LAYOUT
350
16
  3
ACAD_MATERIAL
350
B
  3
ACAD_MLEADERSTYLE
350
4C
  3
ACAD_MLINESTYLE
350
37
  3
ACAD_PLOTSETTINGS
350
38
  3
ACAD_PLOTSTYLENAME
350
8
  3
ACAD_SCALELIST
350
4A
  3
ACAD_TABLESTYLE
350
4B
  3
ACAD_VISUALSTYLE
350
2C
  3
ACDB_RECOMPOSE_DATA
350
139
  3
AcDbVariableDictionary
350
12C
  0
DICTIONARY
  5
1D
330
1C
100
AcDbDictionary
280
     1
281
     1
  3
ACAD_LAYERFILTERS
360
1E
  3
ACLYDICTIONARY
360
1F
  0
DICTIONARY
  5
3
330
2
100
AcDbDictionary
280
     1
281
     1
  3
ACAD_SORTENTS
360
129
  0
DICTIONARY
  5
49
102
{ACAD_REACTORS
330
9
102
}
330
9
100
AcDbDictionary
281
     1
  0
DICTIONARY
  5
36
102
{ACAD_REACTORS
330
9
102
}
330
9
100
AcDbDictionary
281
     1
  0
DICTIONARY
  5
16
102
{ACAD_REACTORS
330
9
102
}
330
9
100
AcDbDictionary
281
     1
  3
Model
350
15
  3
ﾚｲｱｳﾄ1
350
1B
  0
DICTIONARY
  5
B
102
{ACAD_REACTORS
330
9
102
}
330
9
100
AcDbDictionary
281
     1
  3
ByBlock
350
41
  3
ByLayer
350
39
  3
Global
350
A
  0
DICTIONARY
  5
4C
102
{ACAD_REACTORS
330
9
102
}
330
9
100
AcDbDictionary
281
     1
  0
DICTIONARY
  5
37
102
{ACAD_REACTORS
330
9
102
}
330
9
100
AcDbDictionary
281
     1
  3
STANDARD
350
53
  0
DICTIONARY
  5
38
102
{ACAD_REACTORS
330
9
102
}
330
9
100
AcDbDictionary
281
     1
  0
ACDBDICTIONARYWDFLT
  5
8
102
{ACAD_REACTORS
330
9
102
}
330
9
100
AcDbDictionary
281
     1
  3
Normal
350
7
100
AcDbDictionaryWithDefault
340
7
  0
DICTIONARY
  5
4A
102
{ACAD_REACTORS
330
9
102
}
330
9
100
AcDbDictionary
281
     1
  3
A0
350
57
  3
A1
350
58
  3
A2
350
59
  3
A3
350
5A
  3
A4
350
5B
  3
A5
350
5C
  3
A6
350
5D
  3
A7
350
5E
  3
A8
350
5F
  3
A9
350
60
  3
B0
350
61
  3
B1
350
62
  3
B2
350
63
  3
B3
350
64
  3
B4
350
65
  3
B5
350
66
  3
B6
350
67
  0
DICTIONARY
  5
4B
102
{ACAD_REACTORS
330
9
102
}
330
9
100
AcDbDictionary
281
     1
  3
Standard
350
54
  0
DICTIONARY
  5
2C
102
{ACAD_REACTORS
330
9
102
}
330
9
100
AcDbDictionary
281
     1
  3
2dWireframe
350
2B
  3
Realistic
350
55
  3
Wireframe
350
56
  0
XRECORD
  5
139
102
{ACAD_REACTORS
330
9
102
}
330
9
100
AcDbXrecord
280
     1
 90
        1
330
54
  0
DICTIONARY
  5
12C
102
{ACAD_REACTORS
330
9
102
}
330
9
100
AcDbDictionary
281
     1
  3
CANNOSCALE
350
131
  3
CMLEADERSTYLE
350
12E
  3
CTABLESTYLE
350
12D
  3
CVIEWDETAILSTYLE
350
12F
  3
CVIEWSECTIONSTYLE
350
130
  3
DIMASSOC
350
135
  3
HIDETEXT
350
134
  3
INDEXCTL
350
133
  3
SORTENTS
350
132
  3
XCLIPFRAME
350
136
  0
DICTIONARY
  5
1E
102
{ACAD_REACTORS
330
1D
102
}
330
1D
100
AcDbDictionary
281
     1
  0
DICTIONARY
  5
1F
102
{ACAD_REACTORS
330
1D
102
}
330
1D
100
AcDbDictionary
281
     1
1001
ACAD
1000
<All
  0
SORTENTSTABLE
  5
129
102
{ACAD_REACTORS
330
3
102
}
330
3
100
AcDbSortentsTable
330
2
  0
LAYOUT
  5
15
102
{ACAD_XDICTIONARY
360
13B
102
}
102
{ACAD_REACTORS
330
16
102
}
330
16
100
AcDbPlotSettings
  1

  2
none_device
  4
Letter_(8.50_x_11.00_Inches)
  6

 40
6.349999904632567
 41
6.349999904632567
 42
6.350006103515625
 43
6.350006103515625
 44
215.8999938964844
 45
279.3999938964844
 46
0.0
 47
0.0
 48
0.0
 49
0.0
140
0.0
141
0.0
142
1.0
143
76.54229552604896
 70
 11952
 72
     0
 73
     1
 74
     0
  7
monochrome.ctb
 75
     0
147
0.0130646721936851
148
9973.459437949903
149
463.9633285297772
100
AcDbLayout
  1
Model
 70
     1
 71
     0
 10
0.0
 20
0.0
 11
12.0
 21
9.0
 12
0.0
 22
0.0
 32
0.0
 14
0.0
 24
0.0
 34
0.0
 15
0.0
 25
0.0
 35
0.0
146
0.0
 13
0.0
 23
0.0
 33
0.0
 16
1.0
 26
0.0
 36
0.0
 17
0.0
 27
1.0
 37
0.0
 76
     0
330
2
1001
ACAD_PSEXT
1000
なし
1000
なし
1000
適切ではありません
1000
新しいプロッタ環境設定名を選択しない限り、レイアウトは印刷されません。
1070
     0
  0
LAYOUT
  5
1B
102
{ACAD_XDICTIONARY
360
13D
102
}
102
{ACAD_REACTORS
330
16
102
}
330
16
100
AcDbPlotSettings
  1

  2
なし
  4

  6

 40
0.0
 41
0.0
 42
0.0
 43
0.0
 44
0.0
 45
0.0
 46
0.0
 47
0.0
 48
0.0
 49
0.0
140
0.0
141
0.0
142
1.0
143
1.0
 70
   688
 72
     0
 73
     0
 74
     5
  7
monochrome.ctb
 75
    16
147
1.0
148
0.0
149
0.0
100
AcDbLayout
  1
ﾚｲｱｳﾄ1
 70
     1
 71
     1
 10
0.0
 20
0.0
 11
12.0
 21
9.0
 12
0.0
 22
0.0
 32
0.0
 14
1.000000000000000E+20
 24
1.000000000000000E+20
 34
1.000000000000000E+20
 15
-1.000000000000000E+20
 25
-1.000000000000000E+20
 35
-1.000000000000000E+20
146
0.0
 13
0.0
 23
0.0
 33
0.0
 16
1.0
 26
0.0
 36
0.0
 17
0.0
 27
1.0
 37
0.0
 76
     0
330
18
  0
MATERIAL
  5
41
102
{ACAD_XDICTIONARY
360
42
102
}
102
{ACAD_REACTORS
330
B
102
}
330
B
100
AcDbMaterial
  1
ByBlock
 72
     0
 43
0.0208333333333333
 43
0.0
 43
0.0
 43
0.0
 43
0.0
 43
0.0208333333333333
 43
0.0
 43
0.0
 43
0.0
 43
0.0
 43
1.0
 43
0.0
 43
0.0
 43
0.0
 43
0.0
 43
1.0
 77
     0
 47
0.0208333333333333
 47
0.0
 47
0.0
 47
0.0
 47
0.0
 47
0.0208333333333333
 47
0.0
 47
0.0
 47
0.0
 47
0.0
 47
1.0
 47
0.0
 47
0.0
 47
0.0
 47
0.0
 47
1.0
171
     0
 49
0.0208333333333333
 49
0.0
 49
0.0
 49
0.0
 49
0.0
 49
0.0208333333333333
 49
0.0
 49
0.0
 49
0.0
 49
0.0
 49
1.0
 49
0.0
 49
0.0
 49
0.0
 49
0.0
 49
1.0
175
     0
142
0.0208333333333333
142
0.0
142
0.0
142
0.0
142
0.0
142
0.0208333333333333
142
0.0
142
0.0
142
0.0
142
0.0
142
1.0
142
0.0
142
0.0
142
0.0
142
0.0
142
1.0
179
     0
144
0.0208333333333333
144
0.0
144
0.0
144
0.0
144
0.0
144
0.0208333333333333
144
0.0
144
0.0
144
0.0
144
0.0
144
1.0
144
0.0
144
0.0
144
0.0
144
0.0
144
1.0
147
0.0208333333333333
147
0.0
147
0.0
147
0.0
147
0.0
147
0.0208333333333333
147
0.0
147
0.0
147
0.0
147
0.0
147
1.0
147
0.0
147
0.0
147
0.0
147
0.0
147
1.0
  0
MATERIAL
  5
39
102
{ACAD_XDICTIONARY
360
3A
102
}
102
{ACAD_REACTORS
330
B
102
}
330
B
100
AcDbMaterial
  1
ByLayer
 72
     0
 43
0.0208333333333333
 43
0.0
 43
0.0
 43
0.0
 43
0.0
 43
0.0208333333333333
 43
0.0
 43
0.0
 43
0.0
 43
0.0
 43
1.0
 43
0.0
 43
0.0
 43
0.0
 43
0.0
 43
1.0
 77
     0
 47
0.0208333333333333
 47
0.0
 47
0.0
 47
0.0
 47
0.0
 47
0.0208333333333333
 47
0.0
 47
0.0
 47
0.0
 47
0.0
 47
1.0
 47
0.0
 47
0.0
 47
0.0
 47
0.0
 47
1.0
171
     0
 49
0.0208333333333333
 49
0.0
 49
0.0
 49
0.0
 49
0.0
 49
0.0208333333333333
 49
0.0
 49
0.0
 49
0.0
 49
0.0
 49
1.0
 49
0.0
 49
0.0
 49
0.0
 49
0.0
 49
1.0
175
     0
142
0.0208333333333333
142
0.0
142
0.0
142
0.0
142
0.0
142
0.0208333333333333
142
0.0
142
0.0
142
0.0
142
0.0
142
1.0
142
0.0
142
0.0
142
0.0
142
0.0
142
1.0
179
     0
144
0.0208333333333333
144
0.0
144
0.0
144
0.0
144
0.0
144
0.0208333333333333
144
0.0
144
0.0
144
0.0
144
0.0
144
1.0
144
0.0
144
0.0
144
0.0
144
0.0
144
1.0
147
0.0208333333333333
147
0.0
147
0.0
147
0.0
147
0.0
147
0.0208333333333333
147
0.0
147
0.0
147
0.0
147
0.0
147
1.0
147
0.0
147
0.0
147
0.0
147
0.0
147
1.0
  0
MATERIAL
  5
A
102
{ACAD_XDICTIONARY
360
C
102
}
102
{ACAD_REACTORS
330
B
102
}
330
B
100
AcDbMaterial
  1
Global
 72
     0
 43
0.0208333333333333
 43
0.0
 43
0.0
 43
0.0
 43
0.0
 43
0.0208333333333333
 43
0.0
 43
0.0
 43
0.0
 43
0.0
 43
1.0
 43
0.0
 43
0.0
 43
0.0
 43
0.0
 43
1.0
 77
     0
 47
0.0208333333333333
 47
0.0
 47
0.0
 47
0.0
 47
0.0
 47
0.0208333333333333
 47
0.0
 47
0.0
 47
0.0
 47
0.0
 47
1.0
 47
0.0
 47
0.0
 47
0.0
 47
0.0
 47
1.0
171
     0
 49
0.0208333333333333
 49
0.0
 49
0.0
 49
0.0
 49
0.0
 49
0.0208333333333333
 49
0.0
 49
0.0
 49
0.0
 49
0.0
 49
1.0
 49
0.0
 49
0.0
 49
0.0
 49
0.0
 49
1.0
175
     0
142
0.0208333333333333
142
0.0
142
0.0
142
0.0
142
0.0
142
0.0208333333333333
142
0.0
142
0.0
142
0.0
142
0.0
142
1.0
142
0.0
142
0.0
142
0.0
142
0.0
142
1.0
179
     0
144
0.0208333333333333
144
0.0
144
0.0
144
0.0
144
0.0
144
0.0208333333333333
144
0.0
144
0.0
144
0.0
144
0.0
144
1.0
144
0.0
144
0.0
144
0.0
144
0.0
144
1.0
147
0.0208333333333333
147
0.0
147
0.0
147
0.0
147
0.0
147
0.0208333333333333
147
0.0
147
0.0
147
0.0
147
0.0
147
1.0
147
0.0
147
0.0
147
0.0
147
0.0
147
1.0
  0
MLINESTYLE
  5
53
102
{ACAD_REACTORS
330
37
102
}
330
37
100
AcDbMlineStyle
  2
STANDARD
 70
     0
  3

 62
   256
 51
90.0
 52
90.0
 71
     2
 49
0.5
 62
   256
  6
BYLAYER
 49
-0.5
 62
   256
  6
BYLAYER
  0
ACDBPLACEHOLDER
  5
7
102
{ACAD_REACTORS
330
8
102
}
330
8
  0
SCALE
  5
57
102
{ACAD_REACTORS
330
4A
102
}
330
4A
100
AcDbScale
 70
     0
300
1:1
140
1.0
141
1.0
290
     1
  0
SCALE
  5
58
102
{ACAD_REACTORS
330
4A
102
}
330
4A
100
AcDbScale
 70
     0
300
1/128" = 1'-0"
140
0.0078125
141
12.0
290
     0
  0
SCALE
  5
59
102
{ACAD_REACTORS
330
4A
102
}
330
4A
100
AcDbScale
 70
     0
300
1/64" = 1'-0"
140
0.015625
141
12.0
290
     0
  0
SCALE
  5
5A
102
{ACAD_REACTORS
330
4A
102
}
330
4A
100
AcDbScale
 70
     0
300
1/32" = 1'-0"
140
0.03125
141
12.0
290
     0
  0
SCALE
  5
5B
102
{ACAD_REACTORS
330
4A
102
}
330
4A
100
AcDbScale
 70
     0
300
1/16" = 1'-0"
140
0.0625
141
12.0
290
     0
  0
SCALE
  5
5C
102
{ACAD_REACTORS
330
4A
102
}
330
4A
100
AcDbScale
 70
     0
300
3/32" = 1'-0"
140
0.09375
141
12.0
290
     0
  0
SCALE
  5
5D
102
{ACAD_REACTORS
330
4A
102
}
330
4A
100
AcDbScale
 70
     0
300
1/8" = 1'-0"
140
0.125
141
12.0
290
     0
  0
SCALE
  5
5E
102
{ACAD_REACTORS
330
4A
102
}
330
4A
100
AcDbScale
 70
     0
300
3/16" = 1'-0"
140
0.1875
141
12.0
290
     0
  0
SCALE
  5
5F
102
{ACAD_REACTORS
330
4A
102
}
330
4A
100
AcDbScale
 70
     0
300
1/4" = 1'-0"
140
0.25
141
12.0
290
     0
  0
SCALE
  5
60
102
{ACAD_REACTORS
330
4A
102
}
330
4A
100
AcDbScale
 70
     0
300
3/8" = 1'-0"
140
0.375
141
12.0
290
     0
  0
SCALE
  5
61
102
{ACAD_REACTORS
330
4A
102
}
330
4A
100
AcDbScale
 70
     0
300
1/2" = 1'-0"
140
0.5
141
12.0
290
     0
  0
SCALE
  5
62
102
{ACAD_REACTORS
330
4A
102
}
330
4A
100
AcDbScale
 70
     0
300
3/4" = 1'-0"
140
0.75
141
12.0
290
     0
  0
SCALE
  5
63
102
{ACAD_REACTORS
330
4A
102
}
330
4A
100
AcDbScale
 70
     0
300
1" = 1'-0"
140
1.0
141
12.0
290
     0
  0
SCALE
  5
64
102
{ACAD_REACTORS
330
4A
102
}
330
4A
100
AcDbScale
 70
     0
300
1-1/2" = 1'-0"
140
1.5
141
12.0
290
     0
  0
SCALE
  5
65
102
{ACAD_REACTORS
330
4A
102
}
330
4A
100
AcDbScale
 70
     0
300
3" = 1'-0"
140
3.0
141
12.0
290
     0
  0
SCALE
  5
66
102
{ACAD_REACTORS
330
4A
102
}
330
4A
100
AcDbScale
 70
     0
300
6" = 1'-0"
140
6.0
141
12.0
290
     0
  0
SCALE
  5
67
102
{ACAD_REACTORS
330
4A
102
}
330
4A
100
AcDbScale
 70
     0
300
1'-0" = 1'-0"
140
12.0
141
12.0
290
     0
  0
TABLESTYLE
  5
54
102
{ACAD_XDICTIONARY
360
137
102
}
102
{ACAD_REACTORS
330
4B
102
}
330
4B
100
AcDbTableStyle
  3
Standard
 70
     0
 71
     0
 40
0.06
 41
0.06
280
     0
281
     0
  7
STANDARD
140
0.18
170
     2
 62
     0
 63
     7
283
     0
274
    -2
284
     1
 64
     0
275
    -2
285
     1
 65
     0
276
    -2
286
     1
 66
     0
277
    -2
287
     1
 67
     0
278
    -2
288
     1
 68
     0
279
    -2
289
     1
 69
     0
  7
STANDARD
140
0.25
170
     5
 62
     0
 63
     7
283
     0
274
    -2
284
     1
 64
     0
275
    -2
285
     1
 65
     0
276
    -2
286
     1
 66
     0
277
    -2
287
     1
 67
     0
278
    -2
288
     1
 68
     0
279
    -2
289
     1
 69
     0
  7
STANDARD
140
0.18
170
     5
 62
     0
 63
     7
283
     0
274
    -2
284
     1
 64
     0
275
    -2
285
     1
 65
     0
276
    -2
286
     1
 66
     0
277
    -2
287
     1
 67
     0
278
    -2
288
     1
 68
     0
279
    -2
289
     1
 69
     0
  0
VISUALSTYLE
  5
2B
102
{ACAD_XDICTIONARY
360
13F
102
}
102
{ACAD_REACTORS
330
2C
102
}
330
2C
100
AcDbVisualStyle
  2
2dWireframe
 70
     4
 71
     0
 72
     2
 73
     0
 90
        0
 40
-0.6
 41
-30.0
 62
     5
 63
     7
 74
     1
 91
        4
 64
     7
 65
   257
 75
     1
175
     1
 42
1.0
 92
        0
 66
   257
 43
1.0
 76
     1
 77
     6
 78
     2
 67
     7
 79
     5
170
     0
171
     0
290
     0
174
     0
 93
        1
 44
0.0
173
     0
291
     0
 45
0.0
1001
ACAD
1000
AcDbSavedByObjectVersion
1070
     0
  0
VISUALSTYLE
  5
55
102
{ACAD_XDICTIONARY
360
144
102
}
102
{ACAD_REACTORS
330
2C
102
}
330
2C
100
AcDbVisualStyle
  2
Realistic
 70
     8
 71
     2
 72
     3
 73
     0
 90
        2
 40
-0.6
 41
30.0
 62
     5
 63
     7
 74
     0
 91
        0
 64
     7
 65
   257
 75
     1
175
     1
 42
1.0
 92
        8
 66
   257
 43
1.0
 76
     1
 77
     6
 78
     2
 67
     7
 79
     3
170
     0
171
     0
290
     0
174
     0
 93
       13
 44
0.0
173
     0
291
     0
 45
0.0
1001
ACAD
1000
AcDbSavedByObjectVersion
1070
     0
  0
VISUALSTYLE
  5
56
102
{ACAD_XDICTIONARY
360
146
102
}
102
{ACAD_REACTORS
330
2C
102
}
330
2C
100
AcDbVisualStyle
  2
Wireframe
 70
     5
 71
     0
 72
     2
 73
     0
 90
        0
 40
-0.6
 41
-30.0
 62
     5
 63
     7
 74
     1
 91
        4
 64
     7
 65
   257
 75
     1
175
     1
 42
1.0
 92
        0
 66
   257
 43
1.0
 76
     1
 77
     6
 78
     2
 67
     7
 79
     3
170
     0
171
     0
290
     0
174
     0
 93
        1
 44
0.0
173
     0
291
     0
 45
0.0
1001
ACAD
1000
AcDbSavedByObjectVersion
1070
     0
  0
DICTIONARYVAR
  5
131
102
{ACAD_REACTORS
330
12C
102
}
330
12C
100
DictionaryVariables
280
     0
  1
1:1
  0
DICTIONARYVAR
  5
12E
102
{ACAD_REACTORS
330
12C
102
}
330
12C
100
DictionaryVariables
280
     0
  1
STANDARD
  0
DICTIONARYVAR
  5
12D
102
{ACAD_REACTORS
330
12C
102
}
330
12C
100
DictionaryVariables
280
     0
  1
STANDARD
  0
DICTIONARYVAR
  5
12F
102
{ACAD_REACTORS
330
12C
102
}
330
12C
100
DictionaryVariables
280
     0
  1

  0
DICTIONARYVAR
  5
130
102
{ACAD_REACTORS
330
12C
102
}
330
12C
100
DictionaryVariables
280
     0
  1

  0
DICTIONARYVAR
  5
135
102
{ACAD_REACTORS
330
12C
102
}
330
12C
100
DictionaryVariables
280
     0
  1
1
  0
DICTIONARYVAR
  5
134
102
{ACAD_REACTORS
330
12C
102
}
330
12C
100
DictionaryVariables
280
     0
  1
1
  0
DICTIONARYVAR
  5
133
102
{ACAD_REACTORS
330
12C
102
}
330
12C
100
DictionaryVariables
280
     0
  1
0
  0
DICTIONARYVAR
  5
132
102
{ACAD_REACTORS
330
12C
102
}
330
12C
100
DictionaryVariables
280
     0
  1
127
  0
DICTIONARYVAR
  5
136
102
{ACAD_REACTORS
330
12C
102
}
330
12C
100
DictionaryVariables
280
     0
  1
2
  0
DICTIONARY
  5
13B
330
15
100
AcDbDictionary
280
     1
281
     1
  3
ACAD_XREC_ROUNDTRIP
360
13C
  0
DICTIONARY
  5
13D
330
1B
100
AcDbDictionary
280
     1
281
     1
  3
ACAD_XREC_ROUNDTRIP
360
13E
  0
DICTIONARY
  5
42
330
41
100
AcDbDictionary
280
     1
281
     1
  3
ACAD_XREC_ROUNDTRIP
360
142
  3
BUMPTILE
360
43
  3
DIFFUSETILE
360
44
  3
OPACITYTILE
360
45
  3
REFLECTIONTILE
360
46
  3
REFRACTIONTILE
360
47
  3
SPECULARTILE
360
48
  0
DICTIONARY
  5
3A
330
39
100
AcDbDictionary
280
     1
281
     1
  3
ACAD_XREC_ROUNDTRIP
360
141
  3
BUMPTILE
360
3B
  3
DIFFUSETILE
360
3C
  3
OPACITYTILE
360
3D
  3
REFLECTIONTILE
360
3E
  3
REFRACTIONTILE
360
3F
  3
SPECULARTILE
360
40
  0
DICTIONARY
  5
C
330
A
100
AcDbDictionary
280
     1
281
     1
  3
ACAD_XREC_ROUNDTRIP
360
13A
  3
BUMPTILE
360
D
  3
DIFFUSETILE
360
E
  3
OPACITYTILE
360
F
  3
REFLECTIONTILE
360
10
  3
REFRACTIONTILE
360
11
  3
SPECULARTILE
360
12
  0
DICTIONARY
  5
137
330
54
100
AcDbDictionary
280
     1
281
     1
  3
ACAD_ROUNDTRIP_2008_TABLESTYLE_CELLSTYLEMAP
360
138
  3
ACAD_XREC_ROUNDTRIP
360
143
  0
DICTIONARY
  5
13F
330
2B
100
AcDbDictionary
280
     1
281
     1
  3
ACAD_XREC_ROUNDTRIP
360
140
  0
DICTIONARY
  5
144
330
55
100
AcDbDictionary
280
     1
281
     1
  3
ACAD_XREC_ROUNDTRIP
360
145
  0
DICTIONARY
  5
146
330
56
100
AcDbDictionary
280
     1
281
     1
  3
ACAD_XREC_ROUNDTRIP
360
147
  0
XRECORD
  5
13C
102
{ACAD_REACTORS
330
13B
102
}
330
13B
100
AcDbXrecord
280
     1
102
SHADEPLOT
 70
     0
102
SHADEPLOTRESLEVEL
 70
     2
102
SHADEPLOTCUSTOMDPI
 70
   300
  0
XRECORD
  5
13E
102
{ACAD_REACTORS
330
13D
102
}
330
13D
100
AcDbXrecord
280
     1
102
SHADEPLOT
 70
     0
102
SHADEPLOTRESLEVEL
 70
     2
102
SHADEPLOTCUSTOMDPI
 70
   300
  0
XRECORD
  5
142
102
{ACAD_REACTORS
330
42
102
}
330
42
100
AcDbXrecord
280
     1
102
MATERIAL
148
0.0
149
0.0
149
0.0
 93
        0
 94
      127
282
     0
 72
     0
 77
     0
171
     0
175
     0
179
     0
273
     0
  0
XRECORD
  5
43
102
{ACAD_REACTORS
330
42
102
}
330
42
100
AcDbXrecord
280
     1
270
     1
271
     1
  0
XRECORD
  5
44
102
{ACAD_REACTORS
330
42
102
}
330
42
100
AcDbXrecord
280
     1
270
     1
271
     1
  0
XRECORD
  5
45
102
{ACAD_REACTORS
330
42
102
}
330
42
100
AcDbXrecord
280
     1
270
     1
271
     1
  0
XRECORD
  5
46
102
{ACAD_REACTORS
330
42
102
}
330
42
100
AcDbXrecord
280
     1
270
     1
271
     1
  0
XRECORD
  5
47
102
{ACAD_REACTORS
330
42
102
}
330
42
100
AcDbXrecord
280
     1
270
     1
271
     1
  0
XRECORD
  5
48
102
{ACAD_REACTORS
330
42
102
}
330
42
100
AcDbXrecord
280
     1
270
     1
271
     1
  0
XRECORD
  5
141
102
{ACAD_REACTORS
330
3A
102
}
330
3A
100
AcDbXrecord
280
     1
102
MATERIAL
148
0.0
149
0.0
149
0.0
 93
        0
 94
      127
282
     0
 72
     0
 77
     0
171
     0
175
     0
179
     0
273
     0
  0
XRECORD
  5
3B
102
{ACAD_REACTORS
330
3A
102
}
330
3A
100
AcDbXrecord
280
     1
270
     1
271
     1
  0
XRECORD
  5
3C
102
{ACAD_REACTORS
330
3A
102
}
330
3A
100
AcDbXrecord
280
     1
270
     1
271
     1
  0
XRECORD
  5
3D
102
{ACAD_REACTORS
330
3A
102
}
330
3A
100
AcDbXrecord
280
     1
270
     1
271
     1
  0
XRECORD
  5
3E
102
{ACAD_REACTORS
330
3A
102
}
330
3A
100
AcDbXrecord
280
     1
270
     1
271
     1
  0
XRECORD
  5
3F
102
{ACAD_REACTORS
330
3A
102
}
330
3A
100
AcDbXrecord
280
     1
270
     1
271
     1
  0
XRECORD
  5
40
102
{ACAD_REACTORS
330
3A
102
}
330
3A
100
AcDbXrecord
280
     1
270
     1
271
     1
  0
XRECORD
  5
13A
102
{ACAD_REACTORS
330
C
102
}
330
C
100
AcDbXrecord
280
     1
102
MATERIAL
148
0.0
149
0.0
149
0.0
 93
        0
 94
      127
282
     0
 72
     0
 77
     0
171
     0
175
     0
179
     0
273
     0
  0
XRECORD
  5
D
102
{ACAD_REACTORS
330
C
102
}
330
C
100
AcDbXrecord
280
     1
270
     1
271
     1
  0
XRECORD
  5
E
102
{ACAD_REACTORS
330
C
102
}
330
C
100
AcDbXrecord
280
     1
270
     1
271
     1
  0
XRECORD
  5
F
102
{ACAD_REACTORS
330
C
102
}
330
C
100
AcDbXrecord
280
     1
270
     1
271
     1
  0
XRECORD
  5
10
102
{ACAD_REACTORS
330
C
102
}
330
C
100
AcDbXrecord
280
     1
270
     1
271
     1
  0
XRECORD
  5
11
102
{ACAD_REACTORS
330
C
102
}
330
C
100
AcDbXrecord
280
     1
270
     1
271
     1
  0
XRECORD
  5
12
102
{ACAD_REACTORS
330
C
102
}
330
C
100
AcDbXrecord
280
     1
270
     1
271
     1
  0
CELLSTYLEMAP
  5
138
102
{ACAD_REACTORS
330
137
102
}
330
137
100
AcDbCellStyleMap
 90
        3
300
CELLSTYLE
  1
TABLEFORMAT_BEGIN
 90
        5
170
     1
 91
        0
 92
    32768
 62
   257
 93
        1
300
CONTENTFORMAT
  1
CONTENTFORMAT_BEGIN
 90
        0
 91
        0
 92
        4
 93
        0
300

 40
0.0
140
1.0
 94
        5
 62
     0
340
22
144
0.25
309
CONTENTFORMAT_END
171
     0
 94
        6
 95
        1
302
GRIDFORMAT
  1
GRIDFORMAT_BEGIN
 90
        0
 91
        1
 62
     0
 92
       -2
340
0
 93
        0
 40
0.045
309
GRIDFORMAT_END
 95
        2
302
GRIDFORMAT
  1
GRIDFORMAT_BEGIN
 90
        0
 91
        1
 62
     0
 92
       -2
340
0
 93
        0
 40
0.045
309
GRIDFORMAT_END
 95
        4
302
GRIDFORMAT
  1
GRIDFORMAT_BEGIN
 90
        0
 91
        1
 62
     0
 92
       -2
340
0
 93
        0
 40
0.045
309
GRIDFORMAT_END
 95
        8
302
GRIDFORMAT
  1
GRIDFORMAT_BEGIN
 90
        0
 91
        1
 62
     0
 92
       -2
340
0
 93
        0
 40
0.045
309
GRIDFORMAT_END
 95
       16
302
GRIDFORMAT
  1
GRIDFORMAT_BEGIN
 90
        0
 91
        1
 62
     0
 92
       -2
340
0
 93
        0
 40
0.045
309
GRIDFORMAT_END
 95
       32
302
GRIDFORMAT
  1
GRIDFORMAT_BEGIN
 90
        0
 91
        1
 62
     0
 92
       -2
340
0
 93
        0
 40
0.045
309
GRIDFORMAT_END
309
TABLEFORMAT_END
  1
CELLSTYLE_BEGIN
 90
        1
 91
        1
300
_TITLE
309
CELLSTYLE_END
300
CELLSTYLE
  1
TABLEFORMAT_BEGIN
 90
        5
170
     1
 91
        0
 92
        0
 62
   257
 93
        1
300
CONTENTFORMAT
  1
CONTENTFORMAT_BEGIN
 90
        0
 91
        0
 92
        4
 93
        0
300

 40
0.0
140
1.0
 94
        5
 62
     0
340
22
144
0.18
309
CONTENTFORMAT_END
171
     0
 94
        6
 95
        1
302
GRIDFORMAT
  1
GRIDFORMAT_BEGIN
 90
        0
 91
        1
 62
     0
 92
       -2
340
0
 93
        0
 40
0.045
309
GRIDFORMAT_END
 95
        2
302
GRIDFORMAT
  1
GRIDFORMAT_BEGIN
 90
        0
 91
        1
 62
     0
 92
       -2
340
0
 93
        0
 40
0.045
309
GRIDFORMAT_END
 95
        4
302
GRIDFORMAT
  1
GRIDFORMAT_BEGIN
 90
        0
 91
        1
 62
     0
 92
       -2
340
0
 93
        0
 40
0.045
309
GRIDFORMAT_END
 95
        8
302
GRIDFORMAT
  1
GRIDFORMAT_BEGIN
 90
        0
 91
        1
 62
     0
 92
       -2
340
0
 93
        0
 40
0.045
309
GRIDFORMAT_END
 95
       16
302
GRIDFORMAT
  1
GRIDFORMAT_BEGIN
 90
        0
 91
        1
 62
     0
 92
       -2
340
0
 93
        0
 40
0.045
309
GRIDFORMAT_END
 95
       32
302
GRIDFORMAT
  1
GRIDFORMAT_BEGIN
 90
        0
 91
        1
 62
     0
 92
       -2
340
0
 93
        0
 40
0.045
309
GRIDFORMAT_END
309
TABLEFORMAT_END
  1
CELLSTYLE_BEGIN
 90
        2
 91
        1
300
_HEADER
309
CELLSTYLE_END
300
CELLSTYLE
  1
TABLEFORMAT_BEGIN
 90
        5
170
     1
 91
        0
 92
        0
 62
   257
 93
        1
300
CONTENTFORMAT
  1
CONTENTFORMAT_BEGIN
 90
        0
 91
        0
 92
        4
 93
        0
300

 40
0.0
140
1.0
 94
        2
 62
     0
340
22
144
0.18
309
CONTENTFORMAT_END
171
     0
 94
        6
 95
        1
302
GRIDFORMAT
  1
GRIDFORMAT_BEGIN
 90
        0
 91
        1
 62
     0
 92
       -2
340
0
 93
        0
 40
0.045
309
GRIDFORMAT_END
 95
        2
302
GRIDFORMAT
  1
GRIDFORMAT_BEGIN
 90
        0
 91
        1
 62
     0
 92
       -2
340
0
 93
        0
 40
0.045
309
GRIDFORMAT_END
 95
        4
302
GRIDFORMAT
  1
GRIDFORMAT_BEGIN
 90
        0
 91
        1
 62
     0
 92
       -2
340
0
 93
        0
 40
0.045
309
GRIDFORMAT_END
 95
        8
302
GRIDFORMAT
  1
GRIDFORMAT_BEGIN
 90
        0
 91
        1
 62
     0
 92
       -2
340
0
 93
        0
 40
0.045
309
GRIDFORMAT_END
 95
       16
302
GRIDFORMAT
  1
GRIDFORMAT_BEGIN
 90
        0
 91
        1
 62
     0
 92
       -2
340
0
 93
        0
 40
0.045
309
GRIDFORMAT_END
 95
       32
302
GRIDFORMAT
  1
GRIDFORMAT_BEGIN
 90
        0
 91
        1
 62
     0
 92
       -2
340
0
 93
        0
 40
0.045
309
GRIDFORMAT_END
309
TABLEFORMAT_END
  1
CELLSTYLE_BEGIN
 90
        3
 91
        2
300
_DATA
309
CELLSTYLE_END
  0
XRECORD
  5
143
102
{ACAD_REACTORS
330
137
102
}
330
137
100
AcDbXrecord
280
     1
102
ACAD_ROUNDTRIP_PRE2007_TABLESTYLE
 90
        4
 91
        0
  1

 92
        4
 93
        0
  2

 94
        4
 95
        0
  3

  0
XRECORD
  5
140
102
{ACAD_REACTORS
330
13F
102
}
330
13F
100
AcDbXrecord
280
     1
102
RTVSPost2010Prop28
280
     1
102
RTVSPost2010PropOp28
 70
     1
102
RTVSPost2010Prop29
280
     1
102
RTVSPost2010PropOp29
 70
     1
102
RTVSPost2010Prop30
280
     0
102
RTVSPost2010PropOp30
 70
     1
102
RTVSPost2010Prop31
280
     0
102
RTVSPost2010PropOp31
 70
     1
102
RTVSPost2010Prop32
280
     0
102
RTVSPost2010PropOp32
 70
     1
102
RTVSPost2010Prop33
280
     0
102
RTVSPost2010PropOp33
 70
     1
102
RTVSPost2010Prop34
280
     0
102
RTVSPost2010PropOp34
 70
     1
102
RTVSPost2010Prop35
280
     0
102
RTVSPost2010PropOp35
 70
     1
102
RTVSPost2010Prop36
280
     0
102
RTVSPost2010PropOp36
 70
     1
102
RTVSPost2010Prop37
 90
       50
102
RTVSPost2010PropOp37
 70
     1
102
RTVSPost2010Prop38
140
0.0
102
RTVSPost2010PropOp38
 70
     1
102
RTVSPost2010Prop39
140
1.0
102
RTVSPost2010PropOp39
 70
     1
102
RTVSPost2010Prop40
 90
        0
102
RTVSPost2010PropOp40
 70
     1
102
RTVSPost2010Prop41ColorIndex
 90
       18
102
RTVSPost2010Prop41ColorRGB
 90
        0
102
RTVSPost2010PropOp41
 70
     1
102
RTVSPost2010Prop42
 90
       50
102
RTVSPost2010PropOp42
 70
     1
102
RTVSPost2010Prop43
 90
        3
102
RTVSPost2010PropOp43
 70
     1
102
RTVSPost2010Prop44ColorIndex
 90
        5
102
RTVSPost2010Prop44ColorRGB
 90
      255
102
RTVSPost2010PropOp44
 70
     1
102
RTVSPost2010Prop45
280
     0
102
RTVSPost2010PropOp45
 70
     1
102
RTVSPost2010Prop46
 90
       50
102
RTVSPost2010PropOp46
 70
     1
102
RTVSPost2010Prop47
 90
       50
102
RTVSPost2010PropOp47
 70
     1
102
RTVSPost2010Prop48
 90
       50
102
RTVSPost2010PropOp48
 70
     1
102
RTVSPost2010Prop49
280
     0
102
RTVSPost2010PropOp49
 70
     1
102
RTVSPost2010Prop50
 90
       50
102
RTVSPost2010PropOp50
 70
     1
102
RTVSPost2010Prop51ColorIndex
 90
      256
102
RTVSPost2010Prop51ColorRGB
 90
-16777216
102
RTVSPost2010PropOp51
 70
     0
102
RTVSPost2010Prop52
140
1.0
102
RTVSPost2010PropOp52
 70
     0
102
RTVSPost2010Prop53
 90
        2
102
RTVSPost2010PropOp53
 70
     1
102
RTVSPost2010Prop54
  1
strokes_ogs.tif
102
RTVSPost2010PropOp54
 70
     1
102
RTVSPost2010Prop55
280
     0
102
RTVSPost2010PropOp55
 70
     1
102
RTVSPost2010Prop56
140
1.0
102
RTVSPost2010PropOp56
 70
     1
102
RTVSPost2010Prop57
140
1.0
102
RTVSPost2010PropOp57
 70
     1
102
RTVSPropertyOp0
 70
     1
102
RTVSPropertyOp1
 70
     1
102
RTVSPropertyOp2
 70
     1
102
RTVSPropertyOp3
 70
     1
102
RTVSPropertyOp4
 70
     1
102
RTVSPropertyOp5
 70
     1
102
RTVSPropertyOp6
 70
     1
102
RTVSPropertyOp7
 70
     1
102
RTVSPropertyOp8
 70
     1
102
RTVSPropertyOp9
 70
     1
102
RTVSPropertyOp10
 70
     1
102
RTVSPropertyOp11
 70
     1
102
RTVSPropertyOp12
 70
     1
102
RTVSPropertyOp13
 70
     1
102
RTVSPropertyOp14
 70
     1
102
RTVSPropertyOp15
 70
     1
102
RTVSPropertyOp16
 70
     1
102
RTVSPropertyOp17
 70
     1
102
RTVSPropertyOp18
 70
     1
102
RTVSPropertyOp19
 70
     1
102
RTVSPropertyOp20
 70
     1
102
RTVSPropertyOp21
 70
     1
102
RTVSPropertyOp22
 70
     1
102
RTVSPropertyOp23
 70
     1
102
RTVSPropertyOp24
 70
     1
102
RTVSPropertyOp25
 70
     1
102
RTVSPropertyOp26
 70
     1
102
RTVSPropertyOp27
 70
     1
102
RTVSPropertyOp28
 70
     1
102
RTVSPropertyOp29
 70
     1
102
RTVSPropertyOp30
 70
     1
102
RTVSPropertyOp31
 70
     1
102
RTVSPropertyOp32
 70
     1
102
RTVSPropertyOp33
 70
     1
102
RTVSPropertyOp34
 70
     1
102
RTVSPropertyOp35
 70
     1
102
RTVSPropertyOp36
 70
     1
102
RTVSPropertyOp37
 70
     1
102
RTVSPropertyOp38
 70
     1
102
RTVSPropertyOp39
 70
     1
102
RTVSPropertyOp40
 70
     1
102
RTVSPropertyOp41
 70
     1
102
RTVSPropertyOp42
 70
     1
102
RTVSPropertyOp43
 70
     1
102
RTVSPropertyOp44
 70
     1
102
RTVSPropertyOp45
 70
     1
102
RTVSPropertyOp46
 70
     1
102
RTVSPropertyOp47
 70
     1
102
RTVSPropertyOp48
 70
     1
102
RTVSPropertyOp49
 70
     1
102
RTVSPropertyOp50
 70
     1
102
RTVSPropertyOp51
 70
     0
102
RTVSPropertyOp52
 70
     0
102
RTVSPropertyOp53
 70
     1
102
RTVSPropertyOp54
 70
     1
102
RTVSPropertyOp55
 70
     1
102
RTVSPropertyOp56
 70
     1
102
RTVSPropertyOp57
 70
     1
102
RTVSPropertyOp58
 70
     1
102
RTVSPropertyOp59
 70
     1
102
RTVSPropertyOp60
 70
     1
102
RTVSPropertyOp61
 70
     1
102
RTVSPropertyOp62
 70
     1
  0
XRECORD
  5
145
102
{ACAD_REACTORS
330
144
102
}
330
144
100
AcDbXrecord
280
     1
102
RTVSPost2010Prop28
280
     0
102
RTVSPost2010PropOp28
 70
     1
102
RTVSPost2010Prop29
280
     1
102
RTVSPost2010PropOp29
 70
     1
102
RTVSPost2010Prop30
280
     1
102
RTVSPost2010PropOp30
 70
     1
102
RTVSPost2010Prop31
280
     0
102
RTVSPost2010PropOp31
 70
     1
102
RTVSPost2010Prop32
280
     0
102
RTVSPost2010PropOp32
 70
     1
102
RTVSPost2010Prop33
280
     0
102
RTVSPost2010PropOp33
 70
     1
102
RTVSPost2010Prop34
280
     0
102
RTVSPost2010PropOp34
 70
     1
102
RTVSPost2010Prop35
280
     0
102
RTVSPost2010PropOp35
 70
     1
102
RTVSPost2010Prop36
280
     0
102
RTVSPost2010PropOp36
 70
     1
102
RTVSPost2010Prop37
 90
       50
102
RTVSPost2010PropOp37
 70
     1
102
RTVSPost2010Prop38
140
0.0
102
RTVSPost2010PropOp38
 70
     1
102
RTVSPost2010Prop39
140
1.0
102
RTVSPost2010PropOp39
 70
     1
102
RTVSPost2010Prop40
 90
        0
102
RTVSPost2010PropOp40
 70
     1
102
RTVSPost2010Prop41ColorIndex
 90
       18
102
RTVSPost2010Prop41ColorRGB
 90
        0
102
RTVSPost2010PropOp41
 70
     1
102
RTVSPost2010Prop42
 90
       50
102
RTVSPost2010PropOp42
 70
     1
102
RTVSPost2010Prop43
 90
        3
102
RTVSPost2010PropOp43
 70
     1
102
RTVSPost2010Prop44ColorIndex
 90
        5
102
RTVSPost2010Prop44ColorRGB
 90
      255
102
RTVSPost2010PropOp44
 70
     1
102
RTVSPost2010Prop45
280
     0
102
RTVSPost2010PropOp45
 70
     1
102
RTVSPost2010Prop46
 90
       50
102
RTVSPost2010PropOp46
 70
     1
102
RTVSPost2010Prop47
 90
       50
102
RTVSPost2010PropOp47
 70
     1
102
RTVSPost2010Prop48
 90
       50
102
RTVSPost2010PropOp48
 70
     1
102
RTVSPost2010Prop49
280
     0
102
RTVSPost2010PropOp49
 70
     1
102
RTVSPost2010Prop50
 90
       50
102
RTVSPost2010PropOp50
 70
     1
102
RTVSPost2010Prop51ColorIndex
 90
      256
102
RTVSPost2010Prop51ColorRGB
 90
-16777216
102
RTVSPost2010PropOp51
 70
     0
102
RTVSPost2010Prop52
140
1.0
102
RTVSPost2010PropOp52
 70
     0
102
RTVSPost2010Prop53
 90
        2
102
RTVSPost2010PropOp53
 70
     1
102
RTVSPost2010Prop54
  1
strokes_ogs.tif
102
RTVSPost2010PropOp54
 70
     1
102
RTVSPost2010Prop55
280
     0
102
RTVSPost2010PropOp55
 70
     1
102
RTVSPost2010Prop56
140
1.0
102
RTVSPost2010PropOp56
 70
     1
102
RTVSPost2010Prop57
140
1.0
102
RTVSPost2010PropOp57
 70
     1
102
RTVSPropertyOp0
 70
     1
102
RTVSPropertyOp1
 70
     1
102
RTVSPropertyOp2
 70
     1
102
RTVSPropertyOp3
 70
     1
102
RTVSPropertyOp4
 70
     1
102
RTVSPropertyOp5
 70
     1
102
RTVSPropertyOp6
 70
     1
102
RTVSPropertyOp7
 70
     1
102
RTVSPropertyOp8
 70
     1
102
RTVSPropertyOp9
 70
     1
102
RTVSPropertyOp10
 70
     1
102
RTVSPropertyOp11
 70
     1
102
RTVSPropertyOp12
 70
     1
102
RTVSPropertyOp13
 70
     1
102
RTVSPropertyOp14
 70
     1
102
RTVSPropertyOp15
 70
     1
102
RTVSPropertyOp16
 70
     1
102
RTVSPropertyOp17
 70
     1
102
RTVSPropertyOp18
 70
     1
102
RTVSPropertyOp19
 70
     1
102
RTVSPropertyOp20
 70
     1
102
RTVSPropertyOp21
 70
     1
102
RTVSPropertyOp22
 70
     1
102
RTVSPropertyOp23
 70
     1
102
RTVSPropertyOp24
 70
     1
102
RTVSPropertyOp25
 70
     1
102
RTVSPropertyOp26
 70
     1
102
RTVSPropertyOp27
 70
     1
102
RTVSPropertyOp28
 70
     1
102
RTVSPropertyOp29
 70
     1
102
RTVSPropertyOp30
 70
     1
102
RTVSPropertyOp31
 70
     1
102
RTVSPropertyOp32
 70
     1
102
RTVSPropertyOp33
 70
     1
102
RTVSPropertyOp34
 70
     1
102
RTVSPropertyOp35
 70
     1
102
RTVSPropertyOp36
 70
     1
102
RTVSPropertyOp37
 70
     1
102
RTVSPropertyOp38
 70
     1
102
RTVSPropertyOp39
 70
     1
102
RTVSPropertyOp40
 70
     1
102
RTVSPropertyOp41
 70
     1
102
RTVSPropertyOp42
 70
     1
102
RTVSPropertyOp43
 70
     1
102
RTVSPropertyOp44
 70
     1
102
RTVSPropertyOp45
 70
     1
102
RTVSPropertyOp46
 70
     1
102
RTVSPropertyOp47
 70
     1
102
RTVSPropertyOp48
 70
     1
102
RTVSPropertyOp49
 70
     1
102
RTVSPropertyOp50
 70
     1
102
RTVSPropertyOp51
 70
     0
102
RTVSPropertyOp52
 70
     0
102
RTVSPropertyOp53
 70
     1
102
RTVSPropertyOp54
 70
     1
102
RTVSPropertyOp55
 70
     1
102
RTVSPropertyOp56
 70
     1
102
RTVSPropertyOp57
 70
     1
102
RTVSPropertyOp58
 70
     1
102
RTVSPropertyOp59
 70
     1
102
RTVSPropertyOp60
 70
     1
102
RTVSPropertyOp61
 70
     1
102
RTVSPropertyOp62
 70
     1
  0
XRECORD
  5
147
102
{ACAD_REACTORS
330
146
102
}
330
146
100
AcDbXrecord
280
     1
102
RTVSPost2010Prop28
280
     0
102
RTVSPost2010PropOp28
 70
     1
102
RTVSPost2010Prop29
280
     1
102
RTVSPost2010PropOp29
 70
     1
102
RTVSPost2010Prop30
280
     1
102
RTVSPost2010PropOp30
 70
     1
102
RTVSPost2010Prop31
280
     0
102
RTVSPost2010PropOp31
 70
     1
102
RTVSPost2010Prop32
280
     0
102
RTVSPost2010PropOp32
 70
     1
102
RTVSPost2010Prop33
280
     0
102
RTVSPost2010PropOp33
 70
     1
102
RTVSPost2010Prop34
280
     0
102
RTVSPost2010PropOp34
 70
     1
102
RTVSPost2010Prop35
280
     0
102
RTVSPost2010PropOp35
 70
     1
102
RTVSPost2010Prop36
280
     0
102
RTVSPost2010PropOp36
 70
     1
102
RTVSPost2010Prop37
 90
       50
102
RTVSPost2010PropOp37
 70
     1
102
RTVSPost2010Prop38
140
0.0
102
RTVSPost2010PropOp38
 70
     1
102
RTVSPost2010Prop39
140
1.0
102
RTVSPost2010PropOp39
 70
     1
102
RTVSPost2010Prop40
 90
        0
102
RTVSPost2010PropOp40
 70
     1
102
RTVSPost2010Prop41ColorIndex
 90
       18
102
RTVSPost2010Prop41ColorRGB
 90
        0
102
RTVSPost2010PropOp41
 70
     1
102
RTVSPost2010Prop42
 90
       50
102
RTVSPost2010PropOp42
 70
     1
102
RTVSPost2010Prop43
 90
        3
102
RTVSPost2010PropOp43
 70
     1
102
RTVSPost2010Prop44ColorIndex
 90
        5
102
RTVSPost2010Prop44ColorRGB
 90
      255
102
RTVSPost2010PropOp44
 70
     1
102
RTVSPost2010Prop45
280
     0
102
RTVSPost2010PropOp45
 70
     1
102
RTVSPost2010Prop46
 90
       50
102
RTVSPost2010PropOp46
 70
     1
102
RTVSPost2010Prop47
 90
       50
102
RTVSPost2010PropOp47
 70
     1
102
RTVSPost2010Prop48
 90
       50
102
RTVSPost2010PropOp48
 70
     1
102
RTVSPost2010Prop49
280
     0
102
RTVSPost2010PropOp49
 70
     1
102
RTVSPost2010Prop50
 90
       50
102
RTVSPost2010PropOp50
 70
     1
102
RTVSPost2010Prop51ColorIndex
 90
      256
102
RTVSPost2010Prop51ColorRGB
 90
-16777216
102
RTVSPost2010PropOp51
 70
     0
102
RTVSPost2010Prop52
140
1.0
102
RTVSPost2010PropOp52
 70
     0
102
RTVSPost2010Prop53
 90
        2
102
RTVSPost2010PropOp53
 70
     1
102
RTVSPost2010Prop54
  1
strokes_ogs.tif
102
RTVSPost2010PropOp54
 70
     1
102
RTVSPost2010Prop55
280
     0
102
RTVSPost2010PropOp55
 70
     1
102
RTVSPost2010Prop56
140
1.0
102
RTVSPost2010PropOp56
 70
     1
102
RTVSPost2010Prop57
140
1.0
102
RTVSPost2010PropOp57
 70
     1
102
RTVSPropertyOp0
 70
     1
102
RTVSPropertyOp1
 70
     1
102
RTVSPropertyOp2
 70
     1
102
RTVSPropertyOp3
 70
     1
102
RTVSPropertyOp4
 70
     1
102
RTVSPropertyOp5
 70
     1
102
RTVSPropertyOp6
 70
     1
102
RTVSPropertyOp7
 70
     1
102
RTVSPropertyOp8
 70
     1
102
RTVSPropertyOp9
 70
     1
102
RTVSPropertyOp10
 70
     1
102
RTVSPropertyOp11
 70
     1
102
RTVSPropertyOp12
 70
     1
102
RTVSPropertyOp13
 70
     1
102
RTVSPropertyOp14
 70
     1
102
RTVSPropertyOp15
 70
     1
102
RTVSPropertyOp16
 70
     1
102
RTVSPropertyOp17
 70
     1
102
RTVSPropertyOp18
 70
     1
102
RTVSPropertyOp19
 70
     1
102
RTVSPropertyOp20
 70
     1
102
RTVSPropertyOp21
 70
     1
102
RTVSPropertyOp22
 70
     1
102
RTVSPropertyOp23
 70
     1
102
RTVSPropertyOp24
 70
     1
102
RTVSPropertyOp25
 70
     1
102
RTVSPropertyOp26
 70
     1
102
RTVSPropertyOp27
 70
     1
102
RTVSPropertyOp28
 70
     1
102
RTVSPropertyOp29
 70
     1
102
RTVSPropertyOp30
 70
     1
102
RTVSPropertyOp31
 70
     1
102
RTVSPropertyOp32
 70
     1
102
RTVSPropertyOp33
 70
     1
102
RTVSPropertyOp34
 70
     1
102
RTVSPropertyOp35
 70
     1
102
RTVSPropertyOp36
 70
     1
102
RTVSPropertyOp37
 70
     1
102
RTVSPropertyOp38
 70
     1
102
RTVSPropertyOp39
 70
     1
102
RTVSPropertyOp40
 70
     1
102
RTVSPropertyOp41
 70
     1
102
RTVSPropertyOp42
 70
     1
102
RTVSPropertyOp43
 70
     1
102
RTVSPropertyOp44
 70
     1
102
RTVSPropertyOp45
 70
     1
102
RTVSPropertyOp46
 70
     1
102
RTVSPropertyOp47
 70
     1
102
RTVSPropertyOp48
 70
     1
102
RTVSPropertyOp49
 70
     1
102
RTVSPropertyOp50
 70
     1
102
RTVSPropertyOp51
 70
     0
102
RTVSPropertyOp52
 70
     0
102
RTVSPropertyOp53
 70
     1
102
RTVSPropertyOp54
 70
     1
102
RTVSPropertyOp55
 70
     1
102
RTVSPropertyOp56
 70
     1
102
RTVSPropertyOp57
 70
     1
102
RTVSPropertyOp58
 70
     1
102
RTVSPropertyOp59
 70
     1
102
RTVSPropertyOp60
 70
     1
102
RTVSPropertyOp61
 70
     1
102
RTVSPropertyOp62
 70
     1
  0
ENDSEC
  0
EOF
