  0
SECTION
  2
HEADER
  9
$ACADVER
  1
AC1015
  9
$ACADMAINTVER
 70
    20
  9
$DWGCODEPAGE
  3
ANSI_932
  9
$INSBASE
 10
922.019522
 20
-675.4306699999999
 30
0.0
  9
$EXTMIN
 10
-0.0003787385578562
 20
-0.8705404447378434
 30
-0.0000000000000058
  9
$EXTMAX
 10
148.7155048173243
 20
107.801961520896
 30
0.0000000000000104
  9
$LIMMIN
 10
0.0
 20
0.0
  9
$LIMMAX
 10
420.0
 20
297.0
  9
$ORTHOMODE
 70
     1
  9
$REGENMODE
 70
     1
  9
$FILLMODE
 70
     1
  9
$QTEXTMODE
 70
     0
  9
$MIRRTEXT
 70
     1
  9
$LTSCALE
 40
1.0
  9
$ATTMODE
 70
     1
  9
$TEXTSIZE
 40
30.0
  9
$TRACEWID
 40
0.05
  9
$TEXTSTYLE
  7
SUNPOU
  9
$CLAYER
  8
0
  9
$CELTYPE
  6
BYLAYER
  9
$CECOLOR
 62
   256
  9
$CELTSCALE
 40
1.0
  9
$DISPSILH
 70
     0
  9
$DIMSCALE
 40
1.0
  9
$DIMASZ
 40
2.0
  9
$DIMEXO
 40
10.0
  9
$DIMDLI
 40
0.38
  9
$DIMRND
 40
0.0
  9
$DIMDLE
 40
0.0
  9
$DIMEXE
 40
0.0
  9
$DIMTP
 40
0.0
  9
$DIMTM
 40
0.0
  9
$DIMTXT
 40
5.0
  9
$DIMCEN
 40
0.0
  9
$DIMTSZ
 40
0.0
  9
$DIMTOL
 70
     0
  9
$DIMLIM
 70
     0
  9
$DIMTIH
 70
     0
  9
$DIMTOH
 70
     0
  9
$DIMSE1
 70
     0
  9
$DIMSE2
 70
     0
  9
$DIMTAD
 70
     1
  9
$DIMZIN
 70
     0
  9
$DIMBLK
  1
Dot
  9
$DIMASO
 70
     1
  9
$DIMSHO
 70
     1
  9
$DIMPOST
  1

  9
$DIMAPOST
  1

  9
$DIMALT
 70
     0
  9
$DIMALTD
 70
     2
  9
$DIMALTF
 40
25.4
  9
$DIMLFAC
 40
1.0
  9
$DIMTOFL
 70
     0
  9
$DIMTVP
 40
0.0
  9
$DIMTIX
 70
     0
  9
$DIMSOXD
 70
     0
  9
$DIMSAH
 70
     0
  9
$DIMBLK1
  1

  9
$DIMBLK2
  1

  9
$DIMSTYLE
  2
STANDARD
  9
$DIMCLRD
 70
    60
  9
$DIMCLRE
 70
    70
  9
$DIMCLRT
 70
    60
  9
$DIMTFAC
 40
0.064286
  9
$DIMGAP
 40
3.0
  9
$DIMJUST
 70
     0
  9
$DIMSD1
 70
     0
  9
$DIMSD2
 70
     0
  9
$DIMTOLJ
 70
     1
  9
$DIMTZIN
 70
     0
  9
$DIMALTZ
 70
     0
  9
$DIMALTTZ
 70
     0
  9
$DIMUPT
 70
     0
  9
$DIMDEC
 70
     0
  9
$DIMTDEC
 70
     0
  9
$DIMALTU
 70
     2
  9
$DIMALTTD
 70
     2
  9
$DIMTXSTY
  7
SUNPOU
  9
$DIMAUNIT
 70
     0
  9
$DIMADEC
 70
     0
  9
$DIMALTRND
 40
0.0
  9
$DIMAZIN
 70
     0
  9
$DIMDSEP
 70
    46
  9
$DIMATFIT
 70
     3
  9
$DIMFRAC
 70
     0
  9
$DIMLDRBLK
  1

  9
$DIMLUNIT
 70
     2
  9
$DIMLWD
 70
    -2
  9
$DIMLWE
 70
    -2
  9
$DIMTMOVE
 70
     0
  9
$LUNITS
 70
     2
  9
$LUPREC
 70
     5
  9
$SKETCHINC
 40
0.1
  9
$FILLETRAD
 40
0.0
  9
$AUNITS
 70
     0
  9
$AUPREC
 70
     0
  9
$MENU
  1
acad
  9
$ELEVATION
 40
0.0
  9
$PELEVATION
 40
0.0
  9
$THICKNESS
 40
0.0
  9
$LIMCHECK
 70
     0
  9
$CHAMFERA
 40
0.0
  9
$CHAMFERB
 40
0.0
  9
$CHAMFERC
 40
0.0
  9
$CHAMFERD
 40
0.0
  9
$SKPOLY
 70
     0
  9
$TDCREATE
 40
2450623.654673033
  9
$TDUCREATE
 40
2450623.279673032
  9
$TDUPDATE
 40
2453866.662022269
  9
$TDUUPDATE
 40
2453866.287022269
  9
$TDINDWG
 40
0.2393471528
  9
$TDUSRTIMER
 40
0.2393469792
  9
$USRTIMER
 70
     1
  9
$ANGBASE
 50
0.0
  9
$ANGDIR
 70
     0
  9
$PDMODE
 70
     0
  9
$PDSIZE
 40
0.0
  9
$PLINEWID
 40
0.0
  9
$SPLFRAME
 70
     0
  9
$SPLINETYPE
 70
     6
  9
$SPLINESEGS
 70
     8
  9
$HANDSEED
  5
2674
  9
$SURFTAB1
 70
     6
  9
$SURFTAB2
 70
     6
  9
$SURFTYPE
 70
     6
  9
$SURFU
 70
     6
  9
$SURFV
 70
     6
  9
$UCSBASE
  2

  9
$UCSNAME
  2

  9
$UCSORG
 10
0.0
 20
0.0
 30
0.0
  9
$UCSXDIR
 10
1.0
 20
0.0
 30
0.0
  9
$UCSYDIR
 10
0.0
 20
1.0
 30
0.0
  9
$UCSORTHOREF
  2

  9
$UCSORTHOVIEW
 70
     0
  9
$UCSORGTOP
 10
0.0
 20
0.0
 30
0.0
  9
$UCSORGBOTTOM
 10
0.0
 20
0.0
 30
0.0
  9
$UCSORGLEFT
 10
0.0
 20
0.0
 30
0.0
  9
$UCSORGRIGHT
 10
0.0
 20
0.0
 30
0.0
  9
$UCSORGFRONT
 10
0.0
 20
0.0
 30
0.0
  9
$UCSORGBACK
 10
0.0
 20
0.0
 30
0.0
  9
$PUCSBASE
  2

  9
$PUCSNAME
  2

  9
$PUCSORG
 10
0.0
 20
0.0
 30
0.0
  9
$PUCSXDIR
 10
1.0
 20
0.0
 30
0.0
  9
$PUCSYDIR
 10
0.0
 20
1.0
 30
0.0
  9
$PUCSORTHOREF
  2

  9
$PUCSORTHOVIEW
 70
     0
  9
$PUCSORGTOP
 10
0.0
 20
0.0
 30
0.0
  9
$PUCSORGBOTTOM
 10
0.0
 20
0.0
 30
0.0
  9
$PUCSORGLEFT
 10
0.0
 20
0.0
 30
0.0
  9
$PUCSORGRIGHT
 10
0.0
 20
0.0
 30
0.0
  9
$PUCSORGFRONT
 10
0.0
 20
0.0
 30
0.0
  9
$PUCSORGBACK
 10
0.0
 20
0.0
 30
0.0
  9
$USERI1
 70
     0
  9
$USERI2
 70
     0
  9
$USERI3
 70
     0
  9
$USERI4
 70
     0
  9
$USERI5
 70
     0
  9
$USERR1
 40
0.0
  9
$USERR2
 40
0.0
  9
$USERR3
 40
0.0
  9
$USERR4
 40
0.0
  9
$USERR5
 40
0.0
  9
$WORLDVIEW
 70
     1
  9
$SHADEDGE
 70
     3
  9
$SHADEDIF
 70
    70
  9
$TILEMODE
 70
     1
  9
$MAXACTVP
 70
    16
  9
$PINSBASE
 10
0.0
 20
0.0
 30
0.0
  9
$PLIMCHECK
 70
     0
  9
$PEXTMIN
 10
1.000000000000000E+20
 20
1.000000000000000E+20
 30
1.000000000000000E+20
  9
$PEXTMAX
 10
-1.000000000000000E+20
 20
-1.000000000000000E+20
 30
-1.000000000000000E+20
  9
$PLIMMIN
 10
0.0
 20
0.0
  9
$PLIMMAX
 10
12.0
 20
9.0
  9
$UNITMODE
 70
     0
  9
$VISRETAIN
 70
     0
  9
$PLINEGEN
 70
     0
  9
$PSLTSCALE
 70
     1
  9
$TREEDEPTH
 70
  3020
  9
$CMLSTYLE
  2
STANDARD
  9
$CMLJUST
 70
     0
  9
$CMLSCALE
 40
1.0
  9
$PROXYGRAPHICS
 70
     1
  9
$MEASUREMENT
 70
     0
  9
$CELWEIGHT
370
    -1
  9
$ENDCAPS
280
     0
  9
$JOINSTYLE
280
     0
  9
$LWDISPLAY
290
     0
  9
$INSUNITS
 70
     0
  9
$HYPERLINKBASE
  1

  9
$STYLESHEET
  1

  9
$XEDIT
290
     1
  9
$CEPSNTYPE
380
     0
  9
$PSTYLEMODE
290
     1
  9
$FINGERPRINTGUID
  2
{FB88A696-E29C-4009-92AF-A3599A8169D5}
  9
$VERSIONGUID
  2
{065ED263-3806-4BD4-B6AF-9ED3B5381B31}
  9
$EXTNAMES
290
     1
  9
$PSVPSCALE
 40
0.0
  9
$OLESTARTUP
290
     0
  0
ENDSEC
  0
SECTION
  2
CLASSES
  0
CLASS
  1
DICTIONARYVAR
  2
AcDbDictionaryVar
  3
ObjectDBX Classes
 90
        0
280
     0
281
     0
  0
CLASS
  1
ACDBDICTIONARYWDFLT
  2
AcDbDictionaryWithDefault
  3
ObjectDBX Classes
 90
        0
280
     0
281
     0
  0
CLASS
  1
ACDBPLACEHOLDER
  2
AcDbPlaceHolder
  3
ObjectDBX Classes
 90
        0
280
     0
281
     0
  0
CLASS
  1
LAYOUT
  2
AcDbLayout
  3
ObjectDBX Classes
 90
        0
280
     0
281
     0
  0
CLASS
  1
TABLESTYLE
  2
AcDbTableStyle
  3
ObjectDBX Classes
 90
     2047
280
     0
281
     0
  0
CLASS
  1
SORTENTSTABLE
  2
AcDbSortentsTable
  3
ObjectDBX Classes
 90
        0
280
     0
281
     0
  0
ENDSEC
  0
SECTION
  2
TABLES
  0
TABLE
  2
VPORT
  5
12
330
0
100
AcDbSymbolTable
 70
    15
  0
VPORT
  5
266E
330
12
100
AcDbSymbolTableRecord
100
AcDbViewportTableRecord
  2
*Active
 70
     0
 10
0.0
 20
0.0
 11
1.0
 21
1.0
 12
74.35756303938328
 22
53.89493199332179
 13
0.0
 23
0.0
 14
1.0
 24
1.0
 15
0.0
 25
0.0
 16
0.0
 26
0.0
 36
1.0
 17
0.0
 27
0.0
 37
0.0
 40
108.6423360773391
 41
1.565384615384615
 42
50.0
 43
0.0
 44
0.0
 50
0.0
 51
0.0
 71
     0
 72
 20000
 73
     1
 74
     1
 75
     0
 76
     0
 77
     0
 78
     0
281
     0
 65
     1
110
0.0
120
0.0
130
0.0
111
1.0
121
0.0
131
0.0
112
0.0
122
1.0
132
0.0
 79
     0
146
0.0
  0
ENDTAB
  0
TABLE
  2
LTYPE
  5
D
330
0
100
AcDbSymbolTable
 70
     2
  0
LTYPE
  5
E
330
D
100
AcDbSymbolTableRecord
100
AcDbLinetypeTableRecord
  2
BYBLOCK
 70
     0
  3

 72
    65
 73
     0
 40
0.0
  0
LTYPE
  5
F
330
D
100
AcDbSymbolTableRecord
100
AcDbLinetypeTableRecord
  2
BYLAYER
 70
     0
  3

 72
    65
 73
     0
 40
0.0
  0
LTYPE
  5
5
330
D
100
AcDbSymbolTableRecord
100
AcDbLinetypeTableRecord
  2
CONTINUOUS
 70
     0
  3
Solid line
 72
    65
 73
     0
 40
0.0
  0
ENDTAB
  0
TABLE
  2
LAYER
  5
A
102
{ACAD_XDICTIONARY
360
1B4
102
}
330
0
100
AcDbSymbolTable
 70
     6
  0
LAYER
  5
4
330
A
100
AcDbSymbolTableRecord
100
AcDbLayerTableRecord
  2
0
 70
     0
 62
     7
  6
CONTINUOUS
370
    -3
390
57
  0
LAYER
  5
25
330
A
100
AcDbSymbolTableRecord
100
AcDbLayerTableRecord
  2
KIJUN
 70
     0
 62
     7
  6
CONTINUOUS
370
    -3
390
57
  0
LAYER
  5
22
330
A
100
AcDbSymbolTableRecord
100
AcDbLayerTableRecord
  2
HOJO
 70
     0
 62
     3
  6
CONTINUOUS
370
    -3
390
57
  0
LAYER
  5
1B
330
A
100
AcDbSymbolTableRecord
100
AcDbLayerTableRecord
  2
WAKU
 70
     0
 62
     1
  6
CONTINUOUS
370
    -3
390
57
  0
LAYER
  5
31
330
A
100
AcDbSymbolTableRecord
100
AcDbLayerTableRecord
  2
DEFPOINTS
 70
     0
 62
     7
  6
CONTINUOUS
290
     0
370
    -3
390
57
  0
LAYER
  5
28
330
A
100
AcDbSymbolTableRecord
100
AcDbLayerTableRecord
  2
SUNPOU
 70
     0
 62
    70
  6
CONTINUOUS
370
    -3
390
57
  0
ENDTAB
  0
TABLE
  2
STYLE
  5
B
330
0
100
AcDbSymbolTable
 70
     3
  0
STYLE
  5
C
330
B
100
AcDbSymbolTableRecord
100
AcDbTextStyleTableRecord
  2
STANDARD
 70
     0
 40
0.0
 41
1.0
 50
0.0
 71
     0
 42
0.2
  3
txt
  4

  0
STYLE
  5
1C
330
B
100
AcDbSymbolTableRecord
100
AcDbTextStyleTableRecord
  2
SUNPOU
 70
     0
 40
0.0
 41
1.0
 50
0.0
 71
     0
 42
30.0
  3
txt
  4
bigfont
  0
STYLE
  5
14A
330
B
100
AcDbSymbolTableRecord
100
AcDbTextStyleTableRecord
  2
LIFE
 70
     0
 40
0.0
 41
0.7
 50
0.0
 71
     0
 42
10.0
  3
romans
  4
extfont
  0
ENDTAB
  0
TABLE
  2
VIEW
  5
10
330
0
100
AcDbSymbolTable
 70
     0
  0
ENDTAB
  0
TABLE
  2
UCS
  5
11
330
0
100
AcDbSymbolTable
 70
     0
  0
ENDTAB
  0
TABLE
  2
APPID
  5
14
330
0
100
AcDbSymbolTable
 70
    10
  0
APPID
  5
15
330
14
100
AcDbSymbolTableRecord
100
AcDbRegAppTableRecord
  2
ACAD
 70
     0
  0
APPID
  5
1D3
330
14
100
AcDbSymbolTableRecord
100
AcDbRegAppTableRecord
  2
ACAD_DSTYLE_DIMTEXT_FILL
 70
     0
  0
APPID
  5
1D4
330
14
100
AcDbSymbolTableRecord
100
AcDbRegAppTableRecord
  2
ACAD_DSTYLE_DIMEXT_LENGTH
 70
     0
  0
APPID
  5
1D5
330
14
100
AcDbSymbolTableRecord
100
AcDbRegAppTableRecord
  2
ACAD_DSTYLE_DIMEXT_ENABLED
 70
     0
  0
APPID
  5
1D6
330
14
100
AcDbSymbolTableRecord
100
AcDbRegAppTableRecord
  2
ACAD_DSTYLE_DIM_LINETYPE
 70
     0
  0
APPID
  5
1D7
330
14
100
AcDbSymbolTableRecord
100
AcDbRegAppTableRecord
  2
ACAD_DSTYLE_DIM_EXT1_LINETYPE
 70
     0
  0
APPID
  5
1D8
330
14
100
AcDbSymbolTableRecord
100
AcDbRegAppTableRecord
  2
ACAD_DSTYLE_DIM_EXT2_LINETYPE
 70
     0
  0
APPID
  5
294
330
14
100
AcDbSymbolTableRecord
100
AcDbRegAppTableRecord
  2
ACAD_DSTYLE_DIMJOGGED_JOGANGLE_SYMBOL
 70
     0
  0
APPID
  5
478
330
14
100
AcDbSymbolTableRecord
100
AcDbRegAppTableRecord
  2
ACAD_DSTYLE_DIMARC_LENGTH_SYMBOL
 70
     0
  0
APPID
  5
F55
330
14
100
AcDbSymbolTableRecord
100
AcDbRegAppTableRecord
  2
ACAD_EXEMPT_FROM_CAD_STANDARDS
 70
     0
  0
ENDTAB
  0
TABLE
  2
DIMSTYLE
  5
16
330
0
100
AcDbSymbolTable
 70
     3
100
AcDbDimStyleTable
 71
     1
340
1E
  0
DIMSTYLE
105
1E
102
{ACAD_REACTORS
330
2640
330
264D
102
}
330
16
100
AcDbSymbolTableRecord
100
AcDbDimStyleTableRecord
  2
STANDARD
 70
     0
340
C
  0
DIMSTYLE
105
1005
330
16
100
AcDbSymbolTableRecord
100
AcDbDimStyleTableRecord
  2
1-100
 70
     0
 40
100.0
 41
0.7
 42
2.5
 43
5.0
 44
1.0
 77
     1
147
1.0
172
     1
176
     3
177
     3
271
     2
272
     2
279
     2
340
C
342
109
  0
ENDTAB
  0
TABLE
  2
BLOCK_RECORD
  5
1
330
0
100
AcDbSymbolTable
 70
    29
  0
BLOCK_RECORD
  5
2
102
{ACAD_XDICTIONARY
360
D13
102
}
330
1
100
AcDbSymbolTableRecord
100
AcDbBlockTableRecord
  2
*MODEL_SPACE
340
5A
  0
BLOCK_RECORD
  5
7
330
1
100
AcDbSymbolTableRecord
100
AcDbBlockTableRecord
  2
*PAPER_SPACE
340
5B
  0
BLOCK_RECORD
  5
109
330
1
100
AcDbSymbolTableRecord
100
AcDbBlockTableRecord
  2
_Dot
340
0
102
{BLKREFS
331
1795
331
1796
331
17B6
331
17B7
331
1AD5
331
1AD6
331
1AF0
331
1AF1
331
1D52
331
1D53
331
1D5B
331
1D5C
331
1EF8
331
1EF9
331
2010
331
2011
331
201D
331
201E
331
2117
331
2118
331
2124
331
2125
331
2295
331
2296
331
22B9
331
22BA
331
22D5
331
22D6
331
241E
331
241F
331
24E3
331
24E4
331
24F5
331
24F6
331
2580
331
2581
331
259B
331
259C
331
2645
331
2646
331
2652
331
2653
102
}
  0
BLOCK_RECORD
  5
200C
330
1
100
AcDbSymbolTableRecord
100
AcDbBlockTableRecord
  2
*D8
340
0
  0
BLOCK_RECORD
  5
2019
330
1
100
AcDbSymbolTableRecord
100
AcDbBlockTableRecord
  2
*D9
340
0
  0
BLOCK_RECORD
  5
2113
330
1
100
AcDbSymbolTableRecord
100
AcDbBlockTableRecord
  2
*D12
340
0
  0
BLOCK_RECORD
  5
2120
330
1
100
AcDbSymbolTableRecord
100
AcDbBlockTableRecord
  2
*D13
340
0
  0
BLOCK_RECORD
  5
2262
330
1
100
AcDbSymbolTableRecord
100
AcDbBlockTableRecord
  2
*D15
340
0
  0
BLOCK_RECORD
  5
226F
330
1
100
AcDbSymbolTableRecord
100
AcDbBlockTableRecord
  2
*D16
340
0
  0
BLOCK_RECORD
  5
22A1
330
1
100
AcDbSymbolTableRecord
100
AcDbBlockTableRecord
  2
*D17
340
0
  0
BLOCK_RECORD
  5
2405
330
1
100
AcDbSymbolTableRecord
100
AcDbBlockTableRecord
  2
*D19
340
0
  0
BLOCK_RECORD
  5
2481
330
1
100
AcDbSymbolTableRecord
100
AcDbBlockTableRecord
  2
*D21
340
0
  0
BLOCK_RECORD
  5
248E
330
1
100
AcDbSymbolTableRecord
100
AcDbBlockTableRecord
  2
*D22
340
0
  0
BLOCK_RECORD
  5
2547
330
1
100
AcDbSymbolTableRecord
100
AcDbBlockTableRecord
  2
*D24
340
0
  0
BLOCK_RECORD
  5
2554
330
1
100
AcDbSymbolTableRecord
100
AcDbBlockTableRecord
  2
*D25
340
0
  0
BLOCK_RECORD
  5
2641
330
1
100
AcDbSymbolTableRecord
100
AcDbBlockTableRecord
  2
*D27
340
0
  0
BLOCK_RECORD
  5
264E
330
1
100
AcDbSymbolTableRecord
100
AcDbBlockTableRecord
  2
*D28
340
0
  0
ENDTAB
  0
ENDSEC
  0
SECTION
  2
BLOCKS
  0
BLOCK
  5
3
330
2
100
AcDbEntity
  8
0
100
AcDbBlockBegin
  2
*MODEL_SPACE
 70
     0
 10
0.0
 20
0.0
 30
0.0
  3
*MODEL_SPACE
  1

  0
ENDBLK
  5
6
330
2
100
AcDbEntity
  8
0
100
AcDbBlockEnd
  0
BLOCK
  5
8
330
7
100
AcDbEntity
 67
     1
  8
0
100
AcDbBlockBegin
  2
*PAPER_SPACE
 70
     0
 10
0.0
 20
0.0
 30
0.0
  3
*PAPER_SPACE
  1

  0
ENDBLK
  5
9
330
7
100
AcDbEntity
 67
     1
  8
0
100
AcDbBlockEnd
  0
BLOCK
  5
10C
330
109
100
AcDbEntity
  8
0
100
AcDbBlockBegin
  2
_Dot
 70
     0
 10
0.0
 20
0.0
 30
0.0
  3
_Dot
  1

  0
LWPOLYLINE
  5
10A
330
109
100
AcDbEntity
  8
0
  6
ByBlock
 62
     0
100
AcDbPolyline
 90
        2
 70
     1
 43
0.5
 10
-0.25
 20
0.0
 42
1.0
 10
0.25
 20
0.0
 42
1.0
  0
LINE
  5
10B
330
109
100
AcDbEntity
  8
0
  6
ByBlock
 62
     0
370
    -2
100
AcDbLine
 10
-0.5
 20
0.0
 30
0.0
 11
-1.0
 21
0.0
 31
0.0
  0
ENDBLK
  5
10D
330
109
100
AcDbEntity
  8
0
100
AcDbBlockEnd
  0
BLOCK
  5
2016
330
200C
100
AcDbEntity
  8
0
100
AcDbBlockBegin
  2
*D8
 70
     1
 10
0.0
 20
0.0
 30
0.0
  3
*D8
  1

  0
LINE
  5
200D
330
200C
100
AcDbEntity
  8
SUNPOU
 62
    70
370
    -2
100
AcDbLine
 10
22.51437757324076
 20
144.7541953297892
 30
0.0
 11
22.51437757324076
 21
183.0787779421861
 31
0.0
  0
LINE
  5
200E
330
200C
100
AcDbEntity
  8
SUNPOU
 62
    70
370
    -2
100
AcDbLine
 10
131.5143775732407
 20
144.7541953297892
 30
0.0
 11
131.5143775732407
 21
183.0787779421861
 31
0.0
  0
LINE
  5
200F
330
200C
100
AcDbEntity
  8
SUNPOU
 62
    60
370
    -2
100
AcDbLine
 10
24.51437757324076
 20
183.0787779421861
 30
0.0
 11
129.5143775732407
 21
183.0787779421861
 31
0.0
  0
INSERT
  5
2010
330
200C
100
AcDbEntity
  8
SUNPOU
 62
    60
370
    -2
100
AcDbBlockReference
  2
_Dot
 10
22.51437757324076
 20
183.0787779421861
 30
0.0
 41
2.0
 42
2.0
 43
2.0
 50
180.0
  0
INSERT
  5
2011
330
200C
100
AcDbEntity
  8
SUNPOU
 62
    60
370
    -2
100
AcDbBlockReference
  2
_Dot
 10
131.5143775732407
 20
183.0787779421861
 30
0.0
 41
2.0
 42
2.0
 43
2.0
  0
MTEXT
  5
2012
330
200C
100
AcDbEntity
  8
SUNPOU
 62
    60
100
AcDbMText
 10
77.01437757324075
 20
188.5787779421861
 30
0.0
 40
5.0
 41
0.0
 71
     5
 72
     1
  1
\A1;109
  7
SUNPOU
 73
     1
 44
1.0
1001
ACAD
1000
MTEXTBEGIN
1070
    73
1070
     1
1070
    44
1040
1.0
1070
    74
1070
     0
1000
MTEXTEND
  0
POINT
  5
2013
330
200C
100
AcDbEntity
  8
DEFPOINTS
 62
     0
100
AcDbPoint
 10
22.51437757324076
 20
134.7541953297892
 30
0.0
  0
POINT
  5
2014
330
200C
100
AcDbEntity
  8
DEFPOINTS
 62
     0
100
AcDbPoint
 10
131.5143775732407
 20
134.7541953297892
 30
0.0
  0
POINT
  5
2015
330
200C
100
AcDbEntity
  8
DEFPOINTS
 62
     0
100
AcDbPoint
 10
131.5143775732407
 20
183.0787779421861
 30
0.0
  0
ENDBLK
  5
2017
330
200C
100
AcDbEntity
  8
0
100
AcDbBlockEnd
  0
BLOCK
  5
2023
330
2019
100
AcDbEntity
  8
0
100
AcDbBlockBegin
  2
*D9
 70
     1
 10
0.0
 20
0.0
 30
0.0
  3
*D9
  1

  0
LINE
  5
201A
330
2019
100
AcDbEntity
  8
SUNPOU
 62
    70
370
    -2
100
AcDbLine
 10
67.01437757324367
 20
166.9747915768655
 30
0.0
 11
-1.227023507856392
 21
166.9747915768656
 31
0.0
  0
LINE
  5
201B
330
2019
100
AcDbEntity
  8
SUNPOU
 62
    70
370
    -2
100
AcDbLine
 10
67.01437757324156
 20
34.97479157686509
 30
0.0
 11
-1.227023507856422
 21
34.97479157686511
 31
0.0
  0
LINE
  5
201C
330
2019
100
AcDbEntity
  8
SUNPOU
 62
    60
370
    -2
100
AcDbLine
 10
-1.227023507856399
 20
164.9747915768656
 30
0.0
 11
-1.227023507856428
 21
36.97479157686511
 31
0.0
  0
INSERT
  5
201D
330
2019
100
AcDbEntity
  8
SUNPOU
 62
    60
370
    -2
100
AcDbBlockReference
  2
_Dot
 10
-1.227023507856399
 20
166.9747915768656
 30
0.0
 41
2.0
 42
2.0
 43
2.0
 50
90.0
  0
INSERT
  5
201E
330
2019
100
AcDbEntity
  8
SUNPOU
 62
    60
370
    -2
100
AcDbBlockReference
  2
_Dot
 10
-1.227023507856428
 20
34.97479157686511
 30
0.0
 41
2.0
 42
2.0
 43
2.0
 50
270.0
  0
MTEXT
  5
201F
330
2019
100
AcDbEntity
  8
SUNPOU
 62
    60
100
AcDbMText
 10
-6.72702350785643
 20
100.9747915768653
 30
0.0
 40
5.0
 41
0.0
 71
     5
 72
     1
  1
\A1;132
  7
SUNPOU
 11
0.0000000000000001
 21
1.0
 31
0.0
 73
     1
 44
1.0
1001
ACAD
1000
MTEXTBEGIN
1070
    73
1070
     1
1070
    44
1040
1.0
1070
    74
1070
     0
1000
MTEXTEND
  0
POINT
  5
2020
330
2019
100
AcDbEntity
  8
DEFPOINTS
 62
     0
100
AcDbPoint
 10
77.01437757324367
 20
166.9747915768655
 30
0.0
  0
POINT
  5
2021
330
2019
100
AcDbEntity
  8
DEFPOINTS
 62
     0
100
AcDbPoint
 10
77.01437757324156
 20
34.97479157686509
 30
0.0
  0
POINT
  5
2022
330
2019
100
AcDbEntity
  8
DEFPOINTS
 62
     0
100
AcDbPoint
 10
-1.227023507856428
 20
34.97479157686511
 30
0.0
  0
ENDBLK
  5
2024
330
2019
100
AcDbEntity
  8
0
100
AcDbBlockEnd
  0
BLOCK
  5
211D
330
2113
100
AcDbEntity
  8
0
100
AcDbBlockBegin
  2
*D12
 70
     1
 10
0.0
 20
0.0
 30
0.0
  3
*D12
  1

  0
LINE
  5
2114
330
2113
100
AcDbEntity
  8
SUNPOU
 62
    70
370
    -2
100
AcDbLine
 10
2.779070082985527
 20
120.8652279046092
 30
0.0
 11
2.779070082985528
 21
141.7579726964636
 31
0.0
  0
LINE
  5
2115
330
2113
100
AcDbEntity
  8
SUNPOU
 62
    70
370
    -2
100
AcDbLine
 10
144.7790700829855
 20
120.8652279046092
 30
0.0
 11
144.7790700829855
 21
141.7579726964636
 31
0.0
  0
LINE
  5
2116
330
2113
100
AcDbEntity
  8
SUNPOU
 62
    60
370
    -2
100
AcDbLine
 10
4.779070082985528
 20
141.7579726964636
 30
0.0
 11
142.7790700829855
 21
141.7579726964636
 31
0.0
  0
INSERT
  5
2117
330
2113
100
AcDbEntity
  8
SUNPOU
 62
    60
370
    -2
100
AcDbBlockReference
  2
_Dot
 10
2.779070082985528
 20
141.7579726964636
 30
0.0
 41
2.0
 42
2.0
 43
2.0
 50
180.0
  0
INSERT
  5
2118
330
2113
100
AcDbEntity
  8
SUNPOU
 62
    60
370
    -2
100
AcDbBlockReference
  2
_Dot
 10
144.7790700829855
 20
141.7579726964636
 30
0.0
 41
2.0
 42
2.0
 43
2.0
  0
MTEXT
  5
2119
330
2113
100
AcDbEntity
  8
SUNPOU
 62
    60
100
AcDbMText
 10
73.77907008298554
 20
147.2579726964636
 30
0.0
 40
5.0
 41
0.0
 71
     5
 72
     1
  1
\A1;142
  7
SUNPOU
 73
     1
 44
1.0
1001
ACAD
1000
MTEXTBEGIN
1070
    73
1070
     1
1070
    44
1040
1.0
1070
    74
1070
     0
1000
MTEXTEND
  0
POINT
  5
211A
330
2113
100
AcDbEntity
  8
DEFPOINTS
 62
     0
100
AcDbPoint
 10
2.779070082985526
 20
110.8652279046092
 30
0.0
  0
POINT
  5
211B
330
2113
100
AcDbEntity
  8
DEFPOINTS
 62
     0
100
AcDbPoint
 10
144.7790700829855
 20
110.8652279046092
 30
0.0
  0
POINT
  5
211C
330
2113
100
AcDbEntity
  8
DEFPOINTS
 62
     0
100
AcDbPoint
 10
144.7790700829855
 20
141.7579726964636
 30
0.0
  0
ENDBLK
  5
211E
330
2113
100
AcDbEntity
  8
0
100
AcDbBlockEnd
  0
BLOCK
  5
212A
330
2120
100
AcDbEntity
  8
0
100
AcDbBlockBegin
  2
*D13
 70
     1
 10
0.0
 20
0.0
 30
0.0
  3
*D13
  1

  0
LINE
  5
2121
330
2120
100
AcDbEntity
  8
SUNPOU
 62
    70
370
    -2
100
AcDbLine
 10
0.5022286815299496
 20
120.5525004428493
 30
0.0
 11
-16.88829499430675
 21
120.5525004428493
 31
0.0
  0
LINE
  5
2122
330
2120
100
AcDbEntity
  8
SUNPOU
 62
    70
370
    -2
100
AcDbLine
 10
63.77907008298552
 20
40.55250044284929
 30
0.0
 11
-16.88829499430676
 21
40.55250044284932
 31
0.0
  0
LINE
  5
2123
330
2120
100
AcDbEntity
  8
SUNPOU
 62
    60
370
    -2
100
AcDbLine
 10
-16.88829499430675
 20
118.5525004428493
 30
0.0
 11
-16.88829499430677
 21
42.55250044284932
 31
0.0
  0
INSERT
  5
2124
330
2120
100
AcDbEntity
  8
SUNPOU
 62
    60
370
    -2
100
AcDbBlockReference
  2
_Dot
 10
-16.88829499430675
 20
120.5525004428493
 30
0.0
 41
2.0
 42
2.0
 43
2.0
 50
90.0
  0
INSERT
  5
2125
330
2120
100
AcDbEntity
  8
SUNPOU
 62
    60
370
    -2
100
AcDbBlockReference
  2
_Dot
 10
-16.88829499430677
 20
40.55250044284932
 30
0.0
 41
2.0
 42
2.0
 43
2.0
 50
270.0
  0
MTEXT
  5
2126
330
2120
100
AcDbEntity
  8
SUNPOU
 62
    60
100
AcDbMText
 10
-22.38829499430678
 20
80.5525004428493
 30
0.0
 40
5.0
 41
0.0
 71
     5
 72
     1
  1
\A1;80
  7
SUNPOU
 11
0.0000000000000001
 21
1.0
 31
0.0
 73
     1
 44
1.0
1001
ACAD
1000
MTEXTBEGIN
1070
    73
1070
     1
1070
    44
1040
1.0
1070
    74
1070
     0
1000
MTEXTEND
  0
POINT
  5
2127
330
2120
100
AcDbEntity
  8
DEFPOINTS
 62
     0
100
AcDbPoint
 10
10.50222868152995
 20
120.5525004428493
 30
0.0
  0
POINT
  5
2128
330
2120
100
AcDbEntity
  8
DEFPOINTS
 62
     0
100
AcDbPoint
 10
73.77907008298553
 20
40.55250044284929
 30
0.0
  0
POINT
  5
2129
330
2120
100
AcDbEntity
  8
DEFPOINTS
 62
     0
100
AcDbPoint
 10
-16.88829499430677
 20
40.55250044284932
 30
0.0
  0
ENDBLK
  5
212B
330
2120
100
AcDbEntity
  8
0
100
AcDbBlockEnd
  0
BLOCK
  5
226C
330
2262
100
AcDbEntity
  8
0
100
AcDbBlockBegin
  2
*D15
 70
     1
 10
0.0
 20
0.0
 30
0.0
  3
*D15
  1

  0
LINE
  5
22B6
330
2262
100
AcDbEntity
  8
SUNPOU
 62
    70
370
    -2
100
AcDbLine
 10
-12.35953431951998
 20
79.89014174287508
 30
0.0
 11
-12.35953431951998
 21
107.0807606510202
 31
0.0
  0
LINE
  5
22B7
330
2262
100
AcDbEntity
  8
SUNPOU
 62
    70
370
    -2
100
AcDbLine
 10
172.64046568048
 20
79.89014174287508
 30
0.0
 11
172.64046568048
 21
107.0807606510202
 31
0.0
  0
LINE
  5
22B8
330
2262
100
AcDbEntity
  8
SUNPOU
 62
    60
370
    -2
100
AcDbLine
 10
-10.35953431951998
 20
107.0807606510202
 30
0.0
 11
170.64046568048
 21
107.0807606510202
 31
0.0
  0
INSERT
  5
22B9
330
2262
100
AcDbEntity
  8
SUNPOU
 62
    60
370
    -2
100
AcDbBlockReference
  2
_Dot
 10
-12.35953431951998
 20
107.0807606510202
 30
0.0
 41
2.0
 42
2.0
 43
2.0
 50
180.0
  0
INSERT
  5
22BA
330
2262
100
AcDbEntity
  8
SUNPOU
 62
    60
370
    -2
100
AcDbBlockReference
  2
_Dot
 10
172.64046568048
 20
107.0807606510202
 30
0.0
 41
2.0
 42
2.0
 43
2.0
  0
MTEXT
  5
22BB
330
2262
100
AcDbEntity
  8
SUNPOU
 62
    60
100
AcDbMText
 10
80.14046568048001
 20
112.5807606510202
 30
0.0
 40
5.0
 41
0.0
 71
     5
 72
     1
  1
\A1;185
  7
SUNPOU
 73
     1
 44
1.0
1001
ACAD
1000
MTEXTBEGIN
1070
    73
1070
     1
1070
    44
1040
1.0
1070
    74
1070
     0
1000
MTEXTEND
  0
POINT
  5
22BC
330
2262
100
AcDbEntity
  8
DEFPOINTS
 62
     0
100
AcDbPoint
 10
-12.35953431951998
 20
69.89014174287508
 30
0.0
  0
POINT
  5
22BD
330
2262
100
AcDbEntity
  8
DEFPOINTS
 62
     0
100
AcDbPoint
 10
172.64046568048
 20
69.89014174287508
 30
0.0
  0
POINT
  5
22BE
330
2262
100
AcDbEntity
  8
DEFPOINTS
 62
     0
100
AcDbPoint
 10
172.64046568048
 20
107.0807606510202
 30
0.0
  0
ENDBLK
  5
226D
330
2262
100
AcDbEntity
  8
0
100
AcDbBlockEnd
  0
BLOCK
  5
2279
330
226F
100
AcDbEntity
  8
0
100
AcDbBlockBegin
  2
*D16
 70
     1
 10
0.0
 20
0.0
 30
0.0
  3
*D16
  1

  0
LINE
  5
2291
330
226F
100
AcDbEntity
  8
SUNPOU
 62
    70
370
    -2
100
AcDbLine
 10
46.56116634836663
 20
82.23301491498432
 30
0.0
 11
-28.38907316638914
 21
82.23301491498434
 31
0.0
  0
LINE
  5
2292
330
226F
100
AcDbEntity
  8
SUNPOU
 62
    70
370
    -2
100
AcDbLine
 10
70.13931669693898
 20
38.23332696735998
 30
0.0
 11
-28.38907316638916
 21
38.23332696736001
 31
0.0
  0
LINE
  5
2293
330
226F
100
AcDbEntity
  8
SUNPOU
 62
    60
370
    -2
100
AcDbLine
 10
-28.38907316638915
 20
80.23301491498434
 30
0.0
 11
-28.38907316638916
 21
40.23332696736001
 31
0.0
  0
LINE
  5
2294
330
226F
100
AcDbEntity
  8
SUNPOU
 62
    60
370
    -2
100
AcDbLine
 10
-28.38907316638916
 20
38.23332696736001
 30
0.0
 11
-28.38907316638917
 21
-9.766673032639999
 31
0.0
  0
INSERT
  5
2295
330
226F
100
AcDbEntity
  8
SUNPOU
 62
    60
370
    -2
100
AcDbBlockReference
  2
_Dot
 10
-28.38907316638915
 20
82.23301491498434
 30
0.0
 41
2.0
 42
2.0
 43
2.0
 50
90.0
  0
INSERT
  5
2296
330
226F
100
AcDbEntity
  8
SUNPOU
 62
    60
370
    -2
100
AcDbBlockReference
  2
_Dot
 10
-28.38907316638916
 20
38.23332696736001
 30
0.0
 41
2.0
 42
2.0
 43
2.0
 50
270.0
  0
MTEXT
  5
2297
330
226F
100
AcDbEntity
  8
SUNPOU
 62
    60
100
AcDbMText
 10
-33.88907316638917
 20
13.23332696736
 30
0.0
 40
5.0
 41
0.0
 71
     5
 72
     1
  1
\A1;43.999688
  7
SUNPOU
 11
0.0000000000000001
 21
1.0
 31
0.0
 73
     1
 44
1.0
1001
ACAD
1000
MTEXTBEGIN
1070
    73
1070
     1
1070
    44
1040
1.0
1070
    74
1070
     0
1000
MTEXTEND
  0
POINT
  5
2298
330
226F
100
AcDbEntity
  8
DEFPOINTS
 62
     0
100
AcDbPoint
 10
56.56116634836663
 20
82.23301491498432
 30
0.0
  0
POINT
  5
2299
330
226F
100
AcDbEntity
  8
DEFPOINTS
 62
     0
100
AcDbPoint
 10
80.13931669693898
 20
38.23332696735997
 30
0.0
  0
POINT
  5
229A
330
226F
100
AcDbEntity
  8
DEFPOINTS
 62
     0
100
AcDbPoint
 10
-28.38907316638916
 20
38.23332696736001
 30
0.0
  0
ENDBLK
  5
227A
330
226F
100
AcDbEntity
  8
0
100
AcDbBlockEnd
  0
BLOCK
  5
22AB
330
22A1
100
AcDbEntity
  8
0
100
AcDbBlockBegin
  2
*D17
 70
     1
 10
0.0
 20
0.0
 30
0.0
  3
*D17
  1

  0
LINE
  5
22D2
330
22A1
100
AcDbEntity
  8
SUNPOU
 62
    70
370
    -2
100
AcDbLine
 10
-22.35953431951997
 20
82.23301491498434
 30
0.0
 11
-26.76614305780549
 21
82.23301491498434
 31
0.0
  0
LINE
  5
22D3
330
22A1
100
AcDbEntity
  8
SUNPOU
 62
    70
370
    -2
100
AcDbLine
 10
-21.46122218202436
 20
38.23301491498433
 30
0.0
 11
-26.7661430578055
 21
38.23301491498433
 31
0.0
  0
LINE
  5
22D4
330
22A1
100
AcDbEntity
  8
SUNPOU
 62
    60
370
    -2
100
AcDbLine
 10
-26.76614305780549
 20
80.23301491498434
 30
0.0
 11
-26.7661430578055
 21
40.23301491498433
 31
0.0
  0
INSERT
  5
22D5
330
22A1
100
AcDbEntity
  8
SUNPOU
 62
    60
370
    -2
100
AcDbBlockReference
  2
_Dot
 10
-26.76614305780549
 20
82.23301491498434
 30
0.0
 41
2.0
 42
2.0
 43
2.0
 50
90.0
  0
INSERT
  5
22D6
330
22A1
100
AcDbEntity
  8
SUNPOU
 62
    60
370
    -2
100
AcDbBlockReference
  2
_Dot
 10
-26.7661430578055
 20
38.23301491498433
 30
0.0
 41
2.0
 42
2.0
 43
2.0
 50
270.0
  0
MTEXT
  5
22D7
330
22A1
100
AcDbEntity
  8
SUNPOU
 62
    60
100
AcDbMText
 10
-32.2661430578055
 20
60.23301491498433
 30
0.0
 40
5.0
 41
0.0
 71
     5
 72
     1
  1
\A1;44
  7
SUNPOU
 11
0.0000000000000001
 21
1.0
 31
0.0
 73
     1
 44
1.0
1001
ACAD
1000
MTEXTBEGIN
1070
    73
1070
     1
1070
    44
1040
1.0
1070
    74
1070
     0
1000
MTEXTEND
  0
POINT
  5
22D8
330
22A1
100
AcDbEntity
  8
DEFPOINTS
 62
     0
100
AcDbPoint
 10
-12.35953431951996
 20
82.23301491498434
 30
0.0
  0
POINT
  5
22D9
330
22A1
100
AcDbEntity
  8
DEFPOINTS
 62
     0
100
AcDbPoint
 10
-11.46122218202435
 20
38.23301491498432
 30
0.0
  0
POINT
  5
22DA
330
22A1
100
AcDbEntity
  8
DEFPOINTS
 62
     0
100
AcDbPoint
 10
-26.7661430578055
 20
38.23301491498433
 30
0.0
  0
ENDBLK
  5
22AC
330
22A1
100
AcDbEntity
  8
0
100
AcDbBlockEnd
  0
BLOCK
  5
240F
330
2405
100
AcDbEntity
  8
0
100
AcDbBlockBegin
  2
*D19
 70
     1
 10
0.0
 20
0.0
 30
0.0
  3
*D19
  1

  0
LINE
  5
241B
330
2405
100
AcDbEntity
  8
SUNPOU
 62
    70
370
    -2
100
AcDbLine
 10
39.50517483125035
 20
76.0468950891833
 30
0.0
 11
39.50517483125035
 21
106.9328283315822
 31
0.0
  0
LINE
  5
241C
330
2405
100
AcDbEntity
  8
SUNPOU
 62
    70
370
    -2
100
AcDbLine
 10
94.50517483125073
 20
76.0468950891833
 30
0.0
 11
94.50517483125073
 21
106.9328283315822
 31
0.0
  0
LINE
  5
241D
330
2405
100
AcDbEntity
  8
SUNPOU
 62
    60
370
    -2
100
AcDbLine
 10
41.50517483125034
 20
106.9328283315822
 30
0.0
 11
92.50517483125074
 21
106.9328283315822
 31
0.0
  0
INSERT
  5
241E
330
2405
100
AcDbEntity
  8
SUNPOU
 62
    60
370
    -2
100
AcDbBlockReference
  2
_Dot
 10
39.50517483125035
 20
106.9328283315822
 30
0.0
 41
2.0
 42
2.0
 43
2.0
 50
180.0
  0
INSERT
  5
241F
330
2405
100
AcDbEntity
  8
SUNPOU
 62
    60
370
    -2
100
AcDbBlockReference
  2
_Dot
 10
94.50517483125073
 20
106.9328283315822
 30
0.0
 41
2.0
 42
2.0
 43
2.0
  0
MTEXT
  5
2420
330
2405
100
AcDbEntity
  8
SUNPOU
 62
    60
100
AcDbMText
 10
67.00517483125054
 20
112.4328283315822
 30
0.0
 40
5.0
 41
0.0
 71
     5
 72
     1
  1
\A1;55φ
  7
SUNPOU
 73
     1
 44
1.0
1001
ACAD
1000
MTEXTBEGIN
1070
    73
1070
     1
1070
    44
1040
1.0
1070
    74
1070
     0
1000
MTEXTEND
  0
POINT
  5
2421
330
2405
100
AcDbEntity
  8
DEFPOINTS
 62
     0
100
AcDbPoint
 10
39.50517483125035
 20
66.0468950891833
 30
0.0
  0
POINT
  5
2422
330
2405
100
AcDbEntity
  8
DEFPOINTS
 62
     0
100
AcDbPoint
 10
94.50517483125073
 20
66.0468950891833
 30
0.0
  0
POINT
  5
2423
330
2405
100
AcDbEntity
  8
DEFPOINTS
 62
     0
100
AcDbPoint
 10
94.50517483125073
 20
106.9328283315822
 30
0.0
  0
ENDBLK
  5
2410
330
2405
100
AcDbEntity
  8
0
100
AcDbBlockEnd
  0
BLOCK
  5
248B
330
2481
100
AcDbEntity
  8
0
100
AcDbBlockBegin
  2
*D21
 70
     1
 10
0.0
 20
0.0
 30
0.0
  3
*D21
  1

  0
LINE
  5
24F2
330
2481
100
AcDbEntity
  8
SUNPOU
 62
    70
370
    -2
100
AcDbLine
 10
19.82905292859301
 20
111.7454582953507
 30
0.0
 11
19.82905292859301
 21
127.866146503015
 31
0.0
  0
LINE
  5
24F3
330
2481
100
AcDbEntity
  8
SUNPOU
 62
    70
370
    -2
100
AcDbLine
 10
131.829052928593
 20
112.5255168160438
 30
0.0
 11
131.829052928593
 21
127.866146503015
 31
0.0
  0
LINE
  5
24F4
330
2481
100
AcDbEntity
  8
SUNPOU
 62
    60
370
    -2
100
AcDbLine
 10
21.82905292859301
 20
127.866146503015
 30
0.0
 11
129.829052928593
 21
127.866146503015
 31
0.0
  0
INSERT
  5
24F5
330
2481
100
AcDbEntity
  8
SUNPOU
 62
    60
370
    -2
100
AcDbBlockReference
  2
_Dot
 10
19.82905292859301
 20
127.866146503015
 30
0.0
 41
2.0
 42
2.0
 43
2.0
 50
180.0
  0
INSERT
  5
24F6
330
2481
100
AcDbEntity
  8
SUNPOU
 62
    60
370
    -2
100
AcDbBlockReference
  2
_Dot
 10
131.829052928593
 20
127.866146503015
 30
0.0
 41
2.0
 42
2.0
 43
2.0
  0
MTEXT
  5
24F7
330
2481
100
AcDbEntity
  8
SUNPOU
 62
    60
100
AcDbMText
 10
75.829052928593
 20
133.366146503015
 30
0.0
 40
5.0
 41
0.0
 71
     5
 72
     1
  1
\A1;112
  7
SUNPOU
 73
     1
 44
1.0
1001
ACAD
1000
MTEXTBEGIN
1070
    73
1070
     1
1070
    44
1040
1.0
1070
    74
1070
     0
1000
MTEXTEND
  0
POINT
  5
24F8
330
2481
100
AcDbEntity
  8
DEFPOINTS
 62
     0
100
AcDbPoint
 10
19.82905292859301
 20
101.7454582953507
 30
0.0
  0
POINT
  5
24F9
330
2481
100
AcDbEntity
  8
DEFPOINTS
 62
     0
100
AcDbPoint
 10
131.829052928593
 20
102.5255168160438
 30
0.0
  0
POINT
  5
24FA
330
2481
100
AcDbEntity
  8
DEFPOINTS
 62
     0
100
AcDbPoint
 10
131.829052928593
 20
127.866146503015
 30
0.0
  0
ENDBLK
  5
248C
330
2481
100
AcDbEntity
  8
0
100
AcDbBlockEnd
  0
BLOCK
  5
2498
330
248E
100
AcDbEntity
  8
0
100
AcDbBlockBegin
  2
*D22
 70
     1
 10
0.0
 20
0.0
 30
0.0
  3
*D22
  1

  0
LINE
  5
24E0
330
248E
100
AcDbEntity
  8
SUNPOU
 62
    70
370
    -2
100
AcDbLine
 10
9.829052928593009
 20
101.7454582953507
 30
0.0
 11
-5.594365603138149
 21
101.7454582953507
 31
0.0
  0
LINE
  5
24E1
330
248E
100
AcDbEntity
  8
SUNPOU
 62
    70
370
    -2
100
AcDbLine
 10
11.34221913818464
 20
40.74545829535106
 30
0.0
 11
-5.594365603138163
 21
40.74545829535106
 31
0.0
  0
LINE
  5
24E2
330
248E
100
AcDbEntity
  8
SUNPOU
 62
    60
370
    -2
100
AcDbLine
 10
-5.594365603138149
 20
99.74545829535074
 30
0.0
 11
-5.594365603138161
 21
42.74545829535106
 31
0.0
  0
INSERT
  5
24E3
330
248E
100
AcDbEntity
  8
SUNPOU
 62
    60
370
    -2
100
AcDbBlockReference
  2
_Dot
 10
-5.594365603138149
 20
101.7454582953507
 30
0.0
 41
2.0
 42
2.0
 43
2.0
 50
90.0
  0
INSERT
  5
24E4
330
248E
100
AcDbEntity
  8
SUNPOU
 62
    60
370
    -2
100
AcDbBlockReference
  2
_Dot
 10
-5.594365603138162
 20
40.74545829535106
 30
0.0
 41
2.0
 42
2.0
 43
2.0
 50
270.0
  0
MTEXT
  5
24E5
330
248E
100
AcDbEntity
  8
SUNPOU
 62
    60
100
AcDbMText
 10
-11.09436560313817
 20
71.2454582953509
 30
0.0
 40
5.0
 41
0.0
 71
     5
 72
     1
  1
\A1;61
  7
SUNPOU
 11
0.0000000000000001
 21
1.0
 31
0.0
 73
     1
 44
1.0
1001
ACAD
1000
MTEXTBEGIN
1070
    73
1070
     1
1070
    44
1040
1.0
1070
    74
1070
     0
1000
MTEXTEND
  0
POINT
  5
24E6
330
248E
100
AcDbEntity
  8
DEFPOINTS
 62
     0
100
AcDbPoint
 10
19.82905292859301
 20
101.7454582953507
 30
0.0
  0
POINT
  5
24E7
330
248E
100
AcDbEntity
  8
DEFPOINTS
 62
     0
100
AcDbPoint
 10
21.34221913818465
 20
40.74545829535106
 30
0.0
  0
POINT
  5
24E8
330
248E
100
AcDbEntity
  8
DEFPOINTS
 62
     0
100
AcDbPoint
 10
-5.594365603138162
 20
40.74545829535106
 30
0.0
  0
ENDBLK
  5
2499
330
248E
100
AcDbEntity
  8
0
100
AcDbBlockEnd
  0
BLOCK
  5
2551
330
2547
100
AcDbEntity
  8
0
100
AcDbBlockBegin
  2
*D24
 70
     1
 10
0.0
 20
0.0
 30
0.0
  3
*D24
  1

  0
LINE
  5
2598
330
2547
100
AcDbEntity
  8
SUNPOU
 62
    70
370
    -2
100
AcDbLine
 10
39.94088828399156
 20
87.0618894106235
 30
0.0
 11
39.94088828399156
 21
95.11146426004826
 31
0.0
  0
LINE
  5
2599
330
2547
100
AcDbEntity
  8
SUNPOU
 62
    70
370
    -2
100
AcDbLine
 10
105.9408882839917
 20
85.91537440275079
 30
0.0
 11
105.9408882839917
 21
95.11146426004826
 31
0.0
  0
LINE
  5
259A
330
2547
100
AcDbEntity
  8
SUNPOU
 62
    60
370
    -2
100
AcDbLine
 10
41.94088828399156
 20
95.11146426004826
 30
0.0
 11
103.9408882839917
 21
95.11146426004826
 31
0.0
  0
INSERT
  5
259B
330
2547
100
AcDbEntity
  8
SUNPOU
 62
    60
370
    -2
100
AcDbBlockReference
  2
_Dot
 10
39.94088828399156
 20
95.11146426004826
 30
0.0
 41
2.0
 42
2.0
 43
2.0
 50
180.0
  0
INSERT
  5
259C
330
2547
100
AcDbEntity
  8
SUNPOU
 62
    60
370
    -2
100
AcDbBlockReference
  2
_Dot
 10
105.9408882839917
 20
95.11146426004826
 30
0.0
 41
2.0
 42
2.0
 43
2.0
  0
MTEXT
  5
259D
330
2547
100
AcDbEntity
  8
SUNPOU
 62
    60
100
AcDbMText
 10
72.94088828399162
 20
100.6114642600482
 30
0.0
 40
5.0
 41
0.0
 71
     5
 72
     1
  1
\A1;66
  7
SUNPOU
 73
     1
 44
1.0
1001
ACAD
1000
MTEXTBEGIN
1070
    73
1070
     1
1070
    44
1040
1.0
1070
    74
1070
     0
1000
MTEXTEND
  0
POINT
  5
259E
330
2547
100
AcDbEntity
  8
DEFPOINTS
 62
     0
100
AcDbPoint
 10
39.94088828399156
 20
77.0618894106235
 30
0.0
  0
POINT
  5
259F
330
2547
100
AcDbEntity
  8
DEFPOINTS
 62
     0
100
AcDbPoint
 10
105.9408882839917
 20
75.91537440275079
 30
0.0
  0
POINT
  5
25A0
330
2547
100
AcDbEntity
  8
DEFPOINTS
 62
     0
100
AcDbPoint
 10
105.9408882839917
 20
95.11146426004826
 30
0.0
  0
ENDBLK
  5
2552
330
2547
100
AcDbEntity
  8
0
100
AcDbBlockEnd
  0
BLOCK
  5
255E
330
2554
100
AcDbEntity
  8
0
100
AcDbBlockBegin
  2
*D25
 70
     1
 10
0.0
 20
0.0
 30
0.0
  3
*D25
  1

  0
LINE
  5
257D
330
2554
100
AcDbEntity
  8
SUNPOU
 62
    70
370
    -2
100
AcDbLine
 10
29.94088828399157
 20
77.06188941062352
 30
0.0
 11
18.07803167101293
 21
77.06188941062352
 31
0.0
  0
LINE
  5
257E
330
2554
100
AcDbEntity
  8
SUNPOU
 62
    70
370
    -2
100
AcDbLine
 10
30.07257253407443
 20
40.06188941062351
 30
0.0
 11
18.07803167101292
 21
40.06188941062351
 31
0.0
  0
LINE
  5
257F
330
2554
100
AcDbEntity
  8
SUNPOU
 62
    60
370
    -2
100
AcDbLine
 10
18.07803167101293
 20
75.06188941062352
 30
0.0
 11
18.07803167101292
 21
42.06188941062351
 31
0.0
  0
INSERT
  5
2580
330
2554
100
AcDbEntity
  8
SUNPOU
 62
    60
370
    -2
100
AcDbBlockReference
  2
_Dot
 10
18.07803167101293
 20
77.06188941062352
 30
0.0
 41
2.0
 42
2.0
 43
2.0
 50
90.0
  0
INSERT
  5
2581
330
2554
100
AcDbEntity
  8
SUNPOU
 62
    60
370
    -2
100
AcDbBlockReference
  2
_Dot
 10
18.07803167101292
 20
40.06188941062351
 30
0.0
 41
2.0
 42
2.0
 43
2.0
 50
270.0
  0
MTEXT
  5
2582
330
2554
100
AcDbEntity
  8
SUNPOU
 62
    60
100
AcDbMText
 10
12.57803167101291
 20
58.56188941062352
 30
0.0
 40
5.0
 41
0.0
 71
     5
 72
     1
  1
\A1;37
  7
SUNPOU
 11
0.0000000000000001
 21
1.0
 31
0.0
 73
     1
 44
1.0
1001
ACAD
1000
MTEXTBEGIN
1070
    73
1070
     1
1070
    44
1040
1.0
1070
    74
1070
     0
1000
MTEXTEND
  0
POINT
  5
2583
330
2554
100
AcDbEntity
  8
DEFPOINTS
 62
     0
100
AcDbPoint
 10
39.94088828399156
 20
77.0618894106235
 30
0.0
  0
POINT
  5
2584
330
2554
100
AcDbEntity
  8
DEFPOINTS
 62
     0
100
AcDbPoint
 10
40.07257253407442
 20
40.06188941062351
 30
0.0
  0
POINT
  5
2585
330
2554
100
AcDbEntity
  8
DEFPOINTS
 62
     0
100
AcDbPoint
 10
18.07803167101292
 20
40.06188941062351
 30
0.0
  0
ENDBLK
  5
255F
330
2554
100
AcDbEntity
  8
0
100
AcDbBlockEnd
  0
BLOCK
  5
264B
330
2641
100
AcDbEntity
  8
0
100
AcDbBlockBegin
  2
*D27
 70
     1
 10
0.0
 20
0.0
 30
0.0
  3
*D27
  1

  0
LINE
  5
2642
330
2641
100
AcDbEntity
  8
SUNPOU
 62
    70
370
    -2
100
AcDbLine
 10
30.85073960643172
 20
71.2961262219286
 30
0.0
 11
30.85073960643173
 21
99.78732845190188
 31
0.0
  0
LINE
  5
2643
330
2641
100
AcDbEntity
  8
SUNPOU
 62
    70
370
    -2
100
AcDbLine
 10
122.8507396064317
 20
71.29612622192903
 30
0.0
 11
122.8507396064317
 21
99.78732845190188
 31
0.0
  0
LINE
  5
2644
330
2641
100
AcDbEntity
  8
SUNPOU
 62
    60
370
    -2
100
AcDbLine
 10
32.85073960643173
 20
99.78732845190188
 30
0.0
 11
120.8507396064317
 21
99.78732845190188
 31
0.0
  0
INSERT
  5
2645
330
2641
100
AcDbEntity
  8
SUNPOU
 62
    60
370
    -2
100
AcDbBlockReference
  2
_Dot
 10
30.85073960643173
 20
99.78732845190188
 30
0.0
 41
2.0
 42
2.0
 43
2.0
 50
180.0
  0
INSERT
  5
2646
330
2641
100
AcDbEntity
  8
SUNPOU
 62
    60
370
    -2
100
AcDbBlockReference
  2
_Dot
 10
122.8507396064317
 20
99.78732845190188
 30
0.0
 41
2.0
 42
2.0
 43
2.0
  0
MTEXT
  5
2647
330
2641
100
AcDbEntity
  8
SUNPOU
 62
    60
100
AcDbMText
 10
76.85073960643172
 20
105.2873284519019
 30
0.0
 40
5.0
 41
0.0
 71
     5
 72
     1
  1
\A1;92
  7
SUNPOU
 73
     1
 44
1.0
1001
ACAD
1000
MTEXTBEGIN
1070
    73
1070
     1
1070
    44
1040
1.0
1070
    74
1070
     0
1000
MTEXTEND
  0
POINT
  5
2648
330
2641
100
AcDbEntity
  8
DEFPOINTS
 62
     0
100
AcDbPoint
 10
30.85073960643172
 20
61.29612622192859
 30
0.0
  0
POINT
  5
2649
330
2641
100
AcDbEntity
  8
DEFPOINTS
 62
     0
100
AcDbPoint
 10
122.8507396064317
 20
61.29612622192904
 30
0.0
  0
POINT
  5
264A
330
2641
100
AcDbEntity
  8
DEFPOINTS
 62
     0
100
AcDbPoint
 10
122.8507396064317
 20
99.78732845190188
 30
0.0
  0
ENDBLK
  5
264C
330
2641
100
AcDbEntity
  8
0
100
AcDbBlockEnd
  0
BLOCK
  5
2658
330
264E
100
AcDbEntity
  8
0
100
AcDbBlockBegin
  2
*D28
 70
     1
 10
0.0
 20
0.0
 30
0.0
  3
*D28
  1

  0
LINE
  5
264F
330
264E
100
AcDbEntity
  8
SUNPOU
 62
    70
370
    -2
100
AcDbLine
 10
27.98682558868752
 20
81.29612622192885
 30
0.0
 11
10.16993788546052
 21
81.29612622192885
 31
0.0
  0
LINE
  5
2650
330
264E
100
AcDbEntity
  8
SUNPOU
 62
    70
370
    -2
100
AcDbLine
 10
27.98682558868753
 20
41.29612622192882
 30
0.0
 11
10.16993788546051
 21
41.29612622192883
 31
0.0
  0
LINE
  5
2651
330
264E
100
AcDbEntity
  8
SUNPOU
 62
    60
370
    -2
100
AcDbLine
 10
10.16993788546052
 20
79.29612622192884
 30
0.0
 11
10.16993788546051
 21
43.29612622192883
 31
0.0
  0
INSERT
  5
2652
330
264E
100
AcDbEntity
  8
SUNPOU
 62
    60
370
    -2
100
AcDbBlockReference
  2
_Dot
 10
10.16993788546052
 20
81.29612622192885
 30
0.0
 41
2.0
 42
2.0
 43
2.0
 50
90.0
  0
INSERT
  5
2653
330
264E
100
AcDbEntity
  8
SUNPOU
 62
    60
370
    -2
100
AcDbBlockReference
  2
_Dot
 10
10.16993788546051
 20
41.29612622192883
 30
0.0
 41
2.0
 42
2.0
 43
2.0
 50
270.0
  0
MTEXT
  5
2654
330
264E
100
AcDbEntity
  8
SUNPOU
 62
    60
100
AcDbMText
 10
4.669937885460507
 20
61.29612622192884
 30
0.0
 40
5.0
 41
0.0
 71
     5
 72
     1
  1
\A1;40
  7
SUNPOU
 11
0.0000000000000001
 21
1.0
 31
0.0
 73
     1
 44
1.0
1001
ACAD
1000
MTEXTBEGIN
1070
    73
1070
     1
1070
    44
1040
1.0
1070
    74
1070
     0
1000
MTEXTEND
  0
POINT
  5
2655
330
264E
100
AcDbEntity
  8
DEFPOINTS
 62
     0
100
AcDbPoint
 10
37.98682558868752
 20
81.29612622192883
 30
0.0
  0
POINT
  5
2656
330
264E
100
AcDbEntity
  8
DEFPOINTS
 62
     0
100
AcDbPoint
 10
37.98682558868752
 20
41.29612622192882
 30
0.0
  0
POINT
  5
2657
330
264E
100
AcDbEntity
  8
DEFPOINTS
 62
     0
100
AcDbPoint
 10
10.16993788546051
 20
41.29612622192883
 30
0.0
  0
ENDBLK
  5
2659
330
264E
100
AcDbEntity
  8
0
100
AcDbBlockEnd
  0
ENDSEC
  0
SECTION
  2
ENTITIES
  0
LINE
  5
1F
330
2
100
AcDbEntity
  8
WAKU
100
AcDbLine
 10
0.0
 20
14.0
 30
0.0
 11
148.6829221395387
 21
14.0
 31
0.0
  0
LINE
  5
20
330
2
100
AcDbEntity
  8
WAKU
100
AcDbLine
 10
0.0
 20
0.0
 30
0.0
 11
148.6829221395387
 21
0.0
 31
0.0
  0
TEXT
  5
21
330
2
100
AcDbEntity
  8
HOJO
100
AcDbText
 10
9.653966000000025
 20
2.366626000000024
 30
0.0
 40
9.0
  1
TWR235
  7
SUNPOU
100
AcDbText
  0
TEXT
  5
23
330
2
100
AcDbEntity
  8
HOJO
100
AcDbText
 10
85.84696046283864
 20
5.044386000000031
 30
0.0
 40
6.0
  1
92×40×5
  7
SUNPOU
100
AcDbText
  0
LINE
  5
25E1
102
{ACAD_REACTORS
330
265A
102
}
330
2
100
AcDbEntity
  8
KIJUN
100
AcDbLine
 10
56.50971027078776
 20
61.29612622192883
 30
0.0
 11
65.85073960643171
 21
61.29612622192883
 31
0.0
  0
ARC
  5
25E3
102
{ACAD_REACTORS
330
265A
102
}
330
2
100
AcDbEntity
  8
KIJUN
100
AcDbCircle
 10
71.49828059003835
 20
69.81251966455181
 30
0.0
 40
7.662816609986248
100
AcDbArc
 50
45.69340976950562
 51
176.3816122813422
  0
SPLINE
  5
25E5
102
{ACAD_REACTORS
330
265A
102
}
330
2
100
AcDbEntity
  8
KIJUN
100
AcDbSpline
210
0.0
220
0.0
230
1.0
 70
     8
 71
     3
 72
     9
 73
     5
 74
     3
 42
0.0000000001
 43
0.0000000001
 44
0.0000000001
 40
0.0
 40
0.0
 40
0.0
 40
0.0
 40
8.863850863940767
 40
21.36110381995641
 40
21.36110381995641
 40
21.36110381995641
 40
21.36110381995641
 10
36.85073960643104
 20
69.29612622192917
 30
0.0
 10
39.35786868762068
 20
67.69643830198339
 30
0.0
 10
45.39983006709204
 20
63.84133059969746
 30
0.0
 10
52.40900969233686
 20
62.23557119098609
 30
0.0
 10
56.50971027078731
 20
61.29612622192883
 30
0.0
 11
36.85073960643104
 21
69.29612622192917
 31
0.0
 11
44.53866816122399
 21
64.88436844587408
 31
0.0
 11
56.50971027078731
 21
61.29612622192883
 31
0.0
  0
LINE
  5
25E6
102
{ACAD_REACTORS
330
265A
102
}
330
2
100
AcDbEntity
  8
KIJUN
100
AcDbLine
 10
76.85073960643172
 20
75.29612622192894
 30
0.0
 11
76.85073960643172
 21
70.29612622192894
 31
0.0
  0
SPLINE
  5
25E7
102
{ACAD_REACTORS
330
265A
102
}
330
2
100
AcDbEntity
  8
KIJUN
100
AcDbSpline
210
0.0
220
0.0
230
1.0
 70
     8
 71
     3
 72
     9
 73
     5
 74
     3
 42
0.0000000001
 43
0.0000000001
 44
0.0000000001
 40
0.0
 40
0.0
 40
0.0
 40
0.0
 40
7.892442552136009
 40
15.32793736755999
 40
15.32793736755999
 40
15.32793736755999
 40
15.32793736755999
 10
65.85073960643171
 20
61.29612622192883
 30
0.0
 10
68.67917631162661
 20
61.71924662246822
 30
0.0
 10
74.17229208395508
 20
62.54099007584937
 30
0.0
 10
75.9758459389624
 20
67.76297242756458
 30
0.0
 10
76.85073960643172
 20
70.29612622192894
 30
0.0
 11
65.85073960643171
 21
61.29612622192883
 31
0.0
 11
73.35784393555241
 21
63.73211350236863
 31
0.0
 11
76.85073960643172
 21
70.29612622192894
 31
0.0
  0
SPLINE
  5
25E8
102
{ACAD_REACTORS
330
265A
102
}
330
2
100
AcDbEntity
  8
KIJUN
100
AcDbSpline
210
0.0
220
0.0
230
1.0
 70
     8
 71
     3
 72
    14
 73
    10
 74
     8
 42
0.0000000001
 43
0.0000000001
 44
0.0000000001
 40
0.0
 40
0.0
 40
0.0
 40
0.0
 40
6.954059845126737
 40
16.8151522008524
 40
24.99675530992156
 40
29.04155643295345
 40
32.35333939629605
 40
34.29740239679181
 40
35.5034581725504
 40
35.5034581725504
 40
35.5034581725504
 40
35.5034581725504
 10
47.85073960643171
 20
78.29612622192883
 30
0.0
 10
49.16203885841929
 20
76.37917489076102
 30
0.0
 10
52.33280485613892
 20
71.7439216555157
 30
0.0
 10
59.57871830504882
 20
66.83168421466092
 30
0.0
 10
67.03517572921615
 20
66.03413105993102
 30
0.0
 10
72.41986265541527
 20
67.91649031199662
 30
0.0
 10
73.31149983991673
 20
71.18910025344525
 30
0.0
 10
72.57013267595988
 20
73.5833178053028
 30
0.0
 10
71.47253602870563
 20
73.76640699481658
 30
0.0
 10
71.0523097230016
 20
73.83650459753448
 30
0.0
 11
47.85073960643171
 21
78.29612622192883
 31
0.0
 11
52.07599101743198
 21
72.77288452493201
 31
0.0
 11
60.32270867806847
 21
67.3661488855746
 31
0.0
 11
68.48075238035062
 21
66.7457035729285
 31
0.0
 11
72.11640224340408
 21
68.51840382907994
 31
0.0
 11
73.00314621957887
 21
71.70926445232942
 31
0.0
 11
72.205076829277
 21
73.48196470848098
 31
0.0
 11
71.0523097230016
 21
73.83650459753448
 31
0.0
  0
SPLINE
  5
25E9
102
{ACAD_REACTORS
330
265A
102
}
330
2
100
AcDbEntity
  8
KIJUN
100
AcDbSpline
210
0.0
220
0.0
230
1.0
 70
     8
 71
     3
 72
    11
 73
     7
 74
     5
 42
0.0000000001
 43
0.0000000001
 44
0.0000000001
 40
0.0
 40
0.0
 40
0.0
 40
0.0
 40
5.147617008116859
 40
13.36005653858887
 40
20.98935793101718
 40
29.54276145928159
 40
29.54276145928159
 40
29.54276145928159
 40
29.54276145928159
 10
32.56762605166114
 20
77.64781012798812
 30
0.0
 10
34.35212103347959
 20
77.50743657194155
 30
0.0
 10
38.98357551277161
 20
77.14311291648161
 30
0.0
 10
43.09514528433604
 20
70.7093790199674
 30
0.0
 10
49.39349275726129
 20
65.41437647213396
 30
0.0
 10
54.74516493771003
 20
64.19784413904799
 30
0.0
 10
57.57380279118979
 20
63.55484335512096
 30
0.0
 11
32.56762605166114
 21
77.64781012798812
 31
0.0
 11
37.62206615109062
 21
76.67282492628851
 31
0.0
 11
43.47457564082174
 21
70.9115493978776
 31
0.0
 11
49.41575908890786
 21
66.12525866572434
 31
0.0
 11
57.57380279118979
 21
63.55484335512096
 31
0.0
  0
SPLINE
  5
25EA
102
{ACAD_REACTORS
330
265A
102
}
330
2
100
AcDbEntity
  8
KIJUN
100
AcDbSpline
210
0.0
220
0.0
230
1.0
 70
     8
 71
     3
 72
    11
 73
     7
 74
     5
 42
0.0000000001
 43
0.0000000001
 44
0.0000000001
 40
0.0
 40
0.0
 40
0.0
 40
0.0
 40
5.147617008116859
 40
13.36005653858887
 40
20.98935793101718
 40
29.54276145928159
 40
29.54276145928159
 40
29.54276145928159
 40
29.54276145928159
 10
32.56762605166114
 20
44.94444231586931
 30
0.0
 10
34.35212103347959
 20
45.08481587191588
 30
0.0
 10
38.98357551277161
 20
45.44913952737582
 30
0.0
 10
43.09514528433604
 20
51.88287342389004
 30
0.0
 10
49.39349275726129
 20
57.17787597172348
 30
0.0
 10
54.74516493771003
 20
58.39440830480944
 30
0.0
 10
57.57380279118979
 20
59.03740908873647
 30
0.0
 11
32.56762605166114
 21
44.94444231586931
 31
0.0
 11
37.62206615109062
 21
45.91942751756891
 31
0.0
 11
43.47457564082174
 21
51.68070304597984
 31
0.0
 11
49.41575908890786
 21
56.46699377813309
 31
0.0
 11
57.57380279118979
 21
59.03740908873647
 31
0.0
  0
SPLINE
  5
25EB
102
{ACAD_REACTORS
330
265A
102
}
330
2
100
AcDbEntity
  8
KIJUN
100
AcDbSpline
210
0.0
220
0.0
230
1.0
 70
     8
 71
     3
 72
    14
 73
    10
 74
     8
 42
0.0000000001
 43
0.0000000001
 44
0.0000000001
 40
0.0
 40
0.0
 40
0.0
 40
0.0
 40
6.954059845126737
 40
16.8151522008524
 40
24.99675530992156
 40
29.04155643295345
 40
32.35333939629605
 40
34.29740239679181
 40
35.5034581725504
 40
35.5034581725504
 40
35.5034581725504
 40
35.5034581725504
 10
47.85073960643171
 20
44.2961262219286
 30
0.0
 10
49.16203885841929
 20
46.21307755309641
 30
0.0
 10
52.33280485613892
 20
50.84833078834173
 30
0.0
 10
59.57871830504882
 20
55.7605682291965
 30
0.0
 10
67.03517572921615
 20
56.55812138392642
 30
0.0
 10
72.41986265541527
 20
54.67576213186079
 30
0.0
 10
73.31149983991673
 20
51.40315219041219
 30
0.0
 10
72.57013267595988
 20
49.00893463855464
 30
0.0
 10
71.47253602870563
 20
48.82584544904084
 30
0.0
 10
71.0523097230016
 20
48.75574784632295
 30
0.0
 11
47.85073960643171
 21
44.2961262219286
 31
0.0
 11
52.07599101743198
 21
49.81936791892542
 31
0.0
 11
60.32270867806847
 21
55.22610355828283
 31
0.0
 11
68.48075238035062
 21
55.84654887092892
 31
0.0
 11
72.11640224340408
 21
54.07384861477749
 31
0.0
 11
73.00314621957887
 21
50.88298799152801
 31
0.0
 11
72.205076829277
 21
49.11028773537646
 31
0.0
 11
71.0523097230016
 21
48.75574784632295
 31
0.0
  0
SPLINE
  5
25EC
102
{ACAD_REACTORS
330
265A
102
}
330
2
100
AcDbEntity
  8
KIJUN
100
AcDbSpline
210
0.0
220
0.0
230
1.0
 70
     8
 71
     3
 72
     9
 73
     5
 74
     3
 42
0.0000000001
 43
0.0000000001
 44
0.0000000001
 40
0.0
 40
0.0
 40
0.0
 40
0.0
 40
8.863850863940767
 40
21.36110381995641
 40
21.36110381995641
 40
21.36110381995641
 40
21.36110381995641
 10
36.85073960643104
 20
53.29612622192826
 30
0.0
 10
39.35786868762068
 20
54.89581414187403
 30
0.0
 10
45.39983006709204
 20
58.75092184415995
 30
0.0
 10
52.40900969233686
 20
60.35668125287132
 30
0.0
 10
56.50971027078731
 20
61.2961262219286
 30
0.0
 11
36.85073960643104
 21
53.29612622192826
 31
0.0
 11
44.53866816122399
 21
57.70788399798334
 31
0.0
 11
56.50971027078731
 21
61.2961262219286
 31
0.0
  0
LINE
  5
25F0
102
{ACAD_REACTORS
330
265A
102
}
330
2
100
AcDbEntity
  8
KIJUN
100
AcDbLine
 10
56.50971027078776
 20
61.2961262219286
 30
0.0
 11
65.85073960643171
 21
61.2961262219286
 31
0.0
  0
SPLINE
  5
25F1
102
{ACAD_REACTORS
330
265A
102
}
330
2
100
AcDbEntity
  8
KIJUN
100
AcDbSpline
210
0.0
220
0.0
230
1.0
 70
     8
 71
     3
 72
     9
 73
     5
 74
     3
 42
0.0000000001
 43
0.0000000001
 44
0.0000000001
 40
0.0
 40
0.0
 40
0.0
 40
0.0
 40
7.892442552136009
 40
15.32793736755999
 40
15.32793736755999
 40
15.32793736755999
 40
15.32793736755999
 10
65.85073960643171
 20
61.2961262219286
 30
0.0
 10
68.67917631162661
 20
60.87300582138922
 30
0.0
 10
74.17229208395508
 20
60.05126236800807
 30
0.0
 10
75.9758459389624
 20
54.82928001629286
 30
0.0
 10
76.85073960643172
 20
52.29612622192849
 30
0.0
 11
65.85073960643171
 21
61.2961262219286
 31
0.0
 11
73.35784393555241
 21
58.8601389414888
 31
0.0
 11
76.85073960643172
 21
52.29612622192849
 31
0.0
  0
LINE
  5
25F2
102
{ACAD_REACTORS
330
265A
102
}
330
2
100
AcDbEntity
  8
KIJUN
100
AcDbLine
 10
76.85073960643172
 20
47.29612622192848
 30
0.0
 11
76.85073960643172
 21
52.29612622192849
 31
0.0
  0
ARC
  5
25F3
102
{ACAD_REACTORS
330
265A
102
}
330
2
100
AcDbEntity
  8
KIJUN
100
AcDbCircle
 10
71.49828059003835
 20
52.77973277930562
 30
0.0
 40
7.662816609986248
100
AcDbArc
 50
183.6183877186577
 51
314.3065902304944
  0
SPLINE
  5
25F5
102
{ACAD_REACTORS
330
265A
102
}
330
2
100
AcDbEntity
  8
KIJUN
100
AcDbSpline
210
0.0
220
0.0
230
1.0
 70
     8
 71
     3
 72
     9
 73
     5
 74
     3
 42
0.0000000001
 43
0.0000000001
 44
0.0000000001
 40
0.0
 40
0.0
 40
0.0
 40
0.0
 40
8.863850863940767
 40
21.36110381995641
 40
21.36110381995641
 40
21.36110381995641
 40
21.36110381995641
 10
116.8507396064324
 20
53.29612622192826
 30
0.0
 10
114.3436105252427
 20
54.89581414187403
 30
0.0
 10
108.3016491457713
 20
58.75092184415995
 30
0.0
 10
101.2924695205265
 20
60.35668125287132
 30
0.0
 10
97.19176894207613
 20
61.2961262219286
 30
0.0
 11
116.8507396064324
 21
53.29612622192826
 31
0.0
 11
109.1628110516394
 21
57.70788399798334
 31
0.0
 11
97.19176894207613
 21
61.2961262219286
 31
0.0
  0
SPLINE
  5
25F6
102
{ACAD_REACTORS
330
265A
102
}
330
2
100
AcDbEntity
  8
KIJUN
100
AcDbSpline
210
0.0
220
0.0
230
1.0
 70
     8
 71
     3
 72
    14
 73
    10
 74
     8
 42
0.0000000001
 43
0.0000000001
 44
0.0000000001
 40
0.0
 40
0.0
 40
0.0
 40
0.0
 40
6.954059845126737
 40
16.8151522008524
 40
24.99675530992156
 40
29.04155643295345
 40
32.35333939629605
 40
34.29740239679181
 40
35.5034581725504
 40
35.5034581725504
 40
35.5034581725504
 40
35.5034581725504
 10
105.8507396064317
 20
44.2961262219286
 30
0.0
 10
104.5394403544441
 20
46.21307755309641
 30
0.0
 10
101.3686743567245
 20
50.84833078834173
 30
0.0
 10
94.1227609078146
 20
55.7605682291965
 30
0.0
 10
86.66630348364732
 20
56.55812138392642
 30
0.0
 10
81.28161655744813
 20
54.67576213186079
 30
0.0
 10
80.3899793729467
 20
51.40315219041219
 30
0.0
 10
81.13134653690355
 20
49.00893463855464
 30
0.0
 10
82.22894318415781
 20
48.82584544904084
 30
0.0
 10
82.64916948986183
 20
48.75574784632295
 30
0.0
 11
105.8507396064317
 21
44.2961262219286
 31
0.0
 11
101.6254881954314
 21
49.81936791892542
 31
0.0
 11
93.37877053479497
 21
55.22610355828283
 31
0.0
 11
85.2207268325128
 21
55.84654887092892
 31
0.0
 11
81.58507696945935
 21
54.07384861477749
 31
0.0
 11
80.69833299328456
 21
50.88298799152801
 31
0.0
 11
81.49640238358642
 21
49.11028773537646
 31
0.0
 11
82.64916948986183
 21
48.75574784632295
 31
0.0
  0
SPLINE
  5
25F7
102
{ACAD_REACTORS
330
265A
102
}
330
2
100
AcDbEntity
  8
KIJUN
100
AcDbSpline
210
0.0
220
0.0
230
1.0
 70
     8
 71
     3
 72
    11
 73
     7
 74
     5
 42
0.0000000001
 43
0.0000000001
 44
0.0000000001
 40
0.0
 40
0.0
 40
0.0
 40
0.0
 40
5.147617008116859
 40
13.36005653858887
 40
20.98935793101718
 40
29.54276145928159
 40
29.54276145928159
 40
29.54276145928159
 40
29.54276145928159
 10
121.1338531612023
 20
44.94444231586931
 30
0.0
 10
119.3493581793838
 20
45.08481587191588
 30
0.0
 10
114.7179037000918
 20
45.44913952737582
 30
0.0
 10
110.6063339285274
 20
51.88287342389004
 30
0.0
 10
104.3079864556022
 20
57.17787597172348
 30
0.0
 10
98.95631427515343
 20
58.39440830480944
 30
0.0
 10
96.12767642167364
 20
59.03740908873647
 30
0.0
 11
121.1338531612023
 21
44.94444231586931
 31
0.0
 11
116.0794130617728
 21
45.91942751756891
 31
0.0
 11
110.2269035720417
 21
51.68070304597984
 31
0.0
 11
104.2857201239556
 21
56.46699377813309
 31
0.0
 11
96.12767642167364
 21
59.03740908873647
 31
0.0
  0
SPLINE
  5
25F8
102
{ACAD_REACTORS
330
265A
102
}
330
2
100
AcDbEntity
  8
KIJUN
100
AcDbSpline
210
0.0
220
0.0
230
1.0
 70
     8
 71
     3
 72
    11
 73
     7
 74
     5
 42
0.0000000001
 43
0.0000000001
 44
0.0000000001
 40
0.0
 40
0.0
 40
0.0
 40
0.0
 40
5.147617008116859
 40
13.36005653858887
 40
20.98935793101718
 40
29.54276145928159
 40
29.54276145928159
 40
29.54276145928159
 40
29.54276145928159
 10
121.1338531612023
 20
77.64781012798812
 30
0.0
 10
119.3493581793838
 20
77.50743657194155
 30
0.0
 10
114.7179037000918
 20
77.14311291648161
 30
0.0
 10
110.6063339285274
 20
70.7093790199674
 30
0.0
 10
104.3079864556022
 20
65.41437647213396
 30
0.0
 10
98.95631427515343
 20
64.19784413904799
 30
0.0
 10
96.12767642167364
 20
63.55484335512096
 30
0.0
 11
121.1338531612023
 21
77.64781012798812
 31
0.0
 11
116.0794130617728
 21
76.67282492628851
 31
0.0
 11
110.2269035720417
 21
70.9115493978776
 31
0.0
 11
104.2857201239556
 21
66.12525866572434
 31
0.0
 11
96.12767642167364
 21
63.55484335512096
 31
0.0
  0
SPLINE
  5
25F9
102
{ACAD_REACTORS
330
265A
102
}
330
2
100
AcDbEntity
  8
KIJUN
100
AcDbSpline
210
0.0
220
0.0
230
1.0
 70
     8
 71
     3
 72
    14
 73
    10
 74
     8
 42
0.0000000001
 43
0.0000000001
 44
0.0000000001
 40
0.0
 40
0.0
 40
0.0
 40
0.0
 40
6.954059845126737
 40
16.8151522008524
 40
24.99675530992156
 40
29.04155643295345
 40
32.35333939629605
 40
34.29740239679181
 40
35.5034581725504
 40
35.5034581725504
 40
35.5034581725504
 40
35.5034581725504
 10
105.8507396064317
 20
78.29612622192883
 30
0.0
 10
104.5394403544441
 20
76.37917489076102
 30
0.0
 10
101.3686743567245
 20
71.7439216555157
 30
0.0
 10
94.1227609078146
 20
66.83168421466092
 30
0.0
 10
86.66630348364732
 20
66.03413105993102
 30
0.0
 10
81.28161655744813
 20
67.91649031199662
 30
0.0
 10
80.3899793729467
 20
71.18910025344525
 30
0.0
 10
81.13134653690355
 20
73.5833178053028
 30
0.0
 10
82.22894318415781
 20
73.76640699481658
 30
0.0
 10
82.64916948986183
 20
73.83650459753448
 30
0.0
 11
105.8507396064317
 21
78.29612622192883
 31
0.0
 11
101.6254881954314
 21
72.77288452493201
 31
0.0
 11
93.37877053479497
 21
67.3661488855746
 31
0.0
 11
85.2207268325128
 21
66.7457035729285
 31
0.0
 11
81.58507696945935
 21
68.51840382907994
 31
0.0
 11
80.69833299328456
 21
71.70926445232942
 31
0.0
 11
81.49640238358642
 21
73.48196470848098
 31
0.0
 11
82.64916948986183
 21
73.83650459753448
 31
0.0
  0
SPLINE
  5
25FA
102
{ACAD_REACTORS
330
265A
102
}
330
2
100
AcDbEntity
  8
KIJUN
100
AcDbSpline
210
0.0
220
0.0
230
1.0
 70
     8
 71
     3
 72
     9
 73
     5
 74
     3
 42
0.0000000001
 43
0.0000000001
 44
0.0000000001
 40
0.0
 40
0.0
 40
0.0
 40
0.0
 40
8.863850863940767
 40
21.36110381995641
 40
21.36110381995641
 40
21.36110381995641
 40
21.36110381995641
 10
116.8507396064324
 20
69.29612622192917
 30
0.0
 10
114.3436105252427
 20
67.69643830198339
 30
0.0
 10
108.3016491457713
 20
63.84133059969746
 30
0.0
 10
101.2924695205265
 20
62.23557119098609
 30
0.0
 10
97.19176894207613
 20
61.29612622192883
 30
0.0
 11
116.8507396064324
 21
69.29612622192917
 31
0.0
 11
109.1628110516394
 21
64.88436844587408
 31
0.0
 11
97.19176894207613
 21
61.29612622192883
 31
0.0
  0
ARC
  5
2600
102
{ACAD_REACTORS
330
265A
102
}
330
2
100
AcDbEntity
  8
KIJUN
100
AcDbCircle
 10
82.20319862282508
 20
52.77973277930562
 30
0.0
 40
7.662816609986248
100
AcDbArc
 50
225.6934097695056
 51
356.3816122813423
  0
LINE
  5
2601
102
{ACAD_REACTORS
330
265A
102
}
330
2
100
AcDbEntity
  8
KIJUN
100
AcDbLine
 10
76.85073960643172
 20
47.29612622192848
 30
0.0
 11
76.85073960643172
 21
52.29612622192849
 31
0.0
  0
SPLINE
  5
2602
102
{ACAD_REACTORS
330
265A
102
}
330
2
100
AcDbEntity
  8
KIJUN
100
AcDbSpline
210
0.0
220
0.0
230
1.0
 70
     8
 71
     3
 72
     9
 73
     5
 74
     3
 42
0.0000000001
 43
0.0000000001
 44
0.0000000001
 40
0.0
 40
0.0
 40
0.0
 40
0.0
 40
7.892442552136009
 40
15.32793736755999
 40
15.32793736755999
 40
15.32793736755999
 40
15.32793736755999
 10
87.85073960643172
 20
61.2961262219286
 30
0.0
 10
85.02230290123685
 20
60.87300582138922
 30
0.0
 10
79.52918712890834
 20
60.05126236800807
 30
0.0
 10
77.72563327390106
 20
54.82928001629286
 30
0.0
 10
76.85073960643172
 20
52.29612622192849
 30
0.0
 11
87.85073960643172
 21
61.2961262219286
 31
0.0
 11
80.34363527731102
 21
58.8601389414888
 31
0.0
 11
76.85073960643172
 21
52.29612622192849
 31
0.0
  0
LINE
  5
2603
102
{ACAD_REACTORS
330
265A
102
}
330
2
100
AcDbEntity
  8
KIJUN
100
AcDbLine
 10
97.19176894207567
 20
61.2961262219286
 30
0.0
 11
87.85073960643172
 21
61.2961262219286
 31
0.0
  0
LINE
  5
2604
102
{ACAD_REACTORS
330
265A
102
}
330
2
100
AcDbEntity
  8
KIJUN
100
AcDbLine
 10
97.19176894207567
 20
61.29612622192883
 30
0.0
 11
87.85073960643172
 21
61.29612622192883
 31
0.0
  0
SPLINE
  5
2605
102
{ACAD_REACTORS
330
265A
102
}
330
2
100
AcDbEntity
  8
KIJUN
100
AcDbSpline
210
0.0
220
0.0
230
1.0
 70
     8
 71
     3
 72
     9
 73
     5
 74
     3
 42
0.0000000001
 43
0.0000000001
 44
0.0000000001
 40
0.0
 40
0.0
 40
0.0
 40
0.0
 40
7.892442552136009
 40
15.32793736755999
 40
15.32793736755999
 40
15.32793736755999
 40
15.32793736755999
 10
87.85073960643172
 20
61.29612622192883
 30
0.0
 10
85.02230290123685
 20
61.71924662246822
 30
0.0
 10
79.52918712890834
 20
62.54099007584937
 30
0.0
 10
77.72563327390106
 20
67.76297242756458
 30
0.0
 10
76.85073960643172
 20
70.29612622192894
 30
0.0
 11
87.85073960643172
 21
61.29612622192883
 31
0.0
 11
80.34363527731102
 21
63.73211350236863
 31
0.0
 11
76.85073960643172
 21
70.29612622192894
 31
0.0
  0
LINE
  5
2606
102
{ACAD_REACTORS
330
265A
102
}
330
2
100
AcDbEntity
  8
KIJUN
100
AcDbLine
 10
76.85073960643172
 20
75.29612622192894
 30
0.0
 11
76.85073960643172
 21
70.29612622192894
 31
0.0
  0
ARC
  5
2607
102
{ACAD_REACTORS
330
265A
102
}
330
2
100
AcDbEntity
  8
KIJUN
100
AcDbCircle
 10
82.20319862282508
 20
69.81251966455181
 30
0.0
 40
7.662816609986248
100
AcDbArc
 50
3.618387718657738
 51
134.3065902304944
  0
LINE
  5
2608
102
{ACAD_REACTORS
330
265A
102
}
330
2
100
AcDbEntity
  8
KIJUN
100
AcDbLine
 10
73.89391868724032
 20
58.3393053027371
 30
0.0
 11
79.80756052562333
 21
64.25294714111988
 31
0.0
  0
LINE
  5
2609
102
{ACAD_REACTORS
330
265A
102
}
330
2
100
AcDbEntity
  8
KIJUN
100
AcDbLine
 10
72.31345917077738
 20
59.58727291102036
 30
0.0
 11
78.63913863115931
 21
65.91295237140207
 31
0.0
  0
LINE
  5
260A
102
{ACAD_REACTORS
330
265A
102
}
330
2
100
AcDbEntity
  8
KIJUN
100
AcDbLine
 10
79.80756052562265
 20
58.33930530273687
 30
0.0
 11
73.89391868723987
 21
64.25294714111965
 31
0.0
  0
LINE
  5
260B
102
{ACAD_REACTORS
330
265A
102
}
330
2
100
AcDbEntity
  8
KIJUN
100
AcDbLine
 10
78.53944570534759
 20
56.49615028579114
 30
0.0
 11
72.13064647674014
 21
62.90494951439871
 31
0.0
  0
LINE
  5
260C
102
{ACAD_REACTORS
330
265A
102
}
330
2
100
AcDbEntity
  8
KIJUN
100
AcDbLine
 10
81.65071554256815
 20
59.60742012301171
 30
0.0
 11
75.2419163139607
 21
66.01621935161938
 31
0.0
  0
LINE
  5
260D
102
{ACAD_REACTORS
330
265A
102
}
330
2
100
AcDbEntity
  8
KIJUN
100
AcDbLine
 10
75.14188629552359
 20
56.75884578627426
 30
0.0
 11
81.46756575590552
 21
63.08452524665597
 31
0.0
  0
ARC
  5
2614
102
{ACAD_REACTORS
330
265A
102
}
330
2
100
AcDbEntity
  8
KIJUN
100
AcDbCircle
 10
41.59628172028781
 20
59.48696963653765
 30
0.0
 40
10.89677580163591
100
AcDbArc
 50
115.8170920294881
 51
170.4431126788341
  0
ARC
  5
2615
102
{ACAD_REACTORS
330
265A
102
}
330
2
100
AcDbEntity
  8
KIJUN
100
AcDbCircle
 10
47.8279218533317
 20
84.55094111797098
 30
0.0
 40
18.79382631595199
100
AcDbArc
 50
209.3262671370302
 51
234.261661068729
  0
ARC
  5
2616
102
{ACAD_REACTORS
330
265A
102
}
330
2
100
AcDbEntity
  8
KIJUN
100
AcDbCircle
 10
33.71694254204603
 20
55.22684471650403
 30
0.0
 40
27.05468478163758
100
AcDbArc
 50
58.50555582541854
 51
69.72861648644573
  0
ARC
  5
2617
102
{ACAD_REACTORS
330
265A
102
}
330
2
100
AcDbEntity
  8
KIJUN
100
AcDbCircle
 10
37.98682558868752
 20
62.0843572003736
 30
0.0
 40
19.21176902155522
100
AcDbArc
 50
74.59420151491724
 51
100.0077106367681
  0
ARC
  5
2619
102
{ACAD_REACTORS
330
265A
102
}
330
2
100
AcDbEntity
  8
KIJUN
100
AcDbCircle
 10
36.26165124006403
 20
73.40536207482154
 30
0.0
 40
7.767858281550076
100
AcDbArc
 50
101.9881756680637
 51
122.6153302265
  0
ARC
  5
261A
102
{ACAD_REACTORS
330
265A
102
}
330
2
100
AcDbEntity
  8
KIJUN
100
AcDbCircle
 10
34.57168410655262
 20
77.35961264870443
 30
0.0
 40
3.720944500120901
100
AcDbArc
 50
146.7015384806678
 51
212.7612993201926
  0
ARC
  5
261C
102
{ACAD_REACTORS
330
265A
102
}
330
2
100
AcDbEntity
  8
KIJUN
100
AcDbCircle
 10
33.6546562235388
 20
77.55638375644375
 30
0.0
 40
2.86655858682309
100
AcDbArc
 50
123.4446768534404
 51
139.9101718687295
  0
ARC
  5
261F
102
{ACAD_REACTORS
330
265A
102
}
330
2
100
AcDbEntity
  8
KIJUN
100
AcDbCircle
 10
68.84905081455272
 20
80.94124797866355
 30
0.0
 40
11.76017568529207
100
AcDbArc
 50
203.5252596924856
 51
244.8480634427666
  0
ARC
  5
2620
102
{ACAD_REACTORS
330
265A
102
}
330
2
100
AcDbEntity
  8
KIJUN
100
AcDbCircle
 10
55.41025173349656
 20
53.69615129265895
 30
0.0
 40
25.73528686686719
100
AcDbArc
 50
95.39662359619301
 51
107.0820650898339
  0
ARC
  5
2621
102
{ACAD_REACTORS
330
265A
102
}
330
2
100
AcDbEntity
  8
KIJUN
100
AcDbCircle
 10
53.40735132404877
 20
74.2757085214508
 30
0.0
 40
5.058914786265314
100
AcDbArc
 50
22.93542900120528
 51
94.73380006603456
  0
ARC
  5
2622
102
{ACAD_REACTORS
330
265A
102
}
330
2
100
AcDbEntity
  8
KIJUN
100
AcDbCircle
 10
41.59628172028781
 20
63.10528280732
 30
0.0
 40
10.89677580163591
100
AcDbArc
 50
189.5568873211659
 51
244.182907970512
  0
ARC
  5
2623
102
{ACAD_REACTORS
330
265A
102
}
330
2
100
AcDbEntity
  8
KIJUN
100
AcDbCircle
 10
47.8279218533317
 20
38.04131132588668
 30
0.0
 40
18.79382631595199
100
AcDbArc
 50
125.7383389312709
 51
150.6737328629695
  0
ARC
  5
2624
102
{ACAD_REACTORS
330
265A
102
}
330
2
100
AcDbEntity
  8
KIJUN
100
AcDbCircle
 10
33.71694254204603
 20
67.36540772735363
 30
0.0
 40
27.05468478163758
100
AcDbArc
 50
290.2713835135544
 51
301.4944441745813
  0
ARC
  5
2625
102
{ACAD_REACTORS
330
265A
102
}
330
2
100
AcDbEntity
  8
KIJUN
100
AcDbCircle
 10
37.98682558868752
 20
60.50789524348406
 30
0.0
 40
19.21176902155522
100
AcDbArc
 50
259.9922893632319
 51
285.4057984850828
  0
ARC
  5
2626
102
{ACAD_REACTORS
330
265A
102
}
330
2
100
AcDbEntity
  8
KIJUN
100
AcDbCircle
 10
36.26165124006403
 20
49.18689036903612
 30
0.0
 40
7.767858281550076
100
AcDbArc
 50
237.3846697735
 51
258.0118243319362
  0
ARC
  5
2627
102
{ACAD_REACTORS
330
265A
102
}
330
2
100
AcDbEntity
  8
KIJUN
100
AcDbCircle
 10
34.57168410655262
 20
45.23263979515323
 30
0.0
 40
3.720944500120901
100
AcDbArc
 50
147.2387006798072
 51
213.2984615193324
  0
ARC
  5
2628
102
{ACAD_REACTORS
330
265A
102
}
330
2
100
AcDbEntity
  8
KIJUN
100
AcDbCircle
 10
33.6546562235388
 20
45.03586868741391
 30
0.0
 40
2.86655858682309
100
AcDbArc
 50
220.0898281312708
 51
236.5553231465594
  0
ARC
  5
2629
102
{ACAD_REACTORS
330
265A
102
}
330
2
100
AcDbEntity
  8
KIJUN
100
AcDbCircle
 10
68.84905081455272
 20
41.6510044651941
 30
0.0
 40
11.76017568529207
100
AcDbArc
 50
115.1519365572333
 51
156.4747403075142
  0
ARC
  5
262A
102
{ACAD_REACTORS
330
265A
102
}
330
2
100
AcDbEntity
  8
KIJUN
100
AcDbCircle
 10
55.41025173349656
 20
68.89610115119871
 30
0.0
 40
25.73528686686719
100
AcDbArc
 50
252.9179349101661
 51
264.6033764038069
  0
ARC
  5
262B
102
{ACAD_REACTORS
330
265A
102
}
330
2
100
AcDbEntity
  8
KIJUN
100
AcDbCircle
 10
53.40735132404877
 20
48.31654392240685
 30
0.0
 40
5.058914786265314
100
AcDbArc
 50
265.2661999339654
 51
337.0645709987944
  0
ARC
  5
262C
102
{ACAD_REACTORS
330
265A
102
}
330
2
100
AcDbEntity
  8
KIJUN
100
AcDbCircle
 10
112.1051974925756
 20
59.48696963653765
 30
0.0
 40
10.89677580163591
100
AcDbArc
 50
9.556887321165897
 51
64.18290797051223
  0
ARC
  5
262D
102
{ACAD_REACTORS
330
265A
102
}
330
2
100
AcDbEntity
  8
KIJUN
100
AcDbCircle
 10
105.8735573595317
 20
84.55094111797098
 30
0.0
 40
18.79382631595198
100
AcDbArc
 50
305.738338931271
 51
330.6737328629697
  0
ARC
  5
262E
102
{ACAD_REACTORS
330
265A
102
}
330
2
100
AcDbEntity
  8
KIJUN
100
AcDbCircle
 10
119.9845366708174
 20
55.22684471650403
 30
0.0
 40
27.05468478163757
100
AcDbArc
 50
110.2713835135537
 51
121.4944441745818
  0
ARC
  5
262F
102
{ACAD_REACTORS
330
265A
102
}
330
2
100
AcDbEntity
  8
KIJUN
100
AcDbCircle
 10
115.7146536241759
 20
62.0843572003736
 30
0.0
 40
19.21176902155522
100
AcDbArc
 50
79.99228936323174
 51
105.4057984850823
  0
ARC
  5
2630
102
{ACAD_REACTORS
330
265A
102
}
330
2
100
AcDbEntity
  8
KIJUN
100
AcDbCircle
 10
117.4398279727994
 20
73.40536207482154
 30
0.0
 40
7.767858281550072
100
AcDbArc
 50
57.38466977349998
 51
78.01182433193606
  0
ARC
  5
2631
102
{ACAD_REACTORS
330
265A
102
}
330
2
100
AcDbEntity
  8
KIJUN
100
AcDbCircle
 10
119.1297951063108
 20
77.35961264870443
 30
0.0
 40
3.720944500120899
100
AcDbArc
 50
327.2387006798073
 51
33.29846151933228
  0
ARC
  5
2632
102
{ACAD_REACTORS
330
265A
102
}
330
2
100
AcDbEntity
  8
KIJUN
100
AcDbCircle
 10
120.0468229893246
 20
77.55638375644375
 30
0.0
 40
2.866558586823088
100
AcDbArc
 50
40.08982813127024
 51
56.55532314655949
  0
ARC
  5
2633
102
{ACAD_REACTORS
330
265A
102
}
330
2
100
AcDbEntity
  8
KIJUN
100
AcDbCircle
 10
84.85242839831071
 20
80.94124797866355
 30
0.0
 40
11.76017568529207
100
AcDbArc
 50
295.1519365572334
 51
336.4747403075142
  0
ARC
  5
2634
102
{ACAD_REACTORS
330
265A
102
}
330
2
100
AcDbEntity
  8
KIJUN
100
AcDbCircle
 10
98.29122747936686
 20
53.69615129265895
 30
0.0
 40
25.73528686686719
100
AcDbArc
 50
72.9179349101664
 51
84.60337640380743
  0
ARC
  5
2635
102
{ACAD_REACTORS
330
265A
102
}
330
2
100
AcDbEntity
  8
KIJUN
100
AcDbCircle
 10
100.2941278888146
 20
74.2757085214508
 30
0.0
 40
5.058914786265312
100
AcDbArc
 50
85.2661999339662
 51
157.064570998795
  0
ARC
  5
2636
102
{ACAD_REACTORS
330
265A
102
}
330
2
100
AcDbEntity
  8
KIJUN
100
AcDbCircle
 10
112.1051974925756
 20
63.10528280732
 30
0.0
 40
10.89677580163591
100
AcDbArc
 50
295.8170920294877
 51
350.443112678834
  0
ARC
  5
2637
102
{ACAD_REACTORS
330
265A
102
}
330
2
100
AcDbEntity
  8
KIJUN
100
AcDbCircle
 10
105.8735573595317
 20
38.04131132588668
 30
0.0
 40
18.79382631595198
100
AcDbArc
 50
29.3262671370305
 51
54.26166106872907
  0
ARC
  5
2638
102
{ACAD_REACTORS
330
265A
102
}
330
2
100
AcDbEntity
  8
KIJUN
100
AcDbCircle
 10
119.9845366708174
 20
67.36540772735363
 30
0.0
 40
27.05468478163757
100
AcDbArc
 50
238.5055558254182
 51
249.7286164864463
  0
ARC
  5
2639
102
{ACAD_REACTORS
330
265A
102
}
330
2
100
AcDbEntity
  8
KIJUN
100
AcDbCircle
 10
115.7146536241759
 20
60.50789524348406
 30
0.0
 40
19.21176902155522
100
AcDbArc
 50
254.5942015149176
 51
280.0077106367682
  0
ARC
  5
263A
102
{ACAD_REACTORS
330
265A
102
}
330
2
100
AcDbEntity
  8
KIJUN
100
AcDbCircle
 10
117.4398279727994
 20
49.18689036903612
 30
0.0
 40
7.767858281550072
100
AcDbArc
 50
281.988175668064
 51
302.6153302265
  0
ARC
  5
263B
102
{ACAD_REACTORS
330
265A
102
}
330
2
100
AcDbEntity
  8
KIJUN
100
AcDbCircle
 10
119.1297951063108
 20
45.23263979515323
 30
0.0
 40
3.720944500120899
100
AcDbArc
 50
326.7015384806676
 51
32.76129932019275
  0
ARC
  5
263C
102
{ACAD_REACTORS
330
265A
102
}
330
2
100
AcDbEntity
  8
KIJUN
100
AcDbCircle
 10
120.0468229893246
 20
45.03586868741391
 30
0.0
 40
2.866558586823088
100
AcDbArc
 50
303.4446768534406
 51
319.9101718687296
  0
ARC
  5
263D
102
{ACAD_REACTORS
330
265A
102
}
330
2
100
AcDbEntity
  8
KIJUN
100
AcDbCircle
 10
84.85242839831071
 20
41.6510044651941
 30
0.0
 40
11.76017568529207
100
AcDbArc
 50
23.52525969248587
 51
64.8480634427666
  0
ARC
  5
263E
102
{ACAD_REACTORS
330
265A
102
}
330
2
100
AcDbEntity
  8
KIJUN
100
AcDbCircle
 10
98.29122747936686
 20
68.89610115119871
 30
0.0
 40
25.73528686686719
100
AcDbArc
 50
275.3966235961926
 51
287.0820650898336
  0
ARC
  5
263F
102
{ACAD_REACTORS
330
265A
102
}
330
2
100
AcDbEntity
  8
KIJUN
100
AcDbCircle
 10
100.2941278888146
 20
48.31654392240685
 30
0.0
 40
5.058914786265312
100
AcDbArc
 50
202.935429001206
 51
274.7338000660338
  0
DIMENSION
  5
2640
330
2
100
AcDbEntity
  8
SUNPOU
100
AcDbDimension
  2
*D27
 10
122.8507396064317
 20
99.78732845190188
 30
0.0
 11
76.85073960643172
 21
105.2873284519019
 31
0.0
 70
    32
 71
     5
 42
91.99999999999997
  3
STANDARD
100
AcDbAlignedDimension
 13
30.85073960643172
 23
61.29612622192859
 33
0.0
 14
122.8507396064317
 24
61.29612622192904
 34
0.0
100
AcDbRotatedDimension
1001
ACAD
1000
DSTYLE
1002
{
1070
    41
1040
2.0
1070
    42
1040
10.0
1070
    44
1040
0.0
1070
    73
1070
     0
1070
    74
1070
     0
1070
    77
1070
     1
1070
   140
1040
5.0
1070
   141
1040
0.0
1070
   146
1040
0.064286
1070
   147
1040
3.0
1070
   176
1070
    60
1070
   177
1070
    70
1070
   178
1070
    60
1070
   271
1070
     0
1070
   272
1070
     0
1070
   340
1005
1C
1070
   342
1005
109
1002
}
  0
DIMENSION
  5
264D
330
2
100
AcDbEntity
  8
SUNPOU
100
AcDbDimension
  2
*D28
 10
10.16993788546051
 20
41.29612622192883
 30
0.0
 11
4.669937885460507
 21
61.29612622192884
 31
0.0
 70
    32
 71
     5
 42
40.0
  3
STANDARD
100
AcDbAlignedDimension
 13
37.98682558868752
 23
81.29612622192883
 33
0.0
 14
37.98682558868752
 24
41.29612622192882
 34
0.0
 50
90.0
100
AcDbRotatedDimension
1001
ACAD
1000
DSTYLE
1002
{
1070
    41
1040
2.0
1070
    42
1040
10.0
1070
    44
1040
0.0
1070
    73
1070
     0
1070
    74
1070
     0
1070
    77
1070
     1
1070
   140
1040
5.0
1070
   141
1040
0.0
1070
   146
1040
0.064286
1070
   147
1040
3.0
1070
   176
1070
    60
1070
   177
1070
    70
1070
   178
1070
    60
1070
   271
1070
     0
1070
   272
1070
     0
1070
   340
1005
1C
1070
   342
1005
109
1002
}
  0
ENDSEC
  0
SECTION
  2
OBJECTS
  0
DICTIONARY
  5
1A
330
0
100
AcDbDictionary
281
     1
  3
ACAD_COLOR
350
144
  3
ACAD_GROUP
350
18
  3
ACAD_LAYOUT
350
58
  3
ACAD_MATERIAL
350
143
  3
ACAD_MLINESTYLE
350
19
  3
ACAD_PLOTSETTINGS
350
59
  3
ACAD_PLOTSTYLENAME
350
56
  3
ACAD_TABLESTYLE
350
145
  3
ACDBHEADERROUNDTRIPXREC
350
266F
  3
AcDbVariableDictionary
350
1D1
  0
DICTIONARY
  5
1B4
330
A
100
AcDbDictionary
280
     1
281
     1
  3
ACAD_LAYERFILTERS
360
1A2A
  3
ACLYDICTIONARY
360
1A29
  0
DICTIONARY
  5
D13
330
2
100
AcDbDictionary
280
     1
281
     1
  3
ACAD_SORTENTS
360
D14
  0
DICTIONARY
  5
144
102
{ACAD_REACTORS
330
1A
102
}
330
1A
100
AcDbDictionary
281
     1
  0
DICTIONARY
  5
18
102
{ACAD_REACTORS
330
1A
102
}
330
1A
100
AcDbDictionary
281
     1
  3
*A1
350
E0D
  3
*A10
350
213E
  3
*A11
350
22C8
  3
*A12
350
241A
  3
*A14
350
24D6
  3
*A15
350
2573
  3
*A16
350
265A
  3
*A2
350
1EFE
  3
*A3
350
2037
  3
*A4
350
FF8
  3
*A5
350
136A
  3
*A6
350
1555
  3
*A7
350
17BC
  3
*A8
350
1A98
  3
*A9
350
1CBC
  0
DICTIONARY
  5
58
102
{ACAD_REACTORS
330
1A
102
}
330
1A
100
AcDbDictionary
281
     1
  3
Model
350
5A
  3
ﾚｲｱｳﾄ1
350
5B
  0
DICTIONARY
  5
143
102
{ACAD_REACTORS
330
1A
102
}
330
1A
100
AcDbDictionary
281
     1
  0
DICTIONARY
  5
19
102
{ACAD_REACTORS
330
1A
102
}
330
1A
100
AcDbDictionary
281
     1
  3
STANDARD
350
1D
  0
DICTIONARY
  5
59
102
{ACAD_REACTORS
330
1A
102
}
330
1A
100
AcDbDictionary
281
     1
  0
ACDBDICTIONARYWDFLT
  5
56
102
{ACAD_REACTORS
330
1A
102
}
330
1A
100
AcDbDictionary
281
     1
  3
Normal
350
57
100
AcDbDictionaryWithDefault
340
57
  0
DICTIONARY
  5
145
102
{ACAD_REACTORS
330
1A
102
}
330
1A
100
AcDbDictionary
281
     1
  3
Standard
350
146
  0
DICTIONARY
  5
266F
102
{ACAD_REACTORS
330
1A
102
}
330
1A
100
AcDbDictionary
281
     1
  0
DICTIONARY
  5
1D1
102
{ACAD_REACTORS
330
1A
102
}
330
1A
100
AcDbDictionary
281
     1
  3
CTABLESTYLE
350
1D2
  3
DIMASSOC
350
D03
  3
PROJECTNAME
350
D04
  0
DICTIONARY
  5
1A2A
102
{ACAD_REACTORS
330
1B4
102
}
330
1B4
100
AcDbDictionary
281
     1
  0
DICTIONARY
  5
1A29
102
{ACAD_REACTORS
330
1B4
102
}
330
1B4
100
AcDbDictionary
281
     1
1001
ACAD
1000
<All
  0
SORTENTSTABLE
  5
D14
102
{ACAD_REACTORS
330
D13
102
}
330
D13
100
AcDbSortentsTable
330
2
331
23
  5
23
331
1F
  5
1F
331
20
  5
20
331
21
  5
21
  0
GROUP
  5
E0D
102
{ACAD_REACTORS
330
18
102
}
330
18
100
AcDbGroup
300

 70
     1
 71
     1
  0
GROUP
  5
213E
102
{ACAD_REACTORS
330
18
102
}
330
18
100
AcDbGroup
300

 70
     1
 71
     1
  0
GROUP
  5
22C8
102
{ACAD_REACTORS
330
18
102
}
330
18
100
AcDbGroup
300

 70
     1
 71
     1
  0
GROUP
  5
241A
102
{ACAD_REACTORS
330
18
102
}
330
18
100
AcDbGroup
300

 70
     1
 71
     1
  0
GROUP
  5
24D6
102
{ACAD_REACTORS
330
18
102
}
330
18
100
AcDbGroup
300

 70
     1
 71
     1
  0
GROUP
  5
2573
102
{ACAD_REACTORS
330
18
102
}
330
18
100
AcDbGroup
300

 70
     1
 71
     1
  0
GROUP
  5
265A
102
{ACAD_REACTORS
330
18
102
}
330
18
100
AcDbGroup
300

 70
     1
 71
     1
340
263F
340
263E
340
263D
340
263C
340
263B
340
263A
340
2639
340
2638
340
2637
340
2636
340
2635
340
2634
340
2633
340
2632
340
2631
340
2630
340
262F
340
262E
340
262D
340
262C
340
262B
340
262A
340
2629
340
2628
340
2627
340
2626
340
2625
340
2624
340
2623
340
2622
340
2621
340
2620
340
261F
340
261C
340
261A
340
2619
340
2617
340
2616
340
2615
340
2614
340
260D
340
260C
340
260B
340
260A
340
2609
340
2608
340
2607
340
2606
340
2605
340
2604
340
2603
340
2602
340
2601
340
2600
340
25FA
340
25F9
340
25F8
340
25F7
340
25F6
340
25F5
340
25F3
340
25F2
340
25F1
340
25F0
340
25EC
340
25EB
340
25EA
340
25E9
340
25E8
340
25E7
340
25E6
340
25E5
340
25E3
340
25E1
  0
GROUP
  5
1EFE
102
{ACAD_REACTORS
330
18
102
}
330
18
100
AcDbGroup
300

 70
     1
 71
     1
  0
GROUP
  5
2037
102
{ACAD_REACTORS
330
18
102
}
330
18
100
AcDbGroup
300

 70
     1
 71
     1
  0
GROUP
  5
FF8
102
{ACAD_REACTORS
330
18
102
}
330
18
100
AcDbGroup
300

 70
     1
 71
     1
  0
GROUP
  5
136A
102
{ACAD_REACTORS
330
18
102
}
330
18
100
AcDbGroup
300

 70
     1
 71
     1
  0
GROUP
  5
1555
102
{ACAD_REACTORS
330
18
102
}
330
18
100
AcDbGroup
300

 70
     1
 71
     1
  0
GROUP
  5
17BC
102
{ACAD_REACTORS
330
18
102
}
330
18
100
AcDbGroup
300

 70
     1
 71
     1
  0
GROUP
  5
1A98
102
{ACAD_REACTORS
330
18
102
}
330
18
100
AcDbGroup
300

 70
     1
 71
     1
  0
GROUP
  5
1CBC
102
{ACAD_REACTORS
330
18
102
}
330
18
100
AcDbGroup
300

 70
     1
 71
     1
  0
LAYOUT
  5
5A
102
{ACAD_XDICTIONARY
360
2670
102
}
102
{ACAD_REACTORS
330
58
102
}
330
58
100
AcDbPlotSettings
  1

  2
なし
  4

  6

 40
0.0
 41
0.0
 42
0.0
 43
0.0
 44
0.0
 45
0.0
 46
0.0
 47
0.0
 48
0.0
 49
0.0
140
0.0
141
0.0
142
1.0
143
1.0
 70
  1712
 72
     0
 73
     0
 74
     0
  7
monochrome.ctb
 75
     0
147
1.0
148
0.0
149
0.0
100
AcDbLayout
  1
Model
 70
     1
 71
     0
 10
0.0
 20
0.0
 11
12.0
 21
9.0
 12
0.0
 22
0.0
 32
0.0
 14
0.0
 24
0.0
 34
0.0
 15
0.0
 25
0.0
 35
0.0
146
0.0
 13
0.0
 23
0.0
 33
0.0
 16
1.0
 26
0.0
 36
0.0
 17
0.0
 27
1.0
 37
0.0
 76
     0
330
2
  0
LAYOUT
  5
5B
102
{ACAD_XDICTIONARY
360
2672
102
}
102
{ACAD_REACTORS
330
58
102
}
330
58
100
AcDbPlotSettings
  1

  2
なし
  4

  6

 40
0.0
 41
0.0
 42
0.0
 43
0.0
 44
0.0
 45
0.0
 46
0.0
 47
0.0
 48
0.0
 49
0.0
140
0.0
141
0.0
142
1.0
143
1.0
 70
   688
 72
     0
 73
     0
 74
     5
  7
monochrome.ctb
 75
    16
147
1.0
148
0.0
149
0.0
100
AcDbLayout
  1
ﾚｲｱｳﾄ1
 70
     1
 71
     1
 10
0.0
 20
0.0
 11
12.0
 21
9.0
 12
0.0
 22
0.0
 32
0.0
 14
1.000000000000000E+20
 24
1.000000000000000E+20
 34
1.000000000000000E+20
 15
-1.000000000000000E+20
 25
-1.000000000000000E+20
 35
-1.000000000000000E+20
146
0.0
 13
0.0
 23
0.0
 33
0.0
 16
1.0
 26
0.0
 36
0.0
 17
0.0
 27
1.0
 37
0.0
 76
     0
330
7
  0
MLINESTYLE
  5
1D
102
{ACAD_REACTORS
330
19
102
}
330
19
100
AcDbMlineStyle
  2
STANDARD
 70
     0
  3

 62
   256
 51
90.0
 52
90.0
 71
     2
 49
0.5
 62
   256
  6
BYLAYER
 49
-0.5
 62
   256
  6
BYLAYER
  0
ACDBPLACEHOLDER
  5
57
102
{ACAD_REACTORS
330
56
102
}
330
56
  0
TABLESTYLE
  5
146
102
{ACAD_REACTORS
330
145
102
}
330
145
100
AcDbTableStyle
  3
Standard
 70
     0
 71
     0
 40
0.06
 41
0.06
280
     0
281
     0
  7
STANDARD
140
0.18
170
     2
 62
     0
 63
     7
283
     0
274
    -2
284
     1
 64
     0
275
    -2
285
     1
 65
     0
276
    -2
286
     1
 66
     0
277
    -2
287
     1
 67
     0
278
    -2
288
     1
 68
     0
279
    -2
289
     1
 69
     0
  7
STANDARD
140
0.25
170
     5
 62
     0
 63
     7
283
     0
274
    -2
284
     1
 64
     0
275
    -2
285
     1
 65
     0
276
    -2
286
     1
 66
     0
277
    -2
287
     1
 67
     0
278
    -2
288
     1
 68
     0
279
    -2
289
     1
 69
     0
  7
STANDARD
140
0.18
170
     5
 62
     0
 63
     7
283
     0
274
    -2
284
     1
 64
     0
275
    -2
285
     1
 65
     0
276
    -2
286
     1
 66
     0
277
    -2
287
     1
 67
     0
278
    -2
288
     1
 68
     0
279
    -2
289
     1
 69
     0
  0
DICTIONARYVAR
  5
1D2
102
{ACAD_REACTORS
330
1D1
102
}
330
1D1
100
DictionaryVariables
280
     0
  1
STANDARD
  0
DICTIONARYVAR
  5
D03
102
{ACAD_REACTORS
330
1D1
102
}
330
1D1
100
DictionaryVariables
280
     0
  1
1
  0
DICTIONARYVAR
  5
D04
102
{ACAD_REACTORS
330
1D1
102
}
330
1D1
100
DictionaryVariables
280
     0
  1

  0
DICTIONARY
  5
2670
330
5A
100
AcDbDictionary
280
     1
281
     1
  3
ACAD_XREC_ROUNDTRIP
360
2671
  0
DICTIONARY
  5
2672
330
5B
100
AcDbDictionary
280
     1
281
     1
  3
ACAD_XREC_ROUNDTRIP
360
2673
  0
XRECORD
  5
2671
102
{ACAD_REACTORS
330
2670
102
}
330
2670
100
AcDbXrecord
280
     1
102
SHADEPLOT
 70
     0
102
SHADEPLOTRESLEVEL
 70
     2
102
SHADEPLOTCUSTOMDPI
 70
   300
  0
XRECORD
  5
2673
102
{ACAD_REACTORS
330
2672
102
}
330
2672
100
AcDbXrecord
280
     1
102
SHADEPLOT
 70
     0
102
SHADEPLOTRESLEVEL
 70
     2
102
SHADEPLOTCUSTOMDPI
 70
   300
  0
ENDSEC
  0
EOF
