  0
SECTION
  2
HEADER
  9
$ACADVER
  1
AC1015
  9
$ACADMAINTVER
 70
    20
  9
$DWGCODEPAGE
  3
ANSI_932
  9
$INSBASE
 10
922.019522
 20
-675.4306699999999
 30
0.0
  9
$EXTMIN
 10
-70.43032834395683
 20
-0.005978024701335
 30
-0.0000000000112498
  9
$EXTMAX
 10
152.4229176094817
 20
204.9155931017532
 30
0.0000000000002956
  9
$LIMMIN
 10
0.0
 20
0.0
  9
$LIMMAX
 10
420.0
 20
297.0
  9
$ORTHOMODE
 70
     1
  9
$REGENMODE
 70
     1
  9
$FILLMODE
 70
     1
  9
$QTEXTMODE
 70
     0
  9
$MIRRTEXT
 70
     1
  9
$LTSCALE
 40
1.0
  9
$ATTMODE
 70
     1
  9
$TEXTSIZE
 40
30.0
  9
$TRACEWID
 40
0.05
  9
$TEXTSTYLE
  7
SUNPOU
  9
$CLAYER
  8
0
  9
$CELTYPE
  6
BYLAYER
  9
$CECOLOR
 62
   256
  9
$CELTSCALE
 40
1.0
  9
$DISPSILH
 70
     0
  9
$DIMSCALE
 40
1.0
  9
$DIMASZ
 40
2.0
  9
$DIMEXO
 40
10.0
  9
$DIMDLI
 40
0.38
  9
$DIMRND
 40
0.0
  9
$DIMDLE
 40
0.0
  9
$DIMEXE
 40
0.0
  9
$DIMTP
 40
0.0
  9
$DIMTM
 40
0.0
  9
$DIMTXT
 40
10.0
  9
$DIMCEN
 40
0.0
  9
$DIMTSZ
 40
0.0
  9
$DIMTOL
 70
     0
  9
$DIMLIM
 70
     0
  9
$DIMTIH
 70
     0
  9
$DIMTOH
 70
     0
  9
$DIMSE1
 70
     0
  9
$DIMSE2
 70
     0
  9
$DIMTAD
 70
     1
  9
$DIMZIN
 70
     0
  9
$DIMBLK
  1
Dot
  9
$DIMASO
 70
     1
  9
$DIMSHO
 70
     1
  9
$DIMPOST
  1

  9
$DIMAPOST
  1

  9
$DIMALT
 70
     0
  9
$DIMALTD
 70
     2
  9
$DIMALTF
 40
25.4
  9
$DIMLFAC
 40
1.0
  9
$DIMTOFL
 70
     0
  9
$DIMTVP
 40
0.0
  9
$DIMTIX
 70
     0
  9
$DIMSOXD
 70
     0
  9
$DIMSAH
 70
     0
  9
$DIMBLK1
  1

  9
$DIMBLK2
  1

  9
$DIMSTYLE
  2
STANDARD
  9
$DIMCLRD
 70
    60
  9
$DIMCLRE
 70
    70
  9
$DIMCLRT
 70
    60
  9
$DIMTFAC
 40
0.064286
  9
$DIMGAP
 40
3.0
  9
$DIMJUST
 70
     0
  9
$DIMSD1
 70
     0
  9
$DIMSD2
 70
     0
  9
$DIMTOLJ
 70
     1
  9
$DIMTZIN
 70
     0
  9
$DIMALTZ
 70
     0
  9
$DIMALTTZ
 70
     0
  9
$DIMUPT
 70
     0
  9
$DIMDEC
 70
     0
  9
$DIMTDEC
 70
     0
  9
$DIMALTU
 70
     2
  9
$DIMALTTD
 70
     2
  9
$DIMTXSTY
  7
SUNPOU
  9
$DIMAUNIT
 70
     0
  9
$DIMADEC
 70
     0
  9
$DIMALTRND
 40
0.0
  9
$DIMAZIN
 70
     0
  9
$DIMDSEP
 70
    46
  9
$DIMATFIT
 70
     3
  9
$DIMFRAC
 70
     0
  9
$DIMLDRBLK
  1

  9
$DIMLUNIT
 70
     2
  9
$DIMLWD
 70
    -2
  9
$DIMLWE
 70
    -2
  9
$DIMTMOVE
 70
     0
  9
$LUNITS
 70
     2
  9
$LUPREC
 70
     5
  9
$SKETCHINC
 40
0.1
  9
$FILLETRAD
 40
0.0
  9
$AUNITS
 70
     0
  9
$AUPREC
 70
     0
  9
$MENU
  1
acad
  9
$ELEVATION
 40
0.0
  9
$PELEVATION
 40
0.0
  9
$THICKNESS
 40
0.0
  9
$LIMCHECK
 70
     0
  9
$CHAMFERA
 40
0.0
  9
$CHAMFERB
 40
0.0
  9
$CHAMFERC
 40
0.0
  9
$CHAMFERD
 40
0.0
  9
$SKPOLY
 70
     0
  9
$TDCREATE
 40
2450623.654673033
  9
$TDUCREATE
 40
2450623.279673032
  9
$TDUPDATE
 40
2453858.411381273
  9
$TDUUPDATE
 40
2453858.036381273
  9
$TDINDWG
 40
0.0661836574
  9
$TDUSRTIMER
 40
0.0661834838
  9
$USRTIMER
 70
     1
  9
$ANGBASE
 50
0.0
  9
$ANGDIR
 70
     0
  9
$PDMODE
 70
     0
  9
$PDSIZE
 40
0.0
  9
$PLINEWID
 40
0.0
  9
$SPLFRAME
 70
     0
  9
$SPLINETYPE
 70
     6
  9
$SPLINESEGS
 70
     8
  9
$HANDSEED
  5
2115
  9
$SURFTAB1
 70
     6
  9
$SURFTAB2
 70
     6
  9
$SURFTYPE
 70
     6
  9
$SURFU
 70
     6
  9
$SURFV
 70
     6
  9
$UCSBASE
  2

  9
$UCSNAME
  2

  9
$UCSORG
 10
0.0
 20
0.0
 30
0.0
  9
$UCSXDIR
 10
1.0
 20
0.0
 30
0.0
  9
$UCSYDIR
 10
0.0
 20
1.0
 30
0.0
  9
$UCSORTHOREF
  2

  9
$UCSORTHOVIEW
 70
     0
  9
$UCSORGTOP
 10
0.0
 20
0.0
 30
0.0
  9
$UCSORGBOTTOM
 10
0.0
 20
0.0
 30
0.0
  9
$UCSORGLEFT
 10
0.0
 20
0.0
 30
0.0
  9
$UCSORGRIGHT
 10
0.0
 20
0.0
 30
0.0
  9
$UCSORGFRONT
 10
0.0
 20
0.0
 30
0.0
  9
$UCSORGBACK
 10
0.0
 20
0.0
 30
0.0
  9
$PUCSBASE
  2

  9
$PUCSNAME
  2

  9
$PUCSORG
 10
0.0
 20
0.0
 30
0.0
  9
$PUCSXDIR
 10
1.0
 20
0.0
 30
0.0
  9
$PUCSYDIR
 10
0.0
 20
1.0
 30
0.0
  9
$PUCSORTHOREF
  2

  9
$PUCSORTHOVIEW
 70
     0
  9
$PUCSORGTOP
 10
0.0
 20
0.0
 30
0.0
  9
$PUCSORGBOTTOM
 10
0.0
 20
0.0
 30
0.0
  9
$PUCSORGLEFT
 10
0.0
 20
0.0
 30
0.0
  9
$PUCSORGRIGHT
 10
0.0
 20
0.0
 30
0.0
  9
$PUCSORGFRONT
 10
0.0
 20
0.0
 30
0.0
  9
$PUCSORGBACK
 10
0.0
 20
0.0
 30
0.0
  9
$USERI1
 70
     0
  9
$USERI2
 70
     0
  9
$USERI3
 70
     0
  9
$USERI4
 70
     0
  9
$USERI5
 70
     0
  9
$USERR1
 40
0.0
  9
$USERR2
 40
0.0
  9
$USERR3
 40
0.0
  9
$USERR4
 40
0.0
  9
$USERR5
 40
0.0
  9
$WORLDVIEW
 70
     1
  9
$SHADEDGE
 70
     3
  9
$SHADEDIF
 70
    70
  9
$TILEMODE
 70
     1
  9
$MAXACTVP
 70
    16
  9
$PINSBASE
 10
0.0
 20
0.0
 30
0.0
  9
$PLIMCHECK
 70
     0
  9
$PEXTMIN
 10
1.000000000000000E+20
 20
1.000000000000000E+20
 30
1.000000000000000E+20
  9
$PEXTMAX
 10
-1.000000000000000E+20
 20
-1.000000000000000E+20
 30
-1.000000000000000E+20
  9
$PLIMMIN
 10
0.0
 20
0.0
  9
$PLIMMAX
 10
12.0
 20
9.0
  9
$UNITMODE
 70
     0
  9
$VISRETAIN
 70
     0
  9
$PLINEGEN
 70
     0
  9
$PSLTSCALE
 70
     1
  9
$TREEDEPTH
 70
  3020
  9
$CMLSTYLE
  2
STANDARD
  9
$CMLJUST
 70
     0
  9
$CMLSCALE
 40
1.0
  9
$PROXYGRAPHICS
 70
     1
  9
$MEASUREMENT
 70
     0
  9
$CELWEIGHT
370
    -1
  9
$ENDCAPS
280
     0
  9
$JOINSTYLE
280
     0
  9
$LWDISPLAY
290
     0
  9
$INSUNITS
 70
     0
  9
$HYPERLINKBASE
  1

  9
$STYLESHEET
  1

  9
$XEDIT
290
     1
  9
$CEPSNTYPE
380
     0
  9
$PSTYLEMODE
290
     1
  9
$FINGERPRINTGUID
  2
{FB88A696-E29C-4009-92AF-A3599A8169D5}
  9
$VERSIONGUID
  2
{53962331-65E2-4BC4-9C76-5D59A34C52AA}
  9
$EXTNAMES
290
     1
  9
$PSVPSCALE
 40
0.0
  9
$OLESTARTUP
290
     0
  0
ENDSEC
  0
SECTION
  2
CLASSES
  0
CLASS
  1
DICTIONARYVAR
  2
AcDbDictionaryVar
  3
ObjectDBX Classes
 90
        0
280
     0
281
     0
  0
CLASS
  1
ACDBDICTIONARYWDFLT
  2
AcDbDictionaryWithDefault
  3
ObjectDBX Classes
 90
        0
280
     0
281
     0
  0
CLASS
  1
ACDBPLACEHOLDER
  2
AcDbPlaceHolder
  3
ObjectDBX Classes
 90
        0
280
     0
281
     0
  0
CLASS
  1
LAYOUT
  2
AcDbLayout
  3
ObjectDBX Classes
 90
        0
280
     0
281
     0
  0
CLASS
  1
TABLESTYLE
  2
AcDbTableStyle
  3
ObjectDBX Classes
 90
     2047
280
     0
281
     0
  0
CLASS
  1
SORTENTSTABLE
  2
AcDbSortentsTable
  3
ObjectDBX Classes
 90
        0
280
     0
281
     0
  0
ENDSEC
  0
SECTION
  2
TABLES
  0
TABLE
  2
VPORT
  5
12
330
0
100
AcDbSymbolTable
 70
    16
  0
VPORT
  5
210F
330
12
100
AcDbSymbolTableRecord
100
AcDbViewportTableRecord
  2
*Active
 70
     0
 10
0.0
 20
0.0
 11
1.0
 21
1.0
 12
40.99629463276242
 22
102.4548075385259
 13
0.0
 23
0.0
 14
1.0
 24
1.0
 15
0.0
 25
0.0
 16
0.0
 26
0.0
 36
1.0
 17
0.0
 27
0.0
 37
0.0
 40
206.4918513649714
 41
1.557544757033248
 42
50.0
 43
0.0
 44
0.0
 50
0.0
 51
0.0
 71
     0
 72
 20000
 73
     1
 74
     1
 75
     0
 76
     0
 77
     0
 78
     0
281
     0
 65
     1
110
0.0
120
0.0
130
0.0
111
1.0
121
0.0
131
0.0
112
0.0
122
1.0
132
0.0
 79
     0
146
0.0
  0
ENDTAB
  0
TABLE
  2
LTYPE
  5
D
330
0
100
AcDbSymbolTable
 70
     2
  0
LTYPE
  5
E
330
D
100
AcDbSymbolTableRecord
100
AcDbLinetypeTableRecord
  2
BYBLOCK
 70
     0
  3

 72
    65
 73
     0
 40
0.0
  0
LTYPE
  5
F
330
D
100
AcDbSymbolTableRecord
100
AcDbLinetypeTableRecord
  2
BYLAYER
 70
     0
  3

 72
    65
 73
     0
 40
0.0
  0
LTYPE
  5
5
330
D
100
AcDbSymbolTableRecord
100
AcDbLinetypeTableRecord
  2
CONTINUOUS
 70
     0
  3
Solid line
 72
    65
 73
     0
 40
0.0
  0
ENDTAB
  0
TABLE
  2
LAYER
  5
A
102
{ACAD_XDICTIONARY
360
1B4
102
}
330
0
100
AcDbSymbolTable
 70
     6
  0
LAYER
  5
4
330
A
100
AcDbSymbolTableRecord
100
AcDbLayerTableRecord
  2
0
 70
     0
 62
     7
  6
CONTINUOUS
370
    -3
390
57
  0
LAYER
  5
25
330
A
100
AcDbSymbolTableRecord
100
AcDbLayerTableRecord
  2
KIJUN
 70
     0
 62
     7
  6
CONTINUOUS
370
    -3
390
57
  0
LAYER
  5
22
330
A
100
AcDbSymbolTableRecord
100
AcDbLayerTableRecord
  2
HOJO
 70
     0
 62
     3
  6
CONTINUOUS
370
    -3
390
57
  0
LAYER
  5
1B
330
A
100
AcDbSymbolTableRecord
100
AcDbLayerTableRecord
  2
WAKU
 70
     0
 62
     1
  6
CONTINUOUS
370
    -3
390
57
  0
LAYER
  5
31
330
A
100
AcDbSymbolTableRecord
100
AcDbLayerTableRecord
  2
DEFPOINTS
 70
     0
 62
     7
  6
CONTINUOUS
290
     0
370
    -3
390
57
  0
LAYER
  5
28
330
A
100
AcDbSymbolTableRecord
100
AcDbLayerTableRecord
  2
SUNPOU
 70
     0
 62
    70
  6
CONTINUOUS
370
    -3
390
57
  0
ENDTAB
  0
TABLE
  2
STYLE
  5
B
330
0
100
AcDbSymbolTable
 70
     3
  0
STYLE
  5
C
330
B
100
AcDbSymbolTableRecord
100
AcDbTextStyleTableRecord
  2
STANDARD
 70
     0
 40
0.0
 41
1.0
 50
0.0
 71
     0
 42
0.2
  3
txt
  4

  0
STYLE
  5
1C
330
B
100
AcDbSymbolTableRecord
100
AcDbTextStyleTableRecord
  2
SUNPOU
 70
     0
 40
0.0
 41
1.0
 50
0.0
 71
     0
 42
30.0
  3
txt
  4
bigfont
  0
STYLE
  5
14A
330
B
100
AcDbSymbolTableRecord
100
AcDbTextStyleTableRecord
  2
LIFE
 70
     0
 40
0.0
 41
0.7
 50
0.0
 71
     0
 42
10.0
  3
romans
  4
extfont
  0
ENDTAB
  0
TABLE
  2
VIEW
  5
10
330
0
100
AcDbSymbolTable
 70
     0
  0
ENDTAB
  0
TABLE
  2
UCS
  5
11
330
0
100
AcDbSymbolTable
 70
     0
  0
ENDTAB
  0
TABLE
  2
APPID
  5
14
330
0
100
AcDbSymbolTable
 70
    10
  0
APPID
  5
15
330
14
100
AcDbSymbolTableRecord
100
AcDbRegAppTableRecord
  2
ACAD
 70
     0
  0
APPID
  5
1D3
330
14
100
AcDbSymbolTableRecord
100
AcDbRegAppTableRecord
  2
ACAD_DSTYLE_DIMTEXT_FILL
 70
     0
  0
APPID
  5
1D4
330
14
100
AcDbSymbolTableRecord
100
AcDbRegAppTableRecord
  2
ACAD_DSTYLE_DIMEXT_LENGTH
 70
     0
  0
APPID
  5
1D5
330
14
100
AcDbSymbolTableRecord
100
AcDbRegAppTableRecord
  2
ACAD_DSTYLE_DIMEXT_ENABLED
 70
     0
  0
APPID
  5
1D6
330
14
100
AcDbSymbolTableRecord
100
AcDbRegAppTableRecord
  2
ACAD_DSTYLE_DIM_LINETYPE
 70
     0
  0
APPID
  5
1D7
330
14
100
AcDbSymbolTableRecord
100
AcDbRegAppTableRecord
  2
ACAD_DSTYLE_DIM_EXT1_LINETYPE
 70
     0
  0
APPID
  5
1D8
330
14
100
AcDbSymbolTableRecord
100
AcDbRegAppTableRecord
  2
ACAD_DSTYLE_DIM_EXT2_LINETYPE
 70
     0
  0
APPID
  5
294
330
14
100
AcDbSymbolTableRecord
100
AcDbRegAppTableRecord
  2
ACAD_DSTYLE_DIMJOGGED_JOGANGLE_SYMBOL
 70
     0
  0
APPID
  5
478
330
14
100
AcDbSymbolTableRecord
100
AcDbRegAppTableRecord
  2
ACAD_DSTYLE_DIMARC_LENGTH_SYMBOL
 70
     0
  0
APPID
  5
157B
330
14
100
AcDbSymbolTableRecord
100
AcDbRegAppTableRecord
  2
ACAD_EXEMPT_FROM_CAD_STANDARDS
 70
     0
  0
ENDTAB
  0
TABLE
  2
DIMSTYLE
  5
16
330
0
100
AcDbSymbolTable
 70
     2
100
AcDbDimStyleTable
 71
     1
340
1E
  0
DIMSTYLE
105
1E
102
{ACAD_REACTORS
330
209C
330
20A9
102
}
330
16
100
AcDbSymbolTableRecord
100
AcDbDimStyleTableRecord
  2
STANDARD
 70
     0
340
C
  0
ENDTAB
  0
TABLE
  2
BLOCK_RECORD
  5
1
330
0
100
AcDbSymbolTable
 70
    35
  0
BLOCK_RECORD
  5
2
102
{ACAD_XDICTIONARY
360
1578
102
}
330
1
100
AcDbSymbolTableRecord
100
AcDbBlockTableRecord
  2
*MODEL_SPACE
340
5A
  0
BLOCK_RECORD
  5
7
330
1
100
AcDbSymbolTableRecord
100
AcDbBlockTableRecord
  2
*PAPER_SPACE
340
5B
  0
BLOCK_RECORD
  5
109
330
1
100
AcDbSymbolTableRecord
100
AcDbBlockTableRecord
  2
_Dot
340
0
102
{BLKREFS
331
993
331
994
331
CF6
331
CF7
331
15B9
331
15BA
331
15CB
331
15CC
331
1664
331
1665
331
1686
331
1687
331
1818
331
1819
331
1821
331
1822
331
18DE
331
18DF
331
18E7
331
18E8
331
19C4
331
19C5
331
19DF
331
19E0
331
1F7B
331
1F7C
331
1F84
331
1F85
331
20F9
331
20FA
331
2102
331
2103
102
}
  0
BLOCK_RECORD
  5
CDE
330
1
100
AcDbSymbolTableRecord
100
AcDbBlockTableRecord
  2
*D4
340
0
  0
BLOCK_RECORD
  5
D0B
330
1
100
AcDbSymbolTableRecord
100
AcDbBlockTableRecord
  2
*X5
340
0
102
{BLKREFS
331
EFD
102
}
  0
BLOCK_RECORD
  5
1582
330
1
100
AcDbSymbolTableRecord
100
AcDbBlockTableRecord
  2
*D8
340
0
  0
BLOCK_RECORD
  5
158F
330
1
100
AcDbSymbolTableRecord
100
AcDbBlockTableRecord
  2
*D9
340
0
  0
BLOCK_RECORD
  5
1660
330
1
100
AcDbSymbolTableRecord
100
AcDbBlockTableRecord
  2
*D11
340
0
  0
BLOCK_RECORD
  5
1676
330
1
100
AcDbSymbolTableRecord
100
AcDbBlockTableRecord
  2
*D12
340
0
  0
BLOCK_RECORD
  5
1698
330
1
100
AcDbSymbolTableRecord
100
AcDbBlockTableRecord
  2
*X13
340
0
102
{BLKREFS
331
1728
102
}
  0
BLOCK_RECORD
  5
169E
330
1
100
AcDbSymbolTableRecord
100
AcDbBlockTableRecord
  2
*X14
340
0
102
{BLKREFS
331
1712
102
}
  0
BLOCK_RECORD
  5
17BD
330
1
100
AcDbSymbolTableRecord
100
AcDbBlockTableRecord
  2
*D16
340
0
  0
BLOCK_RECORD
  5
17CA
330
1
100
AcDbSymbolTableRecord
100
AcDbBlockTableRecord
  2
*D17
340
0
  0
BLOCK_RECORD
  5
1898
330
1
100
AcDbSymbolTableRecord
100
AcDbBlockTableRecord
  2
*D19
340
0
  0
BLOCK_RECORD
  5
18A5
330
1
100
AcDbSymbolTableRecord
100
AcDbBlockTableRecord
  2
*D20
340
0
  0
BLOCK_RECORD
  5
197E
330
1
100
AcDbSymbolTableRecord
100
AcDbBlockTableRecord
  2
*D22
340
0
  0
BLOCK_RECORD
  5
198B
330
1
100
AcDbSymbolTableRecord
100
AcDbBlockTableRecord
  2
*D23
340
0
  0
BLOCK_RECORD
  5
19F2
330
1
100
AcDbSymbolTableRecord
100
AcDbBlockTableRecord
  2
*X24
340
0
102
{BLKREFS
331
1E33
102
}
  0
BLOCK_RECORD
  5
1A93
330
1
100
AcDbSymbolTableRecord
100
AcDbBlockTableRecord
  2
*X25
340
0
102
{BLKREFS
331
1E32
102
}
  0
BLOCK_RECORD
  5
1C94
330
1
100
AcDbSymbolTableRecord
100
AcDbBlockTableRecord
  2
*X26
340
0
102
{BLKREFS
331
1E59
102
}
  0
BLOCK_RECORD
  5
1CF5
330
1
100
AcDbSymbolTableRecord
100
AcDbBlockTableRecord
  2
*X27
340
0
102
{BLKREFS
331
1E24
102
}
  0
BLOCK_RECORD
  5
1D79
330
1
100
AcDbSymbolTableRecord
100
AcDbBlockTableRecord
  2
*X28
340
0
102
{BLKREFS
331
1E07
102
}
  0
BLOCK_RECORD
  5
1F41
330
1
100
AcDbSymbolTableRecord
100
AcDbBlockTableRecord
  2
*D30
340
0
  0
BLOCK_RECORD
  5
1F4E
330
1
100
AcDbSymbolTableRecord
100
AcDbBlockTableRecord
  2
*D31
340
0
  0
BLOCK_RECORD
  5
209D
330
1
100
AcDbSymbolTableRecord
100
AcDbBlockTableRecord
  2
*D33
340
0
  0
BLOCK_RECORD
  5
20AA
330
1
100
AcDbSymbolTableRecord
100
AcDbBlockTableRecord
  2
*D34
340
0
  0
ENDTAB
  0
ENDSEC
  0
SECTION
  2
BLOCKS
  0
BLOCK
  5
3
330
2
100
AcDbEntity
  8
0
100
AcDbBlockBegin
  2
*MODEL_SPACE
 70
     0
 10
0.0
 20
0.0
 30
0.0
  3
*MODEL_SPACE
  1

  0
ENDBLK
  5
6
330
2
100
AcDbEntity
  8
0
100
AcDbBlockEnd
  0
BLOCK
  5
8
330
7
100
AcDbEntity
 67
     1
  8
0
100
AcDbBlockBegin
  2
*PAPER_SPACE
 70
     0
 10
0.0
 20
0.0
 30
0.0
  3
*PAPER_SPACE
  1

  0
ENDBLK
  5
9
330
7
100
AcDbEntity
 67
     1
  8
0
100
AcDbBlockEnd
  0
BLOCK
  5
10C
330
109
100
AcDbEntity
  8
0
100
AcDbBlockBegin
  2
_Dot
 70
     0
 10
0.0
 20
0.0
 30
0.0
  3
_Dot
  1

  0
LWPOLYLINE
  5
10A
330
109
100
AcDbEntity
  8
0
  6
ByBlock
 62
     0
100
AcDbPolyline
 90
        2
 70
     1
 43
0.5
 10
-0.25
 20
0.0
 42
1.0
 10
0.25
 20
0.0
 42
1.0
  0
LINE
  5
10B
330
109
100
AcDbEntity
  8
0
  6
ByBlock
 62
     0
370
    -2
100
AcDbLine
 10
-0.5
 20
0.0
 30
0.0
 11
-1.0
 21
0.0
 31
0.0
  0
ENDBLK
  5
10D
330
109
100
AcDbEntity
  8
0
100
AcDbBlockEnd
  0
BLOCK
  5
CE8
330
CDE
100
AcDbEntity
  8
0
100
AcDbBlockBegin
  2
*D4
 70
     1
 10
0.0
 20
0.0
 30
0.0
  3
*D4
  1

  0
LINE
  5
CF3
330
CDE
100
AcDbEntity
  8
SUNPOU
 62
    70
370
    -2
100
AcDbLine
 10
30.13153620038668
 20
94.24654640442486
 30
0.0
 11
30.13153620038668
 21
134.3577586605915
 31
0.0
  0
LINE
  5
CF4
330
CDE
100
AcDbEntity
  8
SUNPOU
 62
    70
370
    -2
100
AcDbLine
 10
100.1315362003867
 20
94.24654640442486
 30
0.0
 11
100.1315362003867
 21
134.3577586605915
 31
0.0
  0
LINE
  5
CF5
330
CDE
100
AcDbEntity
  8
SUNPOU
 62
    60
370
    -2
100
AcDbLine
 10
32.13153620038668
 20
134.3577586605915
 30
0.0
 11
98.13153620038669
 21
134.3577586605915
 31
0.0
  0
INSERT
  5
CF6
330
CDE
100
AcDbEntity
  8
SUNPOU
 62
    60
370
    -2
100
AcDbBlockReference
  2
_Dot
 10
30.13153620038668
 20
134.3577586605915
 30
0.0
 41
2.0
 42
2.0
 43
2.0
 50
180.0
  0
INSERT
  5
CF7
330
CDE
100
AcDbEntity
  8
SUNPOU
 62
    60
370
    -2
100
AcDbBlockReference
  2
_Dot
 10
100.1315362003867
 20
134.3577586605915
 30
0.0
 41
2.0
 42
2.0
 43
2.0
  0
MTEXT
  5
CF8
330
CDE
100
AcDbEntity
  8
SUNPOU
 62
    60
100
AcDbMText
 10
65.13153620038668
 20
139.8577586605915
 30
0.0
 40
5.0
 41
0.0
 71
     5
 72
     1
  1
\A1;70φ
  7
SUNPOU
 73
     1
 44
1.0
1001
ACAD
1000
MTEXTBEGIN
1070
    73
1070
     1
1070
    44
1040
1.0
1070
    74
1070
     0
1000
MTEXTEND
  0
POINT
  5
CF9
330
CDE
100
AcDbEntity
  8
DEFPOINTS
 62
     0
100
AcDbPoint
 10
30.13153620038668
 20
84.24654640442486
 30
0.0
  0
POINT
  5
CFA
330
CDE
100
AcDbEntity
  8
DEFPOINTS
 62
     0
100
AcDbPoint
 10
100.1315362003867
 20
84.24654640442486
 30
0.0
  0
POINT
  5
CFB
330
CDE
100
AcDbEntity
  8
DEFPOINTS
 62
     0
100
AcDbPoint
 10
100.1315362003867
 20
134.3577586605915
 30
0.0
  0
ENDBLK
  5
CE9
330
CDE
100
AcDbEntity
  8
0
100
AcDbBlockEnd
  0
BLOCK
  5
D0C
330
D0B
100
AcDbEntity
  8
0
100
AcDbBlockBegin
  2
*X5
 70
     1
 10
0.0
 20
0.0
 30
0.0
  3
*X5
  1

  0
LINE
  5
D0D
330
D0B
100
AcDbEntity
  8
0
 62
     0
100
AcDbLine
 10
956.3529484292958
 20
3026.170224609318
 30
0.0
 11
956.3529484292958
 21
3026.170224609318
 31
0.0
  0
LINE
  5
D0E
330
D0B
100
AcDbEntity
  8
0
 62
     0
100
AcDbLine
 10
951.3529484292957
 20
3026.170224609318
 30
0.0
 11
951.3529484292957
 21
3026.170224609318
 31
0.0
  0
LINE
  5
D0F
330
D0B
100
AcDbEntity
  8
0
 62
     0
100
AcDbLine
 10
946.3529484292958
 20
3026.170224609318
 30
0.0
 11
946.3529484292958
 21
3026.170224609318
 31
0.0
  0
LINE
  5
D10
330
D0B
100
AcDbEntity
  8
0
 62
     0
100
AcDbLine
 10
886.3529484292957
 20
3026.170224609318
 30
0.0
 11
886.3529484292957
 21
3026.170224609318
 31
0.0
  0
LINE
  5
D11
330
D0B
100
AcDbEntity
  8
0
 62
     0
100
AcDbLine
 10
881.3529484292958
 20
3026.170224609318
 30
0.0
 11
881.3529484292958
 21
3026.170224609318
 31
0.0
  0
LINE
  5
D12
330
D0B
100
AcDbEntity
  8
0
 62
     0
100
AcDbLine
 10
876.3529484292957
 20
3026.170224609318
 30
0.0
 11
876.3529484292957
 21
3026.170224609318
 31
0.0
  0
LINE
  5
D13
330
D0B
100
AcDbEntity
  8
0
 62
     0
100
AcDbLine
 10
918.8529484292958
 20
3031.170224609319
 30
0.0
 11
918.8529484292958
 21
3031.170224609319
 31
0.0
  0
LINE
  5
D14
330
D0B
100
AcDbEntity
  8
0
 62
     0
100
AcDbLine
 10
913.8529484292957
 20
3031.170224609319
 30
0.0
 11
913.8529484292957
 21
3031.170224609319
 31
0.0
  0
LINE
  5
D15
330
D0B
100
AcDbEntity
  8
0
 62
     0
100
AcDbLine
 10
963.8529484292957
 20
3031.170224609319
 30
0.0
 11
963.8529484292957
 21
3031.170224609319
 31
0.0
  0
LINE
  5
D16
330
D0B
100
AcDbEntity
  8
0
 62
     0
100
AcDbLine
 10
958.8529484292958
 20
3031.170224609319
 30
0.0
 11
958.8529484292958
 21
3031.170224609319
 31
0.0
  0
LINE
  5
D17
330
D0B
100
AcDbEntity
  8
0
 62
     0
100
AcDbLine
 10
953.8529484292958
 20
3031.170224609319
 30
0.0
 11
953.8529484292958
 21
3031.170224609319
 31
0.0
  0
LINE
  5
D18
330
D0B
100
AcDbEntity
  8
0
 62
     0
100
AcDbLine
 10
948.8529484292957
 20
3031.170224609319
 30
0.0
 11
948.8529484292957
 21
3031.170224609319
 31
0.0
  0
LINE
  5
D19
330
D0B
100
AcDbEntity
  8
0
 62
     0
100
AcDbLine
 10
943.8529484292958
 20
3031.170224609319
 30
0.0
 11
943.8529484292958
 21
3031.170224609319
 31
0.0
  0
LINE
  5
D1A
330
D0B
100
AcDbEntity
  8
0
 62
     0
100
AcDbLine
 10
938.8529484292957
 20
3031.170224609319
 30
0.0
 11
938.8529484292957
 21
3031.170224609319
 31
0.0
  0
LINE
  5
D1B
330
D0B
100
AcDbEntity
  8
0
 62
     0
100
AcDbLine
 10
933.8529484292958
 20
3031.170224609319
 30
0.0
 11
933.8529484292958
 21
3031.170224609319
 31
0.0
  0
LINE
  5
D1C
330
D0B
100
AcDbEntity
  8
0
 62
     0
100
AcDbLine
 10
893.8529484292958
 20
3031.170224609319
 30
0.0
 11
893.8529484292958
 21
3031.170224609319
 31
0.0
  0
LINE
  5
D1D
330
D0B
100
AcDbEntity
  8
0
 62
     0
100
AcDbLine
 10
888.8529484292957
 20
3031.170224609319
 30
0.0
 11
888.8529484292957
 21
3031.170224609319
 31
0.0
  0
LINE
  5
D1E
330
D0B
100
AcDbEntity
  8
0
 62
     0
100
AcDbLine
 10
883.8529484292958
 20
3031.170224609319
 30
0.0
 11
883.8529484292958
 21
3031.170224609319
 31
0.0
  0
LINE
  5
D1F
330
D0B
100
AcDbEntity
  8
0
 62
     0
100
AcDbLine
 10
878.8529484292958
 20
3031.170224609319
 30
0.0
 11
878.8529484292958
 21
3031.170224609319
 31
0.0
  0
LINE
  5
D20
330
D0B
100
AcDbEntity
  8
0
 62
     0
100
AcDbLine
 10
873.8529484292957
 20
3031.170224609319
 30
0.0
 11
873.8529484292957
 21
3031.170224609319
 31
0.0
  0
LINE
  5
D21
330
D0B
100
AcDbEntity
  8
0
 62
     0
100
AcDbLine
 10
868.8529484292958
 20
3031.170224609319
 30
0.0
 11
868.8529484292958
 21
3031.170224609319
 31
0.0
  0
LINE
  5
D22
330
D0B
100
AcDbEntity
  8
0
 62
     0
100
AcDbLine
 10
863.8529484292957
 20
3031.170224609319
 30
0.0
 11
863.8529484292957
 21
3031.170224609319
 31
0.0
  0
LINE
  5
D23
330
D0B
100
AcDbEntity
  8
0
 62
     0
100
AcDbLine
 10
921.3529484292958
 20
3036.170224609318
 30
0.0
 11
921.3529484292958
 21
3036.170224609318
 31
0.0
  0
LINE
  5
D24
330
D0B
100
AcDbEntity
  8
0
 62
     0
100
AcDbLine
 10
916.3529484292958
 20
3036.170224609318
 30
0.0
 11
916.3529484292958
 21
3036.170224609318
 31
0.0
  0
LINE
  5
D25
330
D0B
100
AcDbEntity
  8
0
 62
     0
100
AcDbLine
 10
911.3529484292957
 20
3036.170224609318
 30
0.0
 11
911.3529484292957
 21
3036.170224609318
 31
0.0
  0
LINE
  5
D26
330
D0B
100
AcDbEntity
  8
0
 62
     0
100
AcDbLine
 10
906.3529484292958
 20
3036.170224609318
 30
0.0
 11
906.3529484292958
 21
3036.170224609318
 31
0.0
  0
LINE
  5
D27
330
D0B
100
AcDbEntity
  8
0
 62
     0
100
AcDbLine
 10
971.3529484292958
 20
3036.170224609318
 30
0.0
 11
971.3529484292958
 21
3036.170224609318
 31
0.0
  0
LINE
  5
D28
330
D0B
100
AcDbEntity
  8
0
 62
     0
100
AcDbLine
 10
966.3529484292958
 20
3036.170224609318
 30
0.0
 11
966.3529484292958
 21
3036.170224609318
 31
0.0
  0
LINE
  5
D29
330
D0B
100
AcDbEntity
  8
0
 62
     0
100
AcDbLine
 10
961.3529484292957
 20
3036.170224609318
 30
0.0
 11
961.3529484292957
 21
3036.170224609318
 31
0.0
  0
LINE
  5
D2A
330
D0B
100
AcDbEntity
  8
0
 62
     0
100
AcDbLine
 10
956.3529484292958
 20
3036.170224609318
 30
0.0
 11
956.3529484292958
 21
3036.170224609318
 31
0.0
  0
LINE
  5
D2B
330
D0B
100
AcDbEntity
  8
0
 62
     0
100
AcDbLine
 10
951.3529484292957
 20
3036.170224609318
 30
0.0
 11
951.3529484292957
 21
3036.170224609318
 31
0.0
  0
LINE
  5
D2C
330
D0B
100
AcDbEntity
  8
0
 62
     0
100
AcDbLine
 10
946.3529484292958
 20
3036.170224609318
 30
0.0
 11
946.3529484292958
 21
3036.170224609318
 31
0.0
  0
LINE
  5
D2D
330
D0B
100
AcDbEntity
  8
0
 62
     0
100
AcDbLine
 10
941.3529484292958
 20
3036.170224609318
 30
0.0
 11
941.3529484292958
 21
3036.170224609318
 31
0.0
  0
LINE
  5
D2E
330
D0B
100
AcDbEntity
  8
0
 62
     0
100
AcDbLine
 10
936.3529484292957
 20
3036.170224609318
 30
0.0
 11
936.3529484292957
 21
3036.170224609318
 31
0.0
  0
LINE
  5
D2F
330
D0B
100
AcDbEntity
  8
0
 62
     0
100
AcDbLine
 10
931.3529484292958
 20
3036.170224609318
 30
0.0
 11
931.3529484292958
 21
3036.170224609318
 31
0.0
  0
LINE
  5
D30
330
D0B
100
AcDbEntity
  8
0
 62
     0
100
AcDbLine
 10
926.3529484292957
 20
3036.170224609318
 30
0.0
 11
926.3529484292957
 21
3036.170224609318
 31
0.0
  0
LINE
  5
D31
330
D0B
100
AcDbEntity
  8
0
 62
     0
100
AcDbLine
 10
901.3529484292957
 20
3036.170224609318
 30
0.0
 11
901.3529484292957
 21
3036.170224609318
 31
0.0
  0
LINE
  5
D32
330
D0B
100
AcDbEntity
  8
0
 62
     0
100
AcDbLine
 10
896.3529484292958
 20
3036.170224609318
 30
0.0
 11
896.3529484292958
 21
3036.170224609318
 31
0.0
  0
LINE
  5
D33
330
D0B
100
AcDbEntity
  8
0
 62
     0
100
AcDbLine
 10
891.3529484292958
 20
3036.170224609318
 30
0.0
 11
891.3529484292958
 21
3036.170224609318
 31
0.0
  0
LINE
  5
D34
330
D0B
100
AcDbEntity
  8
0
 62
     0
100
AcDbLine
 10
886.3529484292957
 20
3036.170224609318
 30
0.0
 11
886.3529484292957
 21
3036.170224609318
 31
0.0
  0
LINE
  5
D35
330
D0B
100
AcDbEntity
  8
0
 62
     0
100
AcDbLine
 10
881.3529484292958
 20
3036.170224609318
 30
0.0
 11
881.3529484292958
 21
3036.170224609318
 31
0.0
  0
LINE
  5
D36
330
D0B
100
AcDbEntity
  8
0
 62
     0
100
AcDbLine
 10
876.3529484292957
 20
3036.170224609318
 30
0.0
 11
876.3529484292957
 21
3036.170224609318
 31
0.0
  0
LINE
  5
D37
330
D0B
100
AcDbEntity
  8
0
 62
     0
100
AcDbLine
 10
871.3529484292958
 20
3036.170224609318
 30
0.0
 11
871.3529484292958
 21
3036.170224609318
 31
0.0
  0
LINE
  5
D38
330
D0B
100
AcDbEntity
  8
0
 62
     0
100
AcDbLine
 10
866.3529484292958
 20
3036.170224609318
 30
0.0
 11
866.3529484292958
 21
3036.170224609318
 31
0.0
  0
LINE
  5
D39
330
D0B
100
AcDbEntity
  8
0
 62
     0
100
AcDbLine
 10
861.3529484292957
 20
3036.170224609318
 30
0.0
 11
861.3529484292957
 21
3036.170224609318
 31
0.0
  0
LINE
  5
D3A
330
D0B
100
AcDbEntity
  8
0
 62
     0
100
AcDbLine
 10
856.3529484292958
 20
3036.170224609318
 30
0.0
 11
856.3529484292958
 21
3036.170224609318
 31
0.0
  0
LINE
  5
D3B
330
D0B
100
AcDbEntity
  8
0
 62
     0
100
AcDbLine
 10
973.8529484292957
 20
3041.170224609318
 30
0.0
 11
973.8529484292957
 21
3041.170224609318
 31
0.0
  0
LINE
  5
D3C
330
D0B
100
AcDbEntity
  8
0
 62
     0
100
AcDbLine
 10
968.8529484292958
 20
3041.170224609318
 30
0.0
 11
968.8529484292958
 21
3041.170224609318
 31
0.0
  0
LINE
  5
D3D
330
D0B
100
AcDbEntity
  8
0
 62
     0
100
AcDbLine
 10
963.8529484292957
 20
3041.170224609318
 30
0.0
 11
963.8529484292957
 21
3041.170224609318
 31
0.0
  0
LINE
  5
D3E
330
D0B
100
AcDbEntity
  8
0
 62
     0
100
AcDbLine
 10
958.8529484292958
 20
3041.170224609318
 30
0.0
 11
958.8529484292958
 21
3041.170224609318
 31
0.0
  0
LINE
  5
D3F
330
D0B
100
AcDbEntity
  8
0
 62
     0
100
AcDbLine
 10
953.8529484292958
 20
3041.170224609318
 30
0.0
 11
953.8529484292958
 21
3041.170224609318
 31
0.0
  0
LINE
  5
D40
330
D0B
100
AcDbEntity
  8
0
 62
     0
100
AcDbLine
 10
948.8529484292957
 20
3041.170224609318
 30
0.0
 11
948.8529484292957
 21
3041.170224609318
 31
0.0
  0
LINE
  5
D41
330
D0B
100
AcDbEntity
  8
0
 62
     0
100
AcDbLine
 10
943.8529484292958
 20
3041.170224609318
 30
0.0
 11
943.8529484292958
 21
3041.170224609318
 31
0.0
  0
LINE
  5
D42
330
D0B
100
AcDbEntity
  8
0
 62
     0
100
AcDbLine
 10
938.8529484292957
 20
3041.170224609318
 30
0.0
 11
938.8529484292957
 21
3041.170224609318
 31
0.0
  0
LINE
  5
D43
330
D0B
100
AcDbEntity
  8
0
 62
     0
100
AcDbLine
 10
933.8529484292958
 20
3041.170224609318
 30
0.0
 11
933.8529484292958
 21
3041.170224609318
 31
0.0
  0
LINE
  5
D44
330
D0B
100
AcDbEntity
  8
0
 62
     0
100
AcDbLine
 10
928.8529484292958
 20
3041.170224609318
 30
0.0
 11
928.8529484292958
 21
3041.170224609318
 31
0.0
  0
LINE
  5
D45
330
D0B
100
AcDbEntity
  8
0
 62
     0
100
AcDbLine
 10
923.8529484292957
 20
3041.170224609318
 30
0.0
 11
923.8529484292957
 21
3041.170224609318
 31
0.0
  0
LINE
  5
D46
330
D0B
100
AcDbEntity
  8
0
 62
     0
100
AcDbLine
 10
918.8529484292958
 20
3041.170224609318
 30
0.0
 11
918.8529484292958
 21
3041.170224609318
 31
0.0
  0
LINE
  5
D47
330
D0B
100
AcDbEntity
  8
0
 62
     0
100
AcDbLine
 10
913.8529484292957
 20
3041.170224609318
 30
0.0
 11
913.8529484292957
 21
3041.170224609318
 31
0.0
  0
LINE
  5
D48
330
D0B
100
AcDbEntity
  8
0
 62
     0
100
AcDbLine
 10
908.8529484292958
 20
3041.170224609318
 30
0.0
 11
908.8529484292958
 21
3041.170224609318
 31
0.0
  0
LINE
  5
D49
330
D0B
100
AcDbEntity
  8
0
 62
     0
100
AcDbLine
 10
903.8529484292958
 20
3041.170224609318
 30
0.0
 11
903.8529484292958
 21
3041.170224609318
 31
0.0
  0
LINE
  5
D4A
330
D0B
100
AcDbEntity
  8
0
 62
     0
100
AcDbLine
 10
898.8529484292957
 20
3041.170224609318
 30
0.0
 11
898.8529484292957
 21
3041.170224609318
 31
0.0
  0
LINE
  5
D4B
330
D0B
100
AcDbEntity
  8
0
 62
     0
100
AcDbLine
 10
893.8529484292958
 20
3041.170224609318
 30
0.0
 11
893.8529484292958
 21
3041.170224609318
 31
0.0
  0
LINE
  5
D4C
330
D0B
100
AcDbEntity
  8
0
 62
     0
100
AcDbLine
 10
888.8529484292957
 20
3041.170224609318
 30
0.0
 11
888.8529484292957
 21
3041.170224609318
 31
0.0
  0
LINE
  5
D4D
330
D0B
100
AcDbEntity
  8
0
 62
     0
100
AcDbLine
 10
883.8529484292958
 20
3041.170224609318
 30
0.0
 11
883.8529484292958
 21
3041.170224609318
 31
0.0
  0
LINE
  5
D4E
330
D0B
100
AcDbEntity
  8
0
 62
     0
100
AcDbLine
 10
878.8529484292958
 20
3041.170224609318
 30
0.0
 11
878.8529484292958
 21
3041.170224609318
 31
0.0
  0
LINE
  5
D4F
330
D0B
100
AcDbEntity
  8
0
 62
     0
100
AcDbLine
 10
873.8529484292957
 20
3041.170224609318
 30
0.0
 11
873.8529484292957
 21
3041.170224609318
 31
0.0
  0
LINE
  5
D50
330
D0B
100
AcDbEntity
  8
0
 62
     0
100
AcDbLine
 10
868.8529484292958
 20
3041.170224609318
 30
0.0
 11
868.8529484292958
 21
3041.170224609318
 31
0.0
  0
LINE
  5
D51
330
D0B
100
AcDbEntity
  8
0
 62
     0
100
AcDbLine
 10
863.8529484292957
 20
3041.170224609318
 30
0.0
 11
863.8529484292957
 21
3041.170224609318
 31
0.0
  0
LINE
  5
D52
330
D0B
100
AcDbEntity
  8
0
 62
     0
100
AcDbLine
 10
858.8529484292958
 20
3041.170224609318
 30
0.0
 11
858.8529484292958
 21
3041.170224609318
 31
0.0
  0
LINE
  5
D53
330
D0B
100
AcDbEntity
  8
0
 62
     0
100
AcDbLine
 10
853.8529484292958
 20
3041.170224609318
 30
0.0
 11
853.8529484292958
 21
3041.170224609318
 31
0.0
  0
LINE
  5
D54
330
D0B
100
AcDbEntity
  8
0
 62
     0
100
AcDbLine
 10
976.3529484292957
 20
3046.170224609318
 30
0.0
 11
976.3529484292957
 21
3046.170224609318
 31
0.0
  0
LINE
  5
D55
330
D0B
100
AcDbEntity
  8
0
 62
     0
100
AcDbLine
 10
971.3529484292958
 20
3046.170224609318
 30
0.0
 11
971.3529484292958
 21
3046.170224609318
 31
0.0
  0
LINE
  5
D56
330
D0B
100
AcDbEntity
  8
0
 62
     0
100
AcDbLine
 10
966.3529484292958
 20
3046.170224609318
 30
0.0
 11
966.3529484292958
 21
3046.170224609318
 31
0.0
  0
LINE
  5
D57
330
D0B
100
AcDbEntity
  8
0
 62
     0
100
AcDbLine
 10
961.3529484292957
 20
3046.170224609318
 30
0.0
 11
961.3529484292957
 21
3046.170224609318
 31
0.0
  0
LINE
  5
D58
330
D0B
100
AcDbEntity
  8
0
 62
     0
100
AcDbLine
 10
956.3529484292958
 20
3046.170224609318
 30
0.0
 11
956.3529484292958
 21
3046.170224609318
 31
0.0
  0
LINE
  5
D59
330
D0B
100
AcDbEntity
  8
0
 62
     0
100
AcDbLine
 10
951.3529484292957
 20
3046.170224609318
 30
0.0
 11
951.3529484292957
 21
3046.170224609318
 31
0.0
  0
LINE
  5
D5A
330
D0B
100
AcDbEntity
  8
0
 62
     0
100
AcDbLine
 10
946.3529484292958
 20
3046.170224609318
 30
0.0
 11
946.3529484292958
 21
3046.170224609318
 31
0.0
  0
LINE
  5
D5B
330
D0B
100
AcDbEntity
  8
0
 62
     0
100
AcDbLine
 10
941.3529484292958
 20
3046.170224609318
 30
0.0
 11
941.3529484292958
 21
3046.170224609318
 31
0.0
  0
LINE
  5
D5C
330
D0B
100
AcDbEntity
  8
0
 62
     0
100
AcDbLine
 10
936.3529484292957
 20
3046.170224609318
 30
0.0
 11
936.3529484292957
 21
3046.170224609318
 31
0.0
  0
LINE
  5
D5D
330
D0B
100
AcDbEntity
  8
0
 62
     0
100
AcDbLine
 10
931.3529484292958
 20
3046.170224609318
 30
0.0
 11
931.3529484292958
 21
3046.170224609318
 31
0.0
  0
LINE
  5
D5E
330
D0B
100
AcDbEntity
  8
0
 62
     0
100
AcDbLine
 10
926.3529484292957
 20
3046.170224609318
 30
0.0
 11
926.3529484292957
 21
3046.170224609318
 31
0.0
  0
LINE
  5
D5F
330
D0B
100
AcDbEntity
  8
0
 62
     0
100
AcDbLine
 10
921.3529484292958
 20
3046.170224609318
 30
0.0
 11
921.3529484292958
 21
3046.170224609318
 31
0.0
  0
LINE
  5
D60
330
D0B
100
AcDbEntity
  8
0
 62
     0
100
AcDbLine
 10
916.3529484292958
 20
3046.170224609318
 30
0.0
 11
916.3529484292958
 21
3046.170224609318
 31
0.0
  0
LINE
  5
D61
330
D0B
100
AcDbEntity
  8
0
 62
     0
100
AcDbLine
 10
911.3529484292957
 20
3046.170224609318
 30
0.0
 11
911.3529484292957
 21
3046.170224609318
 31
0.0
  0
LINE
  5
D62
330
D0B
100
AcDbEntity
  8
0
 62
     0
100
AcDbLine
 10
906.3529484292958
 20
3046.170224609318
 30
0.0
 11
906.3529484292958
 21
3046.170224609318
 31
0.0
  0
LINE
  5
D63
330
D0B
100
AcDbEntity
  8
0
 62
     0
100
AcDbLine
 10
901.3529484292957
 20
3046.170224609318
 30
0.0
 11
901.3529484292957
 21
3046.170224609318
 31
0.0
  0
LINE
  5
D64
330
D0B
100
AcDbEntity
  8
0
 62
     0
100
AcDbLine
 10
896.3529484292958
 20
3046.170224609318
 30
0.0
 11
896.3529484292958
 21
3046.170224609318
 31
0.0
  0
LINE
  5
D65
330
D0B
100
AcDbEntity
  8
0
 62
     0
100
AcDbLine
 10
891.3529484292958
 20
3046.170224609318
 30
0.0
 11
891.3529484292958
 21
3046.170224609318
 31
0.0
  0
LINE
  5
D66
330
D0B
100
AcDbEntity
  8
0
 62
     0
100
AcDbLine
 10
886.3529484292957
 20
3046.170224609318
 30
0.0
 11
886.3529484292957
 21
3046.170224609318
 31
0.0
  0
LINE
  5
D67
330
D0B
100
AcDbEntity
  8
0
 62
     0
100
AcDbLine
 10
881.3529484292958
 20
3046.170224609318
 30
0.0
 11
881.3529484292958
 21
3046.170224609318
 31
0.0
  0
LINE
  5
D68
330
D0B
100
AcDbEntity
  8
0
 62
     0
100
AcDbLine
 10
876.3529484292957
 20
3046.170224609318
 30
0.0
 11
876.3529484292957
 21
3046.170224609318
 31
0.0
  0
LINE
  5
D69
330
D0B
100
AcDbEntity
  8
0
 62
     0
100
AcDbLine
 10
871.3529484292958
 20
3046.170224609318
 30
0.0
 11
871.3529484292958
 21
3046.170224609318
 31
0.0
  0
LINE
  5
D6A
330
D0B
100
AcDbEntity
  8
0
 62
     0
100
AcDbLine
 10
866.3529484292958
 20
3046.170224609318
 30
0.0
 11
866.3529484292958
 21
3046.170224609318
 31
0.0
  0
LINE
  5
D6B
330
D0B
100
AcDbEntity
  8
0
 62
     0
100
AcDbLine
 10
861.3529484292957
 20
3046.170224609318
 30
0.0
 11
861.3529484292957
 21
3046.170224609318
 31
0.0
  0
LINE
  5
D6C
330
D0B
100
AcDbEntity
  8
0
 62
     0
100
AcDbLine
 10
856.3529484292958
 20
3046.170224609318
 30
0.0
 11
856.3529484292958
 21
3046.170224609318
 31
0.0
  0
LINE
  5
D6D
330
D0B
100
AcDbEntity
  8
0
 62
     0
100
AcDbLine
 10
851.3529484292957
 20
3046.170224609318
 30
0.0
 11
851.3529484292957
 21
3046.170224609318
 31
0.0
  0
LINE
  5
D6E
330
D0B
100
AcDbEntity
  8
0
 62
     0
100
AcDbLine
 10
978.8529484292958
 20
3051.170224609319
 30
0.0
 11
978.8529484292958
 21
3051.170224609319
 31
0.0
  0
LINE
  5
D6F
330
D0B
100
AcDbEntity
  8
0
 62
     0
100
AcDbLine
 10
973.8529484292957
 20
3051.170224609319
 30
0.0
 11
973.8529484292957
 21
3051.170224609319
 31
0.0
  0
LINE
  5
D70
330
D0B
100
AcDbEntity
  8
0
 62
     0
100
AcDbLine
 10
968.8529484292958
 20
3051.170224609319
 30
0.0
 11
968.8529484292958
 21
3051.170224609319
 31
0.0
  0
LINE
  5
D71
330
D0B
100
AcDbEntity
  8
0
 62
     0
100
AcDbLine
 10
963.8529484292957
 20
3051.170224609319
 30
0.0
 11
963.8529484292957
 21
3051.170224609319
 31
0.0
  0
LINE
  5
D72
330
D0B
100
AcDbEntity
  8
0
 62
     0
100
AcDbLine
 10
958.8529484292958
 20
3051.170224609319
 30
0.0
 11
958.8529484292958
 21
3051.170224609319
 31
0.0
  0
LINE
  5
D73
330
D0B
100
AcDbEntity
  8
0
 62
     0
100
AcDbLine
 10
953.8529484292958
 20
3051.170224609319
 30
0.0
 11
953.8529484292958
 21
3051.170224609319
 31
0.0
  0
LINE
  5
D74
330
D0B
100
AcDbEntity
  8
0
 62
     0
100
AcDbLine
 10
948.8529484292957
 20
3051.170224609319
 30
0.0
 11
948.8529484292957
 21
3051.170224609319
 31
0.0
  0
LINE
  5
D75
330
D0B
100
AcDbEntity
  8
0
 62
     0
100
AcDbLine
 10
943.8529484292958
 20
3051.170224609319
 30
0.0
 11
943.8529484292958
 21
3051.170224609319
 31
0.0
  0
LINE
  5
D76
330
D0B
100
AcDbEntity
  8
0
 62
     0
100
AcDbLine
 10
938.8529484292957
 20
3051.170224609319
 30
0.0
 11
938.8529484292957
 21
3051.170224609319
 31
0.0
  0
LINE
  5
D77
330
D0B
100
AcDbEntity
  8
0
 62
     0
100
AcDbLine
 10
933.8529484292958
 20
3051.170224609319
 30
0.0
 11
933.8529484292958
 21
3051.170224609319
 31
0.0
  0
LINE
  5
D78
330
D0B
100
AcDbEntity
  8
0
 62
     0
100
AcDbLine
 10
928.8529484292958
 20
3051.170224609319
 30
0.0
 11
928.8529484292958
 21
3051.170224609319
 31
0.0
  0
LINE
  5
D79
330
D0B
100
AcDbEntity
  8
0
 62
     0
100
AcDbLine
 10
923.8529484292957
 20
3051.170224609319
 30
0.0
 11
923.8529484292957
 21
3051.170224609319
 31
0.0
  0
LINE
  5
D7A
330
D0B
100
AcDbEntity
  8
0
 62
     0
100
AcDbLine
 10
918.8529484292958
 20
3051.170224609319
 30
0.0
 11
918.8529484292958
 21
3051.170224609319
 31
0.0
  0
LINE
  5
D7B
330
D0B
100
AcDbEntity
  8
0
 62
     0
100
AcDbLine
 10
913.8529484292957
 20
3051.170224609319
 30
0.0
 11
913.8529484292957
 21
3051.170224609319
 31
0.0
  0
LINE
  5
D7C
330
D0B
100
AcDbEntity
  8
0
 62
     0
100
AcDbLine
 10
908.8529484292958
 20
3051.170224609319
 30
0.0
 11
908.8529484292958
 21
3051.170224609319
 31
0.0
  0
LINE
  5
D7D
330
D0B
100
AcDbEntity
  8
0
 62
     0
100
AcDbLine
 10
903.8529484292958
 20
3051.170224609319
 30
0.0
 11
903.8529484292958
 21
3051.170224609319
 31
0.0
  0
LINE
  5
D7E
330
D0B
100
AcDbEntity
  8
0
 62
     0
100
AcDbLine
 10
898.8529484292957
 20
3051.170224609319
 30
0.0
 11
898.8529484292957
 21
3051.170224609319
 31
0.0
  0
LINE
  5
D7F
330
D0B
100
AcDbEntity
  8
0
 62
     0
100
AcDbLine
 10
893.8529484292958
 20
3051.170224609319
 30
0.0
 11
893.8529484292958
 21
3051.170224609319
 31
0.0
  0
LINE
  5
D80
330
D0B
100
AcDbEntity
  8
0
 62
     0
100
AcDbLine
 10
888.8529484292957
 20
3051.170224609319
 30
0.0
 11
888.8529484292957
 21
3051.170224609319
 31
0.0
  0
LINE
  5
D81
330
D0B
100
AcDbEntity
  8
0
 62
     0
100
AcDbLine
 10
883.8529484292958
 20
3051.170224609319
 30
0.0
 11
883.8529484292958
 21
3051.170224609319
 31
0.0
  0
LINE
  5
D82
330
D0B
100
AcDbEntity
  8
0
 62
     0
100
AcDbLine
 10
878.8529484292958
 20
3051.170224609319
 30
0.0
 11
878.8529484292958
 21
3051.170224609319
 31
0.0
  0
LINE
  5
D83
330
D0B
100
AcDbEntity
  8
0
 62
     0
100
AcDbLine
 10
873.8529484292957
 20
3051.170224609319
 30
0.0
 11
873.8529484292957
 21
3051.170224609319
 31
0.0
  0
LINE
  5
D84
330
D0B
100
AcDbEntity
  8
0
 62
     0
100
AcDbLine
 10
868.8529484292958
 20
3051.170224609319
 30
0.0
 11
868.8529484292958
 21
3051.170224609319
 31
0.0
  0
LINE
  5
D85
330
D0B
100
AcDbEntity
  8
0
 62
     0
100
AcDbLine
 10
863.8529484292957
 20
3051.170224609319
 30
0.0
 11
863.8529484292957
 21
3051.170224609319
 31
0.0
  0
LINE
  5
D86
330
D0B
100
AcDbEntity
  8
0
 62
     0
100
AcDbLine
 10
858.8529484292958
 20
3051.170224609319
 30
0.0
 11
858.8529484292958
 21
3051.170224609319
 31
0.0
  0
LINE
  5
D87
330
D0B
100
AcDbEntity
  8
0
 62
     0
100
AcDbLine
 10
853.8529484292958
 20
3051.170224609319
 30
0.0
 11
853.8529484292958
 21
3051.170224609319
 31
0.0
  0
LINE
  5
D88
330
D0B
100
AcDbEntity
  8
0
 62
     0
100
AcDbLine
 10
848.8529484292957
 20
3051.170224609319
 30
0.0
 11
848.8529484292957
 21
3051.170224609319
 31
0.0
  0
LINE
  5
D89
330
D0B
100
AcDbEntity
  8
0
 62
     0
100
AcDbLine
 10
981.3529484292958
 20
3056.170224609318
 30
0.0
 11
981.3529484292958
 21
3056.170224609318
 31
0.0
  0
LINE
  5
D8A
330
D0B
100
AcDbEntity
  8
0
 62
     0
100
AcDbLine
 10
976.3529484292957
 20
3056.170224609318
 30
0.0
 11
976.3529484292957
 21
3056.170224609318
 31
0.0
  0
LINE
  5
D8B
330
D0B
100
AcDbEntity
  8
0
 62
     0
100
AcDbLine
 10
971.3529484292958
 20
3056.170224609318
 30
0.0
 11
971.3529484292958
 21
3056.170224609318
 31
0.0
  0
LINE
  5
D8C
330
D0B
100
AcDbEntity
  8
0
 62
     0
100
AcDbLine
 10
966.3529484292958
 20
3056.170224609318
 30
0.0
 11
966.3529484292958
 21
3056.170224609318
 31
0.0
  0
LINE
  5
D8D
330
D0B
100
AcDbEntity
  8
0
 62
     0
100
AcDbLine
 10
961.3529484292957
 20
3056.170224609318
 30
0.0
 11
961.3529484292957
 21
3056.170224609318
 31
0.0
  0
LINE
  5
D8E
330
D0B
100
AcDbEntity
  8
0
 62
     0
100
AcDbLine
 10
956.3529484292958
 20
3056.170224609318
 30
0.0
 11
956.3529484292958
 21
3056.170224609318
 31
0.0
  0
LINE
  5
D8F
330
D0B
100
AcDbEntity
  8
0
 62
     0
100
AcDbLine
 10
951.3529484292957
 20
3056.170224609318
 30
0.0
 11
951.3529484292957
 21
3056.170224609318
 31
0.0
  0
LINE
  5
D90
330
D0B
100
AcDbEntity
  8
0
 62
     0
100
AcDbLine
 10
946.3529484292958
 20
3056.170224609318
 30
0.0
 11
946.3529484292958
 21
3056.170224609318
 31
0.0
  0
LINE
  5
D91
330
D0B
100
AcDbEntity
  8
0
 62
     0
100
AcDbLine
 10
941.3529484292958
 20
3056.170224609318
 30
0.0
 11
941.3529484292958
 21
3056.170224609318
 31
0.0
  0
LINE
  5
D92
330
D0B
100
AcDbEntity
  8
0
 62
     0
100
AcDbLine
 10
936.3529484292957
 20
3056.170224609318
 30
0.0
 11
936.3529484292957
 21
3056.170224609318
 31
0.0
  0
LINE
  5
D93
330
D0B
100
AcDbEntity
  8
0
 62
     0
100
AcDbLine
 10
931.3529484292958
 20
3056.170224609318
 30
0.0
 11
931.3529484292958
 21
3056.170224609318
 31
0.0
  0
LINE
  5
D94
330
D0B
100
AcDbEntity
  8
0
 62
     0
100
AcDbLine
 10
926.3529484292957
 20
3056.170224609318
 30
0.0
 11
926.3529484292957
 21
3056.170224609318
 31
0.0
  0
LINE
  5
D95
330
D0B
100
AcDbEntity
  8
0
 62
     0
100
AcDbLine
 10
921.3529484292958
 20
3056.170224609318
 30
0.0
 11
921.3529484292958
 21
3056.170224609318
 31
0.0
  0
LINE
  5
D96
330
D0B
100
AcDbEntity
  8
0
 62
     0
100
AcDbLine
 10
916.3529484292958
 20
3056.170224609318
 30
0.0
 11
916.3529484292958
 21
3056.170224609318
 31
0.0
  0
LINE
  5
D97
330
D0B
100
AcDbEntity
  8
0
 62
     0
100
AcDbLine
 10
911.3529484292957
 20
3056.170224609318
 30
0.0
 11
911.3529484292957
 21
3056.170224609318
 31
0.0
  0
LINE
  5
D98
330
D0B
100
AcDbEntity
  8
0
 62
     0
100
AcDbLine
 10
906.3529484292958
 20
3056.170224609318
 30
0.0
 11
906.3529484292958
 21
3056.170224609318
 31
0.0
  0
LINE
  5
D99
330
D0B
100
AcDbEntity
  8
0
 62
     0
100
AcDbLine
 10
901.3529484292957
 20
3056.170224609318
 30
0.0
 11
901.3529484292957
 21
3056.170224609318
 31
0.0
  0
LINE
  5
D9A
330
D0B
100
AcDbEntity
  8
0
 62
     0
100
AcDbLine
 10
896.3529484292958
 20
3056.170224609318
 30
0.0
 11
896.3529484292958
 21
3056.170224609318
 31
0.0
  0
LINE
  5
D9B
330
D0B
100
AcDbEntity
  8
0
 62
     0
100
AcDbLine
 10
891.3529484292958
 20
3056.170224609318
 30
0.0
 11
891.3529484292958
 21
3056.170224609318
 31
0.0
  0
LINE
  5
D9C
330
D0B
100
AcDbEntity
  8
0
 62
     0
100
AcDbLine
 10
886.3529484292957
 20
3056.170224609318
 30
0.0
 11
886.3529484292957
 21
3056.170224609318
 31
0.0
  0
LINE
  5
D9D
330
D0B
100
AcDbEntity
  8
0
 62
     0
100
AcDbLine
 10
881.3529484292958
 20
3056.170224609318
 30
0.0
 11
881.3529484292958
 21
3056.170224609318
 31
0.0
  0
LINE
  5
D9E
330
D0B
100
AcDbEntity
  8
0
 62
     0
100
AcDbLine
 10
876.3529484292957
 20
3056.170224609318
 30
0.0
 11
876.3529484292957
 21
3056.170224609318
 31
0.0
  0
LINE
  5
D9F
330
D0B
100
AcDbEntity
  8
0
 62
     0
100
AcDbLine
 10
871.3529484292958
 20
3056.170224609318
 30
0.0
 11
871.3529484292958
 21
3056.170224609318
 31
0.0
  0
LINE
  5
DA0
330
D0B
100
AcDbEntity
  8
0
 62
     0
100
AcDbLine
 10
866.3529484292958
 20
3056.170224609318
 30
0.0
 11
866.3529484292958
 21
3056.170224609318
 31
0.0
  0
LINE
  5
DA1
330
D0B
100
AcDbEntity
  8
0
 62
     0
100
AcDbLine
 10
861.3529484292957
 20
3056.170224609318
 30
0.0
 11
861.3529484292957
 21
3056.170224609318
 31
0.0
  0
LINE
  5
DA2
330
D0B
100
AcDbEntity
  8
0
 62
     0
100
AcDbLine
 10
856.3529484292958
 20
3056.170224609318
 30
0.0
 11
856.3529484292958
 21
3056.170224609318
 31
0.0
  0
LINE
  5
DA3
330
D0B
100
AcDbEntity
  8
0
 62
     0
100
AcDbLine
 10
851.3529484292957
 20
3056.170224609318
 30
0.0
 11
851.3529484292957
 21
3056.170224609318
 31
0.0
  0
LINE
  5
DA4
330
D0B
100
AcDbEntity
  8
0
 62
     0
100
AcDbLine
 10
978.8529484292958
 20
3061.170224609318
 30
0.0
 11
978.8529484292958
 21
3061.170224609318
 31
0.0
  0
LINE
  5
DA5
330
D0B
100
AcDbEntity
  8
0
 62
     0
100
AcDbLine
 10
973.8529484292957
 20
3061.170224609318
 30
0.0
 11
973.8529484292957
 21
3061.170224609318
 31
0.0
  0
LINE
  5
DA6
330
D0B
100
AcDbEntity
  8
0
 62
     0
100
AcDbLine
 10
968.8529484292958
 20
3061.170224609318
 30
0.0
 11
968.8529484292958
 21
3061.170224609318
 31
0.0
  0
LINE
  5
DA7
330
D0B
100
AcDbEntity
  8
0
 62
     0
100
AcDbLine
 10
963.8529484292957
 20
3061.170224609318
 30
0.0
 11
963.8529484292957
 21
3061.170224609318
 31
0.0
  0
LINE
  5
DA8
330
D0B
100
AcDbEntity
  8
0
 62
     0
100
AcDbLine
 10
958.8529484292958
 20
3061.170224609318
 30
0.0
 11
958.8529484292958
 21
3061.170224609318
 31
0.0
  0
LINE
  5
DA9
330
D0B
100
AcDbEntity
  8
0
 62
     0
100
AcDbLine
 10
953.8529484292958
 20
3061.170224609318
 30
0.0
 11
953.8529484292958
 21
3061.170224609318
 31
0.0
  0
LINE
  5
DAA
330
D0B
100
AcDbEntity
  8
0
 62
     0
100
AcDbLine
 10
948.8529484292957
 20
3061.170224609318
 30
0.0
 11
948.8529484292957
 21
3061.170224609318
 31
0.0
  0
LINE
  5
DAB
330
D0B
100
AcDbEntity
  8
0
 62
     0
100
AcDbLine
 10
943.8529484292958
 20
3061.170224609318
 30
0.0
 11
943.8529484292958
 21
3061.170224609318
 31
0.0
  0
LINE
  5
DAC
330
D0B
100
AcDbEntity
  8
0
 62
     0
100
AcDbLine
 10
938.8529484292957
 20
3061.170224609318
 30
0.0
 11
938.8529484292957
 21
3061.170224609318
 31
0.0
  0
LINE
  5
DAD
330
D0B
100
AcDbEntity
  8
0
 62
     0
100
AcDbLine
 10
933.8529484292958
 20
3061.170224609318
 30
0.0
 11
933.8529484292958
 21
3061.170224609318
 31
0.0
  0
LINE
  5
DAE
330
D0B
100
AcDbEntity
  8
0
 62
     0
100
AcDbLine
 10
893.8529484292958
 20
3061.170224609318
 30
0.0
 11
893.8529484292958
 21
3061.170224609318
 31
0.0
  0
LINE
  5
DAF
330
D0B
100
AcDbEntity
  8
0
 62
     0
100
AcDbLine
 10
888.8529484292957
 20
3061.170224609318
 30
0.0
 11
888.8529484292957
 21
3061.170224609318
 31
0.0
  0
LINE
  5
DB0
330
D0B
100
AcDbEntity
  8
0
 62
     0
100
AcDbLine
 10
883.8529484292958
 20
3061.170224609318
 30
0.0
 11
883.8529484292958
 21
3061.170224609318
 31
0.0
  0
LINE
  5
DB1
330
D0B
100
AcDbEntity
  8
0
 62
     0
100
AcDbLine
 10
878.8529484292958
 20
3061.170224609318
 30
0.0
 11
878.8529484292958
 21
3061.170224609318
 31
0.0
  0
LINE
  5
DB2
330
D0B
100
AcDbEntity
  8
0
 62
     0
100
AcDbLine
 10
873.8529484292957
 20
3061.170224609318
 30
0.0
 11
873.8529484292957
 21
3061.170224609318
 31
0.0
  0
LINE
  5
DB3
330
D0B
100
AcDbEntity
  8
0
 62
     0
100
AcDbLine
 10
868.8529484292958
 20
3061.170224609318
 30
0.0
 11
868.8529484292958
 21
3061.170224609318
 31
0.0
  0
LINE
  5
DB4
330
D0B
100
AcDbEntity
  8
0
 62
     0
100
AcDbLine
 10
863.8529484292957
 20
3061.170224609318
 30
0.0
 11
863.8529484292957
 21
3061.170224609318
 31
0.0
  0
LINE
  5
DB5
330
D0B
100
AcDbEntity
  8
0
 62
     0
100
AcDbLine
 10
858.8529484292958
 20
3061.170224609318
 30
0.0
 11
858.8529484292958
 21
3061.170224609318
 31
0.0
  0
LINE
  5
DB6
330
D0B
100
AcDbEntity
  8
0
 62
     0
100
AcDbLine
 10
853.8529484292958
 20
3061.170224609318
 30
0.0
 11
853.8529484292958
 21
3061.170224609318
 31
0.0
  0
LINE
  5
DB7
330
D0B
100
AcDbEntity
  8
0
 62
     0
100
AcDbLine
 10
848.8529484292957
 20
3061.170224609318
 30
0.0
 11
848.8529484292957
 21
3061.170224609318
 31
0.0
  0
LINE
  5
DB8
330
D0B
100
AcDbEntity
  8
0
 62
     0
100
AcDbLine
 10
976.3529484292957
 20
3066.170224609319
 30
0.0
 11
976.3529484292957
 21
3066.170224609319
 31
0.0
  0
LINE
  5
DB9
330
D0B
100
AcDbEntity
  8
0
 62
     0
100
AcDbLine
 10
971.3529484292958
 20
3066.170224609319
 30
0.0
 11
971.3529484292958
 21
3066.170224609319
 31
0.0
  0
LINE
  5
DBA
330
D0B
100
AcDbEntity
  8
0
 62
     0
100
AcDbLine
 10
966.3529484292958
 20
3066.170224609319
 30
0.0
 11
966.3529484292958
 21
3066.170224609319
 31
0.0
  0
LINE
  5
DBB
330
D0B
100
AcDbEntity
  8
0
 62
     0
100
AcDbLine
 10
961.3529484292957
 20
3066.170224609319
 30
0.0
 11
961.3529484292957
 21
3066.170224609319
 31
0.0
  0
LINE
  5
DBC
330
D0B
100
AcDbEntity
  8
0
 62
     0
100
AcDbLine
 10
956.3529484292958
 20
3066.170224609319
 30
0.0
 11
956.3529484292958
 21
3066.170224609319
 31
0.0
  0
LINE
  5
DBD
330
D0B
100
AcDbEntity
  8
0
 62
     0
100
AcDbLine
 10
951.3529484292957
 20
3066.170224609319
 30
0.0
 11
951.3529484292957
 21
3066.170224609319
 31
0.0
  0
LINE
  5
DBE
330
D0B
100
AcDbEntity
  8
0
 62
     0
100
AcDbLine
 10
946.3529484292958
 20
3066.170224609319
 30
0.0
 11
946.3529484292958
 21
3066.170224609319
 31
0.0
  0
LINE
  5
DBF
330
D0B
100
AcDbEntity
  8
0
 62
     0
100
AcDbLine
 10
941.3529484292958
 20
3066.170224609319
 30
0.0
 11
941.3529484292958
 21
3066.170224609319
 31
0.0
  0
LINE
  5
DC0
330
D0B
100
AcDbEntity
  8
0
 62
     0
100
AcDbLine
 10
886.3529484292957
 20
3066.170224609319
 30
0.0
 11
886.3529484292957
 21
3066.170224609319
 31
0.0
  0
LINE
  5
DC1
330
D0B
100
AcDbEntity
  8
0
 62
     0
100
AcDbLine
 10
881.3529484292958
 20
3066.170224609319
 30
0.0
 11
881.3529484292958
 21
3066.170224609319
 31
0.0
  0
LINE
  5
DC2
330
D0B
100
AcDbEntity
  8
0
 62
     0
100
AcDbLine
 10
876.3529484292957
 20
3066.170224609319
 30
0.0
 11
876.3529484292957
 21
3066.170224609319
 31
0.0
  0
LINE
  5
DC3
330
D0B
100
AcDbEntity
  8
0
 62
     0
100
AcDbLine
 10
871.3529484292958
 20
3066.170224609319
 30
0.0
 11
871.3529484292958
 21
3066.170224609319
 31
0.0
  0
LINE
  5
DC4
330
D0B
100
AcDbEntity
  8
0
 62
     0
100
AcDbLine
 10
866.3529484292958
 20
3066.170224609319
 30
0.0
 11
866.3529484292958
 21
3066.170224609319
 31
0.0
  0
LINE
  5
DC5
330
D0B
100
AcDbEntity
  8
0
 62
     0
100
AcDbLine
 10
861.3529484292957
 20
3066.170224609319
 30
0.0
 11
861.3529484292957
 21
3066.170224609319
 31
0.0
  0
LINE
  5
DC6
330
D0B
100
AcDbEntity
  8
0
 62
     0
100
AcDbLine
 10
856.3529484292958
 20
3066.170224609319
 30
0.0
 11
856.3529484292958
 21
3066.170224609319
 31
0.0
  0
LINE
  5
DC7
330
D0B
100
AcDbEntity
  8
0
 62
     0
100
AcDbLine
 10
851.3529484292957
 20
3066.170224609319
 30
0.0
 11
851.3529484292957
 21
3066.170224609319
 31
0.0
  0
LINE
  5
DC8
330
D0B
100
AcDbEntity
  8
0
 62
     0
100
AcDbLine
 10
973.8529484292957
 20
3071.170224609318
 30
0.0
 11
973.8529484292957
 21
3071.170224609318
 31
0.0
  0
LINE
  5
DC9
330
D0B
100
AcDbEntity
  8
0
 62
     0
100
AcDbLine
 10
968.8529484292958
 20
3071.170224609318
 30
0.0
 11
968.8529484292958
 21
3071.170224609318
 31
0.0
  0
LINE
  5
DCA
330
D0B
100
AcDbEntity
  8
0
 62
     0
100
AcDbLine
 10
963.8529484292957
 20
3071.170224609318
 30
0.0
 11
963.8529484292957
 21
3071.170224609318
 31
0.0
  0
LINE
  5
DCB
330
D0B
100
AcDbEntity
  8
0
 62
     0
100
AcDbLine
 10
958.8529484292958
 20
3071.170224609318
 30
0.0
 11
958.8529484292958
 21
3071.170224609318
 31
0.0
  0
LINE
  5
DCC
330
D0B
100
AcDbEntity
  8
0
 62
     0
100
AcDbLine
 10
953.8529484292958
 20
3071.170224609318
 30
0.0
 11
953.8529484292958
 21
3071.170224609318
 31
0.0
  0
LINE
  5
DCD
330
D0B
100
AcDbEntity
  8
0
 62
     0
100
AcDbLine
 10
948.8529484292957
 20
3071.170224609318
 30
0.0
 11
948.8529484292957
 21
3071.170224609318
 31
0.0
  0
LINE
  5
DCE
330
D0B
100
AcDbEntity
  8
0
 62
     0
100
AcDbLine
 10
943.8529484292958
 20
3071.170224609318
 30
0.0
 11
943.8529484292958
 21
3071.170224609318
 31
0.0
  0
LINE
  5
DCF
330
D0B
100
AcDbEntity
  8
0
 62
     0
100
AcDbLine
 10
883.8529484292958
 20
3071.170224609318
 30
0.0
 11
883.8529484292958
 21
3071.170224609318
 31
0.0
  0
LINE
  5
DD0
330
D0B
100
AcDbEntity
  8
0
 62
     0
100
AcDbLine
 10
878.8529484292958
 20
3071.170224609318
 30
0.0
 11
878.8529484292958
 21
3071.170224609318
 31
0.0
  0
LINE
  5
DD1
330
D0B
100
AcDbEntity
  8
0
 62
     0
100
AcDbLine
 10
873.8529484292957
 20
3071.170224609318
 30
0.0
 11
873.8529484292957
 21
3071.170224609318
 31
0.0
  0
LINE
  5
DD2
330
D0B
100
AcDbEntity
  8
0
 62
     0
100
AcDbLine
 10
868.8529484292958
 20
3071.170224609318
 30
0.0
 11
868.8529484292958
 21
3071.170224609318
 31
0.0
  0
LINE
  5
DD3
330
D0B
100
AcDbEntity
  8
0
 62
     0
100
AcDbLine
 10
863.8529484292957
 20
3071.170224609318
 30
0.0
 11
863.8529484292957
 21
3071.170224609318
 31
0.0
  0
LINE
  5
DD4
330
D0B
100
AcDbEntity
  8
0
 62
     0
100
AcDbLine
 10
858.8529484292958
 20
3071.170224609318
 30
0.0
 11
858.8529484292958
 21
3071.170224609318
 31
0.0
  0
LINE
  5
DD5
330
D0B
100
AcDbEntity
  8
0
 62
     0
100
AcDbLine
 10
853.8529484292958
 20
3071.170224609318
 30
0.0
 11
853.8529484292958
 21
3071.170224609318
 31
0.0
  0
LINE
  5
DD6
330
D0B
100
AcDbEntity
  8
0
 62
     0
100
AcDbLine
 10
971.3529484292958
 20
3076.170224609318
 30
0.0
 11
971.3529484292958
 21
3076.170224609318
 31
0.0
  0
LINE
  5
DD7
330
D0B
100
AcDbEntity
  8
0
 62
     0
100
AcDbLine
 10
966.3529484292958
 20
3076.170224609318
 30
0.0
 11
966.3529484292958
 21
3076.170224609318
 31
0.0
  0
LINE
  5
DD8
330
D0B
100
AcDbEntity
  8
0
 62
     0
100
AcDbLine
 10
961.3529484292957
 20
3076.170224609318
 30
0.0
 11
961.3529484292957
 21
3076.170224609318
 31
0.0
  0
LINE
  5
DD9
330
D0B
100
AcDbEntity
  8
0
 62
     0
100
AcDbLine
 10
956.3529484292958
 20
3076.170224609318
 30
0.0
 11
956.3529484292958
 21
3076.170224609318
 31
0.0
  0
LINE
  5
DDA
330
D0B
100
AcDbEntity
  8
0
 62
     0
100
AcDbLine
 10
951.3529484292957
 20
3076.170224609318
 30
0.0
 11
951.3529484292957
 21
3076.170224609318
 31
0.0
  0
LINE
  5
DDB
330
D0B
100
AcDbEntity
  8
0
 62
     0
100
AcDbLine
 10
946.3529484292958
 20
3076.170224609318
 30
0.0
 11
946.3529484292958
 21
3076.170224609318
 31
0.0
  0
LINE
  5
DDC
330
D0B
100
AcDbEntity
  8
0
 62
     0
100
AcDbLine
 10
881.3529484292958
 20
3076.170224609318
 30
0.0
 11
881.3529484292958
 21
3076.170224609318
 31
0.0
  0
LINE
  5
DDD
330
D0B
100
AcDbEntity
  8
0
 62
     0
100
AcDbLine
 10
876.3529484292957
 20
3076.170224609318
 30
0.0
 11
876.3529484292957
 21
3076.170224609318
 31
0.0
  0
LINE
  5
DDE
330
D0B
100
AcDbEntity
  8
0
 62
     0
100
AcDbLine
 10
871.3529484292958
 20
3076.170224609318
 30
0.0
 11
871.3529484292958
 21
3076.170224609318
 31
0.0
  0
LINE
  5
DDF
330
D0B
100
AcDbEntity
  8
0
 62
     0
100
AcDbLine
 10
866.3529484292958
 20
3076.170224609318
 30
0.0
 11
866.3529484292958
 21
3076.170224609318
 31
0.0
  0
LINE
  5
DE0
330
D0B
100
AcDbEntity
  8
0
 62
     0
100
AcDbLine
 10
861.3529484292957
 20
3076.170224609318
 30
0.0
 11
861.3529484292957
 21
3076.170224609318
 31
0.0
  0
LINE
  5
DE1
330
D0B
100
AcDbEntity
  8
0
 62
     0
100
AcDbLine
 10
856.3529484292958
 20
3076.170224609318
 30
0.0
 11
856.3529484292958
 21
3076.170224609318
 31
0.0
  0
LINE
  5
DE2
330
D0B
100
AcDbEntity
  8
0
 62
     0
100
AcDbLine
 10
968.8529484292958
 20
3081.170224609318
 30
0.0
 11
968.8529484292958
 21
3081.170224609318
 31
0.0
  0
LINE
  5
DE3
330
D0B
100
AcDbEntity
  8
0
 62
     0
100
AcDbLine
 10
963.8529484292957
 20
3081.170224609318
 30
0.0
 11
963.8529484292957
 21
3081.170224609318
 31
0.0
  0
LINE
  5
DE4
330
D0B
100
AcDbEntity
  8
0
 62
     0
100
AcDbLine
 10
958.8529484292958
 20
3081.170224609318
 30
0.0
 11
958.8529484292958
 21
3081.170224609318
 31
0.0
  0
LINE
  5
DE5
330
D0B
100
AcDbEntity
  8
0
 62
     0
100
AcDbLine
 10
953.8529484292958
 20
3081.170224609318
 30
0.0
 11
953.8529484292958
 21
3081.170224609318
 31
0.0
  0
LINE
  5
DE6
330
D0B
100
AcDbEntity
  8
0
 62
     0
100
AcDbLine
 10
948.8529484292957
 20
3081.170224609318
 30
0.0
 11
948.8529484292957
 21
3081.170224609318
 31
0.0
  0
LINE
  5
DE7
330
D0B
100
AcDbEntity
  8
0
 62
     0
100
AcDbLine
 10
878.8529484292958
 20
3081.170224609318
 30
0.0
 11
878.8529484292958
 21
3081.170224609318
 31
0.0
  0
LINE
  5
DE8
330
D0B
100
AcDbEntity
  8
0
 62
     0
100
AcDbLine
 10
873.8529484292957
 20
3081.170224609318
 30
0.0
 11
873.8529484292957
 21
3081.170224609318
 31
0.0
  0
LINE
  5
DE9
330
D0B
100
AcDbEntity
  8
0
 62
     0
100
AcDbLine
 10
868.8529484292958
 20
3081.170224609318
 30
0.0
 11
868.8529484292958
 21
3081.170224609318
 31
0.0
  0
LINE
  5
DEA
330
D0B
100
AcDbEntity
  8
0
 62
     0
100
AcDbLine
 10
863.8529484292957
 20
3081.170224609318
 30
0.0
 11
863.8529484292957
 21
3081.170224609318
 31
0.0
  0
LINE
  5
DEB
330
D0B
100
AcDbEntity
  8
0
 62
     0
100
AcDbLine
 10
858.8529484292958
 20
3081.170224609318
 30
0.0
 11
858.8529484292958
 21
3081.170224609318
 31
0.0
  0
LINE
  5
DEC
330
D0B
100
AcDbEntity
  8
0
 62
     0
100
AcDbLine
 10
971.3529484292958
 20
3086.170224609319
 30
0.0
 11
971.3529484292958
 21
3086.170224609319
 31
0.0
  0
LINE
  5
DED
330
D0B
100
AcDbEntity
  8
0
 62
     0
100
AcDbLine
 10
966.3529484292958
 20
3086.170224609319
 30
0.0
 11
966.3529484292958
 21
3086.170224609319
 31
0.0
  0
LINE
  5
DEE
330
D0B
100
AcDbEntity
  8
0
 62
     0
100
AcDbLine
 10
961.3529484292957
 20
3086.170224609319
 30
0.0
 11
961.3529484292957
 21
3086.170224609319
 31
0.0
  0
LINE
  5
DEF
330
D0B
100
AcDbEntity
  8
0
 62
     0
100
AcDbLine
 10
956.3529484292958
 20
3086.170224609319
 30
0.0
 11
956.3529484292958
 21
3086.170224609319
 31
0.0
  0
LINE
  5
DF0
330
D0B
100
AcDbEntity
  8
0
 62
     0
100
AcDbLine
 10
951.3529484292957
 20
3086.170224609319
 30
0.0
 11
951.3529484292957
 21
3086.170224609319
 31
0.0
  0
LINE
  5
DF1
330
D0B
100
AcDbEntity
  8
0
 62
     0
100
AcDbLine
 10
876.3529484292957
 20
3086.170224609319
 30
0.0
 11
876.3529484292957
 21
3086.170224609319
 31
0.0
  0
LINE
  5
DF2
330
D0B
100
AcDbEntity
  8
0
 62
     0
100
AcDbLine
 10
871.3529484292958
 20
3086.170224609319
 30
0.0
 11
871.3529484292958
 21
3086.170224609319
 31
0.0
  0
LINE
  5
DF3
330
D0B
100
AcDbEntity
  8
0
 62
     0
100
AcDbLine
 10
866.3529484292958
 20
3086.170224609319
 30
0.0
 11
866.3529484292958
 21
3086.170224609319
 31
0.0
  0
LINE
  5
DF4
330
D0B
100
AcDbEntity
  8
0
 62
     0
100
AcDbLine
 10
861.3529484292957
 20
3086.170224609319
 30
0.0
 11
861.3529484292957
 21
3086.170224609319
 31
0.0
  0
LINE
  5
DF5
330
D0B
100
AcDbEntity
  8
0
 62
     0
100
AcDbLine
 10
856.3529484292958
 20
3086.170224609319
 30
0.0
 11
856.3529484292958
 21
3086.170224609319
 31
0.0
  0
LINE
  5
DF6
330
D0B
100
AcDbEntity
  8
0
 62
     0
100
AcDbLine
 10
978.8529484292958
 20
3091.170224609319
 30
0.0
 11
978.8529484292958
 21
3091.170224609319
 31
0.0
  0
LINE
  5
DF7
330
D0B
100
AcDbEntity
  8
0
 62
     0
100
AcDbLine
 10
973.8529484292957
 20
3091.170224609319
 30
0.0
 11
973.8529484292957
 21
3091.170224609319
 31
0.0
  0
LINE
  5
DF8
330
D0B
100
AcDbEntity
  8
0
 62
     0
100
AcDbLine
 10
968.8529484292958
 20
3091.170224609319
 30
0.0
 11
968.8529484292958
 21
3091.170224609319
 31
0.0
  0
LINE
  5
DF9
330
D0B
100
AcDbEntity
  8
0
 62
     0
100
AcDbLine
 10
963.8529484292957
 20
3091.170224609319
 30
0.0
 11
963.8529484292957
 21
3091.170224609319
 31
0.0
  0
LINE
  5
DFA
330
D0B
100
AcDbEntity
  8
0
 62
     0
100
AcDbLine
 10
958.8529484292958
 20
3091.170224609319
 30
0.0
 11
958.8529484292958
 21
3091.170224609319
 31
0.0
  0
LINE
  5
DFB
330
D0B
100
AcDbEntity
  8
0
 62
     0
100
AcDbLine
 10
953.8529484292958
 20
3091.170224609319
 30
0.0
 11
953.8529484292958
 21
3091.170224609319
 31
0.0
  0
LINE
  5
DFC
330
D0B
100
AcDbEntity
  8
0
 62
     0
100
AcDbLine
 10
878.8529484292958
 20
3091.170224609319
 30
0.0
 11
878.8529484292958
 21
3091.170224609319
 31
0.0
  0
LINE
  5
DFD
330
D0B
100
AcDbEntity
  8
0
 62
     0
100
AcDbLine
 10
873.8529484292957
 20
3091.170224609319
 30
0.0
 11
873.8529484292957
 21
3091.170224609319
 31
0.0
  0
LINE
  5
DFE
330
D0B
100
AcDbEntity
  8
0
 62
     0
100
AcDbLine
 10
868.8529484292958
 20
3091.170224609319
 30
0.0
 11
868.8529484292958
 21
3091.170224609319
 31
0.0
  0
LINE
  5
DFF
330
D0B
100
AcDbEntity
  8
0
 62
     0
100
AcDbLine
 10
863.8529484292957
 20
3091.170224609319
 30
0.0
 11
863.8529484292957
 21
3091.170224609319
 31
0.0
  0
LINE
  5
E00
330
D0B
100
AcDbEntity
  8
0
 62
     0
100
AcDbLine
 10
858.8529484292958
 20
3091.170224609319
 30
0.0
 11
858.8529484292958
 21
3091.170224609319
 31
0.0
  0
LINE
  5
E01
330
D0B
100
AcDbEntity
  8
0
 62
     0
100
AcDbLine
 10
853.8529484292958
 20
3091.170224609319
 30
0.0
 11
853.8529484292958
 21
3091.170224609319
 31
0.0
  0
LINE
  5
E02
330
D0B
100
AcDbEntity
  8
0
 62
     0
100
AcDbLine
 10
976.3529484292957
 20
3096.170224609319
 30
0.0
 11
976.3529484292957
 21
3096.170224609319
 31
0.0
  0
LINE
  5
E03
330
D0B
100
AcDbEntity
  8
0
 62
     0
100
AcDbLine
 10
971.3529484292958
 20
3096.170224609319
 30
0.0
 11
971.3529484292958
 21
3096.170224609319
 31
0.0
  0
LINE
  5
E04
330
D0B
100
AcDbEntity
  8
0
 62
     0
100
AcDbLine
 10
966.3529484292958
 20
3096.170224609319
 30
0.0
 11
966.3529484292958
 21
3096.170224609319
 31
0.0
  0
LINE
  5
E05
330
D0B
100
AcDbEntity
  8
0
 62
     0
100
AcDbLine
 10
961.3529484292957
 20
3096.170224609319
 30
0.0
 11
961.3529484292957
 21
3096.170224609319
 31
0.0
  0
LINE
  5
E06
330
D0B
100
AcDbEntity
  8
0
 62
     0
100
AcDbLine
 10
956.3529484292958
 20
3096.170224609319
 30
0.0
 11
956.3529484292958
 21
3096.170224609319
 31
0.0
  0
LINE
  5
E07
330
D0B
100
AcDbEntity
  8
0
 62
     0
100
AcDbLine
 10
951.3529484292957
 20
3096.170224609319
 30
0.0
 11
951.3529484292957
 21
3096.170224609319
 31
0.0
  0
LINE
  5
E08
330
D0B
100
AcDbEntity
  8
0
 62
     0
100
AcDbLine
 10
876.3529484292957
 20
3096.170224609319
 30
0.0
 11
876.3529484292957
 21
3096.170224609319
 31
0.0
  0
LINE
  5
E09
330
D0B
100
AcDbEntity
  8
0
 62
     0
100
AcDbLine
 10
871.3529484292958
 20
3096.170224609319
 30
0.0
 11
871.3529484292958
 21
3096.170224609319
 31
0.0
  0
LINE
  5
E0A
330
D0B
100
AcDbEntity
  8
0
 62
     0
100
AcDbLine
 10
866.3529484292958
 20
3096.170224609319
 30
0.0
 11
866.3529484292958
 21
3096.170224609319
 31
0.0
  0
LINE
  5
E0B
330
D0B
100
AcDbEntity
  8
0
 62
     0
100
AcDbLine
 10
861.3529484292957
 20
3096.170224609319
 30
0.0
 11
861.3529484292957
 21
3096.170224609319
 31
0.0
  0
LINE
  5
E0C
330
D0B
100
AcDbEntity
  8
0
 62
     0
100
AcDbLine
 10
856.3529484292958
 20
3096.170224609319
 30
0.0
 11
856.3529484292958
 21
3096.170224609319
 31
0.0
  0
LINE
  5
E0D
330
D0B
100
AcDbEntity
  8
0
 62
     0
100
AcDbLine
 10
968.8529484292958
 20
3101.170224609318
 30
0.0
 11
968.8529484292958
 21
3101.170224609318
 31
0.0
  0
LINE
  5
E0E
330
D0B
100
AcDbEntity
  8
0
 62
     0
100
AcDbLine
 10
963.8529484292957
 20
3101.170224609318
 30
0.0
 11
963.8529484292957
 21
3101.170224609318
 31
0.0
  0
LINE
  5
E0F
330
D0B
100
AcDbEntity
  8
0
 62
     0
100
AcDbLine
 10
958.8529484292958
 20
3101.170224609318
 30
0.0
 11
958.8529484292958
 21
3101.170224609318
 31
0.0
  0
LINE
  5
E10
330
D0B
100
AcDbEntity
  8
0
 62
     0
100
AcDbLine
 10
953.8529484292958
 20
3101.170224609318
 30
0.0
 11
953.8529484292958
 21
3101.170224609318
 31
0.0
  0
LINE
  5
E11
330
D0B
100
AcDbEntity
  8
0
 62
     0
100
AcDbLine
 10
948.8529484292957
 20
3101.170224609318
 30
0.0
 11
948.8529484292957
 21
3101.170224609318
 31
0.0
  0
LINE
  5
E12
330
D0B
100
AcDbEntity
  8
0
 62
     0
100
AcDbLine
 10
878.8529484292958
 20
3101.170224609318
 30
0.0
 11
878.8529484292958
 21
3101.170224609318
 31
0.0
  0
LINE
  5
E13
330
D0B
100
AcDbEntity
  8
0
 62
     0
100
AcDbLine
 10
873.8529484292957
 20
3101.170224609318
 30
0.0
 11
873.8529484292957
 21
3101.170224609318
 31
0.0
  0
LINE
  5
E14
330
D0B
100
AcDbEntity
  8
0
 62
     0
100
AcDbLine
 10
868.8529484292958
 20
3101.170224609318
 30
0.0
 11
868.8529484292958
 21
3101.170224609318
 31
0.0
  0
LINE
  5
E15
330
D0B
100
AcDbEntity
  8
0
 62
     0
100
AcDbLine
 10
863.8529484292957
 20
3101.170224609318
 30
0.0
 11
863.8529484292957
 21
3101.170224609318
 31
0.0
  0
LINE
  5
E16
330
D0B
100
AcDbEntity
  8
0
 62
     0
100
AcDbLine
 10
858.8529484292958
 20
3101.170224609318
 30
0.0
 11
858.8529484292958
 21
3101.170224609318
 31
0.0
  0
LINE
  5
E17
330
D0B
100
AcDbEntity
  8
0
 62
     0
100
AcDbLine
 10
971.3529484292958
 20
3106.170224609318
 30
0.0
 11
971.3529484292958
 21
3106.170224609318
 31
0.0
  0
LINE
  5
E18
330
D0B
100
AcDbEntity
  8
0
 62
     0
100
AcDbLine
 10
966.3529484292958
 20
3106.170224609318
 30
0.0
 11
966.3529484292958
 21
3106.170224609318
 31
0.0
  0
LINE
  5
E19
330
D0B
100
AcDbEntity
  8
0
 62
     0
100
AcDbLine
 10
961.3529484292957
 20
3106.170224609318
 30
0.0
 11
961.3529484292957
 21
3106.170224609318
 31
0.0
  0
LINE
  5
E1A
330
D0B
100
AcDbEntity
  8
0
 62
     0
100
AcDbLine
 10
956.3529484292958
 20
3106.170224609318
 30
0.0
 11
956.3529484292958
 21
3106.170224609318
 31
0.0
  0
LINE
  5
E1B
330
D0B
100
AcDbEntity
  8
0
 62
     0
100
AcDbLine
 10
951.3529484292957
 20
3106.170224609318
 30
0.0
 11
951.3529484292957
 21
3106.170224609318
 31
0.0
  0
LINE
  5
E1C
330
D0B
100
AcDbEntity
  8
0
 62
     0
100
AcDbLine
 10
881.3529484292958
 20
3106.170224609318
 30
0.0
 11
881.3529484292958
 21
3106.170224609318
 31
0.0
  0
LINE
  5
E1D
330
D0B
100
AcDbEntity
  8
0
 62
     0
100
AcDbLine
 10
876.3529484292957
 20
3106.170224609318
 30
0.0
 11
876.3529484292957
 21
3106.170224609318
 31
0.0
  0
LINE
  5
E1E
330
D0B
100
AcDbEntity
  8
0
 62
     0
100
AcDbLine
 10
871.3529484292958
 20
3106.170224609318
 30
0.0
 11
871.3529484292958
 21
3106.170224609318
 31
0.0
  0
LINE
  5
E1F
330
D0B
100
AcDbEntity
  8
0
 62
     0
100
AcDbLine
 10
866.3529484292958
 20
3106.170224609318
 30
0.0
 11
866.3529484292958
 21
3106.170224609318
 31
0.0
  0
LINE
  5
E20
330
D0B
100
AcDbEntity
  8
0
 62
     0
100
AcDbLine
 10
861.3529484292957
 20
3106.170224609318
 30
0.0
 11
861.3529484292957
 21
3106.170224609318
 31
0.0
  0
LINE
  5
E21
330
D0B
100
AcDbEntity
  8
0
 62
     0
100
AcDbLine
 10
856.3529484292958
 20
3106.170224609318
 30
0.0
 11
856.3529484292958
 21
3106.170224609318
 31
0.0
  0
LINE
  5
E22
330
D0B
100
AcDbEntity
  8
0
 62
     0
100
AcDbLine
 10
973.8529484292957
 20
3111.170224609319
 30
0.0
 11
973.8529484292957
 21
3111.170224609319
 31
0.0
  0
LINE
  5
E23
330
D0B
100
AcDbEntity
  8
0
 62
     0
100
AcDbLine
 10
968.8529484292958
 20
3111.170224609319
 30
0.0
 11
968.8529484292958
 21
3111.170224609319
 31
0.0
  0
LINE
  5
E24
330
D0B
100
AcDbEntity
  8
0
 62
     0
100
AcDbLine
 10
963.8529484292957
 20
3111.170224609319
 30
0.0
 11
963.8529484292957
 21
3111.170224609319
 31
0.0
  0
LINE
  5
E25
330
D0B
100
AcDbEntity
  8
0
 62
     0
100
AcDbLine
 10
958.8529484292958
 20
3111.170224609319
 30
0.0
 11
958.8529484292958
 21
3111.170224609319
 31
0.0
  0
LINE
  5
E26
330
D0B
100
AcDbEntity
  8
0
 62
     0
100
AcDbLine
 10
953.8529484292958
 20
3111.170224609319
 30
0.0
 11
953.8529484292958
 21
3111.170224609319
 31
0.0
  0
LINE
  5
E27
330
D0B
100
AcDbEntity
  8
0
 62
     0
100
AcDbLine
 10
948.8529484292957
 20
3111.170224609319
 30
0.0
 11
948.8529484292957
 21
3111.170224609319
 31
0.0
  0
LINE
  5
E28
330
D0B
100
AcDbEntity
  8
0
 62
     0
100
AcDbLine
 10
883.8529484292958
 20
3111.170224609319
 30
0.0
 11
883.8529484292958
 21
3111.170224609319
 31
0.0
  0
LINE
  5
E29
330
D0B
100
AcDbEntity
  8
0
 62
     0
100
AcDbLine
 10
878.8529484292958
 20
3111.170224609319
 30
0.0
 11
878.8529484292958
 21
3111.170224609319
 31
0.0
  0
LINE
  5
E2A
330
D0B
100
AcDbEntity
  8
0
 62
     0
100
AcDbLine
 10
873.8529484292957
 20
3111.170224609319
 30
0.0
 11
873.8529484292957
 21
3111.170224609319
 31
0.0
  0
LINE
  5
E2B
330
D0B
100
AcDbEntity
  8
0
 62
     0
100
AcDbLine
 10
868.8529484292958
 20
3111.170224609319
 30
0.0
 11
868.8529484292958
 21
3111.170224609319
 31
0.0
  0
LINE
  5
E2C
330
D0B
100
AcDbEntity
  8
0
 62
     0
100
AcDbLine
 10
863.8529484292957
 20
3111.170224609319
 30
0.0
 11
863.8529484292957
 21
3111.170224609319
 31
0.0
  0
LINE
  5
E2D
330
D0B
100
AcDbEntity
  8
0
 62
     0
100
AcDbLine
 10
858.8529484292958
 20
3111.170224609319
 30
0.0
 11
858.8529484292958
 21
3111.170224609319
 31
0.0
  0
LINE
  5
E2E
330
D0B
100
AcDbEntity
  8
0
 62
     0
100
AcDbLine
 10
853.8529484292958
 20
3111.170224609319
 30
0.0
 11
853.8529484292958
 21
3111.170224609319
 31
0.0
  0
LINE
  5
E2F
330
D0B
100
AcDbEntity
  8
0
 62
     0
100
AcDbLine
 10
976.3529484292957
 20
3116.170224609319
 30
0.0
 11
976.3529484292957
 21
3116.170224609319
 31
0.0
  0
LINE
  5
E30
330
D0B
100
AcDbEntity
  8
0
 62
     0
100
AcDbLine
 10
971.3529484292958
 20
3116.170224609319
 30
0.0
 11
971.3529484292958
 21
3116.170224609319
 31
0.0
  0
LINE
  5
E31
330
D0B
100
AcDbEntity
  8
0
 62
     0
100
AcDbLine
 10
966.3529484292958
 20
3116.170224609319
 30
0.0
 11
966.3529484292958
 21
3116.170224609319
 31
0.0
  0
LINE
  5
E32
330
D0B
100
AcDbEntity
  8
0
 62
     0
100
AcDbLine
 10
961.3529484292957
 20
3116.170224609319
 30
0.0
 11
961.3529484292957
 21
3116.170224609319
 31
0.0
  0
LINE
  5
E33
330
D0B
100
AcDbEntity
  8
0
 62
     0
100
AcDbLine
 10
956.3529484292958
 20
3116.170224609319
 30
0.0
 11
956.3529484292958
 21
3116.170224609319
 31
0.0
  0
LINE
  5
E34
330
D0B
100
AcDbEntity
  8
0
 62
     0
100
AcDbLine
 10
951.3529484292957
 20
3116.170224609319
 30
0.0
 11
951.3529484292957
 21
3116.170224609319
 31
0.0
  0
LINE
  5
E35
330
D0B
100
AcDbEntity
  8
0
 62
     0
100
AcDbLine
 10
946.3529484292958
 20
3116.170224609319
 30
0.0
 11
946.3529484292958
 21
3116.170224609319
 31
0.0
  0
LINE
  5
E36
330
D0B
100
AcDbEntity
  8
0
 62
     0
100
AcDbLine
 10
941.3529484292958
 20
3116.170224609319
 30
0.0
 11
941.3529484292958
 21
3116.170224609319
 31
0.0
  0
LINE
  5
E37
330
D0B
100
AcDbEntity
  8
0
 62
     0
100
AcDbLine
 10
886.3529484292957
 20
3116.170224609319
 30
0.0
 11
886.3529484292957
 21
3116.170224609319
 31
0.0
  0
LINE
  5
E38
330
D0B
100
AcDbEntity
  8
0
 62
     0
100
AcDbLine
 10
881.3529484292958
 20
3116.170224609319
 30
0.0
 11
881.3529484292958
 21
3116.170224609319
 31
0.0
  0
LINE
  5
E39
330
D0B
100
AcDbEntity
  8
0
 62
     0
100
AcDbLine
 10
876.3529484292957
 20
3116.170224609319
 30
0.0
 11
876.3529484292957
 21
3116.170224609319
 31
0.0
  0
LINE
  5
E3A
330
D0B
100
AcDbEntity
  8
0
 62
     0
100
AcDbLine
 10
871.3529484292958
 20
3116.170224609319
 30
0.0
 11
871.3529484292958
 21
3116.170224609319
 31
0.0
  0
LINE
  5
E3B
330
D0B
100
AcDbEntity
  8
0
 62
     0
100
AcDbLine
 10
866.3529484292958
 20
3116.170224609319
 30
0.0
 11
866.3529484292958
 21
3116.170224609319
 31
0.0
  0
LINE
  5
E3C
330
D0B
100
AcDbEntity
  8
0
 62
     0
100
AcDbLine
 10
861.3529484292957
 20
3116.170224609319
 30
0.0
 11
861.3529484292957
 21
3116.170224609319
 31
0.0
  0
LINE
  5
E3D
330
D0B
100
AcDbEntity
  8
0
 62
     0
100
AcDbLine
 10
856.3529484292958
 20
3116.170224609319
 30
0.0
 11
856.3529484292958
 21
3116.170224609319
 31
0.0
  0
LINE
  5
E3E
330
D0B
100
AcDbEntity
  8
0
 62
     0
100
AcDbLine
 10
851.3529484292957
 20
3116.170224609319
 30
0.0
 11
851.3529484292957
 21
3116.170224609319
 31
0.0
  0
LINE
  5
E3F
330
D0B
100
AcDbEntity
  8
0
 62
     0
100
AcDbLine
 10
978.8529484292958
 20
3121.170224609318
 30
0.0
 11
978.8529484292958
 21
3121.170224609318
 31
0.0
  0
LINE
  5
E40
330
D0B
100
AcDbEntity
  8
0
 62
     0
100
AcDbLine
 10
973.8529484292957
 20
3121.170224609318
 30
0.0
 11
973.8529484292957
 21
3121.170224609318
 31
0.0
  0
LINE
  5
E41
330
D0B
100
AcDbEntity
  8
0
 62
     0
100
AcDbLine
 10
968.8529484292958
 20
3121.170224609318
 30
0.0
 11
968.8529484292958
 21
3121.170224609318
 31
0.0
  0
LINE
  5
E42
330
D0B
100
AcDbEntity
  8
0
 62
     0
100
AcDbLine
 10
963.8529484292957
 20
3121.170224609318
 30
0.0
 11
963.8529484292957
 21
3121.170224609318
 31
0.0
  0
LINE
  5
E43
330
D0B
100
AcDbEntity
  8
0
 62
     0
100
AcDbLine
 10
958.8529484292958
 20
3121.170224609318
 30
0.0
 11
958.8529484292958
 21
3121.170224609318
 31
0.0
  0
LINE
  5
E44
330
D0B
100
AcDbEntity
  8
0
 62
     0
100
AcDbLine
 10
953.8529484292958
 20
3121.170224609318
 30
0.0
 11
953.8529484292958
 21
3121.170224609318
 31
0.0
  0
LINE
  5
E45
330
D0B
100
AcDbEntity
  8
0
 62
     0
100
AcDbLine
 10
948.8529484292957
 20
3121.170224609318
 30
0.0
 11
948.8529484292957
 21
3121.170224609318
 31
0.0
  0
LINE
  5
E46
330
D0B
100
AcDbEntity
  8
0
 62
     0
100
AcDbLine
 10
943.8529484292958
 20
3121.170224609318
 30
0.0
 11
943.8529484292958
 21
3121.170224609318
 31
0.0
  0
LINE
  5
E47
330
D0B
100
AcDbEntity
  8
0
 62
     0
100
AcDbLine
 10
938.8529484292957
 20
3121.170224609318
 30
0.0
 11
938.8529484292957
 21
3121.170224609318
 31
0.0
  0
LINE
  5
E48
330
D0B
100
AcDbEntity
  8
0
 62
     0
100
AcDbLine
 10
893.8529484292958
 20
3121.170224609318
 30
0.0
 11
893.8529484292958
 21
3121.170224609318
 31
0.0
  0
LINE
  5
E49
330
D0B
100
AcDbEntity
  8
0
 62
     0
100
AcDbLine
 10
888.8529484292957
 20
3121.170224609318
 30
0.0
 11
888.8529484292957
 21
3121.170224609318
 31
0.0
  0
LINE
  5
E4A
330
D0B
100
AcDbEntity
  8
0
 62
     0
100
AcDbLine
 10
883.8529484292958
 20
3121.170224609318
 30
0.0
 11
883.8529484292958
 21
3121.170224609318
 31
0.0
  0
LINE
  5
E4B
330
D0B
100
AcDbEntity
  8
0
 62
     0
100
AcDbLine
 10
878.8529484292958
 20
3121.170224609318
 30
0.0
 11
878.8529484292958
 21
3121.170224609318
 31
0.0
  0
LINE
  5
E4C
330
D0B
100
AcDbEntity
  8
0
 62
     0
100
AcDbLine
 10
873.8529484292957
 20
3121.170224609318
 30
0.0
 11
873.8529484292957
 21
3121.170224609318
 31
0.0
  0
LINE
  5
E4D
330
D0B
100
AcDbEntity
  8
0
 62
     0
100
AcDbLine
 10
868.8529484292958
 20
3121.170224609318
 30
0.0
 11
868.8529484292958
 21
3121.170224609318
 31
0.0
  0
LINE
  5
E4E
330
D0B
100
AcDbEntity
  8
0
 62
     0
100
AcDbLine
 10
863.8529484292957
 20
3121.170224609318
 30
0.0
 11
863.8529484292957
 21
3121.170224609318
 31
0.0
  0
LINE
  5
E4F
330
D0B
100
AcDbEntity
  8
0
 62
     0
100
AcDbLine
 10
858.8529484292958
 20
3121.170224609318
 30
0.0
 11
858.8529484292958
 21
3121.170224609318
 31
0.0
  0
LINE
  5
E50
330
D0B
100
AcDbEntity
  8
0
 62
     0
100
AcDbLine
 10
853.8529484292958
 20
3121.170224609318
 30
0.0
 11
853.8529484292958
 21
3121.170224609318
 31
0.0
  0
LINE
  5
E51
330
D0B
100
AcDbEntity
  8
0
 62
     0
100
AcDbLine
 10
848.8529484292957
 20
3121.170224609318
 30
0.0
 11
848.8529484292957
 21
3121.170224609318
 31
0.0
  0
LINE
  5
E52
330
D0B
100
AcDbEntity
  8
0
 62
     0
100
AcDbLine
 10
981.3529484292958
 20
3126.170224609318
 30
0.0
 11
981.3529484292958
 21
3126.170224609318
 31
0.0
  0
LINE
  5
E53
330
D0B
100
AcDbEntity
  8
0
 62
     0
100
AcDbLine
 10
976.3529484292957
 20
3126.170224609318
 30
0.0
 11
976.3529484292957
 21
3126.170224609318
 31
0.0
  0
LINE
  5
E54
330
D0B
100
AcDbEntity
  8
0
 62
     0
100
AcDbLine
 10
971.3529484292958
 20
3126.170224609318
 30
0.0
 11
971.3529484292958
 21
3126.170224609318
 31
0.0
  0
LINE
  5
E55
330
D0B
100
AcDbEntity
  8
0
 62
     0
100
AcDbLine
 10
966.3529484292958
 20
3126.170224609318
 30
0.0
 11
966.3529484292958
 21
3126.170224609318
 31
0.0
  0
LINE
  5
E56
330
D0B
100
AcDbEntity
  8
0
 62
     0
100
AcDbLine
 10
961.3529484292957
 20
3126.170224609318
 30
0.0
 11
961.3529484292957
 21
3126.170224609318
 31
0.0
  0
LINE
  5
E57
330
D0B
100
AcDbEntity
  8
0
 62
     0
100
AcDbLine
 10
956.3529484292958
 20
3126.170224609318
 30
0.0
 11
956.3529484292958
 21
3126.170224609318
 31
0.0
  0
LINE
  5
E58
330
D0B
100
AcDbEntity
  8
0
 62
     0
100
AcDbLine
 10
951.3529484292957
 20
3126.170224609318
 30
0.0
 11
951.3529484292957
 21
3126.170224609318
 31
0.0
  0
LINE
  5
E59
330
D0B
100
AcDbEntity
  8
0
 62
     0
100
AcDbLine
 10
946.3529484292958
 20
3126.170224609318
 30
0.0
 11
946.3529484292958
 21
3126.170224609318
 31
0.0
  0
LINE
  5
E5A
330
D0B
100
AcDbEntity
  8
0
 62
     0
100
AcDbLine
 10
941.3529484292958
 20
3126.170224609318
 30
0.0
 11
941.3529484292958
 21
3126.170224609318
 31
0.0
  0
LINE
  5
E5B
330
D0B
100
AcDbEntity
  8
0
 62
     0
100
AcDbLine
 10
936.3529484292957
 20
3126.170224609318
 30
0.0
 11
936.3529484292957
 21
3126.170224609318
 31
0.0
  0
LINE
  5
E5C
330
D0B
100
AcDbEntity
  8
0
 62
     0
100
AcDbLine
 10
931.3529484292958
 20
3126.170224609318
 30
0.0
 11
931.3529484292958
 21
3126.170224609318
 31
0.0
  0
LINE
  5
E5D
330
D0B
100
AcDbEntity
  8
0
 62
     0
100
AcDbLine
 10
926.3529484292957
 20
3126.170224609318
 30
0.0
 11
926.3529484292957
 21
3126.170224609318
 31
0.0
  0
LINE
  5
E5E
330
D0B
100
AcDbEntity
  8
0
 62
     0
100
AcDbLine
 10
901.3529484292957
 20
3126.170224609318
 30
0.0
 11
901.3529484292957
 21
3126.170224609318
 31
0.0
  0
LINE
  5
E5F
330
D0B
100
AcDbEntity
  8
0
 62
     0
100
AcDbLine
 10
896.3529484292958
 20
3126.170224609318
 30
0.0
 11
896.3529484292958
 21
3126.170224609318
 31
0.0
  0
LINE
  5
E60
330
D0B
100
AcDbEntity
  8
0
 62
     0
100
AcDbLine
 10
891.3529484292958
 20
3126.170224609318
 30
0.0
 11
891.3529484292958
 21
3126.170224609318
 31
0.0
  0
LINE
  5
E61
330
D0B
100
AcDbEntity
  8
0
 62
     0
100
AcDbLine
 10
886.3529484292957
 20
3126.170224609318
 30
0.0
 11
886.3529484292957
 21
3126.170224609318
 31
0.0
  0
LINE
  5
E62
330
D0B
100
AcDbEntity
  8
0
 62
     0
100
AcDbLine
 10
881.3529484292958
 20
3126.170224609318
 30
0.0
 11
881.3529484292958
 21
3126.170224609318
 31
0.0
  0
LINE
  5
E63
330
D0B
100
AcDbEntity
  8
0
 62
     0
100
AcDbLine
 10
876.3529484292957
 20
3126.170224609318
 30
0.0
 11
876.3529484292957
 21
3126.170224609318
 31
0.0
  0
LINE
  5
E64
330
D0B
100
AcDbEntity
  8
0
 62
     0
100
AcDbLine
 10
871.3529484292958
 20
3126.170224609318
 30
0.0
 11
871.3529484292958
 21
3126.170224609318
 31
0.0
  0
LINE
  5
E65
330
D0B
100
AcDbEntity
  8
0
 62
     0
100
AcDbLine
 10
866.3529484292958
 20
3126.170224609318
 30
0.0
 11
866.3529484292958
 21
3126.170224609318
 31
0.0
  0
LINE
  5
E66
330
D0B
100
AcDbEntity
  8
0
 62
     0
100
AcDbLine
 10
861.3529484292957
 20
3126.170224609318
 30
0.0
 11
861.3529484292957
 21
3126.170224609318
 31
0.0
  0
LINE
  5
E67
330
D0B
100
AcDbEntity
  8
0
 62
     0
100
AcDbLine
 10
856.3529484292958
 20
3126.170224609318
 30
0.0
 11
856.3529484292958
 21
3126.170224609318
 31
0.0
  0
LINE
  5
E68
330
D0B
100
AcDbEntity
  8
0
 62
     0
100
AcDbLine
 10
851.3529484292957
 20
3126.170224609318
 30
0.0
 11
851.3529484292957
 21
3126.170224609318
 31
0.0
  0
LINE
  5
E69
330
D0B
100
AcDbEntity
  8
0
 62
     0
100
AcDbLine
 10
978.8529484292958
 20
3131.170224609319
 30
0.0
 11
978.8529484292958
 21
3131.170224609319
 31
0.0
  0
LINE
  5
E6A
330
D0B
100
AcDbEntity
  8
0
 62
     0
100
AcDbLine
 10
973.8529484292957
 20
3131.170224609319
 30
0.0
 11
973.8529484292957
 21
3131.170224609319
 31
0.0
  0
LINE
  5
E6B
330
D0B
100
AcDbEntity
  8
0
 62
     0
100
AcDbLine
 10
968.8529484292958
 20
3131.170224609319
 30
0.0
 11
968.8529484292958
 21
3131.170224609319
 31
0.0
  0
LINE
  5
E6C
330
D0B
100
AcDbEntity
  8
0
 62
     0
100
AcDbLine
 10
963.8529484292957
 20
3131.170224609319
 30
0.0
 11
963.8529484292957
 21
3131.170224609319
 31
0.0
  0
LINE
  5
E6D
330
D0B
100
AcDbEntity
  8
0
 62
     0
100
AcDbLine
 10
958.8529484292958
 20
3131.170224609319
 30
0.0
 11
958.8529484292958
 21
3131.170224609319
 31
0.0
  0
LINE
  5
E6E
330
D0B
100
AcDbEntity
  8
0
 62
     0
100
AcDbLine
 10
953.8529484292958
 20
3131.170224609319
 30
0.0
 11
953.8529484292958
 21
3131.170224609319
 31
0.0
  0
LINE
  5
E6F
330
D0B
100
AcDbEntity
  8
0
 62
     0
100
AcDbLine
 10
948.8529484292957
 20
3131.170224609319
 30
0.0
 11
948.8529484292957
 21
3131.170224609319
 31
0.0
  0
LINE
  5
E70
330
D0B
100
AcDbEntity
  8
0
 62
     0
100
AcDbLine
 10
943.8529484292958
 20
3131.170224609319
 30
0.0
 11
943.8529484292958
 21
3131.170224609319
 31
0.0
  0
LINE
  5
E71
330
D0B
100
AcDbEntity
  8
0
 62
     0
100
AcDbLine
 10
938.8529484292957
 20
3131.170224609319
 30
0.0
 11
938.8529484292957
 21
3131.170224609319
 31
0.0
  0
LINE
  5
E72
330
D0B
100
AcDbEntity
  8
0
 62
     0
100
AcDbLine
 10
933.8529484292958
 20
3131.170224609319
 30
0.0
 11
933.8529484292958
 21
3131.170224609319
 31
0.0
  0
LINE
  5
E73
330
D0B
100
AcDbEntity
  8
0
 62
     0
100
AcDbLine
 10
928.8529484292958
 20
3131.170224609319
 30
0.0
 11
928.8529484292958
 21
3131.170224609319
 31
0.0
  0
LINE
  5
E74
330
D0B
100
AcDbEntity
  8
0
 62
     0
100
AcDbLine
 10
923.8529484292957
 20
3131.170224609319
 30
0.0
 11
923.8529484292957
 21
3131.170224609319
 31
0.0
  0
LINE
  5
E75
330
D0B
100
AcDbEntity
  8
0
 62
     0
100
AcDbLine
 10
918.8529484292958
 20
3131.170224609319
 30
0.0
 11
918.8529484292958
 21
3131.170224609319
 31
0.0
  0
LINE
  5
E76
330
D0B
100
AcDbEntity
  8
0
 62
     0
100
AcDbLine
 10
913.8529484292957
 20
3131.170224609319
 30
0.0
 11
913.8529484292957
 21
3131.170224609319
 31
0.0
  0
LINE
  5
E77
330
D0B
100
AcDbEntity
  8
0
 62
     0
100
AcDbLine
 10
908.8529484292958
 20
3131.170224609319
 30
0.0
 11
908.8529484292958
 21
3131.170224609319
 31
0.0
  0
LINE
  5
E78
330
D0B
100
AcDbEntity
  8
0
 62
     0
100
AcDbLine
 10
903.8529484292958
 20
3131.170224609319
 30
0.0
 11
903.8529484292958
 21
3131.170224609319
 31
0.0
  0
LINE
  5
E79
330
D0B
100
AcDbEntity
  8
0
 62
     0
100
AcDbLine
 10
898.8529484292957
 20
3131.170224609319
 30
0.0
 11
898.8529484292957
 21
3131.170224609319
 31
0.0
  0
LINE
  5
E7A
330
D0B
100
AcDbEntity
  8
0
 62
     0
100
AcDbLine
 10
893.8529484292958
 20
3131.170224609319
 30
0.0
 11
893.8529484292958
 21
3131.170224609319
 31
0.0
  0
LINE
  5
E7B
330
D0B
100
AcDbEntity
  8
0
 62
     0
100
AcDbLine
 10
888.8529484292957
 20
3131.170224609319
 30
0.0
 11
888.8529484292957
 21
3131.170224609319
 31
0.0
  0
LINE
  5
E7C
330
D0B
100
AcDbEntity
  8
0
 62
     0
100
AcDbLine
 10
883.8529484292958
 20
3131.170224609319
 30
0.0
 11
883.8529484292958
 21
3131.170224609319
 31
0.0
  0
LINE
  5
E7D
330
D0B
100
AcDbEntity
  8
0
 62
     0
100
AcDbLine
 10
878.8529484292958
 20
3131.170224609319
 30
0.0
 11
878.8529484292958
 21
3131.170224609319
 31
0.0
  0
LINE
  5
E7E
330
D0B
100
AcDbEntity
  8
0
 62
     0
100
AcDbLine
 10
873.8529484292957
 20
3131.170224609319
 30
0.0
 11
873.8529484292957
 21
3131.170224609319
 31
0.0
  0
LINE
  5
E7F
330
D0B
100
AcDbEntity
  8
0
 62
     0
100
AcDbLine
 10
868.8529484292958
 20
3131.170224609319
 30
0.0
 11
868.8529484292958
 21
3131.170224609319
 31
0.0
  0
LINE
  5
E80
330
D0B
100
AcDbEntity
  8
0
 62
     0
100
AcDbLine
 10
863.8529484292957
 20
3131.170224609319
 30
0.0
 11
863.8529484292957
 21
3131.170224609319
 31
0.0
  0
LINE
  5
E81
330
D0B
100
AcDbEntity
  8
0
 62
     0
100
AcDbLine
 10
858.8529484292958
 20
3131.170224609319
 30
0.0
 11
858.8529484292958
 21
3131.170224609319
 31
0.0
  0
LINE
  5
E82
330
D0B
100
AcDbEntity
  8
0
 62
     0
100
AcDbLine
 10
853.8529484292958
 20
3131.170224609319
 30
0.0
 11
853.8529484292958
 21
3131.170224609319
 31
0.0
  0
LINE
  5
E83
330
D0B
100
AcDbEntity
  8
0
 62
     0
100
AcDbLine
 10
848.8529484292957
 20
3131.170224609319
 30
0.0
 11
848.8529484292957
 21
3131.170224609319
 31
0.0
  0
LINE
  5
E84
330
D0B
100
AcDbEntity
  8
0
 62
     0
100
AcDbLine
 10
976.3529484292957
 20
3136.170224609319
 30
0.0
 11
976.3529484292957
 21
3136.170224609319
 31
0.0
  0
LINE
  5
E85
330
D0B
100
AcDbEntity
  8
0
 62
     0
100
AcDbLine
 10
971.3529484292958
 20
3136.170224609319
 30
0.0
 11
971.3529484292958
 21
3136.170224609319
 31
0.0
  0
LINE
  5
E86
330
D0B
100
AcDbEntity
  8
0
 62
     0
100
AcDbLine
 10
966.3529484292958
 20
3136.170224609319
 30
0.0
 11
966.3529484292958
 21
3136.170224609319
 31
0.0
  0
LINE
  5
E87
330
D0B
100
AcDbEntity
  8
0
 62
     0
100
AcDbLine
 10
961.3529484292957
 20
3136.170224609319
 30
0.0
 11
961.3529484292957
 21
3136.170224609319
 31
0.0
  0
LINE
  5
E88
330
D0B
100
AcDbEntity
  8
0
 62
     0
100
AcDbLine
 10
956.3529484292958
 20
3136.170224609319
 30
0.0
 11
956.3529484292958
 21
3136.170224609319
 31
0.0
  0
LINE
  5
E89
330
D0B
100
AcDbEntity
  8
0
 62
     0
100
AcDbLine
 10
951.3529484292957
 20
3136.170224609319
 30
0.0
 11
951.3529484292957
 21
3136.170224609319
 31
0.0
  0
LINE
  5
E8A
330
D0B
100
AcDbEntity
  8
0
 62
     0
100
AcDbLine
 10
946.3529484292958
 20
3136.170224609319
 30
0.0
 11
946.3529484292958
 21
3136.170224609319
 31
0.0
  0
LINE
  5
E8B
330
D0B
100
AcDbEntity
  8
0
 62
     0
100
AcDbLine
 10
941.3529484292958
 20
3136.170224609319
 30
0.0
 11
941.3529484292958
 21
3136.170224609319
 31
0.0
  0
LINE
  5
E8C
330
D0B
100
AcDbEntity
  8
0
 62
     0
100
AcDbLine
 10
936.3529484292957
 20
3136.170224609319
 30
0.0
 11
936.3529484292957
 21
3136.170224609319
 31
0.0
  0
LINE
  5
E8D
330
D0B
100
AcDbEntity
  8
0
 62
     0
100
AcDbLine
 10
931.3529484292958
 20
3136.170224609319
 30
0.0
 11
931.3529484292958
 21
3136.170224609319
 31
0.0
  0
LINE
  5
E8E
330
D0B
100
AcDbEntity
  8
0
 62
     0
100
AcDbLine
 10
926.3529484292957
 20
3136.170224609319
 30
0.0
 11
926.3529484292957
 21
3136.170224609319
 31
0.0
  0
LINE
  5
E8F
330
D0B
100
AcDbEntity
  8
0
 62
     0
100
AcDbLine
 10
921.3529484292958
 20
3136.170224609319
 30
0.0
 11
921.3529484292958
 21
3136.170224609319
 31
0.0
  0
LINE
  5
E90
330
D0B
100
AcDbEntity
  8
0
 62
     0
100
AcDbLine
 10
916.3529484292958
 20
3136.170224609319
 30
0.0
 11
916.3529484292958
 21
3136.170224609319
 31
0.0
  0
LINE
  5
E91
330
D0B
100
AcDbEntity
  8
0
 62
     0
100
AcDbLine
 10
911.3529484292957
 20
3136.170224609319
 30
0.0
 11
911.3529484292957
 21
3136.170224609319
 31
0.0
  0
LINE
  5
E92
330
D0B
100
AcDbEntity
  8
0
 62
     0
100
AcDbLine
 10
906.3529484292958
 20
3136.170224609319
 30
0.0
 11
906.3529484292958
 21
3136.170224609319
 31
0.0
  0
LINE
  5
E93
330
D0B
100
AcDbEntity
  8
0
 62
     0
100
AcDbLine
 10
901.3529484292957
 20
3136.170224609319
 30
0.0
 11
901.3529484292957
 21
3136.170224609319
 31
0.0
  0
LINE
  5
E94
330
D0B
100
AcDbEntity
  8
0
 62
     0
100
AcDbLine
 10
896.3529484292958
 20
3136.170224609319
 30
0.0
 11
896.3529484292958
 21
3136.170224609319
 31
0.0
  0
LINE
  5
E95
330
D0B
100
AcDbEntity
  8
0
 62
     0
100
AcDbLine
 10
891.3529484292958
 20
3136.170224609319
 30
0.0
 11
891.3529484292958
 21
3136.170224609319
 31
0.0
  0
LINE
  5
E96
330
D0B
100
AcDbEntity
  8
0
 62
     0
100
AcDbLine
 10
886.3529484292957
 20
3136.170224609319
 30
0.0
 11
886.3529484292957
 21
3136.170224609319
 31
0.0
  0
LINE
  5
E97
330
D0B
100
AcDbEntity
  8
0
 62
     0
100
AcDbLine
 10
881.3529484292958
 20
3136.170224609319
 30
0.0
 11
881.3529484292958
 21
3136.170224609319
 31
0.0
  0
LINE
  5
E98
330
D0B
100
AcDbEntity
  8
0
 62
     0
100
AcDbLine
 10
876.3529484292957
 20
3136.170224609319
 30
0.0
 11
876.3529484292957
 21
3136.170224609319
 31
0.0
  0
LINE
  5
E99
330
D0B
100
AcDbEntity
  8
0
 62
     0
100
AcDbLine
 10
871.3529484292958
 20
3136.170224609319
 30
0.0
 11
871.3529484292958
 21
3136.170224609319
 31
0.0
  0
LINE
  5
E9A
330
D0B
100
AcDbEntity
  8
0
 62
     0
100
AcDbLine
 10
866.3529484292958
 20
3136.170224609319
 30
0.0
 11
866.3529484292958
 21
3136.170224609319
 31
0.0
  0
LINE
  5
E9B
330
D0B
100
AcDbEntity
  8
0
 62
     0
100
AcDbLine
 10
861.3529484292957
 20
3136.170224609319
 30
0.0
 11
861.3529484292957
 21
3136.170224609319
 31
0.0
  0
LINE
  5
E9C
330
D0B
100
AcDbEntity
  8
0
 62
     0
100
AcDbLine
 10
856.3529484292958
 20
3136.170224609319
 30
0.0
 11
856.3529484292958
 21
3136.170224609319
 31
0.0
  0
LINE
  5
E9D
330
D0B
100
AcDbEntity
  8
0
 62
     0
100
AcDbLine
 10
851.3529484292957
 20
3136.170224609319
 30
0.0
 11
851.3529484292957
 21
3136.170224609319
 31
0.0
  0
LINE
  5
E9E
330
D0B
100
AcDbEntity
  8
0
 62
     0
100
AcDbLine
 10
973.8529484292957
 20
3141.170224609318
 30
0.0
 11
973.8529484292957
 21
3141.170224609318
 31
0.0
  0
LINE
  5
E9F
330
D0B
100
AcDbEntity
  8
0
 62
     0
100
AcDbLine
 10
968.8529484292958
 20
3141.170224609318
 30
0.0
 11
968.8529484292958
 21
3141.170224609318
 31
0.0
  0
LINE
  5
EA0
330
D0B
100
AcDbEntity
  8
0
 62
     0
100
AcDbLine
 10
963.8529484292957
 20
3141.170224609318
 30
0.0
 11
963.8529484292957
 21
3141.170224609318
 31
0.0
  0
LINE
  5
EA1
330
D0B
100
AcDbEntity
  8
0
 62
     0
100
AcDbLine
 10
958.8529484292958
 20
3141.170224609318
 30
0.0
 11
958.8529484292958
 21
3141.170224609318
 31
0.0
  0
LINE
  5
EA2
330
D0B
100
AcDbEntity
  8
0
 62
     0
100
AcDbLine
 10
953.8529484292958
 20
3141.170224609318
 30
0.0
 11
953.8529484292958
 21
3141.170224609318
 31
0.0
  0
LINE
  5
EA3
330
D0B
100
AcDbEntity
  8
0
 62
     0
100
AcDbLine
 10
948.8529484292957
 20
3141.170224609318
 30
0.0
 11
948.8529484292957
 21
3141.170224609318
 31
0.0
  0
LINE
  5
EA4
330
D0B
100
AcDbEntity
  8
0
 62
     0
100
AcDbLine
 10
943.8529484292958
 20
3141.170224609318
 30
0.0
 11
943.8529484292958
 21
3141.170224609318
 31
0.0
  0
LINE
  5
EA5
330
D0B
100
AcDbEntity
  8
0
 62
     0
100
AcDbLine
 10
938.8529484292957
 20
3141.170224609318
 30
0.0
 11
938.8529484292957
 21
3141.170224609318
 31
0.0
  0
LINE
  5
EA6
330
D0B
100
AcDbEntity
  8
0
 62
     0
100
AcDbLine
 10
933.8529484292958
 20
3141.170224609318
 30
0.0
 11
933.8529484292958
 21
3141.170224609318
 31
0.0
  0
LINE
  5
EA7
330
D0B
100
AcDbEntity
  8
0
 62
     0
100
AcDbLine
 10
928.8529484292958
 20
3141.170224609318
 30
0.0
 11
928.8529484292958
 21
3141.170224609318
 31
0.0
  0
LINE
  5
EA8
330
D0B
100
AcDbEntity
  8
0
 62
     0
100
AcDbLine
 10
923.8529484292957
 20
3141.170224609318
 30
0.0
 11
923.8529484292957
 21
3141.170224609318
 31
0.0
  0
LINE
  5
EA9
330
D0B
100
AcDbEntity
  8
0
 62
     0
100
AcDbLine
 10
918.8529484292958
 20
3141.170224609318
 30
0.0
 11
918.8529484292958
 21
3141.170224609318
 31
0.0
  0
LINE
  5
EAA
330
D0B
100
AcDbEntity
  8
0
 62
     0
100
AcDbLine
 10
913.8529484292957
 20
3141.170224609318
 30
0.0
 11
913.8529484292957
 21
3141.170224609318
 31
0.0
  0
LINE
  5
EAB
330
D0B
100
AcDbEntity
  8
0
 62
     0
100
AcDbLine
 10
908.8529484292958
 20
3141.170224609318
 30
0.0
 11
908.8529484292958
 21
3141.170224609318
 31
0.0
  0
LINE
  5
EAC
330
D0B
100
AcDbEntity
  8
0
 62
     0
100
AcDbLine
 10
903.8529484292958
 20
3141.170224609318
 30
0.0
 11
903.8529484292958
 21
3141.170224609318
 31
0.0
  0
LINE
  5
EAD
330
D0B
100
AcDbEntity
  8
0
 62
     0
100
AcDbLine
 10
898.8529484292957
 20
3141.170224609318
 30
0.0
 11
898.8529484292957
 21
3141.170224609318
 31
0.0
  0
LINE
  5
EAE
330
D0B
100
AcDbEntity
  8
0
 62
     0
100
AcDbLine
 10
893.8529484292958
 20
3141.170224609318
 30
0.0
 11
893.8529484292958
 21
3141.170224609318
 31
0.0
  0
LINE
  5
EAF
330
D0B
100
AcDbEntity
  8
0
 62
     0
100
AcDbLine
 10
888.8529484292957
 20
3141.170224609318
 30
0.0
 11
888.8529484292957
 21
3141.170224609318
 31
0.0
  0
LINE
  5
EB0
330
D0B
100
AcDbEntity
  8
0
 62
     0
100
AcDbLine
 10
883.8529484292958
 20
3141.170224609318
 30
0.0
 11
883.8529484292958
 21
3141.170224609318
 31
0.0
  0
LINE
  5
EB1
330
D0B
100
AcDbEntity
  8
0
 62
     0
100
AcDbLine
 10
878.8529484292958
 20
3141.170224609318
 30
0.0
 11
878.8529484292958
 21
3141.170224609318
 31
0.0
  0
LINE
  5
EB2
330
D0B
100
AcDbEntity
  8
0
 62
     0
100
AcDbLine
 10
873.8529484292957
 20
3141.170224609318
 30
0.0
 11
873.8529484292957
 21
3141.170224609318
 31
0.0
  0
LINE
  5
EB3
330
D0B
100
AcDbEntity
  8
0
 62
     0
100
AcDbLine
 10
868.8529484292958
 20
3141.170224609318
 30
0.0
 11
868.8529484292958
 21
3141.170224609318
 31
0.0
  0
LINE
  5
EB4
330
D0B
100
AcDbEntity
  8
0
 62
     0
100
AcDbLine
 10
863.8529484292957
 20
3141.170224609318
 30
0.0
 11
863.8529484292957
 21
3141.170224609318
 31
0.0
  0
LINE
  5
EB5
330
D0B
100
AcDbEntity
  8
0
 62
     0
100
AcDbLine
 10
858.8529484292958
 20
3141.170224609318
 30
0.0
 11
858.8529484292958
 21
3141.170224609318
 31
0.0
  0
LINE
  5
EB6
330
D0B
100
AcDbEntity
  8
0
 62
     0
100
AcDbLine
 10
853.8529484292958
 20
3141.170224609318
 30
0.0
 11
853.8529484292958
 21
3141.170224609318
 31
0.0
  0
LINE
  5
EB7
330
D0B
100
AcDbEntity
  8
0
 62
     0
100
AcDbLine
 10
971.3529484292958
 20
3146.170224609318
 30
0.0
 11
971.3529484292958
 21
3146.170224609318
 31
0.0
  0
LINE
  5
EB8
330
D0B
100
AcDbEntity
  8
0
 62
     0
100
AcDbLine
 10
966.3529484292958
 20
3146.170224609318
 30
0.0
 11
966.3529484292958
 21
3146.170224609318
 31
0.0
  0
LINE
  5
EB9
330
D0B
100
AcDbEntity
  8
0
 62
     0
100
AcDbLine
 10
961.3529484292957
 20
3146.170224609318
 30
0.0
 11
961.3529484292957
 21
3146.170224609318
 31
0.0
  0
LINE
  5
EBA
330
D0B
100
AcDbEntity
  8
0
 62
     0
100
AcDbLine
 10
956.3529484292958
 20
3146.170224609318
 30
0.0
 11
956.3529484292958
 21
3146.170224609318
 31
0.0
  0
LINE
  5
EBB
330
D0B
100
AcDbEntity
  8
0
 62
     0
100
AcDbLine
 10
951.3529484292957
 20
3146.170224609318
 30
0.0
 11
951.3529484292957
 21
3146.170224609318
 31
0.0
  0
LINE
  5
EBC
330
D0B
100
AcDbEntity
  8
0
 62
     0
100
AcDbLine
 10
946.3529484292958
 20
3146.170224609318
 30
0.0
 11
946.3529484292958
 21
3146.170224609318
 31
0.0
  0
LINE
  5
EBD
330
D0B
100
AcDbEntity
  8
0
 62
     0
100
AcDbLine
 10
941.3529484292958
 20
3146.170224609318
 30
0.0
 11
941.3529484292958
 21
3146.170224609318
 31
0.0
  0
LINE
  5
EBE
330
D0B
100
AcDbEntity
  8
0
 62
     0
100
AcDbLine
 10
936.3529484292957
 20
3146.170224609318
 30
0.0
 11
936.3529484292957
 21
3146.170224609318
 31
0.0
  0
LINE
  5
EBF
330
D0B
100
AcDbEntity
  8
0
 62
     0
100
AcDbLine
 10
931.3529484292958
 20
3146.170224609318
 30
0.0
 11
931.3529484292958
 21
3146.170224609318
 31
0.0
  0
LINE
  5
EC0
330
D0B
100
AcDbEntity
  8
0
 62
     0
100
AcDbLine
 10
926.3529484292957
 20
3146.170224609318
 30
0.0
 11
926.3529484292957
 21
3146.170224609318
 31
0.0
  0
LINE
  5
EC1
330
D0B
100
AcDbEntity
  8
0
 62
     0
100
AcDbLine
 10
921.3529484292958
 20
3146.170224609318
 30
0.0
 11
921.3529484292958
 21
3146.170224609318
 31
0.0
  0
LINE
  5
EC2
330
D0B
100
AcDbEntity
  8
0
 62
     0
100
AcDbLine
 10
916.3529484292958
 20
3146.170224609318
 30
0.0
 11
916.3529484292958
 21
3146.170224609318
 31
0.0
  0
LINE
  5
EC3
330
D0B
100
AcDbEntity
  8
0
 62
     0
100
AcDbLine
 10
911.3529484292957
 20
3146.170224609318
 30
0.0
 11
911.3529484292957
 21
3146.170224609318
 31
0.0
  0
LINE
  5
EC4
330
D0B
100
AcDbEntity
  8
0
 62
     0
100
AcDbLine
 10
906.3529484292958
 20
3146.170224609318
 30
0.0
 11
906.3529484292958
 21
3146.170224609318
 31
0.0
  0
LINE
  5
EC5
330
D0B
100
AcDbEntity
  8
0
 62
     0
100
AcDbLine
 10
901.3529484292957
 20
3146.170224609318
 30
0.0
 11
901.3529484292957
 21
3146.170224609318
 31
0.0
  0
LINE
  5
EC6
330
D0B
100
AcDbEntity
  8
0
 62
     0
100
AcDbLine
 10
896.3529484292958
 20
3146.170224609318
 30
0.0
 11
896.3529484292958
 21
3146.170224609318
 31
0.0
  0
LINE
  5
EC7
330
D0B
100
AcDbEntity
  8
0
 62
     0
100
AcDbLine
 10
891.3529484292958
 20
3146.170224609318
 30
0.0
 11
891.3529484292958
 21
3146.170224609318
 31
0.0
  0
LINE
  5
EC8
330
D0B
100
AcDbEntity
  8
0
 62
     0
100
AcDbLine
 10
886.3529484292957
 20
3146.170224609318
 30
0.0
 11
886.3529484292957
 21
3146.170224609318
 31
0.0
  0
LINE
  5
EC9
330
D0B
100
AcDbEntity
  8
0
 62
     0
100
AcDbLine
 10
881.3529484292958
 20
3146.170224609318
 30
0.0
 11
881.3529484292958
 21
3146.170224609318
 31
0.0
  0
LINE
  5
ECA
330
D0B
100
AcDbEntity
  8
0
 62
     0
100
AcDbLine
 10
876.3529484292957
 20
3146.170224609318
 30
0.0
 11
876.3529484292957
 21
3146.170224609318
 31
0.0
  0
LINE
  5
ECB
330
D0B
100
AcDbEntity
  8
0
 62
     0
100
AcDbLine
 10
871.3529484292958
 20
3146.170224609318
 30
0.0
 11
871.3529484292958
 21
3146.170224609318
 31
0.0
  0
LINE
  5
ECC
330
D0B
100
AcDbEntity
  8
0
 62
     0
100
AcDbLine
 10
866.3529484292958
 20
3146.170224609318
 30
0.0
 11
866.3529484292958
 21
3146.170224609318
 31
0.0
  0
LINE
  5
ECD
330
D0B
100
AcDbEntity
  8
0
 62
     0
100
AcDbLine
 10
861.3529484292957
 20
3146.170224609318
 30
0.0
 11
861.3529484292957
 21
3146.170224609318
 31
0.0
  0
LINE
  5
ECE
330
D0B
100
AcDbEntity
  8
0
 62
     0
100
AcDbLine
 10
856.3529484292958
 20
3146.170224609318
 30
0.0
 11
856.3529484292958
 21
3146.170224609318
 31
0.0
  0
LINE
  5
ECF
330
D0B
100
AcDbEntity
  8
0
 62
     0
100
AcDbLine
 10
918.8529484292958
 20
3151.170224609318
 30
0.0
 11
918.8529484292958
 21
3151.170224609318
 31
0.0
  0
LINE
  5
ED0
330
D0B
100
AcDbEntity
  8
0
 62
     0
100
AcDbLine
 10
913.8529484292957
 20
3151.170224609318
 30
0.0
 11
913.8529484292957
 21
3151.170224609318
 31
0.0
  0
LINE
  5
ED1
330
D0B
100
AcDbEntity
  8
0
 62
     0
100
AcDbLine
 10
908.8529484292958
 20
3151.170224609318
 30
0.0
 11
908.8529484292958
 21
3151.170224609318
 31
0.0
  0
LINE
  5
ED2
330
D0B
100
AcDbEntity
  8
0
 62
     0
100
AcDbLine
 10
968.8529484292958
 20
3151.170224609318
 30
0.0
 11
968.8529484292958
 21
3151.170224609318
 31
0.0
  0
LINE
  5
ED3
330
D0B
100
AcDbEntity
  8
0
 62
     0
100
AcDbLine
 10
963.8529484292957
 20
3151.170224609318
 30
0.0
 11
963.8529484292957
 21
3151.170224609318
 31
0.0
  0
LINE
  5
ED4
330
D0B
100
AcDbEntity
  8
0
 62
     0
100
AcDbLine
 10
958.8529484292958
 20
3151.170224609318
 30
0.0
 11
958.8529484292958
 21
3151.170224609318
 31
0.0
  0
LINE
  5
ED5
330
D0B
100
AcDbEntity
  8
0
 62
     0
100
AcDbLine
 10
953.8529484292958
 20
3151.170224609318
 30
0.0
 11
953.8529484292958
 21
3151.170224609318
 31
0.0
  0
LINE
  5
ED6
330
D0B
100
AcDbEntity
  8
0
 62
     0
100
AcDbLine
 10
948.8529484292957
 20
3151.170224609318
 30
0.0
 11
948.8529484292957
 21
3151.170224609318
 31
0.0
  0
LINE
  5
ED7
330
D0B
100
AcDbEntity
  8
0
 62
     0
100
AcDbLine
 10
943.8529484292958
 20
3151.170224609318
 30
0.0
 11
943.8529484292958
 21
3151.170224609318
 31
0.0
  0
LINE
  5
ED8
330
D0B
100
AcDbEntity
  8
0
 62
     0
100
AcDbLine
 10
938.8529484292957
 20
3151.170224609318
 30
0.0
 11
938.8529484292957
 21
3151.170224609318
 31
0.0
  0
LINE
  5
ED9
330
D0B
100
AcDbEntity
  8
0
 62
     0
100
AcDbLine
 10
933.8529484292958
 20
3151.170224609318
 30
0.0
 11
933.8529484292958
 21
3151.170224609318
 31
0.0
  0
LINE
  5
EDA
330
D0B
100
AcDbEntity
  8
0
 62
     0
100
AcDbLine
 10
928.8529484292958
 20
3151.170224609318
 30
0.0
 11
928.8529484292958
 21
3151.170224609318
 31
0.0
  0
LINE
  5
EDB
330
D0B
100
AcDbEntity
  8
0
 62
     0
100
AcDbLine
 10
898.8529484292957
 20
3151.170224609318
 30
0.0
 11
898.8529484292957
 21
3151.170224609318
 31
0.0
  0
LINE
  5
EDC
330
D0B
100
AcDbEntity
  8
0
 62
     0
100
AcDbLine
 10
893.8529484292958
 20
3151.170224609318
 30
0.0
 11
893.8529484292958
 21
3151.170224609318
 31
0.0
  0
LINE
  5
EDD
330
D0B
100
AcDbEntity
  8
0
 62
     0
100
AcDbLine
 10
888.8529484292957
 20
3151.170224609318
 30
0.0
 11
888.8529484292957
 21
3151.170224609318
 31
0.0
  0
LINE
  5
EDE
330
D0B
100
AcDbEntity
  8
0
 62
     0
100
AcDbLine
 10
883.8529484292958
 20
3151.170224609318
 30
0.0
 11
883.8529484292958
 21
3151.170224609318
 31
0.0
  0
LINE
  5
EDF
330
D0B
100
AcDbEntity
  8
0
 62
     0
100
AcDbLine
 10
878.8529484292958
 20
3151.170224609318
 30
0.0
 11
878.8529484292958
 21
3151.170224609318
 31
0.0
  0
LINE
  5
EE0
330
D0B
100
AcDbEntity
  8
0
 62
     0
100
AcDbLine
 10
873.8529484292957
 20
3151.170224609318
 30
0.0
 11
873.8529484292957
 21
3151.170224609318
 31
0.0
  0
LINE
  5
EE1
330
D0B
100
AcDbEntity
  8
0
 62
     0
100
AcDbLine
 10
868.8529484292958
 20
3151.170224609318
 30
0.0
 11
868.8529484292958
 21
3151.170224609318
 31
0.0
  0
LINE
  5
EE2
330
D0B
100
AcDbEntity
  8
0
 62
     0
100
AcDbLine
 10
863.8529484292957
 20
3151.170224609318
 30
0.0
 11
863.8529484292957
 21
3151.170224609318
 31
0.0
  0
LINE
  5
EE3
330
D0B
100
AcDbEntity
  8
0
 62
     0
100
AcDbLine
 10
858.8529484292958
 20
3151.170224609318
 30
0.0
 11
858.8529484292958
 21
3151.170224609318
 31
0.0
  0
LINE
  5
EE4
330
D0B
100
AcDbEntity
  8
0
 62
     0
100
AcDbLine
 10
916.3529484292958
 20
3156.170224609319
 30
0.0
 11
916.3529484292958
 21
3156.170224609319
 31
0.0
  0
LINE
  5
EE5
330
D0B
100
AcDbEntity
  8
0
 62
     0
100
AcDbLine
 10
961.3529484292957
 20
3156.170224609319
 30
0.0
 11
961.3529484292957
 21
3156.170224609319
 31
0.0
  0
LINE
  5
EE6
330
D0B
100
AcDbEntity
  8
0
 62
     0
100
AcDbLine
 10
956.3529484292958
 20
3156.170224609319
 30
0.0
 11
956.3529484292958
 21
3156.170224609319
 31
0.0
  0
LINE
  5
EE7
330
D0B
100
AcDbEntity
  8
0
 62
     0
100
AcDbLine
 10
951.3529484292957
 20
3156.170224609319
 30
0.0
 11
951.3529484292957
 21
3156.170224609319
 31
0.0
  0
LINE
  5
EE8
330
D0B
100
AcDbEntity
  8
0
 62
     0
100
AcDbLine
 10
946.3529484292958
 20
3156.170224609319
 30
0.0
 11
946.3529484292958
 21
3156.170224609319
 31
0.0
  0
LINE
  5
EE9
330
D0B
100
AcDbEntity
  8
0
 62
     0
100
AcDbLine
 10
941.3529484292958
 20
3156.170224609319
 30
0.0
 11
941.3529484292958
 21
3156.170224609319
 31
0.0
  0
LINE
  5
EEA
330
D0B
100
AcDbEntity
  8
0
 62
     0
100
AcDbLine
 10
936.3529484292957
 20
3156.170224609319
 30
0.0
 11
936.3529484292957
 21
3156.170224609319
 31
0.0
  0
LINE
  5
EEB
330
D0B
100
AcDbEntity
  8
0
 62
     0
100
AcDbLine
 10
891.3529484292958
 20
3156.170224609319
 30
0.0
 11
891.3529484292958
 21
3156.170224609319
 31
0.0
  0
LINE
  5
EEC
330
D0B
100
AcDbEntity
  8
0
 62
     0
100
AcDbLine
 10
886.3529484292957
 20
3156.170224609319
 30
0.0
 11
886.3529484292957
 21
3156.170224609319
 31
0.0
  0
LINE
  5
EED
330
D0B
100
AcDbEntity
  8
0
 62
     0
100
AcDbLine
 10
881.3529484292958
 20
3156.170224609319
 30
0.0
 11
881.3529484292958
 21
3156.170224609319
 31
0.0
  0
LINE
  5
EEE
330
D0B
100
AcDbEntity
  8
0
 62
     0
100
AcDbLine
 10
876.3529484292957
 20
3156.170224609319
 30
0.0
 11
876.3529484292957
 21
3156.170224609319
 31
0.0
  0
LINE
  5
EEF
330
D0B
100
AcDbEntity
  8
0
 62
     0
100
AcDbLine
 10
871.3529484292958
 20
3156.170224609319
 30
0.0
 11
871.3529484292958
 21
3156.170224609319
 31
0.0
  0
LINE
  5
EF0
330
D0B
100
AcDbEntity
  8
0
 62
     0
100
AcDbLine
 10
866.3529484292958
 20
3156.170224609319
 30
0.0
 11
866.3529484292958
 21
3156.170224609319
 31
0.0
  0
ENDBLK
  5
EF1
330
D0B
100
AcDbEntity
  8
0
100
AcDbBlockEnd
  0
BLOCK
  5
158C
330
1582
100
AcDbEntity
  8
0
100
AcDbBlockBegin
  2
*D8
 70
     1
 10
0.0
 20
0.0
 30
0.0
  3
*D8
  1

  0
LINE
  5
15C8
330
1582
100
AcDbEntity
  8
SUNPOU
 62
    70
370
    -2
100
AcDbLine
 10
4.068011182261785
 20
195.5214560529463
 30
0.0
 11
4.068011182261787
 21
226.0873487274362
 31
0.0
  0
LINE
  5
15C9
330
1582
100
AcDbEntity
  8
SUNPOU
 62
    70
370
    -2
100
AcDbLine
 10
144.0680111822619
 20
194.8340775386668
 30
0.0
 11
144.0680111822619
 21
226.0873487274362
 31
0.0
  0
LINE
  5
15CA
330
1582
100
AcDbEntity
  8
SUNPOU
 62
    60
370
    -2
100
AcDbLine
 10
6.068011182261787
 20
226.0873487274362
 30
0.0
 11
142.0680111822619
 21
226.0873487274362
 31
0.0
  0
INSERT
  5
15CB
330
1582
100
AcDbEntity
  8
SUNPOU
 62
    60
370
    -2
100
AcDbBlockReference
  2
_Dot
 10
4.068011182261787
 20
226.0873487274362
 30
0.0
 41
2.0
 42
2.0
 43
2.0
 50
180.0
  0
INSERT
  5
15CC
330
1582
100
AcDbEntity
  8
SUNPOU
 62
    60
370
    -2
100
AcDbBlockReference
  2
_Dot
 10
144.0680111822619
 20
226.0873487274362
 30
0.0
 41
2.0
 42
2.0
 43
2.0
  0
MTEXT
  5
15CD
330
1582
100
AcDbEntity
  8
SUNPOU
 62
    60
100
AcDbMText
 10
74.06801118226184
 20
234.0873487274361
 30
0.0
 40
10.0
 41
0.0
 71
     5
 72
     1
  1
\A1;140
  7
SUNPOU
 73
     1
 44
1.0
1001
ACAD
1000
MTEXTBEGIN
1070
    73
1070
     1
1070
    44
1040
1.0
1070
    74
1070
     0
1000
MTEXTEND
  0
POINT
  5
15CE
330
1582
100
AcDbEntity
  8
DEFPOINTS
 62
     0
100
AcDbPoint
 10
4.068011182261784
 20
185.5214560529463
 30
0.0
  0
POINT
  5
15CF
330
1582
100
AcDbEntity
  8
DEFPOINTS
 62
     0
100
AcDbPoint
 10
144.0680111822619
 20
184.8340775386668
 30
0.0
  0
POINT
  5
15D0
330
1582
100
AcDbEntity
  8
DEFPOINTS
 62
     0
100
AcDbPoint
 10
144.0680111822619
 20
226.0873487274362
 30
0.0
  0
ENDBLK
  5
158D
330
1582
100
AcDbEntity
  8
0
100
AcDbBlockEnd
  0
BLOCK
  5
1599
330
158F
100
AcDbEntity
  8
0
100
AcDbBlockBegin
  2
*D9
 70
     1
 10
0.0
 20
0.0
 30
0.0
  3
*D9
  1

  0
LINE
  5
15B6
330
158F
100
AcDbEntity
  8
SUNPOU
 62
    70
370
    -2
100
AcDbLine
 10
-5.931988817738215
 20
185.5214560529463
 30
0.0
 11
-36.49083976754147
 21
185.5214560529463
 31
0.0
  0
LINE
  5
15B7
330
158F
100
AcDbEntity
  8
SUNPOU
 62
    70
370
    -2
100
AcDbLine
 10
-7.324421575229508
 20
45.52145605294628
 30
0.0
 11
-36.4908397675415
 21
45.52145605294629
 31
0.0
  0
LINE
  5
15B8
330
158F
100
AcDbEntity
  8
SUNPOU
 62
    60
370
    -2
100
AcDbLine
 10
-36.49083976754147
 20
183.5214560529463
 30
0.0
 11
-36.4908397675415
 21
47.5214560529463
 31
0.0
  0
INSERT
  5
15B9
330
158F
100
AcDbEntity
  8
SUNPOU
 62
    60
370
    -2
100
AcDbBlockReference
  2
_Dot
 10
-36.49083976754147
 20
185.5214560529463
 30
0.0
 41
2.0
 42
2.0
 43
2.0
 50
90.0
  0
INSERT
  5
15BA
330
158F
100
AcDbEntity
  8
SUNPOU
 62
    60
370
    -2
100
AcDbBlockReference
  2
_Dot
 10
-36.4908397675415
 20
45.52145605294629
 30
0.0
 41
2.0
 42
2.0
 43
2.0
 50
270.0
  0
MTEXT
  5
15BB
330
158F
100
AcDbEntity
  8
SUNPOU
 62
    60
100
AcDbMText
 10
-44.4908397675415
 20
115.5214560529463
 30
0.0
 40
10.0
 41
0.0
 71
     5
 72
     1
  1
\A1;140
  7
SUNPOU
 11
0.0000000000000001
 21
1.0
 31
0.0
 73
     1
 44
1.0
1001
ACAD
1000
MTEXTBEGIN
1070
    73
1070
     1
1070
    44
1040
1.0
1070
    74
1070
     0
1000
MTEXTEND
  0
POINT
  5
15BC
330
158F
100
AcDbEntity
  8
DEFPOINTS
 62
     0
100
AcDbPoint
 10
4.068011182261784
 20
185.5214560529463
 30
0.0
  0
POINT
  5
15BD
330
158F
100
AcDbEntity
  8
DEFPOINTS
 62
     0
100
AcDbPoint
 10
2.675578424770492
 20
45.52145605294628
 30
0.0
  0
POINT
  5
15BE
330
158F
100
AcDbEntity
  8
DEFPOINTS
 62
     0
100
AcDbPoint
 10
-36.4908397675415
 20
45.52145605294629
 30
0.0
  0
ENDBLK
  5
159A
330
158F
100
AcDbEntity
  8
0
100
AcDbBlockEnd
  0
BLOCK
  5
166A
330
1660
100
AcDbEntity
  8
0
100
AcDbBlockBegin
  2
*D11
 70
     1
 10
0.0
 20
0.0
 30
0.0
  3
*D11
  1

  0
LINE
  5
1661
330
1660
100
AcDbEntity
  8
SUNPOU
 62
    70
370
    -2
100
AcDbLine
 10
-8.907855987643644
 20
122.9787477197707
 30
0.0
 11
-8.907855987643639
 21
206.207810088624
 31
0.0
  0
LINE
  5
1662
330
1660
100
AcDbEntity
  8
SUNPOU
 62
    70
370
    -2
100
AcDbLine
 10
129.092144012425
 20
122.9787477197557
 30
0.0
 11
129.092144012425
 21
206.207810088624
 31
0.0
  0
LINE
  5
1663
330
1660
100
AcDbEntity
  8
SUNPOU
 62
    60
370
    -2
100
AcDbLine
 10
-6.907855987643639
 20
206.207810088624
 30
0.0
 11
127.092144012425
 21
206.207810088624
 31
0.0
  0
INSERT
  5
1664
330
1660
100
AcDbEntity
  8
SUNPOU
 62
    60
370
    -2
100
AcDbBlockReference
  2
_Dot
 10
-8.907855987643639
 20
206.207810088624
 30
0.0
 41
2.0
 42
2.0
 43
2.0
 50
180.0
  0
INSERT
  5
1665
330
1660
100
AcDbEntity
  8
SUNPOU
 62
    60
370
    -2
100
AcDbBlockReference
  2
_Dot
 10
129.092144012425
 20
206.207810088624
 30
0.0
 41
2.0
 42
2.0
 43
2.0
  0
MTEXT
  5
1666
330
1660
100
AcDbEntity
  8
SUNPOU
 62
    60
100
AcDbMText
 10
60.09214401239069
 20
214.207810088624
 30
0.0
 40
10.0
 41
0.0
 71
     5
 72
     1
  1
\A1;138
  7
SUNPOU
 73
     1
 44
1.0
1001
ACAD
1000
MTEXTBEGIN
1070
    73
1070
     1
1070
    44
1040
1.0
1070
    74
1070
     0
1000
MTEXTEND
  0
POINT
  5
1667
330
1660
100
AcDbEntity
  8
DEFPOINTS
 62
     0
100
AcDbPoint
 10
-8.907855987643644
 20
112.9787477197707
 30
0.0
  0
POINT
  5
1668
330
1660
100
AcDbEntity
  8
DEFPOINTS
 62
     0
100
AcDbPoint
 10
129.092144012425
 20
112.9787477197557
 30
0.0
  0
POINT
  5
1669
330
1660
100
AcDbEntity
  8
DEFPOINTS
 62
     0
100
AcDbPoint
 10
129.092144012425
 20
206.207810088624
 30
0.0
  0
ENDBLK
  5
166B
330
1660
100
AcDbEntity
  8
0
100
AcDbBlockEnd
  0
BLOCK
  5
1680
330
1676
100
AcDbEntity
  8
0
100
AcDbBlockBegin
  2
*D12
 70
     1
 10
0.0
 20
0.0
 30
0.0
  3
*D12
  1

  0
LINE
  5
1683
330
1676
100
AcDbEntity
  8
SUNPOU
 62
    70
370
    -2
100
AcDbLine
 10
-8.407855987643642
 20
122.9787477197698
 30
0.0
 11
-8.407855987643637
 21
208.3061810304773
 31
0.0
  0
LINE
  5
1684
330
1676
100
AcDbEntity
  8
SUNPOU
 62
    70
370
    -2
100
AcDbLine
 10
128.5921440123563
 20
122.9787477197698
 30
0.0
 11
128.5921440123563
 21
208.3061810304773
 31
0.0
  0
LINE
  5
1685
330
1676
100
AcDbEntity
  8
SUNPOU
 62
    60
370
    -2
100
AcDbLine
 10
-6.407855987643637
 20
208.3061810304773
 30
0.0
 11
126.5921440123563
 21
208.3061810304773
 31
0.0
  0
INSERT
  5
1686
330
1676
100
AcDbEntity
  8
SUNPOU
 62
    60
370
    -2
100
AcDbBlockReference
  2
_Dot
 10
-8.407855987643637
 20
208.3061810304773
 30
0.0
 41
2.0
 42
2.0
 43
2.0
 50
180.0
  0
INSERT
  5
1687
330
1676
100
AcDbEntity
  8
SUNPOU
 62
    60
370
    -2
100
AcDbBlockReference
  2
_Dot
 10
128.5921440123563
 20
208.3061810304773
 30
0.0
 41
2.0
 42
2.0
 43
2.0
  0
MTEXT
  5
1688
330
1676
100
AcDbEntity
  8
SUNPOU
 62
    60
100
AcDbMText
 10
60.09214401235635
 20
216.3061810304773
 30
0.0
 40
10.0
 41
0.0
 71
     5
 72
     1
  1
\A1;137φ
  7
SUNPOU
 73
     1
 44
1.0
1001
ACAD
1000
MTEXTBEGIN
1070
    73
1070
     1
1070
    44
1040
1.0
1070
    74
1070
     0
1000
MTEXTEND
  0
POINT
  5
1689
330
1676
100
AcDbEntity
  8
DEFPOINTS
 62
     0
100
AcDbPoint
 10
-8.407855987643642
 20
112.9787477197698
 30
0.0
  0
POINT
  5
168A
330
1676
100
AcDbEntity
  8
DEFPOINTS
 62
     0
100
AcDbPoint
 10
128.5921440123563
 20
112.9787477197698
 30
0.0
  0
POINT
  5
168B
330
1676
100
AcDbEntity
  8
DEFPOINTS
 62
     0
100
AcDbPoint
 10
128.5921440123563
 20
208.3061810304773
 30
0.0
  0
ENDBLK
  5
1681
330
1676
100
AcDbEntity
  8
0
100
AcDbBlockEnd
  0
BLOCK
  5
1699
330
1698
100
AcDbEntity
  8
0
100
AcDbBlockBegin
  2
*X13
 70
     1
 10
0.0
 20
0.0
 30
0.0
  3
*X13
  1

  0
LINE
  5
169A
330
1698
100
AcDbEntity
  8
0
 62
     0
100
AcDbLine
 10
1758.994486309966
 20
3112.550177396347
 30
0.0
 11
1763.740693960382
 21
3117.001834135451
 31
0.0
  0
LINE
  5
169B
330
1698
100
AcDbEntity
  8
0
 62
     0
100
AcDbLine
 10
1758.587146133504
 20
3113.881907862102
 30
0.0
 11
1761.023933547388
 21
3116.167467599851
 31
0.0
  0
LINE
  5
169C
330
1698
100
AcDbEntity
  8
0
 62
     0
100
AcDbLine
 10
1757.677943055452
 20
3114.742921171659
 30
0.0
 11
1758.501886845617
 21
3115.515730790692
 31
0.0
  0
ENDBLK
  5
169D
330
1698
100
AcDbEntity
  8
0
100
AcDbBlockEnd
  0
BLOCK
  5
169F
330
169E
100
AcDbEntity
  8
0
100
AcDbBlockBegin
  2
*X14
 70
     1
 10
0.0
 20
0.0
 30
0.0
  3
*X14
  1

  0
LINE
  5
16A0
330
169E
100
AcDbEntity
  8
0
 62
     0
100
AcDbLine
 10
1699.474388720169
 20
3114.742921171659
 30
0.0
 11
1698.650444930003
 21
3115.515730790685
 31
0.0
  0
LINE
  5
16A1
330
169E
100
AcDbEntity
  8
0
 62
     0
100
AcDbLine
 10
1698.565185642117
 20
3113.881907862102
 30
0.0
 11
1696.12839822824
 21
3116.167467599835
 31
0.0
  0
LINE
  5
16A2
330
169E
100
AcDbEntity
  8
0
 62
     0
100
AcDbLine
 10
1698.157845465654
 20
3112.550177396347
 30
0.0
 11
1693.411637815246
 21
3117.001834135437
 31
0.0
  0
ENDBLK
  5
16A3
330
169E
100
AcDbEntity
  8
0
100
AcDbBlockEnd
  0
BLOCK
  5
17C7
330
17BD
100
AcDbEntity
  8
0
100
AcDbBlockBegin
  2
*D16
 70
     1
 10
0.0
 20
0.0
 30
0.0
  3
*D16
  1

  0
LINE
  5
1815
330
17BD
100
AcDbEntity
  8
SUNPOU
 62
    70
370
    -2
100
AcDbLine
 10
4.972188101975008
 20
135.2338290489098
 30
0.0
 11
4.972188101975008
 21
161.0626464155343
 31
0.0
  0
LINE
  5
1816
330
17BD
100
AcDbEntity
  8
SUNPOU
 62
    70
370
    -2
100
AcDbLine
 10
129.972188101975
 20
135.2338290489098
 30
0.0
 11
129.972188101975
 21
161.0626464155343
 31
0.0
  0
LINE
  5
1817
330
17BD
100
AcDbEntity
  8
SUNPOU
 62
    60
370
    -2
100
AcDbLine
 10
6.972188101975008
 20
161.0626464155343
 30
0.0
 11
127.972188101975
 21
161.0626464155343
 31
0.0
  0
INSERT
  5
1818
330
17BD
100
AcDbEntity
  8
SUNPOU
 62
    60
370
    -2
100
AcDbBlockReference
  2
_Dot
 10
4.972188101975008
 20
161.0626464155343
 30
0.0
 41
2.0
 42
2.0
 43
2.0
 50
180.0
  0
INSERT
  5
1819
330
17BD
100
AcDbEntity
  8
SUNPOU
 62
    60
370
    -2
100
AcDbBlockReference
  2
_Dot
 10
129.972188101975
 20
161.0626464155343
 30
0.0
 41
2.0
 42
2.0
 43
2.0
  0
MTEXT
  5
181A
330
17BD
100
AcDbEntity
  8
SUNPOU
 62
    60
100
AcDbMText
 10
67.47218810197501
 20
169.0626464155343
 30
0.0
 40
10.0
 41
0.0
 71
     5
 72
     1
  1
\A1;125
  7
SUNPOU
 73
     1
 44
1.0
1001
ACAD
1000
MTEXTBEGIN
1070
    73
1070
     1
1070
    44
1040
1.0
1070
    74
1070
     0
1000
MTEXTEND
  0
POINT
  5
181B
330
17BD
100
AcDbEntity
  8
DEFPOINTS
 62
     0
100
AcDbPoint
 10
4.972188101975007
 20
125.2338290489098
 30
0.0
  0
POINT
  5
181C
330
17BD
100
AcDbEntity
  8
DEFPOINTS
 62
     0
100
AcDbPoint
 10
129.972188101975
 20
125.2338290489098
 30
0.0
  0
POINT
  5
181D
330
17BD
100
AcDbEntity
  8
DEFPOINTS
 62
     0
100
AcDbPoint
 10
129.972188101975
 20
161.0626464155343
 30
0.0
  0
ENDBLK
  5
17C8
330
17BD
100
AcDbEntity
  8
0
100
AcDbBlockEnd
  0
BLOCK
  5
17D4
330
17CA
100
AcDbEntity
  8
0
100
AcDbBlockBegin
  2
*D17
 70
     1
 10
0.0
 20
0.0
 30
0.0
  3
*D17
  1

  0
LINE
  5
181E
330
17CA
100
AcDbEntity
  8
SUNPOU
 62
    70
370
    -2
100
AcDbLine
 10
3.900616406899144
 20
140.0426194459795
 30
0.0
 11
-23.31822170688019
 21
140.0426194459795
 31
0.0
  0
LINE
  5
181F
330
17CA
100
AcDbEntity
  8
SUNPOU
 62
    70
370
    -2
100
AcDbLine
 10
21.44914802693802
 20
59.04261944601512
 30
0.0
 11
-23.3182217068802
 21
59.04261944601514
 31
0.0
  0
LINE
  5
1820
330
17CA
100
AcDbEntity
  8
SUNPOU
 62
    60
370
    -2
100
AcDbLine
 10
-23.31822170688018
 20
138.0426194459795
 30
0.0
 11
-23.3182217068802
 21
61.04261944601514
 31
0.0
  0
INSERT
  5
1821
330
17CA
100
AcDbEntity
  8
SUNPOU
 62
    60
370
    -2
100
AcDbBlockReference
  2
_Dot
 10
-23.31822170688018
 20
140.0426194459795
 30
0.0
 41
2.0
 42
2.0
 43
2.0
 50
90.0
  0
INSERT
  5
1822
330
17CA
100
AcDbEntity
  8
SUNPOU
 62
    60
370
    -2
100
AcDbBlockReference
  2
_Dot
 10
-23.3182217068802
 20
59.04261944601514
 30
0.0
 41
2.0
 42
2.0
 43
2.0
 50
270.0
  0
MTEXT
  5
1823
330
17CA
100
AcDbEntity
  8
SUNPOU
 62
    60
100
AcDbMText
 10
-31.31822170688021
 20
99.54261944599732
 30
0.0
 40
10.0
 41
0.0
 71
     5
 72
     1
  1
\A1;81
  7
SUNPOU
 11
0.0000000000000001
 21
1.0
 31
0.0
 73
     1
 44
1.0
1001
ACAD
1000
MTEXTBEGIN
1070
    73
1070
     1
1070
    44
1040
1.0
1070
    74
1070
     0
1000
MTEXTEND
  0
POINT
  5
1824
330
17CA
100
AcDbEntity
  8
DEFPOINTS
 62
     0
100
AcDbPoint
 10
13.90061640689914
 20
140.0426194459795
 30
0.0
  0
POINT
  5
1825
330
17CA
100
AcDbEntity
  8
DEFPOINTS
 62
     0
100
AcDbPoint
 10
31.44914802693802
 20
59.04261944601512
 30
0.0
  0
POINT
  5
1826
330
17CA
100
AcDbEntity
  8
DEFPOINTS
 62
     0
100
AcDbPoint
 10
-23.3182217068802
 20
59.04261944601514
 30
0.0
  0
ENDBLK
  5
17D5
330
17CA
100
AcDbEntity
  8
0
100
AcDbBlockEnd
  0
BLOCK
  5
18A2
330
1898
100
AcDbEntity
  8
0
100
AcDbBlockBegin
  2
*D19
 70
     1
 10
0.0
 20
0.0
 30
0.0
  3
*D19
  1

  0
LINE
  5
18DB
330
1898
100
AcDbEntity
  8
SUNPOU
 62
    70
370
    -2
100
AcDbLine
 10
32.93287137400573
 20
149.6705220833005
 30
0.0
 11
32.93287137400573
 21
189.1718151691145
 31
0.0
  0
LINE
  5
18DC
330
1898
100
AcDbEntity
  8
SUNPOU
 62
    70
370
    -2
100
AcDbLine
 10
112.9328713740057
 20
149.6705220832564
 30
0.0
 11
112.9328713740057
 21
189.1718151691145
 31
0.0
  0
LINE
  5
18DD
330
1898
100
AcDbEntity
  8
SUNPOU
 62
    60
370
    -2
100
AcDbLine
 10
34.93287137400573
 20
189.1718151691145
 30
0.0
 11
110.9328713740057
 21
189.1718151691145
 31
0.0
  0
INSERT
  5
18DE
330
1898
100
AcDbEntity
  8
SUNPOU
 62
    60
370
    -2
100
AcDbBlockReference
  2
_Dot
 10
32.93287137400573
 20
189.1718151691145
 30
0.0
 41
2.0
 42
2.0
 43
2.0
 50
180.0
  0
INSERT
  5
18DF
330
1898
100
AcDbEntity
  8
SUNPOU
 62
    60
370
    -2
100
AcDbBlockReference
  2
_Dot
 10
112.9328713740057
 20
189.1718151691145
 30
0.0
 41
2.0
 42
2.0
 43
2.0
  0
MTEXT
  5
18E0
330
1898
100
AcDbEntity
  8
SUNPOU
 62
    60
100
AcDbMText
 10
72.93287137400572
 20
197.1718151691145
 30
0.0
 40
10.0
 41
0.0
 71
     5
 72
     1
  1
\A1;80
  7
SUNPOU
 73
     1
 44
1.0
1001
ACAD
1000
MTEXTBEGIN
1070
    73
1070
     1
1070
    44
1040
1.0
1070
    74
1070
     0
1000
MTEXTEND
  0
POINT
  5
18E1
330
1898
100
AcDbEntity
  8
DEFPOINTS
 62
     0
100
AcDbPoint
 10
32.93287137400573
 20
139.6705220833005
 30
0.0
  0
POINT
  5
18E2
330
1898
100
AcDbEntity
  8
DEFPOINTS
 62
     0
100
AcDbPoint
 10
112.9328713740057
 20
139.6705220832564
 30
0.0
  0
POINT
  5
18E3
330
1898
100
AcDbEntity
  8
DEFPOINTS
 62
     0
100
AcDbPoint
 10
112.9328713740057
 20
189.1718151691145
 30
0.0
  0
ENDBLK
  5
18A3
330
1898
100
AcDbEntity
  8
0
100
AcDbBlockEnd
  0
BLOCK
  5
18AF
330
18A5
100
AcDbEntity
  8
0
100
AcDbBlockBegin
  2
*D20
 70
     1
 10
0.0
 20
0.0
 30
0.0
  3
*D20
  1

  0
LINE
  5
18E4
330
18A5
100
AcDbEntity
  8
SUNPOU
 62
    70
370
    -2
100
AcDbLine
 10
62.93287137520132
 20
163.5427436693481
 30
0.0
 11
0.886677007599723
 21
163.5427436693481
 31
0.0
  0
LINE
  5
18E5
330
18A5
100
AcDbEntity
  8
SUNPOU
 62
    70
370
    -2
100
AcDbLine
 10
62.93287137400572
 20
58.5427436694137
 30
0.0
 11
0.8866770075996997
 21
58.54274366941372
 31
0.0
  0
LINE
  5
18E6
330
18A5
100
AcDbEntity
  8
SUNPOU
 62
    60
370
    -2
100
AcDbLine
 10
0.8866770075997244
 20
161.5427436693481
 30
0.0
 11
0.886677007599702
 21
60.54274366941372
 31
0.0
  0
INSERT
  5
18E7
330
18A5
100
AcDbEntity
  8
SUNPOU
 62
    60
370
    -2
100
AcDbBlockReference
  2
_Dot
 10
0.8866770075997248
 20
163.5427436693481
 30
0.0
 41
2.0
 42
2.0
 43
2.0
 50
90.0
  0
INSERT
  5
18E8
330
18A5
100
AcDbEntity
  8
SUNPOU
 62
    60
370
    -2
100
AcDbBlockReference
  2
_Dot
 10
0.8866770075997015
 20
58.54274366941372
 30
0.0
 41
2.0
 42
2.0
 43
2.0
 50
270.0
  0
MTEXT
  5
18E9
330
18A5
100
AcDbEntity
  8
SUNPOU
 62
    60
100
AcDbMText
 10
-7.113322992400304
 20
111.0427436693809
 30
0.0
 40
10.0
 41
0.0
 71
     5
 72
     1
  1
\A1;105
  7
SUNPOU
 11
0.0000000000000001
 21
1.0
 31
0.0
 73
     1
 44
1.0
1001
ACAD
1000
MTEXTBEGIN
1070
    73
1070
     1
1070
    44
1040
1.0
1070
    74
1070
     0
1000
MTEXTEND
  0
POINT
  5
18EA
330
18A5
100
AcDbEntity
  8
DEFPOINTS
 62
     0
100
AcDbPoint
 10
72.93287137520133
 20
163.542743669348
 30
0.0
  0
POINT
  5
18EB
330
18A5
100
AcDbEntity
  8
DEFPOINTS
 62
     0
100
AcDbPoint
 10
72.93287137400572
 20
58.5427436694137
 30
0.0
  0
POINT
  5
18EC
330
18A5
100
AcDbEntity
  8
DEFPOINTS
 62
     0
100
AcDbPoint
 10
0.8866770075997015
 20
58.54274366941372
 30
0.0
  0
ENDBLK
  5
18B0
330
18A5
100
AcDbEntity
  8
0
100
AcDbBlockEnd
  0
BLOCK
  5
1988
330
197E
100
AcDbEntity
  8
0
100
AcDbBlockBegin
  2
*D22
 70
     1
 10
0.0
 20
0.0
 30
0.0
  3
*D22
  1

  0
LINE
  5
19C1
330
197E
100
AcDbEntity
  8
SUNPOU
 62
    70
370
    -2
100
AcDbLine
 10
-64.70709134590666
 20
78.33534376627941
 30
0.0
 11
-64.70709134590666
 21
143.4459253390291
 31
0.0
  0
LINE
  5
19C2
330
197E
100
AcDbEntity
  8
SUNPOU
 62
    70
370
    -2
100
AcDbLine
 10
192.2929086540934
 20
78.33534376621691
 30
0.0
 11
192.2929086540934
 21
143.4459253390291
 31
0.0
  0
LINE
  5
19C3
330
197E
100
AcDbEntity
  8
SUNPOU
 62
    60
370
    -2
100
AcDbLine
 10
-62.70709134590666
 20
143.4459253390291
 30
0.0
 11
190.2929086540934
 21
143.4459253390291
 31
0.0
  0
INSERT
  5
19C4
330
197E
100
AcDbEntity
  8
SUNPOU
 62
    60
370
    -2
100
AcDbBlockReference
  2
_Dot
 10
-64.70709134590666
 20
143.4459253390291
 30
0.0
 41
2.0
 42
2.0
 43
2.0
 50
180.0
  0
INSERT
  5
19C5
330
197E
100
AcDbEntity
  8
SUNPOU
 62
    60
370
    -2
100
AcDbBlockReference
  2
_Dot
 10
192.2929086540934
 20
143.4459253390291
 30
0.0
 41
2.0
 42
2.0
 43
2.0
  0
MTEXT
  5
19C6
330
197E
100
AcDbEntity
  8
SUNPOU
 62
    60
100
AcDbMText
 10
63.79290865409338
 20
151.4459253390291
 30
0.0
 40
10.0
 41
0.0
 71
     5
 72
     1
  1
\A1;257
  7
SUNPOU
 73
     1
 44
1.0
1001
ACAD
1000
MTEXTBEGIN
1070
    73
1070
     1
1070
    44
1040
1.0
1070
    74
1070
     0
1000
MTEXTEND
  0
POINT
  5
19C7
330
197E
100
AcDbEntity
  8
DEFPOINTS
 62
     0
100
AcDbPoint
 10
-64.70709134590666
 20
68.33534376627941
 30
0.0
  0
POINT
  5
19C8
330
197E
100
AcDbEntity
  8
DEFPOINTS
 62
     0
100
AcDbPoint
 10
192.2929086540934
 20
68.33534376621691
 30
0.0
  0
POINT
  5
19C9
330
197E
100
AcDbEntity
  8
DEFPOINTS
 62
     0
100
AcDbPoint
 10
192.2929086540934
 20
143.4459253390291
 30
0.0
  0
ENDBLK
  5
1989
330
197E
100
AcDbEntity
  8
0
100
AcDbBlockEnd
  0
BLOCK
  5
1995
330
198B
100
AcDbEntity
  8
0
100
AcDbBlockBegin
  2
*D23
 70
     1
 10
0.0
 20
0.0
 30
0.0
  3
*D23
  1

  0
LINE
  5
19DC
330
198B
100
AcDbEntity
  8
SUNPOU
 62
    70
370
    -2
100
AcDbLine
 10
-74.70709134590666
 20
110.9727025188599
 30
0.0
 11
-99.49146774441873
 21
110.9727025188599
 31
0.0
  0
LINE
  5
19DD
330
198B
100
AcDbEntity
  8
SUNPOU
 62
    70
370
    -2
100
AcDbLine
 10
-74.72655843486768
 20
39.97270251885288
 30
0.0
 11
-99.49146774441874
 21
39.97270251885289
 31
0.0
  0
LINE
  5
19DE
330
198B
100
AcDbEntity
  8
SUNPOU
 62
    60
370
    -2
100
AcDbLine
 10
-99.49146774441873
 20
108.9727025188599
 30
0.0
 11
-99.49146774441874
 21
41.97270251885289
 31
0.0
  0
INSERT
  5
19DF
330
198B
100
AcDbEntity
  8
SUNPOU
 62
    60
370
    -2
100
AcDbBlockReference
  2
_Dot
 10
-99.49146774441873
 20
110.9727025188599
 30
0.0
 41
2.0
 42
2.0
 43
2.0
 50
90.0
  0
INSERT
  5
19E0
330
198B
100
AcDbEntity
  8
SUNPOU
 62
    60
370
    -2
100
AcDbBlockReference
  2
_Dot
 10
-99.49146774441874
 20
39.97270251885289
 30
0.0
 41
2.0
 42
2.0
 43
2.0
 50
270.0
  0
MTEXT
  5
19E1
330
198B
100
AcDbEntity
  8
SUNPOU
 62
    60
100
AcDbMText
 10
-107.4914677444187
 20
75.47270251885641
 30
0.0
 40
10.0
 41
0.0
 71
     5
 72
     1
  1
\A1;71
  7
SUNPOU
 11
0.0000000000000001
 21
1.0
 31
0.0
 73
     1
 44
1.0
1001
ACAD
1000
MTEXTBEGIN
1070
    73
1070
     1
1070
    44
1040
1.0
1070
    74
1070
     0
1000
MTEXTEND
  0
POINT
  5
19E2
330
198B
100
AcDbEntity
  8
DEFPOINTS
 62
     0
100
AcDbPoint
 10
-64.70709134590666
 20
110.9727025188599
 30
0.0
  0
POINT
  5
19E3
330
198B
100
AcDbEntity
  8
DEFPOINTS
 62
     0
100
AcDbPoint
 10
-64.72655843486768
 20
39.97270251885288
 30
0.0
  0
POINT
  5
19E4
330
198B
100
AcDbEntity
  8
DEFPOINTS
 62
     0
100
AcDbPoint
 10
-99.49146774441874
 20
39.97270251885289
 30
0.0
  0
ENDBLK
  5
1996
330
198B
100
AcDbEntity
  8
0
100
AcDbBlockEnd
  0
BLOCK
  5
19F3
330
19F2
100
AcDbEntity
  8
0
100
AcDbBlockBegin
  2
*X24
 70
     1
 10
0.0
 20
0.0
 30
0.0
  3
*X24
  1

  0
LINE
  5
19F4
330
19F2
100
AcDbEntity
  8
0
 62
     0
100
AcDbLine
 10
3057.20153871896
 20
3060.335921225828
 30
0.0
 11
3058.041366193894
 21
3061.175748700764
 31
0.0
  0
LINE
  5
19F5
330
19F2
100
AcDbEntity
  8
0
 62
     0
100
AcDbLine
 10
3056.803505856812
 20
3060.11466505898
 30
0.0
 11
3058.262622360744
 21
3061.573781562911
 31
0.0
  0
LINE
  5
19F6
330
19F2
100
AcDbEntity
  8
0
 62
     0
100
AcDbLine
 10
3056.510567662932
 20
3059.998503560397
 30
0.0
 11
3058.378783859327
 21
3061.866719756792
 31
0.0
  0
LINE
  5
19F7
330
19F2
100
AcDbEntity
  8
0
 62
     0
100
AcDbLine
 10
3056.262104780087
 20
3059.926817372856
 30
0.0
 11
3058.450470046867
 21
3062.115182639638
 31
0.0
  0
LINE
  5
19F8
330
19F2
100
AcDbEntity
  8
0
 62
     0
100
AcDbLine
 10
3056.040589678872
 20
3059.882078966933
 30
0.0
 11
3058.495208452788
 21
3062.336697740851
 31
0.0
  0
LINE
  5
19F9
330
19F2
100
AcDbEntity
  8
0
 62
     0
100
AcDbLine
 10
3055.837975766197
 20
3059.856241749557
 30
0.0
 11
3058.521045670168
 21
3062.539311653527
 31
0.0
  0
LINE
  5
19FA
330
19F2
100
AcDbEntity
  8
0
 62
     0
100
AcDbLine
 10
3055.649762344887
 20
3059.844805023553
 30
0.0
 11
3058.532482396171
 21
3062.727525074836
 31
0.0
  0
LINE
  5
19FB
330
19F2
100
AcDbEntity
  8
0
 62
     0
100
AcDbLine
 10
3055.473127400379
 20
3059.844946774334
 30
0.0
 11
3058.53234064539
 21
3062.904160019344
 31
0.0
  0
LINE
  5
19FC
330
19F2
100
AcDbEntity
  8
0
 62
     0
100
AcDbLine
 10
3055.306163746565
 20
3059.854759815818
 30
0.0
 11
3058.522527603905
 21
3063.071123673158
 31
0.0
  0
LINE
  5
19FD
330
19F2
100
AcDbEntity
  8
0
 62
     0
100
AcDbLine
 10
3055.147512567753
 20
3059.872885332304
 30
0.0
 11
3058.504402087419
 21
3063.229774851971
 31
0.0
  0
LINE
  5
19FE
330
19F2
100
AcDbEntity
  8
0
 62
     0
100
AcDbLine
 10
3058.42941834365
 20
3063.3315678035
 30
0.0
 11
3058.478970572876
 21
3063.381120032725
 31
0.0
  0
LINE
  5
19FF
330
19F2
100
AcDbEntity
  8
0
 62
     0
100
AcDbLine
 10
3054.996167386998
 20
3059.898316846847
 30
0.0
 11
3057.335956501316
 21
3062.238105961166
 31
0.0
  0
LINE
  5
1A00
330
19F2
100
AcDbEntity
  8
0
 62
     0
100
AcDbLine
 10
3054.851360506692
 20
3059.930286661837
 30
0.0
 11
3057.047846532332
 21
3062.126772687479
 31
0.0
  0
LINE
  5
1A01
330
19F2
100
AcDbEntity
  8
0
 62
     0
100
AcDbLine
 10
3054.712493093466
 20
3059.968195943897
 30
0.0
 11
3056.831347077618
 21
3062.08704992805
 31
0.0
  0
LINE
  5
1A02
330
19F2
100
AcDbEntity
  8
0
 62
     0
100
AcDbLine
 10
3054.579090017905
 20
3060.011569563634
 30
0.0
 11
3056.650921538894
 21
3062.083401084623
 31
0.0
  0
LINE
  5
1A03
330
19F2
100
AcDbEntity
  8
0
 62
     0
100
AcDbLine
 10
3054.450769538707
 20
3060.060025779733
 30
0.0
 11
3056.524536775447
 21
3062.133793016481
 31
0.0
  0
LINE
  5
1A04
330
19F2
100
AcDbEntity
  8
0
 62
     0
100
AcDbLine
 10
3054.327222306623
 20
3060.113255242947
 30
0.0
 11
3056.398152011999
 21
3062.184184948324
 31
0.0
  0
LINE
  5
1A05
330
19F2
100
AcDbEntity
  8
0
 62
     0
100
AcDbLine
 10
3054.208196452163
 20
3060.171006083772
 30
0.0
 11
3056.271767248575
 21
3062.234576880182
 31
0.0
  0
LINE
  5
1A06
330
19F2
100
AcDbEntity
  8
0
 62
     0
100
AcDbLine
 10
3054.093486781406
 20
3060.233073108312
 30
0.0
 11
3056.145382485127
 21
3062.284968812033
 31
0.0
  0
LINE
  5
1A07
330
19F2
100
AcDbEntity
  8
0
 62
     0
100
AcDbLine
 10
3053.982926832353
 20
3060.299289854556
 30
0.0
 11
3056.018997721679
 21
3062.335360743885
 31
0.0
  0
LINE
  5
1A08
330
19F2
100
AcDbEntity
  8
0
 62
     0
100
AcDbLine
 10
3053.876382980532
 20
3060.369522698033
 30
0.0
 11
3055.892612958231
 21
3062.385752675742
 31
0.0
  0
LINE
  5
1A09
330
19F2
100
AcDbEntity
  8
0
 62
     0
100
AcDbLine
 10
3053.77375005521
 20
3060.44366646801
 30
0.0
 11
3055.766228194777
 21
3062.436144607585
 31
0.0
  0
LINE
  5
1A0A
330
19F2
100
AcDbEntity
  8
0
 62
     0
100
AcDbLine
 10
3053.663905902649
 20
3060.510599010747
 30
0.0
 11
3055.639843431345
 21
3062.486536539442
 31
0.0
  0
LINE
  5
1A0B
330
19F2
100
AcDbEntity
  8
0
 62
     0
100
AcDbLine
 10
3053.547535291981
 20
3060.571005095377
 30
0.0
 11
3055.51345866789
 21
3062.536928471294
 31
0.0
  0
LINE
  5
1A0C
330
19F2
100
AcDbEntity
  8
0
 62
     0
100
AcDbLine
 10
3053.431164681307
 20
3060.631411180002
 30
0.0
 11
3055.387073904458
 21
3062.587320403152
 31
0.0
  0
LINE
  5
1A0D
330
19F2
100
AcDbEntity
  8
0
 62
     0
100
AcDbLine
 10
3053.314794070633
 20
3060.691817264626
 30
0.0
 11
3055.260689141019
 21
3062.637712335011
 31
0.0
  0
LINE
  5
1A0E
330
19F2
100
AcDbEntity
  8
0
 62
     0
100
AcDbLine
 10
3053.198423459966
 20
3060.752223349263
 30
0.0
 11
3055.13430437757
 21
3062.688104266861
 31
0.0
  0
LINE
  5
1A0F
330
19F2
100
AcDbEntity
  8
0
 62
     0
100
AcDbLine
 10
3053.082052849299
 20
3060.812629433887
 30
0.0
 11
3055.007919614117
 21
3062.73849619871
 31
0.0
  0
LINE
  5
1A10
330
19F2
100
AcDbEntity
  8
0
 62
     0
100
AcDbLine
 10
3052.965682238625
 20
3060.873035518511
 30
0.0
 11
3054.881534850682
 21
3062.788888130569
 31
0.0
  0
LINE
  5
1A11
330
19F2
100
AcDbEntity
  8
0
 62
     0
100
AcDbLine
 10
3052.849311627957
 20
3060.933441603141
 30
0.0
 11
3054.755150087228
 21
3062.83928006242
 31
0.0
  0
LINE
  5
1A12
330
19F2
100
AcDbEntity
  8
0
 62
     0
100
AcDbLine
 10
3052.732941017289
 20
3060.993847687772
 30
0.0
 11
3054.628765323781
 21
3062.889671994264
 31
0.0
  0
LINE
  5
1A13
330
19F2
100
AcDbEntity
  8
0
 62
     0
100
AcDbLine
 10
3052.616570406621
 20
3061.054253772403
 30
0.0
 11
3054.502380560333
 21
3062.940063926115
 31
0.0
  0
LINE
  5
1A14
330
19F2
100
AcDbEntity
  8
0
 62
     0
100
AcDbLine
 10
3052.500199795955
 20
3061.114659857035
 30
0.0
 11
3054.375995796894
 21
3062.990455857972
 31
0.0
  0
LINE
  5
1A15
330
19F2
100
AcDbEntity
  8
0
 62
     0
100
AcDbLine
 10
3052.383829185281
 20
3061.175065941664
 30
0.0
 11
3054.249611033446
 21
3063.040847789823
 31
0.0
  0
LINE
  5
1A16
330
19F2
100
AcDbEntity
  8
0
 62
     0
100
AcDbLine
 10
3052.267458574606
 20
3061.235472026273
 30
0.0
 11
3054.123226269998
 21
3063.091239721659
 31
0.0
  0
LINE
  5
1A17
330
19F2
100
AcDbEntity
  8
0
 62
     0
100
AcDbLine
 10
3052.151087963946
 20
3061.295878110904
 30
0.0
 11
3053.996841506553
 21
3063.141631653519
 31
0.0
  0
LINE
  5
1A18
330
19F2
100
AcDbEntity
  8
0
 62
     0
100
AcDbLine
 10
3052.034717353278
 20
3061.356284195535
 30
0.0
 11
3053.870456743112
 21
3063.192023585376
 31
0.0
  0
LINE
  5
1A19
330
19F2
100
AcDbEntity
  8
0
 62
     0
100
AcDbLine
 10
3051.918346742625
 20
3061.416690280167
 30
0.0
 11
3053.744071979687
 21
3063.242415517227
 31
0.0
  0
LINE
  5
1A1A
330
19F2
100
AcDbEntity
  8
0
 62
     0
100
AcDbLine
 10
3051.801976131952
 20
3061.477096364797
 30
0.0
 11
3053.617687216247
 21
3063.292807449085
 31
0.0
  0
LINE
  5
1A1B
330
19F2
100
AcDbEntity
  8
0
 62
     0
100
AcDbLine
 10
3051.685605521285
 20
3061.53750244942
 30
0.0
 11
3053.491302452792
 21
3063.343199380927
 31
0.0
  0
LINE
  5
1A1C
330
19F2
100
AcDbEntity
  8
0
 62
     0
100
AcDbLine
 10
3051.569234910611
 20
3061.597908534044
 30
0.0
 11
3053.364917689352
 21
3063.393591312786
 31
0.0
  0
LINE
  5
1A1D
330
19F2
100
AcDbEntity
  8
0
 62
     0
100
AcDbLine
 10
3051.452864299943
 20
3061.658314618675
 30
0.0
 11
3053.238532925905
 21
3063.443983244637
 31
0.0
  0
LINE
  5
1A1E
330
19F2
100
AcDbEntity
  8
0
 62
     0
100
AcDbLine
 10
3051.336493689282
 20
3061.718720703311
 30
0.0
 11
3053.112148162457
 21
3063.494375176487
 31
0.0
  0
LINE
  5
1A1F
330
19F2
100
AcDbEntity
  8
0
 62
     0
100
AcDbLine
 10
3051.220123078608
 20
3061.779126787936
 30
0.0
 11
3052.985763399018
 21
3063.544767108346
 31
0.0
  0
LINE
  5
1A20
330
19F2
100
AcDbEntity
  8
0
 62
     0
100
AcDbLine
 10
3051.103752467934
 20
3061.839532872561
 30
0.0
 11
3052.859378635563
 21
3063.595159040195
 31
0.0
  0
LINE
  5
1A21
330
19F2
100
AcDbEntity
  8
0
 62
     0
100
AcDbLine
 10
3050.987381857274
 20
3061.899938957198
 30
0.0
 11
3052.732993872123
 21
3063.645550972048
 31
0.0
  0
LINE
  5
1A22
330
19F2
100
AcDbEntity
  8
0
 62
     0
100
AcDbLine
 10
3050.871011246591
 20
3061.960345041822
 30
0.0
 11
3052.606609108668
 21
3063.695942903891
 31
0.0
  0
LINE
  5
1A23
330
19F2
100
AcDbEntity
  8
0
 62
     0
100
AcDbLine
 10
3050.754640635932
 20
3062.020751126452
 30
0.0
 11
3052.480224345228
 21
3063.746334835748
 31
0.0
  0
LINE
  5
1A24
330
19F2
100
AcDbEntity
  8
0
 62
     0
100
AcDbLine
 10
3050.638270025258
 20
3062.081157211076
 30
0.0
 11
3052.353839581789
 21
3063.796726767614
 31
0.0
  0
LINE
  5
1A25
330
19F2
100
AcDbEntity
  8
0
 62
     0
100
AcDbLine
 10
3050.52189941459
 20
3062.141563295714
 30
0.0
 11
3052.227454818341
 21
3063.847118699456
 31
0.0
  0
LINE
  5
1A26
330
19F2
100
AcDbEntity
  8
0
 62
     0
100
AcDbLine
 10
3050.405528803916
 20
3062.201969380336
 30
0.0
 11
3052.1010700549
 21
3063.897510631321
 31
0.0
  0
LINE
  5
1A27
330
19F2
100
AcDbEntity
  8
0
 62
     0
100
AcDbLine
 10
3050.289158193256
 20
3062.262375464968
 30
0.0
 11
3051.974685291454
 21
3063.947902563166
 31
0.0
  0
LINE
  5
1A28
330
19F2
100
AcDbEntity
  8
0
 62
     0
100
AcDbLine
 10
3050.172787582582
 20
3062.322781549593
 30
0.0
 11
3051.848300528007
 21
3063.998294495017
 31
0.0
  0
LINE
  5
1A29
330
19F2
100
AcDbEntity
  8
0
 62
     0
100
AcDbLine
 10
3050.0564169719
 20
3062.383187634215
 30
0.0
 11
3051.721915764566
 21
3064.048686426875
 31
0.0
  0
LINE
  5
1A2A
330
19F2
100
AcDbEntity
  8
0
 62
     0
100
AcDbLine
 10
3049.940046361247
 20
3062.443593718854
 30
0.0
 11
3051.595531001118
 21
3064.099078358726
 31
0.0
  0
LINE
  5
1A2B
330
19F2
100
AcDbEntity
  8
0
 62
     0
100
AcDbLine
 10
3049.823675750574
 20
3062.50399980347
 30
0.0
 11
3051.469146237673
 21
3064.149470290562
 31
0.0
  0
LINE
  5
1A2C
330
19F2
100
AcDbEntity
  8
0
 62
     0
100
AcDbLine
 10
3049.707305139905
 20
3062.564405888094
 30
0.0
 11
3051.342761474217
 21
3064.199862222412
 31
0.0
  0
LINE
  5
1A2D
330
19F2
100
AcDbEntity
  8
0
 62
     0
100
AcDbLine
 10
3049.590934529231
 20
3062.624811972724
 30
0.0
 11
3051.216376710785
 21
3064.25025415427
 31
0.0
  0
LINE
  5
1A2E
330
19F2
100
AcDbEntity
  8
0
 62
     0
100
AcDbLine
 10
3049.474563918578
 20
3062.685218057348
 30
0.0
 11
3051.089991947352
 21
3064.300646086121
 31
0.0
  0
LINE
  5
1A2F
330
19F2
100
AcDbEntity
  8
0
 62
     0
100
AcDbLine
 10
3049.358193307905
 20
3062.745624141971
 30
0.0
 11
3050.963607183897
 21
3064.351038017965
 31
0.0
  0
LINE
  5
1A30
330
19F2
100
AcDbEntity
  8
0
 62
     0
100
AcDbLine
 10
3049.241822697243
 20
3062.806030226616
 30
0.0
 11
3050.837222420458
 21
3064.401429949831
 31
0.0
  0
LINE
  5
1A31
330
19F2
100
AcDbEntity
  8
0
 62
     0
100
AcDbLine
 10
3049.125452086578
 20
3062.86643631124
 30
0.0
 11
3050.710837657018
 21
3064.451821881681
 31
0.0
  0
LINE
  5
1A32
330
19F2
100
AcDbEntity
  8
0
 62
     0
100
AcDbLine
 10
3049.009081475908
 20
3062.926842395871
 30
0.0
 11
3050.58445289357
 21
3064.502213813538
 31
0.0
  0
LINE
  5
1A33
330
19F2
100
AcDbEntity
  8
0
 62
     0
100
AcDbLine
 10
3048.892710865228
 20
3062.987248480494
 30
0.0
 11
3050.458068130136
 21
3064.552605745396
 31
0.0
  0
LINE
  5
1A34
330
19F2
100
AcDbEntity
  8
0
 62
     0
100
AcDbLine
 10
3048.776340254568
 20
3063.047654565124
 30
0.0
 11
3050.331683366682
 21
3064.602997677241
 31
0.0
  0
LINE
  5
1A35
330
19F2
100
AcDbEntity
  8
0
 62
     0
100
AcDbLine
 10
3048.659969643892
 20
3063.108060649749
 30
0.0
 11
3050.205298603243
 21
3064.653389609098
 31
0.0
  0
LINE
  5
1A36
330
19F2
100
AcDbEntity
  8
0
 62
     0
100
AcDbLine
 10
3048.543599033233
 20
3063.168466734387
 30
0.0
 11
3050.078913839795
 21
3064.703781540957
 31
0.0
  0
LINE
  5
1A37
330
19F2
100
AcDbEntity
  8
0
 62
     0
100
AcDbLine
 10
3048.427228422565
 20
3063.228872819018
 30
0.0
 11
3049.952529076348
 21
3064.7541734728
 31
0.0
  0
LINE
  5
1A38
330
19F2
100
AcDbEntity
  8
0
 62
     0
100
AcDbLine
 10
3048.310857811899
 20
3063.289278903648
 30
0.0
 11
3049.826144312908
 21
3064.804565404659
 31
0.0
  0
LINE
  5
1A39
330
19F2
100
AcDbEntity
  8
0
 62
     0
100
AcDbLine
 10
3048.194487201216
 20
3063.349684988265
 30
0.0
 11
3049.699759549453
 21
3064.854957336502
 31
0.0
  0
LINE
  5
1A3A
330
19F2
100
AcDbEntity
  8
0
 62
     0
100
AcDbLine
 10
3048.07811659055
 20
3063.410091072896
 30
0.0
 11
3049.573374786013
 21
3064.90534926836
 31
0.0
  0
LINE
  5
1A3B
330
19F2
100
AcDbEntity
  8
0
 62
     0
100
AcDbLine
 10
3047.961745979883
 20
3063.470497157526
 30
0.0
 11
3049.446990022566
 21
3064.955741200209
 31
0.0
  0
LINE
  5
1A3C
330
19F2
100
AcDbEntity
  8
0
 62
     0
100
AcDbLine
 10
3047.845375369208
 20
3063.53090324215
 30
0.0
 11
3049.320605259119
 21
3065.006133132062
 31
0.0
  0
LINE
  5
1A3D
330
19F2
100
AcDbEntity
  8
0
 62
     0
100
AcDbLine
 10
3047.729004758541
 20
3063.591309326787
 30
0.0
 11
3049.194220495679
 21
3065.05652506392
 31
0.0
  0
LINE
  5
1A3E
330
19F2
100
AcDbEntity
  8
0
 62
     0
100
AcDbLine
 10
3047.61263414788
 20
3063.651715411419
 30
0.0
 11
3049.067835732233
 21
3065.10691699577
 31
0.0
  0
LINE
  5
1A3F
330
19F2
100
AcDbEntity
  8
0
 62
     0
100
AcDbLine
 10
3047.496263537206
 20
3063.712121496042
 30
0.0
 11
3048.941450968792
 21
3065.157308927628
 31
0.0
  0
LINE
  5
1A40
330
19F2
100
AcDbEntity
  8
0
 62
     0
100
AcDbLine
 10
3047.379892926525
 20
3063.772527580651
 30
0.0
 11
3048.815066205345
 21
3065.207700859464
 31
0.0
  0
LINE
  5
1A41
330
19F2
100
AcDbEntity
  8
0
 62
     0
100
AcDbLine
 10
3047.263522315872
 20
3063.83293366529
 30
0.0
 11
3048.688681441889
 21
3065.258092791314
 31
0.0
  0
LINE
  5
1A42
330
19F2
100
AcDbEntity
  8
0
 62
     0
100
AcDbLine
 10
3047.14715170519
 20
3063.893339749906
 30
0.0
 11
3048.562296678457
 21
3065.308484723173
 31
0.0
  0
LINE
  5
1A43
330
19F2
100
AcDbEntity
  8
0
 62
     0
100
AcDbLine
 10
3047.030781094545
 20
3063.953745834544
 30
0.0
 11
3048.435911915018
 21
3065.358876655023
 31
0.0
  0
LINE
  5
1A44
330
19F2
100
AcDbEntity
  8
0
 62
     0
100
AcDbLine
 10
3046.914410483879
 20
3064.014151919174
 30
0.0
 11
3048.309527151585
 21
3065.409268586881
 31
0.0
  0
LINE
  5
1A45
330
19F2
100
AcDbEntity
  8
0
 62
     0
100
AcDbLine
 10
3046.798039873203
 20
3064.074558003798
 30
0.0
 11
3048.18314238813
 21
3065.459660518732
 31
0.0
  0
LINE
  5
1A46
330
19F2
100
AcDbEntity
  8
0
 62
     0
100
AcDbLine
 10
3046.681669262529
 20
3064.134964088423
 30
0.0
 11
3048.056757624683
 21
3065.510052450576
 31
0.0
  0
LINE
  5
1A47
330
19F2
100
AcDbEntity
  8
0
 62
     0
100
AcDbLine
 10
3046.565298651869
 20
3064.195370173067
 30
0.0
 11
3047.930372861243
 21
3065.560444382434
 31
0.0
  0
LINE
  5
1A48
330
19F2
100
AcDbEntity
  8
0
 62
     0
100
AcDbLine
 10
3046.448928041193
 20
3064.255776257683
 30
0.0
 11
3047.803988097788
 21
3065.610836314276
 31
0.0
  0
LINE
  5
1A49
330
19F2
100
AcDbEntity
  8
0
 62
     0
100
AcDbLine
 10
3046.332557430534
 20
3064.316182342321
 30
0.0
 11
3047.677603334348
 21
3065.661228246135
 31
0.0
  0
LINE
  5
1A4A
330
19F2
100
AcDbEntity
  8
0
 62
     0
100
AcDbLine
 10
3046.216186819867
 20
3064.376588426952
 30
0.0
 11
3047.5512185709
 21
3065.711620177993
 31
0.0
  0
LINE
  5
1A4B
330
19F2
100
AcDbEntity
  8
0
 62
     0
100
AcDbLine
 10
3046.099816209193
 20
3064.436994511574
 30
0.0
 11
3047.424833807461
 21
3065.762012109844
 31
0.0
  0
LINE
  5
1A4C
330
19F2
100
AcDbEntity
  8
0
 62
     0
100
AcDbLine
 10
3045.983445598517
 20
3064.497400596198
 30
0.0
 11
3047.298449044014
 21
3065.812404041695
 31
0.0
  0
LINE
  5
1A4D
330
19F2
100
AcDbEntity
  8
0
 62
     0
100
AcDbLine
 10
3045.867074987845
 20
3064.557806680823
 30
0.0
 11
3047.172064280565
 21
3065.862795973545
 31
0.0
  0
LINE
  5
1A4E
330
19F2
100
AcDbEntity
  8
0
 62
     0
100
AcDbLine
 10
3045.750704377175
 20
3064.618212765461
 30
0.0
 11
3047.045679517126
 21
3065.91318790541
 31
0.0
  0
LINE
  5
1A4F
330
19F2
100
AcDbEntity
  8
0
 62
     0
100
AcDbLine
 10
3045.634333766516
 20
3064.678618850091
 30
0.0
 11
3046.919294753687
 21
3065.963579837262
 31
0.0
  0
LINE
  5
1A50
330
19F2
100
AcDbEntity
  8
0
 62
     0
100
AcDbLine
 10
3045.517963155842
 20
3064.739024934715
 30
0.0
 11
3046.792909990239
 21
3066.013971769113
 31
0.0
  0
LINE
  5
1A51
330
19F2
100
AcDbEntity
  8
0
 62
     0
100
AcDbLine
 10
3045.401592545176
 20
3064.799431019345
 30
0.0
 11
3046.666525226792
 21
3066.064363700963
 31
0.0
  0
LINE
  5
1A52
330
19F2
100
AcDbEntity
  8
0
 62
     0
100
AcDbLine
 10
3045.285221934507
 20
3064.859837103977
 30
0.0
 11
3046.540140463337
 21
3066.114755632813
 31
0.0
  0
LINE
  5
1A53
330
19F2
100
AcDbEntity
  8
0
 62
     0
100
AcDbLine
 10
3045.168851323833
 20
3064.920243188599
 30
0.0
 11
3046.413755699905
 21
3066.165147564672
 31
0.0
  0
LINE
  5
1A54
330
19F2
100
AcDbEntity
  8
0
 62
     0
100
AcDbLine
 10
3045.052480713166
 20
3064.980649273231
 30
0.0
 11
3046.287370936457
 21
3066.215539496523
 31
0.0
  0
LINE
  5
1A55
330
19F2
100
AcDbEntity
  8
0
 62
     0
100
AcDbLine
 10
3044.936110102491
 20
3065.041055357839
 30
0.0
 11
3046.160986173003
 21
3066.265931428352
 31
0.0
  0
LINE
  5
1A56
330
19F2
100
AcDbEntity
  8
0
 62
     0
100
AcDbLine
 10
3044.819739491831
 20
3065.101461442478
 30
0.0
 11
3046.034601409563
 21
3066.316323360217
 31
0.0
  0
LINE
  5
1A57
330
19F2
100
AcDbEntity
  8
0
 62
     0
100
AcDbLine
 10
3044.703368881163
 20
3065.161867527109
 30
0.0
 11
3045.908216646123
 21
3066.366715292068
 31
0.0
  0
LINE
  5
1A58
330
19F2
100
AcDbEntity
  8
0
 62
     0
100
AcDbLine
 10
3044.586998270504
 20
3065.22227361174
 30
0.0
 11
3045.781831882683
 21
3066.417107223911
 31
0.0
  0
LINE
  5
1A59
330
19F2
100
AcDbEntity
  8
0
 62
     0
100
AcDbLine
 10
3044.47062765983
 20
3065.282679696356
 30
0.0
 11
3045.655447119242
 21
3066.467499155768
 31
0.0
  0
LINE
  5
1A5A
330
19F2
100
AcDbEntity
  8
0
 62
     0
100
AcDbLine
 10
3044.35425704917
 20
3065.343085780995
 30
0.0
 11
3045.529062355803
 21
3066.517891087634
 31
0.0
  0
LINE
  5
1A5B
330
19F2
100
AcDbEntity
  8
0
 62
     0
100
AcDbLine
 10
3044.237886438488
 20
3065.403491865618
 30
0.0
 11
3045.402677592356
 21
3066.568283019478
 31
0.0
  0
LINE
  5
1A5C
330
19F2
100
AcDbEntity
  8
0
 62
     0
100
AcDbLine
 10
3044.121515827828
 20
3065.463897950249
 30
0.0
 11
3045.276292828908
 21
3066.618674951329
 31
0.0
  0
LINE
  5
1A5D
330
19F2
100
AcDbEntity
  8
0
 62
     0
100
AcDbLine
 10
3044.005145217161
 20
3065.524304034886
 30
0.0
 11
3045.149908065468
 21
3066.669066883187
 31
0.0
  0
LINE
  5
1A5E
330
19F2
100
AcDbEntity
  8
0
 62
     0
100
AcDbLine
 10
3043.888774606493
 20
3065.58471011951
 30
0.0
 11
3045.02352330202
 21
3066.719458815038
 31
0.0
  0
LINE
  5
1A5F
330
19F2
100
AcDbEntity
  8
0
 62
     0
100
AcDbLine
 10
3043.772403995819
 20
3065.645116204134
 30
0.0
 11
3044.897138538575
 21
3066.769850746887
 31
0.0
  0
LINE
  5
1A60
330
19F2
100
AcDbEntity
  8
0
 62
     0
100
AcDbLine
 10
3043.656033385146
 20
3065.705522288765
 30
0.0
 11
3044.770753775134
 21
3066.820242678745
 31
0.0
  0
LINE
  5
1A61
330
19F2
100
AcDbEntity
  8
0
 62
     0
100
AcDbLine
 10
3043.539662774477
 20
3065.765928373387
 30
0.0
 11
3044.644369011671
 21
3066.870634610582
 31
0.0
  0
LINE
  5
1A62
330
19F2
100
AcDbEntity
  8
0
 62
     0
100
AcDbLine
 10
3043.423292163817
 20
3065.826334458026
 30
0.0
 11
3044.517984248232
 21
3066.921026542448
 31
0.0
  0
LINE
  5
1A63
330
19F2
100
AcDbEntity
  8
0
 62
     0
100
AcDbLine
 10
3043.306921553142
 20
3065.88674054265
 30
0.0
 11
3044.3915994848
 21
3066.971418474306
 31
0.0
  0
LINE
  5
1A64
330
19F2
100
AcDbEntity
  8
0
 62
     0
100
AcDbLine
 10
3043.190550942477
 20
3065.947146627288
 30
0.0
 11
3044.265214721344
 21
3067.021810406149
 31
0.0
  0
LINE
  5
1A65
330
19F2
100
AcDbEntity
  8
0
 62
     0
100
AcDbLine
 10
3043.074180331801
 20
3066.007552711911
 30
0.0
 11
3044.138829957896
 21
3067.072202338
 31
0.0
  0
LINE
  5
1A66
330
19F2
100
AcDbEntity
  8
0
 62
     0
100
AcDbLine
 10
3042.957809721126
 20
3066.067958796528
 30
0.0
 11
3044.012445194456
 21
3067.122594269858
 31
0.0
  0
LINE
  5
1A67
330
19F2
100
AcDbEntity
  8
0
 62
     0
100
AcDbLine
 10
3042.841439110467
 20
3066.128364881166
 30
0.0
 11
3043.886060431017
 21
3067.172986201715
 31
0.0
  0
LINE
  5
1A68
330
19F2
100
AcDbEntity
  8
0
 62
     0
100
AcDbLine
 10
3042.725068499786
 20
3066.188770965789
 30
0.0
 11
3043.75967566757
 21
3067.223378133574
 31
0.0
  0
LINE
  5
1A69
330
19F2
100
AcDbEntity
  8
0
 62
     0
100
AcDbLine
 10
3042.608697889133
 20
3066.249177050412
 30
0.0
 11
3043.633290904123
 21
3067.273770065403
 31
0.0
  0
LINE
  5
1A6A
330
19F2
100
AcDbEntity
  8
0
 62
     0
100
AcDbLine
 10
3042.492327278458
 20
3066.309583135044
 30
0.0
 11
3043.506906140683
 21
3067.324161997261
 31
0.0
  0
LINE
  5
1A6B
330
19F2
100
AcDbEntity
  8
0
 62
     0
100
AcDbLine
 10
3042.375956667792
 20
3066.369989219666
 30
0.0
 11
3043.380521377236
 21
3067.374553929112
 31
0.0
  0
LINE
  5
1A6C
330
19F2
100
AcDbEntity
  8
0
 62
     0
100
AcDbLine
 10
3042.259586057116
 20
3066.430395304291
 30
0.0
 11
3043.254136613787
 21
3067.424945860964
 31
0.0
  0
LINE
  5
1A6D
330
19F2
100
AcDbEntity
  8
0
 62
     0
100
AcDbLine
 10
3042.143215446456
 20
3066.490801388915
 30
0.0
 11
3043.127751850363
 21
3067.475337792821
 31
0.0
  0
LINE
  5
1A6E
330
19F2
100
AcDbEntity
  8
0
 62
     0
100
AcDbLine
 10
3042.026844835789
 20
3066.551207473545
 30
0.0
 11
3043.001367086908
 21
3067.525729724663
 31
0.0
  0
LINE
  5
1A6F
330
19F2
100
AcDbEntity
  8
0
 62
     0
100
AcDbLine
 10
3041.910474225129
 20
3066.61161355819
 30
0.0
 11
3042.874982323468
 21
3067.576121656522
 31
0.0
  0
LINE
  5
1A70
330
19F2
100
AcDbEntity
  8
0
 62
     0
100
AcDbLine
 10
3041.794103614455
 20
3066.672019642807
 30
0.0
 11
3042.748597560028
 21
3067.62651358838
 31
0.0
  0
LINE
  5
1A71
330
19F2
100
AcDbEntity
  8
0
 62
     0
100
AcDbLine
 10
3041.677733003794
 20
3066.732425727445
 30
0.0
 11
3042.622212796566
 21
3067.676905520224
 31
0.0
  0
LINE
  5
1A72
330
19F2
100
AcDbEntity
  8
0
 62
     0
100
AcDbLine
 10
3041.561362393113
 20
3066.792831812068
 30
0.0
 11
3042.495828033134
 21
3067.727297452082
 31
0.0
  0
LINE
  5
1A73
330
19F2
100
AcDbEntity
  8
0
 62
     0
100
AcDbLine
 10
3041.444991782438
 20
3066.853237896692
 30
0.0
 11
3042.369443269695
 21
3067.77768938394
 31
0.0
  0
LINE
  5
1A74
330
19F2
100
AcDbEntity
  8
0
 62
     0
100
AcDbLine
 10
3041.328621171778
 20
3066.913643981322
 30
0.0
 11
3042.243058506246
 21
3067.82808131579
 31
0.0
  0
LINE
  5
1A75
330
19F2
100
AcDbEntity
  8
0
 62
     0
100
AcDbLine
 10
3041.212250561111
 20
3066.974050065962
 30
0.0
 11
3042.116673742806
 21
3067.878473247648
 31
0.0
  0
LINE
  5
1A76
330
19F2
100
AcDbEntity
  8
0
 62
     0
100
AcDbLine
 10
3041.095879950437
 20
3067.034456150584
 30
0.0
 11
3041.99028897936
 21
3067.928865179499
 31
0.0
  0
LINE
  5
1A77
330
19F2
100
AcDbEntity
  8
0
 62
     0
100
AcDbLine
 10
3040.97950933977
 20
3067.094862235215
 30
0.0
 11
3041.863904215905
 21
3067.97925711135
 31
0.0
  0
LINE
  5
1A78
330
19F2
100
AcDbEntity
  8
0
 62
     0
100
AcDbLine
 10
3040.863138729102
 20
3067.155268319839
 30
0.0
 11
3041.737519452457
 21
3068.029649043193
 31
0.0
  0
LINE
  5
1A79
330
19F2
100
AcDbEntity
  8
0
 62
     0
100
AcDbLine
 10
3040.746768118419
 20
3067.215674404462
 30
0.0
 11
3041.611134689016
 21
3068.080040975059
 31
0.0
  0
LINE
  5
1A7A
330
19F2
100
AcDbEntity
  8
0
 62
     0
100
AcDbLine
 10
3040.630397507768
 20
3067.276080489099
 30
0.0
 11
3041.484749925576
 21
3068.13043290691
 31
0.0
  0
LINE
  5
1A7B
330
19F2
100
AcDbEntity
  8
0
 62
     0
100
AcDbLine
 10
3040.514026897101
 20
3067.336486573732
 30
0.0
 11
3041.358365162123
 21
3068.180824838753
 31
0.0
  0
LINE
  5
1A7C
330
19F2
100
AcDbEntity
  8
0
 62
     0
100
AcDbLine
 10
3040.397656286426
 20
3067.396892658354
 30
0.0
 11
3041.231980398682
 21
3068.231216770611
 31
0.0
  0
LINE
  5
1A7D
330
19F2
100
AcDbEntity
  8
0
 62
     0
100
AcDbLine
 10
3040.281285675759
 20
3067.457298742985
 30
0.0
 11
3041.105595635229
 21
3068.281608702454
 31
0.0
  0
LINE
  5
1A7E
330
19F2
100
AcDbEntity
  8
0
 62
     0
100
AcDbLine
 10
3040.164915065093
 20
3067.517704827602
 30
0.0
 11
3040.979210871788
 21
3068.332000634299
 31
0.0
  0
LINE
  5
1A7F
330
19F2
100
AcDbEntity
  8
0
 62
     0
100
AcDbLine
 10
3040.048544454411
 20
3067.578110912218
 30
0.0
 11
3040.852826108348
 21
3068.382392566156
 31
0.0
  0
LINE
  5
1A80
330
19F2
100
AcDbEntity
  8
0
 62
     0
100
AcDbLine
 10
3039.93217384375
 20
3067.638516996863
 30
0.0
 11
3040.726441344901
 21
3068.432784498014
 31
0.0
  0
LINE
  5
1A81
330
19F2
100
AcDbEntity
  8
0
 62
     0
100
AcDbLine
 10
3039.815803233075
 20
3067.698923081479
 30
0.0
 11
3040.600056581461
 21
3068.483176429865
 31
0.0
  0
LINE
  5
1A82
330
19F2
100
AcDbEntity
  8
0
 62
     0
100
AcDbLine
 10
3039.69943262243
 20
3067.759329166118
 30
0.0
 11
3040.473671818028
 21
3068.533568361715
 31
0.0
  0
LINE
  5
1A83
330
19F2
100
AcDbEntity
  8
0
 62
     0
100
AcDbLine
 10
3039.583062011748
 20
3067.819735250741
 30
0.0
 11
3040.347287054582
 21
3068.583960293566
 31
0.0
  0
LINE
  5
1A84
330
19F2
100
AcDbEntity
  8
0
 62
     0
100
AcDbLine
 10
3039.466691401088
 20
3067.880141335372
 30
0.0
 11
3040.220902291141
 21
3068.634352225432
 31
0.0
  0
LINE
  5
1A85
330
19F2
100
AcDbEntity
  8
0
 62
     0
100
AcDbLine
 10
3039.350320790414
 20
3067.940547419996
 30
0.0
 11
3040.094517527693
 21
3068.684744157275
 31
0.0
  0
LINE
  5
1A86
330
19F2
100
AcDbEntity
  8
0
 62
     0
100
AcDbLine
 10
3039.233950179747
 20
3068.000953504625
 30
0.0
 11
3039.968132764255
 21
3068.735136089133
 31
0.0
  0
LINE
  5
1A87
330
19F2
100
AcDbEntity
  8
0
 62
     0
100
AcDbLine
 10
3039.117579569079
 20
3068.061359589258
 30
0.0
 11
3039.841748000799
 21
3068.785528020978
 31
0.0
  0
LINE
  5
1A88
330
19F2
100
AcDbEntity
  8
0
 62
     0
100
AcDbLine
 10
3039.001208958412
 20
3068.121765673888
 30
0.0
 11
3039.715363237352
 21
3068.835919952835
 31
0.0
  0
LINE
  5
1A89
330
19F2
100
AcDbEntity
  8
0
 62
     0
100
AcDbLine
 10
3038.884838347738
 20
3068.182171758511
 30
0.0
 11
3039.588978473911
 21
3068.886311884693
 31
0.0
  0
LINE
  5
1A8A
330
19F2
100
AcDbEntity
  8
0
 62
     0
100
AcDbLine
 10
3038.768467737078
 20
3068.242577843149
 30
0.0
 11
3039.462593710457
 21
3068.936703816528
 31
0.0
  0
LINE
  5
1A8B
330
19F2
100
AcDbEntity
  8
0
 62
     0
100
AcDbLine
 10
3038.652097126403
 20
3068.302983927773
 30
0.0
 11
3039.336208947017
 21
3068.987095748386
 31
0.0
  0
LINE
  5
1A8C
330
19F2
100
AcDbEntity
  8
0
 62
     0
100
AcDbLine
 10
3038.535726515728
 20
3068.363390012397
 30
0.0
 11
3039.209824183578
 21
3069.037487680244
 31
0.0
  0
LINE
  5
1A8D
330
19F2
100
AcDbEntity
  8
0
 62
     0
100
AcDbLine
 10
3038.419355905062
 20
3068.423796097035
 30
0.0
 11
3039.08343942013
 21
3069.087879612096
 31
0.0
  0
LINE
  5
1A8E
330
19F2
100
AcDbEntity
  8
0
 62
     0
100
AcDbLine
 10
3038.302985294394
 20
3068.484202181657
 30
0.0
 11
3038.95705465669
 21
3069.138271543954
 31
0.0
  0
LINE
  5
1A8F
330
19F2
100
AcDbEntity
  8
0
 62
     0
100
AcDbLine
 10
3038.186614683727
 20
3068.544608266289
 30
0.0
 11
3038.830669893243
 21
3069.188663475804
 31
0.0
  0
LINE
  5
1A90
330
19F2
100
AcDbEntity
  8
0
 62
     0
100
AcDbLine
 10
3038.070244073046
 20
3068.605014350914
 30
0.0
 11
3038.669304395639
 21
3069.204074673507
 31
0.0
  0
LINE
  5
1A91
330
19F2
100
AcDbEntity
  8
0
 62
     0
100
AcDbLine
 10
3037.953873462394
 20
3068.665420435551
 30
0.0
 11
3038.129400573976
 21
3068.840947547141
 31
0.0
  0
ENDBLK
  5
1A92
330
19F2
100
AcDbEntity
  8
0
100
AcDbBlockEnd
  0
BLOCK
  5
1A94
330
1A93
100
AcDbEntity
  8
0
100
AcDbBlockBegin
  2
*X25
 70
     1
 10
0.0
 20
0.0
 30
0.0
  3
*X25
  1

  0
LINE
  5
1A95
330
1A93
100
AcDbEntity
  8
0
 62
     0
100
AcDbLine
 10
3036.135178504272
 20
3038.38567753465
 30
0.0
 11
3037.338738304061
 21
3039.589237334447
 31
0.0
  0
LINE
  5
1A96
330
1A93
100
AcDbEntity
  8
0
 62
     0
100
AcDbLine
 10
3035.80595781839
 20
3038.233233544066
 30
0.0
 11
3037.491182294644
 21
3039.918458020329
 31
0.0
  0
LINE
  5
1A97
330
1A93
100
AcDbEntity
  8
0
 62
     0
100
AcDbLine
 10
3035.539286650711
 20
3038.143339071684
 30
0.0
 11
3037.581076767033
 21
3040.185129188008
 31
0.0
  0
LINE
  5
1A98
330
1A93
100
AcDbEntity
  8
0
 62
     0
100
AcDbLine
 10
3035.306103412862
 20
3038.086932529135
 30
0.0
 11
3037.637483309584
 21
3040.418312425856
 31
0.0
  0
LINE
  5
1A99
330
1A93
100
AcDbEntity
  8
0
 62
     0
100
AcDbLine
 10
3035.095067172929
 20
3038.0526729845
 30
0.0
 11
3037.671742854219
 21
3040.629348665788
 31
0.0
  0
LINE
  5
1A9A
330
1A93
100
AcDbEntity
  8
0
 62
     0
100
AcDbLine
 10
3034.900322890366
 20
3038.034705397236
 30
0.0
 11
3037.689710441473
 21
3040.824092948342
 31
0.0
  0
LINE
  5
1A9B
330
1A93
100
AcDbEntity
  8
0
 62
     0
100
AcDbLine
 10
3034.718373614436
 20
3038.029532816603
 30
0.0
 11
3037.694883022108
 21
3041.006042224275
 31
0.0
  0
LINE
  5
1A9C
330
1A93
100
AcDbEntity
  8
0
 62
     0
100
AcDbLine
 10
3034.546932107915
 20
3038.034868005379
 30
0.0
 11
3037.689547833339
 21
3041.177483730804
 31
0.0
  0
LINE
  5
1A9D
330
1A93
100
AcDbEntity
  8
0
 62
     0
100
AcDbLine
 10
3034.384406474892
 20
3038.049119067661
 30
0.0
 11
3037.675296771056
 21
3041.340009363818
 31
0.0
  0
LINE
  5
1A9E
330
1A93
100
AcDbEntity
  8
0
 62
     0
100
AcDbLine
 10
3034.229637912946
 20
3038.071127201009
 30
0.0
 11
3037.653288637708
 21
3041.494777925771
 31
0.0
  0
LINE
  5
1A9F
330
1A93
100
AcDbEntity
  8
0
 62
     0
100
AcDbLine
 10
3046.117382842742
 20
3050.135648826107
 30
0.0
 11
3046.705484884223
 21
3050.723750867581
 31
0.0
  0
LINE
  5
1AA0
330
1A93
100
AcDbEntity
  8
0
 62
     0
100
AcDbLine
 10
3034.081754119012
 20
3038.100020102371
 30
0.0
 11
3037.62439573634
 21
3041.642661719698
 31
0.0
  0
LINE
  5
1AA1
330
1A93
100
AcDbEntity
  8
0
 62
     0
100
AcDbLine
 10
3045.655038355035
 20
3049.850081033691
 30
0.0
 11
3046.99105267664
 21
3051.186095355296
 31
0.0
  0
LINE
  5
1AA2
330
1A93
100
AcDbEntity
  8
0
 62
     0
100
AcDbLine
 10
3033.940081487649
 20
3038.135124166307
 30
0.0
 11
3037.589291672404
 21
3041.784334351068
 31
0.0
  0
LINE
  5
1AA3
330
1A93
100
AcDbEntity
  8
0
 62
     0
100
AcDbLine
 10
3045.345626161434
 20
3049.717445535389
 30
0.0
 11
3046.8232333907
 21
3051.195052764655
 31
0.0
  0
LINE
  5
1AA4
330
1A93
100
AcDbEntity
  8
0
 62
     0
100
AcDbLine
 10
3033.804089622455
 20
3038.175908996418
 30
0.0
 11
3037.5485068423
 21
3041.920326216255
 31
0.0
  0
LINE
  5
1AA5
330
1A93
100
AcDbEntity
  8
0
 62
     0
100
AcDbLine
 10
3035.026761999157
 20
3039.57535806841
 30
0.0
 11
3037.508503379547
 21
3042.0570994488
 31
0.0
  0
LINE
  5
1AA6
330
1A93
100
AcDbEntity
  8
0
 62
     0
100
AcDbLine
 10
3045.088491105205
 20
3049.637087174466
 30
0.0
 11
3046.57017362483
 21
3051.118769694083
 31
0.0
  0
LINE
  5
1AA7
330
1A93
100
AcDbEntity
  8
0
 62
     0
100
AcDbLine
 10
3033.67335473666
 20
3038.221950805913
 30
0.0
 11
3034.299276728249
 21
3038.847872797501
 31
0.0
  0
LINE
  5
1AA8
330
1A93
100
AcDbEntity
  8
0
 62
     0
100
AcDbLine
 10
3035.079167584429
 20
3039.804540348981
 30
0.0
 11
3037.4833176955
 21
3042.208690460052
 31
0.0
  0
LINE
  5
1AA9
330
1A93
100
AcDbEntity
  8
0
 62
     0
100
AcDbLine
 10
3044.861307759202
 20
3049.586680523753
 30
0.0
 11
3046.343504283359
 21
3051.068877047911
 31
0.0
  0
LINE
  5
1AAA
330
1A93
100
AcDbEntity
  8
0
 62
     0
100
AcDbLine
 10
3033.547534664452
 20
3038.272907429004
 30
0.0
 11
3033.910883856174
 21
3038.636256620732
 31
0.0
  0
LINE
  5
1AAB
330
1A93
100
AcDbEntity
  8
0
 62
     0
100
AcDbLine
 10
3035.068326274151
 20
3039.970475734008
 30
0.0
 11
3037.458132011459
 21
3042.360281471308
 31
0.0
  0
LINE
  5
1AAC
330
1A93
100
AcDbEntity
  8
0
 62
     0
100
AcDbLine
 10
3044.654557213078
 20
3049.556706672934
 30
0.0
 11
3046.135548506972
 21
3051.037697966829
 31
0.0
  0
LINE
  5
1AAD
330
1A93
100
AcDbEntity
  8
0
 62
     0
100
AcDbLine
 10
3033.42635131556
 20
3038.328500775409
 30
0.0
 11
3033.612750884183
 21
3038.514900344031
 31
0.0
  0
LINE
  5
1AAE
330
1A93
100
AcDbEntity
  8
0
 62
     0
100
AcDbLine
 10
3035.057484963902
 20
3040.136411119048
 30
0.0
 11
3037.432946327411
 21
3042.511872482558
 31
0.0
  0
LINE
  5
1AAF
330
1A93
100
AcDbEntity
  8
0
 62
     0
100
AcDbLine
 10
3044.463113514117
 20
3049.542039669264
 30
0.0
 11
3045.939306829757
 21
3051.018232984912
 31
0.0
  0
LINE
  5
1AB0
330
1A93
100
AcDbEntity
  8
0
 62
     0
100
AcDbLine
 10
3033.309578077009
 20
3038.388504232156
 30
0.0
 11
3033.358252447833
 21
3038.437178602981
 31
0.0
  0
LINE
  5
1AB1
330
1A93
100
AcDbEntity
  8
0
 62
     0
100
AcDbLine
 10
3044.283837054658
 20
3049.53953990509
 30
0.0
 11
3045.733469220643
 21
3050.989172071073
 31
0.0
  0
LINE
  5
1AB2
330
1A93
100
AcDbEntity
  8
0
 62
     0
100
AcDbLine
 10
3035.046643653629
 20
3040.30234650406
 30
0.0
 11
3037.407760643379
 21
3042.66346349381
 31
0.0
  0
LINE
  5
1AB3
330
1A93
100
AcDbEntity
  8
0
 62
     0
100
AcDbLine
 10
3044.114639529514
 20
3049.547119075243
 30
0.0
 11
3045.555995388968
 21
3050.988474934696
 31
0.0
  0
LINE
  5
1AB4
330
1A93
100
AcDbEntity
  8
0
 62
     0
100
AcDbLine
 10
3035.035802343373
 20
3040.468281889109
 30
0.0
 11
3037.382574959323
 21
3042.815054505052
 31
0.0
  0
LINE
  5
1AB5
330
1A93
100
AcDbEntity
  8
0
 62
     0
100
AcDbLine
 10
3043.954050026106
 20
3049.563306267141
 30
0.0
 11
3045.39756108699
 21
3051.006817328016
 31
0.0
  0
LINE
  5
1AB6
330
1A93
100
AcDbEntity
  8
0
 62
     0
100
AcDbLine
 10
3035.024961033101
 20
3040.634217274128
 30
0.0
 11
3037.357389275275
 21
3042.966645516302
 31
0.0
  0
LINE
  5
1AB7
330
1A93
100
AcDbEntity
  8
0
 62
     0
100
AcDbLine
 10
3043.800988299015
 20
3049.587021235339
 30
0.0
 11
3045.253572527384
 21
3051.039605463709
 31
0.0
  0
LINE
  5
1AB8
330
1A93
100
AcDbEntity
  8
0
 62
     0
100
AcDbLine
 10
3035.014119722851
 20
3040.800152659176
 30
0.0
 11
3037.332203591235
 21
3043.118236527559
 31
0.0
  0
LINE
  5
1AB9
330
1A93
100
AcDbEntity
  8
0
 62
     0
100
AcDbLine
 10
3043.654635713494
 20
3049.617445345102
 30
0.0
 11
3045.121398353773
 21
3051.08420798539
 31
0.0
  0
LINE
  5
1ABA
330
1A93
100
AcDbEntity
  8
0
 62
     0
100
AcDbLine
 10
3035.003278412593
 20
3040.966088044203
 30
0.0
 11
3037.307017907202
 21
3043.26982753881
 31
0.0
  0
LINE
  5
1ABB
330
1A93
100
AcDbEntity
  8
0
 62
     0
100
AcDbLine
 10
3043.514356862178
 20
3049.653943189085
 30
0.0
 11
3044.999404658811
 21
3051.138990985717
 31
0.0
  0
LINE
  5
1ABC
330
1A93
100
AcDbEntity
  8
0
 62
     0
100
AcDbLine
 10
3034.992437102337
 20
3041.132023429243
 30
0.0
 11
3037.281832223161
 21
3043.421418550073
 31
0.0
  0
LINE
  5
1ABD
330
1A93
100
AcDbEntity
  8
0
 62
     0
100
AcDbLine
 10
3043.379649479451
 20
3049.696012501656
 30
0.0
 11
3044.886538318976
 21
3051.202901341181
 31
0.0
  0
LINE
  5
1ABE
330
1A93
100
AcDbEntity
  8
0
 62
     0
100
AcDbLine
 10
3034.981595792065
 20
3041.297958814269
 30
0.0
 11
3037.256646539105
 21
3043.573009561317
 31
0.0
  0
LINE
  5
1ABF
330
1A93
100
AcDbEntity
  8
0
 62
     0
100
AcDbLine
 10
3043.250111111032
 20
3049.743250828534
 30
0.0
 11
3044.783937380554
 21
3051.277077098057
 31
0.0
  0
LINE
  5
1AC0
330
1A93
100
AcDbEntity
  8
0
 62
     0
100
AcDbLine
 10
3034.970754481808
 20
3041.463894199318
 30
0.0
 11
3037.231460855073
 21
3043.724600572582
 31
0.0
  0
LINE
  5
1AC1
330
1A93
100
AcDbEntity
  8
0
 62
     0
100
AcDbLine
 10
3043.125416192895
 20
3049.795332605695
 30
0.0
 11
3044.715529944893
 21
3051.385446357692
 31
0.0
  0
LINE
  5
1AC2
330
1A93
100
AcDbEntity
  8
0
 62
     0
100
AcDbLine
 10
3034.959913171544
 20
3041.629829584344
 30
0.0
 11
3037.206275171024
 21
3043.876191583827
 31
0.0
  0
LINE
  5
1AC3
330
1A93
100
AcDbEntity
  8
0
 62
     0
100
AcDbLine
 10
3043.005299863914
 20
3049.851992972012
 30
0.0
 11
3044.647122509224
 21
3051.493815617331
 31
0.0
  0
LINE
  5
1AC4
330
1A93
100
AcDbEntity
  8
0
 62
     0
100
AcDbLine
 10
3034.949071861288
 20
3041.795764969385
 30
0.0
 11
3037.181089486978
 21
3044.027782595077
 31
0.0
  0
LINE
  5
1AC5
330
1A93
100
AcDbEntity
  8
0
 62
     0
100
AcDbLine
 10
3042.889546289618
 20
3049.913016093022
 30
0.0
 11
3044.578715073585
 21
3051.602184876981
 31
0.0
  0
LINE
  5
1AC6
330
1A93
100
AcDbEntity
  8
0
 62
     0
100
AcDbLine
 10
3034.938230551007
 20
3041.961700354411
 30
0.0
 11
3037.155903802936
 21
3044.179373606334
 31
0.0
  0
LINE
  5
1AC7
330
1A93
100
AcDbEntity
  8
0
 62
     0
100
AcDbLine
 10
3042.777980103986
 20
3049.978226602681
 30
0.0
 11
3044.510307637917
 21
3051.710554136618
 31
0.0
  0
LINE
  5
1AC8
330
1A93
100
AcDbEntity
  8
0
 62
     0
100
AcDbLine
 10
3034.927389240751
 20
3042.127635739446
 30
0.0
 11
3037.130718118903
 21
3044.330964617598
 31
0.0
  0
LINE
  5
1AC9
330
1A93
100
AcDbEntity
  8
0
 62
     0
100
AcDbLine
 10
3042.670460069879
 20
3050.047483263872
 30
0.0
 11
3044.441900202255
 21
3051.818923396247
 31
0.0
  0
LINE
  5
1ACA
330
1A93
100
AcDbEntity
  8
0
 62
     0
100
AcDbLine
 10
3034.916547930501
 20
3042.293571124492
 30
0.0
 11
3037.10553243485
 21
3044.482555628849
 31
0.0
  0
LINE
  5
1ACB
330
1A93
100
AcDbEntity
  8
0
 62
     0
100
AcDbLine
 10
3042.566874363235
 20
3050.120674252525
 30
0.0
 11
3044.373492766608
 21
3051.927292655898
 31
0.0
  0
LINE
  5
1ACC
330
1A93
100
AcDbEntity
  8
0
 62
     0
100
AcDbLine
 10
3034.905706620222
 20
3042.459506509513
 30
0.0
 11
3037.0803467508
 21
3044.634146640092
 31
0.0
  0
LINE
  5
1ACD
330
1A93
100
AcDbEntity
  8
0
 62
     0
100
AcDbLine
 10
3042.467137080945
 20
3050.197713665533
 30
0.0
 11
3044.305085330932
 21
3052.035661915522
 31
0.0
  0
LINE
  5
1ACE
330
1A93
100
AcDbEntity
  8
0
 62
     0
100
AcDbLine
 10
3034.894865309972
 20
3042.625441894561
 30
0.0
 11
3037.05516106676
 21
3044.785737651349
 31
0.0
  0
LINE
  5
1ACF
330
1A93
100
AcDbEntity
  8
0
 62
     0
100
AcDbLine
 10
3042.371185700591
 20
3050.278538980486
 30
0.0
 11
3044.236677895285
 21
3052.144031175172
 31
0.0
  0
LINE
  5
1AD0
330
1A93
100
AcDbEntity
  8
0
 62
     0
100
AcDbLine
 10
3034.884023999693
 20
3042.79137727958
 30
0.0
 11
3037.029975382719
 21
3044.937328662607
 31
0.0
  0
LINE
  5
1AD1
330
1A93
100
AcDbEntity
  8
0
 62
     0
100
AcDbLine
 10
3042.278979308343
 20
3050.363109283527
 30
0.0
 11
3044.168270459616
 21
3052.252400434801
 31
0.0
  0
LINE
  5
1AD2
330
1A93
100
AcDbEntity
  8
0
 62
     0
100
AcDbLine
 10
3034.873182689452
 20
3042.957312664634
 30
0.0
 11
3037.004789698672
 21
3045.088919673856
 31
0.0
  0
LINE
  5
1AD3
330
1A93
100
AcDbEntity
  8
0
 62
     0
100
AcDbLine
 10
3042.190497473879
 20
3050.451404144369
 30
0.0
 11
3044.099863023955
 21
3052.360769694445
 31
0.0
  0
LINE
  5
1AD4
330
1A93
100
AcDbEntity
  8
0
 62
     0
100
AcDbLine
 10
3034.862341379171
 20
3043.123248049655
 30
0.0
 11
3036.979604014633
 21
3045.240510685115
 31
0.0
  0
LINE
  5
1AD5
330
1A93
100
AcDbEntity
  8
0
 62
     0
100
AcDbLine
 10
3042.105739698833
 20
3050.543423064613
 30
0.0
 11
3044.031455588309
 21
3052.469138954089
 31
0.0
  0
LINE
  5
1AD6
330
1A93
100
AcDbEntity
  8
0
 62
     0
100
AcDbLine
 10
3034.851500068915
 20
3043.289183434696
 30
0.0
 11
3036.954418330584
 21
3045.392101696364
 31
0.0
  0
LINE
  5
1AD7
330
1A93
100
AcDbEntity
  8
0
 62
     0
100
AcDbLine
 10
3042.024725403374
 20
3050.639185464461
 30
0.0
 11
3043.963048152647
 21
3052.577508213726
 31
0.0
  0
LINE
  5
1AD8
330
1A93
100
AcDbEntity
  8
0
 62
     0
100
AcDbLine
 10
3034.840658758643
 20
3043.455118819721
 30
0.0
 11
3036.929232646536
 21
3045.543692707622
 31
0.0
  0
LINE
  5
1AD9
330
1A93
100
AcDbEntity
  8
0
 62
     0
100
AcDbLine
 10
3041.947494450281
 20
3050.738731206656
 30
0.0
 11
3043.894640716978
 21
3052.685877473364
 31
0.0
  0
LINE
  5
1ADA
330
1A93
100
AcDbEntity
  8
0
 62
     0
100
AcDbLine
 10
3034.829817448386
 20
3043.621054204769
 30
0.0
 11
3036.904046962495
 21
3045.695283718873
 31
0.0
  0
LINE
  5
1ADB
330
1A93
100
AcDbEntity
  8
0
 62
     0
100
AcDbLine
 10
3041.874108239673
 20
3050.842121691335
 30
0.0
 11
3043.82623328134
 21
3052.794246733
 31
0.0
  0
LINE
  5
1ADC
330
1A93
100
AcDbEntity
  8
0
 62
     0
100
AcDbLine
 10
3034.818976138114
 20
3043.786989589774
 30
0.0
 11
3036.878861278463
 21
3045.846874730123
 31
0.0
  0
LINE
  5
1ADD
330
1A93
100
AcDbEntity
  8
0
 62
     0
100
AcDbLine
 10
3041.804651446276
 20
3050.949441593235
 30
0.0
 11
3043.75782584567
 21
3052.902615992636
 31
0.0
  0
LINE
  5
1ADE
330
1A93
100
AcDbEntity
  8
0
 62
     0
100
AcDbLine
 10
3034.808134827864
 20
3043.952924974821
 30
0.0
 11
3036.853675594407
 21
3045.998465741366
 31
0.0
  0
LINE
  5
1ADF
330
1A93
100
AcDbEntity
  8
0
 62
     0
100
AcDbLine
 10
3041.739234517204
 20
3051.060801359461
 30
0.0
 11
3043.689418410009
 21
3053.010985252265
 31
0.0
  0
LINE
  5
1AE0
330
1A93
100
AcDbEntity
  8
0
 62
     0
100
AcDbLine
 10
3034.797293517593
 20
3044.118860359856
 30
0.0
 11
3036.82848991036
 21
3046.150056752614
 31
0.0
  0
LINE
  5
1AE1
330
1A93
100
AcDbEntity
  8
0
 62
     0
100
AcDbLine
 10
3041.677997110732
 20
3051.176340648271
 30
0.0
 11
3043.621010974376
 21
3053.119354511917
 31
0.0
  0
LINE
  5
1AE2
330
1A93
100
AcDbEntity
  8
0
 62
     0
100
AcDbLine
 10
3034.786452207351
 20
3044.284795744891
 30
0.0
 11
3036.803304226334
 21
3046.301647763874
 31
0.0
  0
LINE
  5
1AE3
330
1A93
100
AcDbEntity
  8
0
 62
     0
100
AcDbLine
 10
3041.621112742257
 20
3051.296232975096
 30
0.0
 11
3043.552603538715
 21
3053.227723771553
 31
0.0
  0
LINE
  5
1AE4
330
1A93
100
AcDbEntity
  8
0
 62
     0
100
AcDbLine
 10
3034.775610897086
 20
3044.450731129931
 30
0.0
 11
3036.778118542286
 21
3046.453238775124
 31
0.0
  0
LINE
  5
1AE5
330
1A93
100
AcDbEntity
  8
0
 62
     0
100
AcDbLine
 10
3041.568795030158
 20
3051.420691958294
 30
0.0
 11
3043.484196103054
 21
3053.336093031189
 31
0.0
  0
LINE
  5
1AE6
330
1A93
100
AcDbEntity
  8
0
 62
     0
100
AcDbLine
 10
3034.764769586814
 20
3044.616666514949
 30
0.0
 11
3036.752932858246
 21
3046.604829786382
 31
0.0
  0
LINE
  5
1AE7
330
1A93
100
AcDbEntity
  8
0
 62
     0
100
AcDbLine
 10
3041.521306124121
 20
3051.549979747564
 30
0.0
 11
3043.415788667394
 21
3053.444462290826
 31
0.0
  0
LINE
  5
1AE8
330
1A93
100
AcDbEntity
  8
0
 62
     0
100
AcDbLine
 10
3034.753928276565
 20
3044.782601900005
 30
0.0
 11
3036.727747174192
 21
3046.756420797632
 31
0.0
  0
LINE
  5
1AE9
330
1A93
100
AcDbEntity
  8
0
 62
     0
100
AcDbLine
 10
3041.478968196694
 20
3051.684418515426
 30
0.0
 11
3043.347381231724
 21
3053.552831550464
 31
0.0
  0
LINE
  5
1AEA
330
1A93
100
AcDbEntity
  8
0
 62
     0
100
AcDbLine
 10
3034.743086966285
 20
3044.948537285025
 30
0.0
 11
3036.702561490157
 21
3046.908011808898
 31
0.0
  0
LINE
  5
1AEB
330
1A93
100
AcDbEntity
  8
0
 62
     0
100
AcDbLine
 10
3041.421123105822
 20
3051.803350119851
 30
0.0
 11
3043.278973796077
 21
3053.661200810107
 31
0.0
  0
LINE
  5
1AEC
330
1A93
100
AcDbEntity
  8
0
 62
     0
100
AcDbLine
 10
3034.732245656035
 20
3045.114472670066
 30
0.0
 11
3036.677375806102
 21
3047.059602820139
 31
0.0
  0
LINE
  5
1AED
330
1A93
100
AcDbEntity
  8
0
 62
     0
100
AcDbLine
 10
3041.362194353708
 20
3051.921198063042
 30
0.0
 11
3043.210566360416
 21
3053.769570069744
 31
0.0
  0
LINE
  5
1AEE
330
1A93
100
AcDbEntity
  8
0
 62
     0
100
AcDbLine
 10
3034.721404345765
 20
3045.280408055092
 30
0.0
 11
3036.652190122062
 21
3047.211193831389
 31
0.0
  0
LINE
  5
1AEF
330
1A93
100
AcDbEntity
  8
0
 62
     0
100
AcDbLine
 10
3041.3032656016
 20
3052.039046006226
 30
0.0
 11
3043.142158924756
 21
3053.87793932938
 31
0.0
  0
LINE
  5
1AF0
330
1A93
100
AcDbEntity
  8
0
 62
     0
100
AcDbLine
 10
3034.710563035514
 20
3045.446343440139
 30
0.0
 11
3036.627004438022
 21
3047.362784842647
 31
0.0
  0
LINE
  5
1AF1
330
1A93
100
AcDbEntity
  8
0
 62
     0
100
AcDbLine
 10
3041.244336849485
 20
3052.156893949411
 30
0.0
 11
3043.073751489109
 21
3053.986308589032
 31
0.0
  0
LINE
  5
1AF2
330
1A93
100
AcDbEntity
  8
0
 62
     0
100
AcDbLine
 10
3034.699721725235
 20
3045.61227882516
 30
0.0
 11
3036.601818753981
 21
3047.514375853911
 31
0.0
  0
LINE
  5
1AF3
330
1A93
100
AcDbEntity
  8
0
 62
     0
100
AcDbLine
 10
3041.185408097371
 20
3052.2747418926
 30
0.0
 11
3043.005344053439
 21
3054.094677848668
 31
0.0
  0
LINE
  5
1AF4
330
1A93
100
AcDbEntity
  8
0
 62
     0
100
AcDbLine
 10
3034.688880414986
 20
3045.778214210209
 30
0.0
 11
3036.576633069933
 21
3047.665966865162
 31
0.0
  0
LINE
  5
1AF5
330
1A93
100
AcDbEntity
  8
0
 62
     0
100
AcDbLine
 10
3041.126479345265
 20
3052.392589835785
 30
0.0
 11
3042.936936617778
 21
3054.203047108297
 31
0.0
  0
LINE
  5
1AF6
330
1A93
100
AcDbEntity
  8
0
 62
     0
100
AcDbLine
 10
3034.678039104707
 20
3045.944149595233
 30
0.0
 11
3036.5514473859
 21
3047.817557876419
 31
0.0
  0
LINE
  5
1AF7
330
1A93
100
AcDbEntity
  8
0
 62
     0
100
AcDbLine
 10
3041.06755059315
 20
3052.510437778968
 30
0.0
 11
3042.86852918213
 21
3054.311416367956
 31
0.0
  0
LINE
  5
1AF8
330
1A93
100
AcDbEntity
  8
0
 62
     0
100
AcDbLine
 10
3034.667197794465
 20
3046.110084980282
 30
0.0
 11
3036.526261701845
 21
3047.969148887663
 31
0.0
  0
LINE
  5
1AF9
330
1A93
100
AcDbEntity
  8
0
 62
     0
100
AcDbLine
 10
3041.008621841035
 20
3052.628285722159
 30
0.0
 11
3042.800121746469
 21
3054.419785627586
 31
0.0
  0
LINE
  5
1AFA
330
1A93
100
AcDbEntity
  8
0
 62
     0
100
AcDbLine
 10
3034.656356484186
 20
3046.276020365301
 30
0.0
 11
3036.501076017803
 21
3048.120739898921
 31
0.0
  0
LINE
  5
1AFB
330
1A93
100
AcDbEntity
  8
0
 62
     0
100
AcDbLine
 10
3040.949693088929
 20
3052.746133665343
 30
0.0
 11
3042.731714310808
 21
3054.528154887222
 31
0.0
  0
LINE
  5
1AFC
330
1A93
100
AcDbEntity
  8
0
 62
     0
100
AcDbLine
 10
3034.645515173929
 20
3046.44195575035
 30
0.0
 11
3036.475890333756
 21
3048.272330910171
 31
0.0
  0
LINE
  5
1AFD
330
1A93
100
AcDbEntity
  8
0
 62
     0
100
AcDbLine
 10
3040.890764336815
 20
3052.863981608528
 30
0.0
 11
3042.663306875147
 21
3054.63652414686
 31
0.0
  0
LINE
  5
1AFE
330
1A93
100
AcDbEntity
  8
0
 62
     0
100
AcDbLine
 10
3034.634673863656
 20
3046.60789113537
 30
0.0
 11
3036.450704649723
 21
3048.423921921436
 31
0.0
  0
LINE
  5
1AFF
330
1A93
100
AcDbEntity
  8
0
 62
     0
100
AcDbLine
 10
3040.831835584699
 20
3052.981829551718
 30
0.0
 11
3042.594899439492
 21
3054.744893406504
 31
0.0
  0
LINE
  5
1B00
330
1A93
100
AcDbEntity
  8
0
 62
     0
100
AcDbLine
 10
3034.623832553391
 20
3046.773826520402
 30
0.0
 11
3036.425518965669
 21
3048.575512932679
 31
0.0
  0
LINE
  5
1B01
330
1A93
100
AcDbEntity
  8
0
 62
     0
100
AcDbLine
 10
3040.772906832593
 20
3053.099677494901
 30
0.0
 11
3042.526492003831
 21
3054.853262666139
 31
0.0
  0
LINE
  5
1B02
330
1A93
100
AcDbEntity
  8
0
 62
     0
100
AcDbLine
 10
3034.612991243128
 20
3046.939761905443
 30
0.0
 11
3036.400333281621
 21
3048.727103943936
 31
0.0
  0
LINE
  5
1B03
330
1A93
100
AcDbEntity
  8
0
 62
     0
100
AcDbLine
 10
3040.713978080479
 20
3053.217525438084
 30
0.0
 11
3042.458084568171
 21
3054.961631925776
 31
0.0
  0
LINE
  5
1B04
330
1A93
100
AcDbEntity
  8
0
 62
     0
100
AcDbLine
 10
3034.602149932871
 20
3047.105697290477
 30
0.0
 11
3036.375147597579
 21
3048.878694955187
 31
0.0
  0
LINE
  5
1B05
330
1A93
100
AcDbEntity
  8
0
 62
     0
100
AcDbLine
 10
3040.655049328365
 20
3053.335373381254
 30
0.0
 11
3042.389677132509
 21
3055.070001185399
 31
0.0
  0
LINE
  5
1B06
330
1A93
100
AcDbEntity
  8
0
 62
     0
100
AcDbLine
 10
3034.591308622621
 20
3047.27163267551
 30
0.0
 11
3036.349961913547
 21
3049.030285966436
 31
0.0
  0
LINE
  5
1B07
330
1A93
100
AcDbEntity
  8
0
 62
     0
100
AcDbLine
 10
3040.596120576258
 20
3053.453221324446
 30
0.0
 11
3042.321269696862
 21
3055.17837044505
 31
0.0
  0
LINE
  5
1B08
330
1A93
100
AcDbEntity
  8
0
 62
     0
100
AcDbLine
 10
3034.580467312342
 20
3047.43756806053
 30
0.0
 11
3036.324776229492
 21
3049.181876977681
 31
0.0
  0
LINE
  5
1B09
330
1A93
100
AcDbEntity
  8
0
 62
     0
100
AcDbLine
 10
3040.537191824143
 20
3053.571069267629
 30
0.0
 11
3042.252862261193
 21
3055.286739704687
 31
0.0
  0
LINE
  5
1B0A
330
1A93
100
AcDbEntity
  8
0
 62
     0
100
AcDbLine
 10
3034.569626002085
 20
3047.603503445578
 30
0.0
 11
3036.299590545445
 21
3049.33346798893
 31
0.0
  0
LINE
  5
1B0B
330
1A93
100
AcDbEntity
  8
0
 62
     0
100
AcDbLine
 10
3040.478263072043
 20
3053.688917210813
 30
0.0
 11
3042.184454825547
 21
3055.395108964316
 31
0.0
  0
LINE
  5
1B0C
330
1A93
100
AcDbEntity
  8
0
 62
     0
100
AcDbLine
 10
3034.558784691828
 20
3047.769438830596
 30
0.0
 11
3036.274404861417
 21
3049.485059000188
 31
0.0
  0
LINE
  5
1B0D
330
1A93
100
AcDbEntity
  8
0
 62
     0
100
AcDbLine
 10
3040.419334319937
 20
3053.806765154004
 30
0.0
 11
3042.1160473899
 21
3055.503478223974
 31
0.0
  0
LINE
  5
1B0E
330
1A93
100
AcDbEntity
  8
0
 62
     0
100
AcDbLine
 10
3034.547943381585
 20
3047.935374215652
 30
0.0
 11
3036.249219177378
 21
3049.636650011454
 31
0.0
  0
LINE
  5
1B0F
330
1A93
100
AcDbEntity
  8
0
 62
     0
100
AcDbLine
 10
3040.360405567823
 20
3053.924613097187
 30
0.0
 11
3042.047639954239
 21
3055.611847483604
 31
0.0
  0
LINE
  5
1B10
330
1A93
100
AcDbEntity
  8
0
 62
     0
100
AcDbLine
 10
3034.537102071306
 20
3048.101309600672
 30
0.0
 11
3036.22403349333
 21
3049.788241022695
 31
0.0
  0
LINE
  5
1B11
330
1A93
100
AcDbEntity
  8
0
 62
     0
100
AcDbLine
 10
3040.301476815708
 20
3054.042461040371
 30
0.0
 11
3041.979232518577
 21
3055.720216743241
 31
0.0
  0
LINE
  5
1B12
330
1A93
100
AcDbEntity
  8
0
 62
     0
100
AcDbLine
 10
3034.52626076105
 20
3048.267244985713
 30
0.0
 11
3036.198847809282
 21
3049.939832033945
 31
0.0
  0
LINE
  5
1B13
330
1A93
100
AcDbEntity
  8
0
 62
     0
100
AcDbLine
 10
3040.242548063594
 20
3054.160308983562
 30
0.0
 11
3041.910825082923
 21
3055.828586002884
 31
0.0
  0
LINE
  5
1B14
330
1A93
100
AcDbEntity
  8
0
 62
     0
100
AcDbLine
 10
3034.515419450777
 20
3048.433180370739
 30
0.0
 11
3036.173662125241
 21
3050.091423045203
 31
0.0
  0
LINE
  5
1B15
330
1A93
100
AcDbEntity
  8
0
 62
     0
100
AcDbLine
 10
3040.183619311486
 20
3054.278156926747
 30
0.0
 11
3041.84241764727
 21
3055.936955262528
 31
0.0
  0
LINE
  5
1B16
330
1A93
100
AcDbEntity
  8
0
 62
     0
100
AcDbLine
 10
3034.504578140526
 20
3048.599115755787
 30
0.0
 11
3036.148476441201
 21
3050.243014056461
 31
0.0
  0
LINE
  5
1B17
330
1A93
100
AcDbEntity
  8
0
 62
     0
100
AcDbLine
 10
3040.124690559372
 20
3054.396004869929
 30
0.0
 11
3041.7740102116
 21
3056.045324522159
 31
0.0
  0
LINE
  5
1B18
330
1A93
100
AcDbEntity
  8
0
 62
     0
100
AcDbLine
 10
3034.493736830249
 20
3048.765051140807
 30
0.0
 11
3036.123290757146
 21
3050.394605067703
 31
0.0
  0
LINE
  5
1B19
330
1A93
100
AcDbEntity
  8
0
 62
     0
100
AcDbLine
 10
3040.065761807258
 20
3054.513852813121
 30
0.0
 11
3041.705602775938
 21
3056.153693781801
 31
0.0
  0
LINE
  5
1B1A
330
1A93
100
AcDbEntity
  8
0
 62
     0
100
AcDbLine
 10
3034.482895519998
 20
3048.930986525855
 30
0.0
 11
3036.09810507312
 21
3050.546196078975
 31
0.0
  0
LINE
  5
1B1B
330
1A93
100
AcDbEntity
  8
0
 62
     0
100
AcDbLine
 10
3040.006833055151
 20
3054.631700756305
 30
0.0
 11
3041.637195340285
 21
3056.262063041446
 31
0.0
  0
LINE
  5
1B1C
330
1A93
100
AcDbEntity
  8
0
 62
     0
100
AcDbLine
 10
3034.472054209727
 20
3049.09692191088
 30
0.0
 11
3036.072919389065
 21
3050.697787090226
 31
0.0
  0
LINE
  5
1B1D
330
1A93
100
AcDbEntity
  8
0
 62
     0
100
AcDbLine
 10
3039.947904303037
 20
3054.749548699488
 30
0.0
 11
3041.568787904631
 21
3056.370432301082
 31
0.0
  0
LINE
  5
1B1E
330
1A93
100
AcDbEntity
  8
0
 62
     0
100
AcDbLine
 10
3034.461212899462
 20
3049.262857295921
 30
0.0
 11
3036.047733705018
 21
3050.84937810147
 31
0.0
  0
LINE
  5
1B1F
330
1A93
100
AcDbEntity
  8
0
 62
     0
100
AcDbLine
 10
3039.888975550923
 20
3054.867396642678
 30
0.0
 11
3041.500380468962
 21
3056.478801560719
 31
0.0
  0
LINE
  5
1B20
330
1A93
100
AcDbEntity
  8
0
 62
     0
100
AcDbLine
 10
3034.450371589206
 20
3049.428792680963
 30
0.0
 11
3036.022548020977
 21
3051.000969112734
 31
0.0
  0
LINE
  5
1B21
330
1A93
100
AcDbEntity
  8
0
 62
     0
100
AcDbLine
 10
3039.830046798814
 20
3054.985244585863
 30
0.0
 11
3041.431973033308
 21
3056.587170820363
 31
0.0
  0
LINE
  5
1B22
330
1A93
100
AcDbEntity
  8
0
 62
     0
100
AcDbLine
 10
3034.439530278933
 20
3049.594728065982
 30
0.0
 11
3035.997362336928
 21
3051.152560123984
 31
0.0
  0
LINE
  5
1B23
330
1A93
100
AcDbEntity
  8
0
 62
     0
100
AcDbLine
 10
3039.771118046701
 20
3055.103092529046
 30
0.0
 11
3041.363565597654
 21
3056.695540080006
 31
0.0
  0
LINE
  5
1B24
330
1A93
100
AcDbEntity
  8
0
 62
     0
100
AcDbLine
 10
3034.428688968684
 20
3049.760663451031
 30
0.0
 11
3035.972176652895
 21
3051.304151135241
 31
0.0
  0
LINE
  5
1B25
330
1A93
100
AcDbEntity
  8
0
 62
     0
100
AcDbLine
 10
3039.712189294587
 20
3055.220940472238
 30
0.0
 11
3041.295158161993
 21
3056.803909339637
 31
0.0
  0
LINE
  5
1B26
330
1A93
100
AcDbEntity
  8
0
 62
     0
100
AcDbLine
 10
3034.417847658413
 20
3049.926598836055
 30
0.0
 11
3035.946990968841
 21
3051.455742146485
 31
0.0
  0
LINE
  5
1B27
330
1A93
100
AcDbEntity
  8
0
 62
     0
100
AcDbLine
 10
3039.653260542479
 20
3055.338788415422
 30
0.0
 11
3041.226750726337
 21
3056.91227859928
 31
0.0
  0
LINE
  5
1B28
330
1A93
100
AcDbEntity
  8
0
 62
     0
100
AcDbLine
 10
3034.407006348156
 20
3050.092534221096
 30
0.0
 11
3035.921805284808
 21
3051.607333157751
 31
0.0
  0
LINE
  5
1B29
330
1A93
100
AcDbEntity
  8
0
 62
     0
100
AcDbLine
 10
3039.594331790365
 20
3055.456636358604
 30
0.0
 11
3041.158343290677
 21
3057.020647858917
 31
0.0
  0
LINE
  5
1B2A
330
1A93
100
AcDbEntity
  8
0
 62
     0
100
AcDbLine
 10
3034.396165037883
 20
3050.258469606125
 30
0.0
 11
3035.896619600753
 21
3051.758924168993
 31
0.0
  0
LINE
  5
1B2B
330
1A93
100
AcDbEntity
  8
0
 62
     0
100
AcDbLine
 10
3039.535403038251
 20
3055.574484301788
 30
0.0
 11
3041.089935855023
 21
3057.12901711856
 31
0.0
  0
LINE
  5
1B2C
330
1A93
100
AcDbEntity
  8
0
 62
     0
100
AcDbLine
 10
3034.385323727635
 20
3050.424404991172
 30
0.0
 11
3035.871433916704
 21
3051.91051518025
 31
0.0
  0
LINE
  5
1B2D
330
1A93
100
AcDbEntity
  8
0
 62
     0
100
AcDbLine
 10
3039.476474286144
 20
3055.69233224498
 30
0.0
 11
3041.021528419355
 21
3057.237386378189
 31
0.0
  0
LINE
  5
1B2E
330
1A93
100
AcDbEntity
  8
0
 62
     0
100
AcDbLine
 10
3034.374482417354
 20
3050.59034037619
 30
0.0
 11
3035.846248232665
 21
3052.062106191501
 31
0.0
  0
LINE
  5
1B2F
330
1A93
100
AcDbEntity
  8
0
 62
     0
100
AcDbLine
 10
3039.417545534031
 20
3055.810180188149
 30
0.0
 11
3040.953120983693
 21
3057.34575563782
 31
0.0
  0
LINE
  5
1B30
330
1A93
100
AcDbEntity
  8
0
 62
     0
100
AcDbLine
 10
3034.363641107105
 20
3050.756275761225
 30
0.0
 11
3035.821062548631
 21
3052.213697202751
 31
0.0
  0
LINE
  5
1B31
330
1A93
100
AcDbEntity
  8
0
 62
     0
100
AcDbLine
 10
3039.358616781916
 20
3055.928028131333
 30
0.0
 11
3040.884713548039
 21
3057.454124897464
 31
0.0
  0
LINE
  5
1B32
330
1A93
100
AcDbEntity
  8
0
 62
     0
100
AcDbLine
 10
3034.352799796826
 20
3050.922211146251
 30
0.0
 11
3035.795876864578
 21
3052.365288213994
 31
0.0
  0
LINE
  5
1B33
330
1A93
100
AcDbEntity
  8
0
 62
     0
100
AcDbLine
 10
3039.299688029807
 20
3056.045876074524
 30
0.0
 11
3040.816306112385
 21
3057.5624941571
 31
0.0
  0
LINE
  5
1B34
330
1A93
100
AcDbEntity
  8
0
 62
     0
100
AcDbLine
 10
3034.341958486584
 20
3051.088146531299
 30
0.0
 11
3035.770691180529
 21
3052.516879225251
 31
0.0
  0
LINE
  5
1B35
330
1A93
100
AcDbEntity
  8
0
 62
     0
100
AcDbLine
 10
3039.240759277709
 20
3056.163724017707
 30
0.0
 11
3040.747898676731
 21
3057.670863416737
 31
0.0
  0
LINE
  5
1B36
330
1A93
100
AcDbEntity
  8
0
 62
     0
100
AcDbLine
 10
3034.33111717632
 20
3051.254081916319
 30
0.0
 11
3035.745505496504
 21
3052.668470236502
 31
0.0
  0
LINE
  5
1B37
330
1A93
100
AcDbEntity
  8
0
 62
     0
100
AcDbLine
 10
3039.181830525595
 20
3056.281571960891
 30
0.0
 11
3040.679491241084
 21
3057.779232676381
 31
0.0
  0
LINE
  5
1B38
330
1A93
100
AcDbEntity
  8
0
 62
     0
100
AcDbLine
 10
3034.320275866063
 20
3051.420017301368
 30
0.0
 11
3035.720319812462
 21
3052.820061247759
 31
0.0
  0
LINE
  5
1B39
330
1A93
100
AcDbEntity
  8
0
 62
     0
100
AcDbLine
 10
3039.122901773481
 20
3056.399419904082
 30
0.0
 11
3040.611083805423
 21
3057.887601936025
 31
0.0
  0
LINE
  5
1B3A
330
1A93
100
AcDbEntity
  8
0
 62
     0
100
AcDbLine
 10
3034.309434555791
 20
3051.585952686385
 30
0.0
 11
3035.695134128415
 21
3052.971652259009
 31
0.0
  0
LINE
  5
1B3B
330
1A93
100
AcDbEntity
  8
0
 62
     0
100
AcDbLine
 10
3039.063973021374
 20
3056.517267847266
 30
0.0
 11
3040.54267636976
 21
3057.995971195655
 31
0.0
  0
LINE
  5
1B3C
330
1A93
100
AcDbEntity
  8
0
 62
     0
100
AcDbLine
 10
3034.298593245534
 20
3051.751888071427
 30
0.0
 11
3035.669948444365
 21
3053.12324327026
 31
0.0
  0
LINE
  5
1B3D
330
1A93
100
AcDbEntity
  8
0
 62
     0
100
AcDbLine
 10
3039.005044269259
 20
3056.635115790449
 30
0.0
 11
3040.474268934107
 21
3058.104340455298
 31
0.0
  0
LINE
  5
1B3E
330
1A93
100
AcDbEntity
  8
0
 62
     0
100
AcDbLine
 10
3034.287751935277
 20
3051.917823456468
 30
0.0
 11
3035.644762760326
 21
3053.274834281516
 31
0.0
  0
LINE
  5
1B3F
330
1A93
100
AcDbEntity
  8
0
 62
     0
100
AcDbLine
 10
3038.946115517145
 20
3056.75296373364
 30
0.0
 11
3040.405861498452
 21
3058.212709714942
 31
0.0
  0
LINE
  5
1B40
330
1A93
100
AcDbEntity
  8
0
 62
     0
100
AcDbLine
 10
3034.276910625005
 20
3052.083758841494
 30
0.0
 11
3035.619577076286
 21
3053.426425292775
 31
0.0
  0
LINE
  5
1B41
330
1A93
100
AcDbEntity
  8
0
 62
     0
100
AcDbLine
 10
3038.887186765037
 20
3056.870811676825
 30
0.0
 11
3040.337454062791
 21
3058.321078974579
 31
0.0
  0
LINE
  5
1B42
330
1A93
100
AcDbEntity
  8
0
 62
     0
100
AcDbLine
 10
3034.266069314748
 20
3052.249694226536
 30
0.0
 11
3035.594391392239
 21
3053.578016304026
 31
0.0
  0
LINE
  5
1B43
330
1A93
100
AcDbEntity
  8
0
 62
     0
100
AcDbLine
 10
3038.828258012923
 20
3056.988659620008
 30
0.0
 11
3040.269046627138
 21
3058.429448234223
 31
0.0
  0
LINE
  5
1B44
330
1A93
100
AcDbEntity
  8
0
 62
     0
100
AcDbLine
 10
3034.255228004484
 20
3052.415629611568
 30
0.0
 11
3035.569205708197
 21
3053.72960731529
 31
0.0
  0
LINE
  5
1B45
330
1A93
100
AcDbEntity
  8
0
 62
     0
100
AcDbLine
 10
3038.769329260809
 20
3057.106507563199
 30
0.0
 11
3040.200639191462
 21
3058.537817493852
 31
0.0
  0
LINE
  5
1B46
330
1A93
100
AcDbEntity
  8
0
 62
     0
100
AcDbLine
 10
3034.244386694219
 20
3052.581564996609
 30
0.0
 11
3035.544020024149
 21
3053.88119832654
 31
0.0
  0
LINE
  5
1B47
330
1A93
100
AcDbEntity
  8
0
 62
     0
100
AcDbLine
 10
3038.710400508702
 20
3057.224355506383
 30
0.0
 11
3040.132231755808
 21
3058.646186753497
 31
0.0
  0
LINE
  5
1B48
330
1A93
100
AcDbEntity
  8
0
 62
     0
100
AcDbLine
 10
3034.233545383948
 20
3052.747500381629
 30
0.0
 11
3035.518834340102
 21
3054.032789337783
 31
0.0
  0
LINE
  5
1B49
330
1A93
100
AcDbEntity
  8
0
 62
     0
100
AcDbLine
 10
3038.651471756589
 20
3057.342203449568
 30
0.0
 11
3040.063824320153
 21
3058.754556013133
 31
0.0
  0
LINE
  5
1B4A
330
1A93
100
AcDbEntity
  8
0
 62
     0
100
AcDbLine
 10
3034.222704073698
 20
3052.913435766678
 30
0.0
 11
3035.493648656061
 21
3054.184380349048
 31
0.0
  0
LINE
  5
1B4B
330
1A93
100
AcDbEntity
  8
0
 62
     0
100
AcDbLine
 10
3038.592543004473
 20
3057.460051392758
 30
0.0
 11
3039.995416884484
 21
3058.862925272769
 31
0.0
  0
LINE
  5
1B4C
330
1A93
100
AcDbEntity
  8
0
 62
     0
100
AcDbLine
 10
3034.211862763426
 20
3053.079371151703
 30
0.0
 11
3035.468462972028
 21
3054.335971360305
 31
0.0
  0
LINE
  5
1B4D
330
1A93
100
AcDbEntity
  8
0
 62
     0
100
AcDbLine
 10
3038.533614252358
 20
3057.577899335933
 30
0.0
 11
3039.927009448838
 21
3058.971294532414
 31
0.0
  0
LINE
  5
1B4E
330
1A93
100
AcDbEntity
  8
0
 62
     0
100
AcDbLine
 10
3034.201021453168
 20
3053.245306536743
 30
0.0
 11
3035.443277287973
 21
3054.487562371555
 31
0.0
  0
LINE
  5
1B4F
330
1A93
100
AcDbEntity
  8
0
 62
     0
100
AcDbLine
 10
3038.474685500252
 20
3057.695747279125
 30
0.0
 11
3039.858602013177
 21
3059.079663792057
 31
0.0
  0
LINE
  5
1B50
330
1A93
100
AcDbEntity
  8
0
 62
     0
100
AcDbLine
 10
3034.190180142897
 20
3053.411241921772
 30
0.0
 11
3035.418091603926
 21
3054.6391533828
 31
0.0
  0
LINE
  5
1B51
330
1A93
100
AcDbEntity
  8
0
 62
     0
100
AcDbLine
 10
3038.415756748138
 20
3057.813595222309
 30
0.0
 11
3039.790194577515
 21
3059.188033051686
 31
0.0
  0
LINE
  5
1B52
330
1A93
100
AcDbEntity
  8
0
 62
     0
100
AcDbLine
 10
3034.179338832648
 20
3053.577177306819
 30
0.0
 11
3035.392905919891
 21
3054.790744394063
 31
0.0
  0
LINE
  5
1B53
330
1A93
100
AcDbEntity
  8
0
 62
     0
100
AcDbLine
 10
3038.356827996031
 20
3057.9314431655
 30
0.0
 11
3039.721787141861
 21
3059.296402311332
 31
0.0
  0
LINE
  5
1B54
330
1A93
100
AcDbEntity
  8
0
 62
     0
100
AcDbLine
 10
3034.168497522369
 20
3053.743112691837
 30
0.0
 11
3035.367720235838
 21
3054.942335405307
 31
0.0
  0
LINE
  5
1B55
330
1A93
100
AcDbEntity
  8
0
 62
     0
100
AcDbLine
 10
3038.297899243917
 20
3058.049291108684
 30
0.0
 11
3039.653379706208
 21
3059.404771570974
 31
0.0
  0
LINE
  5
1B56
330
1A93
100
AcDbEntity
  8
0
 62
     0
100
AcDbLine
 10
3034.157656212104
 20
3053.909048076879
 30
0.0
 11
3035.342534551805
 21
3055.093926416573
 31
0.0
  0
LINE
  5
1B57
330
1A93
100
AcDbEntity
  8
0
 62
     0
100
AcDbLine
 10
3038.238970491795
 20
3058.167139051867
 30
0.0
 11
3039.584972270546
 21
3059.513140830611
 31
0.0
  0
LINE
  5
1B58
330
1A93
100
AcDbEntity
  8
0
 62
     0
100
AcDbLine
 10
3034.146814901847
 20
3054.074983461913
 30
0.0
 11
3035.317348867749
 21
3055.245517427815
 31
0.0
  0
LINE
  5
1B59
330
1A93
100
AcDbEntity
  8
0
 62
     0
100
AcDbLine
 10
3038.180041739695
 20
3058.284986995044
 30
0.0
 11
3039.516564834892
 21
3059.621510090241
 31
0.0
  0
LINE
  5
1B5A
330
1A93
100
AcDbEntity
  8
0
 62
     0
100
AcDbLine
 10
3034.135973591583
 20
3054.240918846939
 30
0.0
 11
3035.292163183715
 21
3055.397108439064
 31
0.0
  0
LINE
  5
1B5B
330
1A93
100
AcDbEntity
  8
0
 62
     0
100
AcDbLine
 10
3038.121112987581
 20
3058.402834938227
 30
0.0
 11
3039.448157399216
 21
3059.72987934987
 31
0.0
  0
LINE
  5
1B5C
330
1A93
100
AcDbEntity
  8
0
 62
     0
100
AcDbLine
 10
3034.125132281327
 20
3054.406854231972
 30
0.0
 11
3035.266977499668
 21
3055.548699450314
 31
0.0
  0
LINE
  5
1B5D
330
1A93
100
AcDbEntity
  8
0
 62
     0
100
AcDbLine
 10
3038.062184235466
 20
3058.520682881411
 30
0.0
 11
3039.379749963568
 21
3059.838248609514
 31
0.0
  0
LINE
  5
1B5E
330
1A93
100
AcDbEntity
  8
0
 62
     0
100
AcDbLine
 10
3034.114290971055
 20
3054.572789616999
 30
0.0
 11
3035.241791815613
 21
3055.700290461565
 31
0.0
  0
LINE
  5
1B5F
330
1A93
100
AcDbEntity
  8
0
 62
     0
100
AcDbLine
 10
3038.003255483366
 20
3058.638530824602
 30
0.0
 11
3039.311342527931
 21
3059.946617869158
 31
0.0
  0
LINE
  5
1B60
330
1A93
100
AcDbEntity
  8
0
 62
     0
100
AcDbLine
 10
3034.103449660819
 20
3054.738725002047
 30
0.0
 11
3035.216606131587
 21
3055.851881472817
 31
0.0
  0
LINE
  5
1B61
330
1A93
100
AcDbEntity
  8
0
 62
     0
100
AcDbLine
 10
3037.944326731245
 20
3058.756378767772
 30
0.0
 11
3039.242935092261
 21
3060.054987128788
 31
0.0
  0
LINE
  5
1B62
330
1A93
100
AcDbEntity
  8
0
 62
     0
100
AcDbLine
 10
3034.092608350547
 20
3054.904660387073
 30
0.0
 11
3035.191420447547
 21
3056.003472484073
 31
0.0
  0
LINE
  5
1B63
330
1A93
100
AcDbEntity
  8
0
 62
     0
100
AcDbLine
 10
3037.885397979144
 20
3058.874226710969
 30
0.0
 11
3039.174527656607
 21
3060.16335638843
 31
0.0
  0
LINE
  5
1B64
330
1A93
100
AcDbEntity
  8
0
 62
     0
100
AcDbLine
 10
3034.081767040289
 20
3055.070595772114
 30
0.0
 11
3035.1662347635
 21
3056.155063495324
 31
0.0
  0
LINE
  5
1B65
330
1A93
100
AcDbEntity
  8
0
 62
     0
100
AcDbLine
 10
3037.826469227031
 20
3058.992074654161
 30
0.0
 11
3039.106120220945
 21
3060.271725648075
 31
0.0
  0
LINE
  5
1B66
330
1A93
100
AcDbEntity
  8
0
 62
     0
100
AcDbLine
 10
3034.070925730017
 20
3055.236531157141
 30
0.0
 11
3035.141049079459
 21
3056.306654506581
 31
0.0
  0
LINE
  5
1B67
330
1A93
100
AcDbEntity
  8
0
 62
     0
100
AcDbLine
 10
3037.767540474924
 20
3059.109922597345
 30
0.0
 11
3039.037712785284
 21
3060.380094907705
 31
0.0
  0
LINE
  5
1B68
330
1A93
100
AcDbEntity
  8
0
 62
     0
100
AcDbLine
 10
3034.060084419762
 20
3055.402466542182
 30
0.0
 11
3035.11586339541
 21
3056.458245517831
 31
0.0
  0
LINE
  5
1B69
330
1A93
100
AcDbEntity
  8
0
 62
     0
100
AcDbLine
 10
3037.70861172281
 20
3059.227770540529
 30
0.0
 11
3038.969305349636
 21
3060.488464167356
 31
0.0
  0
LINE
  5
1B6A
330
1A93
100
AcDbEntity
  8
0
 62
     0
100
AcDbLine
 10
3034.049243109497
 20
3055.568401927216
 30
0.0
 11
3035.090677711369
 21
3056.609836529089
 31
0.0
  0
LINE
  5
1B6B
330
1A93
100
AcDbEntity
  8
0
 62
     0
100
AcDbLine
 10
3037.649682970696
 20
3059.345618483713
 30
0.0
 11
3038.900897913975
 21
3060.596833426993
 31
0.0
  0
LINE
  5
1B6C
330
1A93
100
AcDbEntity
  8
0
 62
     0
100
AcDbLine
 10
3034.03840179924
 20
3055.734337312256
 30
0.0
 11
3035.065492027323
 21
3056.761427540338
 31
0.0
  0
LINE
  5
1B6D
330
1A93
100
AcDbEntity
  8
0
 62
     0
100
AcDbLine
 10
3037.590754218589
 20
3059.463466426903
 30
0.0
 11
3038.832490478315
 21
3060.705202686629
 31
0.0
  0
LINE
  5
1B6E
330
1A93
100
AcDbEntity
  8
0
 62
     0
100
AcDbLine
 10
3034.027560488961
 20
3055.900272697282
 30
0.0
 11
3035.040306343289
 21
3056.913018551604
 31
0.0
  0
LINE
  5
1B6F
330
1A93
100
AcDbEntity
  8
0
 62
     0
100
AcDbLine
 10
3037.531825466474
 20
3059.581314370086
 30
0.0
 11
3038.764083042661
 21
3060.813571946273
 31
0.0
  0
LINE
  5
1B70
330
1A93
100
AcDbEntity
  8
0
 62
     0
100
AcDbLine
 10
3034.016719178711
 20
3056.066208082324
 30
0.0
 11
3035.015120659235
 21
3057.064609562847
 31
0.0
  0
LINE
  5
1B71
330
1A93
100
AcDbEntity
  8
0
 62
     0
100
AcDbLine
 10
3037.472896714361
 20
3059.699162313278
 30
0.0
 11
3038.695675606992
 21
3060.921941205902
 31
0.0
  0
LINE
  5
1B72
330
1A93
100
AcDbEntity
  8
0
 62
     0
100
AcDbLine
 10
3034.005877868438
 20
3056.232143467358
 30
0.0
 11
3034.989934975186
 21
3057.216200574098
 31
0.0
  0
LINE
  5
1B73
330
1A93
100
AcDbEntity
  8
0
 62
     0
100
AcDbLine
 10
3037.413967962238
 20
3059.817010256447
 30
0.0
 11
3038.627268171338
 21
3061.030310465547
 31
0.0
  0
LINE
  5
1B74
330
1A93
100
AcDbEntity
  8
0
 62
     0
100
AcDbLine
 10
3033.995036558175
 20
3056.398078852384
 30
0.0
 11
3034.964749291146
 21
3057.367791585355
 31
0.0
  0
LINE
  5
1B75
330
1A93
100
AcDbEntity
  8
0
 62
     0
100
AcDbLine
 10
3037.355039210131
 20
3059.934858199639
 30
0.0
 11
3038.558860735684
 21
3061.13867972519
 31
0.0
  0
LINE
  5
1B76
330
1A93
100
AcDbEntity
  8
0
 62
     0
100
AcDbLine
 10
3033.98419524791
 20
3056.564014237418
 30
0.0
 11
3034.939563607113
 21
3057.51938259662
 31
0.0
  0
LINE
  5
1B77
330
1A93
100
AcDbEntity
  8
0
 62
     0
100
AcDbLine
 10
3037.296110458024
 20
3060.052706142828
 30
0.0
 11
3038.490453300016
 21
3061.24704898482
 31
0.0
  0
LINE
  5
1B78
330
1A93
100
AcDbEntity
  8
0
 62
     0
100
AcDbLine
 10
3033.973353937653
 20
3056.72994962246
 30
0.0
 11
3034.914377923058
 21
3057.67097360787
 31
0.0
  0
LINE
  5
1B79
330
1A93
100
AcDbEntity
  8
0
 62
     0
100
AcDbLine
 10
3037.23718170591
 20
3060.170554086013
 30
0.0
 11
3038.42204586436
 21
3061.355418244464
 31
0.0
  0
LINE
  5
1B7A
330
1A93
100
AcDbEntity
  8
0
 62
     0
100
AcDbLine
 10
3033.962512627397
 20
3056.895885007507
 30
0.0
 11
3034.889192239003
 21
3057.822564619113
 31
0.0
  0
LINE
  5
1B7B
330
1A93
100
AcDbEntity
  8
0
 62
     0
100
AcDbLine
 10
3037.178252953803
 20
3060.288402029204
 30
0.0
 11
3038.353638428699
 21
3061.463787504107
 31
0.0
  0
LINE
  5
1B7C
330
1A93
100
AcDbEntity
  8
0
 62
     0
100
AcDbLine
 10
3033.951671317125
 20
3057.061820392526
 30
0.0
 11
3034.864006554971
 21
3057.974155630378
 31
0.0
  0
LINE
  5
1B7D
330
1A93
100
AcDbEntity
  8
0
 62
     0
100
AcDbLine
 10
3037.119324201689
 20
3060.406249972388
 30
0.0
 11
3038.285230993038
 21
3061.572156763737
 31
0.0
  0
LINE
  5
1B7E
330
1A93
100
AcDbEntity
  8
0
 62
     0
100
AcDbLine
 10
3033.940830006867
 20
3057.227755777567
 30
0.0
 11
3034.838820870922
 21
3058.125746641621
 31
0.0
  0
LINE
  5
1B7F
330
1A93
100
AcDbEntity
  8
0
 62
     0
100
AcDbLine
 10
3037.060395449574
 20
3060.524097915572
 30
0.0
 11
3038.216823557391
 21
3061.680526023389
 31
0.0
  0
LINE
  5
1B80
330
1A93
100
AcDbEntity
  8
0
 62
     0
100
AcDbLine
 10
3033.929988696604
 20
3057.3936911626
 30
0.0
 11
3034.813635186881
 21
3058.277337652886
 31
0.0
  0
LINE
  5
1B81
330
1A93
100
AcDbEntity
  8
0
 62
     0
100
AcDbLine
 10
3037.001466697467
 20
3060.641945858749
 30
0.0
 11
3038.14841612173
 21
3061.78889528301
 31
0.0
  0
LINE
  5
1B82
330
1A93
100
AcDbEntity
  8
0
 62
     0
100
AcDbLine
 10
3033.91914738634
 20
3057.559626547627
 30
0.0
 11
3034.788449502834
 21
3058.428928664121
 31
0.0
  0
LINE
  5
1B83
330
1A93
100
AcDbEntity
  8
0
 62
     0
100
AcDbLine
 10
3036.942537945346
 20
3060.759793801932
 30
0.0
 11
3038.080008686069
 21
3061.897264542647
 31
0.0
  0
LINE
  5
1B84
330
1A93
100
AcDbEntity
  8
0
 62
     0
100
AcDbLine
 10
3033.908306076066
 20
3057.725561932646
 30
0.0
 11
3034.7632638188
 21
3058.580519675379
 31
0.0
  0
LINE
  5
1B85
330
1A93
100
AcDbEntity
  8
0
 62
     0
100
AcDbLine
 10
3036.883609193239
 20
3060.877641745122
 30
0.0
 11
3038.011601250415
 21
3062.005633802292
 31
0.0
  0
LINE
  5
1B86
330
1A93
100
AcDbEntity
  8
0
 62
     0
100
AcDbLine
 10
3033.897464765818
 20
3057.891497317694
 30
0.0
 11
3034.738078134744
 21
3058.732110686628
 31
0.0
  0
LINE
  5
1B87
330
1A93
100
AcDbEntity
  8
0
 62
     0
100
AcDbLine
 10
3036.824680441117
 20
3060.995489688299
 30
0.0
 11
3037.94319381476
 21
3062.114003061935
 31
0.0
  0
LINE
  5
1B88
330
1A93
100
AcDbEntity
  8
0
 62
     0
100
AcDbLine
 10
3033.886623455547
 20
3058.057432702721
 30
0.0
 11
3034.712892450698
 21
3058.883701697872
 31
0.0
  0
LINE
  5
1B89
330
1A93
100
AcDbEntity
  8
0
 62
     0
100
AcDbLine
 10
3036.765751689026
 20
3061.11333763149
 30
0.0
 11
3037.874786379108
 21
3062.222372321564
 31
0.0
  0
LINE
  5
1B8A
330
1A93
100
AcDbEntity
  8
0
 62
     0
100
AcDbLine
 10
3033.875782145303
 20
3058.223368087761
 30
0.0
 11
3034.687706766679
 21
3059.035292709137
 31
0.0
  0
LINE
  5
1B8B
330
1A93
100
AcDbEntity
  8
0
 62
     0
100
AcDbLine
 10
3036.706822936918
 20
3061.23118557468
 30
0.0
 11
3037.806378943452
 21
3062.330741581209
 31
0.0
  0
LINE
  5
1B8C
330
1A93
100
AcDbEntity
  8
0
 62
     0
100
AcDbLine
 10
3033.864940835031
 20
3058.389303472788
 30
0.0
 11
3034.662521082632
 21
3059.186883720387
 31
0.0
  0
LINE
  5
1B8D
330
1A93
100
AcDbEntity
  8
0
 62
     0
100
AcDbLine
 10
3036.647894184802
 20
3061.349033517857
 30
0.0
 11
3037.737971507798
 21
3062.439110840852
 31
0.0
  0
LINE
  5
1B8E
330
1A93
100
AcDbEntity
  8
0
 62
     0
100
AcDbLine
 10
3033.854099524775
 20
3058.555238857837
 30
0.0
 11
3034.637335398583
 21
3059.338474731637
 31
0.0
  0
LINE
  5
1B8F
330
1A93
100
AcDbEntity
  8
0
 62
     0
100
AcDbLine
 10
3036.588965432696
 20
3061.466881461048
 30
0.0
 11
3037.669564072137
 21
3062.547480100489
 31
0.0
  0
LINE
  5
1B90
330
1A93
100
AcDbEntity
  8
0
 62
     0
100
AcDbLine
 10
3033.84325821451
 20
3058.721174242862
 30
0.0
 11
3034.61214971455
 21
3059.490065742902
 31
0.0
  0
LINE
  5
1B91
330
1A93
100
AcDbEntity
  8
0
 62
     0
100
AcDbLine
 10
3036.530036680582
 20
3061.584729404239
 30
0.0
 11
3037.60115663647
 21
3062.655849360125
 31
0.0
  0
LINE
  5
1B92
330
1A93
100
AcDbEntity
  8
0
 62
     0
100
AcDbLine
 10
3033.832416904239
 20
3058.887109627896
 30
0.0
 11
3034.586964030495
 21
3059.641656754145
 31
0.0
  0
LINE
  5
1B93
330
1A93
100
AcDbEntity
  8
0
 62
     0
100
AcDbLine
 10
3036.471107928468
 20
3061.702577347416
 30
0.0
 11
3037.532749200814
 21
3062.764218619761
 31
0.0
  0
LINE
  5
1B94
330
1A93
100
AcDbEntity
  8
0
 62
     0
100
AcDbLine
 10
3033.821575593981
 20
3059.053045012931
 30
0.0
 11
3034.561778346462
 21
3059.793247765411
 31
0.0
  0
LINE
  5
1B95
330
1A93
100
AcDbEntity
  8
0
 62
     0
100
AcDbLine
 10
3036.412179176361
 20
3061.820425290607
 30
0.0
 11
3037.46434176516
 21
3062.872587879406
 31
0.0
  0
LINE
  5
1B96
330
1A93
100
AcDbEntity
  8
0
 62
     0
100
AcDbLine
 10
3033.810734283717
 20
3059.218980397963
 30
0.0
 11
3034.536592662407
 21
3059.944838776653
 31
0.0
  0
LINE
  5
1B97
330
1A93
100
AcDbEntity
  8
0
 62
     0
100
AcDbLine
 10
3036.353250424247
 20
3061.938273233789
 30
0.0
 11
3037.395934329499
 21
3062.980957139043
 31
0.0
  0
LINE
  5
1B98
330
1A93
100
AcDbEntity
  8
0
 62
     0
100
AcDbLine
 10
3033.799892973466
 20
3059.384915783011
 30
0.0
 11
3034.511406978374
 21
3060.096429787919
 31
0.0
  0
LINE
  5
1B99
330
1A93
100
AcDbEntity
  8
0
 62
     0
100
AcDbLine
 10
3036.294321672125
 20
3062.056121176967
 30
0.0
 11
3037.327526893838
 21
3063.08932639868
 31
0.0
  0
LINE
  5
1B9A
330
1A93
100
AcDbEntity
  8
0
 62
     0
100
AcDbLine
 10
3033.789051663188
 20
3059.550851168031
 30
0.0
 11
3034.486221294319
 21
3060.248020799161
 31
0.0
  0
LINE
  5
1B9B
330
1A93
100
AcDbEntity
  8
0
 62
     0
100
AcDbLine
 10
3036.235392920017
 20
3062.173969120158
 30
0.0
 11
3037.259119458183
 21
3063.197695658324
 31
0.0
  0
LINE
  5
1B9C
330
1A93
100
AcDbEntity
  8
0
 62
     0
100
AcDbLine
 10
3033.778210352938
 20
3059.716786553079
 30
0.0
 11
3034.461035610271
 21
3060.399611810411
 31
0.0
  0
LINE
  5
1B9D
330
1A93
100
AcDbEntity
  8
0
 62
     0
100
AcDbLine
 10
3036.17646416791
 20
3062.291817063349
 30
0.0
 11
3037.19071202253
 21
3063.306064917969
 31
0.0
  0
LINE
  5
1B9E
330
1A93
100
AcDbEntity
  8
0
 62
     0
100
AcDbLine
 10
3033.767369042668
 20
3059.882721938105
 30
0.0
 11
3034.43584992623
 21
3060.551202821669
 31
0.0
  0
LINE
  5
1B9F
330
1A93
100
AcDbEntity
  8
0
 62
     0
100
AcDbLine
 10
3033.756527732417
 20
3060.048657323154
 30
0.0
 11
3034.410664242189
 21
3060.702793832934
 31
0.0
  0
LINE
  5
1BA0
330
1A93
100
AcDbEntity
  8
0
 62
     0
100
AcDbLine
 10
3036.117535415804
 20
3062.40966500654
 30
0.0
 11
3037.122304586861
 21
3063.414434177596
 31
0.0
  0
LINE
  5
1BA1
330
1A93
100
AcDbEntity
  8
0
 62
     0
100
AcDbLine
 10
3023.604100732169
 20
3049.896230322906
 30
0.0
 11
3024.805007319279
 21
3051.097136910016
 31
0.0
  0
LINE
  5
1BA2
330
1A93
100
AcDbEntity
  8
0
 62
     0
100
AcDbLine
 10
3033.745686422138
 20
3060.214592708172
 30
0.0
 11
3034.385478558142
 21
3060.854384844176
 31
0.0
  0
LINE
  5
1BA3
330
1A93
100
AcDbEntity
  8
0
 62
     0
100
AcDbLine
 10
3036.058606663682
 20
3062.527512949717
 30
0.0
 11
3037.053897151206
 21
3063.522803437241
 31
0.0
  0
LINE
  5
1BA4
330
1A93
100
AcDbEntity
  8
0
 62
     0
100
AcDbLine
 10
3023.274458750224
 20
3049.743365036257
 30
0.0
 11
3024.957872605926
 21
3051.426778891961
 31
0.0
  0
LINE
  5
1BA5
330
1A93
100
AcDbEntity
  8
0
 62
     0
100
AcDbLine
 10
3033.734845111881
 20
3060.380528093213
 30
0.0
 11
3034.360292874087
 21
3061.005975855427
 31
0.0
  0
LINE
  5
1BA6
330
1A93
100
AcDbEntity
  8
0
 62
     0
100
AcDbLine
 10
3035.999677911574
 20
3062.645360892908
 30
0.0
 11
3036.985489715545
 21
3063.631172696878
 31
0.0
  0
LINE
  5
1BA7
330
1A93
100
AcDbEntity
  8
0
 62
     0
100
AcDbLine
 10
3023.007595019735
 20
3049.653278001067
 30
0.0
 11
3025.048633731385
 21
3051.694316712718
 31
0.0
  0
LINE
  5
1BA8
330
1A93
100
AcDbEntity
  8
0
 62
     0
100
AcDbLine
 10
3033.724003801616
 20
3060.546463478247
 30
0.0
 11
3034.335107190054
 21
3061.157566866692
 31
0.0
  0
LINE
  5
1BA9
330
1A93
100
AcDbEntity
  8
0
 62
     0
100
AcDbLine
 10
3035.940749159462
 20
3062.76320883609
 30
0.0
 11
3036.91708227989
 21
3063.739541956522
 31
0.0
  0
LINE
  5
1BAA
330
1A93
100
AcDbEntity
  8
0
 62
     0
100
AcDbLine
 10
3022.774293131908
 20
3049.596752808545
 30
0.0
 11
3025.225439112895
 21
3052.047898789526
 31
0.0
  0
LINE
  5
1BAB
330
1A93
100
AcDbEntity
  8
0
 62
     0
100
AcDbLine
 10
3033.71316249136
 20
3060.712398863295
 30
0.0
 11
3034.309921506014
 21
3061.309157877941
 31
0.0
  0
LINE
  5
1BAC
330
1A93
100
AcDbEntity
  8
0
 62
     0
100
AcDbLine
 10
3035.881820407347
 20
3062.881056779275
 30
0.0
 11
3036.848674844223
 21
3063.847911216158
 31
0.0
  0
LINE
  5
1BAD
330
1A93
100
AcDbEntity
  8
0
 62
     0
100
AcDbLine
 10
3022.563173109272
 20
3049.562409481201
 30
0.0
 11
3025.402244494413
 21
3052.401480866341
 31
0.0
  0
LINE
  5
1BAE
330
1A93
100
AcDbEntity
  8
0
 62
     0
100
AcDbLine
 10
3033.702321181082
 20
3060.878334248315
 30
0.0
 11
3034.284735821966
 21
3061.4607488892
 31
0.0
  0
LINE
  5
1BAF
330
1A93
100
AcDbEntity
  8
0
 62
     0
100
AcDbLine
 10
3035.82289165524
 20
3062.998904722466
 30
0.0
 11
3036.780267408576
 21
3063.956280475802
 31
0.0
  0
LINE
  5
1BB0
330
1A93
100
AcDbEntity
  8
0
 62
     0
100
AcDbLine
 10
3022.368364773225
 20
3049.544377840451
 30
0.0
 11
3025.579049875909
 21
3052.755062943143
 31
0.0
  0
LINE
  5
1BB1
330
1A93
100
AcDbEntity
  8
0
 62
     0
100
AcDbLine
 10
3033.691479870816
 20
3061.044269633334
 30
0.0
 11
3034.259550137918
 21
3061.612339900428
 31
0.0
  0
LINE
  5
1BB2
330
1A93
100
AcDbEntity
  8
0
 62
     0
100
AcDbLine
 10
3035.763962903111
 20
3063.116752665628
 30
0.0
 11
3036.711859972914
 21
3064.064649735425
 31
0.0
  0
LINE
  5
1BB3
330
1A93
100
AcDbEntity
  8
0
 62
     0
100
AcDbLine
 10
3022.186363890746
 20
3049.539153653255
 30
0.0
 11
3025.755855257425
 21
3053.108645019936
 31
0.0
  0
LINE
  5
1BB4
330
1A93
100
AcDbEntity
  8
0
 62
     0
100
AcDbLine
 10
3033.680638560559
 20
3061.210205018376
 30
0.0
 11
3034.234364453878
 21
3061.763930911693
 31
0.0
  0
LINE
  5
1BB5
330
1A93
100
AcDbEntity
  8
0
 62
     0
100
AcDbLine
 10
3035.705034151003
 20
3063.234600608819
 30
0.0
 11
3036.643452537253
 21
3064.17301899506
 31
0.0
  0
LINE
  5
1BB6
330
1A93
100
AcDbEntity
  8
0
 62
     0
100
AcDbLine
 10
3022.014879220944
 20
3049.544445678752
 30
0.0
 11
3025.932660638944
 21
3053.462227096751
 31
0.0
  0
LINE
  5
1BB7
330
1A93
100
AcDbEntity
  8
0
 62
     0
100
AcDbLine
 10
3033.669797250294
 20
3061.376140403401
 30
0.0
 11
3034.209178769831
 21
3061.915521922943
 31
0.0
  0
LINE
  5
1BB8
330
1A93
100
AcDbEntity
  8
0
 62
     0
100
AcDbLine
 10
3035.646105398897
 20
3063.35244855201
 30
0.0
 11
3036.5750451016
 21
3064.281388254705
 31
0.0
  0
LINE
  5
1BB9
330
1A93
100
AcDbEntity
  8
0
 62
     0
100
AcDbLine
 10
3021.852316454904
 20
3049.558659608017
 30
0.0
 11
3026.109466020454
 21
3053.815809173566
 31
0.0
  0
LINE
  5
1BBA
330
1A93
100
AcDbEntity
  8
0
 62
     0
100
AcDbLine
 10
3033.658955940037
 20
3061.542075788449
 30
0.0
 11
3034.183993085797
 21
3062.067112934201
 31
0.0
  0
LINE
  5
1BBB
330
1A93
100
AcDbEntity
  8
0
 62
     0
100
AcDbLine
 10
3035.587176646789
 20
3063.470296495194
 30
0.0
 11
3036.506637665937
 21
3064.389757514348
 31
0.0
  0
LINE
  5
1BBC
330
1A93
100
AcDbEntity
  8
0
 62
     0
100
AcDbLine
 10
3021.697515234096
 20
3049.5806350825
 30
0.0
 11
3026.286271401965
 21
3054.169391250376
 31
0.0
  0
LINE
  5
1BBD
330
1A93
100
AcDbEntity
  8
0
 62
     0
100
AcDbLine
 10
3033.648114629781
 20
3061.708011173468
 30
0.0
 11
3034.158807401762
 21
3062.218703945451
 31
0.0
  0
LINE
  5
1BBE
330
1A93
100
AcDbEntity
  8
0
 62
     0
100
AcDbLine
 10
3035.528247894698
 20
3063.588144438385
 30
0.0
 11
3036.438230230297
 21
3064.498126773985
 31
0.0
  0
LINE
  5
1BBF
330
1A93
100
AcDbEntity
  8
0
 62
     0
100
AcDbLine
 10
3021.549602198146
 20
3049.609498741832
 30
0.0
 11
3026.463076783489
 21
3054.522973327177
 31
0.0
  0
LINE
  5
1BC0
330
1A93
100
AcDbEntity
  8
0
 62
     0
100
AcDbLine
 10
3033.637273319531
 20
3061.873946558524
 30
0.0
 11
3034.133621717723
 21
3062.370294956707
 31
0.0
  0
LINE
  5
1BC1
330
1A93
100
AcDbEntity
  8
0
 62
     0
100
AcDbLine
 10
3035.469319142576
 20
3063.705992381569
 30
0.0
 11
3036.369822794644
 21
3064.606496033631
 31
0.0
  0
LINE
  5
1BC2
330
1A93
100
AcDbEntity
  8
0
 62
     0
100
AcDbLine
 10
3021.407902992411
 20
3049.644576231396
 30
0.0
 11
3026.639882165007
 21
3054.876555403993
 31
0.0
  0
LINE
  5
1BC3
330
1A93
100
AcDbEntity
  8
0
 62
     0
100
AcDbLine
 10
3033.626432009251
 20
3062.039881943543
 30
0.0
 11
3034.108436033668
 21
3062.521885967952
 31
0.0
  0
LINE
  5
1BC4
330
1A93
100
AcDbEntity
  8
0
 62
     0
100
AcDbLine
 10
3035.410390390469
 20
3063.82384032476
 30
0.0
 11
3036.301415358976
 21
3064.71486529326
 31
0.0
  0
LINE
  5
1BC5
330
1A93
100
AcDbEntity
  8
0
 62
     0
100
AcDbLine
 10
3021.271886670844
 20
3049.685336605136
 30
0.0
 11
3026.81668754651
 21
3055.230137480794
 31
0.0
  0
LINE
  5
1BC6
330
1A93
100
AcDbEntity
  8
0
 62
     0
100
AcDbLine
 10
3033.615590699002
 20
3062.205817328583
 30
0.0
 11
3034.083250349635
 21
3062.673476979215
 31
0.0
  0
LINE
  5
1BC7
330
1A93
100
AcDbEntity
  8
0
 62
     0
100
AcDbLine
 10
3035.351461638355
 20
3063.941688267935
 30
0.0
 11
3036.233007923321
 21
3064.823234552902
 31
0.0
  0
LINE
  5
1BC8
330
1A93
100
AcDbEntity
  8
0
 62
     0
100
AcDbLine
 10
3021.141129031246
 20
3049.731355660828
 30
0.0
 11
3026.993492928028
 21
3055.583719557609
 31
0.0
  0
LINE
  5
1BC9
330
1A93
100
AcDbEntity
  8
0
 62
     0
100
AcDbLine
 10
3033.604749388731
 20
3062.37175271361
 30
0.0
 11
3034.058064665579
 21
3062.82506799046
 31
0.0
  0
LINE
  5
1BCA
330
1A93
100
AcDbEntity
  8
0
 62
     0
100
AcDbLine
 10
3035.29253288624
 20
3064.05953621112
 30
0.0
 11
3036.164600487659
 21
3064.93160381254
 31
0.0
  0
LINE
  5
1BCB
330
1A93
100
AcDbEntity
  8
0
 62
     0
100
AcDbLine
 10
3021.015287585433
 20
3049.782290910312
 30
0.0
 11
3027.170298309545
 21
3055.937301634426
 31
0.0
  0
LINE
  5
1BCC
330
1A93
100
AcDbEntity
  8
0
 62
     0
100
AcDbLine
 10
3033.593908078481
 20
3062.537688098658
 30
0.0
 11
3034.032878981546
 21
3062.976659001725
 31
0.0
  0
LINE
  5
1BCD
330
1A93
100
AcDbEntity
  8
0
 62
     0
100
AcDbLine
 10
3035.233604134119
 20
3064.177384154297
 30
0.0
 11
3036.096193051991
 21
3065.039973072176
 31
0.0
  0
LINE
  5
1BCE
330
1A93
100
AcDbEntity
  8
0
 62
     0
100
AcDbLine
 10
3020.894083986975
 20
3049.837864007153
 30
0.0
 11
3027.347103691056
 21
3056.290883711233
 31
0.0
  0
LINE
  5
1BCF
330
1A93
100
AcDbEntity
  8
0
 62
     0
100
AcDbLine
 10
3033.583066768202
 20
3062.703623483677
 30
0.0
 11
3034.007693297491
 21
3063.128250012967
 31
0.0
  0
LINE
  5
1BD0
330
1A93
100
AcDbEntity
  8
0
 62
     0
100
AcDbLine
 10
3035.174675382004
 20
3064.295232097487
 30
0.0
 11
3036.027785616346
 21
3065.14834233182
 31
0.0
  0
LINE
  5
1BD1
330
1A93
100
AcDbEntity
  8
0
 62
     0
100
AcDbLine
 10
3020.777291414721
 20
3049.897848130196
 30
0.0
 11
3027.523909072574
 21
3056.644465788048
 31
0.0
  0
LINE
  5
1BD2
330
1A93
100
AcDbEntity
  8
0
 62
     0
100
AcDbLine
 10
3033.572225457952
 20
3062.869558868726
 30
0.0
 11
3033.982507613459
 21
3063.279841024233
 31
0.0
  0
LINE
  5
1BD3
330
1A93
100
AcDbEntity
  8
0
 62
     0
100
AcDbLine
 10
3035.115746629897
 20
3064.413080040679
 30
0.0
 11
3035.959378180683
 21
3065.256711591457
 31
0.0
  0
LINE
  5
1BD4
330
1A93
100
AcDbEntity
  8
0
 62
     0
100
AcDbLine
 10
3020.664725356887
 20
3049.962058767662
 30
0.0
 11
3027.700714454069
 21
3056.99804786485
 31
0.0
  0
LINE
  5
1BD5
330
1A93
100
AcDbEntity
  8
0
 62
     0
100
AcDbLine
 10
3033.56138414768
 20
3063.035494253751
 30
0.0
 11
3033.957321929403
 21
3063.431432035474
 31
0.0
  0
LINE
  5
1BD6
330
1A93
100
AcDbEntity
  8
0
 62
     0
100
AcDbLine
 10
3035.056817877797
 20
3064.530927983868
 30
0.0
 11
3035.890970745022
 21
3065.365080851094
 31
0.0
  0
LINE
  5
1BD7
330
1A93
100
AcDbEntity
  8
0
 62
     0
100
AcDbLine
 10
3020.556236798053
 20
3050.030346904125
 30
0.0
 11
3027.877519835593
 21
3057.351629941666
 31
0.0
  0
LINE
  5
1BD8
330
1A93
100
AcDbEntity
  8
0
 62
     0
100
AcDbLine
 10
3033.55054283743
 20
3063.2014296388
 30
0.0
 11
3033.932136245355
 21
3063.583023046724
 31
0.0
  0
LINE
  5
1BD9
330
1A93
100
AcDbEntity
  8
0
 62
     0
100
AcDbLine
 10
3021.935745286981
 20
3051.58663208835
 30
0.0
 11
3028.054325217098
 21
3057.705212018467
 31
0.0
  0
LINE
  5
1BDA
330
1A93
100
AcDbEntity
  8
0
 62
     0
100
AcDbLine
 10
3034.997889125683
 20
3064.648775927053
 30
0.0
 11
3035.822563309368
 21
3065.473450110737
 31
0.0
  0
LINE
  5
1BDB
330
1A93
100
AcDbEntity
  8
0
 62
     0
100
AcDbLine
 10
3020.451707152948
 20
3050.102593954318
 30
0.0
 11
3021.455062934619
 21
3051.105949735989
 31
0.0
  0
LINE
  5
1BDC
330
1A93
100
AcDbEntity
  8
0
 62
     0
100
AcDbLine
 10
3033.539701527152
 20
3063.36736502382
 30
0.0
 11
3033.906950561314
 21
3063.734614057983
 31
0.0
  0
LINE
  5
1BDD
330
1A93
100
AcDbEntity
  8
0
 62
     0
100
AcDbLine
 10
3022.238355108179
 20
3052.066018604848
 30
0.0
 11
3028.231130598615
 21
3058.058794095282
 31
0.0
  0
LINE
  5
1BDE
330
1A93
100
AcDbEntity
  8
0
 62
     0
100
AcDbLine
 10
3034.938960373569
 20
3064.766623870236
 30
0.0
 11
3035.754155873708
 21
3065.581819370382
 31
0.0
  0
LINE
  5
1BDF
330
1A93
100
AcDbEntity
  8
0
 62
     0
100
AcDbLine
 10
3020.351044506949
 20
3050.178708003623
 30
0.0
 11
3021.192078656306
 21
3051.019742152973
 31
0.0
  0
LINE
  5
1BE0
330
1A93
100
AcDbEntity
  8
0
 62
     0
100
AcDbLine
 10
3033.528860216887
 20
3063.533300408852
 30
0.0
 11
3033.881764877274
 21
3063.886205069247
 31
0.0
  0
LINE
  5
1BE1
330
1A93
100
AcDbEntity
  8
0
 62
     0
100
AcDbLine
 10
3022.540964929372
 20
3052.545405121338
 30
0.0
 11
3028.407935980125
 21
3058.412376172098
 31
0.0
  0
LINE
  5
1BE2
330
1A93
100
AcDbEntity
  8
0
 62
     0
100
AcDbLine
 10
3034.880031621455
 20
3064.884471813428
 30
0.0
 11
3035.685748438051
 21
3065.690188630017
 31
0.0
  0
LINE
  5
1BE3
330
1A93
100
AcDbEntity
  8
0
 62
     0
100
AcDbLine
 10
3020.254180865026
 20
3050.258621057
 30
0.0
 11
3020.985128159583
 21
3050.98956835155
 31
0.0
  0
LINE
  5
1BE4
330
1A93
100
AcDbEntity
  8
0
 62
     0
100
AcDbLine
 10
3033.518018906631
 20
3063.699235793894
 30
0.0
 11
3033.856579193225
 21
3064.037796080491
 31
0.0
  0
LINE
  5
1BE5
330
1A93
100
AcDbEntity
  8
0
 62
     0
100
AcDbLine
 10
3022.843574750558
 20
3053.024791637821
 30
0.0
 11
3028.584741361643
 21
3058.765958248907
 31
0.0
  0
LINE
  5
1BE6
330
1A93
100
AcDbEntity
  8
0
 62
     0
100
AcDbLine
 10
3034.821102869347
 20
3065.002319756619
 30
0.0
 11
3035.617341002398
 21
3065.798557889662
 31
0.0
  0
LINE
  5
1BE7
330
1A93
100
AcDbEntity
  8
0
 62
     0
100
AcDbLine
 10
3020.16107020677
 20
3050.342287094034
 30
0.0
 11
3020.806968490753
 21
3050.988185378017
 31
0.0
  0
LINE
  5
1BE8
330
1A93
100
AcDbEntity
  8
0
 62
     0
100
AcDbLine
 10
3033.507177596366
 20
3063.865171178929
 30
0.0
 11
3033.83139350918
 21
3064.189387091741
 31
0.0
  0
LINE
  5
1BE9
330
1A93
100
AcDbEntity
  8
0
 62
     0
100
AcDbLine
 10
3023.146184571749
 20
3053.504178154311
 30
0.0
 11
3028.761546743153
 21
3059.119540325715
 31
0.0
  0
LINE
  5
1BEA
330
1A93
100
AcDbEntity
  8
0
 62
     0
100
AcDbLine
 10
3034.762174117233
 20
3065.120167699795
 30
0.0
 11
3035.54893356673
 21
3065.906927149292
 31
0.0
  0
LINE
  5
1BEB
330
1A93
100
AcDbEntity
  8
0
 62
     0
100
AcDbLine
 10
3020.071687213013
 20
3050.429680795583
 30
0.0
 11
3020.648038478285
 21
3051.006032060846
 31
0.0
  0
LINE
  5
1BEC
330
1A93
100
AcDbEntity
  8
0
 62
     0
100
AcDbLine
 10
3033.496336286094
 20
3064.031106563962
 30
0.0
 11
3033.806207825138
 21
3064.340978102999
 31
0.0
  0
LINE
  5
1BED
330
1A93
100
AcDbEntity
  8
0
 62
     0
100
AcDbLine
 10
3023.448794392941
 20
3053.9835646708
 30
0.0
 11
3028.938352124656
 21
3059.473122402516
 31
0.0
  0
LINE
  5
1BEE
330
1A93
100
AcDbEntity
  8
0
 62
     0
100
AcDbLine
 10
3034.703245365103
 20
3065.238015642972
 30
0.0
 11
3035.480526131076
 21
3066.015296408934
 31
0.0
  0
LINE
  5
1BEF
330
1A93
100
AcDbEntity
  8
0
 62
     0
100
AcDbLine
 10
3019.98602657998
 20
3050.520796857838
 30
0.0
 11
3020.492457838962
 21
3051.027228116822
 31
0.0
  0
LINE
  5
1BF0
330
1A93
100
AcDbEntity
  8
0
 62
     0
100
AcDbLine
 10
3033.485494975836
 20
3064.197041948995
 30
0.0
 11
3033.781022141104
 21
3064.492569114262
 31
0.0
  0
LINE
  5
1BF1
330
1A93
100
AcDbEntity
  8
0
 62
     0
100
AcDbLine
 10
3023.751404214126
 20
3054.462951187292
 30
0.0
 11
3029.115157506167
 21
3059.826704479333
 31
0.0
  0
LINE
  5
1BF2
330
1A93
100
AcDbEntity
  8
0
 62
     0
100
AcDbLine
 10
3034.644316612997
 20
3065.355863586163
 30
0.0
 11
3035.412118695421
 21
3066.123665668579
 31
0.0
  0
LINE
  5
1BF3
330
1A93
100
AcDbEntity
  8
0
 62
     0
100
AcDbLine
 10
3019.90410287689
 20
3050.615649850048
 30
0.0
 11
3020.333144949648
 21
3051.044691922805
 31
0.0
  0
LINE
  5
1BF4
330
1A93
100
AcDbEntity
  8
0
 62
     0
100
AcDbLine
 10
3033.474653665587
 20
3064.362977334043
 30
0.0
 11
3033.75583645705
 21
3064.644160125514
 31
0.0
  0
LINE
  5
1BF5
330
1A93
100
AcDbEntity
  8
0
 62
     0
100
AcDbLine
 10
3024.054014035326
 20
3054.942337703781
 30
0.0
 11
3029.291962887683
 21
3060.18028655614
 31
0.0
  0
LINE
  5
1BF6
330
1A93
100
AcDbEntity
  8
0
 62
     0
100
AcDbLine
 10
3034.585387860889
 20
3065.473711529346
 30
0.0
 11
3035.343711259745
 21
3066.232034928209
 31
0.0
  0
LINE
  5
1BF7
330
1A93
100
AcDbEntity
  8
0
 62
     0
100
AcDbLine
 10
3019.825950938153
 20
3050.714274606609
 30
0.0
 11
3020.180587474154
 21
3051.068911142611
 31
0.0
  0
LINE
  5
1BF8
330
1A93
100
AcDbEntity
  8
0
 62
     0
100
AcDbLine
 10
3033.463812355309
 20
3064.528912719048
 30
0.0
 11
3033.730650773017
 21
3064.795751136756
 31
0.0
  0
LINE
  5
1BF9
330
1A93
100
AcDbEntity
  8
0
 62
     0
100
AcDbLine
 10
3024.35662385651
 20
3055.421724220251
 30
0.0
 11
3029.468768269202
 21
3060.533868632941
 31
0.0
  0
LINE
  5
1BFA
330
1A93
100
AcDbEntity
  8
0
 62
     0
100
AcDbLine
 10
3034.526459108783
 20
3065.591559472522
 30
0.0
 11
3035.275303824092
 21
3066.340404187838
 31
0.0
  0
LINE
  5
1BFB
330
1A93
100
AcDbEntity
  8
0
 62
     0
100
AcDbLine
 10
3019.751626814869
 20
3050.816727178608
 30
0.0
 11
3020.034120375028
 21
3051.099220738767
 31
0.0
  0
LINE
  5
1BFC
330
1A93
100
AcDbEntity
  8
0
 62
     0
100
AcDbLine
 10
3033.452971045059
 20
3064.694848104096
 30
0.0
 11
3033.705465088962
 21
3064.947342148007
 31
0.0
  0
LINE
  5
1BFD
330
1A93
100
AcDbEntity
  8
0
 62
     0
100
AcDbLine
 10
3024.659233677695
 20
3055.901110736733
 30
0.0
 11
3029.645573650713
 21
3060.887450709757
 31
0.0
  0
LINE
  5
1BFE
330
1A93
100
AcDbEntity
  8
0
 62
     0
100
AcDbLine
 10
3034.467530356676
 20
3065.709407415714
 30
0.0
 11
3035.206896388436
 21
3066.448773447483
 31
0.0
  0
LINE
  5
1BFF
330
1A93
100
AcDbEntity
  8
0
 62
     0
100
AcDbLine
 10
3019.681209347655
 20
3050.923086406692
 30
0.0
 11
3019.893215200928
 21
3051.135092259967
 31
0.0
  0
LINE
  5
1C00
330
1A93
100
AcDbEntity
  8
0
 62
     0
100
AcDbLine
 10
3033.44212973478
 20
3064.860783489121
 30
0.0
 11
3033.680279404914
 21
3065.09893315925
 31
0.0
  0
LINE
  5
1C01
330
1A93
100
AcDbEntity
  8
0
 62
     0
100
AcDbLine
 10
3024.961843498902
 20
3056.380497253238
 30
0.0
 11
3029.822379032222
 21
3061.241032786565
 31
0.0
  0
LINE
  5
1C02
330
1A93
100
AcDbEntity
  8
0
 62
     0
100
AcDbLine
 10
3034.408601604555
 20
3065.827255358897
 30
0.0
 11
3035.138488952775
 21
3066.557142707111
 31
0.0
  0
LINE
  5
1C03
330
1A93
100
AcDbEntity
  8
0
 62
     0
100
AcDbLine
 10
3019.614802466341
 20
3051.033456220684
 30
0.0
 11
3019.757445639378
 21
3051.176099393713
 31
0.0
  0
LINE
  5
1C04
330
1A93
100
AcDbEntity
  8
0
 62
     0
100
AcDbLine
 10
3033.431288424537
 20
3065.02671887417
 30
0.0
 11
3033.655093720874
 21
3065.250524170516
 31
0.0
  0
LINE
  5
1C05
330
1A93
100
AcDbEntity
  8
0
 62
     0
100
AcDbLine
 10
3025.264453320088
 20
3056.859883769721
 30
0.0
 11
3029.999184413733
 21
3061.594614863373
 31
0.0
  0
LINE
  5
1C06
330
1A93
100
AcDbEntity
  8
0
 62
     0
100
AcDbLine
 10
3034.349672852449
 20
3065.945103302088
 30
0.0
 11
3035.070081517129
 21
3066.665511966762
 31
0.0
  0
LINE
  5
1C07
330
1A93
100
AcDbEntity
  8
0
 62
     0
100
AcDbLine
 10
3019.552538380275
 20
3051.147968829915
 30
0.0
 11
3019.626463763954
 21
3051.221894213588
 31
0.0
  0
LINE
  5
1C08
330
1A93
100
AcDbEntity
  8
0
 62
     0
100
AcDbLine
 10
3033.420447114273
 20
3065.19265425919
 30
0.0
 11
3033.629908036854
 21
3065.402115181772
 31
0.0
  0
LINE
  5
1C09
330
1A93
100
AcDbEntity
  8
0
 62
     0
100
AcDbLine
 10
3025.567063141279
 20
3057.339270286196
 30
0.0
 11
3030.175989795259
 21
3061.948196940175
 31
0.0
  0
LINE
  5
1C0A
330
1A93
100
AcDbEntity
  8
0
 62
     0
100
AcDbLine
 10
3034.290744100355
 20
3066.062951245273
 30
0.0
 11
3035.001674081476
 21
3066.773881226398
 31
0.0
  0
LINE
  5
1C0B
330
1A93
100
AcDbEntity
  8
0
 62
     0
100
AcDbLine
 10
3019.494581901533
 20
3051.266789046458
 30
0.0
 11
3019.499983197798
 21
3051.272190342714
 31
0.0
  0
LINE
  5
1C0C
330
1A93
100
AcDbEntity
  8
0
 62
     0
100
AcDbLine
 10
3033.409605804016
 20
3065.358589644231
 30
0.0
 11
3033.604722352807
 21
3065.553706193024
 31
0.0
  0
LINE
  5
1C0D
330
1A93
100
AcDbEntity
  8
0
 62
     0
100
AcDbLine
 10
3034.231815348241
 20
3066.180799188455
 30
0.0
 11
3034.933266645821
 21
3066.882250486036
 31
0.0
  0
LINE
  5
1C0E
330
1A93
100
AcDbEntity
  8
0
 62
     0
100
AcDbLine
 10
3025.86967296248
 20
3057.8186568027
 30
0.0
 11
3030.352795176769
 21
3062.301779016991
 31
0.0
  0
LINE
  5
1C0F
330
1A93
100
AcDbEntity
  8
0
 62
     0
100
AcDbLine
 10
3033.398764493743
 20
3065.524525029257
 30
0.0
 11
3033.579536668753
 21
3065.705297204265
 31
0.0
  0
LINE
  5
1C10
330
1A93
100
AcDbEntity
  8
0
 62
     0
100
AcDbLine
 10
3034.172886596119
 20
3066.298647131632
 30
0.0
 11
3034.864859210167
 21
3066.99061974568
 31
0.0
  0
LINE
  5
1C11
330
1A93
100
AcDbEntity
  8
0
 62
     0
100
AcDbLine
 10
3026.172282783671
 20
3058.298043319183
 30
0.0
 11
3030.529600558287
 21
3062.655361093799
 31
0.0
  0
LINE
  5
1C12
330
1A93
100
AcDbEntity
  8
0
 62
     0
100
AcDbLine
 10
3033.387923183487
 20
3065.690460414299
 30
0.0
 11
3033.55435098472
 21
3065.85688821553
 31
0.0
  0
LINE
  5
1C13
330
1A93
100
AcDbEntity
  8
0
 62
     0
100
AcDbLine
 10
3034.113957843997
 20
3066.416495074816
 30
0.0
 11
3034.796451774505
 21
3067.098989005317
 31
0.0
  0
LINE
  5
1C14
330
1A93
100
AcDbEntity
  8
0
 62
     0
100
AcDbLine
 10
3026.474892604856
 20
3058.777429835674
 30
0.0
 11
3030.706405939796
 21
3063.008943170608
 31
0.0
  0
LINE
  5
1C15
330
1A93
100
AcDbEntity
  8
0
 62
     0
100
AcDbLine
 10
3033.377081873215
 20
3065.856395799333
 30
0.0
 11
3033.529165300671
 21
3066.00847922678
 31
0.0
  0
LINE
  5
1C16
330
1A93
100
AcDbEntity
  8
0
 62
     0
100
AcDbLine
 10
3034.055029091891
 20
3066.534343018008
 30
0.0
 11
3034.728044338844
 21
3067.207358264953
 31
0.0
  0
LINE
  5
1C17
330
1A93
100
AcDbEntity
  8
0
 62
     0
100
AcDbLine
 10
3026.777502426048
 20
3059.256816352156
 30
0.0
 11
3030.883211321299
 21
3063.362525247407
 31
0.0
  0
LINE
  5
1C18
330
1A93
100
AcDbEntity
  8
0
 62
     0
100
AcDbLine
 10
3033.366240562951
 20
3066.022331184365
 30
0.0
 11
3033.50397961663
 21
3066.160070238038
 31
0.0
  0
LINE
  5
1C19
330
1A93
100
AcDbEntity
  8
0
 62
     0
100
AcDbLine
 10
3033.996100339784
 20
3066.65219096119
 30
0.0
 11
3034.659636903189
 21
3067.315727524598
 31
0.0
  0
LINE
  5
1C1A
330
1A93
100
AcDbEntity
  8
0
 62
     0
100
AcDbLine
 10
3027.080112247233
 20
3059.736202868647
 30
0.0
 11
3031.060016702824
 21
3063.716107324231
 31
0.0
  0
LINE
  5
1C1B
330
1A93
100
AcDbEntity
  8
0
 62
     0
100
AcDbLine
 10
3033.355399252694
 20
3066.188266569406
 30
0.0
 11
3033.478793932576
 21
3066.311661249281
 31
0.0
  0
LINE
  5
1C1C
330
1A93
100
AcDbEntity
  8
0
 62
     0
100
AcDbLine
 10
3033.937171587683
 20
3066.770038904389
 30
0.0
 11
3034.59122946753
 21
3067.424096784233
 31
0.0
  0
LINE
  5
1C1D
330
1A93
100
AcDbEntity
  8
0
 62
     0
100
AcDbLine
 10
3027.382722068426
 20
3060.21558938513
 30
0.0
 11
3031.236822084335
 21
3064.069689401046
 31
0.0
  0
LINE
  5
1C1E
330
1A93
100
AcDbEntity
  8
0
 62
     0
100
AcDbLine
 10
3033.344557942437
 20
3066.354201954439
 30
0.0
 11
3033.453608248542
 21
3066.463252260546
 31
0.0
  0
LINE
  5
1C1F
330
1A93
100
AcDbEntity
  8
0
 62
     0
100
AcDbLine
 10
3033.878242835569
 20
3066.887886847573
 30
0.0
 11
3034.522822031874
 21
3067.532466043878
 31
0.0
  0
LINE
  5
1C20
330
1A93
100
AcDbEntity
  8
0
 62
     0
100
AcDbLine
 10
3027.685331889625
 20
3060.694975901628
 30
0.0
 11
3031.413627465845
 21
3064.423271477847
 31
0.0
  0
LINE
  5
1C21
330
1A93
100
AcDbEntity
  8
0
 62
     0
100
AcDbLine
 10
3033.333716632172
 20
3066.520137339481
 30
0.0
 11
3033.428422564488
 21
3066.61484327179
 31
0.0
  0
LINE
  5
1C22
330
1A93
100
AcDbEntity
  8
0
 62
     0
100
AcDbLine
 10
3033.819314083447
 20
3067.005734790757
 30
0.0
 11
3034.454414596221
 21
3067.640835303521
 31
0.0
  0
LINE
  5
1C23
330
1A93
100
AcDbEntity
  8
0
 62
     0
100
AcDbLine
 10
3027.987941710802
 20
3061.174362418103
 30
0.0
 11
3031.590432847355
 21
3064.776853554656
 31
0.0
  0
LINE
  5
1C24
330
1A93
100
AcDbEntity
  8
0
 62
     0
100
AcDbLine
 10
3033.322875321902
 20
3066.6860727245
 30
0.0
 11
3033.40323688044
 21
3066.766434283046
 31
0.0
  0
LINE
  5
1C25
330
1A93
100
AcDbEntity
  8
0
 62
     0
100
AcDbLine
 10
3033.760385331341
 20
3067.123582733948
 30
0.0
 11
3034.300779804682
 21
3067.66397720728
 31
0.0
  0
LINE
  5
1C26
330
1A93
100
AcDbEntity
  8
0
 62
     0
100
AcDbLine
 10
3028.290551531994
 20
3061.653748934594
 30
0.0
 11
3031.767238228864
 21
3065.130435631465
 31
0.0
  0
LINE
  5
1C27
330
1A93
100
AcDbEntity
  8
0
 62
     0
100
AcDbLine
 10
3033.312034011651
 20
3066.852008109556
 30
0.0
 11
3033.378051196399
 21
3066.918025294297
 31
0.0
  0
LINE
  5
1C28
330
1A93
100
AcDbEntity
  8
0
 62
     0
100
AcDbLine
 10
3033.701456579227
 20
3067.241430677123
 30
0.0
 11
3034.107657197512
 21
3067.647631295411
 31
0.0
  0
LINE
  5
1C29
330
1A93
100
AcDbEntity
  8
0
 62
     0
100
AcDbLine
 10
3028.593161353194
 20
3062.133135451091
 30
0.0
 11
3031.944043610391
 21
3065.484017708287
 31
0.0
  0
LINE
  5
1C2A
330
1A93
100
AcDbEntity
  8
0
 62
     0
100
AcDbLine
 10
3033.301192701378
 20
3067.017943494574
 30
0.0
 11
3033.352865512359
 21
3067.069616305554
 31
0.0
  0
LINE
  5
1C2B
330
1A93
100
AcDbEntity
  8
0
 62
     0
100
AcDbLine
 10
3033.642527827112
 20
3067.359278620308
 30
0.0
 11
3033.918139879883
 21
3067.634890673078
 31
0.0
  0
LINE
  5
1C2C
330
1A93
100
AcDbEntity
  8
0
 62
     0
100
AcDbLine
 10
3028.895771174378
 20
3062.612521967574
 30
0.0
 11
3032.120848991902
 21
3065.837599785095
 31
0.0
  0
LINE
  5
1C2D
330
1A93
100
AcDbEntity
  8
0
 62
     0
100
AcDbLine
 10
3033.290351391122
 20
3067.183878879616
 30
0.0
 11
3033.327679828312
 21
3067.221207316805
 31
0.0
  0
LINE
  5
1C2E
330
1A93
100
AcDbEntity
  8
0
 62
     0
100
AcDbLine
 10
3033.583599074999
 20
3067.477126563491
 30
0.0
 11
3033.73200415801
 21
3067.625531646509
 31
0.0
  0
LINE
  5
1C2F
330
1A93
100
AcDbEntity
  8
0
 62
     0
100
AcDbLine
 10
3029.198380995564
 20
3063.091908484057
 30
0.0
 11
3032.297654373397
 21
3066.191181861889
 31
0.0
  0
LINE
  5
1C30
330
1A93
100
AcDbEntity
  8
0
 62
     0
100
AcDbLine
 10
3033.279510080851
 20
3067.349814264642
 30
0.0
 11
3033.302494144264
 21
3067.372798328054
 31
0.0
  0
LINE
  5
1C31
330
1A93
100
AcDbEntity
  8
0
 62
     0
100
AcDbLine
 10
3033.524670322884
 20
3067.594974506674
 30
0.0
 11
3033.549055183335
 21
3067.619359367126
 31
0.0
  0
LINE
  5
1C32
330
1A93
100
AcDbEntity
  8
0
 62
     0
100
AcDbLine
 10
3029.500990816762
 20
3063.571295000554
 30
0.0
 11
3032.474459754921
 21
3066.544763938712
 31
0.0
  0
LINE
  5
1C33
330
1A93
100
AcDbEntity
  8
0
 62
     0
100
AcDbLine
 10
3033.268668770602
 20
3067.51574964969
 30
0.0
 11
3033.277308460223
 21
3067.524389339312
 31
0.0
  0
LINE
  5
1C34
330
1A93
100
AcDbEntity
  8
0
 62
     0
100
AcDbLine
 10
3029.803600637948
 20
3064.050681517044
 30
0.0
 11
3032.651265136424
 21
3066.898346015522
 31
0.0
  0
LINE
  5
1C35
330
1A93
100
AcDbEntity
  8
0
 62
     0
100
AcDbLine
 10
3030.10621045914
 20
3064.530068033528
 30
0.0
 11
3032.828070517942
 21
3067.251928092329
 31
0.0
  0
LINE
  5
1C36
330
1A93
100
AcDbEntity
  8
0
 62
     0
100
AcDbLine
 10
3030.408820280332
 20
3065.009454550017
 30
0.0
 11
3033.004875899452
 21
3067.605510169138
 31
0.0
  0
LINE
  5
1C37
330
1A93
100
AcDbEntity
  8
0
 62
     0
100
AcDbLine
 10
3030.711430101524
 20
3065.488841066493
 30
0.0
 11
3032.845997682589
 21
3067.623408647561
 31
0.0
  0
LINE
  5
1C38
330
1A93
100
AcDbEntity
  8
0
 62
     0
100
AcDbLine
 10
3031.014039922709
 20
3065.968227582976
 30
0.0
 11
3032.676784080576
 21
3067.630971740851
 31
0.0
  0
LINE
  5
1C39
330
1A93
100
AcDbEntity
  8
0
 62
     0
100
AcDbLine
 10
3031.3166497439
 20
3066.447614099466
 30
0.0
 11
3032.509983881201
 21
3067.640948236767
 31
0.0
  0
LINE
  5
1C3A
330
1A93
100
AcDbEntity
  8
0
 62
     0
100
AcDbLine
 10
3031.619259565086
 20
3066.927000615949
 30
0.0
 11
3032.345512204329
 21
3067.653253255195
 31
0.0
  0
LINE
  5
1C3B
330
1A93
100
AcDbEntity
  8
0
 62
     0
100
AcDbLine
 10
3031.921869386292
 20
3067.406387132439
 30
0.0
 11
3032.183292744506
 21
3067.667810490653
 31
0.0
  0
LINE
  5
1C3C
330
1A93
100
AcDbEntity
  8
0
 62
     0
100
AcDbLine
 10
3028.600147950855
 20
3068.680859774723
 30
0.0
 11
3028.626946569682
 21
3068.707658393556
 31
0.0
  0
LINE
  5
1C3D
330
1A93
100
AcDbEntity
  8
0
 62
     0
100
AcDbLine
 10
3028.232564886369
 20
3068.490053405534
 30
0.0
 11
3028.513709741026
 21
3068.77119826019
 31
0.0
  0
LINE
  5
1C3E
330
1A93
100
AcDbEntity
  8
0
 62
     0
100
AcDbLine
 10
3027.864981821905
 20
3068.299247036367
 30
0.0
 11
3028.40225607533
 21
3068.836521289791
 31
0.0
  0
LINE
  5
1C3F
330
1A93
100
AcDbEntity
  8
0
 62
     0
100
AcDbLine
 10
3027.497398757426
 20
3068.108440667187
 30
0.0
 11
3028.292608553041
 21
3068.903650462802
 31
0.0
  0
LINE
  5
1C40
330
1A93
100
AcDbEntity
  8
0
 62
     0
100
AcDbLine
 10
3027.129815692954
 20
3067.917634298022
 30
0.0
 11
3028.184793283857
 21
3068.972611888916
 31
0.0
  0
LINE
  5
1C41
330
1A93
100
AcDbEntity
  8
0
 62
     0
100
AcDbLine
 10
3026.762232628483
 20
3067.726827928847
 30
0.0
 11
3028.078839714973
 21
3069.04343501533
 31
0.0
  0
LINE
  5
1C42
330
1A93
100
AcDbEntity
  8
0
 62
     0
100
AcDbLine
 10
3026.394649564011
 20
3067.536021559666
 30
0.0
 11
3027.974780873583
 21
3069.116152869238
 31
0.0
  0
LINE
  5
1C43
330
1A93
100
AcDbEntity
  8
0
 62
     0
100
AcDbLine
 10
3026.027066499541
 20
3067.345215190493
 30
0.0
 11
3027.872653648744
 21
3069.190802339698
 31
0.0
  0
LINE
  5
1C44
330
1A93
100
AcDbEntity
  8
0
 62
     0
100
AcDbLine
 10
3025.659483435067
 20
3067.154408821319
 30
0.0
 11
3027.69382430696
 21
3069.188749693218
 31
0.0
  0
LINE
  5
1C45
330
1A93
100
AcDbEntity
  8
0
 62
     0
100
AcDbLine
 10
3025.291900370596
 20
3066.963602452146
 30
0.0
 11
3027.399824460547
 21
3069.071526542094
 31
0.0
  0
LINE
  5
1C46
330
1A93
100
AcDbEntity
  8
0
 62
     0
100
AcDbLine
 10
3024.924317306126
 20
3066.772796082971
 30
0.0
 11
3027.105824614102
 21
3068.954303390957
 31
0.0
  0
LINE
  5
1C47
330
1A93
100
AcDbEntity
  8
0
 62
     0
100
AcDbLine
 10
3024.556734241654
 20
3066.581989713799
 30
0.0
 11
3026.81182476769
 21
3068.837080239835
 31
0.0
  0
LINE
  5
1C48
330
1A93
100
AcDbEntity
  8
0
 62
     0
100
AcDbLine
 10
3024.18915117719
 20
3066.391183344618
 30
0.0
 11
3026.517824921269
 21
3068.719857088697
 31
0.0
  0
LINE
  5
1C49
330
1A93
100
AcDbEntity
  8
0
 62
     0
100
AcDbLine
 10
3023.821568112704
 20
3066.200376975437
 30
0.0
 11
3026.223825074835
 21
3068.602633937568
 31
0.0
  0
LINE
  5
1C4A
330
1A93
100
AcDbEntity
  8
0
 62
     0
100
AcDbLine
 10
3023.453985048232
 20
3066.009570606263
 30
0.0
 11
3025.929825228413
 21
3068.485410786437
 31
0.0
  0
LINE
  5
1C4B
330
1A93
100
AcDbEntity
  8
0
 62
     0
100
AcDbLine
 10
3023.086401983781
 20
3065.81876423709
 30
0.0
 11
3025.635825382007
 21
3068.368187635322
 31
0.0
  0
LINE
  5
1C4C
330
1A93
100
AcDbEntity
  8
0
 62
     0
100
AcDbLine
 10
3022.718818919305
 20
3065.627957867909
 30
0.0
 11
3025.341825535579
 21
3068.250964484183
 31
0.0
  0
LINE
  5
1C4D
330
1A93
100
AcDbEntity
  8
0
 62
     0
100
AcDbLine
 10
3022.351235854833
 20
3065.437151498736
 30
0.0
 11
3025.047825689151
 21
3068.133741333062
 31
0.0
  0
LINE
  5
1C4E
330
1A93
100
AcDbEntity
  8
0
 62
     0
100
AcDbLine
 10
3021.983652790368
 20
3065.246345129569
 30
0.0
 11
3024.753825842731
 21
3068.016518181931
 31
0.0
  0
LINE
  5
1C4F
330
1A93
100
AcDbEntity
  8
0
 62
     0
100
AcDbLine
 10
3021.616069725889
 20
3065.055538760388
 30
0.0
 11
3024.459825996302
 21
3067.899295030802
 31
0.0
  0
LINE
  5
1C50
330
1A93
100
AcDbEntity
  8
0
 62
     0
100
AcDbLine
 10
3021.248486661417
 20
3064.864732391215
 30
0.0
 11
3024.165826149881
 21
3067.782071879678
 31
0.0
  0
LINE
  5
1C51
330
1A93
100
AcDbEntity
  8
0
 62
     0
100
AcDbLine
 10
3020.880903596939
 20
3064.673926022035
 30
0.0
 11
3023.871826303453
 21
3067.664848728549
 31
0.0
  0
LINE
  5
1C52
330
1A93
100
AcDbEntity
  8
0
 62
     0
100
AcDbLine
 10
3020.513320532467
 20
3064.483119652861
 30
0.0
 11
3023.577826457025
 21
3067.547625577419
 31
0.0
  0
LINE
  5
1C53
330
1A93
100
AcDbEntity
  8
0
 62
     0
100
AcDbLine
 10
3020.145737467995
 20
3064.292313283695
 30
0.0
 11
3023.283826610605
 21
3067.430402426295
 31
0.0
  0
LINE
  5
1C54
330
1A93
100
AcDbEntity
  8
0
 62
     0
100
AcDbLine
 10
3019.778154403531
 20
3064.101506914521
 30
0.0
 11
3022.989826764184
 21
3067.313179275174
 31
0.0
  0
LINE
  5
1C55
330
1A93
100
AcDbEntity
  8
0
 62
     0
100
AcDbLine
 10
3019.410571339053
 20
3063.910700545339
 30
0.0
 11
3022.695826917749
 21
3067.195956124037
 31
0.0
  0
LINE
  5
1C56
330
1A93
100
AcDbEntity
  8
0
 62
     0
100
AcDbLine
 10
3019.042988274581
 20
3063.719894176167
 30
0.0
 11
3022.401827071327
 21
3067.078732972913
 31
0.0
  0
LINE
  5
1C57
330
1A93
100
AcDbEntity
  8
0
 62
     0
100
AcDbLine
 10
3018.675405210118
 20
3063.529087807001
 30
0.0
 11
3022.1078272249
 21
3066.961509821783
 31
0.0
  0
LINE
  5
1C58
330
1A93
100
AcDbEntity
  8
0
 62
     0
100
AcDbLine
 10
3018.307822145632
 20
3063.33828143782
 30
0.0
 11
3021.813827378471
 21
3066.844286670654
 31
0.0
  0
LINE
  5
1C59
330
1A93
100
AcDbEntity
  8
0
 62
     0
100
AcDbLine
 10
3017.940239081165
 20
3063.147475068646
 30
0.0
 11
3021.519827532051
 21
3066.727063519538
 31
0.0
  0
LINE
  5
1C5A
330
1A93
100
AcDbEntity
  8
0
 62
     0
100
AcDbLine
 10
3017.572656016695
 20
3062.95666869948
 30
0.0
 11
3021.22582768563
 21
3066.609840368408
 31
0.0
  0
LINE
  5
1C5B
330
1A93
100
AcDbEntity
  8
0
 62
     0
100
AcDbLine
 10
3017.205072952216
 20
3062.765862330292
 30
0.0
 11
3020.931827839195
 21
3066.492617217277
 31
0.0
  0
LINE
  5
1C5C
330
1A93
100
AcDbEntity
  8
0
 62
     0
100
AcDbLine
 10
3016.837489887744
 20
3062.575055961119
 30
0.0
 11
3020.637827992781
 21
3066.375394066155
 31
0.0
  0
LINE
  5
1C5D
330
1A93
100
AcDbEntity
  8
0
 62
     0
100
AcDbLine
 10
3016.46990682328
 20
3062.384249591938
 30
0.0
 11
3020.343828146346
 21
3066.258170915003
 31
0.0
  0
LINE
  5
1C5E
330
1A93
100
AcDbEntity
  8
0
 62
     0
100
AcDbLine
 10
3016.102323758816
 20
3062.193443222771
 30
0.0
 11
3020.049828299925
 21
3066.140947763881
 31
0.0
  0
LINE
  5
1C5F
330
1A93
100
AcDbEntity
  8
0
 62
     0
100
AcDbLine
 10
3015.73474069433
 20
3062.002636853583
 30
0.0
 11
3019.755828453503
 21
3066.023724612759
 31
0.0
  0
LINE
  5
1C60
330
1A93
100
AcDbEntity
  8
0
 62
     0
100
AcDbLine
 10
3015.36715762988
 20
3061.811830484417
 30
0.0
 11
3019.461828607097
 21
3065.906501461635
 31
0.0
  0
LINE
  5
1C61
330
1A93
100
AcDbEntity
  8
0
 62
     0
100
AcDbLine
 10
3014.999574565417
 20
3061.621024115251
 30
0.0
 11
3019.167828760663
 21
3065.789278310498
 31
0.0
  0
LINE
  5
1C62
330
1A93
100
AcDbEntity
  8
0
 62
     0
100
AcDbLine
 10
3014.631991500931
 20
3061.430217746063
 30
0.0
 11
3018.873828914242
 21
3065.672055159375
 31
0.0
  0
LINE
  5
1C63
330
1A93
100
AcDbEntity
  8
0
 62
     0
100
AcDbLine
 10
3014.264408436459
 20
3061.239411376897
 30
0.0
 11
3018.579829067813
 21
3065.554832008245
 31
0.0
  0
LINE
  5
1C64
330
1A93
100
AcDbEntity
  8
0
 62
     0
100
AcDbLine
 10
3013.896825371986
 20
3061.048605007716
 30
0.0
 11
3018.285829221386
 21
3065.437608857115
 31
0.0
  0
LINE
  5
1C65
330
1A93
100
AcDbEntity
  8
0
 62
     0
100
AcDbLine
 10
3013.529242307522
 20
3060.857798638549
 30
0.0
 11
3017.991829374973
 21
3065.320385706
 31
0.0
  0
LINE
  5
1C66
330
1A93
100
AcDbEntity
  8
0
 62
     0
100
AcDbLine
 10
3013.161659243043
 20
3060.666992269369
 30
0.0
 11
3017.697829528543
 21
3065.203162554869
 31
0.0
  0
LINE
  5
1C67
330
1A93
100
AcDbEntity
  8
0
 62
     0
100
AcDbLine
 10
3012.794076178565
 20
3060.476185900196
 30
0.0
 11
3017.403829682109
 21
3065.085939403739
 31
0.0
  0
LINE
  5
1C68
330
1A93
100
AcDbEntity
  8
0
 62
     0
100
AcDbLine
 10
3012.307978158256
 20
3060.166864575178
 30
0.0
 11
3017.109829835695
 21
3064.968716252617
 31
0.0
  0
LINE
  5
1C69
330
1A93
100
AcDbEntity
  8
0
 62
     0
100
AcDbLine
 10
3011.99327234584
 20
3060.028935458061
 30
0.0
 11
3016.815829989261
 21
3064.85149310148
 31
0.0
  0
LINE
  5
1C6A
330
1A93
100
AcDbEntity
  8
0
 62
     0
100
AcDbLine
 10
3011.733495196749
 20
3059.945935004267
 30
0.0
 11
3016.521830142838
 21
3064.734269950357
 31
0.0
  0
LINE
  5
1C6B
330
1A93
100
AcDbEntity
  8
0
 62
     0
100
AcDbLine
 10
3011.504625106237
 20
3059.893841609053
 30
0.0
 11
3016.227830296418
 21
3064.617046799234
 31
0.0
  0
LINE
  5
1C6C
330
1A93
100
AcDbEntity
  8
0
 62
     0
100
AcDbLine
 10
3011.29666003651
 20
3059.862653234631
 30
0.0
 11
3015.93383044999
 21
3064.499823648104
 31
0.0
  0
LINE
  5
1C6D
330
1A93
100
AcDbEntity
  8
0
 62
     0
100
AcDbLine
 10
3011.104276198908
 20
3059.84704609232
 30
0.0
 11
3015.639830603562
 21
3064.382600496974
 31
0.0
  0
LINE
  5
1C6E
330
1A93
100
AcDbEntity
  8
0
 62
     0
100
AcDbLine
 10
3010.924235703358
 20
3059.843782292068
 30
0.0
 11
3015.345830757142
 21
3064.265377345858
 31
0.0
  0
LINE
  5
1C6F
330
1A93
100
AcDbEntity
  8
0
 62
     0
100
AcDbLine
 10
3010.754395037322
 20
3059.850718321329
 30
0.0
 11
3015.051830910714
 21
3064.148154194721
 31
0.0
  0
LINE
  5
1C70
330
1A93
100
AcDbEntity
  8
0
 62
     0
100
AcDbLine
 10
3010.59324949557
 20
3059.866349474877
 30
0.0
 11
3014.757831064285
 21
3064.030931043598
 31
0.0
  0
LINE
  5
1C71
330
1A93
100
AcDbEntity
  8
0
 62
     0
100
AcDbLine
 10
3010.439696782559
 20
3059.88957345717
 30
0.0
 11
3014.463831217858
 21
3063.91370789246
 31
0.0
  0
LINE
  5
1C72
330
1A93
100
AcDbEntity
  8
0
 62
     0
100
AcDbLine
 10
3010.292903140928
 20
3059.919556510816
 30
0.0
 11
3014.169831371444
 21
3063.796484741331
 31
0.0
  0
LINE
  5
1C73
330
1A93
100
AcDbEntity
  8
0
 62
     0
100
AcDbLine
 10
3010.152222365679
 20
3059.955652430864
 30
0.0
 11
3013.875831525016
 21
3063.679261590201
 31
0.0
  0
LINE
  5
1C74
330
1A93
100
AcDbEntity
  8
0
 62
     0
100
AcDbLine
 10
3010.017144217956
 20
3059.997350978438
 30
0.0
 11
3013.581831678588
 21
3063.562038439071
 31
0.0
  0
LINE
  5
1C75
330
1A93
100
AcDbEntity
  8
0
 62
     0
100
AcDbLine
 10
3009.88726018295
 20
3060.044243638715
 30
0.0
 11
3013.287831832174
 21
3063.444815287942
 31
0.0
  0
LINE
  5
1C76
330
1A93
100
AcDbEntity
  8
0
 62
     0
100
AcDbLine
 10
3009.762239970179
 20
3060.096000121244
 30
0.0
 11
3012.993831985753
 21
3063.327592136818
 31
0.0
  0
LINE
  5
1C77
330
1A93
100
AcDbEntity
  8
0
 62
     0
100
AcDbLine
 10
3009.641814944945
 20
3060.152351791308
 30
0.0
 11
3012.699832139325
 21
3063.210368985687
 31
0.0
  0
LINE
  5
1C78
330
1A93
100
AcDbEntity
  8
0
 62
     0
100
AcDbLine
 10
3009.525766192528
 20
3060.213079734189
 30
0.0
 11
3012.405832292906
 21
3063.093145834566
 31
0.0
  0
LINE
  5
1C79
330
1A93
100
AcDbEntity
  8
0
 62
     0
100
AcDbLine
 10
3009.413915777972
 20
3060.278006014931
 30
0.0
 11
3012.111832446477
 21
3062.975922683436
 31
0.0
  0
LINE
  5
1C7A
330
1A93
100
AcDbEntity
  8
0
 62
     0
100
AcDbLine
 10
3009.306120275214
 20
3060.346987207477
 30
0.0
 11
3011.817832600056
 21
3062.858699532313
 31
0.0
  0
LINE
  5
1C7B
330
1A93
100
AcDbEntity
  8
0
 62
     0
100
AcDbLine
 10
3009.202265953797
 20
3060.41990958136
 30
0.0
 11
3011.523832753628
 21
3062.741476381183
 31
0.0
  0
LINE
  5
1C7C
330
1A93
100
AcDbEntity
  8
0
 62
     0
100
AcDbLine
 10
3009.102265212197
 20
3060.49668553505
 30
0.0
 11
3011.229832907199
 21
3062.62425323006
 31
0.0
  0
LINE
  5
1C7D
330
1A93
100
AcDbEntity
  8
0
 62
     0
100
AcDbLine
 10
3009.00605397857
 20
3060.577250996721
 30
0.0
 11
3010.935833060772
 21
3062.50703007893
 31
0.0
  0
LINE
  5
1C7E
330
1A93
100
AcDbEntity
  8
0
 62
     0
100
AcDbLine
 10
3008.913589890115
 20
3060.661563603564
 30
0.0
 11
3010.641833214344
 21
3062.389806927801
 31
0.0
  0
LINE
  5
1C7F
330
1A93
100
AcDbEntity
  8
0
 62
     0
100
AcDbLine
 10
3008.824851126199
 20
3060.749601534946
 30
0.0
 11
3010.34783336793
 21
3062.272583776677
 31
0.0
  0
LINE
  5
1C80
330
1A93
100
AcDbEntity
  8
0
 62
     0
100
AcDbLine
 10
3008.739835818705
 20
3060.84136292275
 30
0.0
 11
3010.053833521502
 21
3062.155360625554
 31
0.0
  0
LINE
  5
1C81
330
1A93
100
AcDbEntity
  8
0
 62
     0
100
AcDbLine
 10
3008.658562001903
 20
3060.936865801246
 30
0.0
 11
3009.801663753016
 21
3062.079967552358
 31
0.0
  0
LINE
  5
1C82
330
1A93
100
AcDbEntity
  8
0
 62
     0
100
AcDbLine
 10
3008.581068098676
 20
3061.036148593317
 30
0.0
 11
3009.638671604334
 21
3062.093752098975
 31
0.0
  0
LINE
  5
1C83
330
1A93
100
AcDbEntity
  8
0
 62
     0
100
AcDbLine
 10
3008.507413974142
 20
3061.13927116408
 30
0.0
 11
3009.491106054288
 21
3062.122963244226
 31
0.0
  0
LINE
  5
1C84
330
1A93
100
AcDbEntity
  8
0
 62
     0
100
AcDbLine
 10
3008.437682625189
 20
3061.246316510427
 30
0.0
 11
3009.355940132591
 21
3062.164574017835
 31
0.0
  0
LINE
  5
1C85
330
1A93
100
AcDbEntity
  8
0
 62
     0
100
AcDbLine
 10
3008.37198262092
 20
3061.357393201455
 30
0.0
 11
3009.231325812105
 21
3062.216736392642
 31
0.0
  0
LINE
  5
1C86
330
1A93
100
AcDbEntity
  8
0
 62
     0
100
AcDbLine
 10
3008.310451468962
 20
3061.472638744781
 30
0.0
 11
3009.116079405735
 21
3062.278266681562
 31
0.0
  0
LINE
  5
1C87
330
1A93
100
AcDbEntity
  8
0
 62
     0
100
AcDbLine
 10
3008.253260167243
 20
3061.592224138359
 30
0.0
 11
3009.009436344821
 21
3062.348400315946
 31
0.0
  0
LINE
  5
1C88
330
1A93
100
AcDbEntity
  8
0
 62
     0
100
AcDbLine
 10
3008.200619323244
 20
3061.716359989667
 30
0.0
 11
3008.910924297852
 21
3062.426664964267
 31
0.0
  0
LINE
  5
1C89
330
1A93
100
AcDbEntity
  8
0
 62
     0
100
AcDbLine
 10
3008.152787407599
 20
3061.845304769311
 30
0.0
 11
3008.820296282697
 21
3062.512813644411
 31
0.0
  0
LINE
  5
1C8A
330
1A93
100
AcDbEntity
  8
0
 62
     0
100
AcDbLine
 10
3008.110081997168
 20
3061.979376054166
 30
0.0
 11
3008.730528614439
 21
3062.599822671443
 31
0.0
  0
LINE
  5
1C8B
330
1A93
100
AcDbEntity
  8
0
 62
     0
100
AcDbLine
 10
3008.072895327983
 20
3062.118966080277
 30
0.0
 11
3008.63684738687
 21
3062.682918139167
 31
0.0
  0
LINE
  5
1C8C
330
1A93
100
AcDbEntity
  8
0
 62
     0
100
AcDbLine
 10
3008.041716256542
 20
3062.264563704135
 30
0.0
 11
3008.546563552489
 21
3062.769411000081
 31
0.0
  0
LINE
  5
1C8D
330
1A93
100
AcDbEntity
  8
0
 62
     0
100
AcDbLine
 10
3008.017162083408
 20
3062.416786226306
 30
0.0
 11
3008.459668728463
 21
3062.859292871355
 31
0.0
  0
LINE
  5
1C8E
330
1A93
100
AcDbEntity
  8
0
 62
     0
100
AcDbLine
 10
3008.000026170121
 20
3062.576427008309
 30
0.0
 11
3008.37616951762
 21
3062.952570355809
 31
0.0
  0
LINE
  5
1C8F
330
1A93
100
AcDbEntity
  8
0
 62
     0
100
AcDbLine
 10
3007.991352063349
 20
3062.744529596836
 30
0.0
 11
3008.296087655276
 21
3063.049265188761
 31
0.0
  0
LINE
  5
1C90
330
1A93
100
AcDbEntity
  8
0
 62
     0
100
AcDbLine
 10
3007.992554723851
 20
3062.922508952636
 30
0.0
 11
3008.219460496992
 21
3063.149414725776
 31
0.0
  0
LINE
  5
1C91
330
1A93
100
AcDbEntity
  8
0
 62
     0
100
AcDbLine
 10
3008.005631664207
 20
3063.112362588289
 30
0.0
 11
3008.146341873209
 21
3063.253072797291
 31
0.0
  0
LINE
  5
1C92
330
1A93
100
AcDbEntity
  8
0
 62
     0
100
AcDbLine
 10
3008.033562354408
 20
3063.317069973789
 30
0.0
 11
3008.076803357333
 21
3063.360310976714
 31
0.0
  0
ENDBLK
  5
1C93
330
1A93
100
AcDbEntity
  8
0
100
AcDbBlockEnd
  0
BLOCK
  5
1C95
330
1C94
100
AcDbEntity
  8
0
100
AcDbBlockBegin
  2
*X26
 70
     1
 10
0.0
 20
0.0
 30
0.0
  3
*X26
  1

  0
LINE
  5
1C96
330
1C94
100
AcDbEntity
  8
0
 62
     0
100
AcDbLine
 10
3038.669304395639
 20
3069.204074673507
 30
0.0
 11
3039.663312255317
 21
3070.198082533178
 31
0.0
  0
LINE
  5
1C97
330
1C94
100
AcDbEntity
  8
0
 62
     0
100
AcDbLine
 10
3038.129400573976
 20
3068.840947547141
 30
0.0
 11
3039.949107266519
 21
3070.660654239684
 31
0.0
  0
LINE
  5
1C98
330
1C94
100
AcDbEntity
  8
0
 62
     0
100
AcDbLine
 10
3037.730667270356
 20
3068.618990938813
 30
0.0
 11
3040.093731759683
 21
3070.982055428139
 31
0.0
  0
LINE
  5
1C99
330
1C94
100
AcDbEntity
  8
0
 62
     0
100
AcDbLine
 10
3037.388159459668
 20
3068.453259823407
 30
0.0
 11
3040.182130759915
 21
3071.247231123656
 31
0.0
  0
LINE
  5
1C9A
330
1C94
100
AcDbEntity
  8
0
 62
     0
100
AcDbLine
 10
3037.07869699299
 20
3068.320574052029
 30
0.0
 11
3040.237484416138
 21
3071.479361475175
 31
0.0
  0
LINE
  5
1C9B
330
1C94
100
AcDbEntity
  8
0
 62
     0
100
AcDbLine
 10
3036.791851083879
 20
3068.210504838214
 30
0.0
 11
3040.270221514786
 21
3071.68887526913
 31
0.0
  0
LINE
  5
1C9C
330
1C94
100
AcDbEntity
  8
0
 62
     0
100
AcDbLine
 10
3036.521852499193
 20
3068.117282948827
 30
0.0
 11
3040.286111289017
 21
3071.88154173865
 31
0.0
  0
LINE
  5
1C9D
330
1C94
100
AcDbEntity
  8
0
 62
     0
100
AcDbLine
 10
3036.265106912214
 20
3068.037314057132
 30
0.0
 11
3040.28874806557
 21
3072.060955210487
 31
0.0
  0
LINE
  5
1C9E
330
1C94
100
AcDbEntity
  8
0
 62
     0
100
AcDbLine
 10
3036.019192879058
 20
3067.968176719274
 30
0.0
 11
3040.280553288263
 21
3072.229537128477
 31
0.0
  0
LINE
  5
1C9F
330
1C94
100
AcDbEntity
  8
0
 62
     0
100
AcDbLine
 10
3035.782385826526
 20
3067.908146362046
 30
0.0
 11
3040.263251530333
 21
3072.389012065847
 31
0.0
  0
LINE
  5
1CA0
330
1C94
100
AcDbEntity
  8
0
 62
     0
100
AcDbLine
 10
3035.553405265389
 20
3067.855942496207
 30
0.0
 11
3040.238123281015
 21
3072.540660511826
 31
0.0
  0
LINE
  5
1CA1
330
1C94
100
AcDbEntity
  8
0
 62
     0
100
AcDbLine
 10
3035.331269159549
 20
3067.810583085658
 30
0.0
 11
3040.206150576399
 21
3072.685464502509
 31
0.0
  0
LINE
  5
1CA2
330
1C94
100
AcDbEntity
  8
0
 62
     0
100
AcDbLine
 10
3035.115204627931
 20
3067.771295249338
 30
0.0
 11
3040.168106297562
 21
3072.824196918968
 31
0.0
  0
LINE
  5
1CA3
330
1C94
100
AcDbEntity
  8
0
 62
     0
100
AcDbLine
 10
3034.904590413403
 20
3067.737457730109
 30
0.0
 11
3040.124611701627
 21
3072.957479018332
 31
0.0
  0
LINE
  5
1CA4
330
1C94
100
AcDbEntity
  8
0
 62
     0
100
AcDbLine
 10
3034.698918297152
 20
3067.708562309155
 30
0.0
 11
3040.076175007423
 21
3073.085819019427
 31
0.0
  0
LINE
  5
1CA5
330
1C94
100
AcDbEntity
  8
0
 62
     0
100
AcDbLine
 10
3034.497766341409
 20
3067.684187048711
 30
0.0
 11
3040.023218152703
 21
3073.209638860005
 31
0.0
  0
LINE
  5
1CA6
330
1C94
100
AcDbEntity
  8
0
 62
     0
100
AcDbLine
 10
3034.300779804682
 20
3067.66397720728
 30
0.0
 11
3039.966095878976
 21
3073.329293281574
 31
0.0
  0
LINE
  5
1CA7
330
1C94
100
AcDbEntity
  8
0
 62
     0
100
AcDbLine
 10
3034.107657197512
 20
3067.647631295411
 30
0.0
 11
3039.905109675681
 21
3073.445083773578
 31
0.0
  0
LINE
  5
1CA8
330
1C94
100
AcDbEntity
  8
0
 62
     0
100
AcDbLine
 10
3033.918139879883
 20
3067.634890673078
 30
0.0
 11
3039.840518182856
 21
3073.557268976053
 31
0.0
  0
LINE
  5
1CA9
330
1C94
100
AcDbEntity
  8
0
 62
     0
100
AcDbLine
 10
3033.73200415801
 20
3067.625531646509
 30
0.0
 11
3039.772545094268
 21
3073.66607258276
 31
0.0
  0
LINE
  5
1CAA
330
1C94
100
AcDbEntity
  8
0
 62
     0
100
AcDbLine
 10
3033.549055183335
 20
3067.619359367126
 30
0.0
 11
3039.701385258485
 21
3073.771689442278
 31
0.0
  0
LINE
  5
1CAB
330
1C94
100
AcDbEntity
  8
0
 62
     0
100
AcDbLine
 10
3033.369122175172
 20
3067.616203054262
 30
0.0
 11
3039.627209456186
 21
3073.874290335283
 31
0.0
  0
LINE
  5
1CAC
330
1C94
100
AcDbEntity
  8
0
 62
     0
100
AcDbLine
 10
3033.192054632411
 20
3067.615912206798
 30
0.0
 11
3039.550168188491
 21
3073.97402576288
 31
0.0
  0
LINE
  5
1CAD
330
1C94
100
AcDbEntity
  8
0
 62
     0
100
AcDbLine
 10
3033.017719295088
 20
3067.61835356478
 30
0.0
 11
3039.470394715354
 21
3074.071028985039
 31
0.0
  0
LINE
  5
1CAE
330
1C94
100
AcDbEntity
  8
0
 62
     0
100
AcDbLine
 10
3032.845997682589
 20
3067.623408647561
 30
0.0
 11
3039.388007517394
 21
3074.165418482371
 31
0.0
  0
LINE
  5
1CAF
330
1C94
100
AcDbEntity
  8
0
 62
     0
100
AcDbLine
 10
3032.676784080576
 20
3067.630971740851
 30
0.0
 11
3039.303112308946
 21
3074.25729996922
 31
0.0
  0
LINE
  5
1CB0
330
1C94
100
AcDbEntity
  8
0
 62
     0
100
AcDbLine
 10
3032.509983881201
 20
3067.640948236767
 30
0.0
 11
3039.215803697873
 21
3074.346768053437
 31
0.0
  0
LINE
  5
1CB1
330
1C94
100
AcDbEntity
  8
0
 62
     0
100
AcDbLine
 10
3032.345512204329
 20
3067.653253255195
 30
0.0
 11
3039.126166564281
 21
3074.433907615144
 31
0.0
  0
LINE
  5
1CB2
330
1C94
100
AcDbEntity
  8
0
 62
     0
100
AcDbLine
 10
3032.183292744506
 20
3067.667810490653
 30
0.0
 11
3039.034277213672
 21
3074.518794959825
 31
0.0
  0
LINE
  5
1CB3
330
1C94
100
AcDbEntity
  8
0
 62
     0
100
AcDbLine
 10
3032.023256800778
 20
3067.684551242223
 30
0.0
 11
3038.940204346946
 21
3074.601498788398
 31
0.0
  0
LINE
  5
1CB4
330
1C94
100
AcDbEntity
  8
0
 62
     0
100
AcDbLine
 10
3031.865342456149
 20
3067.703413592898
 30
0.0
 11
3038.844009881112
 21
3074.682081017861
 31
0.0
  0
LINE
  5
1CB5
330
1C94
100
AcDbEntity
  8
0
 62
     0
100
AcDbLine
 10
3031.709493880131
 20
3067.724341712179
 30
0.0
 11
3038.745749646674
 21
3074.760597478713
 31
0.0
  0
LINE
  5
1CB6
330
1C94
100
AcDbEntity
  8
0
 62
     0
100
AcDbLine
 10
3031.555660733597
 20
3067.747285260935
 30
0.0
 11
3038.645473982753
 21
3074.837098510093
 31
0.0
  0
LINE
  5
1CB7
330
1C94
100
AcDbEntity
  8
0
 62
     0
100
AcDbLine
 10
3031.403797659121
 20
3067.772198881757
 30
0.0
 11
3038.543228246773
 21
3074.91162946941
 31
0.0
  0
LINE
  5
1CB8
330
1C94
100
AcDbEntity
  8
0
 62
     0
100
AcDbLine
 10
3031.253863843463
 20
3067.799041761405
 30
0.0
 11
3038.439053251968
 21
3074.984231169903
 31
0.0
  0
LINE
  5
1CB9
330
1C94
100
AcDbEntity
  8
0
 62
     0
100
AcDbLine
 10
3031.105822641118
 20
3067.82777725435
 30
0.0
 11
3038.332985643859
 21
3075.05494025709
 31
0.0
  0
LINE
  5
1CBA
330
1C94
100
AcDbEntity
  8
0
 62
     0
100
AcDbLine
 10
3030.959641250047
 20
3067.858372558577
 30
0.0
 11
3038.225058224473
 21
3075.123789533004
 31
0.0
  0
LINE
  5
1CBB
330
1C94
100
AcDbEntity
  8
0
 62
     0
100
AcDbLine
 10
3030.815290432423
 20
3067.890798436252
 30
0.0
 11
3038.115300231635
 21
3075.190808235463
 31
0.0
  0
LINE
  5
1CBC
330
1C94
100
AcDbEntity
  8
0
 62
     0
100
AcDbLine
 10
3030.672744274334
 20
3067.925028973462
 30
0.0
 11
3038.003737579261
 21
3075.256022278387
 31
0.0
  0
LINE
  5
1CBD
330
1C94
100
AcDbEntity
  8
0
 62
     0
100
AcDbLine
 10
3030.531979979481
 20
3067.961041373914
 30
0.0
 11
3037.890393063658
 21
3075.319454458083
 31
0.0
  0
LINE
  5
1CBE
330
1C94
100
AcDbEntity
  8
0
 62
     0
100
AcDbLine
 10
3030.392977692935
 20
3067.998815782659
 30
0.0
 11
3037.77528653975
 21
3075.381124629471
 31
0.0
  0
LINE
  5
1CBF
330
1C94
100
AcDbEntity
  8
0
 62
     0
100
AcDbLine
 10
3030.255720351494
 20
3068.038335136523
 30
0.0
 11
3037.658435070727
 21
3075.441049855748
 31
0.0
  0
LINE
  5
1CC0
330
1C94
100
AcDbEntity
  8
0
 62
     0
100
AcDbLine
 10
3030.120193558075
 20
3068.079585038395
 30
0.0
 11
3037.539853053691
 21
3075.49924453401
 31
0.0
  0
LINE
  5
1CC1
330
1C94
100
AcDbEntity
  8
0
 62
     0
100
AcDbLine
 10
3029.986385477684
 20
3068.122553653302
 30
0.0
 11
3037.419552323627
 21
3075.555720499244
 31
0.0
  0
LINE
  5
1CC2
330
1C94
100
AcDbEntity
  8
0
 62
     0
100
AcDbLine
 10
3029.854286753419
 20
3068.167231624335
 30
0.0
 11
3037.297542237429
 21
3075.610487108352
 31
0.0
  0
LINE
  5
1CC3
330
1C94
100
AcDbEntity
  8
0
 62
     0
100
AcDbLine
 10
3029.723890440886
 20
3068.213612007087
 30
0.0
 11
3037.173829739507
 21
3075.663551305703
 31
0.0
  0
LINE
  5
1CC4
330
1C94
100
AcDbEntity
  8
0
 62
     0
100
AcDbLine
 10
3029.595191960085
 20
3068.26169022158
 30
0.0
 11
3037.048419409846
 21
3075.71491767135
 31
0.0
  0
LINE
  5
1CC5
330
1C94
100
AcDbEntity
  8
0
 62
     0
100
AcDbLine
 10
3029.468189063868
 20
3068.311464020662
 30
0.0
 11
3036.921313495601
 21
3075.764588452401
 31
0.0
  0
LINE
  5
1CC6
330
1C94
100
AcDbEntity
  8
0
 62
     0
100
AcDbLine
 10
3029.342881822609
 20
3068.362933474687
 30
0.0
 11
3036.792511926439
 21
3075.812563578518
 31
0.0
  0
LINE
  5
1CC7
330
1C94
100
AcDbEntity
  8
0
 62
     0
100
AcDbLine
 10
3029.219272624563
 20
3068.416100971946
 30
0.0
 11
3036.662012314016
 21
3075.8588406614
 31
0.0
  0
LINE
  5
1CC8
330
1C94
100
AcDbEntity
  8
0
 62
     0
100
AcDbLine
 10
3029.097366192385
 20
3068.470971235059
 30
0.0
 11
3036.529809935746
 21
3075.903414978419
 31
0.0
  0
LINE
  5
1CC9
330
1C94
100
AcDbEntity
  8
0
 62
     0
100
AcDbLine
 10
3028.977169615521
 20
3068.527551353494
 30
0.0
 11
3036.395897702147
 21
3075.946279440126
 31
0.0
  0
LINE
  5
1CCA
330
1C94
100
AcDbEntity
  8
0
 62
     0
100
AcDbLine
 10
3028.858692399416
 20
3068.585850832685
 30
0.0
 11
3036.260266107797
 21
3075.987424541068
 31
0.0
  0
LINE
  5
1CCB
330
1C94
100
AcDbEntity
  8
0
 62
     0
100
AcDbLine
 10
3028.741946532151
 20
3068.645881660725
 30
0.0
 11
3036.122903164599
 21
3076.026838293167
 31
0.0
  0
LINE
  5
1CCC
330
1C94
100
AcDbEntity
  8
0
 62
     0
100
AcDbLine
 10
3028.626946569682
 20
3068.707658393556
 30
0.0
 11
3035.983794316606
 21
3076.064506140479
 31
0.0
  0
LINE
  5
1CCD
330
1C94
100
AcDbEntity
  8
0
 62
     0
100
AcDbLine
 10
3028.513709741026
 20
3068.77119826019
 30
0.0
 11
3035.842922334806
 21
3076.100410853979
 31
0.0
  0
LINE
  5
1CCE
330
1C94
100
AcDbEntity
  8
0
 62
     0
100
AcDbLine
 10
3028.40225607533
 20
3068.836521289791
 30
0.0
 11
3035.700267190048
 21
3076.13453240451
 31
0.0
  0
LINE
  5
1CCF
330
1C94
100
AcDbEntity
  8
0
 62
     0
100
AcDbLine
 10
3028.292608553041
 20
3068.903650462802
 30
0.0
 11
3035.55580590188
 21
3076.166847811641
 31
0.0
  0
LINE
  5
1CD0
330
1C94
100
AcDbEntity
  8
0
 62
     0
100
AcDbLine
 10
3028.184793283857
 20
3068.972611888916
 30
0.0
 11
3035.409512360601
 21
3076.197330965661
 31
0.0
  0
LINE
  5
1CD1
330
1C94
100
AcDbEntity
  8
0
 62
     0
100
AcDbLine
 10
3028.078839714973
 20
3069.04343501533
 30
0.0
 11
3035.26135711903
 21
3076.225952419386
 31
0.0
  0
LINE
  5
1CD2
330
1C94
100
AcDbEntity
  8
0
 62
     0
100
AcDbLine
 10
3027.974780873583
 20
3069.116152869238
 30
0.0
 11
3035.111307149958
 21
3076.252679145611
 31
0.0
  0
LINE
  5
1CD3
330
1C94
100
AcDbEntity
  8
0
 62
     0
100
AcDbLine
 10
3027.872653648744
 20
3069.190802339698
 30
0.0
 11
3034.959325564341
 21
3076.277474255292
 31
0.0
  0
LINE
  5
1CD4
330
1C94
100
AcDbEntity
  8
0
 62
     0
100
AcDbLine
 10
3027.772499118524
 20
3069.267424504774
 30
0.0
 11
3034.805371284099
 21
3076.300296670357
 31
0.0
  0
LINE
  5
1CD5
330
1C94
100
AcDbEntity
  8
0
 62
     0
100
AcDbLine
 10
3027.674362929916
 20
3069.346065011465
 30
0.0
 11
3034.649398662252
 21
3076.321100743808
 31
0.0
  0
LINE
  5
1CD6
330
1C94
100
AcDbEntity
  8
0
 62
     0
100
AcDbLine
 10
3027.578295740422
 20
3069.426774517269
 30
0.0
 11
3034.491357041289
 21
3076.339835818136
 31
0.0
  0
LINE
  5
1CD7
330
1C94
100
AcDbEntity
  8
0
 62
     0
100
AcDbLine
 10
3027.484353732484
 20
3069.509609204637
 30
0.0
 11
3034.331190238765
 21
3076.35644571091
 31
0.0
  0
LINE
  5
1CD8
330
1C94
100
AcDbEntity
  8
0
 62
     0
100
AcDbLine
 10
3027.392599214334
 20
3069.594631381762
 30
0.0
 11
3034.16883594646
 21
3076.370868113889
 31
0.0
  0
LINE
  5
1CD9
330
1C94
100
AcDbEntity
  8
0
 62
     0
100
AcDbLine
 10
3027.303101324214
 20
3069.68191018694
 30
0.0
 11
3034.004225026118
 21
3076.383033888851
 31
0.0
  0
LINE
  5
1CDA
330
1C94
100
AcDbEntity
  8
0
 62
     0
100
AcDbLine
 10
3027.215936859334
 20
3069.771522417358
 30
0.0
 11
3033.837280680542
 21
3076.392866238566
 31
0.0
  0
LINE
  5
1CDB
330
1C94
100
AcDbEntity
  8
0
 62
     0
100
AcDbLine
 10
3027.131191256034
 20
3069.863553509341
 30
0.0
 11
3033.667917473417
 21
3076.400279726725
 31
0.0
  0
LINE
  5
1CDC
330
1C94
100
AcDbEntity
  8
0
 62
     0
100
AcDbLine
 10
3027.048959755164
 20
3069.958098703777
 30
0.0
 11
3033.496040163823
 21
3076.40517911243
 31
0.0
  0
LINE
  5
1CDD
330
1C94
100
AcDbEntity
  8
0
 62
     0
100
AcDbLine
 10
3026.969348796368
 20
3070.05526444027
 30
0.0
 11
3033.321542312165
 21
3076.407457956069
 31
0.0
  0
LINE
  5
1CDE
330
1C94
100
AcDbEntity
  8
0
 62
     0
100
AcDbLine
 10
3026.892477696906
 20
3070.155170036108
 30
0.0
 11
3033.144304601163
 21
3076.406996940372
 31
0.0
  0
LINE
  5
1CDF
330
1C94
100
AcDbEntity
  8
0
 62
     0
100
AcDbLine
 10
3026.818480689108
 20
3070.257949723607
 30
0.0
 11
3032.964192798508
 21
3076.403661833007
 31
0.0
  0
LINE
  5
1CE0
330
1C94
100
AcDbEntity
  8
0
 62
     0
100
AcDbLine
 10
3026.747509413144
 20
3070.363755142949
 30
0.0
 11
3032.781055264007
 21
3076.397300993805
 31
0.0
  0
LINE
  5
1CE1
330
1C94
100
AcDbEntity
  8
0
 62
     0
100
AcDbLine
 10
3026.679735995516
 20
3070.472758420619
 30
0.0
 11
3032.594719871174
 21
3076.387742296276
 31
0.0
  0
LINE
  5
1CE2
330
1C94
100
AcDbEntity
  8
0
 62
     0
100
AcDbLine
 10
3026.615356889873
 20
3070.585156010267
 30
0.0
 11
3032.40499016636
 21
3076.374789286761
 31
0.0
  0
LINE
  5
1CE3
330
1C94
100
AcDbEntity
  8
0
 62
     0
100
AcDbLine
 10
3026.554597724032
 20
3070.701173539724
 30
0.0
 11
3032.211640521753
 21
3076.358216337445
 31
0.0
  0
LINE
  5
1CE4
330
1C94
100
AcDbEntity
  8
0
 62
     0
100
AcDbLine
 10
3026.497719495143
 20
3070.821072006132
 30
0.0
 11
3032.01440994018
 21
3076.33776245117
 31
0.0
  0
LINE
  5
1CE5
330
1C94
100
AcDbEntity
  8
0
 62
     0
100
AcDbLine
 10
3026.445026602087
 20
3070.945155808382
 30
0.0
 11
3031.812994022772
 21
3076.313123229061
 31
0.0
  0
LINE
  5
1CE6
330
1C94
100
AcDbEntity
  8
0
 62
     0
100
AcDbLine
 10
3026.396877429273
 20
3071.073783330859
 30
0.0
 11
3031.607034385131
 21
3076.283940286717
 31
0.0
  0
LINE
  5
1CE7
330
1C94
100
AcDbEntity
  8
0
 62
     0
100
AcDbLine
 10
3026.353698550403
 20
3071.207381147287
 30
0.0
 11
3031.396104453539
 21
3076.249787050423
 31
0.0
  0
LINE
  5
1CE8
330
1C94
100
AcDbEntity
  8
0
 62
     0
100
AcDbLine
 10
3026.316004195193
 20
3071.346463487375
 30
0.0
 11
3031.179689998294
 21
3076.210149290476
 31
0.0
  0
LINE
  5
1CE9
330
1C94
100
AcDbEntity
  8
0
 62
     0
100
AcDbLine
 10
3026.284423585253
 20
3071.491659572734
 30
0.0
 11
3030.957161797778
 21
3076.164397785258
 31
0.0
  0
LINE
  5
1CEA
330
1C94
100
AcDbEntity
  8
0
 62
     0
100
AcDbLine
 10
3026.259740427835
 20
3071.643753110612
 30
0.0
 11
3030.727736144734
 21
3076.11174882752
 31
0.0
  0
LINE
  5
1CEB
330
1C94
100
AcDbEntity
  8
0
 62
     0
100
AcDbLine
 10
3026.242951932232
 20
3071.803741310308
 30
0.0
 11
3030.490415829881
 21
3076.051205207957
 31
0.0
  0
LINE
  5
1CEC
330
1C94
100
AcDbEntity
  8
0
 62
     0
100
AcDbLine
 10
3026.235360662175
 20
3071.972926735551
 30
0.0
 11
3030.243898289473
 21
3075.981464362849
 31
0.0
  0
LINE
  5
1CED
330
1C94
100
AcDbEntity
  8
0
 62
     0
100
AcDbLine
 10
3026.238724838513
 20
3072.153067607171
 30
0.0
 11
3029.986425302682
 21
3075.90076807134
 31
0.0
  0
LINE
  5
1CEE
330
1C94
100
AcDbEntity
  8
0
 62
     0
100
AcDbLine
 10
3026.255520366169
 20
3072.346639830124
 30
0.0
 11
3029.715520964565
 21
3075.806640428528
 31
0.0
  0
LINE
  5
1CEF
330
1C94
100
AcDbEntity
  8
0
 62
     0
100
AcDbLine
 10
3026.289437099738
 20
3072.557333258991
 30
0.0
 11
3029.427495420538
 21
3075.695391579793
 31
0.0
  0
LINE
  5
1CF0
330
1C94
100
AcDbEntity
  8
0
 62
     0
100
AcDbLine
 10
3026.346432033708
 20
3072.791104888252
 30
0.0
 11
3029.116391676135
 21
3075.56106453068
 31
0.0
  0
LINE
  5
1CF1
330
1C94
100
AcDbEntity
  8
0
 62
     0
100
AcDbLine
 10
3026.437373802777
 20
3073.058823352621
 30
0.0
 11
3028.771341096609
 21
3075.392790646445
 31
0.0
  0
LINE
  5
1CF2
330
1C94
100
AcDbEntity
  8
0
 62
     0
100
AcDbLine
 10
3026.586855018372
 20
3073.385081263506
 30
0.0
 11
3028.36775107056
 21
3075.165977315692
 31
0.0
  0
LINE
  5
1CF3
330
1C94
100
AcDbEntity
  8
0
 62
     0
100
AcDbLine
 10
3026.890564323425
 20
3073.865567263856
 30
0.0
 11
3027.809932955046
 21
3074.784935895484
 31
0.0
  0
ENDBLK
  5
1CF4
330
1C94
100
AcDbEntity
  8
0
100
AcDbBlockEnd
  0
BLOCK
  5
1CF6
330
1CF5
100
AcDbEntity
  8
0
100
AcDbBlockBegin
  2
*X27
 70
     1
 10
0.0
 20
0.0
 30
0.0
  3
*X27
  1

  0
LINE
  5
1CF7
330
1CF5
100
AcDbEntity
  8
0
 62
     0
100
AcDbLine
 10
3053.360758857256
 20
3082.127762182143
 30
0.0
 11
3055.047267925874
 21
3083.814271250754
 31
0.0
  0
LINE
  5
1CF8
330
1CF5
100
AcDbEntity
  8
0
 62
     0
100
AcDbLine
 10
3052.801617135432
 20
3081.745397155609
 30
0.0
 11
3055.4296329524
 21
3084.373412972585
 31
0.0
  0
LINE
  5
1CF9
330
1CF5
100
AcDbEntity
  8
0
 62
     0
100
AcDbLine
 10
3052.376015827489
 20
3081.496572542965
 30
0.0
 11
3055.678457565046
 21
3084.799014280521
 31
0.0
  0
LINE
  5
1CFA
330
1CF5
100
AcDbEntity
  8
0
 62
     0
100
AcDbLine
 10
3052.012499747921
 20
3081.309833158695
 30
0.0
 11
3055.865196949314
 21
3085.162530360096
 31
0.0
  0
LINE
  5
1CFB
330
1CF5
100
AcDbEntity
  8
0
 62
     0
100
AcDbLine
 10
3051.687248844987
 20
3081.161358951061
 30
0.0
 11
3056.01367115695
 21
3085.487781263022
 31
0.0
  0
LINE
  5
1CFC
330
1CF5
100
AcDbEntity
  8
0
 62
     0
100
AcDbLine
 10
3051.388778355117
 20
3081.039665156488
 30
0.0
 11
3056.135364951523
 21
3085.786251752892
 31
0.0
  0
LINE
  5
1CFD
330
1CF5
100
AcDbEntity
  8
0
 62
     0
100
AcDbLine
 10
3051.110494929214
 20
3080.938158425881
 30
0.0
 11
3056.236871682129
 21
3086.064535178804
 31
0.0
  0
LINE
  5
1CFE
330
1CF5
100
AcDbEntity
  8
0
 62
     0
100
AcDbLine
 10
3053.347458926211
 20
3083.351899118177
 30
0.0
 11
3056.322396203344
 21
3086.32683639531
 31
0.0
  0
LINE
  5
1CFF
330
1CF5
100
AcDbEntity
  8
0
 62
     0
100
AcDbLine
 10
3050.848193712699
 20
3080.852633904664
 30
0.0
 11
3052.070312392279
 21
3082.074752584245
 31
0.0
  0
LINE
  5
1D00
330
1CF5
100
AcDbEntity
  8
0
 62
     0
100
AcDbLine
 10
3053.811737980584
 20
3083.992954867848
 30
0.0
 11
3056.394817375236
 21
3086.576034262499
 31
0.0
  0
LINE
  5
1D01
330
1CF5
100
AcDbEntity
  8
0
 62
     0
100
AcDbLine
 10
3050.59899584551
 20
3080.780212732781
 30
0.0
 11
3051.429256642615
 21
3081.610473529879
 31
0.0
  0
LINE
  5
1D02
330
1CF5
100
AcDbEntity
  8
0
 62
     0
100
AcDbLine
 10
3054.086041988761
 20
3084.444035571323
 30
0.0
 11
3056.456210073753
 21
3086.814203656322
 31
0.0
  0
LINE
  5
1D03
330
1CF5
100
AcDbEntity
  8
0
 62
     0
100
AcDbLine
 10
3050.360826451695
 20
3080.718820034257
 30
0.0
 11
3050.978175939141
 21
3081.336169521703
 31
0.0
  0
LINE
  5
1D04
330
1CF5
100
AcDbEntity
  8
0
 62
     0
100
AcDbLine
 10
3054.286201650058
 20
3084.820971927918
 30
0.0
 11
3056.508129122878
 21
3087.042899400738
 31
0.0
  0
LINE
  5
1D05
330
1CF5
100
AcDbEntity
  8
0
 62
     0
100
AcDbLine
 10
3050.132130707272
 20
3080.666900985131
 30
0.0
 11
3050.601239582545
 21
3081.136009860406
 31
0.0
  0
LINE
  5
1D06
330
1CF5
100
AcDbEntity
  8
0
 62
     0
100
AcDbLine
 10
3054.443187597426
 20
3085.154734570591
 30
0.0
 11
3056.55177583274
 21
3087.263322805898
 31
0.0
  0
LINE
  5
1D07
330
1CF5
100
AcDbEntity
  8
0
 62
     0
100
AcDbLine
 10
3049.911707302111
 20
3080.623254275269
 30
0.0
 11
3050.267476939872
 21
3080.979023913029
 31
0.0
  0
LINE
  5
1D08
330
1CF5
100
AcDbEntity
  8
0
 62
     0
100
AcDbLine
 10
3054.570835929771
 20
3085.459159598235
 30
0.0
 11
3056.588101555548
 21
3087.476425224005
 31
0.0
  0
LINE
  5
1D09
330
1CF5
100
AcDbEntity
  8
0
 62
     0
100
AcDbLine
 10
3049.698604884004
 20
3080.58692855246
 30
0.0
 11
3049.963051912229
 21
3080.851375580685
 31
0.0
  0
LINE
  5
1D0A
330
1CF5
100
AcDbEntity
  8
0
 62
     0
100
AcDbLine
 10
3050.066929139974
 20
3081.132029503721
 30
0.0
 11
3050.893056887566
 21
3081.958157251305
 31
0.0
  0
LINE
  5
1D0B
330
1CF5
100
AcDbEntity
  8
0
 62
     0
100
AcDbLine
 10
3054.676769315658
 20
3085.741869679397
 30
0.0
 11
3056.61787515317
 21
3087.682975516909
 31
0.0
  0
LINE
  5
1D0C
330
1CF5
100
AcDbEntity
  8
0
 62
     0
100
AcDbLine
 10
3049.492054591086
 20
3080.557154954826
 30
0.0
 11
3049.680341831053
 21
3080.745442194791
 31
0.0
  0
LINE
  5
1D0D
330
1CF5
100
AcDbEntity
  8
0
 62
     0
100
AcDbLine
 10
3049.569004742712
 20
3080.81088180175
 30
0.0
 11
3051.214204589538
 21
3082.456081648575
 31
0.0
  0
LINE
  5
1D0E
330
1CF5
100
AcDbEntity
  8
0
 62
     0
100
AcDbLine
 10
3054.765723320503
 20
3086.00760037954
 30
0.0
 11
3056.641728663461
 21
3087.883605722498
 31
0.0
  0
LINE
  5
1D0F
330
1CF5
100
AcDbEntity
  8
0
 62
     0
100
AcDbLine
 10
3049.291424385496
 20
3080.533301444535
 30
0.0
 11
3049.414611130909
 21
3080.656488189946
 31
0.0
  0
LINE
  5
1D10
330
1CF5
100
AcDbEntity
  8
0
 62
     0
100
AcDbLine
 10
3049.22289483661
 20
3080.641548590953
 30
0.0
 11
3051.383537800335
 21
3082.802191554669
 31
0.0
  0
LINE
  5
1D11
330
1CF5
100
AcDbEntity
  8
0
 62
     0
100
AcDbLine
 10
3054.840881540964
 20
3086.259535295299
 30
0.0
 11
3056.660189210488
 21
3088.078842964831
 31
0.0
  0
LINE
  5
1D12
330
1CF5
100
AcDbEntity
  8
0
 62
     0
100
AcDbLine
 10
3049.096187143164
 20
3080.514840897507
 30
0.0
 11
3049.16267621515
 21
3080.581329969485
 31
0.0
  0
LINE
  5
1D13
330
1CF5
100
AcDbEntity
  8
0
 62
     0
100
AcDbLine
 10
3048.933464098095
 20
3080.528894547728
 30
0.0
 11
3051.496191843551
 21
3083.091622293185
 31
0.0
  0
LINE
  5
1D14
330
1CF5
100
AcDbEntity
  8
0
 62
     0
100
AcDbLine
 10
3054.904507787338
 20
3086.499938236971
 30
0.0
 11
3056.673701912462
 21
3088.269132362104
 31
0.0
  0
LINE
  5
1D15
330
1CF5
100
AcDbEntity
  8
0
 62
     0
100
AcDbLine
 10
3048.905897745891
 20
3080.501328195532
 30
0.0
 11
3048.922273273478
 21
3080.517703723111
 31
0.0
  0
LINE
  5
1D16
330
1CF5
100
AcDbEntity
  8
0
 62
     0
100
AcDbLine
 10
3054.958280970057
 20
3086.730488114975
 30
0.0
 11
3056.682646712783
 21
3088.454853857707
 31
0.0
  0
LINE
  5
1D17
330
1CF5
100
AcDbEntity
  8
0
 62
     0
100
AcDbLine
 10
3048.691723395474
 20
3080.463930540398
 30
0.0
 11
3051.575945485376
 21
3083.348152630293
 31
0.0
  0
LINE
  5
1D18
330
1CF5
100
AcDbEntity
  8
0
 62
     0
100
AcDbLine
 10
3055.003487642454
 20
3086.952471482669
 30
0.0
 11
3056.687350997535
 21
3088.636334837756
 31
0.0
  0
LINE
  5
1D19
330
1CF5
100
AcDbEntity
  8
0
 62
     0
100
AcDbLine
 10
3048.46974002778
 20
3080.418723868001
 30
0.0
 11
3051.633236567184
 21
3083.5822204074
 31
0.0
  0
LINE
  5
1D1A
330
1CF5
100
AcDbEntity
  8
0
 62
     0
100
AcDbLine
 10
3055.041139867054
 20
3087.166900402575
 30
0.0
 11
3056.688099222789
 21
3088.813859758301
 31
0.0
  0
LINE
  5
1D1B
330
1CF5
100
AcDbEntity
  8
0
 62
     0
100
AcDbLine
 10
3048.255311107881
 20
3080.381071643394
 30
0.0
 11
3051.673768488712
 21
3083.799529024224
 31
0.0
  0
LINE
  5
1D1C
330
1CF5
100
AcDbEntity
  8
0
 62
     0
100
AcDbLine
 10
3055.072051042952
 20
3087.374588273764
 30
0.0
 11
3056.685140375644
 21
3088.987677606456
 31
0.0
  0
LINE
  5
1D1D
330
1CF5
100
AcDbEntity
  8
0
 62
     0
100
AcDbLine
 10
3048.047623236678
 20
3080.350160467489
 30
0.0
 11
3051.70106773574
 21
3084.003604966551
 31
0.0
  0
LINE
  5
1D1E
330
1CF5
100
AcDbEntity
  8
0
 62
     0
100
AcDbLine
 10
3055.096886698899
 20
3087.576200625008
 30
0.0
 11
3056.678693837341
 21
3089.158007763457
 31
0.0
  0
LINE
  5
1D1F
330
1CF5
100
AcDbEntity
  8
0
 62
     0
100
AcDbLine
 10
3047.846010885442
 20
3080.32532481155
 30
0.0
 11
3051.71749743414
 21
3084.196811360249
 31
0.0
  0
LINE
  5
1D20
330
1CF5
100
AcDbEntity
  8
0
 62
     0
100
AcDbLine
 10
3055.116199677081
 20
3087.772290298488
 30
0.0
 11
3056.668954048313
 21
3089.32504466972
 31
0.0
  0
LINE
  5
1D21
330
1CF5
100
AcDbEntity
  8
0
 62
     0
100
AcDbLine
 10
3047.649921211952
 20
3080.306011833366
 30
0.0
 11
3051.723364547884
 21
3084.379455169293
 31
0.0
  0
LINE
  5
1D22
330
1CF5
100
AcDbEntity
  8
0
 62
     0
100
AcDbLine
 10
3055.130455203857
 20
3087.963322520569
 30
0.0
 11
3056.656094261859
 21
3089.488961578572
 31
0.0
  0
LINE
  5
1D23
330
1CF5
100
AcDbEntity
  8
0
 62
     0
100
AcDbLine
 10
3047.468203179974
 20
3080.301070496687
 30
0.0
 11
3051.706025141617
 21
3084.538892458324
 31
0.0
  0
LINE
  5
1D24
330
1CF5
100
AcDbEntity
  8
0
 62
     0
100
AcDbLine
 10
3055.140049191905
 20
3088.149693203908
 30
0.0
 11
3056.640269595249
 21
3089.649913607261
 31
0.0
  0
LINE
  5
1D25
330
1CF5
100
AcDbEntity
  8
0
 62
     0
100
AcDbLine
 10
3047.299150535204
 20
3080.308794547207
 30
0.0
 11
3051.686171219757
 21
3084.695815231767
 31
0.0
  0
LINE
  5
1D26
330
1CF5
100
AcDbEntity
  8
0
 62
     0
100
AcDbLine
 10
3055.145321884098
 20
3088.331742591399
 30
0.0
 11
3056.621619532736
 21
3089.808040240038
 31
0.0
  0
LINE
  5
1D27
330
1CF5
100
AcDbEntity
  8
0
 62
     0
100
AcDbLine
 10
3047.136361487412
 20
3080.322782194722
 30
0.0
 11
3051.663902601373
 21
3084.850323308673
 31
0.0
  0
LINE
  5
1D28
330
1CF5
100
AcDbEntity
  8
0
 62
     0
100
AcDbLine
 10
3055.146568212848
 20
3088.509765615447
 30
0.0
 11
3056.600269996379
 21
3089.963467398979
 31
0.0
  0
LINE
  5
1D29
330
1CF5
100
AcDbEntity
  8
0
 62
     0
100
AcDbLine
 10
3046.979241478235
 20
3080.342438880834
 30
0.0
 11
3051.639310640312
 21
3085.002508042919
 31
0.0
  0
LINE
  5
1D2A
330
1CF5
100
AcDbEntity
  8
0
 62
     0
100
AcDbLine
 10
3055.144045793495
 20
3088.684019891392
 30
0.0
 11
3056.576335072568
 21
3090.116309170465
 31
0.0
  0
LINE
  5
1D2B
330
1CF5
100
AcDbEntity
  8
0
 62
     0
100
AcDbLine
 10
3046.827306481311
 20
3080.367280579207
 30
0.0
 11
3051.6124791615
 21
3085.152453259405
 31
0.0
  0
LINE
  5
1D2C
330
1CF5
100
AcDbEntity
  8
0
 62
     0
100
AcDbLine
 10
3055.137981181469
 20
3088.854731974665
 30
0.0
 11
3056.549918461685
 21
3090.266669254881
 31
0.0
  0
LINE
  5
1D2D
330
1CF5
100
AcDbEntity
  8
0
 62
     0
100
AcDbLine
 10
3046.680156922688
 20
3080.396907715892
 30
0.0
 11
3051.583485265757
 21
3085.300236058952
 31
0.0
  0
LINE
  5
1D2E
330
1CF5
100
AcDbEntity
  8
0
 62
     0
100
AcDbLine
 10
3055.128574833455
 20
3089.022102321949
 30
0.0
 11
3056.521114703369
 21
3090.414642191863
 31
0.0
  0
LINE
  5
1D2F
330
1CF5
100
AcDbEntity
  8
0
 62
     0
100
AcDbLine
 10
3046.537459122308
 20
3080.4309866108
 30
0.0
 11
3051.552400025001
 21
3085.445927513494
 31
0.0
  0
LINE
  5
1D30
330
1CF5
100
AcDbEntity
  8
0
 62
     0
100
AcDbLine
 10
3055.116005086784
 20
3089.186309270575
 30
0.0
 11
3056.490010218404
 21
3090.560314402194
 31
0.0
  0
LINE
  5
1D31
330
1CF5
100
AcDbEntity
  8
0
 62
     0
100
AcDbLine
 10
3046.398931765958
 20
3080.469235949749
 30
0.0
 11
3051.519289085597
 21
3085.589593269389
 31
0.0
  0
LINE
  5
1D32
330
1CF5
100
AcDbEntity
  8
0
 62
     0
100
AcDbLine
 10
3055.100431384723
 20
3089.347512263811
 30
0.0
 11
3056.456684199598
 21
3090.703765078687
 31
0.0
  0
LINE
  5
1D33
330
1CF5
100
AcDbEntity
  8
0
 62
     0
100
AcDbLine
 10
3046.264335838785
 20
3080.511416717883
 30
0.0
 11
3051.484213194147
 21
3085.731294073244
 31
0.0
  0
LINE
  5
1D34
330
1CF5
100
AcDbEntity
  8
0
 62
     0
100
AcDbLine
 10
3055.081996915534
 20
3089.505854489929
 30
0.0
 11
3056.421209377535
 21
3090.845066951922
 31
0.0
  0
LINE
  5
1D35
330
1CF5
100
AcDbEntity
  8
0
 62
     0
100
AcDbLine
 10
3046.133467000261
 20
3080.557324574656
 30
0.0
 11
3051.447228657554
 21
3085.871086231949
 31
0.0
  0
LINE
  5
1D36
330
1CF5
100
AcDbEntity
  8
0
 62
     0
100
AcDbLine
 10
3055.060830790666
 20
3089.661465060351
 30
0.0
 11
3056.383652681972
 21
3090.984286951658
 31
0.0
  0
LINE
  5
1D37
330
1CF5
100
AcDbEntity
  8
0
 62
     0
100
AcDbLine
 10
3046.006149719098
 20
3080.606783988784
 30
0.0
 11
3051.408387747069
 21
3086.009022016755
 31
0.0
  0
LINE
  5
1D38
330
1CF5
100
AcDbEntity
  8
0
 62
     0
100
AcDbLine
 10
3055.037049856699
 20
3089.814460821668
 30
0.0
 11
3056.344075815673
 21
3091.121486780649
 31
0.0
  0
LINE
  5
1D39
330
1CF5
100
AcDbEntity
  8
0
 62
     0
100
AcDbLine
 10
3045.882232701974
 20
3080.659643666942
 30
0.0
 11
3051.365442724338
 21
3086.142853689314
 31
0.0
  0
LINE
  5
1D3A
330
1CF5
100
AcDbEntity
  8
0
 62
     0
100
AcDbLine
 10
3055.010760213801
 20
3089.964947874068
 30
0.0
 11
3056.302535754308
 21
3091.256723414576
 31
0.0
  0
LINE
  5
1D3B
330
1CF5
100
AcDbEntity
  8
0
 62
     0
100
AcDbLine
 10
3045.76158529034
 20
3080.715772950608
 30
0.0
 11
3051.309313440681
 21
3086.263501100948
 31
0.0
  0
LINE
  5
1D3C
330
1CF5
100
AcDbEntity
  8
0
 62
     0
100
AcDbLine
 10
3054.982058496658
 20
3090.113022852223
 30
0.0
 11
3056.259085183686
 21
3091.390049539251
 31
0.0
  0
LINE
  5
1D3D
330
1CF5
100
AcDbEntity
  8
0
 62
     0
100
AcDbLine
 10
3045.644094593213
 20
3080.775058948785
 30
0.0
 11
3051.250027442502
 21
3086.380991798069
 31
0.0
  0
LINE
  5
1D3E
330
1CF5
100
AcDbEntity
  8
0
 62
     0
100
AcDbLine
 10
3054.95103296182
 20
3090.258774012684
 30
0.0
 11
3056.213772883551
 21
3091.521513934414
 31
0.0
  0
LINE
  5
1D3F
330
1CF5
100
AcDbEntity
  8
0
 62
     0
100
AcDbLine
 10
3045.529663188455
 20
3080.837404239326
 30
0.0
 11
3051.187682151962
 21
3086.495423202824
 31
0.0
  0
LINE
  5
1D40
330
1CF5
100
AcDbEntity
  8
0
 62
     0
100
AcDbLine
 10
3054.917764415943
 20
3090.402282162089
 30
0.0
 11
3056.166644065597
 21
3091.651161811744
 31
0.0
  0
LINE
  5
1D41
330
1CF5
100
AcDbEntity
  8
0
 62
     0
100
AcDbLine
 10
3045.418207269264
 20
3080.902725015409
 30
0.0
 11
3051.122361375885
 21
3086.606879122032
 31
0.0
  0
LINE
  5
1D42
330
1CF5
100
AcDbEntity
  8
0
 62
     0
100
AcDbLine
 10
3054.882327012419
 20
3090.543621453865
 30
0.0
 11
3056.117740672009
 21
3091.779035113452
 31
0.0
  0
LINE
  5
1D43
330
1CF5
100
AcDbEntity
  8
0
 62
     0
100
AcDbLine
 10
3045.309655144461
 20
3080.970949585906
 30
0.0
 11
3051.054136805388
 21
3086.715431246841
 31
0.0
  0
LINE
  5
1D44
330
1CF5
100
AcDbEntity
  8
0
 62
     0
100
AcDbLine
 10
3054.84478893863
 20
3090.682860075371
 30
0.0
 11
3056.067101640117
 21
3091.905172776867
 31
0.0
  0
LINE
  5
1D45
330
1CF5
100
AcDbEntity
  8
0
 62
     0
100
AcDbLine
 10
3045.203946024136
 20
3081.042017160879
 30
0.0
 11
3050.983069230416
 21
3086.821140367167
 31
0.0
  0
LINE
  5
1D46
330
1CF5
100
AcDbEntity
  8
0
 62
     0
100
AcDbLine
 10
3054.80521301119
 20
3090.820060843232
 30
0.0
 11
3056.014763137369
 21
3092.029610969411
 31
0.0
  0
LINE
  5
1D47
330
1CF5
100
AcDbEntity
  8
0
 62
     0
100
AcDbLine
 10
3045.101029038516
 20
3081.115876870557
 30
0.0
 11
3050.909209520737
 21
3086.924057352787
 31
0.0
  0
LINE
  5
1D48
330
1CF5
100
AcDbEntity
  8
0
 62
     0
100
AcDbLine
 10
3054.763657194015
 20
3090.955281721354
 30
0.0
 11
3055.960758770555
 21
3092.1523832979
 31
0.0
  0
LINE
  5
1D49
330
1CF5
100
AcDbEntity
  8
0
 62
     0
100
AcDbLine
 10
3045.000862450943
 20
3081.192486978288
 30
0.0
 11
3050.832599413013
 21
3087.024223940352
 31
0.0
  0
LINE
  5
1D4A
330
1CF5
100
AcDbEntity
  8
0
 62
     0
100
AcDbLine
 10
3054.720175050912
 20
3091.088576273548
 30
0.0
 11
3055.905119772644
 21
3092.273520995281
 31
0.0
  0
LINE
  5
1D4B
330
1CF5
100
AcDbEntity
  8
0
 62
     0
100
AcDbLine
 10
3044.903413034946
 20
3081.271814257583
 30
0.0
 11
3050.753272133712
 21
3087.121673356356
 31
0.0
  0
LINE
  5
1D4C
330
1CF5
100
AcDbEntity
  8
0
 62
     0
100
AcDbLine
 10
3054.67481614228
 20
3091.219994060215
 30
0.0
 11
3055.847875169682
 21
3092.393053087624
 31
0.0
  0
LINE
  5
1D4D
330
1CF5
100
AcDbEntity
  8
0
 62
     0
100
AcDbLine
 10
3044.808655592904
 20
3081.353833510839
 30
0.0
 11
3050.671252880464
 21
3087.216430798398
 31
0.0
  0
LINE
  5
1D4E
330
1CF5
100
AcDbEntity
  8
0
 62
     0
100
AcDbLine
 10
3054.627626374269
 20
3091.349580987501
 30
0.0
 11
3055.785004885802
 21
3092.506959499042
 31
0.0
  0
LINE
  5
1D4F
330
1CF5
100
AcDbEntity
  8
0
 62
     0
100
AcDbLine
 10
3044.716572599564
 20
3081.438527212805
 30
0.0
 11
3050.586559178496
 21
3087.308513791729
 31
0.0
  0
LINE
  5
1D50
330
1CF5
100
AcDbEntity
  8
0
 62
     0
100
AcDbLine
 10
3054.578648306816
 20
3091.477379615346
 30
0.0
 11
3055.697701741803
 21
3092.596433050341
 31
0.0
  0
LINE
  5
1D51
330
1CF5
100
AcDbEntity
  8
0
 62
     0
100
AcDbLine
 10
3044.627153958478
 20
3081.525885267016
 30
0.0
 11
3050.499201124285
 21
3087.397932432816
 31
0.0
  0
LINE
  5
1D52
330
1CF5
100
AcDbEntity
  8
0
 62
     0
100
AcDbLine
 10
3054.527921426371
 20
3091.603429430201
 30
0.0
 11
3055.595877238185
 21
3092.671385242014
 31
0.0
  0
LINE
  5
1D53
330
1CF5
100
AcDbEntity
  8
0
 62
     0
100
AcDbLine
 10
3044.540396863194
 20
3081.61590486703
 30
0.0
 11
3050.409181524272
 21
3087.4846895281
 31
0.0
  0
LINE
  5
1D54
330
1CF5
100
AcDbEntity
  8
0
 62
     0
100
AcDbLine
 10
3054.475482387896
 20
3091.727767087024
 30
0.0
 11
3055.478366023322
 21
3092.730650722456
 31
0.0
  0
LINE
  5
1D55
330
1CF5
100
AcDbEntity
  8
0
 62
     0
100
AcDbLine
 10
3044.456305758947
 20
3081.708590458073
 30
0.0
 11
3050.316495933228
 21
3087.568780632355
 31
0.0
  0
LINE
  5
1D56
330
1CF5
100
AcDbEntity
  8
0
 62
     0
100
AcDbLine
 10
3054.434400583224
 20
3091.863461977657
 30
0.0
 11
3055.342158490486
 21
3092.771219884911
 31
0.0
  0
LINE
  5
1D57
330
1CF5
100
AcDbEntity
  8
0
 62
     0
100
AcDbLine
 10
3044.374892403422
 20
3081.803953797848
 30
0.0
 11
3050.221132593447
 21
3087.650193987879
 31
0.0
  0
LINE
  5
1D58
330
1CF5
100
AcDbEntity
  8
0
 62
     0
100
AcDbLine
 10
3054.419514814282
 20
3092.025352904006
 30
0.0
 11
3055.18026756413
 21
3092.786105653853
 31
0.0
  0
LINE
  5
1D59
330
1CF5
100
AcDbEntity
  8
0
 62
     0
100
AcDbLine
 10
3044.296176028707
 20
3081.902014118437
 30
0.0
 11
3050.123072272865
 21
3087.728910362588
 31
0.0
  0
LINE
  5
1D5A
330
1CF5
100
AcDbEntity
  8
0
 62
     0
100
AcDbLine
 10
3054.451231312842
 20
3092.233846097864
 30
0.0
 11
3054.971774370264
 21
3092.754389155285
 31
0.0
  0
LINE
  5
1D5B
330
1CF5
100
AcDbEntity
  8
0
 62
     0
100
AcDbLine
 10
3044.220183609505
 20
3082.002798394525
 30
0.0
 11
3050.022287996776
 21
3087.804902781797
 31
0.0
  0
LINE
  5
1D5C
330
1CF5
100
AcDbEntity
  8
0
 62
     0
100
AcDbLine
 10
3044.146950246584
 20
3082.106341726903
 30
0.0
 11
3049.918744664398
 21
3087.878136144718
 31
0.0
  0
LINE
  5
1D5D
330
1CF5
100
AcDbEntity
  8
0
 62
     0
100
AcDbLine
 10
3044.07651967847
 20
3082.212687854095
 30
0.0
 11
3049.812398537207
 21
3087.948566712825
 31
0.0
  0
LINE
  5
1D5E
330
1CF5
100
AcDbEntity
  8
0
 62
     0
100
AcDbLine
 10
3044.008944939175
 20
3082.321889810089
 30
0.0
 11
3049.703196581205
 21
3088.016141452129
 31
0.0
  0
LINE
  5
1D5F
330
1CF5
100
AcDbEntity
  8
0
 62
     0
100
AcDbLine
 10
3043.944289186147
 20
3082.434010752345
 30
0.0
 11
3049.591075638942
 21
3088.08079720514
 31
0.0
  0
LINE
  5
1D60
330
1CF5
100
AcDbEntity
  8
0
 62
     0
100
AcDbLine
 10
3043.882626730185
 20
3082.549124991681
 30
0.0
 11
3049.475961399605
 21
3088.142459661103
 31
0.0
  0
LINE
  5
1D61
330
1CF5
100
AcDbEntity
  8
0
 62
     0
100
AcDbLine
 10
3043.824044309221
 20
3082.667319266017
 30
0.0
 11
3049.357767125271
 21
3088.201042082066
 31
0.0
  0
LINE
  5
1D62
330
1CF5
100
AcDbEntity
  8
0
 62
     0
100
AcDbLine
 10
3043.768642661182
 20
3082.788694313261
 30
0.0
 11
3049.236392078032
 21
3088.256443730112
 31
0.0
  0
LINE
  5
1D63
330
1CF5
100
AcDbEntity
  8
0
 62
     0
100
AcDbLine
 10
3043.716538468979
 20
3082.913366816356
 30
0.0
 11
3049.111719574947
 21
3088.308547922324
 31
0.0
  0
LINE
  5
1D64
330
1CF5
100
AcDbEntity
  8
0
 62
     0
100
AcDbLine
 10
3043.667866775555
 20
3083.041471818229
 30
0.0
 11
3048.983614573073
 21
3088.357219615748
 31
0.0
  0
LINE
  5
1D65
330
1CF5
100
AcDbEntity
  8
0
 62
     0
100
AcDbLine
 10
3043.622784000559
 20
3083.173165738533
 30
0.0
 11
3048.851920652763
 21
3088.402302390734
 31
0.0
  0
LINE
  5
1D66
330
1CF5
100
AcDbEntity
  8
0
 62
     0
100
AcDbLine
 10
3043.581471739097
 20
3083.308630172367
 30
0.0
 11
3048.716456218928
 21
3088.443614652206
 31
0.0
  0
LINE
  5
1D67
330
1CF5
100
AcDbEntity
  8
0
 62
     0
100
AcDbLine
 10
3043.54414159245
 20
3083.448076721019
 30
0.0
 11
3048.577009670283
 21
3088.480944798852
 31
0.0
  0
LINE
  5
1D68
330
1CF5
100
AcDbEntity
  8
0
 62
     0
100
AcDbLine
 10
3043.511041383455
 20
3083.591753207322
 30
0.0
 11
3048.433333183981
 21
3088.514045007848
 31
0.0
  0
LINE
  5
1D69
330
1CF5
100
AcDbEntity
  8
0
 62
     0
100
AcDbLine
 10
3043.482463263455
 20
3083.73995178262
 30
0.0
 11
3048.285134608675
 21
3088.542623127848
 31
0.0
  0
LINE
  5
1D6A
330
1CF5
100
AcDbEntity
  8
0
 62
     0
100
AcDbLine
 10
3043.458754455671
 20
3083.893019670133
 30
0.0
 11
3048.132066721163
 21
3088.566331935632
 31
0.0
  0
LINE
  5
1D6B
330
1CF5
100
AcDbEntity
  8
0
 62
     0
100
AcDbLine
 10
3043.440331756187
 20
3084.051373665956
 30
0.0
 11
3047.973712725346
 21
3088.584754635107
 31
0.0
  0
LINE
  5
1D6C
330
1CF5
100
AcDbEntity
  8
0
 62
     0
100
AcDbLine
 10
3043.427701529253
 20
3084.215520134312
 30
0.0
 11
3047.80956625699
 21
3088.597384862048
 31
0.0
  0
LINE
  5
1D6D
330
1CF5
100
AcDbEntity
  8
0
 62
     0
100
AcDbLine
 10
3043.421487974483
 20
3084.386083274838
 30
0.0
 11
3047.639003116463
 21
3088.603598416819
 31
0.0
  0
LINE
  5
1D6E
330
1CF5
100
AcDbEntity
  8
0
 62
     0
100
AcDbLine
 10
3043.422474281338
 20
3084.563846276993
 30
0.0
 11
3047.461240114301
 21
3088.602612109964
 31
0.0
  0
LINE
  5
1D6F
330
1CF5
100
AcDbEntity
  8
0
 62
     0
100
AcDbLine
 10
3043.431664689087
 20
3084.749813380046
 30
0.0
 11
3047.275273011254
 21
3088.593421702209
 31
0.0
  0
LINE
  5
1D70
330
1CF5
100
AcDbEntity
  8
0
 62
     0
100
AcDbLine
 10
3043.450382151911
 20
3084.945307538167
 30
0.0
 11
3047.079778853134
 21
3088.574704239384
 31
0.0
  0
LINE
  5
1D71
330
1CF5
100
AcDbEntity
  8
0
 62
     0
100
AcDbLine
 10
3043.480430390323
 20
3085.152132471877
 30
0.0
 11
3046.872953919423
 21
3088.544656000973
 31
0.0
  0
LINE
  5
1D72
330
1CF5
100
AcDbEntity
  8
0
 62
     0
100
AcDbLine
 10
3043.524381544433
 20
3085.372860321287
 30
0.0
 11
3046.652226070015
 21
3088.500704846862
 31
0.0
  0
LINE
  5
1D73
330
1CF5
100
AcDbEntity
  8
0
 62
     0
100
AcDbLine
 10
3043.586134460193
 20
3085.611389932339
 30
0.0
 11
3046.413696458963
 21
3088.438951931107
 31
0.0
  0
LINE
  5
1D74
330
1CF5
100
AcDbEntity
  8
0
 62
     0
100
AcDbLine
 10
3043.672141948075
 20
3085.874174115502
 30
0.0
 11
3046.150912275777
 21
3088.352944443206
 31
0.0
  0
LINE
  5
1D75
330
1CF5
100
AcDbEntity
  8
0
 62
     0
100
AcDbLine
 10
3043.794669292415
 20
3086.173478155149
 30
0.0
 11
3045.851608236137
 21
3088.230417098865
 31
0.0
  0
LINE
  5
1D76
330
1CF5
100
AcDbEntity
  8
0
 62
     0
100
AcDbLine
 10
3043.983885365691
 20
3086.539470923722
 30
0.0
 11
3045.485615467565
 21
3088.041201025589
 31
0.0
  0
LINE
  5
1D77
330
1CF5
100
AcDbEntity
  8
0
 62
     0
100
AcDbLine
 10
3044.413505471748
 20
3087.145867725054
 30
0.0
 11
3044.879218666247
 21
3087.611580919554
 31
0.0
  0
ENDBLK
  5
1D78
330
1CF5
100
AcDbEntity
  8
0
100
AcDbBlockEnd
  0
BLOCK
  5
1D7A
330
1D79
100
AcDbEntity
  8
0
100
AcDbBlockBegin
  2
*X28
 70
     1
 10
0.0
 20
0.0
 30
0.0
  3
*X28
  1

  0
LINE
  5
1D7B
330
1D79
100
AcDbEntity
  8
0
 62
     0
100
AcDbLine
 10
3021.961744901105
 20
3087.06959138561
 30
0.0
 11
3021.492878118217
 21
3087.532129491047
 31
0.0
  0
LINE
  5
1D7C
330
1D79
100
AcDbEntity
  8
0
 62
     0
100
AcDbLine
 10
3022.395475318691
 20
3086.466127682433
 30
0.0
 11
3020.883576214393
 21
3087.957619451161
 31
0.0
  0
LINE
  5
1D7D
330
1D79
100
AcDbEntity
  8
0
 62
     0
100
AcDbLine
 10
3022.587173801657
 20
3086.101429011403
 30
0.0
 11
3020.516306245154
 21
3088.144344379157
 31
0.0
  0
LINE
  5
1D7E
330
1D79
100
AcDbEntity
  8
0
 62
     0
100
AcDbLine
 10
3022.711731971343
 20
3085.802964406088
 30
0.0
 11
3020.216176589239
 21
3088.264835241418
 31
0.0
  0
LINE
  5
1D7F
330
1D79
100
AcDbEntity
  8
0
 62
     0
100
AcDbLine
 10
3022.799522989445
 20
3085.54077067611
 30
0.0
 11
3019.952814084871
 21
3088.349055228354
 31
0.0
  0
LINE
  5
1D80
330
1D79
100
AcDbEntity
  8
0
 62
     0
100
AcDbLine
 10
3022.862895194986
 20
3085.302666158051
 30
0.0
 11
3019.713870393061
 21
3088.409186003358
 31
0.0
  0
LINE
  5
1D81
330
1D79
100
AcDbEntity
  8
0
 62
     0
100
AcDbLine
 10
3022.908345093826
 20
3085.082242034717
 30
0.0
 11
3019.492849007983
 21
3088.451636383652
 31
0.0
  0
LINE
  5
1D82
330
1D79
100
AcDbEntity
  8
0
 62
     0
100
AcDbLine
 10
3022.939797933017
 20
3084.875626041285
 30
0.0
 11
3019.285824682527
 21
3088.48027863403
 31
0.0
  0
LINE
  5
1D83
330
1D79
100
AcDbEntity
  8
0
 62
     0
100
AcDbLine
 10
3022.959843270006
 20
3084.680263573711
 30
0.0
 11
3019.090207859298
 21
3088.49766735857
 31
0.0
  0
LINE
  5
1D84
330
1D79
100
AcDbEntity
  8
0
 62
     0
100
AcDbLine
 10
3022.970297039224
 20
3084.494363208672
 30
0.0
 11
3018.904182603814
 21
3088.505593980546
 31
0.0
  0
LINE
  5
1D85
330
1D79
100
AcDbEntity
  8
0
 62
     0
100
AcDbLine
 10
3022.972491153283
 20
3084.316611011506
 30
0.0
 11
3018.726417003519
 21
3088.50537243468
 31
0.0
  0
LINE
  5
1D86
330
1D79
100
AcDbEntity
  8
0
 62
     0
100
AcDbLine
 10
3022.96743665167
 20
3084.14600958951
 30
0.0
 11
3018.555900018866
 21
3088.498000113606
 31
0.0
  0
LINE
  5
1D87
330
1D79
100
AcDbEntity
  8
0
 62
     0
100
AcDbLine
 10
3022.955922027227
 20
3083.981781092814
 30
0.0
 11
3018.391843157042
 21
3088.484254867275
 31
0.0
  0
LINE
  5
1D88
330
1D79
100
AcDbEntity
  8
0
 62
     0
100
AcDbLine
 10
3022.938575706386
 20
3083.823305577345
 30
0.0
 11
3018.233617991644
 21
3088.464756639681
 31
0.0
  0
LINE
  5
1D89
330
1D79
100
AcDbEntity
  8
0
 62
     0
100
AcDbLine
 10
3022.915907482216
 20
3083.670080131137
 30
0.0
 11
3018.08071472955
 21
3088.440008342856
 31
0.0
  0
LINE
  5
1D8A
330
1D79
100
AcDbEntity
  8
0
 62
     0
100
AcDbLine
 10
3022.888336973184
 20
3083.521690799658
 30
0.0
 11
3017.932713752343
 21
3088.410423931265
 31
0.0
  0
LINE
  5
1D8B
330
1D79
100
AcDbEntity
  8
0
 62
     0
100
AcDbLine
 10
3022.856213753701
 20
3083.377792726984
 30
0.0
 11
3017.789265485561
 21
3088.376348260914
 31
0.0
  0
LINE
  5
1D8C
330
1D79
100
AcDbEntity
  8
0
 62
     0
100
AcDbLine
 10
3022.819831953449
 20
3083.238095753535
 30
0.0
 11
3017.650075799574
 21
3088.3380714913
 31
0.0
  0
LINE
  5
1D8D
330
1D79
100
AcDbEntity
  8
0
 62
     0
100
AcDbLine
 10
3022.779441073383
 20
3083.102353746077
 30
0.0
 11
3017.514895193373
 21
3088.295839755723
 31
0.0
  0
LINE
  5
1D8E
330
1D79
100
AcDbEntity
  8
0
 62
     0
100
AcDbLine
 10
3022.735254147673
 20
3082.970356545949
 30
0.0
 11
3017.383510632848
 21
3088.249863212789
 31
0.0
  0
LINE
  5
1D8F
330
1D79
100
AcDbEntity
  8
0
 62
     0
100
AcDbLine
 10
3022.687454001061
 20
3082.84192379612
 30
0.0
 11
3017.255739293192
 21
3088.200322219584
 31
0.0
  0
LINE
  5
1D90
330
1D79
100
AcDbEntity
  8
0
 62
     0
100
AcDbLine
 10
3022.636198112428
 20
3082.716900143335
 30
0.0
 11
3017.131423695559
 21
3088.1473721293
 31
0.0
  0
LINE
  5
1D91
330
1D79
100
AcDbEntity
  8
0
 62
     0
100
AcDbLine
 10
3022.581622439153
 20
3082.595151465378
 30
0.0
 11
3017.010427882595
 21
3088.091147064231
 31
0.0
  0
LINE
  5
1D92
330
1D79
100
AcDbEntity
  8
0
 62
     0
100
AcDbLine
 10
3022.523844454276
 20
3082.476561874784
 30
0.0
 11
3016.892634381205
 21
3088.031762911763
 31
0.0
  0
LINE
  5
1D93
330
1D79
100
AcDbEntity
  8
0
 62
     0
100
AcDbLine
 10
3022.462965577884
 20
3082.361031320477
 30
0.0
 11
3016.777941771361
 21
3087.969319723038
 31
0.0
  0
LINE
  5
1D94
330
1D79
100
AcDbEntity
  8
0
 62
     0
100
AcDbLine
 10
3022.399073135217
 20
3082.24847365584
 30
0.0
 11
3016.666262727762
 21
3087.903903644605
 31
0.0
  0
LINE
  5
1D95
330
1D79
100
AcDbEntity
  8
0
 62
     0
100
AcDbLine
 10
3022.332241940312
 20
3082.138815076731
 30
0.0
 11
3016.557522436429
 21
3087.835588480658
 31
0.0
  0
LINE
  5
1D96
330
1D79
100
AcDbEntity
  8
0
 62
     0
100
AcDbLine
 10
3022.262535578264
 20
3082.031992856281
 30
0.0
 11
3016.451657312208
 21
3087.764436958074
 31
0.0
  0
LINE
  5
1D97
330
1D79
100
AcDbEntity
  8
0
 62
     0
100
AcDbLine
 10
3011.889679947053
 20
3092.089249894357
 30
0.0
 11
3011.365612019478
 21
3092.606244049602
 31
0.0
  0
LINE
  5
1D98
330
1D79
100
AcDbEntity
  8
0
 62
     0
100
AcDbLine
 10
3022.190007442215
 20
3081.927954322039
 30
0.0
 11
3016.348613961993
 21
3087.690501749253
 31
0.0
  0
LINE
  5
1D99
330
1D79
100
AcDbEntity
  8
0
 62
     0
100
AcDbLine
 10
3011.922812343073
 20
3091.880977014465
 30
0.0
 11
3011.156908137207
 21
3092.636543186467
 31
0.0
  0
LINE
  5
1D9A
330
1D79
100
AcDbEntity
  8
0
 62
     0
100
AcDbLine
 10
3022.114701566869
 20
3081.826656033698
 30
0.0
 11
3016.248348351103
 21
3087.61382629456
 31
0.0
  0
LINE
  5
1D9B
330
1D79
100
AcDbEntity
  8
0
 62
     0
100
AcDbLine
 10
3011.909026903173
 20
3091.718988682165
 30
0.0
 11
3010.995122090839
 21
3092.620557775712
 31
0.0
  0
LINE
  5
1D9C
330
1D79
100
AcDbEntity
  8
0
 62
     0
100
AcDbLine
 10
3022.036653290677
 20
3081.72806312976
 30
0.0
 11
3016.150825141028
 21
3087.534445455428
 31
0.0
  0
LINE
  5
1D9D
330
1D79
100
AcDbEntity
  8
0
 62
     0
100
AcDbLine
 10
3011.868868040445
 20
3091.583017789118
 30
0.0
 11
3010.859193353739
 21
3092.57906407291
 31
0.0
  0
LINE
  5
1D9E
330
1D79
100
AcDbEntity
  8
0
 62
     0
100
AcDbLine
 10
3021.955889771016
 20
3081.632148819466
 30
0.0
 11
3016.056017174451
 21
3087.452386022691
 31
0.0
  0
LINE
  5
1D9F
330
1D79
100
AcDbEntity
  8
0
 62
     0
100
AcDbLine
 10
3011.81727503812
 20
3091.458326699721
 30
0.0
 11
3010.742087537182
 21
3092.519001517858
 31
0.0
  0
LINE
  5
1DA0
330
1D79
100
AcDbEntity
  8
0
 62
     0
100
AcDbLine
 10
3021.872430370168
 20
3081.538894001824
 30
0.0
 11
3015.963905089032
 21
3087.367667097277
 31
0.0
  0
LINE
  5
1DA1
330
1D79
100
AcDbEntity
  8
0
 62
     0
100
AcDbLine
 10
3011.767405787753
 20
3091.331935125286
 30
0.0
 11
3010.640774654828
 21
3092.443359198739
 31
0.0
  0
LINE
  5
1DA2
330
1D79
100
AcDbEntity
  8
0
 62
     0
100
AcDbLine
 10
3021.786286925483
 20
3081.448286999315
 30
0.0
 11
3015.87447704748
 21
3087.280300356753
 31
0.0
  0
LINE
  5
1DA3
330
1D79
100
AcDbEntity
  8
0
 62
     0
100
AcDbLine
 10
3011.719297192495
 20
3091.203806660705
 30
0.0
 11
3010.55408146383
 21
3092.353294522145
 31
0.0
  0
LINE
  5
1DA4
330
1D79
100
AcDbEntity
  8
0
 62
     0
100
AcDbLine
 10
3021.697463912249
 20
3081.360323396999
 30
0.0
 11
3015.787728574447
 21
3087.190290216007
 31
0.0
  0
LINE
  5
1DA5
330
1D79
100
AcDbEntity
  8
0
 62
     0
100
AcDbLine
 10
3011.672989006212
 20
3091.073902088778
 30
0.0
 11
3010.491986580687
 21
3092.238963561146
 31
0.0
  0
LINE
  5
1DA6
330
1D79
100
AcDbEntity
  8
0
 62
     0
100
AcDbLine
 10
3021.605958505061
 20
3081.275005982214
 30
0.0
 11
3015.703662495398
 21
3087.097633887759
 31
0.0
  0
LINE
  5
1DA7
330
1D79
100
AcDbEntity
  8
0
 62
     0
100
AcDbLine
 10
3011.628524077008
 20
3090.942179139688
 30
0.0
 11
3010.435555472882
 21
3092.119045273379
 31
0.0
  0
LINE
  5
1DA8
330
1D79
100
AcDbEntity
  8
0
 62
     0
100
AcDbLine
 10
3021.511760539056
 20
3081.192344782554
 30
0.0
 11
3015.622288975136
 21
3087.002321344356
 31
0.0
  0
LINE
  5
1DA9
330
1D79
100
AcDbEntity
  8
0
 62
     0
100
AcDbLine
 10
3011.585948621883
 20
3090.808592220295
 30
0.0
 11
3010.380740842512
 21
3091.997532327106
 31
0.0
  0
LINE
  5
1DAA
330
1D79
100
AcDbEntity
  8
0
 62
     0
100
AcDbLine
 10
3021.414852370326
 20
3081.112357203812
 30
0.0
 11
3015.5436256576
 21
3086.904335180057
 31
0.0
  0
LINE
  5
1DAB
330
1D79
100
AcDbEntity
  8
0
 62
     0
100
AcDbLine
 10
3011.545312536887
 20
3090.673092108045
 30
0.0
 11
3010.327571912203
 21
3091.874395894127
 31
0.0
  0
LINE
  5
1DAC
330
1D79
100
AcDbEntity
  8
0
 62
     0
100
AcDbLine
 10
3021.315208630642
 20
3081.035068271791
 30
0.0
 11
3015.467697911044
 21
3086.803650369016
 31
0.0
  0
LINE
  5
1DAD
330
1D79
100
AcDbEntity
  8
0
 62
     0
100
AcDbLine
 10
3011.506669748465
 20
3090.535625604367
 30
0.0
 11
3010.276080126379
 21
3091.749604954451
 31
0.0
  0
LINE
  5
1DAE
330
1D79
100
AcDbEntity
  8
0
 62
     0
100
AcDbLine
 10
3021.212795868509
 20
3080.960510986471
 30
0.0
 11
3015.394539186913
 21
3086.700233911309
 31
0.0
  0
LINE
  5
1DAF
330
1D79
100
AcDbEntity
  8
0
 62
     0
100
AcDbLine
 10
3011.470078613085
 20
3090.396135140479
 30
0.0
 11
3010.226299319445
 21
3091.623126130361
 31
0.0
  0
LINE
  5
1DB0
330
1D79
100
AcDbEntity
  8
0
 62
     0
100
AcDbLine
 10
3021.10757206467
 20
3080.888726799923
 30
0.0
 11
3015.324191504515
 21
3086.594044354789
 31
0.0
  0
LINE
  5
1DB1
330
1D79
100
AcDbEntity
  8
0
 62
     0
100
AcDbLine
 10
3011.435602372709
 20
3090.254558328044
 30
0.0
 11
3010.178265903713
 21
3091.494923501036
 31
0.0
  0
LINE
  5
1DB2
330
1D79
100
AcDbEntity
  8
0
 62
     0
100
AcDbLine
 10
3020.999486004868
 20
3080.819766235145
 30
0.0
 11
3015.256706078048
 21
3086.48503117654
 31
0.0
  0
LINE
  5
1DB3
330
1D79
100
AcDbEntity
  8
0
 62
     0
100
AcDbLine
 10
3011.40330967644
 20
3090.110827444594
 30
0.0
 11
3010.132019080192
 21
3091.364958394588
 31
0.0
  0
LINE
  5
1DB4
330
1D79
100
AcDbEntity
  8
0
 62
     0
100
AcDbLine
 10
3020.888476487568
 20
3080.753689667566
 30
0.0
 11
3015.192144109118
 21
3086.373134001049
 31
0.0
  0
LINE
  5
1DB5
330
1D79
100
AcDbEntity
  8
0
 62
     0
100
AcDbLine
 10
3011.373275179816
 20
3089.964868842246
 30
0.0
 11
3010.087601075094
 21
3091.233189154773
 31
0.0
  0
LINE
  5
1DB6
330
1D79
100
AcDbEntity
  8
0
 62
     0
100
AcDbLine
 10
3020.774471336117
 20
3080.690568299622
 30
0.0
 11
3015.130577774297
 21
3086.25828162596
 31
0.0
  0
LINE
  5
1DB7
330
1D79
100
AcDbEntity
  8
0
 62
     0
100
AcDbLine
 10
3011.345580236687
 20
3089.816602265265
 30
0.0
 11
3010.045057406256
 21
3091.099570878133
 31
0.0
  0
LINE
  5
1DB8
330
1D79
100
AcDbEntity
  8
0
 62
     0
100
AcDbLine
 10
3020.657386176238
 20
3080.630485366717
 30
0.0
 11
3015.07209144791
 21
3086.14039081581
 31
0.0
  0
LINE
  5
1DB9
330
1D79
100
AcDbEntity
  8
0
 62
     0
100
AcDbLine
 10
3011.320313701224
 20
3089.66594005884
 30
0.0
 11
3010.004437183744
 21
3090.964055117517
 31
0.0
  0
LINE
  5
1DBA
330
1D79
100
AcDbEntity
  8
0
 62
     0
100
AcDbLine
 10
3020.537122926086
 20
3080.573537626826
 30
0.0
 11
3015.016783211823
 21
3086.019364812666
 31
0.0
  0
LINE
  5
1DBB
330
1D79
100
AcDbEntity
  8
0
 62
     0
100
AcDbLine
 10
3011.297572862466
 20
3089.512786247062
 30
0.0
 11
3009.965793450108
 21
3090.826589546275
 31
0.0
  0
LINE
  5
1DBC
330
1D79
100
AcDbEntity
  8
0
 62
     0
100
AcDbLine
 10
3020.413567930219
 20
3080.519837201237
 30
0.0
 11
3014.974748514207
 21
3085.885244434801
 31
0.0
  0
LINE
  5
1DBD
330
1D79
100
AcDbEntity
  8
0
 62
     0
100
AcDbLine
 10
3011.277464539066
 20
3089.357035453176
 30
0.0
 11
3009.92918356687
 21
3090.687117577211
 31
0.0
  0
LINE
  5
1DBE
330
1D79
100
AcDbEntity
  8
0
 62
     0
100
AcDbLine
 10
3020.286589645345
 20
3080.469513857773
 30
0.0
 11
3014.936845719937
 21
3085.747047925288
 31
0.0
  0
LINE
  5
1DBF
330
1D79
100
AcDbEntity
  8
0
 62
     0
100
AcDbLine
 10
3011.260106368812
 20
3089.198571627167
 30
0.0
 11
3009.894669654562
 21
3090.545577928212
 31
0.0
  0
LINE
  5
1DC0
330
1D79
100
AcDbEntity
  8
0
 62
     0
100
AcDbLine
 10
3020.156035753644
 20
3080.422717858222
 30
0.0
 11
3014.90081187003
 21
3085.607007698054
 31
0.0
  0
LINE
  5
1DC1
330
1D79
100
AcDbEntity
  8
0
 62
     0
100
AcDbLine
 10
3011.245628337441
 20
3089.037266537888
 30
0.0
 11
3009.862319096201
 21
3090.401904125843
 31
0.0
  0
LINE
  5
1DC2
330
1D79
100
AcDbEntity
  8
0
 62
     0
100
AcDbLine
 10
3020.02172953524
 20
3080.379623537177
 30
0.0
 11
3014.866699589728
 21
3085.465071838232
 31
0.0
  0
LINE
  5
1DC3
330
1D79
100
AcDbEntity
  8
0
 62
     0
100
AcDbLine
 10
3011.234174602817
 20
3088.872977973238
 30
0.0
 11
3009.832205114842
 21
3090.256023935355
 31
0.0
  0
LINE
  5
1DC4
330
1D79
100
AcDbEntity
  8
0
 62
     0
100
AcDbLine
 10
3019.883465265869
 20
3080.340433842037
 30
0.0
 11
3014.83456556718
 21
3085.321184422792
 31
0.0
  0
LINE
  5
1DC5
330
1D79
100
AcDbEntity
  8
0
 62
     0
100
AcDbLine
 10
3011.225905687896
 20
3088.705547577017
 30
0.0
 11
3009.804407439573
 21
3090.107858703872
 31
0.0
  0
LINE
  5
1DC6
330
1D79
100
AcDbEntity
  8
0
 62
     0
100
AcDbLine
 10
3019.741002312221
 20
3080.305386158142
 30
0.0
 11
3014.804470960356
 21
3085.175285119309
 31
0.0
  0
LINE
  5
1DC7
330
1D79
100
AcDbEntity
  8
0
 62
     0
100
AcDbLine
 10
3011.221001137586
 20
3088.534798227738
 30
0.0
 11
3009.779013076346
 21
3089.957322599789
 31
0.0
  0
LINE
  5
1DC8
330
1D79
100
AcDbEntity
  8
0
 62
     0
100
AcDbLine
 10
3019.594057455128
 20
3080.274759881751
 30
0.0
 11
3014.776481860121
 21
3085.027308728947
 31
0.0
  0
LINE
  5
1DC9
330
1D79
100
AcDbEntity
  8
0
 62
     0
100
AcDbLine
 10
3011.219662765994
 20
3088.360530835371
 30
0.0
 11
3009.756117205004
 21
3089.804321728021
 31
0.0
  0
LINE
  5
1DCA
330
1D79
100
AcDbEntity
  8
0
 62
     0
100
AcDbLine
 10
3019.442294755018
 20
3080.248886418027
 30
0.0
 11
3014.75066981968
 21
3084.877184664357
 31
0.0
  0
LINE
  5
1DCB
330
1D79
100
AcDbEntity
  8
0
 62
     0
100
AcDbLine
 10
3011.222118662692
 20
3088.182520389047
 30
0.0
 11
3009.73582422814
 21
3089.648753095156
 31
0.0
  0
LINE
  5
1DCC
330
1D79
100
AcDbEntity
  8
0
 62
     0
100
AcDbLine
 10
3019.285311932224
 20
3080.228162616739
 30
0.0
 11
3014.727112461951
 21
3084.724836350346
 31
0.0
  0
LINE
  5
1DCD
330
1D79
100
AcDbEntity
  8
0
 62
     0
100
AcDbLine
 10
3011.228628187455
 20
3088.000511029793
 30
0.0
 11
3009.718249004662
 21
3089.490503392648
 31
0.0
  0
LINE
  5
1DCE
330
1D79
100
AcDbEntity
  8
0
 62
     0
100
AcDbLine
 10
3019.122621682778
 20
3080.213069204313
 30
0.0
 11
3014.70589417946
 21
3084.570180533512
 31
0.0
  0
LINE
  5
1DCF
330
1D79
100
AcDbEntity
  8
0
 62
     0
100
AcDbLine
 10
3011.239488269827
 20
3087.814209835952
 30
0.0
 11
3009.703518309332
 21
3089.329447556898
 31
0.0
  0
LINE
  5
1DD0
330
1D79
100
AcDbEntity
  8
0
 62
     0
100
AcDbLine
 10
3018.953625422255
 20
3080.204196685583
 30
0.0
 11
3014.687106944679
 21
3084.413126482788
 31
0.0
  0
LINE
  5
1DD1
330
1D79
100
AcDbEntity
  8
0
 62
     0
100
AcDbLine
 10
3011.255041456643
 20
3087.623278884318
 30
0.0
 11
3009.691772570914
 21
3089.165447054642
 31
0.0
  0
LINE
  5
1DD2
330
1D79
100
AcDbEntity
  8
0
 62
     0
100
AcDbLine
 10
3018.771878010542
 20
3080.207903205351
 30
0.0
 11
3014.670851252594
 21
3084.25357505968
 31
0.0
  0
LINE
  5
1DD3
330
1D79
100
AcDbEntity
  8
0
 62
     0
100
AcDbLine
 10
3011.275686341541
 20
3087.427324961405
 30
0.0
 11
3009.683167957068
 21
3088.998347826134
 31
0.0
  0
LINE
  5
1DD4
330
1D79
100
AcDbEntity
  8
0
 62
     0
100
AcDbLine
 10
3018.575661639406
 20
3080.225883385196
 30
0.0
 11
3014.677959224064
 21
3084.070975331437
 31
0.0
  0
LINE
  5
1DD5
330
1D79
100
AcDbEntity
  8
0
 62
     0
100
AcDbLine
 10
3011.301891301133
 20
3087.225886012674
 30
0.0
 11
3009.677878894261
 21
3088.827977799279
 31
0.0
  0
LINE
  5
1DD6
330
1D79
100
AcDbEntity
  8
0
 62
     0
100
AcDbLine
 10
3018.373885193541
 20
3080.249348590907
 30
0.0
 11
3014.695701304968
 21
3083.877885031012
 31
0.0
  0
LINE
  5
1DD7
330
1D79
100
AcDbEntity
  8
0
 62
     0
100
AcDbLine
 10
3011.334212921211
 20
3087.018412964994
 30
0.0
 11
3009.676101139608
 21
3088.654143859254
 31
0.0
  0
LINE
  5
1DD8
330
1D79
100
AcDbEntity
  8
0
 62
     0
100
AcDbLine
 10
3018.165992087197
 20
3080.278847895526
 30
0.0
 11
3014.724386537913
 21
3083.673999287181
 31
0.0
  0
LINE
  5
1DD9
330
1D79
100
AcDbEntity
  8
0
 62
     0
100
AcDbLine
 10
3011.373321237195
 20
3086.804244827006
 30
0.0
 11
3009.678055559889
 21
3088.47662812053
 31
0.0
  0
LINE
  5
1DDA
330
1D79
100
AcDbEntity
  8
0
 62
     0
100
AcDbLine
 10
3017.951312284989
 20
3080.315042290473
 30
0.0
 11
3014.766394050755
 21
3083.456971085157
 31
0.0
  0
LINE
  5
1DDB
330
1D79
100
AcDbEntity
  8
0
 62
     0
100
AcDbLine
 10
3011.420035156072
 20
3086.582573745123
 30
0.0
 11
3009.683992828213
 21
3088.295183293485
 31
0.0
  0
LINE
  5
1DDC
330
1D79
100
AcDbEntity
  8
0
 62
     0
100
AcDbLine
 10
3017.729026879838
 20
3080.3587396293
 30
0.0
 11
3014.825274208931
 21
3083.223297981632
 31
0.0
  0
LINE
  5
1DDD
330
1D79
100
AcDbEntity
  8
0
 62
     0
100
AcDbLine
 10
3017.486850352463
 20
3080.422059603675
 30
0.0
 11
3014.906769032889
 21
3082.96731546094
 31
0.0
  0
LINE
  5
1DDE
330
1D79
100
AcDbEntity
  8
0
 62
     0
100
AcDbLine
 10
3011.475373593617
 20
3086.352394556765
 30
0.0
 11
3009.694199326856
 21
3088.109526861423
 31
0.0
  0
LINE
  5
1DDF
330
1D79
100
AcDbEntity
  8
0
 62
     0
100
AcDbLine
 10
3017.514603370901
 20
3080.394681190366
 30
0.0
 11
3017.498116956041
 21
3080.410945074632
 31
0.0
  0
LINE
  5
1DE0
330
1D79
100
AcDbEntity
  8
0
 62
     0
100
AcDbLine
 10
3017.196660854948
 20
3080.53274447794
 30
0.0
 11
3015.021387044136
 21
3082.678656843615
 31
0.0
  0
LINE
  5
1DE1
330
1D79
100
AcDbEntity
  8
0
 62
     0
100
AcDbLine
 10
3011.540631815079
 20
3086.112429479879
 30
0.0
 11
3009.709004658819
 21
3087.91933367023
 31
0.0
  0
LINE
  5
1DE2
330
1D79
100
AcDbEntity
  8
0
 62
     0
100
AcDbLine
 10
3017.324226552679
 20
3080.406900638497
 30
0.0
 11
3017.257287248315
 21
3080.472936408456
 31
0.0
  0
LINE
  5
1DE3
330
1D79
100
AcDbEntity
  8
0
 62
     0
100
AcDbLine
 10
3016.849408385489
 20
3080.69972209868
 30
0.0
 11
3015.193068027357
 21
3082.33370547981
 31
0.0
  0
LINE
  5
1DE4
330
1D79
100
AcDbEntity
  8
0
 62
     0
100
AcDbLine
 10
3011.617500099688
 20
3085.861011050344
 30
0.0
 11
3009.728791340305
 21
3087.724226366859
 31
0.0
  0
LINE
  5
1DE5
330
1D79
100
AcDbEntity
  8
0
 62
     0
100
AcDbLine
 10
3017.128868384956
 20
3080.424034198804
 30
0.0
 11
3017.004847477466
 21
3080.546381094929
 31
0.0
  0
LINE
  5
1DE6
330
1D79
100
AcDbEntity
  8
0
 62
     0
100
AcDbLine
 10
3016.349313409265
 20
3081.017479186193
 30
0.0
 11
3015.517591517324
 21
3081.837974649272
 31
0.0
  0
LINE
  5
1DE7
330
1D79
100
AcDbEntity
  8
0
 62
     0
100
AcDbLine
 10
3011.70825758716
 20
3085.595890891855
 30
0.0
 11
3009.754007503623
 21
3087.523762867808
 31
0.0
  0
LINE
  5
1DE8
330
1D79
100
AcDbEntity
  8
0
 62
     0
100
AcDbLine
 10
3016.928080735371
 20
3080.446523954821
 30
0.0
 11
3016.738518503727
 21
3080.633527510383
 31
0.0
  0
LINE
  5
1DE9
330
1D79
100
AcDbEntity
  8
0
 62
     0
100
AcDbLine
 10
3011.816109431987
 20
3085.313907112497
 30
0.0
 11
3009.785183842301
 21
3087.317419642749
 31
0.0
  0
LINE
  5
1DEA
330
1D79
100
AcDbEntity
  8
0
 62
     0
100
AcDbLine
 10
3016.721332910456
 20
3080.474893436825
 30
0.0
 11
3016.455095172669
 21
3080.737537546681
 31
0.0
  0
LINE
  5
1DEB
330
1D79
100
AcDbEntity
  8
0
 62
     0
100
AcDbLine
 10
3011.945823266541
 20
3085.010356432518
 30
0.0
 11
3009.822956674026
 21
3087.10456896288
 31
0.0
  0
LINE
  5
1DEC
330
1D79
100
AcDbEntity
  8
0
 62
     0
100
AcDbLine
 10
3016.507988592463
 20
3080.509770373653
 30
0.0
 11
3016.149809851842
 21
3080.863114483625
 31
0.0
  0
LINE
  5
1DED
330
1D79
100
AcDbEntity
  8
0
 62
     0
100
AcDbLine
 10
3012.105073376523
 20
3084.67766815231
 30
0.0
 11
3009.868100067055
 21
3086.884447208177
 31
0.0
  0
LINE
  5
1DEE
330
1D79
100
AcDbEntity
  8
0
 62
     0
100
AcDbLine
 10
3016.287273713169
 20
3080.551918385296
 30
0.0
 11
3015.814988255602
 21
3081.017829020769
 31
0.0
  0
LINE
  5
1DEF
330
1D79
100
AcDbEntity
  8
0
 62
     0
100
AcDbLine
 10
3012.307789552302
 20
3084.302100503279
 30
0.0
 11
3009.921571815706
 21
3086.656109512492
 31
0.0
  0
LINE
  5
1DF0
330
1D79
100
AcDbEntity
  8
0
 62
     0
100
AcDbLine
 10
3016.058230478281
 20
3080.602282337947
 30
0.0
 11
3015.436700593586
 21
3081.215422926769
 31
0.0
  0
LINE
  5
1DF1
330
1D79
100
AcDbEntity
  8
0
 62
     0
100
AcDbLine
 10
3012.585152145213
 20
3083.852894000666
 30
0.0
 11
3009.984581364792
 21
3086.418362755816
 31
0.0
  0
LINE
  5
1DF2
330
1D79
100
AcDbEntity
  8
0
 62
     0
100
AcDbLine
 10
3015.819649442928
 20
3080.66205535156
 30
0.0
 11
3014.9837665144
 21
3081.486655686319
 31
0.0
  0
LINE
  5
1DF3
330
1D79
100
AcDbEntity
  8
0
 62
     0
100
AcDbLine
 10
3013.053776205023
 20
3083.21500764323
 30
0.0
 11
3010.058694066836
 21
3086.16966271452
 31
0.0
  0
LINE
  5
1DF4
330
1D79
100
AcDbEntity
  8
0
 62
     0
100
AcDbLine
 10
3015.569965254646
 20
3080.732781649829
 30
0.0
 11
3014.339570968362
 21
3081.946568300722
 31
0.0
  0
LINE
  5
1DF5
330
1D79
100
AcDbEntity
  8
0
 62
     0
100
AcDbLine
 10
3015.30708898737
 20
3080.816521962799
 30
0.0
 11
3010.145998847844
 21
3085.907948658481
 31
0.0
  0
LINE
  5
1DF6
330
1D79
100
AcDbEntity
  8
0
 62
     0
100
AcDbLine
 10
3015.028122286786
 20
3080.916135523402
 30
0.0
 11
3010.249394062186
 21
3085.630361354844
 31
0.0
  0
LINE
  5
1DF7
330
1D79
100
AcDbEntity
  8
0
 62
     0
100
AcDbLine
 10
3014.728831825021
 20
3081.035798518779
 30
0.0
 11
3010.373113037684
 21
3085.332724616404
 31
0.0
  0
LINE
  5
1DF8
330
1D79
100
AcDbEntity
  8
0
 62
     0
100
AcDbLine
 10
3014.40257960598
 20
3081.182059346618
 30
0.0
 11
3010.523793770465
 21
3085.008490045533
 31
0.0
  0
LINE
  5
1DF9
330
1D79
100
AcDbEntity
  8
0
 62
     0
100
AcDbLine
 10
3014.037803096718
 20
3081.366324470895
 30
0.0
 11
3010.712998793489
 21
3084.646251178194
 31
0.0
  0
LINE
  5
1DFA
330
1D79
100
AcDbEntity
  8
0
 62
     0
100
AcDbLine
 10
3013.610520947411
 20
3081.612251545607
 30
0.0
 11
3010.964709456522
 21
3084.222350360446
 31
0.0
  0
LINE
  5
1DFB
330
1D79
100
AcDbEntity
  8
0
 62
     0
100
AcDbLine
 10
3013.04879411203
 20
3081.990808596798
 30
0.0
 11
3011.350864805667
 21
3083.665819566201
 31
0.0
  0
ENDBLK
  5
1DFC
330
1D79
100
AcDbEntity
  8
0
100
AcDbBlockEnd
  0
BLOCK
  5
1F4B
330
1F41
100
AcDbEntity
  8
0
100
AcDbBlockBegin
  2
*D30
 70
     1
 10
0.0
 20
0.0
 30
0.0
  3
*D30
  1

  0
LINE
  5
1F78
330
1F41
100
AcDbEntity
  8
SUNPOU
 62
    70
370
    -2
100
AcDbLine
 10
-9.455504858903786
 20
126.5868983484121
 30
0.0
 11
-9.455504858903784
 21
145.165455195546
 31
0.0
  0
LINE
  5
1F79
330
1F41
100
AcDbEntity
  8
SUNPOU
 62
    70
370
    -2
100
AcDbLine
 10
136.5444952174033
 20
126.5868982923731
 30
0.0
 11
136.5444952174033
 21
145.165455195546
 31
0.0
  0
LINE
  5
1F7A
330
1F41
100
AcDbEntity
  8
SUNPOU
 62
    60
370
    -2
100
AcDbLine
 10
-7.455504858903784
 20
145.165455195546
 30
0.0
 11
134.5444952174033
 21
145.165455195546
 31
0.0
  0
INSERT
  5
1F7B
330
1F41
100
AcDbEntity
  8
SUNPOU
 62
    60
370
    -2
100
AcDbBlockReference
  2
_Dot
 10
-9.455504858903784
 20
145.165455195546
 30
0.0
 41
2.0
 42
2.0
 43
2.0
 50
180.0
  0
INSERT
  5
1F7C
330
1F41
100
AcDbEntity
  8
SUNPOU
 62
    60
370
    -2
100
AcDbBlockReference
  2
_Dot
 10
136.5444952174033
 20
145.165455195546
 30
0.0
 41
2.0
 42
2.0
 43
2.0
  0
MTEXT
  5
1F7D
330
1F41
100
AcDbEntity
  8
SUNPOU
 62
    60
100
AcDbMText
 10
63.54449517924977
 20
153.165455195546
 30
0.0
 40
10.0
 41
0.0
 71
     5
 72
     1
  1
\A1;146
  7
SUNPOU
 73
     1
 44
1.0
1001
ACAD
1000
MTEXTBEGIN
1070
    73
1070
     1
1070
    44
1040
1.0
1070
    74
1070
     0
1000
MTEXTEND
  0
POINT
  5
1F7E
330
1F41
100
AcDbEntity
  8
DEFPOINTS
 62
     0
100
AcDbPoint
 10
-9.455504858903786
 20
116.5868983484121
 30
0.0
  0
POINT
  5
1F7F
330
1F41
100
AcDbEntity
  8
DEFPOINTS
 62
     0
100
AcDbPoint
 10
136.5444952174033
 20
116.5868982923732
 30
0.0
  0
POINT
  5
1F80
330
1F41
100
AcDbEntity
  8
DEFPOINTS
 62
     0
100
AcDbPoint
 10
136.5444952174033
 20
145.165455195546
 30
0.0
  0
ENDBLK
  5
1F4C
330
1F41
100
AcDbEntity
  8
0
100
AcDbBlockEnd
  0
BLOCK
  5
1F58
330
1F4E
100
AcDbEntity
  8
0
100
AcDbBlockBegin
  2
*D31
 70
     1
 10
0.0
 20
0.0
 30
0.0
  3
*D31
  1

  0
LINE
  5
1F81
330
1F4E
100
AcDbEntity
  8
SUNPOU
 62
    70
370
    -2
100
AcDbLine
 10
-6.381572813912611
 20
127.8971243104563
 30
0.0
 11
-28.01355449553748
 21
127.8971243104563
 31
0.0
  0
LINE
  5
1F82
330
1F4E
100
AcDbEntity
  8
SUNPOU
 62
    70
370
    -2
100
AcDbLine
 10
53.54449514358964
 20
47.89712431045635
 30
0.0
 11
-28.0135544955375
 21
47.89712431045638
 31
0.0
  0
LINE
  5
1F83
330
1F4E
100
AcDbEntity
  8
SUNPOU
 62
    60
370
    -2
100
AcDbLine
 10
-28.01355449553748
 20
125.8971243104563
 30
0.0
 11
-28.0135544955375
 21
49.89712431045638
 31
0.0
  0
INSERT
  5
1F84
330
1F4E
100
AcDbEntity
  8
SUNPOU
 62
    60
370
    -2
100
AcDbBlockReference
  2
_Dot
 10
-28.01355449553748
 20
127.8971243104563
 30
0.0
 41
2.0
 42
2.0
 43
2.0
 50
90.0
  0
INSERT
  5
1F85
330
1F4E
100
AcDbEntity
  8
SUNPOU
 62
    60
370
    -2
100
AcDbBlockReference
  2
_Dot
 10
-28.0135544955375
 20
47.89712431045638
 30
0.0
 41
2.0
 42
2.0
 43
2.0
 50
270.0
  0
MTEXT
  5
1F86
330
1F4E
100
AcDbEntity
  8
SUNPOU
 62
    60
100
AcDbMText
 10
-36.0135544955375
 20
87.89712431045636
 30
0.0
 40
10.0
 41
0.0
 71
     5
 72
     1
  1
\A1;80
  7
SUNPOU
 11
0.0000000000000001
 21
1.0
 31
0.0
 73
     1
 44
1.0
1001
ACAD
1000
MTEXTBEGIN
1070
    73
1070
     1
1070
    44
1040
1.0
1070
    74
1070
     0
1000
MTEXTEND
  0
POINT
  5
1F87
330
1F4E
100
AcDbEntity
  8
DEFPOINTS
 62
     0
100
AcDbPoint
 10
3.618427186087388
 20
127.8971243104563
 30
0.0
  0
POINT
  5
1F88
330
1F4E
100
AcDbEntity
  8
DEFPOINTS
 62
     0
100
AcDbPoint
 10
63.54449514358964
 20
47.89712431045635
 30
0.0
  0
POINT
  5
1F89
330
1F4E
100
AcDbEntity
  8
DEFPOINTS
 62
     0
100
AcDbPoint
 10
-28.0135544955375
 20
47.89712431045638
 30
0.0
  0
ENDBLK
  5
1F59
330
1F4E
100
AcDbEntity
  8
0
100
AcDbBlockEnd
  0
BLOCK
  5
20A7
330
209D
100
AcDbEntity
  8
0
100
AcDbBlockBegin
  2
*D33
 70
     1
 10
0.0
 20
0.0
 30
0.0
  3
*D33
  1

  0
LINE
  5
20F6
330
209D
100
AcDbEntity
  8
SUNPOU
 62
    70
370
    -2
100
AcDbLine
 10
-21.5992733816946
 20
149.1160045883091
 30
0.0
 11
-21.5992733816946
 21
191.9111476228898
 31
0.0
  0
LINE
  5
20F7
330
209D
100
AcDbEntity
  8
SUNPOU
 62
    70
370
    -2
100
AcDbLine
 10
151.4007266183054
 20
149.1160045883091
 30
0.0
 11
151.4007266183054
 21
191.9111476228898
 31
0.0
  0
LINE
  5
20F8
330
209D
100
AcDbEntity
  8
SUNPOU
 62
    60
370
    -2
100
AcDbLine
 10
-19.5992733816946
 20
191.9111476228898
 30
0.0
 11
149.4007266183054
 21
191.9111476228898
 31
0.0
  0
INSERT
  5
20F9
330
209D
100
AcDbEntity
  8
SUNPOU
 62
    60
370
    -2
100
AcDbBlockReference
  2
_Dot
 10
-21.5992733816946
 20
191.9111476228898
 30
0.0
 41
2.0
 42
2.0
 43
2.0
 50
180.0
  0
INSERT
  5
20FA
330
209D
100
AcDbEntity
  8
SUNPOU
 62
    60
370
    -2
100
AcDbBlockReference
  2
_Dot
 10
151.4007266183054
 20
191.9111476228898
 30
0.0
 41
2.0
 42
2.0
 43
2.0
  0
MTEXT
  5
20FB
330
209D
100
AcDbEntity
  8
SUNPOU
 62
    60
100
AcDbMText
 10
64.90072661830541
 20
199.9111476228899
 30
0.0
 40
10.0
 41
0.0
 71
     5
 72
     1
  1
\A1;173
  7
SUNPOU
 73
     1
 44
1.0
1001
ACAD
1000
MTEXTBEGIN
1070
    73
1070
     1
1070
    44
1040
1.0
1070
    74
1070
     0
1000
MTEXTEND
  0
POINT
  5
20FC
330
209D
100
AcDbEntity
  8
DEFPOINTS
 62
     0
100
AcDbPoint
 10
-21.5992733816946
 20
139.1160045883092
 30
0.0
  0
POINT
  5
20FD
330
209D
100
AcDbEntity
  8
DEFPOINTS
 62
     0
100
AcDbPoint
 10
151.4007266183054
 20
139.1160045883092
 30
0.0
  0
POINT
  5
20FE
330
209D
100
AcDbEntity
  8
DEFPOINTS
 62
     0
100
AcDbPoint
 10
151.4007266183054
 20
191.9111476228898
 30
0.0
  0
ENDBLK
  5
20A8
330
209D
100
AcDbEntity
  8
0
100
AcDbBlockEnd
  0
BLOCK
  5
20B4
330
20AA
100
AcDbEntity
  8
0
100
AcDbBlockBegin
  2
*D34
 70
     1
 10
0.0
 20
0.0
 30
0.0
  3
*D34
  1

  0
LINE
  5
20FF
330
20AA
100
AcDbEntity
  8
SUNPOU
 62
    70
370
    -2
100
AcDbLine
 10
37.39639252644304
 20
156.7218677818389
 30
0.0
 11
-57.42604354037812
 21
156.7218677818389
 31
0.0
  0
LINE
  5
2100
330
20AA
100
AcDbEntity
  8
SUNPOU
 62
    70
370
    -2
100
AcDbLine
 10
37.39639252644304
 20
44.72186778183895
 30
0.0
 11
-57.42604354037815
 21
44.72186778183899
 31
0.0
  0
LINE
  5
2101
330
20AA
100
AcDbEntity
  8
SUNPOU
 62
    60
370
    -2
100
AcDbLine
 10
-57.42604354037812
 20
154.7218677818389
 30
0.0
 11
-57.42604354037815
 21
46.72186778183898
 31
0.0
  0
INSERT
  5
2102
330
20AA
100
AcDbEntity
  8
SUNPOU
 62
    60
370
    -2
100
AcDbBlockReference
  2
_Dot
 10
-57.42604354037812
 20
156.7218677818389
 30
0.0
 41
2.0
 42
2.0
 43
2.0
 50
90.0
  0
INSERT
  5
2103
330
20AA
100
AcDbEntity
  8
SUNPOU
 62
    60
370
    -2
100
AcDbBlockReference
  2
_Dot
 10
-57.42604354037815
 20
44.72186778183899
 30
0.0
 41
2.0
 42
2.0
 43
2.0
 50
270.0
  0
MTEXT
  5
2104
330
20AA
100
AcDbEntity
  8
SUNPOU
 62
    60
100
AcDbMText
 10
-65.42604354037816
 20
100.7218677818389
 30
0.0
 40
10.0
 41
0.0
 71
     5
 72
     1
  1
\A1;112
  7
SUNPOU
 11
0.0000000000000001
 21
1.0
 31
0.0
 73
     1
 44
1.0
1001
ACAD
1000
MTEXTBEGIN
1070
    73
1070
     1
1070
    44
1040
1.0
1070
    74
1070
     0
1000
MTEXTEND
  0
POINT
  5
2105
330
20AA
100
AcDbEntity
  8
DEFPOINTS
 62
     0
100
AcDbPoint
 10
47.39639252644304
 20
156.7218677818389
 30
0.0
  0
POINT
  5
2106
330
20AA
100
AcDbEntity
  8
DEFPOINTS
 62
     0
100
AcDbPoint
 10
47.39639252644304
 20
44.72186778183895
 30
0.0
  0
POINT
  5
2107
330
20AA
100
AcDbEntity
  8
DEFPOINTS
 62
     0
100
AcDbPoint
 10
-57.42604354037815
 20
44.72186778183899
 30
0.0
  0
ENDBLK
  5
20B5
330
20AA
100
AcDbEntity
  8
0
100
AcDbBlockEnd
  0
ENDSEC
  0
SECTION
  2
ENTITIES
  0
LINE
  5
1F
330
2
100
AcDbEntity
  8
WAKU
100
AcDbLine
 10
0.0
 20
14.0
 30
0.0
 11
138.8108358471433
 21
14.0
 31
0.0
  0
LINE
  5
20
330
2
100
AcDbEntity
  8
WAKU
100
AcDbLine
 10
0.0
 20
0.0
 30
0.0
 11
138.8108358471433
 21
0.0
 31
0.0
  0
TEXT
  5
21
330
2
100
AcDbEntity
  8
HOJO
100
AcDbText
 10
9.653966000000025
 20
2.366626000000024
 30
0.0
 40
9.0
  1
TWR223
  7
SUNPOU
100
AcDbText
  0
TEXT
  5
23
330
2
100
AcDbEntity
  8
HOJO
100
AcDbText
 10
85.84696046283864
 20
5.044386000000031
 30
0.0
 40
6.0
  1
173×112×6
  7
SUNPOU
100
AcDbText
  0
ELLIPSE
  5
201C
102
{ACAD_REACTORS
330
2108
102
}
330
2
100
AcDbEntity
  8
KIJUN
100
AcDbEllipse
 10
-0.21298229631509
 20
100.5345985615811
 30
0.0
 11
13.59702362381424
 21
0.0
 31
0.0
210
0.0
220
0.0
230
1.0
 40
0.3399308589875815
 41
0.0
 42
6.283185307179584
  0
ELLIPSE
  5
201D
102
{ACAD_REACTORS
330
2108
102
}
330
2
100
AcDbEntity
  8
KIJUN
100
AcDbEllipse
 10
130.0144355329281
 20
100.5345985615811
 30
0.0
 11
-13.59702362381424
 21
0.0
 31
0.0
210
0.0
220
0.0
230
-1.0
 40
0.3399308589875815
 41
0.0
 42
6.283185307179584
  0
ARC
  5
201E
102
{ACAD_REACTORS
330
2108
102
}
330
2
100
AcDbEntity
  8
KIJUN
100
AcDbCircle
 10
11.9916526706171
 20
105.9857978220628
 30
0.0
 40
4.816053529229837
100
AcDbArc
 50
284.360993747057
 51
129.4468011473389
  0
ARC
  5
201F
102
{ACAD_REACTORS
330
2108
102
}
330
2
100
AcDbEntity
  8
KIJUN
100
AcDbCircle
 10
-11.1591345045789
 20
100.92730095298
 30
0.0
 40
6.049875208100321
100
AcDbArc
 50
91.16842276395468
 51
239.8787960951995
  0
ARC
  5
2020
102
{ACAD_REACTORS
330
2108
102
}
330
2
100
AcDbEntity
  8
KIJUN
100
AcDbCircle
 10
-5.48611880035412
 20
106.539772772094
 30
0.0
 40
5.812766795853646
100
AcDbArc
 50
107.9413237743286
 51
259.4868605758195
  0
ARC
  5
2021
102
{ACAD_REACTORS
330
2108
102
}
330
2
100
AcDbEntity
  8
KIJUN
100
AcDbCircle
 10
-11.1591345045789
 20
100.7218677818389
 30
0.0
 40
6.049875208100321
100
AcDbArc
 50
120.1212039048004
 51
268.8315772360454
  0
ARC
  5
2022
102
{ACAD_REACTORS
330
2108
102
}
330
2
100
AcDbEntity
  8
KIJUN
100
AcDbCircle
 10
40.79908740259599
 20
127.1844506170981
 30
0.0
 40
25.91162038124382
100
AcDbArc
 50
108.4714321402097
 51
313.7019639787501
  0
ARC
  5
2023
102
{ACAD_REACTORS
330
2108
102
}
330
2
100
AcDbEntity
  8
KIJUN
100
AcDbCircle
 10
42.59959893590997
 20
127.015851091632
 30
0.0
 40
18.68924089829267
100
AcDbArc
 50
125.1741711351701
 51
280.7890884595605
  0
ARC
  5
2024
102
{ACAD_REACTORS
330
2108
102
}
330
2
100
AcDbEntity
  8
KIJUN
100
AcDbCircle
 10
117.809800565995
 20
105.9857978220628
 30
0.0
 40
4.816053529229837
100
AcDbArc
 50
50.55319885266104
 51
255.639006252943
  0
ARC
  5
2025
102
{ACAD_REACTORS
330
2108
102
}
330
2
100
AcDbEntity
  8
KIJUN
100
AcDbCircle
 10
135.2875720369653
 20
106.539772772094
 30
0.0
 40
5.812766795853646
100
AcDbArc
 50
280.5131394241771
 51
72.05867622567133
  0
ARC
  5
2026
102
{ACAD_REACTORS
330
2108
102
}
330
2
100
AcDbEntity
  8
KIJUN
100
AcDbCircle
 10
89.00236583401659
 20
127.1844506170981
 30
0.0
 40
25.91162038124382
100
AcDbArc
 50
226.2980360212497
 51
71.52856785979024
  0
ARC
  5
2027
102
{ACAD_REACTORS
330
2108
102
}
330
2
100
AcDbEntity
  8
KIJUN
100
AcDbCircle
 10
87.20185430070307
 20
127.015851091632
 30
0.0
 40
18.68924089829267
100
AcDbArc
 50
259.2109115404395
 51
54.82582886482989
  0
ARC
  5
2028
102
{ACAD_REACTORS
330
2108
102
}
330
2
100
AcDbEntity
  8
KIJUN
100
AcDbCircle
 10
140.960587741191
 20
100.7218677818389
 30
0.0
 40
6.049875208100321
100
AcDbArc
 50
271.1684227639547
 51
59.87879609519953
  0
ARC
  5
2029
102
{ACAD_REACTORS
330
2108
102
}
330
2
100
AcDbEntity
  8
KIJUN
100
AcDbCircle
 10
117.809800565995
 20
105.9857978220628
 30
0.0
 40
4.816053529229837
100
AcDbArc
 50
50.55319885266104
 51
255.639006252943
  0
ARC
  5
202A
102
{ACAD_REACTORS
330
2108
102
}
330
2
100
AcDbEntity
  8
KIJUN
100
AcDbCircle
 10
135.2875720369653
 20
106.539772772094
 30
0.0
 40
5.812766795853646
100
AcDbArc
 50
280.5131394241771
 51
72.05867622567133
  0
ARC
  5
202B
102
{ACAD_REACTORS
330
2108
102
}
330
2
100
AcDbEntity
  8
KIJUN
100
AcDbCircle
 10
140.960587741191
 20
100.92730095298
 30
0.0
 40
6.049875208100321
100
AcDbArc
 50
300.1212039048005
 51
88.83157723604531
  0
ARC
  5
202C
102
{ACAD_REACTORS
330
2108
102
}
330
2
100
AcDbEntity
  8
KIJUN
100
AcDbCircle
 10
11.9916526706171
 20
95.66337091274391
 30
0.0
 40
4.816053529229837
100
AcDbArc
 50
230.5531988526611
 51
75.63900625294303
  0
ARC
  5
202D
102
{ACAD_REACTORS
330
2108
102
}
330
2
100
AcDbEntity
  8
KIJUN
100
AcDbCircle
 10
1.901695554613183
 20
83.4000928806293
 30
0.0
 40
11.0646020836944
100
AcDbArc
 50
50.55319885266104
 51
146.0502681865488
  0
ARC
  5
202E
102
{ACAD_REACTORS
330
2108
102
}
330
2
100
AcDbEntity
  8
KIJUN
100
AcDbCircle
 10
-3.871161795174316
 20
94.51010927452609
 30
0.0
 40
18.33722429825957
100
AcDbArc
 50
280.4711980024351
 51
349.7355416547504
  0
ARC
  5
202F
102
{ACAD_REACTORS
330
2108
102
}
330
2
100
AcDbEntity
  8
KIJUN
100
AcDbCircle
 10
11.9916526706171
 20
95.53650131681326
 30
0.0
 40
4.816053529229837
100
AcDbArc
 50
230.5531988526611
 51
75.63900625294303
  0
ARC
  5
2030
102
{ACAD_REACTORS
330
2108
102
}
330
2
100
AcDbEntity
  8
KIJUN
100
AcDbCircle
 10
1.901695554613183
 20
83.273223284685
 30
0.0
 40
11.0646020836944
100
AcDbArc
 50
50.55319885266104
 51
146.0502681865488
  0
ARC
  5
2031
102
{ACAD_REACTORS
330
2108
102
}
330
2
100
AcDbEntity
  8
KIJUN
100
AcDbCircle
 10
5.678292345273007
 20
81.42901675699324
 30
0.0
 40
7.947253597901791
100
AcDbArc
 50
218.5319653083828
 51
308.0026650969756
  0
ARC
  5
2032
102
{ACAD_REACTORS
330
2108
102
}
330
2
100
AcDbEntity
  8
KIJUN
100
AcDbCircle
 10
-6.683943772996856
 20
91.03521571251777
 30
0.0
 40
25.50940266206911
100
AcDbArc
 50
256.2117825224549
 51
352.5256942080589
  0
ARC
  5
2033
102
{ACAD_REACTORS
330
2108
102
}
330
2
100
AcDbEntity
  8
KIJUN
100
AcDbCircle
 10
-2.80549448779891
 20
91.11366820362428
 30
0.0
 40
20.81457196826416
100
AcDbArc
 50
238.8902724321763
 51
339.9710572666316
  0
ARC
  5
2034
102
{ACAD_REACTORS
330
2108
102
}
330
2
100
AcDbEntity
  8
KIJUN
100
AcDbCircle
 10
-5.499147199964113
 20
73.56261452865993
 30
0.0
 40
19.25915525574644
100
AcDbArc
 50
260.6620535299058
 51
6.035711146257473
  0
ARC
  5
2035
102
{ACAD_REACTORS
330
2108
102
}
330
2
100
AcDbEntity
  8
KIJUN
100
AcDbCircle
 10
-5.48611880035412
 20
95.10939596272676
 30
0.0
 40
5.812766795853646
100
AcDbArc
 50
100.5131394241805
 51
252.0586762256713
  0
ARC
  5
2036
102
{ACAD_REACTORS
330
2108
102
}
330
2
100
AcDbEntity
  8
KIJUN
100
AcDbCircle
 10
-5.48611880035412
 20
94.98252636678335
 30
0.0
 40
5.812766795853646
100
AcDbArc
 50
100.5131394241805
 51
252.0586762256713
  0
ARC
  5
2037
102
{ACAD_REACTORS
330
2108
102
}
330
2
100
AcDbEntity
  8
KIJUN
100
AcDbCircle
 10
-10.57569157523164
 20
59.10403912601106
 30
0.0
 40
4.946626889285893
100
AcDbArc
 50
293.2368129170408
 51
11.83475614298592
  0
ARC
  5
2038
102
{ACAD_REACTORS
330
2108
102
}
330
2
100
AcDbEntity
  8
KIJUN
100
AcDbCircle
 10
-14.17195370322155
 20
69.25325838658103
 30
0.0
 40
12.43537258792366
100
AcDbArc
 50
253.8751421414207
 51
312.728665298427
  0
ARC
  5
2039
102
{ACAD_REACTORS
330
2108
102
}
330
2
100
AcDbEntity
  8
KIJUN
100
AcDbCircle
 10
-16.34067590505388
 20
62.40629455056643
 30
0.0
 40
5.258597476640715
100
AcDbArc
 50
47.13949753890336
 51
255.8561970761251
  0
ARC
  5
203A
102
{ACAD_REACTORS
330
2108
102
}
330
2
100
AcDbEntity
  8
KIJUN
100
AcDbCircle
 10
8.306198752030127
 20
90.83127979985993
 30
0.0
 40
28.03089710564452
100
AcDbArc
 50
218.7327626424795
 51
243.4032102953192
  0
ARC
  5
203B
102
{ACAD_REACTORS
330
2108
102
}
330
2
100
AcDbEntity
  8
KIJUN
100
AcDbCircle
 10
117.809800565995
 20
95.66337091274391
 30
0.0
 40
4.816053529229837
100
AcDbArc
 50
104.3609937470569
 51
309.4468011473389
  0
ARC
  5
203C
102
{ACAD_REACTORS
330
2108
102
}
330
2
100
AcDbEntity
  8
KIJUN
100
AcDbCircle
 10
117.809800565995
 20
95.53650131681326
 30
0.0
 40
4.816053529229837
100
AcDbArc
 50
104.3609937470569
 51
309.4468011473389
  0
ARC
  5
203D
102
{ACAD_REACTORS
330
2108
102
}
330
2
100
AcDbEntity
  8
KIJUN
100
AcDbCircle
 10
135.3006004365776
 20
73.56261452865993
 30
0.0
 40
19.25915525574644
100
AcDbArc
 50
173.9642888537425
 51
279.337946470091
  0
ARC
  5
203E
102
{ACAD_REACTORS
330
2108
102
}
330
2
100
AcDbEntity
  8
KIJUN
100
AcDbCircle
 10
132.606947724411
 20
91.11366820362428
 30
0.0
 40
20.81457196826416
100
AcDbArc
 50
200.0289427333684
 51
301.1097275678237
  0
ARC
  5
203F
102
{ACAD_REACTORS
330
2108
102
}
330
2
100
AcDbEntity
  8
KIJUN
100
AcDbCircle
 10
136.4853970096085
 20
91.03521571251748
 30
0.0
 40
25.50940266206863
100
AcDbArc
 50
187.4743057919405
 51
283.7882174775434
  0
ARC
  5
2040
102
{ACAD_REACTORS
330
2108
102
}
330
2
100
AcDbEntity
  8
KIJUN
100
AcDbCircle
 10
117.809800565995
 20
95.53650131681326
 30
0.0
 40
4.816053529229837
100
AcDbArc
 50
104.3609937470569
 51
309.4468011473389
  0
ARC
  5
2041
102
{ACAD_REACTORS
330
2108
102
}
330
2
100
AcDbEntity
  8
KIJUN
100
AcDbCircle
 10
133.6726150317873
 20
94.51010927452609
 30
0.0
 40
18.33722429825957
100
AcDbArc
 50
190.2644583452499
 51
259.5288019975649
  0
ARC
  5
2042
102
{ACAD_REACTORS
330
2108
102
}
330
2
100
AcDbEntity
  8
KIJUN
100
AcDbCircle
 10
48.06028574342292
 20
70.57163555852577
 30
0.0
 40
11.71955232152892
100
AcDbArc
 50
239.1422981791894
 51
4.26955834781503
  0
ARC
  5
2043
102
{ACAD_REACTORS
330
2108
102
}
330
2
100
AcDbEntity
  8
KIJUN
100
AcDbCircle
 10
40.79908740259599
 20
74.33784852177797
 30
0.0
 40
25.91162038124382
100
AcDbArc
 50
46.29803602124969
 51
251.5285678597902
  0
ARC
  5
2044
102
{ACAD_REACTORS
330
2108
102
}
330
2
100
AcDbEntity
  8
KIJUN
100
AcDbCircle
 10
49.80876215265209
 20
71.44414339321684
 30
0.0
 40
9.938552156466602
100
AcDbArc
 50
346.2932385634763
 51
128.9914823269326
  0
ARC
  5
2045
102
{ACAD_REACTORS
330
2108
102
}
330
2
100
AcDbEntity
  8
KIJUN
100
AcDbCircle
 10
61.52548801648993
 20
59.56275807719231
 30
0.0
 40
10.36647312054048
100
AcDbArc
 50
187.3137147763743
 51
289.0014326193472
  0
ARC
  5
2046
102
{ACAD_REACTORS
330
2108
102
}
330
2
100
AcDbEntity
  8
KIJUN
100
AcDbCircle
 10
47.39639252644304
 20
62.25005770387777
 30
0.0
 40
17.52818992203882
100
AcDbArc
 50
235.6223900168679
 51
2.989617525457589
  0
ARC
  5
2047
102
{ACAD_REACTORS
330
2108
102
}
330
2
100
AcDbEntity
  8
KIJUN
100
AcDbCircle
 10
82.40506071017092
 20
62.25005770387777
 30
0.0
 40
17.52818992203882
100
AcDbArc
 50
177.0103824745424
 51
304.3776099831348
  0
ARC
  5
2048
102
{ACAD_REACTORS
330
2108
102
}
330
2
100
AcDbEntity
  8
KIJUN
100
AcDbCircle
 10
-3.871161795174316
 20
107.012189864349
 30
0.0
 40
18.33722429825957
100
AcDbArc
 50
340.0686806582694
 51
342.3312984140188
  0
ARC
  5
2049
102
{ACAD_REACTORS
330
2108
102
}
330
2
100
AcDbEntity
  8
KIJUN
100
AcDbCircle
 10
-3.871161795174316
 20
94.51010927452609
 30
0.0
 40
18.33722429825957
100
AcDbArc
 50
17.66870158598119
 51
19.93131934173059
  0
CIRCLE
  5
204A
102
{ACAD_REACTORS
330
2108
102
}
330
2
100
AcDbEntity
  8
KIJUN
100
AcDbCircle
 10
52.05360797808964
 20
86.17338548188291
 30
0.0
 40
5.258597476640715
  0
ARC
  5
204B
102
{ACAD_REACTORS
330
2108
102
}
330
2
100
AcDbEntity
  8
KIJUN
100
AcDbCircle
 10
49.2657134659272
 20
85.52464204982408
 30
0.0
 40
7.994947470573976
100
AcDbArc
 50
323.893054920168
 51
113.3408208529881
  0
ARC
  5
204C
102
{ACAD_REACTORS
330
2108
102
}
330
2
100
AcDbEntity
  8
KIJUN
100
AcDbCircle
 10
42.59959893590997
 20
74.50644804724544
 30
0.0
 40
18.68924089829267
100
AcDbArc
 50
79.21091154043953
 51
234.8258288648298
  0
ARC
  5
204D
102
{ACAD_REACTORS
330
2108
102
}
330
2
100
AcDbEntity
  8
KIJUN
100
AcDbCircle
 10
52.55738286074723
 20
88.15394078802802
 30
0.0
 40
7.994947470573976
100
AcDbArc
 50
293.3408208529881
 51
65.95775664886359
  0
ARC
  5
204E
102
{ACAD_REACTORS
330
2108
102
}
330
2
100
AcDbEntity
  8
KIJUN
100
AcDbCircle
 10
31.65409810616586
 20
84.24707715458708
 30
0.0
 40
12.4436877836171
100
AcDbArc
 50
136.7658469267269
 51
258.635393446889
  0
ARC
  5
204F
102
{ACAD_REACTORS
330
2108
102
}
330
2
100
AcDbEntity
  8
KIJUN
100
AcDbCircle
 10
34.29386116247326
 20
71.42778767336295
 30
0.0
 40
12.4436877836171
100
AcDbArc
 50
136.7658469267269
 51
258.635393446889
  0
CIRCLE
  5
2050
102
{ACAD_REACTORS
330
2108
102
}
330
2
100
AcDbEntity
  8
KIJUN
100
AcDbCircle
 10
43.55537690939229
 20
73.91018131031188
 30
0.0
 40
5.258597476640715
  0
ARC
  5
2051
102
{ACAD_REACTORS
330
2108
102
}
330
2
100
AcDbEntity
  8
KIJUN
100
AcDbCircle
 10
35.7390306912813
 20
69.46849478376027
 30
0.0
 40
10.95693270613323
100
AcDbArc
 50
249.1645483103801
 51
1.162220019175521
  0
ARC
  5
2052
102
{ACAD_REACTORS
330
2108
102
}
330
2
100
AcDbEntity
  8
KIJUN
100
AcDbCircle
 10
39.38951531190389
 20
59.55938871338123
 30
0.0
 40
11.92670143824068
100
AcDbArc
 50
235.2390570016544
 51
353.6635715221849
  0
ARC
  5
2053
102
{ACAD_REACTORS
330
2108
102
}
330
2
100
AcDbEntity
  8
KIJUN
100
AcDbCircle
 10
68.27596522012402
 20
59.56275807719231
 30
0.0
 40
10.36647312054048
100
AcDbArc
 50
250.9985673806528
 51
352.6862852236257
  0
ARC
  5
2054
102
{ACAD_REACTORS
330
2108
102
}
330
2
100
AcDbEntity
  8
KIJUN
100
AcDbCircle
 10
90.41193792470778
 20
59.55938871338123
 30
0.0
 40
11.92670143824068
100
AcDbArc
 50
186.3364284778151
 51
304.7609429983455
  0
ARC
  5
2055
102
{ACAD_REACTORS
330
2108
102
}
330
2
100
AcDbEntity
  8
KIJUN
100
AcDbCircle
 10
79.99269108396004
 20
71.44414339321684
 30
0.0
 40
9.938552156466602
100
AcDbArc
 50
51.00851767306735
 51
193.7067614365237
  0
ARC
  5
2056
102
{ACAD_REACTORS
330
2108
102
}
330
2
100
AcDbEntity
  8
KIJUN
100
AcDbCircle
 10
94.0624225453322
 20
69.46849478376027
 30
0.0
 40
10.95693270613323
100
AcDbArc
 50
178.8377799808245
 51
290.8354516896198
  0
CIRCLE
  5
2057
102
{ACAD_REACTORS
330
2108
102
}
330
2
100
AcDbEntity
  8
KIJUN
100
AcDbCircle
 10
86.24607632721984
 20
73.91018131031188
 30
0.0
 40
5.258597476640715
  0
ARC
  5
2058
102
{ACAD_REACTORS
330
2108
102
}
330
2
100
AcDbEntity
  8
KIJUN
100
AcDbCircle
 10
95.50759207413888
 20
71.42778767336295
 30
0.0
 40
12.4436877836171
100
AcDbArc
 50
281.3646065531077
 51
43.23415307327304
  0
ARC
  5
2059
102
{ACAD_REACTORS
330
2108
102
}
330
2
100
AcDbEntity
  8
KIJUN
100
AcDbCircle
 10
98.14735513044809
 20
84.24707715458708
 30
0.0
 40
12.4436877836171
100
AcDbArc
 50
281.3646065531077
 51
43.23415307327304
  0
ARC
  5
205A
102
{ACAD_REACTORS
330
2108
102
}
330
2
100
AcDbEntity
  8
KIJUN
100
AcDbCircle
 10
77.24407037586491
 20
88.15394078802802
 30
0.0
 40
7.994947470573976
100
AcDbArc
 50
114.0422433511364
 51
246.6591791470118
  0
ARC
  5
205B
102
{ACAD_REACTORS
330
2108
102
}
330
2
100
AcDbEntity
  8
KIJUN
100
AcDbCircle
 10
87.20185430070307
 20
74.50644804724544
 30
0.0
 40
18.68924089829267
100
AcDbArc
 50
305.1741711351701
 51
100.7890884595604
  0
ARC
  5
205C
102
{ACAD_REACTORS
330
2108
102
}
330
2
100
AcDbEntity
  8
KIJUN
100
AcDbCircle
 10
80.53573977068628
 20
85.52464204982408
 30
0.0
 40
7.994947470573976
100
AcDbArc
 50
66.65917914701188
 51
216.106945079832
  0
ARC
  5
205D
102
{ACAD_REACTORS
330
2108
102
}
330
2
100
AcDbEntity
  8
KIJUN
100
AcDbCircle
 10
89.00236583401659
 20
74.33784852177797
 30
0.0
 40
25.91162038124382
100
AcDbArc
 50
288.4714321402098
 51
133.7019639787503
  0
ARC
  5
205E
102
{ACAD_REACTORS
330
2108
102
}
330
2
100
AcDbEntity
  8
KIJUN
100
AcDbCircle
 10
81.74116749318967
 20
70.57163555852577
 30
0.0
 40
11.71955232152892
100
AcDbArc
 50
175.7304416521849
 51
300.8577018208106
  0
CIRCLE
  5
205F
102
{ACAD_REACTORS
330
2108
102
}
330
2
100
AcDbEntity
  8
KIJUN
100
AcDbCircle
 10
77.74784525852294
 20
86.17338548188291
 30
0.0
 40
5.258597476640715
  0
ARC
  5
2060
102
{ACAD_REACTORS
330
2108
102
}
330
2
100
AcDbEntity
  8
KIJUN
100
AcDbCircle
 10
133.6726150317873
 20
107.012189864349
 30
0.0
 40
18.33722429825957
100
AcDbArc
 50
197.6687015859812
 51
199.9313193417306
  0
ARC
  5
2061
102
{ACAD_REACTORS
330
2108
102
}
330
2
100
AcDbEntity
  8
KIJUN
100
AcDbCircle
 10
133.6726150317873
 20
107.012189864349
 30
0.0
 40
18.33722429825957
100
AcDbArc
 50
197.6687015859812
 51
199.9313193417306
  0
ARC
  5
2062
102
{ACAD_REACTORS
330
2108
102
}
330
2
100
AcDbEntity
  8
KIJUN
100
AcDbCircle
 10
135.2875720369653
 20
95.10939596272676
 30
0.0
 40
5.812766795853646
100
AcDbArc
 50
287.9413237743286
 51
79.48686057581949
  0
ARC
  5
2063
102
{ACAD_REACTORS
330
2108
102
}
330
2
100
AcDbEntity
  8
KIJUN
100
AcDbCircle
 10
127.8997576820003
 20
83.4000928806293
 30
0.0
 40
11.0646020836944
100
AcDbArc
 50
33.94973181345117
 51
129.4468011473389
  0
ARC
  5
2064
102
{ACAD_REACTORS
330
2108
102
}
330
2
100
AcDbEntity
  8
KIJUN
100
AcDbCircle
 10
135.2875720369653
 20
94.98252636678335
 30
0.0
 40
5.812766795853646
100
AcDbArc
 50
287.9413237743286
 51
79.48686057581949
  0
ARC
  5
2065
102
{ACAD_REACTORS
330
2108
102
}
330
2
100
AcDbEntity
  8
KIJUN
100
AcDbCircle
 10
127.8997576820003
 20
83.273223284685
 30
0.0
 40
11.0646020836944
100
AcDbArc
 50
33.94973181345117
 51
129.4468011473389
  0
ARC
  5
2066
102
{ACAD_REACTORS
330
2108
102
}
330
2
100
AcDbEntity
  8
KIJUN
100
AcDbCircle
 10
133.6726150317873
 20
94.51010927452609
 30
0.0
 40
18.33722429825957
100
AcDbArc
 50
160.0686806582694
 51
162.3312984140188
  0
ARC
  5
2067
102
{ACAD_REACTORS
330
2108
102
}
330
2
100
AcDbEntity
  8
KIJUN
100
AcDbCircle
 10
121.4952544845834
 20
90.83127979985993
 30
0.0
 40
28.03089710564452
100
AcDbArc
 50
296.5967897046808
 51
321.2672373575202
  0
ARC
  5
2068
102
{ACAD_REACTORS
330
2108
102
}
330
2
100
AcDbEntity
  8
KIJUN
100
AcDbCircle
 10
146.1421291416647
 20
62.40629455056643
 30
0.0
 40
5.258597476640715
100
AcDbArc
 50
284.1438029238715
 51
132.8605024610965
  0
ARC
  5
2069
102
{ACAD_REACTORS
330
2108
102
}
330
2
100
AcDbEntity
  8
KIJUN
100
AcDbCircle
 10
143.9734069398339
 20
69.25325838657819
 30
0.0
 40
12.43537258792048
100
AcDbArc
 50
227.2713347015695
 51
286.1248578585747
  0
ARC
  5
206A
102
{ACAD_REACTORS
330
2108
102
}
330
2
100
AcDbEntity
  8
KIJUN
100
AcDbCircle
 10
140.3771448118451
 20
59.10403912601106
 30
0.0
 40
4.946626889285893
100
AcDbArc
 50
168.165243857014
 51
246.7631870829592
  0
ARC
  5
206B
102
{ACAD_REACTORS
330
2108
102
}
330
2
100
AcDbEntity
  8
KIJUN
100
AcDbCircle
 10
124.1231608913396
 20
81.42901675699324
 30
0.0
 40
7.947253597901791
100
AcDbArc
 50
231.9973349030244
 51
321.4680346916172
  0
ARC
  5
206C
102
{ACAD_REACTORS
330
2108
102
}
330
2
100
AcDbEntity
  8
KIJUN
100
AcDbCircle
 10
135.2875720369653
 20
94.98252636678335
 30
0.0
 40
5.812766795853646
100
AcDbArc
 50
287.9413237743286
 51
79.48686057581949
  0
ARC
  5
206D
102
{ACAD_REACTORS
330
2108
102
}
330
2
100
AcDbEntity
  8
KIJUN
100
AcDbCircle
 10
127.8997576820003
 20
83.273223284685
 30
0.0
 40
11.0646020836944
100
AcDbArc
 50
33.94973181345117
 51
129.4468011473389
  0
ARC
  5
206E
102
{ACAD_REACTORS
330
2108
102
}
330
2
100
AcDbEntity
  8
KIJUN
100
AcDbCircle
 10
133.6726150317873
 20
94.51010927452609
 30
0.0
 40
18.33722429825957
100
AcDbArc
 50
160.0686806582694
 51
162.3312984140188
  0
ARC
  5
206F
102
{ACAD_REACTORS
330
2108
102
}
330
2
100
AcDbEntity
  8
KIJUN
100
AcDbCircle
 10
-6.683943772994402
 20
110.4870834263611
 30
0.0
 40
25.50940266206649
100
AcDbArc
 50
7.474305791938571
 51
103.7882174775522
  0
ARC
  5
2070
102
{ACAD_REACTORS
330
2108
102
}
330
2
100
AcDbEntity
  8
KIJUN
100
AcDbCircle
 10
-5.499147199964113
 20
127.9596846102161
 30
0.0
 40
19.25915525574644
100
AcDbArc
 50
353.9642888537425
 51
99.33794647009094
  0
ARC
  5
2071
102
{ACAD_REACTORS
330
2108
102
}
330
2
100
AcDbEntity
  8
KIJUN
100
AcDbCircle
 10
-2.80549448779891
 20
110.4086309352513
 30
0.0
 40
20.81457196826416
100
AcDbArc
 50
20.02894273336838
 51
121.1097275678236
  0
ARC
  5
2072
102
{ACAD_REACTORS
330
2108
102
}
330
2
100
AcDbEntity
  8
KIJUN
100
AcDbCircle
 10
1.901695554613183
 20
118.2490758541919
 30
0.0
 40
11.0646020836944
100
AcDbArc
 50
213.949731813451
 51
309.4468011473389
  0
ARC
  5
2073
102
{ACAD_REACTORS
330
2108
102
}
330
2
100
AcDbEntity
  8
KIJUN
100
AcDbCircle
 10
5.678292345273007
 20
120.0932823818823
 30
0.0
 40
7.947253597901791
100
AcDbArc
 50
51.99733490302438
 51
141.4680346916169
  0
ARC
  5
2074
102
{ACAD_REACTORS
330
2108
102
}
330
2
100
AcDbEntity
  8
KIJUN
100
AcDbCircle
 10
-3.871161795174316
 20
107.012189864349
 30
0.0
 40
18.33722429825957
100
AcDbArc
 50
10.26445834524968
 51
79.52880199756482
  0
ARC
  5
2075
102
{ACAD_REACTORS
330
2108
102
}
330
2
100
AcDbEntity
  8
KIJUN
100
AcDbCircle
 10
-16.34067590505388
 20
139.1160045883092
 30
0.0
 40
5.258597476640715
100
AcDbArc
 50
104.1438029238715
 51
312.8605024610966
  0
ARC
  5
2076
102
{ACAD_REACTORS
330
2108
102
}
330
2
100
AcDbEntity
  8
KIJUN
100
AcDbCircle
 10
-10.57569157523164
 20
142.4182600128641
 30
0.0
 40
4.946626889285893
100
AcDbArc
 50
348.1652438570141
 51
66.76318708295916
  0
ARC
  5
2077
102
{ACAD_REACTORS
330
2108
102
}
330
2
100
AcDbEntity
  8
KIJUN
100
AcDbCircle
 10
8.306198752030127
 20
110.6910193390161
 30
0.0
 40
28.03089710564452
100
AcDbArc
 50
116.5967897046808
 51
141.2672373575205
  0
ARC
  5
2078
102
{ACAD_REACTORS
330
2108
102
}
330
2
100
AcDbEntity
  8
KIJUN
100
AcDbCircle
 10
-14.17195370321833
 20
132.2690407523022
 30
0.0
 40
12.4353725879172
100
AcDbArc
 50
47.27133470156566
 51
106.1248578586018
  0
ARC
  5
2079
102
{ACAD_REACTORS
330
2108
102
}
330
2
100
AcDbEntity
  8
KIJUN
100
AcDbCircle
 10
133.6726150317873
 20
107.012189864349
 30
0.0
 40
18.33722429825957
100
AcDbArc
 50
100.4711980024352
 51
169.7355416547501
  0
ARC
  5
207A
102
{ACAD_REACTORS
330
2108
102
}
330
2
100
AcDbEntity
  8
KIJUN
100
AcDbCircle
 10
136.4853970096061
 20
110.4870834263613
 30
0.0
 40
25.50940266206606
100
AcDbArc
 50
76.21178252244951
 51
172.5256942080618
  0
ARC
  5
207B
102
{ACAD_REACTORS
330
2108
102
}
330
2
100
AcDbEntity
  8
KIJUN
100
AcDbCircle
 10
132.606947724411
 20
110.4086309352513
 30
0.0
 40
20.81457196826416
100
AcDbArc
 50
58.89027243217633
 51
159.9710572666316
  0
ARC
  5
207C
102
{ACAD_REACTORS
330
2108
102
}
330
2
100
AcDbEntity
  8
KIJUN
100
AcDbCircle
 10
135.3006004365776
 20
127.9596846102161
 30
0.0
 40
19.25915525574644
100
AcDbArc
 50
80.66205352990905
 51
186.0357111462574
  0
ARC
  5
207D
102
{ACAD_REACTORS
330
2108
102
}
330
2
100
AcDbEntity
  8
KIJUN
100
AcDbCircle
 10
49.80876215265209
 20
130.0781557456592
 30
0.0
 40
9.938552156466602
100
AcDbArc
 50
231.0085176730674
 51
13.70676143652368
  0
ARC
  5
207E
102
{ACAD_REACTORS
330
2108
102
}
330
2
100
AcDbEntity
  8
KIJUN
100
AcDbCircle
 10
61.52548801648993
 20
141.9595410616837
 30
0.0
 40
10.36647312054048
100
AcDbArc
 50
70.99856738065281
 51
172.6862852236257
  0
ARC
  5
207F
102
{ACAD_REACTORS
330
2108
102
}
330
2
100
AcDbEntity
  8
KIJUN
100
AcDbCircle
 10
48.06028574342292
 20
130.9506635803503
 30
0.0
 40
11.71955232152892
100
AcDbArc
 50
355.7304416521849
 51
120.8577018208106
  0
ARC
  5
2080
102
{ACAD_REACTORS
330
2108
102
}
330
2
100
AcDbEntity
  8
KIJUN
100
AcDbCircle
 10
47.39639252644304
 20
139.1936778598001
 30
0.0
 40
17.52818992203882
100
AcDbArc
 50
357.0103824745424
 51
123.7842765229411
  0
ARC
  5
2081
102
{ACAD_REACTORS
330
2108
102
}
330
2
100
AcDbEntity
  8
KIJUN
100
AcDbCircle
 10
82.40506071017092
 20
139.1936778598001
 30
0.0
 40
17.52818992203882
100
AcDbArc
 50
56.21572347705636
 51
182.9896175254575
  0
CIRCLE
  5
2082
102
{ACAD_REACTORS
330
2108
102
}
330
2
100
AcDbEntity
  8
KIJUN
100
AcDbCircle
 10
43.55537690939229
 20
127.6121178285632
 30
0.0
 40
5.258597476640715
  0
ARC
  5
2083
102
{ACAD_REACTORS
330
2108
102
}
330
2
100
AcDbEntity
  8
KIJUN
100
AcDbCircle
 10
52.55738286074723
 20
113.368358350848
 30
0.0
 40
7.994947470573976
100
AcDbArc
 50
294.0422433511362
 51
66.65917914701188
  0
ARC
  5
2084
102
{ACAD_REACTORS
330
2108
102
}
330
2
100
AcDbEntity
  8
KIJUN
100
AcDbCircle
 10
49.2657134659272
 20
115.997657089052
 30
0.0
 40
7.994947470573976
100
AcDbArc
 50
246.6591791470118
 51
36.106945079832
  0
ARC
  5
2085
102
{ACAD_REACTORS
330
2108
102
}
330
2
100
AcDbEntity
  8
KIJUN
100
AcDbCircle
 10
31.65409810616586
 20
117.2752219842899
 30
0.0
 40
12.4436877836171
100
AcDbArc
 50
101.364606553111
 51
223.2341530732731
  0
ARC
  5
2086
102
{ACAD_REACTORS
330
2108
102
}
330
2
100
AcDbEntity
  8
KIJUN
100
AcDbCircle
 10
34.29386116247326
 20
130.0945114655131
 30
0.0
 40
12.4436877836171
100
AcDbArc
 50
101.364606553111
 51
223.2341530732731
  0
ARC
  5
2087
102
{ACAD_REACTORS
330
2108
102
}
330
2
100
AcDbEntity
  8
KIJUN
100
AcDbCircle
 10
35.7390306912813
 20
132.0538043551153
 30
0.0
 40
10.95693270613323
100
AcDbArc
 50
358.8377799808244
 51
110.8354516896199
  0
ARC
  5
2088
102
{ACAD_REACTORS
330
2108
102
}
330
2
100
AcDbEntity
  8
KIJUN
100
AcDbCircle
 10
39.38951531190389
 20
141.9629104254953
 30
0.0
 40
11.92670143824068
100
AcDbArc
 50
6.336428477815111
 51
124.7609429983455
  0
CIRCLE
  5
2089
102
{ACAD_REACTORS
330
2108
102
}
330
2
100
AcDbEntity
  8
KIJUN
100
AcDbCircle
 10
52.05360797808964
 20
115.3489136569931
 30
0.0
 40
5.258597476640715
  0
CIRCLE
  5
208A
102
{ACAD_REACTORS
330
2108
102
}
330
2
100
AcDbEntity
  8
KIJUN
100
AcDbCircle
 10
77.74784525852294
 20
115.3489136569931
 30
0.0
 40
5.258597476640715
  0
ARC
  5
208B
102
{ACAD_REACTORS
330
2108
102
}
330
2
100
AcDbEntity
  8
KIJUN
100
AcDbCircle
 10
81.74116749318967
 20
130.9506635803503
 30
0.0
 40
11.71955232152892
100
AcDbArc
 50
59.14229817918936
 51
184.2695583478148
  0
ARC
  5
208C
102
{ACAD_REACTORS
330
2108
102
}
330
2
100
AcDbEntity
  8
KIJUN
100
AcDbCircle
 10
80.53573977068628
 20
115.997657089052
 30
0.0
 40
7.994947470573976
100
AcDbArc
 50
143.893054920168
 51
293.3408208529881
  0
ARC
  5
208D
102
{ACAD_REACTORS
330
2108
102
}
330
2
100
AcDbEntity
  8
KIJUN
100
AcDbCircle
 10
77.24407037586491
 20
113.368358350848
 30
0.0
 40
7.994947470573976
100
AcDbArc
 50
113.3408208529881
 51
245.9577566488636
  0
ARC
  5
208E
102
{ACAD_REACTORS
330
2108
102
}
330
2
100
AcDbEntity
  8
KIJUN
100
AcDbCircle
 10
98.14735513044809
 20
117.2752219842899
 30
0.0
 40
12.4436877836171
100
AcDbArc
 50
316.7658469267268
 51
78.63539344688894
  0
ARC
  5
208F
102
{ACAD_REACTORS
330
2108
102
}
330
2
100
AcDbEntity
  8
KIJUN
100
AcDbCircle
 10
95.50759207413888
 20
130.0945114655131
 30
0.0
 40
12.4436877836171
100
AcDbArc
 50
316.7658469267268
 51
78.63539344688894
  0
CIRCLE
  5
2090
102
{ACAD_REACTORS
330
2108
102
}
330
2
100
AcDbEntity
  8
KIJUN
100
AcDbCircle
 10
86.24607632721984
 20
127.6121178285632
 30
0.0
 40
5.258597476640715
  0
ARC
  5
2091
102
{ACAD_REACTORS
330
2108
102
}
330
2
100
AcDbEntity
  8
KIJUN
100
AcDbCircle
 10
94.0624225453322
 20
132.0538043551153
 30
0.0
 40
10.95693270613323
100
AcDbArc
 50
69.16454831038013
 51
181.1622200191755
  0
ARC
  5
2092
102
{ACAD_REACTORS
330
2108
102
}
330
2
100
AcDbEntity
  8
KIJUN
100
AcDbCircle
 10
79.99269108396004
 20
130.0781557456592
 30
0.0
 40
9.938552156466602
100
AcDbArc
 50
166.2932385634763
 51
308.9914823269327
  0
ARC
  5
2093
102
{ACAD_REACTORS
330
2108
102
}
330
2
100
AcDbEntity
  8
KIJUN
100
AcDbCircle
 10
90.41193792470778
 20
141.9629104254953
 30
0.0
 40
11.92670143824068
100
AcDbArc
 50
55.23905700165446
 51
173.6635715221849
  0
ARC
  5
2094
102
{ACAD_REACTORS
330
2108
102
}
330
2
100
AcDbEntity
  8
KIJUN
100
AcDbCircle
 10
68.27596522012402
 20
141.9595410616837
 30
0.0
 40
10.36647312054048
100
AcDbArc
 50
7.313714776374306
 51
109.0014326193472
  0
ARC
  5
2095
102
{ACAD_REACTORS
330
2108
102
}
330
2
100
AcDbEntity
  8
KIJUN
100
AcDbCircle
 10
127.8997576820003
 20
118.2490758541919
 30
0.0
 40
11.0646020836944
100
AcDbArc
 50
230.5531988526611
 51
326.0502681865488
  0
ARC
  5
2096
102
{ACAD_REACTORS
330
2108
102
}
330
2
100
AcDbEntity
  8
KIJUN
100
AcDbCircle
 10
124.1231608913396
 20
120.0932823818823
 30
0.0
 40
7.947253597901791
100
AcDbArc
 50
38.53196530838313
 51
128.0026650969756
  0
ARC
  5
2097
102
{ACAD_REACTORS
330
2108
102
}
330
2
100
AcDbEntity
  8
KIJUN
100
AcDbCircle
 10
140.3771448118451
 20
142.4182600128641
 30
0.0
 40
4.946626889285893
100
AcDbArc
 50
113.2368129170408
 51
191.8347561429859
  0
ARC
  5
2098
102
{ACAD_REACTORS
330
2108
102
}
330
2
100
AcDbEntity
  8
KIJUN
100
AcDbCircle
 10
143.9734069398307
 20
132.2690407523051
 30
0.0
 40
12.435372587914
100
AcDbArc
 50
73.87514214140136
 51
132.7286652984379
  0
ARC
  5
2099
102
{ACAD_REACTORS
330
2108
102
}
330
2
100
AcDbEntity
  8
KIJUN
100
AcDbCircle
 10
146.1421291416647
 20
139.1160045883092
 30
0.0
 40
5.258597476640715
100
AcDbArc
 50
227.1394975389033
 51
75.85619707612845
  0
ARC
  5
209A
102
{ACAD_REACTORS
330
2108
102
}
330
2
100
AcDbEntity
  8
KIJUN
100
AcDbCircle
 10
121.4952544845834
 20
110.6910193390161
 30
0.0
 40
28.03089710564452
100
AcDbArc
 50
38.7327626424795
 51
63.40321029531919
  0
ARC
  5
209B
102
{ACAD_REACTORS
330
2108
102
}
330
2
100
AcDbEntity
  8
KIJUN
100
AcDbCircle
 10
127.8997576820003
 20
118.2490758541919
 30
0.0
 40
11.0646020836944
100
AcDbArc
 50
230.5531988526611
 51
326.0502681865488
  0
DIMENSION
  5
209C
330
2
100
AcDbEntity
  8
SUNPOU
100
AcDbDimension
  2
*D33
 10
151.4007266183054
 20
191.9111476228898
 30
0.0
 11
64.90072661830541
 21
199.9111476228899
 31
0.0
 70
    32
 71
     5
 42
173.0
  3
STANDARD
100
AcDbAlignedDimension
 13
-21.5992733816946
 23
139.1160045883092
 33
0.0
 14
151.4007266183054
 24
139.1160045883092
 34
0.0
100
AcDbRotatedDimension
1001
ACAD
1000
DSTYLE
1002
{
1070
    41
1040
2.0
1070
    42
1040
10.0
1070
    44
1040
0.0
1070
    73
1070
     0
1070
    74
1070
     0
1070
    77
1070
     1
1070
   140
1040
10.0
1070
   141
1040
0.0
1070
   146
1040
0.064286
1070
   147
1040
3.0
1070
   176
1070
    60
1070
   177
1070
    70
1070
   178
1070
    60
1070
   271
1070
     0
1070
   272
1070
     0
1070
   340
1005
1C
1070
   342
1005
109
1002
}
  0
DIMENSION
  5
20A9
330
2
100
AcDbEntity
  8
SUNPOU
100
AcDbDimension
  2
*D34
 10
-57.42604354037815
 20
44.72186778183899
 30
0.0
 11
-65.42604354037816
 21
100.7218677818389
 31
0.0
 70
    32
 71
     5
 42
112.0
  3
STANDARD
100
AcDbAlignedDimension
 13
47.39639252644304
 23
156.7218677818389
 33
0.0
 14
47.39639252644304
 24
44.72186778183895
 34
0.0
 50
90.0
100
AcDbRotatedDimension
1001
ACAD
1000
DSTYLE
1002
{
1070
    41
1040
2.0
1070
    42
1040
10.0
1070
    44
1040
0.0
1070
    73
1070
     0
1070
    74
1070
     0
1070
    77
1070
     1
1070
   140
1040
10.0
1070
   141
1040
0.0
1070
   146
1040
0.064286
1070
   147
1040
3.0
1070
   176
1070
    60
1070
   177
1070
    70
1070
   178
1070
    60
1070
   271
1070
     0
1070
   272
1070
     0
1070
   340
1005
1C
1070
   342
1005
109
1002
}
  0
ENDSEC
  0
SECTION
  2
OBJECTS
  0
DICTIONARY
  5
1A
330
0
100
AcDbDictionary
281
     1
  3
ACAD_COLOR
350
144
  3
ACAD_GROUP
350
18
  3
ACAD_LAYOUT
350
58
  3
ACAD_MATERIAL
350
143
  3
ACAD_MLINESTYLE
350
19
  3
ACAD_PLOTSETTINGS
350
59
  3
ACAD_PLOTSTYLENAME
350
56
  3
ACAD_TABLESTYLE
350
145
  3
ACDBHEADERROUNDTRIPXREC
350
2110
  3
AcDbVariableDictionary
350
1D1
  0
DICTIONARY
  5
1B4
330
A
100
AcDbDictionary
280
     1
281
     1
  3
ACAD_LAYERFILTERS
360
1C2
  3
ACLYDICTIONARY
360
1C1
  0
DICTIONARY
  5
1578
330
2
100
AcDbDictionary
280
     1
281
     1
  3
ACAD_SORTENTS
360
1579
  0
DICTIONARY
  5
144
102
{ACAD_REACTORS
330
1A
102
}
330
1A
100
AcDbDictionary
281
     1
  0
DICTIONARY
  5
18
102
{ACAD_REACTORS
330
1A
102
}
330
1A
100
AcDbDictionary
281
     1
  3
*A1
350
CFC
  3
*A2
350
15D1
  3
*A4
350
1682
  3
*A5
350
1827
  3
*A6
350
18ED
  3
*A7
350
19E5
  3
*A8
350
1F8A
  3
*A9
350
2108
  0
DICTIONARY
  5
58
102
{ACAD_REACTORS
330
1A
102
}
330
1A
100
AcDbDictionary
281
     1
  3
Model
350
5A
  3
ﾚｲｱｳﾄ1
350
5B
  0
DICTIONARY
  5
143
102
{ACAD_REACTORS
330
1A
102
}
330
1A
100
AcDbDictionary
281
     1
  0
DICTIONARY
  5
19
102
{ACAD_REACTORS
330
1A
102
}
330
1A
100
AcDbDictionary
281
     1
  3
STANDARD
350
1D
  0
DICTIONARY
  5
59
102
{ACAD_REACTORS
330
1A
102
}
330
1A
100
AcDbDictionary
281
     1
  0
ACDBDICTIONARYWDFLT
  5
56
102
{ACAD_REACTORS
330
1A
102
}
330
1A
100
AcDbDictionary
281
     1
  3
Normal
350
57
100
AcDbDictionaryWithDefault
340
57
  0
DICTIONARY
  5
145
102
{ACAD_REACTORS
330
1A
102
}
330
1A
100
AcDbDictionary
281
     1
  3
Standard
350
146
  0
DICTIONARY
  5
2110
102
{ACAD_REACTORS
330
1A
102
}
330
1A
100
AcDbDictionary
281
     1
  0
DICTIONARY
  5
1D1
102
{ACAD_REACTORS
330
1A
102
}
330
1A
100
AcDbDictionary
281
     1
  3
CTABLESTYLE
350
1D2
  3
DIMASSOC
350
D03
  3
PROJECTNAME
350
D04
  0
DICTIONARY
  5
1C2
102
{ACAD_REACTORS
330
1B4
102
}
330
1B4
100
AcDbDictionary
281
     1
  0
DICTIONARY
  5
1C1
102
{ACAD_REACTORS
330
1B4
102
}
330
1B4
100
AcDbDictionary
281
     1
1001
ACAD
1000
<All
  0
SORTENTSTABLE
  5
1579
102
{ACAD_REACTORS
330
1578
102
}
330
1578
100
AcDbSortentsTable
330
2
331
23
  5
23
331
21
  5
21
331
1F
  5
1F
331
20
  5
20
  0
GROUP
  5
CFC
102
{ACAD_REACTORS
330
18
102
}
330
18
100
AcDbGroup
300

 70
     1
 71
     1
  0
GROUP
  5
15D1
102
{ACAD_REACTORS
330
18
102
}
330
18
100
AcDbGroup
300

 70
     1
 71
     1
  0
GROUP
  5
1682
102
{ACAD_REACTORS
330
18
102
}
330
18
100
AcDbGroup
300

 70
     1
 71
     1
  0
GROUP
  5
1827
102
{ACAD_REACTORS
330
18
102
}
330
18
100
AcDbGroup
300

 70
     1
 71
     1
  0
GROUP
  5
18ED
102
{ACAD_REACTORS
330
18
102
}
330
18
100
AcDbGroup
300

 70
     1
 71
     1
  0
GROUP
  5
19E5
102
{ACAD_REACTORS
330
18
102
}
330
18
100
AcDbGroup
300

 70
     1
 71
     1
  0
GROUP
  5
1F8A
102
{ACAD_REACTORS
330
18
102
}
330
18
100
AcDbGroup
300

 70
     1
 71
     1
  0
GROUP
  5
2108
102
{ACAD_REACTORS
330
18
102
}
330
18
100
AcDbGroup
300

 70
     1
 71
     1
340
209B
340
209A
340
2099
340
2098
340
2097
340
2096
340
2095
340
2094
340
2093
340
2092
340
2091
340
2090
340
208F
340
208E
340
208D
340
208C
340
208B
340
208A
340
2089
340
2088
340
2087
340
2086
340
2085
340
2084
340
2083
340
2082
340
2081
340
2080
340
207F
340
207E
340
207D
340
207C
340
207B
340
207A
340
2079
340
2078
340
2077
340
2076
340
2075
340
2074
340
2073
340
2072
340
2071
340
2070
340
206F
340
206E
340
206D
340
206C
340
206B
340
206A
340
2069
340
2068
340
2067
340
2066
340
2065
340
2064
340
2063
340
2062
340
2061
340
2060
340
205F
340
205E
340
205D
340
205C
340
205B
340
205A
340
2059
340
2058
340
2057
340
2056
340
2055
340
2054
340
2053
340
2052
340
2051
340
2050
340
204F
340
204E
340
204D
340
204C
340
204B
340
204A
340
2049
340
2048
340
2047
340
2046
340
2045
340
2044
340
2043
340
2042
340
2041
340
2040
340
203F
340
203E
340
203D
340
203C
340
203B
340
203A
340
2039
340
2038
340
2037
340
2036
340
2035
340
2034
340
2033
340
2032
340
2031
340
2030
340
202F
340
202E
340
202D
340
202C
340
202B
340
202A
340
2029
340
2028
340
2027
340
2026
340
2025
340
2024
340
2023
340
2022
340
2021
340
2020
340
201F
340
201E
340
201D
340
201C
  0
LAYOUT
  5
5A
102
{ACAD_XDICTIONARY
360
2111
102
}
102
{ACAD_REACTORS
330
58
102
}
330
58
100
AcDbPlotSettings
  1

  2
なし
  4

  6

 40
0.0
 41
0.0
 42
0.0
 43
0.0
 44
0.0
 45
0.0
 46
0.0
 47
0.0
 48
0.0
 49
0.0
140
0.0
141
0.0
142
1.0
143
1.0
 70
  1712
 72
     0
 73
     0
 74
     0
  7
monochrome.ctb
 75
     0
147
1.0
148
0.0
149
0.0
100
AcDbLayout
  1
Model
 70
     1
 71
     0
 10
0.0
 20
0.0
 11
12.0
 21
9.0
 12
0.0
 22
0.0
 32
0.0
 14
0.0
 24
0.0
 34
0.0
 15
0.0
 25
0.0
 35
0.0
146
0.0
 13
0.0
 23
0.0
 33
0.0
 16
1.0
 26
0.0
 36
0.0
 17
0.0
 27
1.0
 37
0.0
 76
     0
330
2
  0
LAYOUT
  5
5B
102
{ACAD_XDICTIONARY
360
2113
102
}
102
{ACAD_REACTORS
330
58
102
}
330
58
100
AcDbPlotSettings
  1

  2
なし
  4

  6

 40
0.0
 41
0.0
 42
0.0
 43
0.0
 44
0.0
 45
0.0
 46
0.0
 47
0.0
 48
0.0
 49
0.0
140
0.0
141
0.0
142
1.0
143
1.0
 70
   688
 72
     0
 73
     0
 74
     5
  7
monochrome.ctb
 75
    16
147
1.0
148
0.0
149
0.0
100
AcDbLayout
  1
ﾚｲｱｳﾄ1
 70
     1
 71
     1
 10
0.0
 20
0.0
 11
12.0
 21
9.0
 12
0.0
 22
0.0
 32
0.0
 14
1.000000000000000E+20
 24
1.000000000000000E+20
 34
1.000000000000000E+20
 15
-1.000000000000000E+20
 25
-1.000000000000000E+20
 35
-1.000000000000000E+20
146
0.0
 13
0.0
 23
0.0
 33
0.0
 16
1.0
 26
0.0
 36
0.0
 17
0.0
 27
1.0
 37
0.0
 76
     0
330
7
  0
MLINESTYLE
  5
1D
102
{ACAD_REACTORS
330
19
102
}
330
19
100
AcDbMlineStyle
  2
STANDARD
 70
     0
  3

 62
   256
 51
90.0
 52
90.0
 71
     2
 49
0.5
 62
   256
  6
BYLAYER
 49
-0.5
 62
   256
  6
BYLAYER
  0
ACDBPLACEHOLDER
  5
57
102
{ACAD_REACTORS
330
56
102
}
330
56
  0
TABLESTYLE
  5
146
102
{ACAD_REACTORS
330
145
102
}
330
145
100
AcDbTableStyle
  3
Standard
 70
     0
 71
     0
 40
0.06
 41
0.06
280
     0
281
     0
  7
STANDARD
140
0.18
170
     2
 62
     0
 63
     7
283
     0
274
    -2
284
     1
 64
     0
275
    -2
285
     1
 65
     0
276
    -2
286
     1
 66
     0
277
    -2
287
     1
 67
     0
278
    -2
288
     1
 68
     0
279
    -2
289
     1
 69
     0
  7
STANDARD
140
0.25
170
     5
 62
     0
 63
     7
283
     0
274
    -2
284
     1
 64
     0
275
    -2
285
     1
 65
     0
276
    -2
286
     1
 66
     0
277
    -2
287
     1
 67
     0
278
    -2
288
     1
 68
     0
279
    -2
289
     1
 69
     0
  7
STANDARD
140
0.18
170
     5
 62
     0
 63
     7
283
     0
274
    -2
284
     1
 64
     0
275
    -2
285
     1
 65
     0
276
    -2
286
     1
 66
     0
277
    -2
287
     1
 67
     0
278
    -2
288
     1
 68
     0
279
    -2
289
     1
 69
     0
  0
DICTIONARYVAR
  5
1D2
102
{ACAD_REACTORS
330
1D1
102
}
330
1D1
100
DictionaryVariables
280
     0
  1
STANDARD
  0
DICTIONARYVAR
  5
D03
102
{ACAD_REACTORS
330
1D1
102
}
330
1D1
100
DictionaryVariables
280
     0
  1
1
  0
DICTIONARYVAR
  5
D04
102
{ACAD_REACTORS
330
1D1
102
}
330
1D1
100
DictionaryVariables
280
     0
  1

  0
DICTIONARY
  5
2111
330
5A
100
AcDbDictionary
280
     1
281
     1
  3
ACAD_XREC_ROUNDTRIP
360
2112
  0
DICTIONARY
  5
2113
330
5B
100
AcDbDictionary
280
     1
281
     1
  3
ACAD_XREC_ROUNDTRIP
360
2114
  0
XRECORD
  5
2112
102
{ACAD_REACTORS
330
2111
102
}
330
2111
100
AcDbXrecord
280
     1
102
SHADEPLOT
 70
     0
102
SHADEPLOTRESLEVEL
 70
     2
102
SHADEPLOTCUSTOMDPI
 70
   300
  0
XRECORD
  5
2114
102
{ACAD_REACTORS
330
2113
102
}
330
2113
100
AcDbXrecord
280
     1
102
SHADEPLOT
 70
     0
102
SHADEPLOTRESLEVEL
 70
     2
102
SHADEPLOTCUSTOMDPI
 70
   300
  0
ENDSEC
  0
EOF
