  0
SECTION
  2
HEADER
  9
$ACADVER
  1
AC1015
  9
$ACADMAINTVER
 70
    20
  9
$DWGCODEPAGE
  3
ANSI_932
  9
$INSBASE
 10
922.019522
 20
-675.4306699999999
 30
0.0
  9
$EXTMIN
 10
-0.0265517618947797
 20
-0.0160872526561207
 30
-0.0000000349181948
  9
$EXTMAX
 10
148.6949217663757
 20
159.5771491364578
 30
0.0000000814935746
  9
$LIMMIN
 10
0.0
 20
0.0
  9
$LIMMAX
 10
420.0
 20
297.0
  9
$ORTHOMODE
 70
     1
  9
$REGENMODE
 70
     1
  9
$FILLMODE
 70
     1
  9
$QTEXTMODE
 70
     0
  9
$MIRRTEXT
 70
     1
  9
$LTSCALE
 40
1.0
  9
$ATTMODE
 70
     1
  9
$TEXTSIZE
 40
30.0
  9
$TRACEWID
 40
0.05
  9
$TEXTSTYLE
  7
SUNPOU
  9
$CLAYER
  8
0
  9
$CELTYPE
  6
BYLAYER
  9
$CECOLOR
 62
   256
  9
$CELTSCALE
 40
1.0
  9
$DISPSILH
 70
     0
  9
$DIMSCALE
 40
1.0
  9
$DIMASZ
 40
2.0
  9
$DIMEXO
 40
10.0
  9
$DIMDLI
 40
0.38
  9
$DIMRND
 40
0.0
  9
$DIMDLE
 40
0.0
  9
$DIMEXE
 40
0.0
  9
$DIMTP
 40
0.0
  9
$DIMTM
 40
0.0
  9
$DIMTXT
 40
5.0
  9
$DIMCEN
 40
0.0
  9
$DIMTSZ
 40
0.0
  9
$DIMTOL
 70
     0
  9
$DIMLIM
 70
     0
  9
$DIMTIH
 70
     0
  9
$DIMTOH
 70
     0
  9
$DIMSE1
 70
     0
  9
$DIMSE2
 70
     0
  9
$DIMTAD
 70
     1
  9
$DIMZIN
 70
     0
  9
$DIMBLK
  1
Dot
  9
$DIMASO
 70
     1
  9
$DIMSHO
 70
     1
  9
$DIMPOST
  1

  9
$DIMAPOST
  1

  9
$DIMALT
 70
     0
  9
$DIMALTD
 70
     2
  9
$DIMALTF
 40
25.4
  9
$DIMLFAC
 40
1.0
  9
$DIMTOFL
 70
     0
  9
$DIMTVP
 40
0.0
  9
$DIMTIX
 70
     0
  9
$DIMSOXD
 70
     0
  9
$DIMSAH
 70
     0
  9
$DIMBLK1
  1

  9
$DIMBLK2
  1

  9
$DIMSTYLE
  2
STANDARD
  9
$DIMCLRD
 70
    60
  9
$DIMCLRE
 70
    70
  9
$DIMCLRT
 70
    60
  9
$DIMTFAC
 40
0.064286
  9
$DIMGAP
 40
3.0
  9
$DIMJUST
 70
     0
  9
$DIMSD1
 70
     0
  9
$DIMSD2
 70
     0
  9
$DIMTOLJ
 70
     1
  9
$DIMTZIN
 70
     0
  9
$DIMALTZ
 70
     0
  9
$DIMALTTZ
 70
     0
  9
$DIMUPT
 70
     0
  9
$DIMDEC
 70
     0
  9
$DIMTDEC
 70
     0
  9
$DIMALTU
 70
     2
  9
$DIMALTTD
 70
     2
  9
$DIMTXSTY
  7
SUNPOU
  9
$DIMAUNIT
 70
     0
  9
$DIMADEC
 70
     0
  9
$DIMALTRND
 40
0.0
  9
$DIMAZIN
 70
     0
  9
$DIMDSEP
 70
    46
  9
$DIMATFIT
 70
     3
  9
$DIMFRAC
 70
     0
  9
$DIMLDRBLK
  1

  9
$DIMLUNIT
 70
     2
  9
$DIMLWD
 70
    -2
  9
$DIMLWE
 70
    -2
  9
$DIMTMOVE
 70
     0
  9
$LUNITS
 70
     2
  9
$LUPREC
 70
     5
  9
$SKETCHINC
 40
0.1
  9
$FILLETRAD
 40
0.0
  9
$AUNITS
 70
     0
  9
$AUPREC
 70
     0
  9
$MENU
  1
acad
  9
$ELEVATION
 40
0.0
  9
$PELEVATION
 40
0.0
  9
$THICKNESS
 40
0.0
  9
$LIMCHECK
 70
     0
  9
$CHAMFERA
 40
0.0
  9
$CHAMFERB
 40
0.0
  9
$CHAMFERC
 40
0.0
  9
$CHAMFERD
 40
0.0
  9
$SKPOLY
 70
     0
  9
$TDCREATE
 40
2450623.654673033
  9
$TDUCREATE
 40
2450623.279673032
  9
$TDUPDATE
 40
2453866.586352257
  9
$TDUUPDATE
 40
2453866.211352257
  9
$TDINDWG
 40
0.1842019676
  9
$TDUSRTIMER
 40
0.1842017940
  9
$USRTIMER
 70
     1
  9
$ANGBASE
 50
0.0
  9
$ANGDIR
 70
     0
  9
$PDMODE
 70
     0
  9
$PDSIZE
 40
0.0
  9
$PLINEWID
 40
0.0
  9
$SPLFRAME
 70
     0
  9
$SPLINETYPE
 70
     6
  9
$SPLINESEGS
 70
     8
  9
$HANDSEED
  5
1F0B
  9
$SURFTAB1
 70
     6
  9
$SURFTAB2
 70
     6
  9
$SURFTYPE
 70
     6
  9
$SURFU
 70
     6
  9
$SURFV
 70
     6
  9
$UCSBASE
  2

  9
$UCSNAME
  2

  9
$UCSORG
 10
0.0
 20
0.0
 30
0.0
  9
$UCSXDIR
 10
1.0
 20
0.0
 30
0.0
  9
$UCSYDIR
 10
0.0
 20
1.0
 30
0.0
  9
$UCSORTHOREF
  2

  9
$UCSORTHOVIEW
 70
     0
  9
$UCSORGTOP
 10
0.0
 20
0.0
 30
0.0
  9
$UCSORGBOTTOM
 10
0.0
 20
0.0
 30
0.0
  9
$UCSORGLEFT
 10
0.0
 20
0.0
 30
0.0
  9
$UCSORGRIGHT
 10
0.0
 20
0.0
 30
0.0
  9
$UCSORGFRONT
 10
0.0
 20
0.0
 30
0.0
  9
$UCSORGBACK
 10
0.0
 20
0.0
 30
0.0
  9
$PUCSBASE
  2

  9
$PUCSNAME
  2

  9
$PUCSORG
 10
0.0
 20
0.0
 30
0.0
  9
$PUCSXDIR
 10
1.0
 20
0.0
 30
0.0
  9
$PUCSYDIR
 10
0.0
 20
1.0
 30
0.0
  9
$PUCSORTHOREF
  2

  9
$PUCSORTHOVIEW
 70
     0
  9
$PUCSORGTOP
 10
0.0
 20
0.0
 30
0.0
  9
$PUCSORGBOTTOM
 10
0.0
 20
0.0
 30
0.0
  9
$PUCSORGLEFT
 10
0.0
 20
0.0
 30
0.0
  9
$PUCSORGRIGHT
 10
0.0
 20
0.0
 30
0.0
  9
$PUCSORGFRONT
 10
0.0
 20
0.0
 30
0.0
  9
$PUCSORGBACK
 10
0.0
 20
0.0
 30
0.0
  9
$USERI1
 70
     0
  9
$USERI2
 70
     0
  9
$USERI3
 70
     0
  9
$USERI4
 70
     0
  9
$USERI5
 70
     0
  9
$USERR1
 40
0.0
  9
$USERR2
 40
0.0
  9
$USERR3
 40
0.0
  9
$USERR4
 40
0.0
  9
$USERR5
 40
0.0
  9
$WORLDVIEW
 70
     1
  9
$SHADEDGE
 70
     3
  9
$SHADEDIF
 70
    70
  9
$TILEMODE
 70
     1
  9
$MAXACTVP
 70
    16
  9
$PINSBASE
 10
0.0
 20
0.0
 30
0.0
  9
$PLIMCHECK
 70
     0
  9
$PEXTMIN
 10
1.000000000000000E+20
 20
1.000000000000000E+20
 30
1.000000000000000E+20
  9
$PEXTMAX
 10
-1.000000000000000E+20
 20
-1.000000000000000E+20
 30
-1.000000000000000E+20
  9
$PLIMMIN
 10
0.0
 20
0.0
  9
$PLIMMAX
 10
12.0
 20
9.0
  9
$UNITMODE
 70
     0
  9
$VISRETAIN
 70
     0
  9
$PLINEGEN
 70
     0
  9
$PSLTSCALE
 70
     1
  9
$TREEDEPTH
 70
  3020
  9
$CMLSTYLE
  2
STANDARD
  9
$CMLJUST
 70
     0
  9
$CMLSCALE
 40
1.0
  9
$PROXYGRAPHICS
 70
     1
  9
$MEASUREMENT
 70
     0
  9
$CELWEIGHT
370
    -1
  9
$ENDCAPS
280
     0
  9
$JOINSTYLE
280
     0
  9
$LWDISPLAY
290
     0
  9
$INSUNITS
 70
     0
  9
$HYPERLINKBASE
  1

  9
$STYLESHEET
  1

  9
$XEDIT
290
     1
  9
$CEPSNTYPE
380
     0
  9
$PSTYLEMODE
290
     1
  9
$FINGERPRINTGUID
  2
{FB88A696-E29C-4009-92AF-A3599A8169D5}
  9
$VERSIONGUID
  2
{90915041-6340-4F88-8028-10C9618A99FB}
  9
$EXTNAMES
290
     1
  9
$PSVPSCALE
 40
0.0
  9
$OLESTARTUP
290
     0
  0
ENDSEC
  0
SECTION
  2
CLASSES
  0
CLASS
  1
DICTIONARYVAR
  2
AcDbDictionaryVar
  3
ObjectDBX Classes
 90
        0
280
     0
281
     0
  0
CLASS
  1
ACDBDICTIONARYWDFLT
  2
AcDbDictionaryWithDefault
  3
ObjectDBX Classes
 90
        0
280
     0
281
     0
  0
CLASS
  1
ACDBPLACEHOLDER
  2
AcDbPlaceHolder
  3
ObjectDBX Classes
 90
        0
280
     0
281
     0
  0
CLASS
  1
LAYOUT
  2
AcDbLayout
  3
ObjectDBX Classes
 90
        0
280
     0
281
     0
  0
CLASS
  1
TABLESTYLE
  2
AcDbTableStyle
  3
ObjectDBX Classes
 90
     2047
280
     0
281
     0
  0
CLASS
  1
SORTENTSTABLE
  2
AcDbSortentsTable
  3
ObjectDBX Classes
 90
        0
280
     0
281
     0
  0
ENDSEC
  0
SECTION
  2
TABLES
  0
TABLE
  2
VPORT
  5
12
330
0
100
AcDbSymbolTable
 70
    14
  0
VPORT
  5
1F05
330
12
100
AcDbSymbolTableRecord
100
AcDbViewportTableRecord
  2
*Active
 70
     0
 10
0.0
 20
0.0
 11
1.0
 21
1.0
 12
74.33418500224047
 22
79.78053094190085
 13
0.0
 23
0.0
 14
1.0
 24
1.0
 15
0.0
 25
0.0
 16
0.0
 26
0.0
 36
1.0
 17
0.0
 27
0.0
 37
0.0
 40
160.8193047864695
 41
1.565384615384615
 42
50.0
 43
0.0
 44
0.0
 50
0.0
 51
0.0
 71
     0
 72
 20000
 73
     1
 74
     1
 75
     0
 76
     0
 77
     0
 78
     0
281
     0
 65
     1
110
0.0
120
0.0
130
0.0
111
1.0
121
0.0
131
0.0
112
0.0
122
1.0
132
0.0
 79
     0
146
0.0
  0
ENDTAB
  0
TABLE
  2
LTYPE
  5
D
330
0
100
AcDbSymbolTable
 70
     2
  0
LTYPE
  5
E
330
D
100
AcDbSymbolTableRecord
100
AcDbLinetypeTableRecord
  2
BYBLOCK
 70
     0
  3

 72
    65
 73
     0
 40
0.0
  0
LTYPE
  5
F
330
D
100
AcDbSymbolTableRecord
100
AcDbLinetypeTableRecord
  2
BYLAYER
 70
     0
  3

 72
    65
 73
     0
 40
0.0
  0
LTYPE
  5
5
330
D
100
AcDbSymbolTableRecord
100
AcDbLinetypeTableRecord
  2
CONTINUOUS
 70
     0
  3
Solid line
 72
    65
 73
     0
 40
0.0
  0
ENDTAB
  0
TABLE
  2
LAYER
  5
A
102
{ACAD_XDICTIONARY
360
1B4
102
}
330
0
100
AcDbSymbolTable
 70
     6
  0
LAYER
  5
4
330
A
100
AcDbSymbolTableRecord
100
AcDbLayerTableRecord
  2
0
 70
     0
 62
     7
  6
CONTINUOUS
370
    -3
390
57
  0
LAYER
  5
25
330
A
100
AcDbSymbolTableRecord
100
AcDbLayerTableRecord
  2
KIJUN
 70
     0
 62
     7
  6
CONTINUOUS
370
    -3
390
57
  0
LAYER
  5
22
330
A
100
AcDbSymbolTableRecord
100
AcDbLayerTableRecord
  2
HOJO
 70
     0
 62
     3
  6
CONTINUOUS
370
    -3
390
57
  0
LAYER
  5
1B
330
A
100
AcDbSymbolTableRecord
100
AcDbLayerTableRecord
  2
WAKU
 70
     0
 62
     1
  6
CONTINUOUS
370
    -3
390
57
  0
LAYER
  5
31
330
A
100
AcDbSymbolTableRecord
100
AcDbLayerTableRecord
  2
DEFPOINTS
 70
     0
 62
     7
  6
CONTINUOUS
290
     0
370
    -3
390
57
  0
LAYER
  5
28
330
A
100
AcDbSymbolTableRecord
100
AcDbLayerTableRecord
  2
SUNPOU
 70
     0
 62
    70
  6
CONTINUOUS
370
    -3
390
57
  0
ENDTAB
  0
TABLE
  2
STYLE
  5
B
330
0
100
AcDbSymbolTable
 70
     3
  0
STYLE
  5
C
330
B
100
AcDbSymbolTableRecord
100
AcDbTextStyleTableRecord
  2
STANDARD
 70
     0
 40
0.0
 41
1.0
 50
0.0
 71
     0
 42
0.2
  3
txt
  4

  0
STYLE
  5
1C
330
B
100
AcDbSymbolTableRecord
100
AcDbTextStyleTableRecord
  2
SUNPOU
 70
     0
 40
0.0
 41
1.0
 50
0.0
 71
     0
 42
30.0
  3
txt
  4
bigfont
  0
STYLE
  5
14A
330
B
100
AcDbSymbolTableRecord
100
AcDbTextStyleTableRecord
  2
LIFE
 70
     0
 40
0.0
 41
0.7
 50
0.0
 71
     0
 42
10.0
  3
romans
  4
extfont
  0
ENDTAB
  0
TABLE
  2
VIEW
  5
10
330
0
100
AcDbSymbolTable
 70
     0
  0
ENDTAB
  0
TABLE
  2
UCS
  5
11
330
0
100
AcDbSymbolTable
 70
     0
  0
ENDTAB
  0
TABLE
  2
APPID
  5
14
330
0
100
AcDbSymbolTable
 70
    10
  0
APPID
  5
15
330
14
100
AcDbSymbolTableRecord
100
AcDbRegAppTableRecord
  2
ACAD
 70
     0
  0
APPID
  5
1D3
330
14
100
AcDbSymbolTableRecord
100
AcDbRegAppTableRecord
  2
ACAD_DSTYLE_DIMTEXT_FILL
 70
     0
  0
APPID
  5
1D4
330
14
100
AcDbSymbolTableRecord
100
AcDbRegAppTableRecord
  2
ACAD_DSTYLE_DIMEXT_LENGTH
 70
     0
  0
APPID
  5
1D5
330
14
100
AcDbSymbolTableRecord
100
AcDbRegAppTableRecord
  2
ACAD_DSTYLE_DIMEXT_ENABLED
 70
     0
  0
APPID
  5
1D6
330
14
100
AcDbSymbolTableRecord
100
AcDbRegAppTableRecord
  2
ACAD_DSTYLE_DIM_LINETYPE
 70
     0
  0
APPID
  5
1D7
330
14
100
AcDbSymbolTableRecord
100
AcDbRegAppTableRecord
  2
ACAD_DSTYLE_DIM_EXT1_LINETYPE
 70
     0
  0
APPID
  5
1D8
330
14
100
AcDbSymbolTableRecord
100
AcDbRegAppTableRecord
  2
ACAD_DSTYLE_DIM_EXT2_LINETYPE
 70
     0
  0
APPID
  5
294
330
14
100
AcDbSymbolTableRecord
100
AcDbRegAppTableRecord
  2
ACAD_DSTYLE_DIMJOGGED_JOGANGLE_SYMBOL
 70
     0
  0
APPID
  5
478
330
14
100
AcDbSymbolTableRecord
100
AcDbRegAppTableRecord
  2
ACAD_DSTYLE_DIMARC_LENGTH_SYMBOL
 70
     0
  0
APPID
  5
F55
330
14
100
AcDbSymbolTableRecord
100
AcDbRegAppTableRecord
  2
ACAD_EXEMPT_FROM_CAD_STANDARDS
 70
     0
  0
ENDTAB
  0
TABLE
  2
DIMSTYLE
  5
16
330
0
100
AcDbSymbolTable
 70
     3
100
AcDbDimStyleTable
 71
     1
340
1E
  0
DIMSTYLE
105
1E
102
{ACAD_REACTORS
330
1EBB
102
}
330
16
100
AcDbSymbolTableRecord
100
AcDbDimStyleTableRecord
  2
STANDARD
 70
     0
340
C
  0
DIMSTYLE
105
1005
330
16
100
AcDbSymbolTableRecord
100
AcDbDimStyleTableRecord
  2
1-100
 70
     0
 40
100.0
 41
0.7
 42
2.5
 43
5.0
 44
1.0
 77
     1
147
1.0
172
     1
176
     3
177
     3
271
     2
272
     2
279
     2
340
C
342
109
  0
ENDTAB
  0
TABLE
  2
BLOCK_RECORD
  5
1
330
0
100
AcDbSymbolTable
 70
    12
  0
BLOCK_RECORD
  5
2
102
{ACAD_XDICTIONARY
360
D13
102
}
330
1
100
AcDbSymbolTableRecord
100
AcDbBlockTableRecord
  2
*MODEL_SPACE
340
5A
  0
BLOCK_RECORD
  5
7
330
1
100
AcDbSymbolTableRecord
100
AcDbBlockTableRecord
  2
*PAPER_SPACE
340
5B
  0
BLOCK_RECORD
  5
109
330
1
100
AcDbSymbolTableRecord
100
AcDbBlockTableRecord
  2
_Dot
340
0
102
{BLKREFS
331
1795
331
1796
331
17B6
331
17B7
331
1AD5
331
1AD6
331
1AF0
331
1AF1
331
1D52
331
1D53
331
1D5B
331
1D5C
331
1EF8
331
1EF9
102
}
  0
BLOCK_RECORD
  5
1791
330
1
100
AcDbSymbolTableRecord
100
AcDbBlockTableRecord
  2
*D1
340
0
  0
BLOCK_RECORD
  5
179E
330
1
100
AcDbSymbolTableRecord
100
AcDbBlockTableRecord
  2
*D2
340
0
  0
BLOCK_RECORD
  5
1A2C
330
1
100
AcDbSymbolTableRecord
100
AcDbBlockTableRecord
  2
*D5
340
0
  0
BLOCK_RECORD
  5
1A39
330
1
100
AcDbSymbolTableRecord
100
AcDbBlockTableRecord
  2
*D6
340
0
  0
BLOCK_RECORD
  5
1CBE
330
1
100
AcDbSymbolTableRecord
100
AcDbBlockTableRecord
  2
*D8
340
0
  0
BLOCK_RECORD
  5
1CCB
330
1
100
AcDbSymbolTableRecord
100
AcDbBlockTableRecord
  2
*D9
340
0
  0
BLOCK_RECORD
  5
1EBC
330
1
100
AcDbSymbolTableRecord
100
AcDbBlockTableRecord
  2
*D11
340
0
  0
ENDTAB
  0
ENDSEC
  0
SECTION
  2
BLOCKS
  0
BLOCK
  5
3
330
2
100
AcDbEntity
  8
0
100
AcDbBlockBegin
  2
*MODEL_SPACE
 70
     0
 10
0.0
 20
0.0
 30
0.0
  3
*MODEL_SPACE
  1

  0
ENDBLK
  5
6
330
2
100
AcDbEntity
  8
0
100
AcDbBlockEnd
  0
BLOCK
  5
8
330
7
100
AcDbEntity
 67
     1
  8
0
100
AcDbBlockBegin
  2
*PAPER_SPACE
 70
     0
 10
0.0
 20
0.0
 30
0.0
  3
*PAPER_SPACE
  1

  0
ENDBLK
  5
9
330
7
100
AcDbEntity
 67
     1
  8
0
100
AcDbBlockEnd
  0
BLOCK
  5
10C
330
109
100
AcDbEntity
  8
0
100
AcDbBlockBegin
  2
_Dot
 70
     0
 10
0.0
 20
0.0
 30
0.0
  3
_Dot
  1

  0
LWPOLYLINE
  5
10A
330
109
100
AcDbEntity
  8
0
  6
ByBlock
 62
     0
100
AcDbPolyline
 90
        2
 70
     1
 43
0.5
 10
-0.25
 20
0.0
 42
1.0
 10
0.25
 20
0.0
 42
1.0
  0
LINE
  5
10B
330
109
100
AcDbEntity
  8
0
  6
ByBlock
 62
     0
370
    -2
100
AcDbLine
 10
-0.5
 20
0.0
 30
0.0
 11
-1.0
 21
0.0
 31
0.0
  0
ENDBLK
  5
10D
330
109
100
AcDbEntity
  8
0
100
AcDbBlockEnd
  0
BLOCK
  5
179B
330
1791
100
AcDbEntity
  8
0
100
AcDbBlockBegin
  2
*D1
 70
     1
 10
0.0
 20
0.0
 30
0.0
  3
*D1
  1

  0
LINE
  5
1792
330
1791
100
AcDbEntity
  8
SUNPOU
 62
    70
370
    -2
100
AcDbLine
 10
-46.52890652674415
 20
109.7967704641167
 30
0.0
 11
-46.52890652674415
 21
123.8043186415536
 31
0.0
  0
LINE
  5
1793
330
1791
100
AcDbEntity
  8
SUNPOU
 62
    70
370
    -2
100
AcDbLine
 10
190.4710934732558
 20
109.7967704641167
 30
0.0
 11
190.4710934732558
 21
123.8043186415536
 31
0.0
  0
LINE
  5
1794
330
1791
100
AcDbEntity
  8
SUNPOU
 62
    60
370
    -2
100
AcDbLine
 10
-44.52890652674414
 20
123.8043186415536
 30
0.0
 11
188.4710934732558
 21
123.8043186415536
 31
0.0
  0
INSERT
  5
1795
330
1791
100
AcDbEntity
  8
SUNPOU
 62
    60
370
    -2
100
AcDbBlockReference
  2
_Dot
 10
-46.52890652674415
 20
123.8043186415536
 30
0.0
 41
2.0
 42
2.0
 43
2.0
 50
180.0
  0
INSERT
  5
1796
330
1791
100
AcDbEntity
  8
SUNPOU
 62
    60
370
    -2
100
AcDbBlockReference
  2
_Dot
 10
190.4710934732558
 20
123.8043186415536
 30
0.0
 41
2.0
 42
2.0
 43
2.0
  0
MTEXT
  5
1797
330
1791
100
AcDbEntity
  8
SUNPOU
 62
    60
100
AcDbMText
 10
71.97109347325583
 20
129.3043186415536
 30
0.0
 40
5.0
 41
0.0
 71
     5
 72
     1
  1
\A1;237
  7
SUNPOU
 73
     1
 44
1.0
1001
ACAD
1000
MTEXTBEGIN
1070
    73
1070
     1
1070
    44
1040
1.0
1070
    74
1070
     0
1000
MTEXTEND
  0
POINT
  5
1798
330
1791
100
AcDbEntity
  8
DEFPOINTS
 62
     0
100
AcDbPoint
 10
-46.52890652674415
 20
99.79677046411669
 30
0.0
  0
POINT
  5
1799
330
1791
100
AcDbEntity
  8
DEFPOINTS
 62
     0
100
AcDbPoint
 10
190.4710934732558
 20
99.79677046411669
 30
0.0
  0
POINT
  5
179A
330
1791
100
AcDbEntity
  8
DEFPOINTS
 62
     0
100
AcDbPoint
 10
190.4710934732558
 20
123.8043186415536
 30
0.0
  0
ENDBLK
  5
179C
330
1791
100
AcDbEntity
  8
0
100
AcDbBlockEnd
  0
BLOCK
  5
17A8
330
179E
100
AcDbEntity
  8
0
100
AcDbBlockBegin
  2
*D2
 70
     1
 10
0.0
 20
0.0
 30
0.0
  3
*D2
  1

  0
LINE
  5
17B3
330
179E
100
AcDbEntity
  8
SUNPOU
 62
    70
370
    -2
100
AcDbLine
 10
-56.47599811229554
 20
104.5730595009246
 30
0.0
 11
-68.00703225063078
 21
104.5730595009246
 31
0.0
  0
LINE
  5
17B4
330
179E
100
AcDbEntity
  8
SUNPOU
 62
    70
370
    -2
100
AcDbLine
 10
-55.69794902962382
 20
35.57305950092451
 30
0.0
 11
-68.0070322506308
 21
35.57305950092451
 31
0.0
  0
LINE
  5
17B5
330
179E
100
AcDbEntity
  8
SUNPOU
 62
    60
370
    -2
100
AcDbLine
 10
-68.00703225063078
 20
102.5730595009246
 30
0.0
 11
-68.0070322506308
 21
37.57305950092451
 31
0.0
  0
INSERT
  5
17B6
330
179E
100
AcDbEntity
  8
SUNPOU
 62
    60
370
    -2
100
AcDbBlockReference
  2
_Dot
 10
-68.00703225063078
 20
104.5730595009246
 30
0.0
 41
2.0
 42
2.0
 43
2.0
 50
90.0
  0
INSERT
  5
17B7
330
179E
100
AcDbEntity
  8
SUNPOU
 62
    60
370
    -2
100
AcDbBlockReference
  2
_Dot
 10
-68.0070322506308
 20
35.57305950092451
 30
0.0
 41
2.0
 42
2.0
 43
2.0
 50
270.0
  0
MTEXT
  5
17B8
330
179E
100
AcDbEntity
  8
SUNPOU
 62
    60
100
AcDbMText
 10
-73.50703225063082
 20
70.07305950092455
 30
0.0
 40
5.0
 41
0.0
 71
     5
 72
     1
  1
\A1;69
  7
SUNPOU
 11
0.0000000000000001
 21
1.0
 31
0.0
 73
     1
 44
1.0
1001
ACAD
1000
MTEXTBEGIN
1070
    73
1070
     1
1070
    44
1040
1.0
1070
    74
1070
     0
1000
MTEXTEND
  0
POINT
  5
17B9
330
179E
100
AcDbEntity
  8
DEFPOINTS
 62
     0
100
AcDbPoint
 10
-46.47599811229554
 20
104.5730595009246
 30
0.0
  0
POINT
  5
17BA
330
179E
100
AcDbEntity
  8
DEFPOINTS
 62
     0
100
AcDbPoint
 10
-45.69794902962382
 20
35.5730595009245
 30
0.0
  0
POINT
  5
17BB
330
179E
100
AcDbEntity
  8
DEFPOINTS
 62
     0
100
AcDbPoint
 10
-68.0070322506308
 20
35.57305950092451
 30
0.0
  0
ENDBLK
  5
17A9
330
179E
100
AcDbEntity
  8
0
100
AcDbBlockEnd
  0
BLOCK
  5
1A36
330
1A2C
100
AcDbEntity
  8
0
100
AcDbBlockBegin
  2
*D5
 70
     1
 10
0.0
 20
0.0
 30
0.0
  3
*D5
  1

  0
LINE
  5
1AED
330
1A2C
100
AcDbEntity
  8
SUNPOU
 62
    70
370
    -2
100
AcDbLine
 10
0.4099833051092225
 20
155.5697431380477
 30
0.0
 11
0.4099833051092262
 21
214.4644514744918
 31
0.0
  0
LINE
  5
1AEE
330
1A2C
100
AcDbEntity
  8
SUNPOU
 62
    70
370
    -2
100
AcDbLine
 10
150.4099833049592
 20
155.5697431380477
 30
0.0
 11
150.4099833049592
 21
214.4644514744918
 31
0.0
  0
LINE
  5
1AEF
330
1A2C
100
AcDbEntity
  8
SUNPOU
 62
    60
370
    -2
100
AcDbLine
 10
2.409983305109226
 20
214.4644514744918
 30
0.0
 11
148.4099833049592
 21
214.4644514744918
 31
0.0
  0
INSERT
  5
1AF0
330
1A2C
100
AcDbEntity
  8
SUNPOU
 62
    60
370
    -2
100
AcDbBlockReference
  2
_Dot
 10
0.4099833051092262
 20
214.4644514744918
 30
0.0
 41
2.0
 42
2.0
 43
2.0
 50
180.0
  0
INSERT
  5
1AF1
330
1A2C
100
AcDbEntity
  8
SUNPOU
 62
    60
370
    -2
100
AcDbBlockReference
  2
_Dot
 10
150.4099833049592
 20
214.4644514744918
 30
0.0
 41
2.0
 42
2.0
 43
2.0
  0
MTEXT
  5
1AF2
330
1A2C
100
AcDbEntity
  8
SUNPOU
 62
    60
100
AcDbMText
 10
75.4099833050342
 20
219.9644514744918
 30
0.0
 40
5.0
 41
0.0
 71
     5
 72
     1
  1
\A1;150
  7
SUNPOU
 73
     1
 44
1.0
1001
ACAD
1000
MTEXTBEGIN
1070
    73
1070
     1
1070
    44
1040
1.0
1070
    74
1070
     0
1000
MTEXTEND
  0
POINT
  5
1AF3
330
1A2C
100
AcDbEntity
  8
DEFPOINTS
 62
     0
100
AcDbPoint
 10
0.4099833051092219
 20
145.5697431380477
 30
0.0
  0
POINT
  5
1AF4
330
1A2C
100
AcDbEntity
  8
DEFPOINTS
 62
     0
100
AcDbPoint
 10
150.4099833049592
 20
145.5697431380476
 30
0.0
  0
POINT
  5
1AF5
330
1A2C
100
AcDbEntity
  8
DEFPOINTS
 62
     0
100
AcDbPoint
 10
150.4099833049592
 20
214.4644514744918
 30
0.0
  0
ENDBLK
  5
1A37
330
1A2C
100
AcDbEntity
  8
0
100
AcDbBlockEnd
  0
BLOCK
  5
1A43
330
1A39
100
AcDbEntity
  8
0
100
AcDbBlockBegin
  2
*D6
 70
     1
 10
0.0
 20
0.0
 30
0.0
  3
*D6
  1

  0
LINE
  5
1AD2
330
1A39
100
AcDbEntity
  8
SUNPOU
 62
    70
370
    -2
100
AcDbLine
 10
33.23629012152791
 20
188.3904832503148
 30
0.0
 11
-29.1235869828573
 21
188.3904832503148
 31
0.0
  0
LINE
  5
1AD3
330
1A39
100
AcDbEntity
  8
SUNPOU
 62
    70
370
    -2
100
AcDbLine
 10
33.23629012152788
 20
38.3904832504648
 30
0.0
 11
-29.12358698285733
 21
38.39048325046482
 31
0.0
  0
LINE
  5
1AD4
330
1A39
100
AcDbEntity
  8
SUNPOU
 62
    60
370
    -2
100
AcDbLine
 10
-29.12358698285729
 20
186.3904832503148
 30
0.0
 11
-29.12358698285732
 21
40.39048325046482
 31
0.0
  0
INSERT
  5
1AD5
330
1A39
100
AcDbEntity
  8
SUNPOU
 62
    60
370
    -2
100
AcDbBlockReference
  2
_Dot
 10
-29.12358698285729
 20
188.3904832503148
 30
0.0
 41
2.0
 42
2.0
 43
2.0
 50
90.0
  0
INSERT
  5
1AD6
330
1A39
100
AcDbEntity
  8
SUNPOU
 62
    60
370
    -2
100
AcDbBlockReference
  2
_Dot
 10
-29.12358698285733
 20
38.39048325046482
 30
0.0
 41
2.0
 42
2.0
 43
2.0
 50
270.0
  0
MTEXT
  5
1AD7
330
1A39
100
AcDbEntity
  8
SUNPOU
 62
    60
100
AcDbMText
 10
-34.62358698285733
 20
113.3904832503898
 30
0.0
 40
5.0
 41
0.0
 71
     5
 72
     1
  1
\A1;150
  7
SUNPOU
 11
0.0000000000000001
 21
1.0
 31
0.0
 73
     1
 44
1.0
1001
ACAD
1000
MTEXTBEGIN
1070
    73
1070
     1
1070
    44
1040
1.0
1070
    74
1070
     0
1000
MTEXTEND
  0
POINT
  5
1AD8
330
1A39
100
AcDbEntity
  8
DEFPOINTS
 62
     0
100
AcDbPoint
 10
43.23629012152791
 20
188.3904832503148
 30
0.0
  0
POINT
  5
1AD9
330
1A39
100
AcDbEntity
  8
DEFPOINTS
 62
     0
100
AcDbPoint
 10
43.23629012152787
 20
38.3904832504648
 30
0.0
  0
POINT
  5
1ADA
330
1A39
100
AcDbEntity
  8
DEFPOINTS
 62
     0
100
AcDbPoint
 10
-29.12358698285733
 20
38.39048325046482
 30
0.0
  0
ENDBLK
  5
1A44
330
1A39
100
AcDbEntity
  8
0
100
AcDbBlockEnd
  0
BLOCK
  5
1CC8
330
1CBE
100
AcDbEntity
  8
0
100
AcDbBlockBegin
  2
*D8
 70
     1
 10
0.0
 20
0.0
 30
0.0
  3
*D8
  1

  0
LINE
  5
1D4F
330
1CBE
100
AcDbEntity
  8
SUNPOU
 62
    70
370
    -2
100
AcDbLine
 10
21.55944455883827
 20
121.773419890515
 30
0.0
 11
21.55944455883828
 21
164.3899496370122
 31
0.0
  0
LINE
  5
1D50
330
1CBE
100
AcDbEntity
  8
SUNPOU
 62
    70
370
    -2
100
AcDbLine
 10
136.5594445580484
 20
122.9204094425936
 30
0.0
 11
136.5594445580484
 21
164.3899496370122
 31
0.0
  0
LINE
  5
1D51
330
1CBE
100
AcDbEntity
  8
SUNPOU
 62
    60
370
    -2
100
AcDbLine
 10
23.55944455883828
 20
164.3899496370122
 30
0.0
 11
134.5594445580484
 21
164.3899496370122
 31
0.0
  0
INSERT
  5
1D52
330
1CBE
100
AcDbEntity
  8
SUNPOU
 62
    60
370
    -2
100
AcDbBlockReference
  2
_Dot
 10
21.55944455883828
 20
164.3899496370122
 30
0.0
 41
2.0
 42
2.0
 43
2.0
 50
180.0
  0
INSERT
  5
1D53
330
1CBE
100
AcDbEntity
  8
SUNPOU
 62
    60
370
    -2
100
AcDbBlockReference
  2
_Dot
 10
136.5594445580484
 20
164.3899496370122
 30
0.0
 41
2.0
 42
2.0
 43
2.0
  0
MTEXT
  5
1D54
330
1CBE
100
AcDbEntity
  8
SUNPOU
 62
    60
100
AcDbMText
 10
79.05944455844331
 20
169.8899496370122
 30
0.0
 40
5.0
 41
0.0
 71
     5
 72
     1
  1
\A1;115
  7
SUNPOU
 73
     1
 44
1.0
1001
ACAD
1000
MTEXTBEGIN
1070
    73
1070
     1
1070
    44
1040
1.0
1070
    74
1070
     0
1000
MTEXTEND
  0
POINT
  5
1D55
330
1CBE
100
AcDbEntity
  8
DEFPOINTS
 62
     0
100
AcDbPoint
 10
21.55944455883827
 20
111.773419890515
 30
0.0
  0
POINT
  5
1D56
330
1CBE
100
AcDbEntity
  8
DEFPOINTS
 62
     0
100
AcDbPoint
 10
136.5594445580484
 20
112.9204094425936
 30
0.0
  0
POINT
  5
1D57
330
1CBE
100
AcDbEntity
  8
DEFPOINTS
 62
     0
100
AcDbPoint
 10
136.5594445580484
 20
164.3899496370122
 30
0.0
  0
ENDBLK
  5
1CC9
330
1CBE
100
AcDbEntity
  8
0
100
AcDbBlockEnd
  0
BLOCK
  5
1CD5
330
1CCB
100
AcDbEntity
  8
0
100
AcDbBlockBegin
  2
*D9
 70
     1
 10
0.0
 20
0.0
 30
0.0
  3
*D9
  1

  0
LINE
  5
1D58
330
1CCB
100
AcDbEntity
  8
SUNPOU
 62
    70
370
    -2
100
AcDbLine
 10
43.83271690773127
 20
145.1936817914867
 30
0.0
 11
4.078330739399472
 21
145.1936817914867
 31
0.0
  0
LINE
  5
1D59
330
1CCB
100
AcDbEntity
  8
SUNPOU
 62
    70
370
    -2
100
AcDbLine
 10
44.97970645980994
 20
30.19368179227669
 30
0.0
 11
4.078330739399454
 21
30.1936817922767
 31
0.0
  0
LINE
  5
1D5A
330
1CCB
100
AcDbEntity
  8
SUNPOU
 62
    60
370
    -2
100
AcDbLine
 10
4.078330739399476
 20
143.1936817914867
 30
0.0
 11
4.078330739399451
 21
32.1936817922767
 31
0.0
  0
INSERT
  5
1D5B
330
1CCB
100
AcDbEntity
  8
SUNPOU
 62
    60
370
    -2
100
AcDbBlockReference
  2
_Dot
 10
4.078330739399476
 20
145.1936817914867
 30
0.0
 41
2.0
 42
2.0
 43
2.0
 50
90.0
  0
INSERT
  5
1D5C
330
1CCB
100
AcDbEntity
  8
SUNPOU
 62
    60
370
    -2
100
AcDbBlockReference
  2
_Dot
 10
4.078330739399451
 20
30.1936817922767
 30
0.0
 41
2.0
 42
2.0
 43
2.0
 50
270.0
  0
MTEXT
  5
1D5D
330
1CCB
100
AcDbEntity
  8
SUNPOU
 62
    60
100
AcDbMText
 10
-1.42166926060055
 20
87.69368179188173
 30
0.0
 40
5.0
 41
0.0
 71
     5
 72
     1
  1
\A1;115
  7
SUNPOU
 11
0.0000000000000001
 21
1.0
 31
0.0
 73
     1
 44
1.0
1001
ACAD
1000
MTEXTBEGIN
1070
    73
1070
     1
1070
    44
1040
1.0
1070
    74
1070
     0
1000
MTEXTEND
  0
POINT
  5
1D5E
330
1CCB
100
AcDbEntity
  8
DEFPOINTS
 62
     0
100
AcDbPoint
 10
53.83271690773127
 20
145.1936817914867
 30
0.0
  0
POINT
  5
1D5F
330
1CCB
100
AcDbEntity
  8
DEFPOINTS
 62
     0
100
AcDbPoint
 10
54.97970645980994
 20
30.19368179227669
 30
0.0
  0
POINT
  5
1D60
330
1CCB
100
AcDbEntity
  8
DEFPOINTS
 62
     0
100
AcDbPoint
 10
4.078330739399451
 20
30.1936817922767
 30
0.0
  0
ENDBLK
  5
1CD6
330
1CCB
100
AcDbEntity
  8
0
100
AcDbBlockEnd
  0
BLOCK
  5
1EC6
330
1EBC
100
AcDbEntity
  8
0
100
AcDbBlockBegin
  2
*D11
 70
     1
 10
0.0
 20
0.0
 30
0.0
  3
*D11
  1

  0
LINE
  5
1EF5
330
1EBC
100
AcDbEntity
  8
SUNPOU
 62
    70
370
    -2
100
AcDbLine
 10
23.2740815258594
 20
99.86022233232484
 30
0.0
 11
23.2740815258594
 21
151.5591591995294
 31
0.0
  0
LINE
  5
1EF6
330
1EBC
100
AcDbEntity
  8
SUNPOU
 62
    70
370
    -2
100
AcDbLine
 10
121.2740815258594
 20
99.86022233232484
 30
0.0
 11
121.2740815258594
 21
151.5591591995294
 31
0.0
  0
LINE
  5
1EF7
330
1EBC
100
AcDbEntity
  8
SUNPOU
 62
    60
370
    -2
100
AcDbLine
 10
25.27408152585941
 20
151.5591591995294
 30
0.0
 11
119.2740815258594
 21
151.5591591995294
 31
0.0
  0
INSERT
  5
1EF8
330
1EBC
100
AcDbEntity
  8
SUNPOU
 62
    60
370
    -2
100
AcDbBlockReference
  2
_Dot
 10
23.2740815258594
 20
151.5591591995294
 30
0.0
 41
2.0
 42
2.0
 43
2.0
 50
180.0
  0
INSERT
  5
1EF9
330
1EBC
100
AcDbEntity
  8
SUNPOU
 62
    60
370
    -2
100
AcDbBlockReference
  2
_Dot
 10
121.2740815258594
 20
151.5591591995294
 30
0.0
 41
2.0
 42
2.0
 43
2.0
  0
MTEXT
  5
1EFA
330
1EBC
100
AcDbEntity
  8
SUNPOU
 62
    60
100
AcDbMText
 10
72.2740815258594
 20
157.0591591995294
 30
0.0
 40
5.0
 41
0.0
 71
     5
 72
     1
  1
\A1;98φ
  7
SUNPOU
 73
     1
 44
1.0
1001
ACAD
1000
MTEXTBEGIN
1070
    73
1070
     1
1070
    44
1040
1.0
1070
    74
1070
     0
1000
MTEXTEND
  0
POINT
  5
1EFB
330
1EBC
100
AcDbEntity
  8
DEFPOINTS
 62
     0
100
AcDbPoint
 10
23.2740815258594
 20
89.86022233232484
 30
0.0
  0
POINT
  5
1EFC
330
1EBC
100
AcDbEntity
  8
DEFPOINTS
 62
     0
100
AcDbPoint
 10
121.2740815258594
 20
89.86022233232484
 30
0.0
  0
POINT
  5
1EFD
330
1EBC
100
AcDbEntity
  8
DEFPOINTS
 62
     0
100
AcDbPoint
 10
121.2740815258594
 20
151.5591591995294
 30
0.0
  0
ENDBLK
  5
1EC7
330
1EBC
100
AcDbEntity
  8
0
100
AcDbBlockEnd
  0
ENDSEC
  0
SECTION
  2
ENTITIES
  0
LINE
  5
1F
330
2
100
AcDbEntity
  8
WAKU
100
AcDbLine
 10
0.0
 20
14.0
 30
0.0
 11
148.6829221395387
 21
14.0
 31
0.0
  0
LINE
  5
20
330
2
100
AcDbEntity
  8
WAKU
100
AcDbLine
 10
0.0
 20
0.0
 30
0.0
 11
148.6829221395387
 21
0.0
 31
0.0
  0
TEXT
  5
21
330
2
100
AcDbEntity
  8
HOJO
100
AcDbText
 10
9.653966000000025
 20
2.366626000000024
 30
0.0
 40
9.0
  1
TWR220
  7
SUNPOU
100
AcDbText
  0
TEXT
  5
23
330
2
100
AcDbEntity
  8
HOJO
100
AcDbText
 10
85.84696046283864
 20
5.044386000000031
 30
0.0
 40
6.0
  1
98φ×6
  7
SUNPOU
100
AcDbText
  0
LINE
  5
1E16
102
{ACAD_REACTORS
330
1EFE
102
}
330
2
100
AcDbEntity
  8
KIJUN
100
AcDbLine
 10
72.27408152585917
 20
90.04300178496988
 30
0.0
 11
68.27408152585917
 21
86.04300178496998
 31
0.0
  0
LINE
  5
1E17
102
{ACAD_REACTORS
330
1EFE
102
}
330
2
100
AcDbEntity
  8
KIJUN
100
AcDbLine
 10
72.27408152585917
 20
98.5282831592084
 30
0.0
 11
59.7888001516203
 21
86.04300178496988
 31
0.0
  0
ARC
  5
1E18
102
{ACAD_REACTORS
330
1EFE
102
}
330
2
100
AcDbEntity
  8
KIJUN
100
AcDbCircle
 10
68.45686097850421
 20
125.1808491868847
 30
0.0
 40
9.862152598078282
100
AcDbArc
 50
67.2284654529155
 51
151.0765262629566
  0
LINE
  5
1E19
102
{ACAD_REACTORS
330
1EFE
102
}
330
2
100
AcDbEntity
  8
KIJUN
100
AcDbLine
 10
37.62584924771841
 20
120.6912340631106
 30
0.0
 11
41.16138315365105
 21
117.1557001571779
 31
0.0
  0
LINE
  5
1E1A
102
{ACAD_REACTORS
330
1EFE
102
}
330
2
100
AcDbEntity
  8
KIJUN
100
AcDbLine
 10
54.37035642550199
 20
130.3090104080739
 30
0.0
 11
59.82484962900095
 21
129.9505906819587
 31
0.0
  0
LINE
  5
1E1B
102
{ACAD_REACTORS
330
1EFE
102
}
330
2
100
AcDbEntity
  8
KIJUN
100
AcDbLine
 10
50.02014748530064
 20
128.2897213216197
 30
0.0
 11
46.72378486174944
 21
123.8252833077572
 31
0.0
  0
LINE
  5
1E1C
102
{ACAD_REACTORS
330
1EFE
102
}
330
2
100
AcDbEntity
  8
KIJUN
100
AcDbLine
 10
37.64224632778996
 20
120.6748369830391
 30
0.0
 11
46.72378486174944
 21
123.8252833077572
 31
0.0
  0
ARC
  5
1E1D
102
{ACAD_REACTORS
330
1EFE
102
}
330
2
100
AcDbEntity
  8
KIJUN
100
AcDbCircle
 10
54.04250891046399
 20
125.3197703850961
 30
0.0
 40
5.0
100
AcDbArc
 50
86.24044697885274
 51
143.5593217255121
  0
SPLINE
  5
1E1E
102
{ACAD_REACTORS
330
1EFE
102
}
330
2
100
AcDbEntity
  8
KIJUN
100
AcDbSpline
210
0.0
220
0.0
230
1.0
 70
     8
 71
     3
 72
    12
 73
     8
 74
     6
 42
0.0000000001
 43
0.0000000001
 44
0.0000000001
 40
0.0
 40
0.0
 40
0.0
 40
0.0
 40
5.543842273529265
 40
11.26527547463574
 40
19.29612336117565
 40
25.0409432709103
 40
31.13870623860785
 40
31.13870623860785
 40
31.13870623860785
 40
31.13870623860785
 10
59.66747980806076
 20
98.64960350276806
 30
0.0
 10
61.03601230301518
 20
99.99009723231374
 30
0.0
 10
63.8169167355357
 20
102.7140259428144
 30
0.0
 10
63.80776130358501
 20
109.7367672528793
 30
0.0
 10
60.4426089674169
 20
115.3712340121574
 30
0.0
 10
57.1899691329902
 20
121.1284118260336
 30
0.0
 10
55.39718452514339
 20
124.6477257434649
 30
0.0
 10
54.47407715034774
 20
126.4598255446249
 30
0.0
 11
59.66747980806076
 21
98.64960350276806
 31
0.0
 11
63.09830366971368
 21
103.0043290720873
 31
0.0
 11
63.39914938279981
 21
108.7178472291987
 31
0.0
 11
60.08985344116036
 21
116.0351608173532
 31
0.0
 11
57.28196529575416
 21
121.0470187521087
 31
0.0
 11
54.47407715034774
 21
126.4598255446249
 31
0.0
  0
SPLINE
  5
1E1F
102
{ACAD_REACTORS
330
1EFE
102
}
330
2
100
AcDbEntity
  8
KIJUN
100
AcDbSpline
210
0.0
220
0.0
230
1.0
 70
    24
 71
     3
 72
     8
 73
     4
 74
     2
 42
0.0000000001
 43
0.0000000001
 44
0.0000000001
 40
0.0
 40
0.0
 40
0.0
 40
0.0
 40
3.485485568748849
 40
3.485485568748849
 40
3.485485568748849
 40
3.485485568748849
 10
46.72378486174944
 20
123.8252833077572
 30
0.0
 10
47.47854546438543
 20
122.9420042185841
 30
0.0
 10
48.23330606702143
 20
122.0587251294111
 30
0.0
 10
48.98806666965743
 20
121.175446040238
 30
0.0
 11
46.72378486174944
 21
123.8252833077572
 31
0.0
 11
48.98806666965743
 21
121.175446040238
 31
0.0
  0
SPLINE
  5
1E20
102
{ACAD_REACTORS
330
1EFE
102
}
330
2
100
AcDbEntity
  8
KIJUN
100
AcDbSpline
210
0.0
220
0.0
230
1.0
 70
     8
 71
     3
 72
    15
 73
    11
 74
     9
 42
0.0000000001
 43
0.0000000001
 44
0.0000000001
 40
0.0
 40
0.0
 40
0.0
 40
0.0
 40
8.627963515039605
 40
11.67787489383246
 40
14.1538556909033
 40
17.86398619216883
 40
22.01452536601764
 40
28.13799322533512
 40
30.69376092282827
 40
33.03856758488614
 40
33.03856758488614
 40
33.03856758488614
 40
33.03856758488614
 10
57.48252910447809
 20
115.133025608666
 30
0.0
 10
55.59019247377716
 20
117.1366080404413
 30
0.0
 10
53.02893101366305
 20
119.8484397417424
 30
0.0
 10
47.61131722454211
 20
121.8076063899978
 30
0.0
 10
46.07088407793162
 20
118.477035151868
 30
0.0
 10
46.17033252012435
 20
114.9577654922783
 30
0.0
 10
49.38521354648739
 20
111.1992972757376
 30
0.0
 10
53.30813578444566
 20
109.249889321299
 30
0.0
 10
55.07923256560587
 20
105.8100753847501
 30
0.0
 10
54.99179983844451
 20
104.1577268529443
 30
0.0
 10
54.94996538678879
 20
103.3671179240402
 30
0.0
 11
57.48252910447809
 21
115.133025608666
 31
0.0
 11
50.76365531683723
 21
120.545833516084
 31
0.0
 11
47.75520508828413
 21
121.0470187521085
 31
0.0
 11
46.45154205715425
 21
118.9420380850408
 31
0.0
 11
46.55182396151622
 21
115.2332631018316
 31
0.0
 11
49.05886639383652
 21
111.9254369763832
 31
0.0
 11
53.77210554539056
 21
108.0161870068427
 31
0.0
 11
54.87520476779605
 21
105.7107324683454
 31
0.0
 11
54.94996538678879
 21
103.3671179240402
 31
0.0
  0
ARC
  5
1E21
102
{ACAD_REACTORS
330
1EFE
102
}
330
2
100
AcDbEntity
  8
KIJUN
100
AcDbCircle
 10
46.75352731719522
 20
108.1639015629203
 30
0.0
 40
21.99095389406886
100
AcDbArc
 50
321.2757710638189
 51
18.47607724145612
  0
SPLINE
  5
1E22
102
{ACAD_REACTORS
330
1EFE
102
}
330
2
100
AcDbEntity
  8
KIJUN
100
AcDbSpline
210
0.0
220
0.0
230
1.0
 70
    24
 71
     3
 72
     8
 73
     4
 74
     2
 42
0.0000000001
 43
0.0000000001
 44
0.0000000001
 40
0.0
 40
0.0
 40
0.0
 40
0.0
 40
3.810403604243926
 40
3.810403604243926
 40
3.810403604243926
 40
3.810403604243926
 10
59.82484962900095
 20
129.9505906819587
 30
0.0
 10
60.37329177918977
 20
128.8049672952143
 30
0.0
 10
60.92173392937858
 20
127.6593439084699
 30
0.0
 10
61.4701760795674
 20
126.5137205217255
 30
0.0
 11
59.82484962900095
 21
129.9505906819587
 31
0.0
 11
61.4701760795674
 21
126.5137205217255
 31
0.0
  0
SPLINE
  5
1E23
102
{ACAD_REACTORS
330
1EFE
102
}
330
2
100
AcDbEntity
  8
KIJUN
100
AcDbSpline
210
0.0
220
0.0
230
1.0
 70
     8
 71
     3
 72
    10
 73
     6
 74
     4
 42
0.0000000001
 43
0.0000000001
 44
0.0000000001
 40
0.0
 40
0.0
 40
0.0
 40
0.0
 40
6.200421380728515
 40
8.473523170033262
 40
14.12302325026596
 40
14.12302325026596
 40
14.12302325026596
 40
14.12302325026596
 10
57.48252910447831
 20
115.1330256086659
 30
0.0
 10
56.40479110065377
 20
116.8500793770564
 30
0.0
 10
54.93194959749132
 20
119.1966126200827
 30
0.0
 10
50.36737137807349
 20
122.0499816741571
 30
0.0
 10
52.76462678843469
 20
124.6241914333998
 30
0.0
 10
54.47407715034774
 20
126.4598255446248
 30
0.0
 11
57.48252910447831
 21
115.1330256086659
 31
0.0
 11
53.57154346224342
 21
119.9444096719919
 31
0.0
 11
51.86675453924272
 21
121.4479676098694
 31
0.0
 11
54.47407715034774
 21
126.4598255446248
 31
0.0
  0
SPLINE
  5
1E24
102
{ACAD_REACTORS
330
1EFE
102
}
330
2
100
AcDbEntity
  8
KIJUN
100
AcDbSpline
210
0.0
220
0.0
230
1.0
 70
    24
 71
     3
 72
     8
 73
     4
 74
     2
 42
0.0000000001
 43
0.0000000001
 44
0.0000000001
 40
0.0
 40
0.0
 40
0.0
 40
0.0
 40
6.381832369913345
 40
6.381832369913345
 40
6.381832369913345
 40
6.381832369913345
 10
54.47407715034774
 20
126.4598255446249
 30
0.0
 10
56.57999311560434
 20
126.1591141800297
 30
0.0
 10
58.68590908086094
 20
125.8584028154346
 30
0.0
 10
60.79182504611754
 20
125.5576914508394
 30
0.0
 11
54.47407715034774
 21
126.4598255446249
 31
0.0
 11
60.79182504611754
 21
125.5576914508394
 31
0.0
  0
SPLINE
  5
1E25
102
{ACAD_REACTORS
330
1EFE
102
}
330
2
100
AcDbEntity
  8
KIJUN
100
AcDbSpline
210
0.0
220
0.0
230
1.0
 70
     8
 71
     3
 72
     9
 73
     5
 74
     3
 42
0.0000000001
 43
0.0000000001
 44
0.0000000001
 40
0.0
 40
0.0
 40
0.0
 40
0.0
 40
1.974588161886141
 40
3.690382511014298
 40
3.690382511014298
 40
3.690382511014298
 40
3.690382511014298
 10
60.79182504611754
 20
125.5576914508395
 30
0.0
 10
60.43228104706094
 20
124.9702497471455
 30
0.0
 10
59.76031566629456
 20
123.8723577252051
 30
0.0
 10
60.05372061181276
 20
122.6279576373021
 30
0.0
 10
60.19013534552232
 20
122.0493903390597
 30
0.0
 11
60.79182504611754
 21
125.5576914508395
 31
0.0
 11
59.98957153679817
 21
123.7534221483667
 31
0.0
 11
60.19013534552232
 21
122.0493903390597
 31
0.0
  0
SPLINE
  5
1E26
102
{ACAD_REACTORS
330
1EFE
102
}
330
2
100
AcDbEntity
  8
KIJUN
100
AcDbSpline
210
0.0
220
0.0
230
1.0
 70
     8
 71
     3
 72
    11
 73
     7
 74
     5
 42
0.0000000001
 43
0.0000000001
 44
0.0000000001
 40
0.0
 40
0.0
 40
0.0
 40
0.0
 40
3.119341452643758
 40
7.477551582636214
 40
12.17283596549274
 40
18.62630728557625
 40
18.62630728557625
 40
18.62630728557625
 40
18.62630728557625
 10
60.79182504611754
 20
125.5576914508395
 30
0.0
 10
61.44381615575821
 20
126.5164092983153
 30
0.0
 10
63.00674128844176
 20
128.8146066154503
 30
0.0
 10
67.89179467064838
 20
126.2795478659055
 30
0.0
 10
68.59174808194007
 20
120.9002114259503
 30
0.0
 10
67.97055762101925
 20
117.2474380759495
 30
0.0
 10
67.61098073812059
 20
115.133025608666
 30
0.0
 11
60.79182504611754
 21
125.5576914508395
 31
0.0
 11
62.99802176535149
 21
127.7629096110729
 31
0.0
 11
67.00928931194835
 21
126.0588766868641
 31
0.0
 11
68.31295234307799
 21
121.5482051030351
 31
0.0
 11
67.61098073812059
 21
115.133025608666
 31
0.0
  0
SPLINE
  5
1E27
102
{ACAD_REACTORS
330
1EFE
102
}
330
2
100
AcDbEntity
  8
KIJUN
100
AcDbSpline
210
0.0
220
0.0
230
1.0
 70
     8
 71
     3
 72
     9
 73
     5
 74
     3
 42
0.0000000001
 43
0.0000000001
 44
0.0000000001
 40
0.0
 40
0.0
 40
0.0
 40
0.0
 40
7.334215208613749
 40
13.44868222348591
 40
13.44868222348591
 40
13.44868222348591
 40
13.44868222348591
 10
67.51069883375862
 20
129.2664664340486
 30
0.0
 10
68.65933156603205
 20
127.0415137490439
 30
0.0
 10
70.76556872548946
 20
122.9616387015028
 30
0.0
 10
70.38935127462756
 20
118.4067571063768
 30
0.0
 10
70.21830334922583
 20
116.3358721819484
 30
0.0
 11
67.51069883375862
 21
129.2664664340486
 31
0.0
 11
70.21830334922583
 21
122.4503391968205
 31
0.0
 11
70.21830334922583
 21
116.3358721819484
 31
0.0
  0
SPLINE
  5
1E28
102
{ACAD_REACTORS
330
1EFE
102
}
330
2
100
AcDbEntity
  8
KIJUN
100
AcDbSpline
210
0.0
220
0.0
230
1.0
 70
    24
 71
     3
 72
     8
 73
     4
 74
     2
 42
0.0000000001
 43
0.0000000001
 44
0.0000000001
 40
0.0
 40
0.0
 40
0.0
 40
0.0
 40
3.485485568748849
 40
3.485485568748849
 40
3.485485568748849
 40
3.485485568748849
 10
34.49180000307183
 20
111.5932984490796
 30
0.0
 10
35.37507909224487
 20
110.8385378464436
 30
0.0
 10
36.25835818141795
 20
110.0837772438076
 30
0.0
 10
37.14163727059099
 20
109.3290166411716
 30
0.0
 11
34.49180000307183
 21
111.5932984490796
 31
0.0
 11
37.14163727059099
 21
109.3290166411716
 31
0.0
  0
SPLINE
  5
1E29
102
{ACAD_REACTORS
330
1EFE
102
}
330
2
100
AcDbEntity
  8
KIJUN
100
AcDbSpline
210
0.0
220
0.0
230
1.0
 70
    24
 71
     3
 72
     8
 73
     4
 74
     2
 42
0.0000000001
 43
0.0000000001
 44
0.0000000001
 40
0.0
 40
0.0
 40
0.0
 40
0.0
 40
3.810403604245706
 40
3.810403604245706
 40
3.810403604245706
 40
3.810403604245706
 10
28.36649262887009
 20
98.49223368183153
 30
0.0
 10
29.5121160156146
 20
97.94379153164157
 30
0.0
 10
30.65773940235911
 20
97.39534938145162
 30
0.0
 10
31.80336278910363
 20
96.84690723126164
 30
0.0
 11
28.36649262887009
 21
98.49223368183153
 31
0.0
 11
31.80336278910363
 21
96.84690723126164
 31
0.0
  0
SPLINE
  5
1E2A
102
{ACAD_REACTORS
330
1EFE
102
}
330
2
100
AcDbEntity
  8
KIJUN
100
AcDbSpline
210
0.0
220
0.0
230
1.0
 70
     8
 71
     3
 72
     9
 73
     5
 74
     3
 42
0.0000000001
 43
0.0000000001
 44
0.0000000001
 40
0.0
 40
0.0
 40
0.0
 40
0.0
 40
7.334215208613749
 40
13.44868222348591
 40
13.44868222348591
 40
13.44868222348591
 40
13.44868222348591
 10
29.0506168767804
 20
90.80638447707043
 30
0.0
 10
31.27556956178509
 20
89.657751744797
 30
0.0
 10
35.35544460932622
 20
87.55151458533958
 30
0.0
 10
39.91032620445219
 20
87.92773203620148
 30
0.0
 10
41.98121112888066
 20
88.09877996160322
 30
0.0
 11
29.0506168767804
 21
90.80638447707043
 31
0.0
 11
35.8667441140085
 21
88.09877996160322
 31
0.0
 11
41.98121112888066
 21
88.09877996160322
 31
0.0
  0
ARC
  5
1E2B
102
{ACAD_REACTORS
330
1EFE
102
}
330
2
100
AcDbEntity
  8
KIJUN
100
AcDbCircle
 10
50.15318174790877
 20
111.5635559936338
 30
0.0
 40
21.99095389406886
100
AcDbArc
 50
251.5239227585506
 51
308.7242289361763
  0
SPLINE
  5
1E2C
102
{ACAD_REACTORS
330
1EFE
102
}
330
2
100
AcDbEntity
  8
KIJUN
100
AcDbSpline
210
0.0
220
0.0
230
1.0
 70
     8
 71
     3
 72
    11
 73
     7
 74
     5
 42
0.0000000001
 43
0.0000000001
 44
0.0000000001
 40
0.0
 40
0.0
 40
0.0
 40
0.0
 40
3.119341452643838
 40
7.477551582636294
 40
12.17283596549282
 40
18.62630728557633
 40
18.62630728557633
 40
18.62630728557633
 40
18.62630728557633
 10
32.75939185998959
 20
97.52525826471151
 30
0.0
 10
31.80067401251381
 20
96.87326715507083
 30
0.0
 10
29.50247669537876
 20
95.31034202238734
 30
0.0
 10
32.03753544492352
 20
90.42528864018066
 30
0.0
 10
37.41687188487876
 20
89.72533522888898
 30
0.0
 10
41.06964523487948
 20
90.34652568980979
 30
0.0
 10
43.18405770216304
 20
90.70610257270846
 30
0.0
 11
32.75939185998959
 21
97.52525826471151
 31
0.0
 11
30.55417369975612
 21
95.31906154547755
 31
0.0
 11
32.25820662396496
 21
91.30779399888069
 31
0.0
 11
36.76887820779394
 21
90.00413096775105
 31
0.0
 11
43.18405770216304
 21
90.70610257270846
 31
0.0
  0
SPLINE
  5
1E2D
102
{ACAD_REACTORS
330
1EFE
102
}
330
2
100
AcDbEntity
  8
KIJUN
100
AcDbSpline
210
0.0
220
0.0
230
1.0
 70
     8
 71
     3
 72
     9
 73
     5
 74
     3
 42
0.0000000001
 43
0.0000000001
 44
0.0000000001
 40
0.0
 40
0.0
 40
0.0
 40
0.0
 40
1.974588161886038
 40
3.690382511014195
 40
3.690382511014195
 40
3.690382511014195
 40
3.690382511014195
 10
32.75939185998959
 20
97.52525826471151
 30
0.0
 10
33.34683356368356
 20
97.8848022637681
 30
0.0
 10
34.44472558562399
 20
98.55676764453448
 30
0.0
 10
35.68912567352692
 20
98.26336269901627
 30
0.0
 10
36.2676929717693
 20
98.12694796530673
 30
0.0
 11
32.75939185998959
 21
97.52525826471151
 31
0.0
 11
34.56366116246227
 21
98.32751177403089
 31
0.0
 11
36.2676929717693
 21
98.12694796530673
 31
0.0
  0
SPLINE
  5
1E2E
102
{ACAD_REACTORS
330
1EFE
102
}
330
2
100
AcDbEntity
  8
KIJUN
100
AcDbSpline
210
0.0
220
0.0
230
1.0
 70
    24
 71
     3
 72
     8
 73
     4
 74
     2
 42
0.0000000001
 43
0.0000000001
 44
0.0000000001
 40
0.0
 40
0.0
 40
0.0
 40
0.0
 40
6.381832369913345
 40
6.381832369913345
 40
6.381832369913345
 40
6.381832369913345
 10
31.85725776620416
 20
103.8430061604813
 30
0.0
 10
32.1579691307993
 20
101.7370901952247
 30
0.0
 10
32.45868049539445
 20
99.63117422996811
 30
0.0
 10
32.75939185998959
 20
97.52525826471151
 30
0.0
 11
31.85725776620416
 21
103.8430061604813
 31
0.0
 11
32.75939185998959
 21
97.52525826471151
 31
0.0
  0
SPLINE
  5
1E2F
102
{ACAD_REACTORS
330
1EFE
102
}
330
2
100
AcDbEntity
  8
KIJUN
100
AcDbSpline
210
0.0
220
0.0
230
1.0
 70
     8
 71
     3
 72
    10
 73
     6
 74
     4
 42
0.0000000001
 43
0.0000000001
 44
0.0000000001
 40
0.0
 40
0.0
 40
0.0
 40
0.0
 40
6.200421380728426
 40
8.473523170033173
 40
14.12302325026577
 40
14.12302325026577
 40
14.12302325026577
 40
14.12302325026577
 10
43.18405770216304
 20
100.8345542063507
 30
0.0
 10
41.4670039337725
 20
101.9122922101753
 30
0.0
 10
39.12047069074629
 20
103.3851337133377
 30
0.0
 10
36.26710163667198
 20
107.9497119327555
 30
0.0
 10
33.69289187742931
 20
105.5524565223943
 30
0.0
 10
31.85725776620439
 20
103.8430061604813
 30
0.0
 11
43.18405770216304
 21
100.8345542063507
 31
0.0
 11
38.37267363883711
 21
104.7455398485856
 31
0.0
 11
36.86911570095958
 21
106.4503287715863
 31
0.0
 11
31.85725776620439
 21
103.8430061604813
 31
0.0
  0
SPLINE
  5
1E30
102
{ACAD_REACTORS
330
1EFE
102
}
330
2
100
AcDbEntity
  8
KIJUN
100
AcDbSpline
210
0.0
220
0.0
230
1.0
 70
     8
 71
     3
 72
    15
 73
    11
 74
     9
 42
0.0000000001
 43
0.0000000001
 44
0.0000000001
 40
0.0
 40
0.0
 40
0.0
 40
0.0
 40
8.627963515039605
 40
11.67787489383244
 40
14.15385569090318
 40
17.86398619216872
 40
22.01452536601752
 40
28.137993225335
 40
30.69376092282816
 40
33.03856758488603
 40
33.03856758488603
 40
33.03856758488603
 40
33.03856758488603
 10
43.18405770216304
 20
100.8345542063509
 30
0.0
 10
41.18047527038763
 20
102.7268908370519
 30
0.0
 10
38.46864356908648
 20
105.288152297166
 30
0.0
 10
36.50947692083136
 20
110.7057660862869
 30
0.0
 10
39.84004815896103
 20
112.2461992328974
 30
0.0
 10
43.35931781855072
 20
112.1467507907047
 30
0.0
 10
47.11778603509137
 20
108.9318697643416
 30
0.0
 10
49.06719398952998
 20
105.0089475263833
 30
0.0
 10
52.50700792607898
 20
103.2378507452232
 30
0.0
 10
54.15935645788469
 20
103.3252834723845
 30
0.0
 10
54.94996538678879
 20
103.3671179240402
 30
0.0
 11
43.18405770216304
 21
100.8345542063509
 31
0.0
 11
37.77124979474502
 21
107.5534279939918
 31
0.0
 11
37.27006455872061
 21
110.5618782225449
 31
0.0
 11
39.3750452257882
 21
111.8655412536748
 31
0.0
 11
43.08382020899739
 21
111.7652593493128
 31
0.0
 11
46.39164633444579
 21
109.2582169169925
 31
0.0
 11
50.30089630398629
 21
104.5449777654385
 31
0.0
 11
52.6063508424836
 21
103.441878543033
 31
0.0
 11
54.94996538678879
 21
103.3671179240402
 31
0.0
  0
SPLINE
  5
1E31
102
{ACAD_REACTORS
330
1EFE
102
}
330
2
100
AcDbEntity
  8
KIJUN
100
AcDbSpline
210
0.0
220
0.0
230
1.0
 70
     8
 71
     3
 72
    12
 73
     8
 74
     6
 42
0.0000000001
 43
0.0000000001
 44
0.0000000001
 40
0.0
 40
0.0
 40
0.0
 40
0.0
 40
5.543842273529265
 40
11.26527547463574
 40
19.29612336117565
 40
25.0409432709103
 40
31.13870623860785
 40
31.13870623860785
 40
31.13870623860785
 40
31.13870623860785
 10
59.66747980806099
 20
98.64960350276829
 30
0.0
 10
58.32698607851532
 20
97.28107100781386
 30
0.0
 10
55.60305736801462
 20
94.50016657529335
 30
0.0
 10
48.58031605794977
 20
94.50932200724402
 30
0.0
 10
42.94584929867167
 20
97.87447434341215
 30
0.0
 10
37.18867148479544
 20
101.1271141778388
 30
0.0
 10
33.66935756736413
 20
102.9198987856856
 30
0.0
 10
31.85725776620416
 20
103.8430061604813
 30
0.0
 11
59.66747980806099
 21
98.64960350276829
 31
0.0
 11
55.31275423874172
 21
95.21877964111537
 31
0.0
 11
49.59923608163035
 21
94.91793392802923
 31
0.0
 11
42.2819224934758
 21
98.22722986966869
 31
0.0
 11
37.27006455872038
 21
101.0351180150749
 31
0.0
 11
31.85725776620416
 21
103.8430061604813
 31
0.0
  0
LINE
  5
1E32
102
{ACAD_REACTORS
330
1EFE
102
}
330
2
100
AcDbEntity
  8
KIJUN
100
AcDbLine
 10
30.02736198920934
 20
108.2969358255284
 30
0.0
 11
34.49180000307183
 21
111.5932984490796
 31
0.0
  0
LINE
  5
1E33
102
{ACAD_REACTORS
330
1EFE
102
}
330
2
100
AcDbEntity
  8
KIJUN
100
AcDbLine
 10
28.00807290275498
 20
103.946726885327
 30
0.0
 11
28.36649262887009
 21
98.49223368183153
 31
0.0
  0
ARC
  5
1E34
102
{ACAD_REACTORS
330
1EFE
102
}
330
2
100
AcDbEntity
  8
KIJUN
100
AcDbCircle
 10
32.99731292573279
 20
104.274574400365
 30
0.0
 40
5.0
100
AcDbArc
 50
126.4406782744822
 51
183.7595530211532
  0
LINE
  5
1E35
102
{ACAD_REACTORS
330
1EFE
102
}
330
2
100
AcDbEntity
  8
KIJUN
100
AcDbLine
 10
37.64224632778996
 20
120.6748369830391
 30
0.0
 11
34.49180000307183
 21
111.5932984490796
 31
0.0
  0
ARC
  5
1E36
102
{ACAD_REACTORS
330
1EFE
102
}
330
2
100
AcDbEntity
  8
KIJUN
100
AcDbCircle
 10
33.13623412393769
 20
89.86022233232484
 30
0.0
 40
9.862152598078282
100
AcDbArc
 50
118.9234737370012
 51
202.7715345470838
  0
LINE
  5
1E37
102
{ACAD_REACTORS
330
1EFE
102
}
330
2
100
AcDbEntity
  8
KIJUN
100
AcDbLine
 10
37.62584924771841
 20
120.6912340631106
 30
0.0
 11
41.16138315365105
 21
117.155700157178
 31
0.0
  0
LINE
  5
1E38
102
{ACAD_REACTORS
330
1EFE
102
}
330
2
100
AcDbEntity
  8
KIJUN
100
AcDbLine
 10
59.78880015162076
 20
86.04300178496988
 30
0.0
 11
72.27408152585917
 21
98.52828315920874
 31
0.0
  0
LINE
  5
1E39
102
{ACAD_REACTORS
330
1EFE
102
}
330
2
100
AcDbEntity
  8
KIJUN
100
AcDbLine
 10
68.27408152585917
 20
86.04300178496988
 30
0.0
 11
70.80961543179228
 21
88.57853569090298
 31
0.0
  0
LINE
  5
1E3A
102
{ACAD_REACTORS
330
1EFE
102
}
330
2
100
AcDbEntity
  8
KIJUN
100
AcDbLine
 10
37.64224632778996
 20
51.41116658690066
 30
0.0
 11
34.49180000307183
 21
60.49270512086014
 31
0.0
  0
SPLINE
  5
1E3B
102
{ACAD_REACTORS
330
1EFE
102
}
330
2
100
AcDbEntity
  8
KIJUN
100
AcDbSpline
210
0.0
220
0.0
230
1.0
 70
     8
 71
     3
 72
    12
 73
     8
 74
     6
 42
0.0000000001
 43
0.0000000001
 44
0.0000000001
 40
0.0
 40
0.0
 40
0.0
 40
0.0
 40
5.543842273529265
 40
11.26527547463574
 40
19.29612336117565
 40
25.0409432709103
 40
31.13870623860785
 40
31.13870623860785
 40
31.13870623860785
 40
31.13870623860785
 10
59.66747980806099
 20
73.43640006717146
 30
0.0
 10
58.32698607851532
 20
74.80493256212588
 30
0.0
 10
55.60305736801462
 20
77.58583699464641
 30
0.0
 10
48.58031605794977
 20
77.57668156269571
 30
0.0
 10
42.94584929867167
 20
74.2115292265276
 30
0.0
 10
37.18867148479544
 20
70.9588893921009
 30
0.0
 10
33.66935756736413
 20
69.16610478425408
 30
0.0
 10
31.85725776620416
 20
68.24299740945844
 30
0.0
 11
59.66747980806099
 21
73.43640006717146
 31
0.0
 11
55.31275423874172
 21
76.86722392882439
 31
0.0
 11
49.59923608163035
 21
77.1680696419105
 31
0.0
 11
42.2819224934758
 21
73.85877370027106
 31
0.0
 11
37.27006455872038
 21
71.05088555486486
 31
0.0
 11
31.85725776620416
 21
68.24299740945844
 31
0.0
  0
SPLINE
  5
1E3C
102
{ACAD_REACTORS
330
1EFE
102
}
330
2
100
AcDbEntity
  8
KIJUN
100
AcDbSpline
210
0.0
220
0.0
230
1.0
 70
     8
 71
     3
 72
    10
 73
     6
 74
     4
 42
0.0000000001
 43
0.0000000001
 44
0.0000000001
 40
0.0
 40
0.0
 40
0.0
 40
0.0
 40
6.200421380728426
 40
8.473523170033173
 40
14.12302325026577
 40
14.12302325026577
 40
14.12302325026577
 40
14.12302325026577
 10
43.18405770216304
 20
71.25144936358902
 30
0.0
 10
41.4670039337725
 20
70.17371135976445
 30
0.0
 10
39.12047069074629
 20
68.700869856602
 30
0.0
 10
36.26710163667198
 20
64.13629163718423
 30
0.0
 10
33.69289187742931
 20
66.5335470475454
 30
0.0
 10
31.85725776620439
 20
68.24299740945844
 30
0.0
 11
43.18405770216304
 21
71.25144936358902
 31
0.0
 11
38.37267363883711
 21
67.34046372135413
 31
0.0
 11
36.86911570095958
 21
65.63567479835342
 31
0.0
 11
31.85725776620439
 21
68.24299740945844
 31
0.0
  0
SPLINE
  5
1E3D
102
{ACAD_REACTORS
330
1EFE
102
}
330
2
100
AcDbEntity
  8
KIJUN
100
AcDbSpline
210
0.0
220
0.0
230
1.0
 70
     8
 71
     3
 72
     9
 73
     5
 74
     3
 42
0.0000000001
 43
0.0000000001
 44
0.0000000001
 40
0.0
 40
0.0
 40
0.0
 40
0.0
 40
1.974588161886038
 40
3.690382511014195
 40
3.690382511014195
 40
3.690382511014195
 40
3.690382511014195
 10
32.75939185998959
 20
74.56074530522823
 30
0.0
 10
33.34683356368356
 20
74.20120130617164
 30
0.0
 10
34.44472558562399
 20
73.52923592540527
 30
0.0
 10
35.68912567352692
 20
73.82264087092346
 30
0.0
 10
36.2676929717693
 20
73.95905560463302
 30
0.0
 11
32.75939185998959
 21
74.56074530522823
 31
0.0
 11
34.56366116246227
 21
73.75849179590886
 31
0.0
 11
36.2676929717693
 21
73.95905560463302
 31
0.0
  0
SPLINE
  5
1E3E
102
{ACAD_REACTORS
330
1EFE
102
}
330
2
100
AcDbEntity
  8
KIJUN
100
AcDbSpline
210
0.0
220
0.0
230
1.0
 70
     8
 71
     3
 72
    11
 73
     7
 74
     5
 42
0.0000000001
 43
0.0000000001
 44
0.0000000001
 40
0.0
 40
0.0
 40
0.0
 40
0.0
 40
3.119341452643838
 40
7.477551582636294
 40
12.17283596549282
 40
18.62630728557633
 40
18.62630728557633
 40
18.62630728557633
 40
18.62630728557633
 10
32.75939185998959
 20
74.56074530522823
 30
0.0
 10
31.80067401251381
 20
75.21273641486891
 30
0.0
 10
29.50247669537876
 20
76.7756615475524
 30
0.0
 10
32.03753544492352
 20
81.66071492975911
 30
0.0
 10
37.41687188487876
 20
82.36066834105075
 30
0.0
 10
41.06964523487948
 20
81.73947788012995
 30
0.0
 10
43.18405770216304
 20
81.37990099723129
 30
0.0
 11
32.75939185998959
 21
74.56074530522823
 31
0.0
 11
30.55417369975612
 21
76.7669420244622
 31
0.0
 11
32.25820662396496
 21
80.77820957105904
 31
0.0
 11
36.76887820779394
 21
82.08187260218869
 31
0.0
 11
43.18405770216304
 21
81.37990099723129
 31
0.0
  0
SPLINE
  5
1E3F
102
{ACAD_REACTORS
330
1EFE
102
}
330
2
100
AcDbEntity
  8
KIJUN
100
AcDbSpline
210
0.0
220
0.0
230
1.0
 70
     8
 71
     3
 72
     9
 73
     5
 74
     3
 42
0.0000000001
 43
0.0000000001
 44
0.0000000001
 40
0.0
 40
0.0
 40
0.0
 40
0.0
 40
7.334215208613749
 40
13.44868222348591
 40
13.44868222348591
 40
13.44868222348591
 40
13.44868222348591
 10
29.0506168767804
 20
81.27961909286932
 30
0.0
 10
31.27556956178509
 20
82.42825182514277
 30
0.0
 10
35.35544460932622
 20
84.53448898460015
 30
0.0
 10
39.91032620445219
 20
84.15827153373825
 30
0.0
 10
41.98121112888066
 20
83.98722360833653
 30
0.0
 11
29.0506168767804
 21
81.27961909286932
 31
0.0
 11
35.8667441140085
 21
83.98722360833653
 31
0.0
 11
41.98121112888066
 21
83.98722360833653
 31
0.0
  0
SPLINE
  5
1E40
102
{ACAD_REACTORS
330
1EFE
102
}
330
2
100
AcDbEntity
  8
KIJUN
100
AcDbSpline
210
0.0
220
0.0
230
1.0
 70
    24
 71
     3
 72
     8
 73
     4
 74
     2
 42
0.0000000001
 43
0.0000000001
 44
0.0000000001
 40
0.0
 40
0.0
 40
0.0
 40
0.0
 40
3.485485568748849
 40
3.485485568748849
 40
3.485485568748849
 40
3.485485568748849
 10
34.49180000307183
 20
60.49270512086014
 30
0.0
 10
35.37507909224487
 20
61.24746572349613
 30
0.0
 10
36.25835818141795
 20
62.00222632613213
 30
0.0
 10
37.14163727059099
 20
62.75698692876813
 30
0.0
 11
34.49180000307183
 21
60.49270512086014
 31
0.0
 11
37.14163727059099
 21
62.75698692876813
 31
0.0
  0
ARC
  5
1E41
102
{ACAD_REACTORS
330
1EFE
102
}
330
2
100
AcDbEntity
  8
KIJUN
100
AcDbCircle
 10
33.13623412393769
 20
82.22578123761492
 30
0.0
 40
9.862152598078282
100
AcDbArc
 50
157.2284654529162
 51
241.0765262629988
  0
ARC
  5
1E42
102
{ACAD_REACTORS
330
1EFE
102
}
330
2
100
AcDbEntity
  8
KIJUN
100
AcDbCircle
 10
32.99731292573279
 20
67.81142916957469
 30
0.0
 40
5.0
100
AcDbArc
 50
176.2404469788467
 51
233.5593217255178
  0
LINE
  5
1E43
102
{ACAD_REACTORS
330
1EFE
102
}
330
2
100
AcDbEntity
  8
KIJUN
100
AcDbLine
 10
28.00807290275498
 20
68.13927668461269
 30
0.0
 11
28.36649262887009
 21
73.5937698881082
 31
0.0
  0
LINE
  5
1E44
102
{ACAD_REACTORS
330
1EFE
102
}
330
2
100
AcDbEntity
  8
KIJUN
100
AcDbLine
 10
30.02736198920934
 20
63.78906774441134
 30
0.0
 11
34.49180000307183
 21
60.49270512086014
 31
0.0
  0
SPLINE
  5
1E45
102
{ACAD_REACTORS
330
1EFE
102
}
330
2
100
AcDbEntity
  8
KIJUN
100
AcDbSpline
210
0.0
220
0.0
230
1.0
 70
    24
 71
     3
 72
     8
 73
     4
 74
     2
 42
0.0000000001
 43
0.0000000001
 44
0.0000000001
 40
0.0
 40
0.0
 40
0.0
 40
0.0
 40
6.381832369913345
 40
6.381832369913345
 40
6.381832369913345
 40
6.381832369913345
 10
31.85725776620416
 20
68.24299740945844
 30
0.0
 10
32.1579691307993
 20
70.34891337471504
 30
0.0
 10
32.45868049539445
 20
72.45482933997164
 30
0.0
 10
32.75939185998959
 20
74.56074530522823
 30
0.0
 11
31.85725776620416
 21
68.24299740945844
 31
0.0
 11
32.75939185998959
 21
74.56074530522823
 31
0.0
  0
SPLINE
  5
1E46
102
{ACAD_REACTORS
330
1EFE
102
}
330
2
100
AcDbEntity
  8
KIJUN
100
AcDbSpline
210
0.0
220
0.0
230
1.0
 70
    24
 71
     3
 72
     8
 73
     4
 74
     2
 42
0.0000000001
 43
0.0000000001
 44
0.0000000001
 40
0.0
 40
0.0
 40
0.0
 40
0.0
 40
3.810403604245709
 40
3.810403604245709
 40
3.810403604245709
 40
3.810403604245709
 10
28.36649262887009
 20
73.59376988810821
 30
0.0
 10
29.5121160156146
 20
74.14221203829817
 30
0.0
 10
30.65773940235911
 20
74.69065418848813
 30
0.0
 10
31.80336278910363
 20
75.23909633867811
 30
0.0
 11
28.36649262887009
 21
73.59376988810821
 31
0.0
 11
31.80336278910363
 21
75.23909633867811
 31
0.0
  0
LINE
  5
1E47
102
{ACAD_REACTORS
330
1EFE
102
}
330
2
100
AcDbEntity
  8
KIJUN
100
AcDbLine
 10
68.27408152585917
 20
86.04300178496988
 30
0.0
 11
72.27408152585894
 21
82.04300178496987
 31
0.0
  0
LINE
  5
1E48
102
{ACAD_REACTORS
330
1EFE
102
}
330
2
100
AcDbEntity
  8
KIJUN
100
AcDbLine
 10
59.78880015162076
 20
86.04300178496988
 30
0.0
 11
72.27408152585917
 21
73.55772041073101
 31
0.0
  0
LINE
  5
1E49
102
{ACAD_REACTORS
330
1EFE
102
}
330
2
100
AcDbEntity
  8
KIJUN
100
AcDbLine
 10
37.62584924771841
 20
51.39476950682911
 30
0.0
 11
41.16138315365105
 21
54.93030341276176
 31
0.0
  0
SPLINE
  5
1E4A
102
{ACAD_REACTORS
330
1EFE
102
}
330
2
100
AcDbEntity
  8
KIJUN
100
AcDbSpline
210
0.0
220
0.0
230
1.0
 70
     8
 71
     3
 72
    15
 73
    11
 74
     9
 42
0.0000000001
 43
0.0000000001
 44
0.0000000001
 40
0.0
 40
0.0
 40
0.0
 40
0.0
 40
8.627963515039605
 40
11.67787489383244
 40
14.15385569090318
 40
17.86398619216872
 40
22.01452536601752
 40
28.137993225335
 40
30.69376092282816
 40
33.03856758488603
 40
33.03856758488603
 40
33.03856758488603
 40
33.03856758488603
 10
43.18405770216304
 20
71.25144936358879
 30
0.0
 10
41.18047527038763
 20
69.35911273288787
 30
0.0
 10
38.46864356908648
 20
66.79785127277376
 30
0.0
 10
36.50947692083136
 20
61.38023748365284
 30
0.0
 10
39.84004815896103
 20
59.83980433704229
 30
0.0
 10
43.35931781855072
 20
59.93925277923509
 30
0.0
 10
47.11778603509137
 20
63.15413380559809
 30
0.0
 10
49.06719398952998
 20
67.07705604355637
 30
0.0
 10
52.50700792607898
 20
68.84815282471656
 30
0.0
 10
54.15935645788469
 20
68.76072009755521
 30
0.0
 10
54.94996538678879
 20
68.71888564589949
 30
0.0
 11
43.18405770216304
 21
71.25144936358879
 31
0.0
 11
37.77124979474502
 21
64.53257557594793
 31
0.0
 11
37.27006455872061
 21
61.52412534739482
 31
0.0
 11
39.3750452257882
 21
60.22046231626496
 31
0.0
 11
43.08382020899739
 21
60.32074422062692
 31
0.0
 11
46.39164633444579
 21
62.82778665294722
 31
0.0
 11
50.30089630398629
 21
67.54102580450126
 31
0.0
 11
52.6063508424836
 21
68.64412502690675
 31
0.0
 11
54.94996538678879
 21
68.71888564589949
 31
0.0
  0
ARC
  5
1E4B
102
{ACAD_REACTORS
330
1EFE
102
}
330
2
100
AcDbEntity
  8
KIJUN
100
AcDbCircle
 10
50.15318174790877
 20
60.52244757630592
 30
0.0
 40
21.99095389406886
100
AcDbArc
 50
51.2757710638237
 51
108.4760772414494
  0
SPLINE
  5
1E4C
102
{ACAD_REACTORS
330
1EFE
102
}
330
2
100
AcDbEntity
  8
KIJUN
100
AcDbSpline
210
0.0
220
0.0
230
1.0
 70
    24
 71
     3
 72
     8
 73
     4
 74
     2
 42
0.0000000001
 43
0.0000000001
 44
0.0000000001
 40
0.0
 40
0.0
 40
0.0
 40
0.0
 40
3.485485568748849
 40
3.485485568748849
 40
3.485485568748849
 40
3.485485568748849
 10
46.72378486174944
 20
48.26072026218253
 30
0.0
 10
47.47854546438543
 20
49.14399935135559
 30
0.0
 10
48.23330606702143
 20
50.02727844052864
 30
0.0
 10
48.98806666965743
 20
50.91055752970169
 30
0.0
 11
46.72378486174944
 21
48.26072026218253
 31
0.0
 11
48.98806666965743
 21
50.91055752970169
 31
0.0
  0
SPLINE
  5
1E4D
102
{ACAD_REACTORS
330
1EFE
102
}
330
2
100
AcDbEntity
  8
KIJUN
100
AcDbSpline
210
0.0
220
0.0
230
1.0
 70
    24
 71
     3
 72
     8
 73
     4
 74
     2
 42
0.0000000001
 43
0.0000000001
 44
0.0000000001
 40
0.0
 40
0.0
 40
0.0
 40
0.0
 40
3.810403604247466
 40
3.810403604247466
 40
3.810403604247466
 40
3.810403604247466
 10
59.82484962899371
 20
42.13541288798054
 30
0.0
 10
60.37329177918494
 20
43.2810362747251
 30
0.0
 10
60.92173392937618
 20
44.42665966146966
 30
0.0
 10
61.4701760795674
 20
45.57228304821421
 30
0.0
 11
59.82484962899371
 21
42.13541288798054
 31
0.0
 11
61.4701760795674
 21
45.57228304821421
 31
0.0
  0
SPLINE
  5
1E4E
102
{ACAD_REACTORS
330
1EFE
102
}
330
2
100
AcDbEntity
  8
KIJUN
100
AcDbSpline
210
0.0
220
0.0
230
1.0
 70
     8
 71
     3
 72
     9
 73
     5
 74
     3
 42
0.0000000001
 43
0.0000000001
 44
0.0000000001
 40
0.0
 40
0.0
 40
0.0
 40
0.0
 40
7.334215208613749
 40
13.44868222348591
 40
13.44868222348591
 40
13.44868222348591
 40
13.44868222348591
 10
67.51069883375862
 20
42.8195371358911
 30
0.0
 10
68.65933156603205
 20
45.04448982089578
 30
0.0
 10
70.76556872548946
 20
49.12436486843691
 30
0.0
 10
70.38935127462756
 20
53.67924646356289
 30
0.0
 10
70.21830334922583
 20
55.75013138799135
 30
0.0
 11
67.51069883375862
 21
42.8195371358911
 31
0.0
 11
70.21830334922583
 21
49.6356643731192
 31
0.0
 11
70.21830334922583
 21
55.75013138799135
 31
0.0
  0
ARC
  5
1E4F
102
{ACAD_REACTORS
330
1EFE
102
}
330
2
100
AcDbEntity
  8
KIJUN
100
AcDbCircle
 10
46.75352731719522
 20
63.92210200701947
 30
0.0
 40
21.99095389406886
100
AcDbArc
 50
341.5239227585439
 51
38.72422893618108
  0
SPLINE
  5
1E50
102
{ACAD_REACTORS
330
1EFE
102
}
330
2
100
AcDbEntity
  8
KIJUN
100
AcDbSpline
210
0.0
220
0.0
230
1.0
 70
     8
 71
     3
 72
    11
 73
     7
 74
     5
 42
0.0000000001
 43
0.0000000001
 44
0.0000000001
 40
0.0
 40
0.0
 40
0.0
 40
0.0
 40
3.119341452643758
 40
7.477551582636214
 40
12.17283596549274
 40
18.62630728557625
 40
18.62630728557625
 40
18.62630728557625
 40
18.62630728557625
 10
60.79182504611754
 20
46.52831211910018
 30
0.0
 10
61.44381615575821
 20
45.56959427162444
 30
0.0
 10
63.00674128844176
 20
43.27139695448948
 30
0.0
 10
67.89179467064838
 20
45.80645570403421
 30
0.0
 10
68.59174808194007
 20
51.18579214398945
 30
0.0
 10
67.97055762101925
 20
54.83856549399019
 30
0.0
 10
67.61098073812059
 20
56.95297796127374
 30
0.0
 11
60.79182504611754
 21
46.52831211910018
 31
0.0
 11
62.99802176535149
 21
44.32309395886682
 31
0.0
 11
67.00928931194835
 21
46.02712688307565
 31
0.0
 11
68.31295234307799
 21
50.53779846690463
 31
0.0
 11
67.61098073812059
 21
56.95297796127374
 31
0.0
  0
SPLINE
  5
1E51
102
{ACAD_REACTORS
330
1EFE
102
}
330
2
100
AcDbEntity
  8
KIJUN
100
AcDbSpline
210
0.0
220
0.0
230
1.0
 70
     8
 71
     3
 72
     9
 73
     5
 74
     3
 42
0.0000000001
 43
0.0000000001
 44
0.0000000001
 40
0.0
 40
0.0
 40
0.0
 40
0.0
 40
1.974588161886141
 40
3.690382511014298
 40
3.690382511014298
 40
3.690382511014298
 40
3.690382511014298
 10
60.79182504611754
 20
46.52831211910018
 30
0.0
 10
60.43228104706094
 20
47.1157538227942
 30
0.0
 10
59.76031566629456
 20
48.21364584473466
 30
0.0
 10
60.05372061181276
 20
49.45804593263762
 30
0.0
 10
60.19013534552232
 20
50.03661323088
 30
0.0
 11
60.79182504611754
 21
46.52831211910018
 31
0.0
 11
59.98957153679817
 21
48.33258142157297
 31
0.0
 11
60.19013534552232
 21
50.03661323088
 31
0.0
  0
SPLINE
  5
1E52
102
{ACAD_REACTORS
330
1EFE
102
}
330
2
100
AcDbEntity
  8
KIJUN
100
AcDbSpline
210
0.0
220
0.0
230
1.0
 70
    24
 71
     3
 72
     8
 73
     4
 74
     2
 42
0.0000000001
 43
0.0000000001
 44
0.0000000001
 40
0.0
 40
0.0
 40
0.0
 40
0.0
 40
6.381832369913345
 40
6.381832369913345
 40
6.381832369913345
 40
6.381832369913345
 10
54.47407715034774
 20
45.62617802531486
 30
0.0
 10
56.57999311560434
 20
45.92688938991
 30
0.0
 10
58.68590908086094
 20
46.22760075450514
 30
0.0
 10
60.79182504611754
 20
46.52831211910029
 30
0.0
 11
54.47407715034774
 21
45.62617802531486
 31
0.0
 11
60.79182504611754
 21
46.52831211910029
 31
0.0
  0
SPLINE
  5
1E53
102
{ACAD_REACTORS
330
1EFE
102
}
330
2
100
AcDbEntity
  8
KIJUN
100
AcDbSpline
210
0.0
220
0.0
230
1.0
 70
     8
 71
     3
 72
    10
 73
     6
 74
     4
 42
0.0000000001
 43
0.0000000001
 44
0.0000000001
 40
0.0
 40
0.0
 40
0.0
 40
0.0
 40
6.200421380728515
 40
8.473523170033262
 40
14.12302325026596
 40
14.12302325026596
 40
14.12302325026596
 40
14.12302325026596
 10
57.48252910447831
 20
56.95297796127386
 30
0.0
 10
56.40479110065377
 20
55.23592419288328
 30
0.0
 10
54.93194959749132
 20
52.88939094985699
 30
0.0
 10
50.36737137807349
 20
50.03602189578268
 30
0.0
 10
52.76462678843469
 20
47.46181213653994
 30
0.0
 10
54.47407715034774
 20
45.62617802531497
 30
0.0
 11
57.48252910447831
 21
56.95297796127386
 31
0.0
 11
53.57154346224342
 21
52.14159389794781
 31
0.0
 11
51.86675453924272
 21
50.63803596007028
 31
0.0
 11
54.47407715034774
 21
45.62617802531497
 31
0.0
  0
SPLINE
  5
1E54
102
{ACAD_REACTORS
330
1EFE
102
}
330
2
100
AcDbEntity
  8
KIJUN
100
AcDbSpline
210
0.0
220
0.0
230
1.0
 70
     8
 71
     3
 72
    15
 73
    11
 74
     9
 42
0.0000000001
 43
0.0000000001
 44
0.0000000001
 40
0.0
 40
0.0
 40
0.0
 40
0.0
 40
8.627963515039605
 40
11.67787489383246
 40
14.1538556909033
 40
17.86398619216883
 40
22.01452536601764
 40
28.13799322533512
 40
30.69376092282827
 40
33.03856758488614
 40
33.03856758488614
 40
33.03856758488614
 40
33.03856758488614
 10
57.48252910447809
 20
56.95297796127374
 30
0.0
 10
55.59019247377716
 20
54.94939552949837
 30
0.0
 10
53.02893101366305
 20
52.23756382819731
 30
0.0
 10
47.61131722454211
 20
50.2783971799419
 30
0.0
 10
46.07088407793162
 20
53.60896841807174
 30
0.0
 10
46.17033252012435
 20
57.12823807766142
 30
0.0
 10
49.38521354648739
 20
60.88670629420207
 30
0.0
 10
53.30813578444566
 20
62.83611424864069
 30
0.0
 10
55.07923256560587
 20
66.27592818518967
 30
0.0
 10
54.99179983844451
 20
67.92827671699537
 30
0.0
 10
54.94996538678879
 20
68.71888564589949
 30
0.0
 11
57.48252910447809
 21
56.95297796127374
 31
0.0
 11
50.76365531683723
 21
51.54017005385572
 31
0.0
 11
47.75520508828413
 21
51.03898481783119
 31
0.0
 11
46.45154205715425
 21
53.1439654848989
 31
0.0
 11
46.55182396151622
 21
56.8527404681081
 31
0.0
 11
49.05886639383652
 21
60.16056659355649
 31
0.0
 11
53.77210554539056
 21
64.06981656309699
 31
0.0
 11
54.87520476779605
 21
66.37527110159431
 31
0.0
 11
54.94996538678879
 21
68.71888564589949
 31
0.0
  0
SPLINE
  5
1E55
102
{ACAD_REACTORS
330
1EFE
102
}
330
2
100
AcDbEntity
  8
KIJUN
100
AcDbSpline
210
0.0
220
0.0
230
1.0
 70
     8
 71
     3
 72
    12
 73
     8
 74
     6
 42
0.0000000001
 43
0.0000000001
 44
0.0000000001
 40
0.0
 40
0.0
 40
0.0
 40
0.0
 40
5.543842273529265
 40
11.26527547463574
 40
19.29612336117565
 40
25.0409432709103
 40
31.13870623860785
 40
31.13870623860785
 40
31.13870623860785
 40
31.13870623860785
 10
59.66747980806076
 20
73.43640006717169
 30
0.0
 10
61.03601230301518
 20
72.09590633762601
 30
0.0
 10
63.8169167355357
 20
69.37197762712532
 30
0.0
 10
63.80776130358501
 20
62.34923631706046
 30
0.0
 10
60.4426089674169
 20
56.71476955778236
 30
0.0
 10
57.1899691329902
 20
50.95759174390614
 30
0.0
 10
55.39718452514339
 20
47.43827782647481
 30
0.0
 10
54.47407715034774
 20
45.62617802531486
 30
0.0
 11
59.66747980806076
 21
73.43640006717169
 31
0.0
 11
63.09830366971368
 21
69.08167449785242
 31
0.0
 11
63.39914938279981
 21
63.36815634074105
 31
0.0
 11
60.08985344116036
 21
56.05084275258651
 31
0.0
 11
57.28196529575416
 21
51.03898481783108
 31
0.0
 11
54.47407715034774
 21
45.62617802531486
 31
0.0
  0
LINE
  5
1E56
102
{ACAD_REACTORS
330
1EFE
102
}
330
2
100
AcDbEntity
  8
KIJUN
100
AcDbLine
 10
50.02014748530064
 20
43.79628224832003
 30
0.0
 11
46.72378486174944
 21
48.26072026218253
 31
0.0
  0
LINE
  5
1E57
102
{ACAD_REACTORS
330
1EFE
102
}
330
2
100
AcDbEntity
  8
KIJUN
100
AcDbLine
 10
54.37035642550199
 20
41.77699316186578
 30
0.0
 11
59.82484962899372
 21
42.13541288798054
 31
0.0
  0
ARC
  5
1E58
102
{ACAD_REACTORS
330
1EFE
102
}
330
2
100
AcDbEntity
  8
KIJUN
100
AcDbCircle
 10
54.04250891046399
 20
46.76623318484359
 30
0.0
 40
5.0
100
AcDbArc
 50
216.4406782744879
 51
273.7595530211472
  0
LINE
  5
1E59
102
{ACAD_REACTORS
330
1EFE
102
}
330
2
100
AcDbEntity
  8
KIJUN
100
AcDbLine
 10
37.64224632778996
 20
51.41116658690066
 30
0.0
 11
46.72378486174944
 21
48.26072026218253
 31
0.0
  0
ARC
  5
1E5A
102
{ACAD_REACTORS
330
1EFE
102
}
330
2
100
AcDbEntity
  8
KIJUN
100
AcDbCircle
 10
68.45686097850421
 20
46.90515438304127
 30
0.0
 40
9.862152598078282
100
AcDbArc
 50
208.9234737369556
 51
292.7715345470844
  0
LINE
  5
1E5B
102
{ACAD_REACTORS
330
1EFE
102
}
330
2
100
AcDbEntity
  8
KIJUN
100
AcDbLine
 10
37.62584924771841
 20
51.39476950682911
 30
0.0
 11
41.16138315365105
 21
54.93030341276187
 31
0.0
  0
LINE
  5
1E5C
102
{ACAD_REACTORS
330
1EFE
102
}
330
2
100
AcDbEntity
  8
KIJUN
100
AcDbLine
 10
72.27408152585917
 20
73.55772041073135
 30
0.0
 11
59.7888001516203
 21
86.04300178496988
 31
0.0
  0
LINE
  5
1E5D
102
{ACAD_REACTORS
330
1EFE
102
}
330
2
100
AcDbEntity
  8
KIJUN
100
AcDbLine
 10
72.27408152585917
 20
82.04300178496987
 30
0.0
 11
68.27408152585917
 21
86.04300178496975
 31
0.0
  0
LINE
  5
1E5E
102
{ACAD_REACTORS
330
1EFE
102
}
330
2
100
AcDbEntity
  8
KIJUN
100
AcDbLine
 10
72.27408152585917
 20
73.55772041073135
 30
0.0
 11
84.75936290009803
 21
86.04300178496988
 31
0.0
  0
ARC
  5
1E5F
102
{ACAD_REACTORS
330
1EFE
102
}
330
2
100
AcDbEntity
  8
KIJUN
100
AcDbCircle
 10
94.39498130380957
 20
60.52244757630592
 30
0.0
 40
21.99095389406886
100
AcDbArc
 50
71.52392275855061
 51
128.7242289361762
  0
LINE
  5
1E60
102
{ACAD_REACTORS
330
1EFE
102
}
330
2
100
AcDbEntity
  8
KIJUN
100
AcDbLine
 10
84.75936290009759
 20
86.04300178496988
 30
0.0
 11
72.27408152585917
 21
73.55772041073101
 31
0.0
  0
ARC
  5
1E61
102
{ACAD_REACTORS
330
1EFE
102
}
330
2
100
AcDbEntity
  8
KIJUN
100
AcDbCircle
 10
111.4119289277811
 20
82.22578123761492
 30
0.0
 40
9.862152598078282
100
AcDbArc
 50
298.923473736998
 51
22.77153454708377
  0
SPLINE
  5
1E62
102
{ACAD_REACTORS
330
1EFE
102
}
330
2
100
AcDbEntity
  8
KIJUN
100
AcDbSpline
210
0.0
220
0.0
230
1.0
 70
     8
 71
     3
 72
    11
 73
     7
 74
     5
 42
0.0000000001
 43
0.0000000001
 44
0.0000000001
 40
0.0
 40
0.0
 40
0.0
 40
0.0
 40
3.119341452643838
 40
7.477551582636294
 40
12.17283596549282
 40
18.62630728557633
 40
18.62630728557633
 40
18.62630728557633
 40
18.62630728557633
 10
111.7887711917287
 20
74.56074530522823
 30
0.0
 10
112.7474890392045
 20
75.21273641486891
 30
0.0
 10
115.0456863563396
 20
76.7756615475524
 30
0.0
 10
112.5106276067948
 20
81.66071492975911
 30
0.0
 10
107.1312911668395
 20
82.36066834105075
 30
0.0
 10
103.4785178168388
 20
81.73947788012995
 30
0.0
 10
101.3641053495553
 20
81.37990099723129
 30
0.0
 11
111.7887711917287
 21
74.56074530522823
 31
0.0
 11
113.9939893519622
 21
76.7669420244622
 31
0.0
 11
112.2899564277534
 21
80.77820957105904
 31
0.0
 11
107.7792848439244
 21
82.08187260218869
 31
0.0
 11
101.3641053495553
 21
81.37990099723129
 31
0.0
  0
SPLINE
  5
1E63
102
{ACAD_REACTORS
330
1EFE
102
}
330
2
100
AcDbEntity
  8
KIJUN
100
AcDbSpline
210
0.0
220
0.0
230
1.0
 70
    24
 71
     3
 72
     8
 73
     4
 74
     2
 42
0.0000000001
 43
0.0000000001
 44
0.0000000001
 40
0.0
 40
0.0
 40
0.0
 40
0.0
 40
3.485485568748849
 40
3.485485568748849
 40
3.485485568748849
 40
3.485485568748849
 10
110.0563630486465
 20
60.49270512086014
 30
0.0
 10
109.1730839594734
 20
61.24746572349613
 30
0.0
 10
108.2898048703003
 20
62.00222632613213
 30
0.0
 10
107.4065257811273
 20
62.75698692876813
 30
0.0
 11
110.0563630486465
 21
60.49270512086014
 31
0.0
 11
107.4065257811273
 21
62.75698692876813
 31
0.0
  0
SPLINE
  5
1E64
102
{ACAD_REACTORS
330
1EFE
102
}
330
2
100
AcDbEntity
  8
KIJUN
100
AcDbSpline
210
0.0
220
0.0
230
1.0
 70
     8
 71
     3
 72
     9
 73
     5
 74
     3
 42
0.0000000001
 43
0.0000000001
 44
0.0000000001
 40
0.0
 40
0.0
 40
0.0
 40
0.0
 40
1.974588161886038
 40
3.690382511014195
 40
3.690382511014195
 40
3.690382511014195
 40
3.690382511014195
 10
111.7887711917287
 20
74.56074530522823
 30
0.0
 10
111.2013294880347
 20
74.20120130617164
 30
0.0
 10
110.1034374660943
 20
73.52923592540527
 30
0.0
 10
108.8590373781914
 20
73.82264087092346
 30
0.0
 10
108.280470079949
 20
73.95905560463302
 30
0.0
 11
111.7887711917287
 21
74.56074530522823
 31
0.0
 11
109.9845018892561
 21
73.75849179590886
 31
0.0
 11
108.280470079949
 21
73.95905560463302
 31
0.0
  0
SPLINE
  5
1E65
102
{ACAD_REACTORS
330
1EFE
102
}
330
2
100
AcDbEntity
  8
KIJUN
100
AcDbSpline
210
0.0
220
0.0
230
1.0
 70
     8
 71
     3
 72
    10
 73
     6
 74
     4
 42
0.0000000001
 43
0.0000000001
 44
0.0000000001
 40
0.0
 40
0.0
 40
0.0
 40
0.0
 40
6.200421380728426
 40
8.473523170033173
 40
14.12302325026577
 40
14.12302325026577
 40
14.12302325026577
 40
14.12302325026577
 10
101.3641053495553
 20
71.25144936358902
 30
0.0
 10
103.0811591179458
 20
70.17371135976445
 30
0.0
 10
105.427692360972
 20
68.700869856602
 30
0.0
 10
108.2810614150463
 20
64.13629163718423
 30
0.0
 10
110.855271174289
 20
66.5335470475454
 30
0.0
 10
112.6909052855139
 20
68.24299740945844
 30
0.0
 11
101.3641053495553
 21
71.25144936358902
 31
0.0
 11
106.1754894128812
 21
67.34046372135413
 31
0.0
 11
107.6790473507587
 21
65.63567479835342
 31
0.0
 11
112.6909052855139
 21
68.24299740945844
 31
0.0
  0
SPLINE
  5
1E66
102
{ACAD_REACTORS
330
1EFE
102
}
330
2
100
AcDbEntity
  8
KIJUN
100
AcDbSpline
210
0.0
220
0.0
230
1.0
 70
     8
 71
     3
 72
    12
 73
     8
 74
     6
 42
0.0000000001
 43
0.0000000001
 44
0.0000000001
 40
0.0
 40
0.0
 40
0.0
 40
0.0
 40
5.543842273529265
 40
11.26527547463574
 40
19.29612336117565
 40
25.0409432709103
 40
31.13870623860785
 40
31.13870623860785
 40
31.13870623860785
 40
31.13870623860785
 10
84.88068324365736
 20
73.43640006717146
 30
0.0
 10
86.22117697320305
 20
74.80493256212588
 30
0.0
 10
88.94510568370378
 20
77.58583699464641
 30
0.0
 10
95.96784699376859
 20
77.57668156269571
 30
0.0
 10
101.6023137530467
 20
74.2115292265276
 30
0.0
 10
107.3594915669229
 20
70.9588893921009
 30
0.0
 10
110.8788054843542
 20
69.16610478425408
 30
0.0
 10
112.6909052855142
 20
68.24299740945844
 30
0.0
 11
84.88068324365736
 21
73.43640006717146
 31
0.0
 11
89.23540881297663
 21
76.86722392882439
 31
0.0
 11
94.94892697008799
 21
77.1680696419105
 31
0.0
 11
102.2662405582425
 21
73.85877370027106
 31
0.0
 11
107.2780984929979
 21
71.05088555486486
 31
0.0
 11
112.6909052855142
 21
68.24299740945844
 31
0.0
  0
LINE
  5
1E67
102
{ACAD_REACTORS
330
1EFE
102
}
330
2
100
AcDbEntity
  8
KIJUN
100
AcDbLine
 10
106.9059167239284
 20
51.41116658690066
 30
0.0
 11
110.0563630486465
 21
60.49270512086014
 31
0.0
  0
SPLINE
  5
1E68
102
{ACAD_REACTORS
330
1EFE
102
}
330
2
100
AcDbEntity
  8
KIJUN
100
AcDbSpline
210
0.0
220
0.0
230
1.0
 70
    24
 71
     3
 72
     8
 73
     4
 74
     2
 42
0.0000000001
 43
0.0000000001
 44
0.0000000001
 40
0.0
 40
0.0
 40
0.0
 40
0.0
 40
3.810403604245857
 40
3.810403604245857
 40
3.810403604245857
 40
3.810403604245857
 10
116.1816704228482
 20
73.59376988810786
 30
0.0
 10
115.0360470361037
 20
74.14221203829794
 30
0.0
 10
113.8904236493592
 20
74.69065418848803
 30
0.0
 10
112.7448002626147
 20
75.23909633867811
 30
0.0
 11
116.1816704228482
 21
73.59376988810786
 31
0.0
 11
112.7448002626147
 21
75.23909633867811
 31
0.0
  0
SPLINE
  5
1E69
102
{ACAD_REACTORS
330
1EFE
102
}
330
2
100
AcDbEntity
  8
KIJUN
100
AcDbSpline
210
0.0
220
0.0
230
1.0
 70
    24
 71
     3
 72
     8
 73
     4
 74
     2
 42
0.0000000001
 43
0.0000000001
 44
0.0000000001
 40
0.0
 40
0.0
 40
0.0
 40
0.0
 40
6.381832369913345
 40
6.381832369913345
 40
6.381832369913345
 40
6.381832369913345
 10
112.6909052855142
 20
68.24299740945844
 30
0.0
 10
112.390193920919
 20
70.34891337471504
 30
0.0
 10
112.0894825563239
 20
72.45482933997164
 30
0.0
 10
111.7887711917287
 20
74.56074530522823
 30
0.0
 11
112.6909052855142
 21
68.24299740945844
 31
0.0
 11
111.7887711917287
 21
74.56074530522823
 31
0.0
  0
LINE
  5
1E6A
102
{ACAD_REACTORS
330
1EFE
102
}
330
2
100
AcDbEntity
  8
KIJUN
100
AcDbLine
 10
114.520801062509
 20
63.78906774441134
 30
0.0
 11
110.0563630486465
 21
60.49270512086014
 31
0.0
  0
LINE
  5
1E6B
102
{ACAD_REACTORS
330
1EFE
102
}
330
2
100
AcDbEntity
  8
KIJUN
100
AcDbLine
 10
116.5400901489634
 20
68.13927668461269
 30
0.0
 11
116.1816704228482
 21
73.59376988810786
 31
0.0
  0
ARC
  5
1E6C
102
{ACAD_REACTORS
330
1EFE
102
}
330
2
100
AcDbEntity
  8
KIJUN
100
AcDbCircle
 10
111.5508501259855
 20
67.81142916957469
 30
0.0
 40
5.0
100
AcDbArc
 50
306.4406782744823
 51
3.759553021153279
  0
LINE
  5
1E6D
102
{ACAD_REACTORS
330
1EFE
102
}
330
2
100
AcDbEntity
  8
KIJUN
100
AcDbLine
 10
106.9223138039999
 20
51.39476950682911
 30
0.0
 11
103.3867798980673
 21
54.93030341276187
 31
0.0
  0
ARC
  5
1E6E
102
{ACAD_REACTORS
330
1EFE
102
}
330
2
100
AcDbEntity
  8
KIJUN
100
AcDbCircle
 10
76.09130207321413
 20
46.90515438304127
 30
0.0
 40
9.862152598078282
100
AcDbArc
 50
247.2284654529155
 51
331.0765262630444
  0
LINE
  5
1E6F
102
{ACAD_REACTORS
330
1EFE
102
}
330
2
100
AcDbEntity
  8
KIJUN
100
AcDbLine
 10
106.9059167239284
 20
51.41116658690066
 30
0.0
 11
97.82437818996891
 21
48.26072026218253
 31
0.0
  0
ARC
  5
1E70
102
{ACAD_REACTORS
330
1EFE
102
}
330
2
100
AcDbEntity
  8
KIJUN
100
AcDbCircle
 10
90.50565414125435
 20
46.76623318484359
 30
0.0
 40
5.0
100
AcDbArc
 50
266.2404469788528
 51
323.5593217255121
  0
LINE
  5
1E71
102
{ACAD_REACTORS
330
1EFE
102
}
330
2
100
AcDbEntity
  8
KIJUN
100
AcDbLine
 10
90.17780662621635
 20
41.77699316186578
 30
0.0
 11
84.72331342272463
 21
42.13541288798054
 31
0.0
  0
LINE
  5
1E72
102
{ACAD_REACTORS
330
1EFE
102
}
330
2
100
AcDbEntity
  8
KIJUN
100
AcDbLine
 10
94.52801556641771
 20
43.79628224832003
 30
0.0
 11
97.82437818996891
 21
48.26072026218253
 31
0.0
  0
SPLINE
  5
1E73
102
{ACAD_REACTORS
330
1EFE
102
}
330
2
100
AcDbEntity
  8
KIJUN
100
AcDbSpline
210
0.0
220
0.0
230
1.0
 70
     8
 71
     3
 72
    12
 73
     8
 74
     6
 42
0.0000000001
 43
0.0000000001
 44
0.0000000001
 40
0.0
 40
0.0
 40
0.0
 40
0.0
 40
5.543842273529265
 40
11.26527547463574
 40
19.29612336117565
 40
25.0409432709103
 40
31.13870623860785
 40
31.13870623860785
 40
31.13870623860785
 40
31.13870623860785
 10
84.88068324365759
 20
73.43640006717169
 30
0.0
 10
83.51215074870316
 20
72.09590633762601
 30
0.0
 10
80.73124631618265
 20
69.37197762712532
 30
0.0
 10
80.74040174813331
 20
62.34923631706046
 30
0.0
 10
84.10555408430145
 20
56.71476955778236
 30
0.0
 10
87.35819391872814
 20
50.95759174390614
 30
0.0
 10
89.15097852657494
 20
47.43827782647481
 30
0.0
 10
90.0740859013706
 20
45.62617802531486
 30
0.0
 11
84.88068324365759
 21
73.43640006717169
 31
0.0
 11
81.44985938200466
 21
69.08167449785242
 31
0.0
 11
81.14901366891855
 21
63.36815634074105
 31
0.0
 11
84.45830961055799
 21
56.05084275258651
 31
0.0
 11
87.26619775596418
 21
51.03898481783108
 31
0.0
 11
90.0740859013706
 21
45.62617802531486
 31
0.0
  0
SPLINE
  5
1E74
102
{ACAD_REACTORS
330
1EFE
102
}
330
2
100
AcDbEntity
  8
KIJUN
100
AcDbSpline
210
0.0
220
0.0
230
1.0
 70
     8
 71
     3
 72
    15
 73
    11
 74
     9
 42
0.0000000001
 43
0.0000000001
 44
0.0000000001
 40
0.0
 40
0.0
 40
0.0
 40
0.0
 40
8.627963515039605
 40
11.67787489383246
 40
14.1538556909033
 40
17.86398619216883
 40
22.01452536601764
 40
28.13799322533512
 40
30.69376092282827
 40
33.03856758488614
 40
33.03856758488614
 40
33.03856758488614
 40
33.03856758488614
 10
87.06563394724026
 20
56.95297796127374
 30
0.0
 10
88.95797057794117
 20
54.94939552949837
 30
0.0
 10
91.51923203805528
 20
52.23756382819731
 30
0.0
 10
96.93684582717622
 20
50.2783971799419
 30
0.0
 10
98.47727897378673
 20
53.60896841807174
 30
0.0
 10
98.37783053159393
 20
57.12823807766142
 30
0.0
 10
95.16294950523098
 20
60.88670629420207
 30
0.0
 10
91.24002726727269
 20
62.83611424864069
 30
0.0
 10
89.46893048611247
 20
66.27592818518967
 30
0.0
 10
89.5563632132738
 20
67.92827671699537
 30
0.0
 10
89.59819766492955
 20
68.71888564589949
 30
0.0
 11
87.06563394724026
 21
56.95297796127374
 31
0.0
 11
93.78450773488111
 21
51.54017005385572
 31
0.0
 11
96.79295796343422
 21
51.03898481783119
 31
0.0
 11
98.0966209945641
 21
53.1439654848989
 31
0.0
 11
97.99633909020213
 21
56.8527404681081
 31
0.0
 11
95.48929665788183
 21
60.16056659355649
 31
0.0
 11
90.77605750632779
 21
64.06981656309699
 31
0.0
 11
89.67295828392229
 21
66.37527110159431
 31
0.0
 11
89.59819766492955
 21
68.71888564589949
 31
0.0
  0
SPLINE
  5
1E75
102
{ACAD_REACTORS
330
1EFE
102
}
330
2
100
AcDbEntity
  8
KIJUN
100
AcDbSpline
210
0.0
220
0.0
230
1.0
 70
     8
 71
     3
 72
    10
 73
     6
 74
     4
 42
0.0000000001
 43
0.0000000001
 44
0.0000000001
 40
0.0
 40
0.0
 40
0.0
 40
0.0
 40
6.200421380728515
 40
8.473523170033262
 40
14.12302325026596
 40
14.12302325026596
 40
14.12302325026596
 40
14.12302325026596
 10
87.06563394724003
 20
56.95297796127386
 30
0.0
 10
88.14337195106459
 20
55.23592419288328
 30
0.0
 10
89.61621345422702
 20
52.88939094985699
 30
0.0
 10
94.18079167364487
 20
50.03602189578268
 30
0.0
 10
91.78353626328368
 20
47.46181213653994
 30
0.0
 10
90.0740859013706
 20
45.62617802531497
 30
0.0
 11
87.06563394724003
 21
56.95297796127386
 31
0.0
 11
90.97661958947492
 21
52.14159389794781
 31
0.0
 11
92.68140851247563
 21
50.63803596007028
 31
0.0
 11
90.0740859013706
 21
45.62617802531497
 31
0.0
  0
SPLINE
  5
1E76
102
{ACAD_REACTORS
330
1EFE
102
}
330
2
100
AcDbEntity
  8
KIJUN
100
AcDbSpline
210
0.0
220
0.0
230
1.0
 70
    24
 71
     3
 72
     8
 73
     4
 74
     2
 42
0.0000000001
 43
0.0000000001
 44
0.0000000001
 40
0.0
 40
0.0
 40
0.0
 40
0.0
 40
6.381832369913345
 40
6.381832369913345
 40
6.381832369913345
 40
6.381832369913345
 10
90.0740859013706
 20
45.62617802531486
 30
0.0
 10
87.968169936114
 20
45.92688938991
 30
0.0
 10
85.8622539708574
 20
46.22760075450514
 30
0.0
 10
83.7563380056008
 20
46.52831211910029
 30
0.0
 11
90.0740859013706
 21
45.62617802531486
 31
0.0
 11
83.7563380056008
 21
46.52831211910029
 31
0.0
  0
SPLINE
  5
1E77
102
{ACAD_REACTORS
330
1EFE
102
}
330
2
100
AcDbEntity
  8
KIJUN
100
AcDbSpline
210
0.0
220
0.0
230
1.0
 70
     8
 71
     3
 72
     9
 73
     5
 74
     3
 42
0.0000000001
 43
0.0000000001
 44
0.0000000001
 40
0.0
 40
0.0
 40
0.0
 40
0.0
 40
1.974588161886141
 40
3.690382511014298
 40
3.690382511014298
 40
3.690382511014298
 40
3.690382511014298
 10
83.7563380056008
 20
46.52831211910018
 30
0.0
 10
84.11588200465741
 20
47.1157538227942
 30
0.0
 10
84.78784738542378
 20
48.21364584473466
 30
0.0
 10
84.49444243990559
 20
49.45804593263762
 30
0.0
 10
84.35802770619602
 20
50.03661323088
 30
0.0
 11
83.7563380056008
 21
46.52831211910018
 31
0.0
 11
84.55859151492019
 21
48.33258142157297
 31
0.0
 11
84.35802770619602
 21
50.03661323088
 31
0.0
  0
SPLINE
  5
1E78
102
{ACAD_REACTORS
330
1EFE
102
}
330
2
100
AcDbEntity
  8
KIJUN
100
AcDbSpline
210
0.0
220
0.0
230
1.0
 70
     8
 71
     3
 72
    11
 73
     7
 74
     5
 42
0.0000000001
 43
0.0000000001
 44
0.0000000001
 40
0.0
 40
0.0
 40
0.0
 40
0.0
 40
3.119341452643758
 40
7.477551582636214
 40
12.17283596549274
 40
18.62630728557625
 40
18.62630728557625
 40
18.62630728557625
 40
18.62630728557625
 10
83.7563380056008
 20
46.52831211910018
 30
0.0
 10
83.10434689596013
 20
45.56959427162444
 30
0.0
 10
81.54142176327662
 20
43.27139695448948
 30
0.0
 10
76.65636838106994
 20
45.80645570403421
 30
0.0
 10
75.95641496977828
 20
51.18579214398945
 30
0.0
 10
76.57760543069909
 20
54.83856549399019
 30
0.0
 10
76.93718231359776
 20
56.95297796127374
 30
0.0
 11
83.7563380056008
 21
46.52831211910018
 31
0.0
 11
81.55014128636684
 21
44.32309395886682
 31
0.0
 11
77.53887373977
 21
46.02712688307565
 31
0.0
 11
76.23521070864035
 21
50.53779846690463
 31
0.0
 11
76.93718231359776
 21
56.95297796127374
 31
0.0
  0
ARC
  5
1E79
102
{ACAD_REACTORS
330
1EFE
102
}
330
2
100
AcDbEntity
  8
KIJUN
100
AcDbCircle
 10
97.79463573452312
 20
63.92210200701947
 30
0.0
 40
21.99095389406886
100
AcDbArc
 50
141.2757710638189
 51
198.4760772414561
  0
SPLINE
  5
1E7A
102
{ACAD_REACTORS
330
1EFE
102
}
330
2
100
AcDbEntity
  8
KIJUN
100
AcDbSpline
210
0.0
220
0.0
230
1.0
 70
     8
 71
     3
 72
     9
 73
     5
 74
     3
 42
0.0000000001
 43
0.0000000001
 44
0.0000000001
 40
0.0
 40
0.0
 40
0.0
 40
0.0
 40
7.334215208613749
 40
13.44868222348591
 40
13.44868222348591
 40
13.44868222348591
 40
13.44868222348591
 10
77.03746421795973
 20
42.8195371358911
 30
0.0
 10
75.8888314856863
 20
45.04448982089578
 30
0.0
 10
73.78259432622889
 20
49.12436486843691
 30
0.0
 10
74.15881177709076
 20
53.67924646356289
 30
0.0
 10
74.32985970249252
 20
55.75013138799135
 30
0.0
 11
77.03746421795973
 21
42.8195371358911
 31
0.0
 11
74.32985970249252
 21
49.6356643731192
 31
0.0
 11
74.32985970249252
 21
55.75013138799135
 31
0.0
  0
SPLINE
  5
1E7B
102
{ACAD_REACTORS
330
1EFE
102
}
330
2
100
AcDbEntity
  8
KIJUN
100
AcDbSpline
210
0.0
220
0.0
230
1.0
 70
    24
 71
     3
 72
     8
 73
     4
 74
     2
 42
0.0000000001
 43
0.0000000001
 44
0.0000000001
 40
0.0
 40
0.0
 40
0.0
 40
0.0
 40
3.810403604247463
 40
3.810403604247463
 40
3.810403604247463
 40
3.810403604247463
 10
84.72331342272463
 20
42.13541288798054
 30
0.0
 10
84.17487127253341
 20
43.2810362747251
 30
0.0
 10
83.62642912234218
 20
44.42665966146966
 30
0.0
 10
83.07798697215094
 20
45.57228304821421
 30
0.0
 11
84.72331342272463
 21
42.13541288798054
 31
0.0
 11
83.07798697215094
 21
45.57228304821421
 31
0.0
  0
SPLINE
  5
1E7C
102
{ACAD_REACTORS
330
1EFE
102
}
330
2
100
AcDbEntity
  8
KIJUN
100
AcDbSpline
210
0.0
220
0.0
230
1.0
 70
    24
 71
     3
 72
     8
 73
     4
 74
     2
 42
0.0000000001
 43
0.0000000001
 44
0.0000000001
 40
0.0
 40
0.0
 40
0.0
 40
0.0
 40
3.485485568748849
 40
3.485485568748849
 40
3.485485568748849
 40
3.485485568748849
 10
97.82437818996891
 20
48.26072026218253
 30
0.0
 10
97.06961758733292
 20
49.14399935135559
 30
0.0
 10
96.31485698469692
 20
50.02727844052864
 30
0.0
 10
95.56009638206091
 20
50.91055752970169
 30
0.0
 11
97.82437818996891
 21
48.26072026218253
 31
0.0
 11
95.56009638206091
 21
50.91055752970169
 31
0.0
  0
SPLINE
  5
1E7D
102
{ACAD_REACTORS
330
1EFE
102
}
330
2
100
AcDbEntity
  8
KIJUN
100
AcDbSpline
210
0.0
220
0.0
230
1.0
 70
     8
 71
     3
 72
    15
 73
    11
 74
     9
 42
0.0000000001
 43
0.0000000001
 44
0.0000000001
 40
0.0
 40
0.0
 40
0.0
 40
0.0
 40
8.627963515039605
 40
11.67787489383244
 40
14.15385569090318
 40
17.86398619216872
 40
22.01452536601752
 40
28.137993225335
 40
30.69376092282816
 40
33.03856758488603
 40
33.03856758488603
 40
33.03856758488603
 40
33.03856758488603
 10
101.3641053495553
 20
71.25144936358879
 30
0.0
 10
103.3676877813307
 20
69.35911273288787
 30
0.0
 10
106.0795194826319
 20
66.79785127277376
 30
0.0
 10
108.0386861308869
 20
61.38023748365284
 30
0.0
 10
104.7081148927573
 20
59.83980433704229
 30
0.0
 10
101.1888452331676
 20
59.93925277923509
 30
0.0
 10
97.43037701662695
 20
63.15413380559809
 30
0.0
 10
95.48096906218836
 20
67.07705604355637
 30
0.0
 10
92.04115512563943
 20
68.84815282471656
 30
0.0
 10
90.38880659383369
 20
68.76072009755521
 30
0.0
 10
89.59819766492955
 20
68.71888564589949
 30
0.0
 11
101.3641053495553
 21
71.25144936358879
 31
0.0
 11
106.7769132569733
 21
64.53257557594793
 31
0.0
 11
107.2780984929977
 21
61.52412534739482
 31
0.0
 11
105.1731178259301
 21
60.22046231626496
 31
0.0
 11
101.4643428427209
 21
60.32074422062692
 31
0.0
 11
98.15651671727255
 21
62.82778665294722
 31
0.0
 11
94.24726674773205
 21
67.54102580450126
 31
0.0
 11
91.94181220923473
 21
68.64412502690675
 31
0.0
 11
89.59819766492955
 21
68.71888564589949
 31
0.0
  0
LINE
  5
1E7E
102
{ACAD_REACTORS
330
1EFE
102
}
330
2
100
AcDbEntity
  8
KIJUN
100
AcDbLine
 10
106.9223138039999
 20
51.39476950682911
 30
0.0
 11
103.3867798980673
 21
54.93030341276176
 31
0.0
  0
SPLINE
  5
1E7F
102
{ACAD_REACTORS
330
1EFE
102
}
330
2
100
AcDbEntity
  8
KIJUN
100
AcDbSpline
210
0.0
220
0.0
230
1.0
 70
     8
 71
     3
 72
     9
 73
     5
 74
     3
 42
0.0000000001
 43
0.0000000001
 44
0.0000000001
 40
0.0
 40
0.0
 40
0.0
 40
0.0
 40
7.334215208613749
 40
13.44868222348591
 40
13.44868222348591
 40
13.44868222348591
 40
13.44868222348591
 10
115.4975461749379
 20
81.27961909286932
 30
0.0
 10
113.2725934899332
 20
82.42825182514277
 30
0.0
 10
109.1927184423921
 20
84.53448898460015
 30
0.0
 10
104.6378368472661
 20
84.15827153373825
 30
0.0
 10
102.5669519228377
 20
83.98722360833653
 30
0.0
 11
115.4975461749379
 21
81.27961909286932
 31
0.0
 11
108.6814189377098
 21
83.98722360833653
 31
0.0
 11
102.5669519228377
 21
83.98722360833653
 31
0.0
  0
LINE
  5
1E80
102
{ACAD_REACTORS
330
1EFE
102
}
330
2
100
AcDbEntity
  8
KIJUN
100
AcDbLine
 10
106.9059167239284
 20
120.6748369830391
 30
0.0
 11
110.0563630486465
 21
111.5932984490796
 31
0.0
  0
SPLINE
  5
1E81
102
{ACAD_REACTORS
330
1EFE
102
}
330
2
100
AcDbEntity
  8
KIJUN
100
AcDbSpline
210
0.0
220
0.0
230
1.0
 70
     8
 71
     3
 72
    12
 73
     8
 74
     6
 42
0.0000000001
 43
0.0000000001
 44
0.0000000001
 40
0.0
 40
0.0
 40
0.0
 40
0.0
 40
5.543842273529265
 40
11.26527547463574
 40
19.29612336117565
 40
25.0409432709103
 40
31.13870623860785
 40
31.13870623860785
 40
31.13870623860785
 40
31.13870623860785
 10
84.88068324365736
 20
98.64960350276829
 30
0.0
 10
86.22117697320305
 20
97.28107100781386
 30
0.0
 10
88.94510568370378
 20
94.50016657529335
 30
0.0
 10
95.96784699376859
 20
94.50932200724402
 30
0.0
 10
101.6023137530467
 20
97.87447434341215
 30
0.0
 10
107.3594915669229
 20
101.1271141778388
 30
0.0
 10
110.8788054843542
 20
102.9198987856856
 30
0.0
 10
112.6909052855142
 20
103.8430061604813
 30
0.0
 11
84.88068324365736
 21
98.64960350276829
 31
0.0
 11
89.23540881297663
 21
95.21877964111537
 31
0.0
 11
94.94892697008799
 21
94.91793392802923
 31
0.0
 11
102.2662405582425
 21
98.22722986966869
 31
0.0
 11
107.2780984929979
 21
101.0351180150749
 31
0.0
 11
112.6909052855142
 21
103.8430061604813
 31
0.0
  0
SPLINE
  5
1E82
102
{ACAD_REACTORS
330
1EFE
102
}
330
2
100
AcDbEntity
  8
KIJUN
100
AcDbSpline
210
0.0
220
0.0
230
1.0
 70
     8
 71
     3
 72
    10
 73
     6
 74
     4
 42
0.0000000001
 43
0.0000000001
 44
0.0000000001
 40
0.0
 40
0.0
 40
0.0
 40
0.0
 40
6.200421380728426
 40
8.473523170033173
 40
14.12302325026577
 40
14.12302325026577
 40
14.12302325026577
 40
14.12302325026577
 10
101.3641053495553
 20
100.8345542063507
 30
0.0
 10
103.0811591179458
 20
101.9122922101753
 30
0.0
 10
105.427692360972
 20
103.3851337133377
 30
0.0
 10
108.2810614150463
 20
107.9497119327555
 30
0.0
 10
110.855271174289
 20
105.5524565223943
 30
0.0
 10
112.6909052855139
 20
103.8430061604813
 30
0.0
 11
101.3641053495553
 21
100.8345542063507
 31
0.0
 11
106.1754894128812
 21
104.7455398485856
 31
0.0
 11
107.6790473507587
 21
106.4503287715863
 31
0.0
 11
112.6909052855139
 21
103.8430061604813
 31
0.0
  0
SPLINE
  5
1E83
102
{ACAD_REACTORS
330
1EFE
102
}
330
2
100
AcDbEntity
  8
KIJUN
100
AcDbSpline
210
0.0
220
0.0
230
1.0
 70
     8
 71
     3
 72
     9
 73
     5
 74
     3
 42
0.0000000001
 43
0.0000000001
 44
0.0000000001
 40
0.0
 40
0.0
 40
0.0
 40
0.0
 40
1.974588161886038
 40
3.690382511014195
 40
3.690382511014195
 40
3.690382511014195
 40
3.690382511014195
 10
111.7887711917287
 20
97.52525826471151
 30
0.0
 10
111.2013294880347
 20
97.8848022637681
 30
0.0
 10
110.1034374660943
 20
98.55676764453448
 30
0.0
 10
108.8590373781914
 20
98.26336269901627
 30
0.0
 10
108.280470079949
 20
98.12694796530673
 30
0.0
 11
111.7887711917287
 21
97.52525826471151
 31
0.0
 11
109.9845018892561
 21
98.32751177403089
 31
0.0
 11
108.280470079949
 21
98.12694796530673
 31
0.0
  0
SPLINE
  5
1E84
102
{ACAD_REACTORS
330
1EFE
102
}
330
2
100
AcDbEntity
  8
KIJUN
100
AcDbSpline
210
0.0
220
0.0
230
1.0
 70
     8
 71
     3
 72
    11
 73
     7
 74
     5
 42
0.0000000001
 43
0.0000000001
 44
0.0000000001
 40
0.0
 40
0.0
 40
0.0
 40
0.0
 40
3.119341452643838
 40
7.477551582636294
 40
12.17283596549282
 40
18.62630728557633
 40
18.62630728557633
 40
18.62630728557633
 40
18.62630728557633
 10
111.7887711917287
 20
97.52525826471151
 30
0.0
 10
112.7474890392045
 20
96.87326715507083
 30
0.0
 10
115.0456863563396
 20
95.31034202238734
 30
0.0
 10
112.5106276067948
 20
90.42528864018066
 30
0.0
 10
107.1312911668395
 20
89.72533522888898
 30
0.0
 10
103.4785178168388
 20
90.34652568980979
 30
0.0
 10
101.3641053495553
 20
90.70610257270846
 30
0.0
 11
111.7887711917287
 21
97.52525826471151
 31
0.0
 11
113.9939893519622
 21
95.31906154547755
 31
0.0
 11
112.2899564277534
 21
91.30779399888069
 31
0.0
 11
107.7792848439244
 21
90.00413096775105
 31
0.0
 11
101.3641053495553
 21
90.70610257270846
 31
0.0
  0
SPLINE
  5
1E85
102
{ACAD_REACTORS
330
1EFE
102
}
330
2
100
AcDbEntity
  8
KIJUN
100
AcDbSpline
210
0.0
220
0.0
230
1.0
 70
     8
 71
     3
 72
     9
 73
     5
 74
     3
 42
0.0000000001
 43
0.0000000001
 44
0.0000000001
 40
0.0
 40
0.0
 40
0.0
 40
0.0
 40
7.334215208613749
 40
13.44868222348591
 40
13.44868222348591
 40
13.44868222348591
 40
13.44868222348591
 10
115.4975461749379
 20
90.80638447707043
 30
0.0
 10
113.2725934899332
 20
89.657751744797
 30
0.0
 10
109.1927184423921
 20
87.55151458533958
 30
0.0
 10
104.6378368472661
 20
87.92773203620148
 30
0.0
 10
102.5669519228377
 20
88.09877996160322
 30
0.0
 11
115.4975461749379
 21
90.80638447707043
 31
0.0
 11
108.6814189377098
 21
88.09877996160322
 31
0.0
 11
102.5669519228377
 21
88.09877996160322
 31
0.0
  0
SPLINE
  5
1E86
102
{ACAD_REACTORS
330
1EFE
102
}
330
2
100
AcDbEntity
  8
KIJUN
100
AcDbSpline
210
0.0
220
0.0
230
1.0
 70
    24
 71
     3
 72
     8
 73
     4
 74
     2
 42
0.0000000001
 43
0.0000000001
 44
0.0000000001
 40
0.0
 40
0.0
 40
0.0
 40
0.0
 40
3.485485568748849
 40
3.485485568748849
 40
3.485485568748849
 40
3.485485568748849
 10
110.0563630486465
 20
111.5932984490796
 30
0.0
 10
109.1730839594734
 20
110.8385378464436
 30
0.0
 10
108.2898048703003
 20
110.0837772438076
 30
0.0
 10
107.4065257811273
 20
109.3290166411716
 30
0.0
 11
110.0563630486465
 21
111.5932984490796
 31
0.0
 11
107.4065257811273
 21
109.3290166411716
 31
0.0
  0
ARC
  5
1E87
102
{ACAD_REACTORS
330
1EFE
102
}
330
2
100
AcDbEntity
  8
KIJUN
100
AcDbCircle
 10
111.4119289277811
 20
89.86022233232484
 30
0.0
 40
9.862152598078282
100
AcDbArc
 50
337.2284654529162
 51
61.07652626300186
  0
ARC
  5
1E88
102
{ACAD_REACTORS
330
1EFE
102
}
330
2
100
AcDbEntity
  8
KIJUN
100
AcDbCircle
 10
111.5508501259855
 20
104.274574400365
 30
0.0
 40
5.0
100
AcDbArc
 50
356.2404469788467
 51
53.55932172551774
  0
LINE
  5
1E89
102
{ACAD_REACTORS
330
1EFE
102
}
330
2
100
AcDbEntity
  8
KIJUN
100
AcDbLine
 10
116.5400901489634
 20
103.946726885327
 30
0.0
 11
116.1816704228482
 21
98.49223368183185
 31
0.0
  0
LINE
  5
1E8A
102
{ACAD_REACTORS
330
1EFE
102
}
330
2
100
AcDbEntity
  8
KIJUN
100
AcDbLine
 10
114.520801062509
 20
108.2969358255284
 30
0.0
 11
110.0563630486465
 21
111.5932984490796
 31
0.0
  0
SPLINE
  5
1E8B
102
{ACAD_REACTORS
330
1EFE
102
}
330
2
100
AcDbEntity
  8
KIJUN
100
AcDbSpline
210
0.0
220
0.0
230
1.0
 70
    24
 71
     3
 72
     8
 73
     4
 74
     2
 42
0.0000000001
 43
0.0000000001
 44
0.0000000001
 40
0.0
 40
0.0
 40
0.0
 40
0.0
 40
6.381832369913345
 40
6.381832369913345
 40
6.381832369913345
 40
6.381832369913345
 10
112.6909052855142
 20
103.8430061604813
 30
0.0
 10
112.390193920919
 20
101.7370901952247
 30
0.0
 10
112.0894825563239
 20
99.63117422996811
 30
0.0
 10
111.7887711917287
 20
97.52525826471151
 30
0.0
 11
112.6909052855142
 21
103.8430061604813
 31
0.0
 11
111.7887711917287
 21
97.52525826471151
 31
0.0
  0
SPLINE
  5
1E8C
102
{ACAD_REACTORS
330
1EFE
102
}
330
2
100
AcDbEntity
  8
KIJUN
100
AcDbSpline
210
0.0
220
0.0
230
1.0
 70
    24
 71
     3
 72
     8
 73
     4
 74
     2
 42
0.0000000001
 43
0.0000000001
 44
0.0000000001
 40
0.0
 40
0.0
 40
0.0
 40
0.0
 40
3.810403604245838
 40
3.810403604245838
 40
3.810403604245838
 40
3.810403604245838
 10
116.1816704228482
 20
98.49223368183185
 30
0.0
 10
115.0360470361037
 20
97.94379153164179
 30
0.0
 10
113.8904236493592
 20
97.39534938145171
 30
0.0
 10
112.7448002626147
 20
96.84690723126164
 30
0.0
 11
116.1816704228482
 21
98.49223368183185
 31
0.0
 11
112.7448002626147
 21
96.84690723126164
 31
0.0
  0
LINE
  5
1E8D
102
{ACAD_REACTORS
330
1EFE
102
}
330
2
100
AcDbEntity
  8
KIJUN
100
AcDbLine
 10
72.27408152585917
 20
82.04300178496987
 30
0.0
 11
76.27408152585918
 21
86.04300178496975
 31
0.0
  0
LINE
  5
1E8E
102
{ACAD_REACTORS
330
1EFE
102
}
330
2
100
AcDbEntity
  8
KIJUN
100
AcDbLine
 10
76.27408152585918
 20
86.04300178496988
 30
0.0
 11
72.2740815258594
 21
82.04300178496987
 31
0.0
  0
LINE
  5
1E8F
102
{ACAD_REACTORS
330
1EFE
102
}
330
2
100
AcDbEntity
  8
KIJUN
100
AcDbLine
 10
76.27408152585918
 20
86.04300178496988
 30
0.0
 11
72.2740815258594
 21
90.04300178496988
 31
0.0
  0
LINE
  5
1E90
102
{ACAD_REACTORS
330
1EFE
102
}
330
2
100
AcDbEntity
  8
KIJUN
100
AcDbLine
 10
84.75936290009759
 20
86.04300178496988
 30
0.0
 11
72.27408152585917
 21
98.52828315920874
 31
0.0
  0
LINE
  5
1E91
102
{ACAD_REACTORS
330
1EFE
102
}
330
2
100
AcDbEntity
  8
KIJUN
100
AcDbLine
 10
106.9223138039999
 20
120.6912340631106
 30
0.0
 11
103.3867798980673
 21
117.155700157178
 31
0.0
  0
SPLINE
  5
1E92
102
{ACAD_REACTORS
330
1EFE
102
}
330
2
100
AcDbEntity
  8
KIJUN
100
AcDbSpline
210
0.0
220
0.0
230
1.0
 70
     8
 71
     3
 72
    15
 73
    11
 74
     9
 42
0.0000000001
 43
0.0000000001
 44
0.0000000001
 40
0.0
 40
0.0
 40
0.0
 40
0.0
 40
8.627963515039605
 40
11.67787489383244
 40
14.15385569090318
 40
17.86398619216872
 40
22.01452536601752
 40
28.137993225335
 40
30.69376092282816
 40
33.03856758488603
 40
33.03856758488603
 40
33.03856758488603
 40
33.03856758488603
 10
101.3641053495553
 20
100.8345542063509
 30
0.0
 10
103.3676877813307
 20
102.7268908370519
 30
0.0
 10
106.0795194826319
 20
105.288152297166
 30
0.0
 10
108.0386861308869
 20
110.7057660862869
 30
0.0
 10
104.7081148927573
 20
112.2461992328974
 30
0.0
 10
101.1888452331676
 20
112.1467507907047
 30
0.0
 10
97.43037701662695
 20
108.9318697643416
 30
0.0
 10
95.48096906218836
 20
105.0089475263833
 30
0.0
 10
92.04115512563943
 20
103.2378507452232
 30
0.0
 10
90.38880659383369
 20
103.3252834723845
 30
0.0
 10
89.59819766492955
 20
103.3671179240402
 30
0.0
 11
101.3641053495553
 21
100.8345542063509
 31
0.0
 11
106.7769132569733
 21
107.5534279939918
 31
0.0
 11
107.2780984929977
 21
110.5618782225449
 31
0.0
 11
105.1731178259301
 21
111.8655412536748
 31
0.0
 11
101.4643428427209
 21
111.7652593493128
 31
0.0
 11
98.15651671727255
 21
109.2582169169925
 31
0.0
 11
94.24726674773205
 21
104.5449777654385
 31
0.0
 11
91.94181220923473
 21
103.441878543033
 31
0.0
 11
89.59819766492955
 21
103.3671179240402
 31
0.0
  0
ARC
  5
1E93
102
{ACAD_REACTORS
330
1EFE
102
}
330
2
100
AcDbEntity
  8
KIJUN
100
AcDbCircle
 10
94.39498130380957
 20
111.5635559936338
 30
0.0
 40
21.99095389406886
100
AcDbArc
 50
231.2757710638237
 51
288.4760772414494
  0
SPLINE
  5
1E94
102
{ACAD_REACTORS
330
1EFE
102
}
330
2
100
AcDbEntity
  8
KIJUN
100
AcDbSpline
210
0.0
220
0.0
230
1.0
 70
    24
 71
     3
 72
     8
 73
     4
 74
     2
 42
0.0000000001
 43
0.0000000001
 44
0.0000000001
 40
0.0
 40
0.0
 40
0.0
 40
0.0
 40
3.485485568748849
 40
3.485485568748849
 40
3.485485568748849
 40
3.485485568748849
 10
97.82437818996891
 20
123.8252833077572
 30
0.0
 10
97.06961758733292
 20
122.9420042185841
 30
0.0
 10
96.31485698469692
 20
122.0587251294111
 30
0.0
 10
95.56009638206091
 20
121.175446040238
 30
0.0
 11
97.82437818996891
 21
123.8252833077572
 31
0.0
 11
95.56009638206091
 21
121.175446040238
 31
0.0
  0
SPLINE
  5
1E95
102
{ACAD_REACTORS
330
1EFE
102
}
330
2
100
AcDbEntity
  8
KIJUN
100
AcDbSpline
210
0.0
220
0.0
230
1.0
 70
    24
 71
     3
 72
     8
 73
     4
 74
     2
 42
0.0000000001
 43
0.0000000001
 44
0.0000000001
 40
0.0
 40
0.0
 40
0.0
 40
0.0
 40
3.81040360424393
 40
3.81040360424393
 40
3.81040360424393
 40
3.81040360424393
 10
84.72331342271742
 20
129.9505906819587
 30
0.0
 10
84.1748712725286
 20
128.8049672952143
 30
0.0
 10
83.62642912233978
 20
127.6593439084699
 30
0.0
 10
83.07798697215094
 20
126.5137205217255
 30
0.0
 11
84.72331342271742
 21
129.9505906819587
 31
0.0
 11
83.07798697215094
 21
126.5137205217255
 31
0.0
  0
SPLINE
  5
1E96
102
{ACAD_REACTORS
330
1EFE
102
}
330
2
100
AcDbEntity
  8
KIJUN
100
AcDbSpline
210
0.0
220
0.0
230
1.0
 70
     8
 71
     3
 72
     9
 73
     5
 74
     3
 42
0.0000000001
 43
0.0000000001
 44
0.0000000001
 40
0.0
 40
0.0
 40
0.0
 40
0.0
 40
7.334215208613749
 40
13.44868222348591
 40
13.44868222348591
 40
13.44868222348591
 40
13.44868222348591
 10
77.03746421795973
 20
129.2664664340486
 30
0.0
 10
75.8888314856863
 20
127.0415137490439
 30
0.0
 10
73.78259432622889
 20
122.9616387015028
 30
0.0
 10
74.15881177709076
 20
118.4067571063768
 30
0.0
 10
74.32985970249252
 20
116.3358721819484
 30
0.0
 11
77.03746421795973
 21
129.2664664340486
 31
0.0
 11
74.32985970249252
 21
122.4503391968205
 31
0.0
 11
74.32985970249252
 21
116.3358721819484
 31
0.0
  0
ARC
  5
1E97
102
{ACAD_REACTORS
330
1EFE
102
}
330
2
100
AcDbEntity
  8
KIJUN
100
AcDbCircle
 10
97.79463573452312
 20
108.1639015629203
 30
0.0
 40
21.99095389406886
100
AcDbArc
 50
161.5239227585439
 51
218.7242289361811
  0
SPLINE
  5
1E98
102
{ACAD_REACTORS
330
1EFE
102
}
330
2
100
AcDbEntity
  8
KIJUN
100
AcDbSpline
210
0.0
220
0.0
230
1.0
 70
     8
 71
     3
 72
    11
 73
     7
 74
     5
 42
0.0000000001
 43
0.0000000001
 44
0.0000000001
 40
0.0
 40
0.0
 40
0.0
 40
0.0
 40
3.119341452643758
 40
7.477551582636214
 40
12.17283596549274
 40
18.62630728557625
 40
18.62630728557625
 40
18.62630728557625
 40
18.62630728557625
 10
83.7563380056008
 20
125.5576914508395
 30
0.0
 10
83.10434689596013
 20
126.5164092983153
 30
0.0
 10
81.54142176327662
 20
128.8146066154503
 30
0.0
 10
76.65636838106994
 20
126.2795478659055
 30
0.0
 10
75.95641496977828
 20
120.9002114259503
 30
0.0
 10
76.57760543069909
 20
117.2474380759495
 30
0.0
 10
76.93718231359776
 20
115.133025608666
 30
0.0
 11
83.7563380056008
 21
125.5576914508395
 31
0.0
 11
81.55014128636684
 21
127.7629096110729
 31
0.0
 11
77.53887373977
 21
126.0588766868641
 31
0.0
 11
76.23521070864035
 21
121.5482051030351
 31
0.0
 11
76.93718231359776
 21
115.133025608666
 31
0.0
  0
SPLINE
  5
1E99
102
{ACAD_REACTORS
330
1EFE
102
}
330
2
100
AcDbEntity
  8
KIJUN
100
AcDbSpline
210
0.0
220
0.0
230
1.0
 70
     8
 71
     3
 72
     9
 73
     5
 74
     3
 42
0.0000000001
 43
0.0000000001
 44
0.0000000001
 40
0.0
 40
0.0
 40
0.0
 40
0.0
 40
1.974588161886141
 40
3.690382511014298
 40
3.690382511014298
 40
3.690382511014298
 40
3.690382511014298
 10
83.7563380056008
 20
125.5576914508395
 30
0.0
 10
84.11588200465741
 20
124.9702497471455
 30
0.0
 10
84.78784738542378
 20
123.8723577252051
 30
0.0
 10
84.49444243990559
 20
122.6279576373021
 30
0.0
 10
84.35802770619602
 20
122.0493903390597
 30
0.0
 11
83.7563380056008
 21
125.5576914508395
 31
0.0
 11
84.55859151492019
 21
123.7534221483667
 31
0.0
 11
84.35802770619602
 21
122.0493903390597
 31
0.0
  0
SPLINE
  5
1E9A
102
{ACAD_REACTORS
330
1EFE
102
}
330
2
100
AcDbEntity
  8
KIJUN
100
AcDbSpline
210
0.0
220
0.0
230
1.0
 70
    24
 71
     3
 72
     8
 73
     4
 74
     2
 42
0.0000000001
 43
0.0000000001
 44
0.0000000001
 40
0.0
 40
0.0
 40
0.0
 40
0.0
 40
6.381832369913345
 40
6.381832369913345
 40
6.381832369913345
 40
6.381832369913345
 10
90.0740859013706
 20
126.4598255446249
 30
0.0
 10
87.968169936114
 20
126.1591141800297
 30
0.0
 10
85.8622539708574
 20
125.8584028154346
 30
0.0
 10
83.7563380056008
 20
125.5576914508394
 30
0.0
 11
90.0740859013706
 21
126.4598255446249
 31
0.0
 11
83.7563380056008
 21
125.5576914508394
 31
0.0
  0
SPLINE
  5
1E9B
102
{ACAD_REACTORS
330
1EFE
102
}
330
2
100
AcDbEntity
  8
KIJUN
100
AcDbSpline
210
0.0
220
0.0
230
1.0
 70
     8
 71
     3
 72
    10
 73
     6
 74
     4
 42
0.0000000001
 43
0.0000000001
 44
0.0000000001
 40
0.0
 40
0.0
 40
0.0
 40
0.0
 40
6.200421380728515
 40
8.473523170033262
 40
14.12302325026596
 40
14.12302325026596
 40
14.12302325026596
 40
14.12302325026596
 10
87.06563394724003
 20
115.1330256086659
 30
0.0
 10
88.14337195106459
 20
116.8500793770564
 30
0.0
 10
89.61621345422702
 20
119.1966126200827
 30
0.0
 10
94.18079167364487
 20
122.0499816741571
 30
0.0
 10
91.78353626328368
 20
124.6241914333998
 30
0.0
 10
90.0740859013706
 20
126.4598255446248
 30
0.0
 11
87.06563394724003
 21
115.1330256086659
 31
0.0
 11
90.97661958947492
 21
119.9444096719919
 31
0.0
 11
92.68140851247563
 21
121.4479676098694
 31
0.0
 11
90.0740859013706
 21
126.4598255446248
 31
0.0
  0
SPLINE
  5
1E9C
102
{ACAD_REACTORS
330
1EFE
102
}
330
2
100
AcDbEntity
  8
KIJUN
100
AcDbSpline
210
0.0
220
0.0
230
1.0
 70
     8
 71
     3
 72
    15
 73
    11
 74
     9
 42
0.0000000001
 43
0.0000000001
 44
0.0000000001
 40
0.0
 40
0.0
 40
0.0
 40
0.0
 40
8.627963515039605
 40
11.67787489383246
 40
14.1538556909033
 40
17.86398619216883
 40
22.01452536601764
 40
28.13799322533512
 40
30.69376092282827
 40
33.03856758488614
 40
33.03856758488614
 40
33.03856758488614
 40
33.03856758488614
 10
87.06563394724026
 20
115.133025608666
 30
0.0
 10
88.95797057794117
 20
117.1366080404413
 30
0.0
 10
91.51923203805528
 20
119.8484397417424
 30
0.0
 10
96.93684582717622
 20
121.8076063899978
 30
0.0
 10
98.47727897378673
 20
118.477035151868
 30
0.0
 10
98.37783053159393
 20
114.9577654922783
 30
0.0
 10
95.16294950523098
 20
111.1992972757376
 30
0.0
 10
91.24002726727269
 20
109.249889321299
 30
0.0
 10
89.46893048611247
 20
105.8100753847501
 30
0.0
 10
89.5563632132738
 20
104.1577268529443
 30
0.0
 10
89.59819766492955
 20
103.3671179240402
 30
0.0
 11
87.06563394724026
 21
115.133025608666
 31
0.0
 11
93.78450773488111
 21
120.545833516084
 31
0.0
 11
96.79295796343422
 21
121.0470187521085
 31
0.0
 11
98.0966209945641
 21
118.9420380850408
 31
0.0
 11
97.99633909020213
 21
115.2332631018316
 31
0.0
 11
95.48929665788183
 21
111.9254369763832
 31
0.0
 11
90.77605750632779
 21
108.0161870068427
 31
0.0
 11
89.67295828392229
 21
105.7107324683454
 31
0.0
 11
89.59819766492955
 21
103.3671179240402
 31
0.0
  0
SPLINE
  5
1E9D
102
{ACAD_REACTORS
330
1EFE
102
}
330
2
100
AcDbEntity
  8
KIJUN
100
AcDbSpline
210
0.0
220
0.0
230
1.0
 70
     8
 71
     3
 72
    12
 73
     8
 74
     6
 42
0.0000000001
 43
0.0000000001
 44
0.0000000001
 40
0.0
 40
0.0
 40
0.0
 40
0.0
 40
5.543842273529265
 40
11.26527547463574
 40
19.29612336117565
 40
25.0409432709103
 40
31.13870623860785
 40
31.13870623860785
 40
31.13870623860785
 40
31.13870623860785
 10
84.88068324365759
 20
98.64960350276806
 30
0.0
 10
83.51215074870316
 20
99.99009723231374
 30
0.0
 10
80.73124631618265
 20
102.7140259428144
 30
0.0
 10
80.74040174813331
 20
109.7367672528793
 30
0.0
 10
84.10555408430145
 20
115.3712340121574
 30
0.0
 10
87.35819391872814
 20
121.1284118260336
 30
0.0
 10
89.15097852657494
 20
124.6477257434649
 30
0.0
 10
90.0740859013706
 20
126.4598255446249
 30
0.0
 11
84.88068324365759
 21
98.64960350276806
 31
0.0
 11
81.44985938200466
 21
103.0043290720873
 31
0.0
 11
81.14901366891855
 21
108.7178472291987
 31
0.0
 11
84.45830961055799
 21
116.0351608173532
 31
0.0
 11
87.26619775596418
 21
121.0470187521087
 31
0.0
 11
90.0740859013706
 21
126.4598255446249
 31
0.0
  0
LINE
  5
1E9E
102
{ACAD_REACTORS
330
1EFE
102
}
330
2
100
AcDbEntity
  8
KIJUN
100
AcDbLine
 10
94.52801556641771
 20
128.2897213216197
 30
0.0
 11
97.82437818996891
 21
123.8252833077572
 31
0.0
  0
LINE
  5
1E9F
102
{ACAD_REACTORS
330
1EFE
102
}
330
2
100
AcDbEntity
  8
KIJUN
100
AcDbLine
 10
90.17780662621635
 20
130.3090104080739
 30
0.0
 11
84.72331342271742
 21
129.9505906819587
 31
0.0
  0
ARC
  5
1EA0
102
{ACAD_REACTORS
330
1EFE
102
}
330
2
100
AcDbEntity
  8
KIJUN
100
AcDbCircle
 10
90.50565414125435
 20
125.3197703850961
 30
0.0
 40
5.0
100
AcDbArc
 50
36.44067827448791
 51
93.75955302114723
  0
LINE
  5
1EA1
102
{ACAD_REACTORS
330
1EFE
102
}
330
2
100
AcDbEntity
  8
KIJUN
100
AcDbLine
 10
106.9059167239284
 20
120.6748369830391
 30
0.0
 11
97.82437818996891
 21
123.8252833077572
 31
0.0
  0
ARC
  5
1EA2
102
{ACAD_REACTORS
330
1EFE
102
}
330
2
100
AcDbEntity
  8
KIJUN
100
AcDbCircle
 10
76.09130207321413
 20
125.1808491868847
 30
0.0
 40
9.862152598078282
100
AcDbArc
 50
28.92347373704338
 51
112.7715345470845
  0
LINE
  5
1EA3
102
{ACAD_REACTORS
330
1EFE
102
}
330
2
100
AcDbEntity
  8
KIJUN
100
AcDbLine
 10
106.9223138039999
 20
120.6912340631106
 30
0.0
 11
103.3867798980673
 21
117.1557001571779
 31
0.0
  0
LINE
  5
1EA4
102
{ACAD_REACTORS
330
1EFE
102
}
330
2
100
AcDbEntity
  8
KIJUN
100
AcDbLine
 10
72.27408152585917
 20
98.5282831592084
 30
0.0
 11
84.75936290009803
 21
86.04300178496988
 31
0.0
  0
LINE
  5
1EA5
102
{ACAD_REACTORS
330
1EFE
102
}
330
2
100
AcDbEntity
  8
KIJUN
100
AcDbLine
 10
72.27408152585917
 20
90.04300178496988
 30
0.0
 11
76.27408152585918
 21
86.04300178496998
 31
0.0
  0
LINE
  5
1EA6
102
{ACAD_REACTORS
330
1EFE
102
}
330
2
100
AcDbEntity
  8
KIJUN
100
AcDbLine
 10
72.2740815258594
 20
98.52828315920852
 30
0.0
 11
72.2740815258594
 21
92.11406959683563
 31
0.0
  0
ARC
  5
1EA7
102
{ACAD_REACTORS
330
1EFE
102
}
330
2
100
AcDbEntity
  8
KIJUN
100
AcDbCircle
 10
67.2740815258594
 20
92.11406959683563
 30
0.0
 40
5.0
100
AcDbArc
 50
315.000000000005
 51
0.0
  0
LINE
  5
1EA8
102
{ACAD_REACTORS
330
1EFE
102
}
330
2
100
AcDbEntity
  8
KIJUN
100
AcDbLine
 10
72.27408152585849
 20
98.52828315920852
 30
0.0
 11
72.27408152585849
 21
92.11406959683563
 31
0.0
  0
ARC
  5
1EA9
102
{ACAD_REACTORS
330
1EFE
102
}
330
2
100
AcDbEntity
  8
KIJUN
100
AcDbCircle
 10
77.27408152585849
 20
92.11406959683563
 30
0.0
 40
5.0
100
AcDbArc
 50
180.0
 51
224.999999999995
  0
ARC
  5
1EAA
102
{ACAD_REACTORS
330
1EFE
102
}
330
2
100
AcDbEntity
  8
KIJUN
100
AcDbCircle
 10
77.27408152585849
 20
79.97193397310366
 30
0.0
 40
5.0
100
AcDbArc
 50
135.000000000005
 51
180.0
  0
LINE
  5
1EAB
102
{ACAD_REACTORS
330
1EFE
102
}
330
2
100
AcDbEntity
  8
KIJUN
100
AcDbLine
 10
72.27408152585849
 20
73.55772041073078
 30
0.0
 11
72.27408152585849
 21
79.97193397310366
 31
0.0
  0
LINE
  5
1EAC
102
{ACAD_REACTORS
330
1EFE
102
}
330
2
100
AcDbEntity
  8
KIJUN
100
AcDbLine
 10
72.2740815258594
 20
73.55772041073078
 30
0.0
 11
72.2740815258594
 21
79.97193397310366
 31
0.0
  0
ARC
  5
1EAD
102
{ACAD_REACTORS
330
1EFE
102
}
330
2
100
AcDbEntity
  8
KIJUN
100
AcDbCircle
 10
67.2740815258594
 20
79.97193397310366
 30
0.0
 40
5.0
100
AcDbArc
 50
0.0
 51
44.99999999999501
  0
LINE
  5
1EAE
102
{ACAD_REACTORS
330
1EFE
102
}
330
2
100
AcDbEntity
  8
KIJUN
100
AcDbLine
 10
59.78880015162008
 20
86.04300178496988
 30
0.0
 11
66.20301371399296
 21
86.04300178497011
 31
0.0
  0
LINE
  5
1EAF
102
{ACAD_REACTORS
330
1EFE
102
}
330
2
100
AcDbEntity
  8
KIJUN
100
AcDbLine
 10
59.78880015162008
 20
86.04300178496897
 30
0.0
 11
66.20301371399296
 21
86.04300178496918
 31
0.0
  0
ARC
  5
1EB0
102
{ACAD_REACTORS
330
1EFE
102
}
330
2
100
AcDbEntity
  8
KIJUN
100
AcDbCircle
 10
66.20301371399318
 20
81.04300178497011
 30
0.0
 40
5.0
100
AcDbArc
 50
45.00000000000421
 51
90.0
  0
ARC
  5
1EB1
102
{ACAD_REACTORS
330
1EFE
102
}
330
2
100
AcDbEntity
  8
KIJUN
100
AcDbCircle
 10
66.20301371399273
 20
91.04300178496918
 30
0.0
 40
5.0
100
AcDbArc
 50
270.0
 51
314.9999999999958
  0
ARC
  5
1EB2
102
{ACAD_REACTORS
330
1EFE
102
}
330
2
100
AcDbEntity
  8
KIJUN
100
AcDbCircle
 10
78.34514933772425
 20
91.04300178496918
 30
0.0
 40
5.0
100
AcDbArc
 50
225.0000000000042
 51
270.0
  0
ARC
  5
1EB3
102
{ACAD_REACTORS
330
1EFE
102
}
330
2
100
AcDbEntity
  8
KIJUN
100
AcDbCircle
 10
78.34514933772379
 20
81.04300178497011
 30
0.0
 40
5.0
100
AcDbArc
 50
90.0
 51
134.9999999999957
  0
LINE
  5
1EB4
102
{ACAD_REACTORS
330
1EFE
102
}
330
2
100
AcDbEntity
  8
KIJUN
100
AcDbLine
 10
84.75936290009689
 20
86.04300178496897
 30
0.0
 11
78.34514933772402
 21
86.04300178496918
 31
0.0
  0
LINE
  5
1EB5
102
{ACAD_REACTORS
330
1EFE
102
}
330
2
100
AcDbEntity
  8
KIJUN
100
AcDbLine
 10
84.75936290009689
 20
86.04300178496988
 30
0.0
 11
78.34514933772402
 21
86.04300178497011
 31
0.0
  0
LINE
  5
1EB6
102
{ACAD_REACTORS
330
1EFE
102
}
330
2
100
AcDbEntity
  8
KIJUN
100
AcDbLine
 10
72.2740815258594
 20
98.52828315920817
 30
0.0
 11
72.2740815258594
 21
126.2544628202018
 31
0.0
  0
LINE
  5
1EB7
102
{ACAD_REACTORS
330
1EFE
102
}
330
2
100
AcDbEntity
  8
KIJUN
100
AcDbLine
 10
72.27408152586258
 20
73.55772041071929
 30
0.0
 11
72.27408152586964
 21
45.8315407497256
 31
0.0
  0
LINE
  5
1EB8
102
{ACAD_REACTORS
330
1EFE
102
}
330
2
100
AcDbEntity
  8
KIJUN
100
AcDbLine
 10
84.75936290010986
 20
86.04300178496647
 30
0.0
 11
112.4855425611035
 21
86.04300178495941
 31
0.0
  0
LINE
  5
1EB9
102
{ACAD_REACTORS
330
1EFE
102
}
330
2
100
AcDbEntity
  8
KIJUN
100
AcDbLine
 10
59.78880015160576
 20
86.04300178496647
 30
0.0
 11
32.06262049061206
 21
86.04300178495941
 31
0.0
  0
DIMENSION
  5
1EBB
330
2
100
AcDbEntity
  8
SUNPOU
100
AcDbDimension
  2
*D11
 10
121.2740815258594
 20
151.5591591995294
 30
0.0
 11
72.2740815258594
 21
157.0591591995294
 31
0.0
 70
    32
  1
98φ
 71
     5
 42
98.0
  3
STANDARD
100
AcDbAlignedDimension
 13
23.2740815258594
 23
89.86022233232484
 33
0.0
 14
121.2740815258594
 24
89.86022233232484
 34
0.0
100
AcDbRotatedDimension
1001
ACAD
1000
DSTYLE
1002
{
1070
    41
1040
2.0
1070
    42
1040
10.0
1070
    44
1040
0.0
1070
    73
1070
     0
1070
    74
1070
     0
1070
    77
1070
     1
1070
   140
1040
5.0
1070
   141
1040
0.0
1070
   146
1040
0.064286
1070
   147
1040
3.0
1070
   176
1070
    60
1070
   177
1070
    70
1070
   178
1070
    60
1070
   271
1070
     0
1070
   272
1070
     0
1070
   340
1005
1C
1070
   342
1005
109
1002
}
  0
ENDSEC
  0
SECTION
  2
OBJECTS
  0
DICTIONARY
  5
1A
330
0
100
AcDbDictionary
281
     1
  3
ACAD_COLOR
350
144
  3
ACAD_GROUP
350
18
  3
ACAD_LAYOUT
350
58
  3
ACAD_MATERIAL
350
143
  3
ACAD_MLINESTYLE
350
19
  3
ACAD_PLOTSETTINGS
350
59
  3
ACAD_PLOTSTYLENAME
350
56
  3
ACAD_TABLESTYLE
350
145
  3
ACDBHEADERROUNDTRIPXREC
350
1F06
  3
AcDbVariableDictionary
350
1D1
  0
DICTIONARY
  5
1B4
330
A
100
AcDbDictionary
280
     1
281
     1
  3
ACAD_LAYERFILTERS
360
1A2A
  3
ACLYDICTIONARY
360
1A29
  0
DICTIONARY
  5
D13
330
2
100
AcDbDictionary
280
     1
281
     1
  3
ACAD_SORTENTS
360
D14
  0
DICTIONARY
  5
144
102
{ACAD_REACTORS
330
1A
102
}
330
1A
100
AcDbDictionary
281
     1
  0
DICTIONARY
  5
18
102
{ACAD_REACTORS
330
1A
102
}
330
1A
100
AcDbDictionary
281
     1
  3
*A1
350
E0D
  3
*A10
350
1EFE
  3
*A2
350
FF8
  3
*A3
350
136A
  3
*A4
350
1555
  3
*A5
350
17BC
  3
*A6
350
1A98
  3
*A8
350
1CBC
  0
DICTIONARY
  5
58
102
{ACAD_REACTORS
330
1A
102
}
330
1A
100
AcDbDictionary
281
     1
  3
Model
350
5A
  3
ﾚｲｱｳﾄ1
350
5B
  0
DICTIONARY
  5
143
102
{ACAD_REACTORS
330
1A
102
}
330
1A
100
AcDbDictionary
281
     1
  0
DICTIONARY
  5
19
102
{ACAD_REACTORS
330
1A
102
}
330
1A
100
AcDbDictionary
281
     1
  3
STANDARD
350
1D
  0
DICTIONARY
  5
59
102
{ACAD_REACTORS
330
1A
102
}
330
1A
100
AcDbDictionary
281
     1
  0
ACDBDICTIONARYWDFLT
  5
56
102
{ACAD_REACTORS
330
1A
102
}
330
1A
100
AcDbDictionary
281
     1
  3
Normal
350
57
100
AcDbDictionaryWithDefault
340
57
  0
DICTIONARY
  5
145
102
{ACAD_REACTORS
330
1A
102
}
330
1A
100
AcDbDictionary
281
     1
  3
Standard
350
146
  0
DICTIONARY
  5
1F06
102
{ACAD_REACTORS
330
1A
102
}
330
1A
100
AcDbDictionary
281
     1
  0
DICTIONARY
  5
1D1
102
{ACAD_REACTORS
330
1A
102
}
330
1A
100
AcDbDictionary
281
     1
  3
CTABLESTYLE
350
1D2
  3
DIMASSOC
350
D03
  3
PROJECTNAME
350
D04
  0
DICTIONARY
  5
1A2A
102
{ACAD_REACTORS
330
1B4
102
}
330
1B4
100
AcDbDictionary
281
     1
  0
DICTIONARY
  5
1A29
102
{ACAD_REACTORS
330
1B4
102
}
330
1B4
100
AcDbDictionary
281
     1
1001
ACAD
1000
<All
  0
SORTENTSTABLE
  5
D14
102
{ACAD_REACTORS
330
D13
102
}
330
D13
100
AcDbSortentsTable
330
2
331
20
  5
20
331
1E20
  5
1E20
331
1E28
  5
1E28
331
1E30
  5
1E30
331
1E19
  5
1E19
331
21
  5
21
331
1E21
  5
1E21
331
1E29
  5
1E29
331
1E31
  5
1E31
331
1E1A
  5
1E1A
331
1E22
  5
1E22
331
1E2A
  5
1E2A
331
1E32
  5
1E32
331
1E1B
  5
1E1B
331
23
  5
23
331
1E23
  5
1E23
331
1E2B
  5
1E2B
331
1E33
  5
1E33
331
1E1C
  5
1E1C
331
1E24
  5
1E24
331
1E2C
  5
1E2C
331
1E34
  5
1E34
331
1E1D
  5
1E1D
331
1E25
  5
1E25
331
1E2D
  5
1E2D
331
1E35
  5
1E35
331
1E16
  5
1E16
331
1E1E
  5
1E1E
331
1E26
  5
1E26
331
1E2E
  5
1E2E
331
1E36
  5
1E36
331
1F
  5
1F
331
1E17
  5
1E17
331
1E1F
  5
1E1F
331
1E27
  5
1E27
331
1E2F
  5
1E2F
331
1E18
  5
1E18
  0
GROUP
  5
E0D
102
{ACAD_REACTORS
330
18
102
}
330
18
100
AcDbGroup
300

 70
     1
 71
     1
  0
GROUP
  5
1EFE
102
{ACAD_REACTORS
330
18
102
}
330
18
100
AcDbGroup
300

 70
     1
 71
     1
340
1EB9
340
1EB8
340
1EB7
340
1EB6
340
1EB5
340
1EB4
340
1EB3
340
1EB2
340
1EB1
340
1EB0
340
1EAF
340
1EAE
340
1EAD
340
1EAC
340
1EAB
340
1EAA
340
1EA9
340
1EA8
340
1EA7
340
1EA6
340
1EA5
340
1EA4
340
1EA3
340
1EA2
340
1EA1
340
1EA0
340
1E9F
340
1E9E
340
1E9D
340
1E9C
340
1E9B
340
1E9A
340
1E99
340
1E98
340
1E97
340
1E96
340
1E95
340
1E94
340
1E93
340
1E92
340
1E91
340
1E90
340
1E8F
340
1E8E
340
1E8D
340
1E8C
340
1E8B
340
1E8A
340
1E89
340
1E88
340
1E87
340
1E86
340
1E85
340
1E84
340
1E83
340
1E82
340
1E81
340
1E80
340
1E7F
340
1E7E
340
1E7D
340
1E7C
340
1E7B
340
1E7A
340
1E79
340
1E78
340
1E77
340
1E76
340
1E75
340
1E74
340
1E73
340
1E72
340
1E71
340
1E70
340
1E6F
340
1E6E
340
1E6D
340
1E6C
340
1E6B
340
1E6A
340
1E69
340
1E68
340
1E67
340
1E66
340
1E65
340
1E64
340
1E63
340
1E62
340
1E61
340
1E60
340
1E5F
340
1E5E
340
1E5D
340
1E5C
340
1E5B
340
1E5A
340
1E59
340
1E58
340
1E57
340
1E56
340
1E55
340
1E54
340
1E53
340
1E52
340
1E51
340
1E50
340
1E4F
340
1E4E
340
1E4D
340
1E4C
340
1E4B
340
1E4A
340
1E49
340
1E48
340
1E47
340
1E46
340
1E45
340
1E44
340
1E43
340
1E42
340
1E41
340
1E40
340
1E3F
340
1E3E
340
1E3D
340
1E3C
340
1E3B
340
1E3A
340
1E39
340
1E38
340
1E37
340
1E36
340
1E35
340
1E34
340
1E33
340
1E32
340
1E31
340
1E30
340
1E2F
340
1E2E
340
1E2D
340
1E2C
340
1E2B
340
1E2A
340
1E29
340
1E28
340
1E27
340
1E26
340
1E25
340
1E24
340
1E23
340
1E22
340
1E21
340
1E20
340
1E1F
340
1E1E
340
1E1D
340
1E1C
340
1E1B
340
1E1A
340
1E19
340
1E18
340
1E17
340
1E16
  0
GROUP
  5
FF8
102
{ACAD_REACTORS
330
18
102
}
330
18
100
AcDbGroup
300

 70
     1
 71
     1
  0
GROUP
  5
136A
102
{ACAD_REACTORS
330
18
102
}
330
18
100
AcDbGroup
300

 70
     1
 71
     1
  0
GROUP
  5
1555
102
{ACAD_REACTORS
330
18
102
}
330
18
100
AcDbGroup
300

 70
     1
 71
     1
  0
GROUP
  5
17BC
102
{ACAD_REACTORS
330
18
102
}
330
18
100
AcDbGroup
300

 70
     1
 71
     1
  0
GROUP
  5
1A98
102
{ACAD_REACTORS
330
18
102
}
330
18
100
AcDbGroup
300

 70
     1
 71
     1
  0
GROUP
  5
1CBC
102
{ACAD_REACTORS
330
18
102
}
330
18
100
AcDbGroup
300

 70
     1
 71
     1
  0
LAYOUT
  5
5A
102
{ACAD_XDICTIONARY
360
1F07
102
}
102
{ACAD_REACTORS
330
58
102
}
330
58
100
AcDbPlotSettings
  1

  2
なし
  4

  6

 40
0.0
 41
0.0
 42
0.0
 43
0.0
 44
0.0
 45
0.0
 46
0.0
 47
0.0
 48
0.0
 49
0.0
140
0.0
141
0.0
142
1.0
143
1.0
 70
  1712
 72
     0
 73
     0
 74
     0
  7
monochrome.ctb
 75
     0
147
1.0
148
0.0
149
0.0
100
AcDbLayout
  1
Model
 70
     1
 71
     0
 10
0.0
 20
0.0
 11
12.0
 21
9.0
 12
0.0
 22
0.0
 32
0.0
 14
0.0
 24
0.0
 34
0.0
 15
0.0
 25
0.0
 35
0.0
146
0.0
 13
0.0
 23
0.0
 33
0.0
 16
1.0
 26
0.0
 36
0.0
 17
0.0
 27
1.0
 37
0.0
 76
     0
330
2
  0
LAYOUT
  5
5B
102
{ACAD_XDICTIONARY
360
1F09
102
}
102
{ACAD_REACTORS
330
58
102
}
330
58
100
AcDbPlotSettings
  1

  2
なし
  4

  6

 40
0.0
 41
0.0
 42
0.0
 43
0.0
 44
0.0
 45
0.0
 46
0.0
 47
0.0
 48
0.0
 49
0.0
140
0.0
141
0.0
142
1.0
143
1.0
 70
   688
 72
     0
 73
     0
 74
     5
  7
monochrome.ctb
 75
    16
147
1.0
148
0.0
149
0.0
100
AcDbLayout
  1
ﾚｲｱｳﾄ1
 70
     1
 71
     1
 10
0.0
 20
0.0
 11
12.0
 21
9.0
 12
0.0
 22
0.0
 32
0.0
 14
1.000000000000000E+20
 24
1.000000000000000E+20
 34
1.000000000000000E+20
 15
-1.000000000000000E+20
 25
-1.000000000000000E+20
 35
-1.000000000000000E+20
146
0.0
 13
0.0
 23
0.0
 33
0.0
 16
1.0
 26
0.0
 36
0.0
 17
0.0
 27
1.0
 37
0.0
 76
     0
330
7
  0
MLINESTYLE
  5
1D
102
{ACAD_REACTORS
330
19
102
}
330
19
100
AcDbMlineStyle
  2
STANDARD
 70
     0
  3

 62
   256
 51
90.0
 52
90.0
 71
     2
 49
0.5
 62
   256
  6
BYLAYER
 49
-0.5
 62
   256
  6
BYLAYER
  0
ACDBPLACEHOLDER
  5
57
102
{ACAD_REACTORS
330
56
102
}
330
56
  0
TABLESTYLE
  5
146
102
{ACAD_REACTORS
330
145
102
}
330
145
100
AcDbTableStyle
  3
Standard
 70
     0
 71
     0
 40
0.06
 41
0.06
280
     0
281
     0
  7
STANDARD
140
0.18
170
     2
 62
     0
 63
     7
283
     0
274
    -2
284
     1
 64
     0
275
    -2
285
     1
 65
     0
276
    -2
286
     1
 66
     0
277
    -2
287
     1
 67
     0
278
    -2
288
     1
 68
     0
279
    -2
289
     1
 69
     0
  7
STANDARD
140
0.25
170
     5
 62
     0
 63
     7
283
     0
274
    -2
284
     1
 64
     0
275
    -2
285
     1
 65
     0
276
    -2
286
     1
 66
     0
277
    -2
287
     1
 67
     0
278
    -2
288
     1
 68
     0
279
    -2
289
     1
 69
     0
  7
STANDARD
140
0.18
170
     5
 62
     0
 63
     7
283
     0
274
    -2
284
     1
 64
     0
275
    -2
285
     1
 65
     0
276
    -2
286
     1
 66
     0
277
    -2
287
     1
 67
     0
278
    -2
288
     1
 68
     0
279
    -2
289
     1
 69
     0
  0
DICTIONARYVAR
  5
1D2
102
{ACAD_REACTORS
330
1D1
102
}
330
1D1
100
DictionaryVariables
280
     0
  1
STANDARD
  0
DICTIONARYVAR
  5
D03
102
{ACAD_REACTORS
330
1D1
102
}
330
1D1
100
DictionaryVariables
280
     0
  1
1
  0
DICTIONARYVAR
  5
D04
102
{ACAD_REACTORS
330
1D1
102
}
330
1D1
100
DictionaryVariables
280
     0
  1

  0
DICTIONARY
  5
1F07
330
5A
100
AcDbDictionary
280
     1
281
     1
  3
ACAD_XREC_ROUNDTRIP
360
1F08
  0
DICTIONARY
  5
1F09
330
5B
100
AcDbDictionary
280
     1
281
     1
  3
ACAD_XREC_ROUNDTRIP
360
1F0A
  0
XRECORD
  5
1F08
102
{ACAD_REACTORS
330
1F07
102
}
330
1F07
100
AcDbXrecord
280
     1
102
SHADEPLOT
 70
     0
102
SHADEPLOTRESLEVEL
 70
     2
102
SHADEPLOTCUSTOMDPI
 70
   300
  0
XRECORD
  5
1F0A
102
{ACAD_REACTORS
330
1F09
102
}
330
1F09
100
AcDbXrecord
280
     1
102
SHADEPLOT
 70
     0
102
SHADEPLOTRESLEVEL
 70
     2
102
SHADEPLOTCUSTOMDPI
 70
   300
  0
ENDSEC
  0
EOF
