  0
SECTION
  2
HEADER
  9
$ACADVER
  1
AC1015
  9
$ACADMAINTVER
 70
    20
  9
$DWGCODEPAGE
  3
ANSI_932
  9
$INSBASE
 10
922.019522
 20
-675.4306699999999
 30
0.0
  9
$EXTMIN
 10
-37.15809158914567
 20
-0.0070240091100686
 30
-0.0015258207003583
  9
$EXTMAX
 10
151.4102553509904
 20
222.4665686643634
 30
0.0000000349246037
  9
$LIMMIN
 10
0.0
 20
0.0
  9
$LIMMAX
 10
420.0
 20
297.0
  9
$ORTHOMODE
 70
     0
  9
$REGENMODE
 70
     1
  9
$FILLMODE
 70
     1
  9
$QTEXTMODE
 70
     0
  9
$MIRRTEXT
 70
     1
  9
$LTSCALE
 40
1.0
  9
$ATTMODE
 70
     1
  9
$TEXTSIZE
 40
30.0
  9
$TRACEWID
 40
0.05
  9
$TEXTSTYLE
  7
SUNPOU
  9
$CLAYER
  8
0
  9
$CELTYPE
  6
BYLAYER
  9
$CECOLOR
 62
   256
  9
$CELTSCALE
 40
1.0
  9
$DISPSILH
 70
     0
  9
$DIMSCALE
 40
1.0
  9
$DIMASZ
 40
2.0
  9
$DIMEXO
 40
10.0
  9
$DIMDLI
 40
0.38
  9
$DIMRND
 40
0.0
  9
$DIMDLE
 40
0.0
  9
$DIMEXE
 40
0.0
  9
$DIMTP
 40
0.0
  9
$DIMTM
 40
0.0
  9
$DIMTXT
 40
5.0
  9
$DIMCEN
 40
0.0
  9
$DIMTSZ
 40
0.0
  9
$DIMTOL
 70
     0
  9
$DIMLIM
 70
     0
  9
$DIMTIH
 70
     0
  9
$DIMTOH
 70
     0
  9
$DIMSE1
 70
     0
  9
$DIMSE2
 70
     0
  9
$DIMTAD
 70
     1
  9
$DIMZIN
 70
     0
  9
$DIMBLK
  1
Dot
  9
$DIMASO
 70
     1
  9
$DIMSHO
 70
     1
  9
$DIMPOST
  1

  9
$DIMAPOST
  1

  9
$DIMALT
 70
     0
  9
$DIMALTD
 70
     2
  9
$DIMALTF
 40
25.4
  9
$DIMLFAC
 40
1.0
  9
$DIMTOFL
 70
     0
  9
$DIMTVP
 40
0.0
  9
$DIMTIX
 70
     0
  9
$DIMSOXD
 70
     0
  9
$DIMSAH
 70
     0
  9
$DIMBLK1
  1

  9
$DIMBLK2
  1

  9
$DIMSTYLE
  2
STANDARD
  9
$DIMCLRD
 70
    60
  9
$DIMCLRE
 70
    70
  9
$DIMCLRT
 70
    60
  9
$DIMTFAC
 40
0.064286
  9
$DIMGAP
 40
3.0
  9
$DIMJUST
 70
     0
  9
$DIMSD1
 70
     0
  9
$DIMSD2
 70
     0
  9
$DIMTOLJ
 70
     1
  9
$DIMTZIN
 70
     0
  9
$DIMALTZ
 70
     0
  9
$DIMALTTZ
 70
     0
  9
$DIMUPT
 70
     0
  9
$DIMDEC
 70
     0
  9
$DIMTDEC
 70
     0
  9
$DIMALTU
 70
     2
  9
$DIMALTTD
 70
     2
  9
$DIMTXSTY
  7
SUNPOU
  9
$DIMAUNIT
 70
     0
  9
$DIMADEC
 70
     0
  9
$DIMALTRND
 40
0.0
  9
$DIMAZIN
 70
     0
  9
$DIMDSEP
 70
    46
  9
$DIMATFIT
 70
     3
  9
$DIMFRAC
 70
     0
  9
$DIMLDRBLK
  1

  9
$DIMLUNIT
 70
     2
  9
$DIMLWD
 70
    -2
  9
$DIMLWE
 70
    -2
  9
$DIMTMOVE
 70
     0
  9
$LUNITS
 70
     2
  9
$LUPREC
 70
     5
  9
$SKETCHINC
 40
0.1
  9
$FILLETRAD
 40
1.0
  9
$AUNITS
 70
     0
  9
$AUPREC
 70
     0
  9
$MENU
  1
acad
  9
$ELEVATION
 40
0.0
  9
$PELEVATION
 40
0.0
  9
$THICKNESS
 40
0.0
  9
$LIMCHECK
 70
     0
  9
$CHAMFERA
 40
0.0
  9
$CHAMFERB
 40
0.0
  9
$CHAMFERC
 40
0.0
  9
$CHAMFERD
 40
0.0
  9
$SKPOLY
 70
     0
  9
$TDCREATE
 40
2450623.654673033
  9
$TDUCREATE
 40
2450623.279673032
  9
$TDUPDATE
 40
2453866.563890197
  9
$TDUUPDATE
 40
2453866.188890197
  9
$TDINDWG
 40
0.1617400810
  9
$TDUSRTIMER
 40
0.1617399074
  9
$USRTIMER
 70
     1
  9
$ANGBASE
 50
0.0
  9
$ANGDIR
 70
     0
  9
$PDMODE
 70
     0
  9
$PDSIZE
 40
0.0
  9
$PLINEWID
 40
0.0
  9
$SPLFRAME
 70
     0
  9
$SPLINETYPE
 70
     6
  9
$SPLINESEGS
 70
     8
  9
$HANDSEED
  5
1B0E
  9
$SURFTAB1
 70
     6
  9
$SURFTAB2
 70
     6
  9
$SURFTYPE
 70
     6
  9
$SURFU
 70
     6
  9
$SURFV
 70
     6
  9
$UCSBASE
  2

  9
$UCSNAME
  2

  9
$UCSORG
 10
0.0
 20
0.0
 30
0.0
  9
$UCSXDIR
 10
1.0
 20
0.0
 30
0.0
  9
$UCSYDIR
 10
0.0
 20
1.0
 30
0.0
  9
$UCSORTHOREF
  2

  9
$UCSORTHOVIEW
 70
     0
  9
$UCSORGTOP
 10
0.0
 20
0.0
 30
0.0
  9
$UCSORGBOTTOM
 10
0.0
 20
0.0
 30
0.0
  9
$UCSORGLEFT
 10
0.0
 20
0.0
 30
0.0
  9
$UCSORGRIGHT
 10
0.0
 20
0.0
 30
0.0
  9
$UCSORGFRONT
 10
0.0
 20
0.0
 30
0.0
  9
$UCSORGBACK
 10
0.0
 20
0.0
 30
0.0
  9
$PUCSBASE
  2

  9
$PUCSNAME
  2

  9
$PUCSORG
 10
0.0
 20
0.0
 30
0.0
  9
$PUCSXDIR
 10
1.0
 20
0.0
 30
0.0
  9
$PUCSYDIR
 10
0.0
 20
1.0
 30
0.0
  9
$PUCSORTHOREF
  2

  9
$PUCSORTHOVIEW
 70
     0
  9
$PUCSORGTOP
 10
0.0
 20
0.0
 30
0.0
  9
$PUCSORGBOTTOM
 10
0.0
 20
0.0
 30
0.0
  9
$PUCSORGLEFT
 10
0.0
 20
0.0
 30
0.0
  9
$PUCSORGRIGHT
 10
0.0
 20
0.0
 30
0.0
  9
$PUCSORGFRONT
 10
0.0
 20
0.0
 30
0.0
  9
$PUCSORGBACK
 10
0.0
 20
0.0
 30
0.0
  9
$USERI1
 70
     0
  9
$USERI2
 70
     0
  9
$USERI3
 70
     0
  9
$USERI4
 70
     0
  9
$USERI5
 70
     0
  9
$USERR1
 40
0.0
  9
$USERR2
 40
0.0
  9
$USERR3
 40
0.0
  9
$USERR4
 40
0.0
  9
$USERR5
 40
0.0
  9
$WORLDVIEW
 70
     1
  9
$SHADEDGE
 70
     3
  9
$SHADEDIF
 70
    70
  9
$TILEMODE
 70
     1
  9
$MAXACTVP
 70
    16
  9
$PINSBASE
 10
0.0
 20
0.0
 30
0.0
  9
$PLIMCHECK
 70
     0
  9
$PEXTMIN
 10
1.000000000000000E+20
 20
1.000000000000000E+20
 30
1.000000000000000E+20
  9
$PEXTMAX
 10
-1.000000000000000E+20
 20
-1.000000000000000E+20
 30
-1.000000000000000E+20
  9
$PLIMMIN
 10
0.0
 20
0.0
  9
$PLIMMAX
 10
12.0
 20
9.0
  9
$UNITMODE
 70
     0
  9
$VISRETAIN
 70
     0
  9
$PLINEGEN
 70
     0
  9
$PSLTSCALE
 70
     1
  9
$TREEDEPTH
 70
  3020
  9
$CMLSTYLE
  2
STANDARD
  9
$CMLJUST
 70
     0
  9
$CMLSCALE
 40
1.0
  9
$PROXYGRAPHICS
 70
     1
  9
$MEASUREMENT
 70
     0
  9
$CELWEIGHT
370
    -1
  9
$ENDCAPS
280
     0
  9
$JOINSTYLE
280
     0
  9
$LWDISPLAY
290
     0
  9
$INSUNITS
 70
     0
  9
$HYPERLINKBASE
  1

  9
$STYLESHEET
  1

  9
$XEDIT
290
     1
  9
$CEPSNTYPE
380
     0
  9
$PSTYLEMODE
290
     1
  9
$FINGERPRINTGUID
  2
{FB88A696-E29C-4009-92AF-A3599A8169D5}
  9
$VERSIONGUID
  2
{40623D2C-ADEA-4B55-94EE-48B60D0F70F0}
  9
$EXTNAMES
290
     1
  9
$PSVPSCALE
 40
0.0
  9
$OLESTARTUP
290
     0
  0
ENDSEC
  0
SECTION
  2
CLASSES
  0
CLASS
  1
DICTIONARYVAR
  2
AcDbDictionaryVar
  3
ObjectDBX Classes
 90
        0
280
     0
281
     0
  0
CLASS
  1
ACDBDICTIONARYWDFLT
  2
AcDbDictionaryWithDefault
  3
ObjectDBX Classes
 90
        0
280
     0
281
     0
  0
CLASS
  1
ACDBPLACEHOLDER
  2
AcDbPlaceHolder
  3
ObjectDBX Classes
 90
        0
280
     0
281
     0
  0
CLASS
  1
LAYOUT
  2
AcDbLayout
  3
ObjectDBX Classes
 90
        0
280
     0
281
     0
  0
CLASS
  1
TABLESTYLE
  2
AcDbTableStyle
  3
ObjectDBX Classes
 90
     2047
280
     0
281
     0
  0
CLASS
  1
SORTENTSTABLE
  2
AcDbSortentsTable
  3
ObjectDBX Classes
 90
        0
280
     0
281
     0
  0
ENDSEC
  0
SECTION
  2
TABLES
  0
TABLE
  2
VPORT
  5
12
330
0
100
AcDbSymbolTable
 70
     6
  0
VPORT
  5
1B08
330
12
100
AcDbSymbolTableRecord
100
AcDbViewportTableRecord
  2
*Active
 70
     0
 10
0.0
 20
0.0
 11
1.0
 21
1.0
 12
57.12608188092237
 22
111.2297723276266
 13
0.0
 23
0.0
 14
1.0
 24
1.0
 15
0.0
 25
0.0
 16
0.0
 26
0.0
 36
1.0
 17
0.0
 27
0.0
 37
0.0
 40
224.1827367913235
 41
1.565384615384615
 42
50.0
 43
0.0
 44
0.0
 50
0.0
 51
0.0
 71
     0
 72
 20000
 73
     1
 74
     1
 75
     0
 76
     0
 77
     0
 78
     0
281
     0
 65
     1
110
0.0
120
0.0
130
0.0
111
1.0
121
0.0
131
0.0
112
0.0
122
1.0
132
0.0
 79
     0
146
0.0
  0
ENDTAB
  0
TABLE
  2
LTYPE
  5
D
330
0
100
AcDbSymbolTable
 70
     2
  0
LTYPE
  5
E
330
D
100
AcDbSymbolTableRecord
100
AcDbLinetypeTableRecord
  2
BYBLOCK
 70
     0
  3

 72
    65
 73
     0
 40
0.0
  0
LTYPE
  5
F
330
D
100
AcDbSymbolTableRecord
100
AcDbLinetypeTableRecord
  2
BYLAYER
 70
     0
  3

 72
    65
 73
     0
 40
0.0
  0
LTYPE
  5
5
330
D
100
AcDbSymbolTableRecord
100
AcDbLinetypeTableRecord
  2
CONTINUOUS
 70
     0
  3
Solid line
 72
    65
 73
     0
 40
0.0
  0
ENDTAB
  0
TABLE
  2
LAYER
  5
A
102
{ACAD_XDICTIONARY
360
1B4
102
}
330
0
100
AcDbSymbolTable
 70
     6
  0
LAYER
  5
4
330
A
100
AcDbSymbolTableRecord
100
AcDbLayerTableRecord
  2
0
 70
     0
 62
     7
  6
CONTINUOUS
370
    -3
390
57
  0
LAYER
  5
25
330
A
100
AcDbSymbolTableRecord
100
AcDbLayerTableRecord
  2
KIJUN
 70
     0
 62
     7
  6
CONTINUOUS
370
    -3
390
57
  0
LAYER
  5
22
330
A
100
AcDbSymbolTableRecord
100
AcDbLayerTableRecord
  2
HOJO
 70
     0
 62
     3
  6
CONTINUOUS
370
    -3
390
57
  0
LAYER
  5
1B
330
A
100
AcDbSymbolTableRecord
100
AcDbLayerTableRecord
  2
WAKU
 70
     0
 62
     1
  6
CONTINUOUS
370
    -3
390
57
  0
LAYER
  5
31
330
A
100
AcDbSymbolTableRecord
100
AcDbLayerTableRecord
  2
DEFPOINTS
 70
     0
 62
     7
  6
CONTINUOUS
290
     0
370
    -3
390
57
  0
LAYER
  5
28
330
A
100
AcDbSymbolTableRecord
100
AcDbLayerTableRecord
  2
SUNPOU
 70
     0
 62
    70
  6
CONTINUOUS
370
    -3
390
57
  0
ENDTAB
  0
TABLE
  2
STYLE
  5
B
330
0
100
AcDbSymbolTable
 70
     3
  0
STYLE
  5
C
330
B
100
AcDbSymbolTableRecord
100
AcDbTextStyleTableRecord
  2
STANDARD
 70
     0
 40
0.0
 41
1.0
 50
0.0
 71
     0
 42
0.2
  3
txt
  4

  0
STYLE
  5
1C
330
B
100
AcDbSymbolTableRecord
100
AcDbTextStyleTableRecord
  2
SUNPOU
 70
     0
 40
0.0
 41
1.0
 50
0.0
 71
     0
 42
30.0
  3
txt
  4
bigfont
  0
STYLE
  5
14A
330
B
100
AcDbSymbolTableRecord
100
AcDbTextStyleTableRecord
  2
LIFE
 70
     0
 40
0.0
 41
0.7
 50
0.0
 71
     0
 42
10.0
  3
romans
  4
extfont
  0
ENDTAB
  0
TABLE
  2
VIEW
  5
10
330
0
100
AcDbSymbolTable
 70
     0
  0
ENDTAB
  0
TABLE
  2
UCS
  5
11
330
0
100
AcDbSymbolTable
 70
     0
  0
ENDTAB
  0
TABLE
  2
APPID
  5
14
330
0
100
AcDbSymbolTable
 70
    10
  0
APPID
  5
15
330
14
100
AcDbSymbolTableRecord
100
AcDbRegAppTableRecord
  2
ACAD
 70
     0
  0
APPID
  5
1D3
330
14
100
AcDbSymbolTableRecord
100
AcDbRegAppTableRecord
  2
ACAD_DSTYLE_DIMTEXT_FILL
 70
     0
  0
APPID
  5
1D4
330
14
100
AcDbSymbolTableRecord
100
AcDbRegAppTableRecord
  2
ACAD_DSTYLE_DIMEXT_LENGTH
 70
     0
  0
APPID
  5
1D5
330
14
100
AcDbSymbolTableRecord
100
AcDbRegAppTableRecord
  2
ACAD_DSTYLE_DIMEXT_ENABLED
 70
     0
  0
APPID
  5
1D6
330
14
100
AcDbSymbolTableRecord
100
AcDbRegAppTableRecord
  2
ACAD_DSTYLE_DIM_LINETYPE
 70
     0
  0
APPID
  5
1D7
330
14
100
AcDbSymbolTableRecord
100
AcDbRegAppTableRecord
  2
ACAD_DSTYLE_DIM_EXT1_LINETYPE
 70
     0
  0
APPID
  5
1D8
330
14
100
AcDbSymbolTableRecord
100
AcDbRegAppTableRecord
  2
ACAD_DSTYLE_DIM_EXT2_LINETYPE
 70
     0
  0
APPID
  5
294
330
14
100
AcDbSymbolTableRecord
100
AcDbRegAppTableRecord
  2
ACAD_DSTYLE_DIMJOGGED_JOGANGLE_SYMBOL
 70
     0
  0
APPID
  5
478
330
14
100
AcDbSymbolTableRecord
100
AcDbRegAppTableRecord
  2
ACAD_DSTYLE_DIMARC_LENGTH_SYMBOL
 70
     0
  0
APPID
  5
F55
330
14
100
AcDbSymbolTableRecord
100
AcDbRegAppTableRecord
  2
ACAD_EXEMPT_FROM_CAD_STANDARDS
 70
     0
  0
ENDTAB
  0
TABLE
  2
DIMSTYLE
  5
16
330
0
100
AcDbSymbolTable
 70
     3
100
AcDbDimStyleTable
 71
     1
340
1E
  0
DIMSTYLE
105
1E
102
{ACAD_REACTORS
330
1A2B
330
1A38
102
}
330
16
100
AcDbSymbolTableRecord
100
AcDbDimStyleTableRecord
  2
STANDARD
 70
     0
340
C
  0
DIMSTYLE
105
1005
330
16
100
AcDbSymbolTableRecord
100
AcDbDimStyleTableRecord
  2
1-100
 70
     0
 40
100.0
 41
0.7
 42
2.5
 43
5.0
 44
1.0
 77
     1
147
1.0
172
     1
176
     3
177
     3
271
     2
272
     2
279
     2
340
C
342
109
  0
ENDTAB
  0
TABLE
  2
BLOCK_RECORD
  5
1
330
0
100
AcDbSymbolTable
 70
     7
  0
BLOCK_RECORD
  5
2
102
{ACAD_XDICTIONARY
360
D13
102
}
330
1
100
AcDbSymbolTableRecord
100
AcDbBlockTableRecord
  2
*MODEL_SPACE
340
5A
  0
BLOCK_RECORD
  5
7
330
1
100
AcDbSymbolTableRecord
100
AcDbBlockTableRecord
  2
*PAPER_SPACE
340
5B
  0
BLOCK_RECORD
  5
109
330
1
100
AcDbSymbolTableRecord
100
AcDbBlockTableRecord
  2
_Dot
340
0
102
{BLKREFS
331
1795
331
1796
331
17B6
331
17B7
331
1AD5
331
1AD6
331
1AF0
331
1AF1
102
}
  0
BLOCK_RECORD
  5
1791
330
1
100
AcDbSymbolTableRecord
100
AcDbBlockTableRecord
  2
*D1
340
0
  0
BLOCK_RECORD
  5
179E
330
1
100
AcDbSymbolTableRecord
100
AcDbBlockTableRecord
  2
*D2
340
0
  0
BLOCK_RECORD
  5
1A2C
330
1
100
AcDbSymbolTableRecord
100
AcDbBlockTableRecord
  2
*D5
340
0
  0
BLOCK_RECORD
  5
1A39
330
1
100
AcDbSymbolTableRecord
100
AcDbBlockTableRecord
  2
*D6
340
0
  0
ENDTAB
  0
ENDSEC
  0
SECTION
  2
BLOCKS
  0
BLOCK
  5
3
330
2
100
AcDbEntity
  8
0
100
AcDbBlockBegin
  2
*MODEL_SPACE
 70
     0
 10
0.0
 20
0.0
 30
0.0
  3
*MODEL_SPACE
  1

  0
ENDBLK
  5
6
330
2
100
AcDbEntity
  8
0
100
AcDbBlockEnd
  0
BLOCK
  5
8
330
7
100
AcDbEntity
 67
     1
  8
0
100
AcDbBlockBegin
  2
*PAPER_SPACE
 70
     0
 10
0.0
 20
0.0
 30
0.0
  3
*PAPER_SPACE
  1

  0
ENDBLK
  5
9
330
7
100
AcDbEntity
 67
     1
  8
0
100
AcDbBlockEnd
  0
BLOCK
  5
10C
330
109
100
AcDbEntity
  8
0
100
AcDbBlockBegin
  2
_Dot
 70
     0
 10
0.0
 20
0.0
 30
0.0
  3
_Dot
  1

  0
LWPOLYLINE
  5
10A
330
109
100
AcDbEntity
  8
0
  6
ByBlock
 62
     0
100
AcDbPolyline
 90
        2
 70
     1
 43
0.5
 10
-0.25
 20
0.0
 42
1.0
 10
0.25
 20
0.0
 42
1.0
  0
LINE
  5
10B
330
109
100
AcDbEntity
  8
0
  6
ByBlock
 62
     0
370
    -2
100
AcDbLine
 10
-0.5
 20
0.0
 30
0.0
 11
-1.0
 21
0.0
 31
0.0
  0
ENDBLK
  5
10D
330
109
100
AcDbEntity
  8
0
100
AcDbBlockEnd
  0
BLOCK
  5
179B
330
1791
100
AcDbEntity
  8
0
100
AcDbBlockBegin
  2
*D1
 70
     1
 10
0.0
 20
0.0
 30
0.0
  3
*D1
  1

  0
LINE
  5
1792
330
1791
100
AcDbEntity
  8
SUNPOU
 62
    70
370
    -2
100
AcDbLine
 10
-46.52890652674415
 20
109.7967704641167
 30
0.0
 11
-46.52890652674415
 21
123.8043186415536
 31
0.0
  0
LINE
  5
1793
330
1791
100
AcDbEntity
  8
SUNPOU
 62
    70
370
    -2
100
AcDbLine
 10
190.4710934732558
 20
109.7967704641167
 30
0.0
 11
190.4710934732558
 21
123.8043186415536
 31
0.0
  0
LINE
  5
1794
330
1791
100
AcDbEntity
  8
SUNPOU
 62
    60
370
    -2
100
AcDbLine
 10
-44.52890652674414
 20
123.8043186415536
 30
0.0
 11
188.4710934732558
 21
123.8043186415536
 31
0.0
  0
INSERT
  5
1795
330
1791
100
AcDbEntity
  8
SUNPOU
 62
    60
370
    -2
100
AcDbBlockReference
  2
_Dot
 10
-46.52890652674415
 20
123.8043186415536
 30
0.0
 41
2.0
 42
2.0
 43
2.0
 50
180.0
  0
INSERT
  5
1796
330
1791
100
AcDbEntity
  8
SUNPOU
 62
    60
370
    -2
100
AcDbBlockReference
  2
_Dot
 10
190.4710934732558
 20
123.8043186415536
 30
0.0
 41
2.0
 42
2.0
 43
2.0
  0
MTEXT
  5
1797
330
1791
100
AcDbEntity
  8
SUNPOU
 62
    60
100
AcDbMText
 10
71.97109347325583
 20
129.3043186415536
 30
0.0
 40
5.0
 41
0.0
 71
     5
 72
     1
  1
\A1;237
  7
SUNPOU
 73
     1
 44
1.0
1001
ACAD
1000
MTEXTBEGIN
1070
    73
1070
     1
1070
    44
1040
1.0
1070
    74
1070
     0
1000
MTEXTEND
  0
POINT
  5
1798
330
1791
100
AcDbEntity
  8
DEFPOINTS
 62
     0
100
AcDbPoint
 10
-46.52890652674415
 20
99.79677046411669
 30
0.0
  0
POINT
  5
1799
330
1791
100
AcDbEntity
  8
DEFPOINTS
 62
     0
100
AcDbPoint
 10
190.4710934732558
 20
99.79677046411669
 30
0.0
  0
POINT
  5
179A
330
1791
100
AcDbEntity
  8
DEFPOINTS
 62
     0
100
AcDbPoint
 10
190.4710934732558
 20
123.8043186415536
 30
0.0
  0
ENDBLK
  5
179C
330
1791
100
AcDbEntity
  8
0
100
AcDbBlockEnd
  0
BLOCK
  5
17A8
330
179E
100
AcDbEntity
  8
0
100
AcDbBlockBegin
  2
*D2
 70
     1
 10
0.0
 20
0.0
 30
0.0
  3
*D2
  1

  0
LINE
  5
17B3
330
179E
100
AcDbEntity
  8
SUNPOU
 62
    70
370
    -2
100
AcDbLine
 10
-56.47599811229554
 20
104.5730595009246
 30
0.0
 11
-68.00703225063078
 21
104.5730595009246
 31
0.0
  0
LINE
  5
17B4
330
179E
100
AcDbEntity
  8
SUNPOU
 62
    70
370
    -2
100
AcDbLine
 10
-55.69794902962382
 20
35.57305950092451
 30
0.0
 11
-68.0070322506308
 21
35.57305950092451
 31
0.0
  0
LINE
  5
17B5
330
179E
100
AcDbEntity
  8
SUNPOU
 62
    60
370
    -2
100
AcDbLine
 10
-68.00703225063078
 20
102.5730595009246
 30
0.0
 11
-68.0070322506308
 21
37.57305950092451
 31
0.0
  0
INSERT
  5
17B6
330
179E
100
AcDbEntity
  8
SUNPOU
 62
    60
370
    -2
100
AcDbBlockReference
  2
_Dot
 10
-68.00703225063078
 20
104.5730595009246
 30
0.0
 41
2.0
 42
2.0
 43
2.0
 50
90.0
  0
INSERT
  5
17B7
330
179E
100
AcDbEntity
  8
SUNPOU
 62
    60
370
    -2
100
AcDbBlockReference
  2
_Dot
 10
-68.0070322506308
 20
35.57305950092451
 30
0.0
 41
2.0
 42
2.0
 43
2.0
 50
270.0
  0
MTEXT
  5
17B8
330
179E
100
AcDbEntity
  8
SUNPOU
 62
    60
100
AcDbMText
 10
-73.50703225063082
 20
70.07305950092455
 30
0.0
 40
5.0
 41
0.0
 71
     5
 72
     1
  1
\A1;69
  7
SUNPOU
 11
0.0000000000000001
 21
1.0
 31
0.0
 73
     1
 44
1.0
1001
ACAD
1000
MTEXTBEGIN
1070
    73
1070
     1
1070
    44
1040
1.0
1070
    74
1070
     0
1000
MTEXTEND
  0
POINT
  5
17B9
330
179E
100
AcDbEntity
  8
DEFPOINTS
 62
     0
100
AcDbPoint
 10
-46.47599811229554
 20
104.5730595009246
 30
0.0
  0
POINT
  5
17BA
330
179E
100
AcDbEntity
  8
DEFPOINTS
 62
     0
100
AcDbPoint
 10
-45.69794902962382
 20
35.5730595009245
 30
0.0
  0
POINT
  5
17BB
330
179E
100
AcDbEntity
  8
DEFPOINTS
 62
     0
100
AcDbPoint
 10
-68.0070322506308
 20
35.57305950092451
 30
0.0
  0
ENDBLK
  5
17A9
330
179E
100
AcDbEntity
  8
0
100
AcDbBlockEnd
  0
BLOCK
  5
1A36
330
1A2C
100
AcDbEntity
  8
0
100
AcDbBlockBegin
  2
*D5
 70
     1
 10
0.0
 20
0.0
 30
0.0
  3
*D5
  1

  0
LINE
  5
1AED
330
1A2C
100
AcDbEntity
  8
SUNPOU
 62
    70
370
    -2
100
AcDbLine
 10
0.4099833051092225
 20
155.5697431380477
 30
0.0
 11
0.4099833051092262
 21
214.4644514744918
 31
0.0
  0
LINE
  5
1AEE
330
1A2C
100
AcDbEntity
  8
SUNPOU
 62
    70
370
    -2
100
AcDbLine
 10
150.4099833049592
 20
155.5697431380477
 30
0.0
 11
150.4099833049592
 21
214.4644514744918
 31
0.0
  0
LINE
  5
1AEF
330
1A2C
100
AcDbEntity
  8
SUNPOU
 62
    60
370
    -2
100
AcDbLine
 10
2.409983305109226
 20
214.4644514744918
 30
0.0
 11
148.4099833049592
 21
214.4644514744918
 31
0.0
  0
INSERT
  5
1AF0
330
1A2C
100
AcDbEntity
  8
SUNPOU
 62
    60
370
    -2
100
AcDbBlockReference
  2
_Dot
 10
0.4099833051092262
 20
214.4644514744918
 30
0.0
 41
2.0
 42
2.0
 43
2.0
 50
180.0
  0
INSERT
  5
1AF1
330
1A2C
100
AcDbEntity
  8
SUNPOU
 62
    60
370
    -2
100
AcDbBlockReference
  2
_Dot
 10
150.4099833049592
 20
214.4644514744918
 30
0.0
 41
2.0
 42
2.0
 43
2.0
  0
MTEXT
  5
1AF2
330
1A2C
100
AcDbEntity
  8
SUNPOU
 62
    60
100
AcDbMText
 10
75.4099833050342
 20
219.9644514744918
 30
0.0
 40
5.0
 41
0.0
 71
     5
 72
     1
  1
\A1;150
  7
SUNPOU
 73
     1
 44
1.0
1001
ACAD
1000
MTEXTBEGIN
1070
    73
1070
     1
1070
    44
1040
1.0
1070
    74
1070
     0
1000
MTEXTEND
  0
POINT
  5
1AF3
330
1A2C
100
AcDbEntity
  8
DEFPOINTS
 62
     0
100
AcDbPoint
 10
0.4099833051092219
 20
145.5697431380477
 30
0.0
  0
POINT
  5
1AF4
330
1A2C
100
AcDbEntity
  8
DEFPOINTS
 62
     0
100
AcDbPoint
 10
150.4099833049592
 20
145.5697431380476
 30
0.0
  0
POINT
  5
1AF5
330
1A2C
100
AcDbEntity
  8
DEFPOINTS
 62
     0
100
AcDbPoint
 10
150.4099833049592
 20
214.4644514744918
 30
0.0
  0
ENDBLK
  5
1A37
330
1A2C
100
AcDbEntity
  8
0
100
AcDbBlockEnd
  0
BLOCK
  5
1A43
330
1A39
100
AcDbEntity
  8
0
100
AcDbBlockBegin
  2
*D6
 70
     1
 10
0.0
 20
0.0
 30
0.0
  3
*D6
  1

  0
LINE
  5
1AD2
330
1A39
100
AcDbEntity
  8
SUNPOU
 62
    70
370
    -2
100
AcDbLine
 10
33.23629012152791
 20
188.3904832503148
 30
0.0
 11
-29.1235869828573
 21
188.3904832503148
 31
0.0
  0
LINE
  5
1AD3
330
1A39
100
AcDbEntity
  8
SUNPOU
 62
    70
370
    -2
100
AcDbLine
 10
33.23629012152788
 20
38.3904832504648
 30
0.0
 11
-29.12358698285733
 21
38.39048325046482
 31
0.0
  0
LINE
  5
1AD4
330
1A39
100
AcDbEntity
  8
SUNPOU
 62
    60
370
    -2
100
AcDbLine
 10
-29.12358698285729
 20
186.3904832503148
 30
0.0
 11
-29.12358698285732
 21
40.39048325046482
 31
0.0
  0
INSERT
  5
1AD5
330
1A39
100
AcDbEntity
  8
SUNPOU
 62
    60
370
    -2
100
AcDbBlockReference
  2
_Dot
 10
-29.12358698285729
 20
188.3904832503148
 30
0.0
 41
2.0
 42
2.0
 43
2.0
 50
90.0
  0
INSERT
  5
1AD6
330
1A39
100
AcDbEntity
  8
SUNPOU
 62
    60
370
    -2
100
AcDbBlockReference
  2
_Dot
 10
-29.12358698285733
 20
38.39048325046482
 30
0.0
 41
2.0
 42
2.0
 43
2.0
 50
270.0
  0
MTEXT
  5
1AD7
330
1A39
100
AcDbEntity
  8
SUNPOU
 62
    60
100
AcDbMText
 10
-34.62358698285733
 20
113.3904832503898
 30
0.0
 40
5.0
 41
0.0
 71
     5
 72
     1
  1
\A1;150
  7
SUNPOU
 11
0.0000000000000001
 21
1.0
 31
0.0
 73
     1
 44
1.0
1001
ACAD
1000
MTEXTBEGIN
1070
    73
1070
     1
1070
    44
1040
1.0
1070
    74
1070
     0
1000
MTEXTEND
  0
POINT
  5
1AD8
330
1A39
100
AcDbEntity
  8
DEFPOINTS
 62
     0
100
AcDbPoint
 10
43.23629012152791
 20
188.3904832503148
 30
0.0
  0
POINT
  5
1AD9
330
1A39
100
AcDbEntity
  8
DEFPOINTS
 62
     0
100
AcDbPoint
 10
43.23629012152787
 20
38.3904832504648
 30
0.0
  0
POINT
  5
1ADA
330
1A39
100
AcDbEntity
  8
DEFPOINTS
 62
     0
100
AcDbPoint
 10
-29.12358698285733
 20
38.39048325046482
 30
0.0
  0
ENDBLK
  5
1A44
330
1A39
100
AcDbEntity
  8
0
100
AcDbBlockEnd
  0
ENDSEC
  0
SECTION
  2
ENTITIES
  0
LINE
  5
1F
330
2
100
AcDbEntity
  8
WAKU
100
AcDbLine
 10
0.0
 20
14.0
 30
0.0
 11
148.6829221395387
 21
14.0
 31
0.0
  0
LINE
  5
20
330
2
100
AcDbEntity
  8
WAKU
100
AcDbLine
 10
0.0
 20
0.0
 30
0.0
 11
148.6829221395387
 21
0.0
 31
0.0
  0
TEXT
  5
21
330
2
100
AcDbEntity
  8
HOJO
100
AcDbText
 10
9.653966000000025
 20
2.366626000000024
 30
0.0
 40
9.0
  1
TWR215
  7
SUNPOU
100
AcDbText
  0
TEXT
  5
23
330
2
100
AcDbEntity
  8
HOJO
100
AcDbText
 10
85.84696046283864
 20
5.044386000000031
 30
0.0
 40
6.0
  1
150×150×5
  7
SUNPOU
100
AcDbText
  0
ARC
  5
18AF
102
{ACAD_REACTORS
330
1A98
102
}
330
2
100
AcDbEntity
  8
KIJUN
100
AcDbCircle
 10
96.52930619433597
 20
92.33434057932475
 30
0.0
 40
5.355916457586609
100
AcDbArc
 50
89.84938452182619
 51
180.3374513565744
  0
ARC
  5
18B0
102
{ACAD_REACTORS
330
1A98
102
}
330
2
100
AcDbEntity
  8
KIJUN
100
AcDbCircle
 10
96.52930619433599
 20
134.4354925131525
 30
0.0
 40
5.355916457586609
100
AcDbArc
 50
179.6625486434247
 51
270.1506154781738
  0
ARC
  5
18B1
102
{ACAD_REACTORS
330
1A98
102
}
330
2
100
AcDbEntity
  8
KIJUN
100
AcDbCircle
 10
91.29712035401679
 20
102.3284797942713
 30
0.0
 40
6.413475509073478
100
AcDbArc
 50
198.6112949366048
 51
282.3968170818072
  0
ARC
  5
18B2
102
{ACAD_REACTORS
330
1A98
102
}
330
2
100
AcDbEntity
  8
KIJUN
100
AcDbCircle
 10
91.29712035401681
 20
124.4413532982056
 30
0.0
 40
6.413475509073478
100
AcDbArc
 50
77.60318291819276
 51
161.3887050633946
  0
LINE
  5
18B3
102
{ACAD_REACTORS
330
1A98
102
}
330
2
100
AcDbEntity
  8
KIJUN
100
AcDbLine
 10
78.82419686740418
 20
109.9707029838689
 30
0.0
 11
92.70218920078493
 21
96.09271065048814
 31
0.0
  0
ARC
  5
18B4
102
{ACAD_REACTORS
330
1A98
102
}
330
2
100
AcDbEntity
  8
KIJUN
100
AcDbCircle
 10
89.31967756940546
 20
121.5713025308067
 30
0.0
 40
13.95743054150488
100
AcDbArc
 50
238.6027825019603
 51
285.5527322236214
  0
LINE
  5
18B5
102
{ACAD_REACTORS
330
1A98
102
}
330
2
100
AcDbEntity
  8
KIJUN
100
AcDbLine
 10
78.81862562513376
 20
116.8046922746401
 30
0.0
 11
92.67397214093278
 21
130.705293532783
 31
0.0
  0
ARC
  5
18B6
102
{ACAD_REACTORS
330
1A98
102
}
330
2
100
AcDbEntity
  8
KIJUN
100
AcDbCircle
 10
86.41455497979917
 20
129.3080230119497
 30
0.0
 40
6.413475509073478
100
AcDbArc
 50
288.7981308150015
 51
12.58365296020635
  0
ARC
  5
18B7
102
{ACAD_REACTORS
330
1A98
102
}
330
2
100
AcDbEntity
  8
KIJUN
100
AcDbCircle
 10
91.9080611897167
 20
112.4649098408312
 30
0.0
 40
11.30369976937211
100
AcDbArc
 50
77.41144862049733
 51
107.6476669100884
  0
ARC
  5
18B8
102
{ACAD_REACTORS
330
1A98
102
}
330
2
100
AcDbEntity
  8
KIJUN
100
AcDbCircle
 10
89.33300657304405
 20
105.2212205024683
 30
0.0
 40
13.95743054150488
100
AcDbArc
 50
74.54068571558099
 51
121.4906354372374
  0
ARC
  5
18B9
102
{ACAD_REACTORS
330
1A98
102
}
330
2
100
AcDbEntity
  8
KIJUN
100
AcDbCircle
 10
158.3079469453264
 20
-1557.745512342621
 30
0.0
 40
1672.494975073289
100
AcDbArc
 50
92.29238057949201
 51
92.60140910426185
  0
ARC
  5
18BA
102
{ACAD_REACTORS
330
1A98
102
}
330
2
100
AcDbEntity
  8
KIJUN
100
AcDbCircle
 10
91.9065392358922
 20
114.3318213181766
 30
0.0
 40
11.30369976937211
100
AcDbArc
 50
252.4457510291101
 51
282.6819693186997
  0
ARC
  5
18BB
102
{ACAD_REACTORS
330
1A98
102
}
330
2
100
AcDbEntity
  8
KIJUN
100
AcDbCircle
 10
86.44050217999355
 20
97.47977364802526
 30
0.0
 40
6.413475509073478
100
AcDbArc
 50
347.509764978984
 51
71.29528712420446
  0
ARC
  5
18BC
102
{ACAD_REACTORS
330
1A98
102
}
330
2
100
AcDbEntity
  8
KIJUN
100
AcDbCircle
 10
88.45398195059507
 20
65.40634499610871
 30
0.0
 40
15.57298489592118
100
AcDbArc
 50
39.84863754721575
 51
105.8813400710416
  0
ARC
  5
18BD
102
{ACAD_REACTORS
330
1A98
102
}
330
2
100
AcDbEntity
  8
KIJUN
100
AcDbCircle
 10
83.65998330502646
 20
64.58189461729874
 30
0.0
 40
26.13909709244983
100
AcDbArc
 50
71.60180373781449
 51
108.3981962621846
  0
ARC
  5
18BE
102
{ACAD_REACTORS
330
1A98
102
}
330
2
100
AcDbEntity
  8
KIJUN
100
AcDbCircle
 10
92.05603226777144
 20
103.289942080915
 30
0.0
 40
11.04583755369445
100
AcDbArc
 50
233.534148424715
 51
265.2092954718435
  0
ARC
  5
18C1
102
{ACAD_REACTORS
330
1A98
102
}
330
2
100
AcDbEntity
  8
KIJUN
100
AcDbCircle
 10
92.05603226777146
 20
123.4798910115623
 30
0.0
 40
11.04583755369445
100
AcDbArc
 50
94.79070452815655
 51
126.4658515752862
  0
ARC
  5
18C2
102
{ACAD_REACTORS
330
1A98
102
}
330
2
100
AcDbEntity
  8
KIJUN
100
AcDbCircle
 10
83.65998330502648
 20
162.1879384751782
 30
0.0
 40
26.13909709244983
100
AcDbArc
 50
251.6018037378145
 51
288.3981962621846
  0
ARC
  5
18C4
102
{ACAD_REACTORS
330
1A98
102
}
330
2
100
AcDbEntity
  8
KIJUN
100
AcDbCircle
 10
88.45398195059511
 20
161.3634880963685
 30
0.0
 40
15.57298489592118
100
AcDbArc
 50
254.1186599289584
 51
320.1513624527822
  0
ARC
  5
18C6
102
{ACAD_REACTORS
330
1A98
102
}
330
2
100
AcDbEntity
  8
KIJUN
100
AcDbCircle
 10
85.50495777035827
 20
96.73886758350199
 30
0.0
 40
11.04583755369445
100
AcDbArc
 50
4.790704528163102
 51
36.46585157528447
  0
ARC
  5
18C7
102
{ACAD_REACTORS
330
1A98
102
}
330
2
100
AcDbEntity
  8
KIJUN
100
AcDbCircle
 10
124.2130052339743
 20
105.1349165462469
 30
0.0
 40
26.13909709244983
100
AcDbArc
 50
161.6018037378153
 51
198.3981962621829
  0
ARC
  5
18C8
102
{ACAD_REACTORS
330
1A98
102
}
330
2
100
AcDbEntity
  8
KIJUN
100
AcDbCircle
 10
123.3885548551645
 20
100.340917900678
 30
0.0
 40
15.57298489592118
100
AcDbArc
 50
164.118659928966
 51
230.1513624527726
  0
ARC
  5
18CA
102
{ACAD_REACTORS
330
1A98
102
}
330
2
100
AcDbEntity
  8
KIJUN
100
AcDbCircle
 10
122.9099833049871
 20
124.5277736890844
 30
0.0
 40
24.64285714283239
100
AcDbArc
 50
233.9560398424
 51
310.4497188623345
  0
LINE
  5
18CC
102
{ACAD_REACTORS
330
1A98
102
}
330
2
100
AcDbEntity
  8
KIJUN
100
AcDbLine
 10
142.3685275869933
 20
46.41851853820324
 30
0.0
 11
112.3914177983415
 21
76.36635103961959
 31
0.0
  0
ARC
  5
18CE
102
{ACAD_REACTORS
330
1A98
102
}
330
2
100
AcDbEntity
  8
KIJUN
100
AcDbCircle
 10
113.6713116705557
 20
47.9470878015114
 30
0.0
 40
26.3068279912624
100
AcDbArc
 50
11.92949524483324
 51
68.27231984759777
  0
ARC
  5
18CF
102
{ACAD_REACTORS
330
1A98
102
}
330
2
100
AcDbEntity
  8
KIJUN
100
AcDbCircle
 10
140.8478120497615
 20
75.12358818071738
 30
0.0
 40
26.3068279912624
100
AcDbArc
 50
201.7276801523987
 51
258.0705047551742
  0
ARC
  5
18D0
102
{ACAD_REACTORS
330
1A98
102
}
330
2
100
AcDbEntity
  8
KIJUN
100
AcDbCircle
 10
124.5297426878564
 20
14.00310248129655
 30
0.0
 40
36.99974925347516
100
AcDbArc
 50
61.17522236742622
 51
72.91606971036367
  0
ARC
  5
18D1
102
{ACAD_REACTORS
330
1A98
102
}
330
2
100
AcDbEntity
  8
KIJUN
100
AcDbCircle
 10
174.7664973268535
 20
64.28896905169388
 30
0.0
 40
36.99974925347516
100
AcDbArc
 50
197.1399158207601
 51
208.8807631636985
  0
LINE
  5
18D2
102
{ACAD_REACTORS
330
1A98
102
}
330
2
100
AcDbEntity
  8
KIJUN
100
AcDbLine
 10
118.4099833049916
 20
82.38491654626974
 30
0.0
 11
106.4099833050054
 21
70.38491654628355
 31
0.0
  0
LINE
  5
18D3
102
{ACAD_REACTORS
330
1A98
102
}
330
2
100
AcDbEntity
  8
KIJUN
100
AcDbLine
 10
113.4099833049964
 20
88.3849165462635
 30
0.0
 11
100.4099833050097
 21
75.3849165462766
 31
0.0
  0
LINE
  5
18D4
102
{ACAD_REACTORS
330
1A98
102
}
330
2
100
AcDbEntity
  8
KIJUN
100
AcDbLine
 10
106.8887306855414
 20
81.86366392680863
 30
0.0
 11
92.67397214093263
 21
96.06453955969428
 31
0.0
  0
ARC
  5
18D5
102
{ACAD_REACTORS
330
1A98
102
}
330
2
100
AcDbEntity
  8
KIJUN
100
AcDbCircle
 10
104.523626600139
 20
74.29874842921241
 30
0.0
 40
4.308262856977584
100
AcDbArc
 50
164.7914837853527
 51
294.8237586586179
  0
ARC
  5
18D6
102
{ACAD_REACTORS
330
1A98
102
}
330
2
100
AcDbEntity
  8
KIJUN
100
AcDbCircle
 10
114.5120888789139
 20
84.22000452453319
 30
0.0
 40
4.308262856977584
100
AcDbArc
 50
334.7894336556369
 51
104.8217085289015
  0
ARC
  5
18D7
102
{ACAD_REACTORS
330
1A98
102
}
330
2
100
AcDbEntity
  8
KIJUN
100
AcDbCircle
 10
122.4043103573493
 20
87.03662576462866
 30
0.0
 40
9.617873015286308
100
AcDbArc
 50
227.7702294018859
 51
297.0373122960083
  0
ARC
  5
18D8
102
{ACAD_REACTORS
330
1A98
102
}
330
2
100
AcDbEntity
  8
KIJUN
100
AcDbCircle
 10
101.7582740866458
 20
66.39058949392597
 30
0.0
 40
9.617873015286308
100
AcDbArc
 50
332.9626877039891
 51
42.22977059810602
  0
LINE
  5
18D9
102
{ACAD_REACTORS
330
1A98
102
}
330
2
100
AcDbEntity
  8
KIJUN
100
AcDbLine
 10
99.40998330501052
 20
96.88491654625504
 30
0.0
 11
96.51220582614618
 21
97.66137368156188
 31
0.0
  0
LINE
  5
18DA
102
{ACAD_REACTORS
330
1A98
102
}
330
2
100
AcDbEntity
  8
KIJUN
100
AcDbLine
 10
91.90998330501818
 20
89.38491654626254
 30
0.0
 11
91.13352616971136
 21
92.28269402512706
 31
0.0
  0
ARC
  5
18DD
102
{ACAD_REACTORS
330
1A98
102
}
330
2
100
AcDbEntity
  8
KIJUN
100
AcDbCircle
 10
114.5120888789139
 20
142.549828567944
 30
0.0
 40
4.308262856977584
100
AcDbArc
 50
255.1782914710993
 51
25.21056634436389
  0
LINE
  5
18DE
102
{ACAD_REACTORS
330
1A98
102
}
330
2
100
AcDbEntity
  8
KIJUN
100
AcDbLine
 10
106.8887306855414
 20
144.9061691656686
 30
0.0
 11
92.67397214093263
 21
130.705293532783
 31
0.0
  0
ARC
  5
18DF
102
{ACAD_REACTORS
330
1A98
102
}
330
2
100
AcDbEntity
  8
KIJUN
100
AcDbCircle
 10
86.02129403501105
 20
164.7580534859686
 30
0.0
 40
27.9888173607787
100
AcDbArc
 50
282.1288567406579
 51
316.4704556756344
  0
ARC
  5
18E0
102
{ACAD_REACTORS
330
1A98
102
}
330
2
100
AcDbEntity
  8
KIJUN
100
AcDbCircle
 10
126.7731064543419
 20
123.9999026320863
 30
0.0
 40
27.9888173607787
100
AcDbArc
 50
133.5206333757396
 51
167.8622323107128
  0
LINE
  5
18E1
102
{ACAD_REACTORS
330
1A98
102
}
330
2
100
AcDbEntity
  8
KIJUN
100
AcDbLine
 10
113.4099833049965
 20
138.3849165462138
 30
0.0
 11
100.4099833050097
 21
151.3849165462006
 31
0.0
  0
ARC
  5
18E3
102
{ACAD_REACTORS
330
1A98
102
}
330
2
100
AcDbEntity
  8
KIJUN
100
AcDbCircle
 10
132.5357425043962
 20
108.9588835534379
 30
0.0
 40
13.61381079067817
100
AcDbArc
 50
18.97244845784408
 51
62.13933929884685
  0
ARC
  5
18E4
102
{ACAD_REACTORS
330
1A98
102
}
330
2
100
AcDbEntity
  8
KIJUN
100
AcDbCircle
 10
127.5352986960527
 20
102.6584226168414
 30
0.0
 40
11.78219937252297
100
AcDbArc
 50
15.33899004499746
 51
65.56044767967232
  0
ARC
  5
18E7
102
{ACAD_REACTORS
330
1A98
102
}
330
2
100
AcDbEntity
  8
KIJUN
100
AcDbCircle
 10
88.92887918968529
 20
109.716240015293
 30
0.0
 40
4.428889829272617
100
AcDbArc
 50
338.9427328268157
 51
55.92974458205713
  0
ARC
  5
18E8
102
{ACAD_REACTORS
330
1A98
102
}
330
2
100
AcDbEntity
  8
KIJUN
100
AcDbCircle
 10
90.28345071441178
 20
104.7677214494431
 30
0.0
 40
4.357902275245404
100
AcDbArc
 50
340.3725588148069
 51
50.38748405774075
  0
ARC
  5
18E9
102
{ACAD_REACTORS
330
1A98
102
}
330
2
100
AcDbEntity
  8
KIJUN
100
AcDbCircle
 10
122.9099833049871
 20
124.5277736890844
 30
0.0
 40
14.64285714284238
100
AcDbArc
 50
229.5502811376649
 51
310.4497188623345
  0
ARC
  5
18EA
102
{ACAD_REACTORS
330
1A98
102
}
330
2
100
AcDbEntity
  8
KIJUN
100
AcDbCircle
 10
123.3885548551645
 20
126.4289151917989
 30
0.0
 40
15.57298489592118
100
AcDbArc
 50
129.8486375472251
 51
195.8813400710339
  0
ARC
  5
18EB
102
{ACAD_REACTORS
330
1A98
102
}
330
2
100
AcDbEntity
  8
KIJUN
100
AcDbCircle
 10
122.9099833049871
 20
102.2420594033928
 30
0.0
 40
14.64285714284238
100
AcDbArc
 50
49.55028113766339
 51
130.4497188623366
  0
ARC
  5
18EC
102
{ACAD_REACTORS
330
1A98
102
}
330
2
100
AcDbEntity
  8
KIJUN
100
AcDbCircle
 10
122.9099833049871
 20
102.2420594033928
 30
0.0
 40
24.64285714283239
100
AcDbArc
 50
49.55028113766339
 51
126.0439601575999
  0
LINE
  5
18ED
102
{ACAD_REACTORS
330
1A98
102
}
330
2
100
AcDbEntity
  8
KIJUN
100
AcDbLine
 10
91.9099833050182
 20
137.3849165462147
 30
0.0
 11
91.13352616971139
 21
134.4871390673502
 31
0.0
  0
ARC
  5
18EE
102
{ACAD_REACTORS
330
1A98
102
}
330
2
100
AcDbEntity
  8
KIJUN
100
AcDbCircle
 10
124.2130052339743
 20
121.6349165462303
 30
0.0
 40
26.13909709244983
100
AcDbArc
 50
161.6018037378153
 51
198.3981962621829
  0
LINE
  5
18EF
102
{ACAD_REACTORS
330
1A98
102
}
330
2
100
AcDbEntity
  8
KIJUN
100
AcDbLine
 10
99.40998330501058
 20
129.8849165462222
 30
0.0
 11
96.5122058261462
 21
129.1084594109154
 31
0.0
  0
ARC
  5
18F0
102
{ACAD_REACTORS
330
1A98
102
}
330
2
100
AcDbEntity
  8
KIJUN
100
AcDbCircle
 10
90.28345071441176
 20
122.0021116430342
 30
0.0
 40
4.357902275245404
100
AcDbArc
 50
309.6125159422592
 51
19.62744118519269
  0
ARC
  5
18F1
102
{ACAD_REACTORS
330
1A98
102
}
330
2
100
AcDbEntity
  8
KIJUN
100
AcDbCircle
 10
85.50495777035823
 20
130.0309655089753
 30
0.0
 40
11.04583755369445
100
AcDbArc
 50
323.5341484247059
 51
355.2092954718369
  0
ARC
  5
18F2
102
{ACAD_REACTORS
330
1A98
102
}
330
2
100
AcDbEntity
  8
KIJUN
100
AcDbCircle
 10
88.92887918968531
 20
117.0535930771843
 30
0.0
 40
4.428889829272617
100
AcDbArc
 50
304.0702554179419
 51
21.05726717318687
  0
ARC
  5
18F3
102
{ACAD_REACTORS
330
1A98
102
}
330
2
100
AcDbEntity
  8
KIJUN
100
AcDbCircle
 10
104.523626600139
 20
152.4710846632649
 30
0.0
 40
4.308262856977584
100
AcDbArc
 50
65.17624134138208
 51
195.2085162146472
  0
ARC
  5
18F4
102
{ACAD_REACTORS
330
1A98
102
}
330
2
100
AcDbEntity
  8
KIJUN
100
AcDbCircle
 10
98.66478971977562
 20
163.2118158447124
 30
0.0
 40
17.83898697863377
100
AcDbArc
 50
317.0860046718811
 51
354.122006123248
  0
ARC
  5
18F5
102
{ACAD_REACTORS
330
1A98
102
}
330
2
100
AcDbEntity
  8
KIJUN
100
AcDbCircle
 10
101.7582740866458
 20
160.379243598551
 30
0.0
 40
9.617873015286308
100
AcDbArc
 50
317.7702294018953
 51
27.03731229601098
  0
ARC
  5
18F6
102
{ACAD_REACTORS
330
1A98
102
}
330
2
100
AcDbEntity
  8
KIJUN
100
AcDbCircle
 10
124.5297426878565
 20
212.7667306111807
 30
0.0
 40
36.99974925347516
100
AcDbArc
 50
287.0839302896354
 51
298.8247776325738
  0
LINE
  5
18F7
102
{ACAD_REACTORS
330
1A98
102
}
330
2
100
AcDbEntity
  8
KIJUN
100
AcDbLine
 10
142.3685275869933
 20
180.351314554274
 30
0.0
 11
112.3914177983415
 21
150.4034820528576
 31
0.0
  0
ARC
  5
18F8
102
{ACAD_REACTORS
330
1A98
102
}
330
2
100
AcDbEntity
  8
KIJUN
100
AcDbCircle
 10
174.7664973268535
 20
162.4808640407834
 30
0.0
 40
36.99974925347516
100
AcDbArc
 50
151.1192368363
 51
162.8600841792394
  0
ARC
  5
18F9
102
{ACAD_REACTORS
330
1A98
102
}
330
2
100
AcDbEntity
  8
KIJUN
100
AcDbCircle
 10
122.4043103573493
 20
139.7332073278486
 30
0.0
 40
9.617873015286308
100
AcDbArc
 50
62.96268770399166
 51
132.2297705981117
  0
ARC
  5
18FA
102
{ACAD_REACTORS
330
1A98
102
}
330
2
100
AcDbEntity
  8
KIJUN
100
AcDbCircle
 10
125.2368826035107
 20
136.6397229609785
 30
0.0
 40
17.83898697863377
100
AcDbArc
 50
95.87799387675245
 51
132.9139953281281
  0
LINE
  5
18FB
102
{ACAD_REACTORS
330
1A98
102
}
330
2
100
AcDbEntity
  8
KIJUN
100
AcDbLine
 10
118.4099833049916
 20
144.3849165462075
 30
0.0
 11
106.4099833050054
 21
156.3849165461934
 31
0.0
  0
ARC
  5
18FC
102
{ACAD_REACTORS
330
1A98
102
}
330
2
100
AcDbEntity
  8
KIJUN
100
AcDbCircle
 10
140.8478120497615
 20
151.6462449117599
 30
0.0
 40
26.3068279912624
100
AcDbArc
 50
101.9294952448257
 51
158.2723198475991
  0
ARC
  5
18FF
102
{ACAD_REACTORS
330
1A98
102
}
330
2
100
AcDbEntity
  8
KIJUN
100
AcDbCircle
 10
113.6713116705557
 20
178.8227452909659
 30
0.0
 40
26.3068279912624
100
AcDbArc
 50
291.727680152402
 51
348.0705047551672
  0
ARC
  5
1900
102
{ACAD_REACTORS
330
1A98
102
}
330
2
100
AcDbEntity
  8
KIJUN
100
AcDbCircle
 10
83.61903746796837
 20
99.4885882626017
 30
0.0
 40
13.95743054150488
100
AcDbArc
 50
148.6962004411624
 51
195.6461501628161
  0
ARC
  5
1901
102
{ACAD_REACTORS
330
1A98
102
}
330
2
100
AcDbEntity
  8
KIJUN
100
AcDbCircle
 10
1746.801848831635
 20
35.93677528072503
 30
0.0
 40
1672.494975073289
100
AcDbArc
 50
177.5854267741412
 51
177.8944552989177
  0
ARC
  5
1902
102
{ACAD_REACTORS
330
1A98
102
}
330
2
100
AcDbEntity
  8
KIJUN
100
AcDbCircle
 10
67.20092914210066
 20
99.4885882626017
 30
0.0
 40
13.95743054150488
100
AcDbArc
 50
344.353849837184
 51
31.30379955883725
  0
ARC
  5
1903
102
{ACAD_REACTORS
330
1A98
102
}
330
2
100
AcDbEntity
  8
KIJUN
100
AcDbCircle
 10
64.37946443007565
 20
97.47977364802528
 30
0.0
 40
6.413475509073478
100
AcDbArc
 50
108.7047128757963
 51
192.4902350210155
  0
LINE
  5
1904
102
{ACAD_REACTORS
330
1A98
102
}
330
2
100
AcDbEntity
  8
KIJUN
100
AcDbLine
 10
71.99576974266483
 20
109.9707029838689
 30
0.0
 11
58.11777740928426
 21
96.09271065048815
 31
0.0
  0
ARC
  5
1905
102
{ACAD_REACTORS
330
1A98
102
}
330
2
100
AcDbEntity
  8
KIJUN
100
AcDbCircle
 10
27.43141175490448
 20
100.340917900678
 30
0.0
 40
15.57298489592118
100
AcDbArc
 50
309.8486375472273
 51
15.88134007103399
  0
ARC
  5
1906
102
{ACAD_REACTORS
330
1A98
102
}
330
2
100
AcDbEntity
  8
KIJUN
100
AcDbCircle
 10
27.90998330508211
 20
124.5277736890844
 30
0.0
 40
24.64285714283239
100
AcDbArc
 50
229.5502811376649
 51
306.0439601576
  0
ARC
  5
1909
102
{ACAD_REACTORS
330
1A98
102
}
330
2
100
AcDbEntity
  8
KIJUN
100
AcDbCircle
 10
26.60696137609489
 20
105.1349165462469
 30
0.0
 40
26.13909709244983
100
AcDbArc
 50
341.601803737817
 51
18.39819626218466
  0
ARC
  5
190A
102
{ACAD_REACTORS
330
1A98
102
}
330
2
100
AcDbEntity
  8
KIJUN
100
AcDbCircle
 10
65.31500883971095
 20
96.73886758350199
 30
0.0
 40
11.04583755369445
100
AcDbArc
 50
143.5341484247159
 51
175.2092954718369
  0
LINE
  5
190B
102
{ACAD_REACTORS
330
1A98
102
}
330
2
100
AcDbEntity
  8
KIJUN
100
AcDbLine
 10
8.451439023075721
 20
46.41851853820326
 30
0.0
 11
38.42854881172771
 21
76.36635103961961
 31
0.0
  0
ARC
  5
190C
102
{ACAD_REACTORS
330
1A98
102
}
330
2
100
AcDbEntity
  8
KIJUN
100
AcDbCircle
 10
9.972154560307536
 20
75.12358818071739
 30
0.0
 40
26.3068279912624
100
AcDbArc
 50
281.9294952448258
 51
338.2723198476008
  0
ARC
  5
190D
102
{ACAD_REACTORS
330
1A98
102
}
330
2
100
AcDbEntity
  8
KIJUN
100
AcDbCircle
 10
37.14865493951351
 20
47.94708780151142
 30
0.0
 40
26.3068279912624
100
AcDbArc
 50
111.7276801524021
 51
168.0705047551667
  0
ARC
  5
1911
102
{ACAD_REACTORS
330
1A98
102
}
330
2
100
AcDbEntity
  8
KIJUN
100
AcDbCircle
 10
86.55284044788036
 20
65.88491654628597
 30
0.0
 40
24.64285714283239
100
AcDbArc
 50
143.9560398424041
 51
220.4497188623409
  0
ARC
  5
1912
102
{ACAD_REACTORS
330
1A98
102
}
330
2
100
AcDbEntity
  8
KIJUN
100
AcDbCircle
 10
86.55284044788036
 20
65.88491654628597
 30
0.0
 40
14.64285714284238
100
AcDbArc
 50
139.5502811376608
 51
220.4497188623409
  0
ARC
  5
1913
102
{ACAD_REACTORS
330
1A98
102
}
330
2
100
AcDbEntity
  8
KIJUN
100
AcDbCircle
 10
64.26712616218883
 20
65.88491654628597
 30
0.0
 40
14.64285714284238
100
AcDbArc
 50
319.5502811376595
 51
40.44971886233951
  0
ARC
  5
1914
102
{ACAD_REACTORS
330
1A98
102
}
330
2
100
AcDbEntity
  8
KIJUN
100
AcDbCircle
 10
64.26712616218883
 20
65.88491654628597
 30
0.0
 40
24.64285714283239
100
AcDbArc
 50
319.5502811376595
 51
36.04396015759592
  0
ARC
  5
1915
102
{ACAD_REACTORS
330
1A98
102
}
330
2
100
AcDbEntity
  8
KIJUN
100
AcDbCircle
 10
79.83855483009982
 20
56.26917740151692
 30
0.0
 40
13.61381079067817
100
AcDbArc
 50
207.8525257302832
 51
251.0194165712796
  0
ARC
  5
1916
102
{ACAD_REACTORS
330
1A98
102
}
330
2
100
AcDbEntity
  8
KIJUN
100
AcDbCircle
 10
86.13972567633279
 20
61.26872660725183
 30
0.0
 40
11.78219937252297
100
AcDbArc
 50
204.4314173494595
 51
254.6528749841332
  0
ARC
  5
1919
102
{ACAD_REACTORS
330
1A98
102
}
330
2
100
AcDbEntity
  8
KIJUN
100
AcDbCircle
 10
28.41565625271966
 20
87.03662576462868
 30
0.0
 40
9.617873015286308
100
AcDbArc
 50
242.9626877039916
 51
312.2297705981135
  0
ARC
  5
191A
102
{ACAD_REACTORS
330
1A98
102
}
330
2
100
AcDbEntity
  8
KIJUN
100
AcDbCircle
 10
54.29066041573308
 20
92.33434057932479
 30
0.0
 40
5.355916457586609
100
AcDbArc
 50
359.6625486434248
 51
90.1506154781738
  0
LINE
  5
191B
102
{ACAD_REACTORS
330
1A98
102
}
330
2
100
AcDbEntity
  8
KIJUN
100
AcDbLine
 10
58.909983305051
 20
89.38491654626254
 30
0.0
 11
59.68644044035785
 21
92.28269402512706
 31
0.0
  0
ARC
  5
191C
102
{ACAD_REACTORS
330
1A98
102
}
330
2
100
AcDbEntity
  8
KIJUN
100
AcDbCircle
 10
46.29634000992997
 20
74.2987484292124
 30
0.0
 40
4.308262856977584
100
AcDbArc
 50
245.1762413413821
 51
15.20851621464732
  0
LINE
  5
191D
102
{ACAD_REACTORS
330
1A98
102
}
330
2
100
AcDbEntity
  8
KIJUN
100
AcDbLine
 10
43.93123592452761
 20
81.86366392680863
 30
0.0
 11
58.14599446913639
 21
96.06453955969431
 31
0.0
  0
ARC
  5
191E
102
{ACAD_REACTORS
330
1A98
102
}
330
2
100
AcDbEntity
  8
KIJUN
100
AcDbCircle
 10
36.30787773115528
 20
84.22000452453321
 30
0.0
 40
4.308262856977584
100
AcDbArc
 50
75.17829147109849
 51
205.2105663443639
  0
LINE
  5
191F
102
{ACAD_REACTORS
330
1A98
102
}
330
2
100
AcDbEntity
  8
KIJUN
100
AcDbLine
 10
37.40998330507276
 20
88.38491654626347
 30
0.0
 11
50.40998330505927
 21
75.3849165462766
 31
0.0
  0
LINE
  5
1920
102
{ACAD_REACTORS
330
1A98
102
}
330
2
100
AcDbEntity
  8
KIJUN
100
AcDbLine
 10
32.40998330507756
 20
82.38491654626974
 30
0.0
 11
44.40998330506359
 21
70.38491654628358
 31
0.0
  0
ARC
  5
1921
102
{ACAD_REACTORS
330
1A98
102
}
330
2
100
AcDbEntity
  8
KIJUN
100
AcDbCircle
 10
49.06169252342334
 20
66.39058949392598
 30
0.0
 40
9.617873015286308
100
AcDbArc
 50
137.7702294018937
 51
207.037312296011
  0
ARC
  5
1922
102
{ACAD_REACTORS
330
1A98
102
}
330
2
100
AcDbEntity
  8
KIJUN
100
AcDbCircle
 10
74.43618298378797
 20
96.88992642313301
 30
0.0
 40
11.30369976937211
100
AcDbArc
 50
347.2246127420958
 51
17.46083103169653
  0
ARC
  5
1923
102
{ACAD_REACTORS
330
1A98
102
}
330
2
100
AcDbEntity
  8
KIJUN
100
AcDbCircle
 10
76.38378362628123
 20
96.88992642313303
 30
0.0
 40
11.30369976937211
100
AcDbArc
 50
162.5391689683027
 51
192.7753872579034
  0
ARC
  5
1924
102
{ACAD_REACTORS
330
1A98
102
}
330
2
100
AcDbEntity
  8
KIJUN
100
AcDbCircle
 10
59.52284625605241
 20
102.3284797942713
 30
0.0
 40
6.413475509073478
100
AcDbArc
 50
257.6031829181919
 51
341.3887050633946
  0
ARC
  5
1926
102
{ACAD_REACTORS
330
1A98
102
}
330
2
100
AcDbEntity
  8
KIJUN
100
AcDbCircle
 10
71.74130677408881
 20
99.86602066158779
 30
0.0
 40
4.428889829272617
100
AcDbArc
 50
248.942732826811
 51
325.9297445820537
  0
ARC
  5
1927
102
{ACAD_REACTORS
330
1A98
102
}
330
2
100
AcDbEntity
  8
KIJUN
100
AcDbCircle
 10
58.7639343422976
 20
103.289942080915
 30
0.0
 40
11.04583755369445
100
AcDbArc
 50
274.7907045281565
 51
306.4658515752849
  0
ARC
  5
1928
102
{ACAD_REACTORS
330
1A98
102
}
330
2
100
AcDbEntity
  8
KIJUN
100
AcDbCircle
 10
66.79278820823886
 20
98.51144913686134
 30
0.0
 40
4.357902275245404
100
AcDbArc
 50
250.372558814809
 51
320.3874840577359
  0
LINE
  5
1929
102
{ACAD_REACTORS
330
1A98
102
}
330
2
100
AcDbEntity
  8
KIJUN
100
AcDbLine
 10
58.909983305051
 20
89.38491654626254
 30
0.0
 11
59.68644044035785
 21
92.28269402512706
 31
0.0
  0
ARC
  5
192A
102
{ACAD_REACTORS
330
1A98
102
}
330
2
100
AcDbEntity
  8
KIJUN
100
AcDbCircle
 10
67.15998330504271
 20
64.58189461729877
 30
0.0
 40
26.13909709244983
100
AcDbArc
 50
71.60180373781449
 51
108.3981962621846
  0
LINE
  5
192B
102
{ACAD_REACTORS
330
1A98
102
}
330
2
100
AcDbEntity
  8
KIJUN
100
AcDbLine
 10
51.4099833050585
 20
96.88491654625506
 30
0.0
 11
54.30776078392304
 21
97.66137368156186
 31
0.0
  0
ARC
  5
192C
102
{ACAD_REACTORS
330
1A98
102
}
330
2
100
AcDbEntity
  8
KIJUN
100
AcDbCircle
 10
84.02717840183019
 20
98.5114491368613
 30
0.0
 40
4.357902275245404
100
AcDbArc
 50
219.6125159422635
 51
289.6274411851909
  0
ARC
  5
192D
102
{ACAD_REACTORS
330
1A98
102
}
330
2
100
AcDbEntity
  8
KIJUN
100
AcDbCircle
 10
79.07865983598023
 20
99.86602066158779
 30
0.0
 40
4.428889829272617
100
AcDbArc
 50
214.0702554179469
 51
291.057267173189
  0
ARC
  5
192E
102
{ACAD_REACTORS
330
1A98
102
}
330
2
100
AcDbEntity
  8
KIJUN
100
AcDbCircle
 10
62.36598465947412
 20
65.40634499610873
 30
0.0
 40
15.57298489592118
100
AcDbArc
 50
74.11865992895754
 51
140.1513624527839
  0
ARC
  5
192F
102
{ACAD_REACTORS
330
1A98
102
}
330
2
100
AcDbEntity
  8
KIJUN
100
AcDbCircle
 10
-23.94653071678452
 20
64.28896905169394
 30
0.0
 40
36.99974925347516
100
AcDbArc
 50
331.1192368363015
 51
342.8600841792394
  0
ARC
  5
1930
102
{ACAD_REACTORS
330
1A98
102
}
330
2
100
AcDbEntity
  8
KIJUN
100
AcDbCircle
 10
26.29022392221258
 20
14.00310248129655
 30
0.0
 40
36.99974925347516
100
AcDbArc
 50
107.0839302896363
 51
118.8247776325737
  0
ARC
  5
1931
102
{ACAD_REACTORS
330
1A98
102
}
330
2
100
AcDbEntity
  8
KIJUN
100
AcDbCircle
 10
79.83855483009984
 20
170.50065569096
 30
0.0
 40
13.61381079067817
100
AcDbArc
 50
108.9805834287204
 51
152.1474742697169
  0
ARC
  5
1934
102
{ACAD_REACTORS
330
1A98
102
}
330
2
100
AcDbEntity
  8
KIJUN
100
AcDbCircle
 10
23.28466791401646
 20
102.6584226168414
 30
0.0
 40
11.78219937252297
100
AcDbArc
 50
114.4395523203267
 51
164.6610099550025
  0
LINE
  5
1935
102
{ACAD_REACTORS
330
1A98
102
}
330
2
100
AcDbEntity
  8
KIJUN
100
AcDbLine
 10
8.451439023075728
 20
180.351314554274
 30
0.0
 11
38.42854881172772
 21
150.4034820528576
 31
0.0
  0
ARC
  5
1936
102
{ACAD_REACTORS
330
1A98
102
}
330
2
100
AcDbEntity
  8
KIJUN
100
AcDbCircle
 10
37.14865493951354
 20
178.8227452909659
 30
0.0
 40
26.3068279912624
100
AcDbArc
 50
191.9294952448332
 51
248.2723198475978
  0
ARC
  5
1937
102
{ACAD_REACTORS
330
1A98
102
}
330
2
100
AcDbEntity
  8
KIJUN
100
AcDbCircle
 10
27.90998330508213
 20
102.2420594033929
 30
0.0
 40
24.64285714283239
100
AcDbArc
 50
53.95603984240001
 51
130.4497188623366
  0
ARC
  5
1939
102
{ACAD_REACTORS
330
1A98
102
}
330
2
100
AcDbEntity
  8
KIJUN
100
AcDbCircle
 10
9.972154560307565
 20
151.6462449117599
 30
0.0
 40
26.3068279912624
100
AcDbArc
 50
21.72768015240048
 51
78.07050475517425
  0
LINE
  5
193B
102
{ACAD_REACTORS
330
1A98
102
}
330
2
100
AcDbEntity
  8
KIJUN
100
AcDbLine
 10
43.93123592452761
 20
144.9061691656687
 30
0.0
 11
58.14599446913639
 21
130.705293532783
 31
0.0
  0
LINE
  5
193C
102
{ACAD_REACTORS
330
1A98
102
}
330
2
100
AcDbEntity
  8
KIJUN
100
AcDbLine
 10
37.40998330507273
 20
138.3849165462138
 30
0.0
 11
50.40998330505928
 21
151.3849165462006
 31
0.0
  0
ARC
  5
193D
102
{ACAD_REACTORS
330
1A98
102
}
330
2
100
AcDbEntity
  8
KIJUN
100
AcDbCircle
 10
36.3078777311553
 20
142.549828567944
 30
0.0
 40
4.308262856977584
100
AcDbArc
 50
154.7894336556368
 51
284.8217085289007
  0
ARC
  5
1940
102
{ACAD_REACTORS
330
1A98
102
}
330
2
100
AcDbEntity
  8
KIJUN
100
AcDbCircle
 10
54.29066041573306
 20
134.4354925131525
 30
0.0
 40
5.355916457586609
100
AcDbArc
 50
269.8493845218262
 51
0.3374513565744019
  0
ARC
  5
1941
102
{ACAD_REACTORS
330
1A98
102
}
330
2
100
AcDbEntity
  8
KIJUN
100
AcDbCircle
 10
74.43618298378796
 20
129.8799066693442
 30
0.0
 40
11.30369976937211
100
AcDbArc
 50
342.5391689683026
 51
12.7753872579034
  0
ARC
  5
1942
102
{ACAD_REACTORS
330
1A98
102
}
330
2
100
AcDbEntity
  8
KIJUN
100
AcDbCircle
 10
67.2009291421007
 20
127.2812448298755
 30
0.0
 40
13.95743054150488
100
AcDbArc
 50
328.6962004411622
 51
15.64615016281607
  0
ARC
  5
1943
102
{ACAD_REACTORS
330
1A98
102
}
330
2
100
AcDbEntity
  8
KIJUN
100
AcDbCircle
 10
1746.801848831635
 20
190.8330578117521
 30
0.0
 40
1672.494975073289
100
AcDbArc
 50
182.1055447010827
 51
182.4145732258587
  0
ARC
  5
1944
102
{ACAD_REACTORS
330
1A98
102
}
330
2
100
AcDbEntity
  8
KIJUN
100
AcDbCircle
 10
59.52284625605241
 20
124.4413532982057
 30
0.0
 40
6.413475509073478
100
AcDbArc
 50
18.61129493660492
 51
102.3968170818072
  0
ARC
  5
1945
102
{ACAD_REACTORS
330
1A98
102
}
330
2
100
AcDbEntity
  8
KIJUN
100
AcDbCircle
 10
76.38378362628123
 20
129.8799066693442
 30
0.0
 40
11.30369976937211
100
AcDbArc
 50
167.2246127420958
 51
197.4608310316969
  0
ARC
  5
1946
102
{ACAD_REACTORS
330
1A98
102
}
330
2
100
AcDbEntity
  8
KIJUN
100
AcDbCircle
 10
83.61903746796839
 20
127.2812448298755
 30
0.0
 40
13.95743054150488
100
AcDbArc
 50
164.3538498371839
 51
211.3037995588372
  0
ARC
  5
1947
102
{ACAD_REACTORS
330
1A98
102
}
330
2
100
AcDbEntity
  8
KIJUN
100
AcDbCircle
 10
-7.487980335257667
 20
-1557.745512342621
 30
0.0
 40
1672.494975073289
100
AcDbArc
 50
87.39859089573814
 51
87.707619420508
  0
ARC
  5
1948
102
{ACAD_REACTORS
330
1A98
102
}
330
2
100
AcDbEntity
  8
KIJUN
100
AcDbCircle
 10
61.48696003702513
 20
105.2212205024683
 30
0.0
 40
13.95743054150488
100
AcDbArc
 50
58.50936456276261
 51
105.459314284419
  0
ARC
  5
1949
102
{ACAD_REACTORS
330
1A98
102
}
330
2
100
AcDbEntity
  8
KIJUN
100
AcDbCircle
 10
58.91190542035234
 20
112.4649098408312
 30
0.0
 40
11.30369976937211
100
AcDbArc
 50
72.35233308991074
 51
102.5885513795027
  0
ARC
  5
194A
102
{ACAD_REACTORS
330
1A98
102
}
330
2
100
AcDbEntity
  8
KIJUN
100
AcDbCircle
 10
64.40541163026999
 20
129.3080230119496
 30
0.0
 40
6.413475509073478
100
AcDbArc
 50
167.416347039794
 51
251.2018691849986
  0
LINE
  5
194B
102
{ACAD_REACTORS
330
1A98
102
}
330
2
100
AcDbEntity
  8
KIJUN
100
AcDbLine
 10
72.00134098493546
 20
116.8046922746401
 30
0.0
 11
58.14599446913639
 21
130.705293532783
 31
0.0
  0
ARC
  5
194C
102
{ACAD_REACTORS
330
1A98
102
}
330
2
100
AcDbEntity
  8
KIJUN
100
AcDbCircle
 10
58.91342737417699
 20
114.3318213181766
 30
0.0
 40
11.30369976937211
100
AcDbArc
 50
257.3180306813002
 51
287.5542489708891
  0
ARC
  5
194D
102
{ACAD_REACTORS
330
1A98
102
}
330
2
100
AcDbEntity
  8
KIJUN
100
AcDbCircle
 10
61.5002890406636
 20
121.5713025308068
 30
0.0
 40
13.95743054150488
100
AcDbArc
 50
254.4472677763786
 51
301.3972174980397
  0
ARC
  5
194E
102
{ACAD_REACTORS
330
1A98
102
}
330
2
100
AcDbEntity
  8
KIJUN
100
AcDbCircle
 10
73.40998330503666
 20
115.3849165462366
 30
0.0
 40
1.999999999997999
100
AcDbArc
 50
90.0
 51
180.0000000000004
  0
ARC
  5
194F
102
{ACAD_REACTORS
330
1A98
102
}
330
2
100
AcDbEntity
  8
KIJUN
100
AcDbCircle
 10
77.40998330503256
 20
115.3849165462366
 30
0.0
 40
1.999999999997999
100
AcDbArc
 50
0.0000000000004071
 51
90.0
  0
ARC
  5
1950
102
{ACAD_REACTORS
330
1A98
102
}
330
2
100
AcDbEntity
  8
KIJUN
100
AcDbCircle
 10
77.40998330503256
 20
111.3849165462406
 30
0.0
 40
1.999999999997999
100
AcDbArc
 50
270.0
 51
0.0000000000004071
  0
ARC
  5
1951
102
{ACAD_REACTORS
330
1A98
102
}
330
2
100
AcDbEntity
  8
KIJUN
100
AcDbCircle
 10
73.40998330503665
 20
111.3849165462407
 30
0.0
 40
1.999999999997999
100
AcDbArc
 50
180.0000000000004
 51
270.0
  0
LINE
  5
1952
102
{ACAD_REACTORS
330
1A98
102
}
330
2
100
AcDbEntity
  8
KIJUN
100
AcDbLine
 10
73.40998330503666
 20
109.3849165462425
 30
0.0
 11
77.40998330503258
 21
109.3849165462426
 31
0.0
  0
LINE
  5
1953
102
{ACAD_REACTORS
330
1A98
102
}
330
2
100
AcDbEntity
  8
KIJUN
100
AcDbLine
 10
71.40998330503849
 20
115.3849165462366
 30
0.0
 11
71.40998330503849
 21
111.3849165462406
 31
0.0
  0
LINE
  5
1954
102
{ACAD_REACTORS
330
1A98
102
}
330
2
100
AcDbEntity
  8
KIJUN
100
AcDbLine
 10
77.40998330503256
 20
117.3849165462347
 30
0.0
 11
73.40998330503662
 21
117.3849165462347
 31
0.0
  0
LINE
  5
1955
102
{ACAD_REACTORS
330
1A98
102
}
330
2
100
AcDbEntity
  8
KIJUN
100
AcDbLine
 10
79.40998330503055
 20
111.3849165462406
 30
0.0
 11
79.40998330503055
 21
115.3849165462366
 31
0.0
  0
ARC
  5
1956
102
{ACAD_REACTORS
330
1A98
102
}
330
2
100
AcDbEntity
  8
KIJUN
100
AcDbCircle
 10
27.90998330508211
 20
124.5277736890844
 30
0.0
 40
14.64285714284238
100
AcDbArc
 50
229.5502811376649
 51
310.4497188623345
  0
ARC
  5
1957
102
{ACAD_REACTORS
330
1A98
102
}
330
2
100
AcDbEntity
  8
KIJUN
100
AcDbCircle
 10
60.53651589565728
 20
104.7677214494431
 30
0.0
 40
4.357902275245404
100
AcDbArc
 50
129.6125159422592
 51
199.6274411851927
  0
ARC
  5
1958
102
{ACAD_REACTORS
330
1A98
102
}
330
2
100
AcDbEntity
  8
KIJUN
100
AcDbCircle
 10
61.89108742038374
 20
109.716240015293
 30
0.0
 40
4.428889829272617
100
AcDbArc
 50
124.0702554179419
 51
201.0572671731847
  0
ARC
  5
1959
102
{ACAD_REACTORS
330
1A98
102
}
330
2
100
AcDbEntity
  8
KIJUN
100
AcDbCircle
 10
79.07865983598023
 20
126.9038124308895
 30
0.0
 40
4.428889829272617
100
AcDbArc
 50
68.94273282681098
 51
145.9297445820507
  0
ARC
  5
195A
102
{ACAD_REACTORS
330
1A98
102
}
330
2
100
AcDbEntity
  8
KIJUN
100
AcDbCircle
 10
84.02717840183015
 20
128.2583839556159
 30
0.0
 40
4.357902275245404
100
AcDbArc
 50
70.37255881480906
 51
140.3874840577367
  0
ARC
  5
195B
102
{ACAD_REACTORS
330
1A98
102
}
330
2
100
AcDbEntity
  8
KIJUN
100
AcDbCircle
 10
27.90998330508213
 20
102.2420594033929
 30
0.0
 40
14.64285714284238
100
AcDbArc
 50
49.55028113766339
 51
130.4497188623366
  0
ARC
  5
195C
102
{ACAD_REACTORS
330
1A98
102
}
330
2
100
AcDbEntity
  8
KIJUN
100
AcDbCircle
 10
61.89108742038373
 20
117.0535930771843
 30
0.0
 40
4.428889829272617
100
AcDbArc
 50
158.942732826814
 51
235.929744582059
  0
ARC
  5
195D
102
{ACAD_REACTORS
330
1A98
102
}
330
2
100
AcDbEntity
  8
KIJUN
100
AcDbCircle
 10
65.31500883971095
 20
130.0309655089753
 30
0.0
 40
11.04583755369445
100
AcDbArc
 50
184.7907045281631
 51
216.4658515752838
  0
ARC
  5
195E
102
{ACAD_REACTORS
330
1A98
102
}
330
2
100
AcDbEntity
  8
KIJUN
100
AcDbCircle
 10
60.53651589565728
 20
122.0021116430342
 30
0.0
 40
4.357902275245404
100
AcDbArc
 50
160.3725588148069
 51
230.3874840577409
  0
LINE
  5
195F
102
{ACAD_REACTORS
330
1A98
102
}
330
2
100
AcDbEntity
  8
KIJUN
100
AcDbLine
 10
51.4099833050585
 20
129.8849165462222
 30
0.0
 11
54.30776078392302
 21
129.1084594109154
 31
0.0
  0
ARC
  5
1960
102
{ACAD_REACTORS
330
1A98
102
}
330
2
100
AcDbEntity
  8
KIJUN
100
AcDbCircle
 10
26.60696137609491
 20
121.6349165462303
 30
0.0
 40
26.13909709244983
100
AcDbArc
 50
341.601803737817
 51
18.39819626218466
  0
ARC
  5
1961
102
{ACAD_REACTORS
330
1A98
102
}
330
2
100
AcDbEntity
  8
KIJUN
100
AcDbCircle
 10
27.43141175490451
 20
126.428915191799
 30
0.0
 40
15.57298489592118
100
AcDbArc
 50
344.118659928966
 51
50.15136245277473
  0
ARC
  5
1962
102
{ACAD_REACTORS
330
1A98
102
}
330
2
100
AcDbEntity
  8
KIJUN
100
AcDbCircle
 10
71.74130677408881
 20
126.9038124308895
 30
0.0
 40
4.428889829272617
100
AcDbArc
 50
34.07025541794871
 51
111.057267173189
  0
ARC
  5
1963
102
{ACAD_REACTORS
330
1A98
102
}
330
2
100
AcDbEntity
  8
KIJUN
100
AcDbCircle
 10
66.79278820823888
 20
128.258383955616
 30
0.0
 40
4.357902275245404
100
AcDbArc
 50
39.61251594226351
 51
109.6274411851909
  0
ARC
  5
1964
102
{ACAD_REACTORS
330
1A98
102
}
330
2
100
AcDbEntity
  8
KIJUN
100
AcDbCircle
 10
58.7639343422976
 20
123.4798910115623
 30
0.0
 40
11.04583755369445
100
AcDbArc
 50
53.53414842471298
 51
85.20929547184344
  0
LINE
  5
1965
102
{ACAD_REACTORS
330
1A98
102
}
330
2
100
AcDbEntity
  8
KIJUN
100
AcDbLine
 10
58.90998330505102
 20
137.3849165462147
 30
0.0
 11
59.68644044035784
 21
134.4871390673502
 31
0.0
  0
ARC
  5
1966
102
{ACAD_REACTORS
330
1A98
102
}
330
2
100
AcDbEntity
  8
KIJUN
100
AcDbCircle
 10
67.15998330504276
 20
162.1879384751782
 30
0.0
 40
26.13909709244983
100
AcDbArc
 50
251.6018037378145
 51
288.3981962621846
  0
ARC
  5
1968
102
{ACAD_REACTORS
330
1A98
102
}
330
2
100
AcDbEntity
  8
KIJUN
100
AcDbCircle
 10
86.13972567633281
 20
165.5011064852255
 30
0.0
 40
11.78219937252297
100
AcDbArc
 50
105.3471250158667
 51
155.5685826505403
  0
ARC
  5
1969
102
{ACAD_REACTORS
330
1A98
102
}
330
2
100
AcDbEntity
  8
KIJUN
100
AcDbCircle
 10
46.29634000992997
 20
152.4710846632649
 30
0.0
 40
4.308262856977584
100
AcDbArc
 50
344.7914837853522
 51
114.8237586586179
  0
ARC
  5
196A
102
{ACAD_REACTORS
330
1A98
102
}
330
2
100
AcDbEntity
  8
KIJUN
100
AcDbCircle
 10
49.06169252342333
 20
160.379243598551
 30
0.0
 40
9.617873015286308
100
AcDbArc
 50
152.962687703989
 51
222.2297705981042
  0
ARC
  5
196B
102
{ACAD_REACTORS
330
1A98
102
}
330
2
100
AcDbEntity
  8
KIJUN
100
AcDbCircle
 10
28.41565625271967
 20
139.7332073278486
 30
0.0
 40
9.617873015286308
100
AcDbArc
 50
47.77022940188792
 51
117.0373122960074
  0
LINE
  5
196C
102
{ACAD_REACTORS
330
1A98
102
}
330
2
100
AcDbEntity
  8
KIJUN
100
AcDbLine
 10
32.40998330507757
 20
144.3849165462075
 30
0.0
 11
44.40998330506359
 21
156.3849165461934
 31
0.0
  0
ARC
  5
196D
102
{ACAD_REACTORS
330
1A98
102
}
330
2
100
AcDbEntity
  8
KIJUN
100
AcDbCircle
 10
64.26712616218885
 20
160.884916546191
 30
0.0
 40
24.64285714283239
100
AcDbArc
 50
323.9560398424055
 51
40.44971886233951
  0
ARC
  5
196E
102
{ACAD_REACTORS
330
1A98
102
}
330
2
100
AcDbEntity
  8
KIJUN
100
AcDbCircle
 10
64.26712616218885
 20
160.884916546191
 30
0.0
 40
14.64285714284238
100
AcDbArc
 50
319.5502811376595
 51
40.44971886233951
  0
ARC
  5
1971
102
{ACAD_REACTORS
330
1A98
102
}
330
2
100
AcDbEntity
  8
KIJUN
100
AcDbCircle
 10
62.36598465947413
 20
161.3634880963685
 30
0.0
 40
15.57298489592118
100
AcDbArc
 50
219.8486375472172
 51
285.8813400710416
  0
ARC
  5
1972
102
{ACAD_REACTORS
330
1A98
102
}
330
2
100
AcDbEntity
  8
KIJUN
100
AcDbCircle
 10
86.55284044788038
 20
160.884916546191
 30
0.0
 40
24.64285714283239
100
AcDbArc
 50
139.5502811376608
 51
216.0439601575938
  0
ARC
  5
1973
102
{ACAD_REACTORS
330
1A98
102
}
330
2
100
AcDbEntity
  8
KIJUN
100
AcDbCircle
 10
86.55284044788038
 20
160.884916546191
 30
0.0
 40
14.64285714284238
100
AcDbArc
 50
139.5502811376608
 51
220.4497188623409
  0
ARC
  5
1975
102
{ACAD_REACTORS
330
1A98
102
}
330
2
100
AcDbEntity
  8
KIJUN
100
AcDbCircle
 10
18.28422410567302
 20
108.9588835534379
 30
0.0
 40
13.61381079067817
100
AcDbArc
 50
117.8606607011531
 51
161.0275515421559
  0
ARC
  5
1976
102
{ACAD_REACTORS
330
1A98
102
}
330
2
100
AcDbEntity
  8
KIJUN
100
AcDbCircle
 10
26.29022392221261
 20
212.7667306111807
 30
0.0
 40
36.99974925347516
100
AcDbArc
 50
241.1752223674262
 51
252.9160697103646
  0
ARC
  5
1977
102
{ACAD_REACTORS
330
1A98
102
}
330
2
100
AcDbEntity
  8
KIJUN
100
AcDbCircle
 10
-23.94653071678448
 20
162.4808640407834
 30
0.0
 40
36.99974925347516
100
AcDbArc
 50
17.13991582076021
 51
28.88076316370033
  0
ARC
  5
1981
102
{ACAD_REACTORS
330
1A98
102
}
330
2
100
AcDbEntity
  8
KIJUN
100
AcDbCircle
 10
77.82712857233097
 20
142.5916644550968
 30
0.0
 40
78.08506292541551
100
AcDbArc
 50
194.038463202977
 51
201.9648418448381
  0
ARC
  5
1982
102
{ACAD_REACTORS
330
1A98
102
}
330
2
100
AcDbEntity
  8
KIJUN
100
AcDbCircle
 10
58.75620833277387
 20
136.0084975895847
 30
0.0
 40
58.01354910731905
100
AcDbArc
 50
181.1497538260321
 51
192.2995236070709
  0
ARC
  5
1983
102
{ACAD_REACTORS
330
1A98
102
}
330
2
100
AcDbEntity
  8
KIJUN
100
AcDbCircle
 10
167.6077957160515
 20
145.5697431380476
 30
0.0
 40
167.1978124109423
100
AcDbArc
 50
178.0820766202037
 51
183.6779073806604
  0
ARC
  5
1984
102
{ACAD_REACTORS
330
1A98
102
}
330
2
100
AcDbEntity
  8
KIJUN
100
AcDbCircle
 10
74.283145630181
 20
147.0769934071483
 30
0.0
 40
73.8926927118694
100
AcDbArc
 50
165.3598816224269
 51
176.8281935201259
  0
ARC
  5
1985
102
{ACAD_REACTORS
330
1A98
102
}
330
2
100
AcDbEntity
  8
KIJUN
100
AcDbCircle
 10
8.999454727407943
 20
181.0405655482267
 30
0.0
 40
5.895577808734189
100
AcDbArc
 50
143.5885577365105
 51
179.2642177527391
  0
ARC
  5
1986
102
{ACAD_REACTORS
330
1A98
102
}
330
2
100
AcDbEntity
  8
KIJUN
100
AcDbCircle
 10
25.56161011215745
 20
181.8333065781518
 30
0.0
 40
22.46869116431948
100
AcDbArc
 50
181.8287647072617
 51
190.3088243925948
  0
ARC
  5
1987
102
{ACAD_REACTORS
330
1A98
102
}
330
2
100
AcDbEntity
  8
KIJUN
100
AcDbCircle
 10
-20.07610552528003
 20
173.0640900960184
 30
0.0
 40
24.00602074831095
100
AcDbArc
 50
342.2691195499389
 51
11.40826326291293
  0
ARC
  5
1988
102
{ACAD_REACTORS
330
1A98
102
}
330
2
100
AcDbEntity
  8
KIJUN
100
AcDbCircle
 10
39.18152079581048
 20
140.8545733014541
 30
0.0
 40
33.72665712028914
100
AcDbArc
 50
202.5296638055257
 51
216.0753561234729
  0
ARC
  5
1989
102
{ACAD_REACTORS
330
1A98
102
}
330
2
100
AcDbEntity
  8
KIJUN
100
AcDbCircle
 10
33.88152594617019
 20
137.5906800918115
 30
0.0
 40
27.59810136108315
100
AcDbArc
 50
183.9380566554919
 51
200.4862838183374
  0
ARC
  5
198A
102
{ACAD_REACTORS
330
1A98
102
}
330
2
100
AcDbEntity
  8
KIJUN
100
AcDbCircle
 10
115.4186018365161
 20
140.2327800940839
 30
0.0
 40
109.1643571874639
100
AcDbArc
 50
162.3206244167917
 51
182.3822192559375
  0
ARC
  5
198B
102
{ACAD_REACTORS
330
1A98
102
}
330
2
100
AcDbEntity
  8
KIJUN
100
AcDbCircle
 10
24.00197780814007
 20
97.77016777846876
 30
0.0
 40
47.36696485015658
100
AcDbArc
 50
79.77537054786328
 51
89.69203594217715
  0
ARC
  5
198C
102
{ACAD_REACTORS
330
1A98
102
}
330
2
100
AcDbEntity
  8
KIJUN
100
AcDbCircle
 10
30.40138210927546
 20
145.332978834063
 30
0.0
 40
9.533417181163098
100
AcDbArc
 50
108.2871992235911
 51
158.0759282764674
  0
ARC
  5
198D
102
{ACAD_REACTORS
330
1A98
102
}
330
2
100
AcDbEntity
  8
KIJUN
100
AcDbCircle
 10
24.18236271522517
 20
147.9309770825633
 30
0.0
 40
2.795513864276556
100
AcDbArc
 50
159.8812212331993
 51
271.5211722647617
  0
ARC
  5
198E
102
{ACAD_REACTORS
330
1A98
102
}
330
2
100
AcDbEntity
  8
KIJUN
100
AcDbCircle
 10
29.77934078221661
 20
123.5436807607537
 30
0.0
 40
12.70540025649457
100
AcDbArc
 50
306.9116358458385
 51
353.7815135142411
  0
ARC
  5
1990
102
{ACAD_REACTORS
330
1A98
102
}
330
2
100
AcDbEntity
  8
KIJUN
100
AcDbCircle
 10
28.17919786930914
 20
128.1882857176537
 30
0.0
 40
27.54649035334653
100
AcDbArc
 50
301.1051135954089
 51
327.4934626397035
  0
ARC
  5
1991
102
{ACAD_REACTORS
330
1A98
102
}
330
2
100
AcDbEntity
  8
KIJUN
100
AcDbCircle
 10
46.21436880447875
 20
110.9789046872446
 30
0.0
 40
78.0850629254155
100
AcDbArc
 50
68.03515815516187
 51
75.96153679702294
  0
ARC
  5
1992
102
{ACAD_REACTORS
330
1A98
102
}
330
2
100
AcDbEntity
  8
KIJUN
100
AcDbCircle
 10
52.8938961135514
 20
130.624879436866
 30
0.0
 40
57.43117370255426
100
AcDbArc
 50
77.67219253145977
 51
88.93473705117422
  0
ARC
  5
1993
102
{ACAD_REACTORS
330
1A98
102
}
330
2
100
AcDbEntity
  8
KIJUN
100
AcDbCircle
 10
43.2362901215279
 20
21.19267083937251
 30
0.0
 40
167.1978124109422
100
AcDbArc
 50
86.32209261933954
 51
91.91792337979673
  0
ARC
  5
1994
102
{ACAD_REACTORS
330
1A98
102
}
330
2
100
AcDbEntity
  8
KIJUN
100
AcDbCircle
 10
41.61642946063404
 20
115.0631669298714
 30
0.0
 40
73.3414982322431
100
AcDbArc
 50
93.1075620392921
 51
104.6616797935052
  0
ARC
  5
1995
102
{ACAD_REACTORS
330
1A98
102
}
330
2
100
AcDbEntity
  8
KIJUN
100
AcDbCircle
 10
7.765467711348875
 20
179.8065785321676
 30
0.0
 40
5.895577808734187
100
AcDbArc
 50
90.73578224726045
 51
126.4114422634894
  0
ARC
  5
1996
102
{ACAD_REACTORS
330
1A98
102
}
330
2
100
AcDbEntity
  8
KIJUN
100
AcDbCircle
 10
6.972726681423743
 20
163.2444231474181
 30
0.0
 40
22.46869116431948
100
AcDbArc
 50
79.69117560740516
 51
88.17123529273827
  0
ARC
  5
1997
102
{ACAD_REACTORS
330
1A98
102
}
330
2
100
AcDbEntity
  8
KIJUN
100
AcDbCircle
 10
15.74194316355711
 20
208.8821387848556
 30
0.0
 40
24.00602074831095
100
AcDbArc
 50
258.591736737087
 51
287.7308804500616
  0
ARC
  5
1998
102
{ACAD_REACTORS
330
1A98
102
}
330
2
100
AcDbEntity
  8
KIJUN
100
AcDbCircle
 10
47.95145995812144
 20
149.6245124637651
 30
0.0
 40
33.72665712028913
100
AcDbArc
 50
53.92464387652761
 51
67.47033619447472
  0
ARC
  5
1999
102
{ACAD_REACTORS
330
1A98
102
}
330
2
100
AcDbEntity
  8
KIJUN
100
AcDbCircle
 10
51.21535316776401
 20
154.9245073134054
 30
0.0
 40
27.59810136108314
100
AcDbArc
 50
69.51371618166291
 51
86.0619433445081
  0
ARC
  5
199A
102
{ACAD_REACTORS
330
1A98
102
}
330
2
100
AcDbEntity
  8
KIJUN
100
AcDbCircle
 10
48.57325316549166
 20
73.38743142305947
 30
0.0
 40
109.1643571874639
100
AcDbArc
 50
87.61778074406203
 51
107.6793755832082
  0
ARC
  5
199B
102
{ACAD_REACTORS
330
1A98
102
}
330
2
100
AcDbEntity
  8
KIJUN
100
AcDbCircle
 10
91.03586548110682
 20
164.8040554514355
 30
0.0
 40
47.36696485015658
100
AcDbArc
 50
180.3079640578224
 51
190.2246294521367
  0
ARC
  5
199C
102
{ACAD_REACTORS
330
1A98
102
}
330
2
100
AcDbEntity
  8
KIJUN
100
AcDbCircle
 10
43.47305442551252
 20
158.4046511503001
 30
0.0
 40
9.533417181163095
100
AcDbArc
 50
111.9240717235325
 51
161.7128007764084
  0
ARC
  5
199D
102
{ACAD_REACTORS
330
1A98
102
}
330
2
100
AcDbEntity
  8
KIJUN
100
AcDbCircle
 10
40.87505617701221
 20
164.6236705443504
 30
0.0
 40
2.795513864276555
100
AcDbArc
 50
358.4788277352379
 51
110.1187787668006
  0
ARC
  5
199E
102
{ACAD_REACTORS
330
1A98
102
}
330
2
100
AcDbEntity
  8
KIJUN
100
AcDbCircle
 10
65.26235249882185
 20
159.0266924773589
 30
0.0
 40
12.70540025649456
100
AcDbArc
 50
276.218486485758
 51
323.088364154162
  0
ARC
  5
199F
102
{ACAD_REACTORS
330
1A98
102
}
330
2
100
AcDbEntity
  8
KIJUN
100
AcDbCircle
 10
60.61774754192185
 20
160.6268353902664
 30
0.0
 40
27.54649035334653
100
AcDbArc
 50
302.5065373602958
 51
328.8948864045902
  0
ARC
  5
19CD
102
{ACAD_REACTORS
330
1A98
102
}
330
2
100
AcDbEntity
  8
KIJUN
100
AcDbCircle
 10
46.21436880447873
 20
115.802061813535
 30
0.0
 40
78.08506292541551
100
AcDbArc
 50
284.038463202977
 51
291.9648418448371
  0
ARC
  5
19CE
102
{ACAD_REACTORS
330
1A98
102
}
330
2
100
AcDbEntity
  8
KIJUN
100
AcDbCircle
 10
52.89389611354905
 20
96.1560870639273
 30
0.0
 40
57.43117370256811
100
AcDbArc
 50
271.0652629488258
 51
282.327807468539
  0
ARC
  5
19CF
102
{ACAD_REACTORS
330
1A98
102
}
330
2
100
AcDbEntity
  8
KIJUN
100
AcDbCircle
 10
43.2362901215279
 20
205.5882956614071
 30
0.0
 40
167.1978124109423
100
AcDbArc
 50
268.0820766202041
 51
273.6779073806596
  0
ARC
  5
19D0
102
{ACAD_REACTORS
330
1A98
102
}
330
2
100
AcDbEntity
  8
KIJUN
100
AcDbCircle
 10
41.61642946063364
 20
111.7177995709081
 30
0.0
 40
73.34149823224291
100
AcDbArc
 50
255.3383202064947
 51
266.8924379607099
  0
ARC
  5
19D1
102
{ACAD_REACTORS
330
1A98
102
}
330
2
100
AcDbEntity
  8
KIJUN
100
AcDbCircle
 10
7.765467711348854
 20
46.97438796861201
 30
0.0
 40
5.895577808734189
100
AcDbArc
 50
233.5885577365106
 51
269.2642177527387
  0
ARC
  5
19D2
102
{ACAD_REACTORS
330
1A98
102
}
330
2
100
AcDbEntity
  8
KIJUN
100
AcDbCircle
 10
6.972726681423722
 20
63.53654335336154
 30
0.0
 40
22.46869116431948
100
AcDbArc
 50
271.8287647072617
 51
280.3088243925941
  0
ARC
  5
19D3
102
{ACAD_REACTORS
330
1A98
102
}
330
2
100
AcDbEntity
  8
KIJUN
100
AcDbCircle
 10
15.74194316355709
 20
17.89882771592403
 30
0.0
 40
24.00602074831095
100
AcDbArc
 50
72.26911954993842
 51
101.4082632629129
  0
ARC
  5
19D4
102
{ACAD_REACTORS
330
1A98
102
}
330
2
100
AcDbEntity
  8
KIJUN
100
AcDbCircle
 10
47.95145995812143
 20
77.15645403701457
 30
0.0
 40
33.72665712028914
100
AcDbArc
 50
292.5296638055261
 51
306.0753561234724
  0
ARC
  5
19D5
102
{ACAD_REACTORS
330
1A98
102
}
330
2
100
AcDbEntity
  8
KIJUN
100
AcDbCircle
 10
51.21535316776398
 20
71.85645918737427
 30
0.0
 40
27.59810136108315
100
AcDbArc
 50
273.9380566554919
 51
290.4862838183371
  0
ARC
  5
19D6
102
{ACAD_REACTORS
330
1A98
102
}
330
2
100
AcDbEntity
  8
KIJUN
100
AcDbCircle
 10
48.57325316549166
 20
153.3935350777202
 30
0.0
 40
109.1643571874639
100
AcDbArc
 50
252.3206244167918
 51
272.382219255938
  0
ARC
  5
19D7
102
{ACAD_REACTORS
330
1A98
102
}
330
2
100
AcDbEntity
  8
KIJUN
100
AcDbCircle
 10
91.03586548110682
 20
61.97691104934415
 30
0.0
 40
47.36696485015658
100
AcDbArc
 50
169.7753705478629
 51
179.6920359421767
  0
ARC
  5
19D8
102
{ACAD_REACTORS
330
1A98
102
}
330
2
100
AcDbEntity
  8
KIJUN
100
AcDbCircle
 10
43.47305442551252
 20
68.37631535047956
 30
0.0
 40
9.533417181163098
100
AcDbArc
 50
198.2871992235911
 51
248.0759282764675
  0
ARC
  5
19D9
102
{ACAD_REACTORS
330
1A98
102
}
330
2
100
AcDbEntity
  8
KIJUN
100
AcDbCircle
 10
40.87505617701218
 20
62.15729595642923
 30
0.0
 40
2.795513864276556
100
AcDbArc
 50
249.8812212331994
 51
1.521172264762116
  0
ARC
  5
19DA
102
{ACAD_REACTORS
330
1A98
102
}
330
2
100
AcDbEntity
  8
KIJUN
100
AcDbCircle
 10
65.26235249882185
 20
67.75427402342071
 30
0.0
 40
12.70540025649457
100
AcDbArc
 50
36.91163584583838
 51
83.78151351424113
  0
ARC
  5
19DB
102
{ACAD_REACTORS
330
1A98
102
}
330
2
100
AcDbEntity
  8
KIJUN
100
AcDbCircle
 10
60.61774754192183
 20
66.15413111051319
 30
0.0
 40
27.54649035334653
100
AcDbArc
 50
31.10511359540872
 51
57.49346263970304
  0
ARC
  5
19DC
102
{ACAD_REACTORS
330
1A98
102
}
330
2
100
AcDbEntity
  8
KIJUN
100
AcDbCircle
 10
77.82712857233092
 20
84.18930204568281
 30
0.0
 40
78.0850629254155
100
AcDbArc
 50
158.0351581551608
 51
165.9615367970225
  0
ARC
  5
19DD
102
{ACAD_REACTORS
330
1A98
102
}
330
2
100
AcDbEntity
  8
KIJUN
100
AcDbCircle
 10
58.75620833275942
 20
90.77246891119727
 30
0.0
 40
58.01354910730443
100
AcDbArc
 50
167.7004763929282
 51
178.8502461739675
  0
ARC
  5
19DE
102
{ACAD_REACTORS
330
1A98
102
}
330
2
100
AcDbEntity
  8
KIJUN
100
AcDbCircle
 10
167.6077957160515
 20
81.21122336273199
 30
0.0
 40
167.1978124109422
100
AcDbArc
 50
176.3220926193387
 51
181.9179233797971
  0
ARC
  5
19DF
102
{ACAD_REACTORS
330
1A98
102
}
330
2
100
AcDbEntity
  8
KIJUN
100
AcDbCircle
 10
74.28314563017976
 20
79.70397309363118
 30
0.0
 40
73.89269271186816
100
AcDbArc
 50
183.1718064798757
 51
194.6401183775735
  0
ARC
  5
19E0
102
{ACAD_REACTORS
330
1A98
102
}
330
2
100
AcDbEntity
  8
KIJUN
100
AcDbCircle
 10
8.999454727407915
 20
45.74040095255294
 30
0.0
 40
5.895577808734187
100
AcDbArc
 50
180.7357822472608
 51
216.4114422634891
  0
ARC
  5
19E1
102
{ACAD_REACTORS
330
1A98
102
}
330
2
100
AcDbEntity
  8
KIJUN
100
AcDbCircle
 10
25.56161011215745
 20
44.94765992262781
 30
0.0
 40
22.46869116431948
100
AcDbArc
 50
169.6911756074059
 51
178.1712352927383
  0
ARC
  5
19E2
102
{ACAD_REACTORS
330
1A98
102
}
330
2
100
AcDbEntity
  8
KIJUN
100
AcDbCircle
 10
-20.07610552528004
 20
53.71687640476119
 30
0.0
 40
24.00602074831095
100
AcDbArc
 50
348.5917367370866
 51
17.73088045006161
  0
ARC
  5
19E3
102
{ACAD_REACTORS
330
1A98
102
}
330
2
100
AcDbEntity
  8
KIJUN
100
AcDbCircle
 10
39.18152079581048
 20
85.92639319932553
 30
0.0
 40
33.72665712028913
100
AcDbArc
 50
143.9246438765281
 51
157.4703361944735
  0
ARC
  5
19E4
102
{ACAD_REACTORS
330
1A98
102
}
330
2
100
AcDbEntity
  8
KIJUN
100
AcDbCircle
 10
33.88152594617017
 20
89.19028640896808
 30
0.0
 40
27.59810136108314
100
AcDbArc
 50
159.5137161816633
 51
176.0619433445077
  0
ARC
  5
19E5
102
{ACAD_REACTORS
330
1A98
102
}
330
2
100
AcDbEntity
  8
KIJUN
100
AcDbCircle
 10
115.4186018365161
 20
86.54818640669573
 30
0.0
 40
109.1643571874639
100
AcDbArc
 50
177.6177807440616
 51
197.6793755832087
  0
ARC
  5
19E6
102
{ACAD_REACTORS
330
1A98
102
}
330
2
100
AcDbEntity
  8
KIJUN
100
AcDbCircle
 10
24.0019778081401
 20
129.0107987223109
 30
0.0
 40
47.36696485015658
100
AcDbArc
 50
270.307964057822
 51
280.2246294521375
  0
ARC
  5
19E7
102
{ACAD_REACTORS
330
1A98
102
}
330
2
100
AcDbEntity
  8
KIJUN
100
AcDbCircle
 10
30.40138210927543
 20
81.44798766671661
 30
0.0
 40
9.533417181163095
100
AcDbArc
 50
201.9240717235326
 51
251.7128007764089
  0
ARC
  5
19E8
102
{ACAD_REACTORS
330
1A98
102
}
330
2
100
AcDbEntity
  8
KIJUN
100
AcDbCircle
 10
24.18236271522515
 20
78.84998941821629
 30
0.0
 40
2.795513864276555
100
AcDbArc
 50
88.47882773523748
 51
200.118778766801
  0
ARC
  5
19E9
102
{ACAD_REACTORS
330
1A98
102
}
330
2
100
AcDbEntity
  8
KIJUN
100
AcDbCircle
 10
29.77934078221663
 20
103.2372857400259
 30
0.0
 40
12.70540025649456
100
AcDbArc
 50
6.218486485758055
 51
53.08836415416177
  0
ARC
  5
19EA
102
{ACAD_REACTORS
330
1A98
102
}
330
2
100
AcDbEntity
  8
KIJUN
100
AcDbCircle
 10
28.1791978693091
 20
98.59268078312592
 30
0.0
 40
27.54649035334653
100
AcDbArc
 50
32.50653736029608
 51
58.89488640459019
  0
ARC
  5
19EB
102
{ACAD_REACTORS
330
1A98
102
}
330
2
100
AcDbEntity
  8
KIJUN
100
AcDbCircle
 10
73.00397144604056
 20
84.18930204568274
 30
0.0
 40
78.08506292541551
100
AcDbArc
 50
14.0384632029775
 51
21.96484184483777
  0
ARC
  5
19EC
102
{ACAD_REACTORS
330
1A98
102
}
330
2
100
AcDbEntity
  8
KIJUN
100
AcDbCircle
 10
93.21365480226978
 20
90.96328859369881
 30
0.0
 40
56.86030250275538
100
AcDbArc
 50
0.9807613034166788
 51
12.35609562350999
  0
ARC
  5
19ED
102
{ACAD_REACTORS
330
1A98
102
}
330
2
100
AcDbEntity
  8
KIJUN
100
AcDbCircle
 10
-16.78782910598308
 20
81.21122336273193
 30
0.0
 40
167.1978124109423
100
AcDbArc
 50
358.0820766202037
 51
3.677907380659653
  0
ARC
  5
19EE
102
{ACAD_REACTORS
330
1A98
102
}
330
2
100
AcDbEntity
  8
KIJUN
100
AcDbCircle
 10
77.6206169347596
 20
79.48039808432608
 30
0.0
 40
72.7983696421674
100
AcDbArc
 50
345.3167545259221
 51
356.9566916370626
  0
ARC
  5
19EF
102
{ACAD_REACTORS
330
1A98
102
}
330
2
100
AcDbEntity
  8
KIJUN
100
AcDbCircle
 10
141.8316452909636
 20
45.74040095255287
 30
0.0
 40
5.895577808734189
100
AcDbArc
 50
323.5885577365109
 51
359.2642177527391
  0
ARC
  5
19F0
102
{ACAD_REACTORS
330
1A98
102
}
330
2
100
AcDbEntity
  8
KIJUN
100
AcDbCircle
 10
125.2694899062141
 20
44.94765992262773
 30
0.0
 40
22.46869116431948
100
AcDbArc
 50
1.828764707262137
 51
10.30882439259402
  0
ARC
  5
19F1
102
{ACAD_REACTORS
330
1A98
102
}
330
2
100
AcDbEntity
  8
KIJUN
100
AcDbCircle
 10
170.9072055436515
 20
53.7168764047611
 30
0.0
 40
24.00602074831095
100
AcDbArc
 50
162.2691195499384
 51
191.4082632629133
  0
ARC
  5
19F2
102
{ACAD_REACTORS
330
1A98
102
}
330
2
100
AcDbEntity
  8
KIJUN
100
AcDbCircle
 10
111.649579222561
 20
85.92639319932546
 30
0.0
 40
33.72665712028914
100
AcDbArc
 50
22.5296638055265
 51
36.07535612347185
  0
ARC
  5
19F3
102
{ACAD_REACTORS
330
1A98
102
}
330
2
100
AcDbEntity
  8
KIJUN
100
AcDbCircle
 10
116.9495740722013
 20
89.19028640896799
 30
0.0
 40
27.59810136108315
100
AcDbArc
 50
3.938056655491896
 51
20.48628381833654
  0
ARC
  5
19F4
102
{ACAD_REACTORS
330
1A98
102
}
330
2
100
AcDbEntity
  8
KIJUN
100
AcDbCircle
 10
35.4124981818554
 20
86.54818640669565
 30
0.0
 40
109.1643571874639
100
AcDbArc
 50
342.3206244167914
 51
2.382219255938377
  0
ARC
  5
19F5
102
{ACAD_REACTORS
330
1A98
102
}
330
2
100
AcDbEntity
  8
KIJUN
100
AcDbCircle
 10
126.8291222102314
 20
129.0107987223108
 30
0.0
 40
47.36696485015658
100
AcDbArc
 50
259.7753705478625
 51
269.6920359421771
  0
ARC
  5
19F6
102
{ACAD_REACTORS
330
1A98
102
}
330
2
100
AcDbEntity
  8
KIJUN
100
AcDbCircle
 10
120.429717909096
 20
81.44798766671652
 30
0.0
 40
9.533417181163098
100
AcDbArc
 50
288.2871992235911
 51
338.0759282764675
  0
ARC
  5
19F7
102
{ACAD_REACTORS
330
1A98
102
}
330
2
100
AcDbEntity
  8
KIJUN
100
AcDbCircle
 10
126.6487373031464
 20
78.8499894182162
 30
0.0
 40
2.795513864276556
100
AcDbArc
 50
339.8812212331986
 51
91.52117226476253
  0
ARC
  5
19F8
102
{ACAD_REACTORS
330
1A98
102
}
330
2
100
AcDbEntity
  8
KIJUN
100
AcDbCircle
 10
121.0517592361549
 20
103.2372857400258
 30
0.0
 40
12.70540025649457
100
AcDbArc
 50
126.9116358458382
 51
173.7815135142419
  0
ARC
  5
19F9
102
{ACAD_REACTORS
330
1A98
102
}
330
2
100
AcDbEntity
  8
KIJUN
100
AcDbCircle
 10
122.6519021490624
 20
98.59268078312583
 30
0.0
 40
27.54649035334653
100
AcDbArc
 50
121.1051135954098
 51
147.4934626397035
  0
ARC
  5
19FA
102
{ACAD_REACTORS
330
1A98
102
}
330
2
100
AcDbEntity
  8
KIJUN
100
AcDbCircle
 10
104.6167312138928
 20
115.8020618135349
 30
0.0
 40
78.0850629254155
100
AcDbArc
 50
248.035158155161
 51
255.9615367970221
  0
ARC
  5
19FB
102
{ACAD_REACTORS
330
1A98
102
}
330
2
100
AcDbEntity
  8
KIJUN
100
AcDbCircle
 10
97.93720390481837
 20
96.15608706390212
 30
0.0
 40
57.4311737025427
100
AcDbArc
 50
257.6721925314589
 51
268.9347370511734
  0
ARC
  5
19FC
102
{ACAD_REACTORS
330
1A98
102
}
330
2
100
AcDbEntity
  8
KIJUN
100
AcDbCircle
 10
107.5948098968436
 20
205.5882956614071
 30
0.0
 40
167.1978124109422
100
AcDbArc
 50
266.3220926193387
 51
271.9179233797976
  0
ARC
  5
19FD
102
{ACAD_REACTORS
330
1A98
102
}
330
2
100
AcDbEntity
  8
KIJUN
100
AcDbCircle
 10
109.2146705577365
 20
111.7177995709144
 30
0.0
 40
73.34149823224946
100
AcDbArc
 50
273.1075620392945
 51
284.6616797935049
  0
ARC
  5
19FE
102
{ACAD_REACTORS
330
1A98
102
}
330
2
100
AcDbEntity
  8
KIJUN
100
AcDbCircle
 10
143.0656323070226
 20
46.97438796861193
 30
0.0
 40
5.895577808734187
100
AcDbArc
 50
270.7357822472605
 51
306.4114422634895
  0
ARC
  5
19FF
102
{ACAD_REACTORS
330
1A98
102
}
330
2
100
AcDbEntity
  8
KIJUN
100
AcDbCircle
 10
143.8583733369478
 20
63.53654335336144
 30
0.0
 40
22.46869116431948
100
AcDbArc
 50
259.691175607406
 51
268.1712352927383
  0
ARC
  5
1A00
102
{ACAD_REACTORS
330
1A98
102
}
330
2
100
AcDbEntity
  8
KIJUN
100
AcDbCircle
 10
135.0891568548144
 20
17.89882771592393
 30
0.0
 40
24.00602074831095
100
AcDbArc
 50
78.59173673708625
 51
107.7308804500616
  0
ARC
  5
1A01
102
{ACAD_REACTORS
330
1A98
102
}
330
2
100
AcDbEntity
  8
KIJUN
100
AcDbCircle
 10
102.87964006025
 20
77.1564540370145
 30
0.0
 40
33.72665712028913
100
AcDbArc
 50
233.9246438765276
 51
247.4703361944738
  0
ARC
  5
1A02
102
{ACAD_REACTORS
330
1A98
102
}
330
2
100
AcDbEntity
  8
KIJUN
100
AcDbCircle
 10
99.6157468506075
 20
71.85645918737418
 30
0.0
 40
27.59810136108314
100
AcDbArc
 50
249.513716181663
 51
266.0619433445081
  0
ARC
  5
1A03
102
{ACAD_REACTORS
330
1A98
102
}
330
2
100
AcDbEntity
  8
KIJUN
100
AcDbCircle
 10
102.2578468528798
 20
153.3935350777201
 30
0.0
 40
109.1643571874639
100
AcDbArc
 50
267.6177807440613
 51
287.679375583209
  0
ARC
  5
1A04
102
{ACAD_REACTORS
330
1A98
102
}
330
2
100
AcDbEntity
  8
KIJUN
100
AcDbCircle
 10
59.79523453726469
 20
61.9769110493441
 30
0.0
 40
47.36696485015658
100
AcDbArc
 50
0.3079640578216241
 51
10.22462945213712
  0
ARC
  5
1A05
102
{ACAD_REACTORS
330
1A98
102
}
330
2
100
AcDbEntity
  8
KIJUN
100
AcDbCircle
 10
107.3580455928589
 20
68.37631535047947
 30
0.0
 40
9.533417181163095
100
AcDbArc
 50
291.9240717235325
 51
341.7128007764085
  0
ARC
  5
1A06
102
{ACAD_REACTORS
330
1A98
102
}
330
2
100
AcDbEntity
  8
KIJUN
100
AcDbCircle
 10
109.9560438413593
 20
62.15729595642915
 30
0.0
 40
2.795513864276555
100
AcDbArc
 50
178.4788277352375
 51
290.1187787668015
  0
ARC
  5
1A07
102
{ACAD_REACTORS
330
1A98
102
}
330
2
100
AcDbEntity
  8
KIJUN
100
AcDbCircle
 10
85.56874751954962
 20
67.75427402342062
 30
0.0
 40
12.70540025649456
100
AcDbArc
 50
96.21848648575806
 51
143.0883641541619
  0
ARC
  5
1A08
102
{ACAD_REACTORS
330
1A98
102
}
330
2
100
AcDbEntity
  8
KIJUN
100
AcDbCircle
 10
90.21335247644968
 20
66.15413111051314
 30
0.0
 40
27.54649035334653
100
AcDbArc
 50
122.506537360296
 51
148.8948864045906
  0
ARC
  5
1A09
102
{ACAD_REACTORS
330
1A98
102
}
330
2
100
AcDbEntity
  8
KIJUN
100
AcDbCircle
 10
104.6167312138928
 20
110.9789046872446
 30
0.0
 40
78.08506292541551
100
AcDbArc
 50
104.038463202977
 51
111.9648418448381
  0
ARC
  5
1A0A
102
{ACAD_REACTORS
330
1A98
102
}
330
2
100
AcDbEntity
  8
KIJUN
100
AcDbCircle
 10
97.93720390482056
 20
130.6248794368665
 30
0.0
 40
57.43117370255387
100
AcDbArc
 50
91.06526294882618
 51
102.327807468541
  0
ARC
  5
1A0B
102
{ACAD_REACTORS
330
1A98
102
}
330
2
100
AcDbEntity
  8
KIJUN
100
AcDbCircle
 10
107.5948098968436
 20
21.19267083937249
 30
0.0
 40
167.1978124109423
100
AcDbArc
 50
88.08207662020326
 51
93.67790738066046
  0
ARC
  5
1A0C
102
{ACAD_REACTORS
330
1A98
102
}
330
2
100
AcDbEntity
  8
KIJUN
100
AcDbCircle
 10
109.214670557737
 20
115.063166929867
 30
0.0
 40
73.34149823224746
100
AcDbArc
 50
75.33832020649514
 51
86.8924379607075
  0
ARC
  5
1A0D
102
{ACAD_REACTORS
330
1A98
102
}
330
2
100
AcDbEntity
  8
KIJUN
100
AcDbCircle
 10
143.0656323070227
 20
179.8065785321676
 30
0.0
 40
5.895577808734189
100
AcDbArc
 50
53.5885577365105
 51
89.26421775273956
  0
ARC
  5
1A0E
102
{ACAD_REACTORS
330
1A98
102
}
330
2
100
AcDbEntity
  8
KIJUN
100
AcDbCircle
 10
143.8583733369478
 20
163.2444231474181
 30
0.0
 40
22.46869116431948
100
AcDbArc
 50
91.82876470726172
 51
100.3088243925948
  0
ARC
  5
1A0F
102
{ACAD_REACTORS
330
1A98
102
}
330
2
100
AcDbEntity
  8
KIJUN
100
AcDbCircle
 10
135.0891568548145
 20
208.8821387848556
 30
0.0
 40
24.00602074831095
100
AcDbArc
 50
252.2691195499384
 51
281.4082632629129
  0
ARC
  5
1A10
102
{ACAD_REACTORS
330
1A98
102
}
330
2
100
AcDbEntity
  8
KIJUN
100
AcDbCircle
 10
102.87964006025
 20
149.624512463765
 30
0.0
 40
33.72665712028914
100
AcDbArc
 50
112.5296638055261
 51
126.0753561234724
  0
ARC
  5
1A11
102
{ACAD_REACTORS
330
1A98
102
}
330
2
100
AcDbEntity
  8
KIJUN
100
AcDbCircle
 10
99.61574685060753
 20
154.9245073134053
 30
0.0
 40
27.59810136108315
100
AcDbArc
 50
93.93805665549189
 51
110.4862838183371
  0
ARC
  5
1A12
102
{ACAD_REACTORS
330
1A98
102
}
330
2
100
AcDbEntity
  8
KIJUN
100
AcDbCircle
 10
102.2578468528798
 20
73.38743142305943
 30
0.0
 40
109.1643571874639
100
AcDbArc
 50
72.3206244167918
 51
92.38221925593796
  0
ARC
  5
1A13
102
{ACAD_REACTORS
330
1A98
102
}
330
2
100
AcDbEntity
  8
KIJUN
100
AcDbCircle
 10
59.79523453726471
 20
164.8040554514355
 30
0.0
 40
47.36696485015658
100
AcDbArc
 50
349.7753705478633
 51
359.6920359421775
  0
ARC
  5
1A14
102
{ACAD_REACTORS
330
1A98
102
}
330
2
100
AcDbEntity
  8
KIJUN
100
AcDbCircle
 10
107.358045592859
 20
158.4046511503001
 30
0.0
 40
9.533417181163098
100
AcDbArc
 50
18.28719922359153
 51
68.07592827646749
  0
ARC
  5
1A15
102
{ACAD_REACTORS
330
1A98
102
}
330
2
100
AcDbEntity
  8
KIJUN
100
AcDbCircle
 10
109.9560438413594
 20
164.6236705443504
 30
0.0
 40
2.795513864276556
100
AcDbArc
 50
69.88122123319941
 51
181.5211722647621
  0
ARC
  5
1A16
102
{ACAD_REACTORS
330
1A98
102
}
330
2
100
AcDbEntity
  8
KIJUN
100
AcDbCircle
 10
85.56874751954968
 20
159.0266924773589
 30
0.0
 40
12.70540025649457
100
AcDbArc
 50
216.911635845838
 51
263.7815135142419
  0
ARC
  5
1A17
102
{ACAD_REACTORS
330
1A98
102
}
330
2
100
AcDbEntity
  8
KIJUN
100
AcDbCircle
 10
90.21335247644968
 20
160.6268353902664
 30
0.0
 40
27.54649035334653
100
AcDbArc
 50
211.1051135954092
 51
237.4934626397041
  0
ARC
  5
1A18
102
{ACAD_REACTORS
330
1A98
102
}
330
2
100
AcDbEntity
  8
KIJUN
100
AcDbCircle
 10
73.00397144604058
 20
142.5916644550968
 30
0.0
 40
78.0850629254155
100
AcDbArc
 50
338.0351581551614
 51
345.9615367970225
  0
ARC
  5
1A19
102
{ACAD_REACTORS
330
1A98
102
}
330
2
100
AcDbEntity
  8
KIJUN
100
AcDbCircle
 10
93.21365480228518
 20
135.8176779070783
 30
0.0
 40
56.86030250273981
100
AcDbArc
 50
347.6439043764888
 51
359.0192386965837
  0
ARC
  5
1A1A
102
{ACAD_REACTORS
330
1A98
102
}
330
2
100
AcDbEntity
  8
KIJUN
100
AcDbCircle
 10
-16.78782910598308
 20
145.5697431380476
 30
0.0
 40
167.1978124109422
100
AcDbArc
 50
356.3220926193395
 51
1.917923379796737
  0
ARC
  5
1A1B
102
{ACAD_REACTORS
330
1A98
102
}
330
2
100
AcDbEntity
  8
KIJUN
100
AcDbCircle
 10
77.62061693475729
 20
147.300568416453
 30
0.0
 40
72.79836964216972
100
AcDbArc
 50
3.043308362938565
 51
14.68324547407701
  0
ARC
  5
1A1C
102
{ACAD_REACTORS
330
1A98
102
}
330
2
100
AcDbEntity
  8
KIJUN
100
AcDbCircle
 10
141.8316452909636
 20
181.0405655482266
 30
0.0
 40
5.895577808734187
100
AcDbArc
 50
0.7357822472604529
 51
36.41144226348909
  0
ARC
  5
1A1D
102
{ACAD_REACTORS
330
1A98
102
}
330
2
100
AcDbEntity
  8
KIJUN
100
AcDbCircle
 10
125.2694899062141
 20
181.8333065781518
 30
0.0
 40
22.46869116431948
100
AcDbArc
 50
349.6911756074052
 51
358.1712352927379
  0
ARC
  5
1A1E
102
{ACAD_REACTORS
330
1A98
102
}
330
2
100
AcDbEntity
  8
KIJUN
100
AcDbCircle
 10
170.9072055436515
 20
173.0640900960184
 30
0.0
 40
24.00602074831095
100
AcDbArc
 50
168.5917367370865
 51
197.7308804500616
  0
ARC
  5
1A1F
102
{ACAD_REACTORS
330
1A98
102
}
330
2
100
AcDbEntity
  8
KIJUN
100
AcDbCircle
 10
111.649579222561
 20
140.854573301454
 30
0.0
 40
33.72665712028913
100
AcDbArc
 50
323.9246438765271
 51
337.4703361944743
  0
ARC
  5
1A20
102
{ACAD_REACTORS
330
1A98
102
}
330
2
100
AcDbEntity
  8
KIJUN
100
AcDbCircle
 10
116.9495740722013
 20
137.5906800918115
 30
0.0
 40
27.59810136108314
100
AcDbArc
 50
339.5137161816625
 51
356.0619433445085
  0
ARC
  5
1A21
102
{ACAD_REACTORS
330
1A98
102
}
330
2
100
AcDbEntity
  8
KIJUN
100
AcDbCircle
 10
35.41249818185543
 20
140.2327800940839
 30
0.0
 40
109.1643571874639
100
AcDbArc
 50
357.6177807440616
 51
17.67937558320865
  0
ARC
  5
1A22
102
{ACAD_REACTORS
330
1A98
102
}
330
2
100
AcDbEntity
  8
KIJUN
100
AcDbCircle
 10
126.8291222102314
 20
97.77016777846874
 30
0.0
 40
47.36696485015658
100
AcDbArc
 50
90.30796405782202
 51
100.2246294521367
  0
ARC
  5
1A23
102
{ACAD_REACTORS
330
1A98
102
}
330
2
100
AcDbEntity
  8
KIJUN
100
AcDbCircle
 10
120.429717909096
 20
145.332978834063
 30
0.0
 40
9.533417181163095
100
AcDbArc
 50
21.92407172353257
 51
71.71280077640886
  0
ARC
  5
1A24
102
{ACAD_REACTORS
330
1A98
102
}
330
2
100
AcDbEntity
  8
KIJUN
100
AcDbCircle
 10
126.6487373031464
 20
147.9309770825633
 30
0.0
 40
2.795513864276555
100
AcDbArc
 50
268.4788277352383
 51
20.11877876680063
  0
ARC
  5
1A25
102
{ACAD_REACTORS
330
1A98
102
}
330
2
100
AcDbEntity
  8
KIJUN
100
AcDbCircle
 10
121.0517592361549
 20
123.5436807607537
 30
0.0
 40
12.70540025649456
100
AcDbArc
 50
186.218486485758
 51
233.0883641541626
  0
ARC
  5
1A26
102
{ACAD_REACTORS
330
1A98
102
}
330
2
100
AcDbEntity
  8
KIJUN
100
AcDbCircle
 10
122.6519021490624
 20
128.1882857176537
 30
0.0
 40
27.54649035334653
100
AcDbArc
 50
212.5065373602961
 51
238.8948864045902
  0
DIMENSION
  5
1A2B
330
2
100
AcDbEntity
  8
SUNPOU
100
AcDbDimension
  2
*D5
 10
150.4099833049592
 20
214.4644514744918
 30
0.0
 11
75.4099833050342
 21
219.9644514744918
 31
0.0
 70
    32
 71
     5
 42
149.9999999998499
  3
STANDARD
100
AcDbAlignedDimension
 13
0.4099833051092219
 23
145.5697431380477
 33
0.0
 14
150.4099833049592
 24
145.5697431380476
 34
0.0
100
AcDbRotatedDimension
1001
ACAD
1000
DSTYLE
1002
{
1070
    41
1040
2.0
1070
    42
1040
10.0
1070
    44
1040
0.0
1070
    73
1070
     0
1070
    74
1070
     0
1070
    77
1070
     1
1070
   140
1040
5.0
1070
   141
1040
0.0
1070
   146
1040
0.064286
1070
   147
1040
3.0
1070
   176
1070
    60
1070
   177
1070
    70
1070
   178
1070
    60
1070
   271
1070
     0
1070
   272
1070
     0
1070
   340
1005
1C
1070
   342
1005
109
1002
}
  0
DIMENSION
  5
1A38
330
2
100
AcDbEntity
  8
SUNPOU
100
AcDbDimension
  2
*D6
 10
-29.12358698285733
 20
38.39048325046482
 30
0.0
 11
-34.62358698285733
 21
113.3904832503898
 31
0.0
 70
    32
 71
     5
 42
149.99999999985
  3
STANDARD
100
AcDbAlignedDimension
 13
43.23629012152791
 23
188.3904832503148
 33
0.0
 14
43.23629012152787
 24
38.3904832504648
 34
0.0
 50
90.0
100
AcDbRotatedDimension
1001
ACAD
1000
DSTYLE
1002
{
1070
    41
1040
2.0
1070
    42
1040
10.0
1070
    44
1040
0.0
1070
    73
1070
     0
1070
    74
1070
     0
1070
    77
1070
     1
1070
   140
1040
5.0
1070
   141
1040
0.0
1070
   146
1040
0.064286
1070
   147
1040
3.0
1070
   176
1070
    60
1070
   177
1070
    70
1070
   178
1070
    60
1070
   271
1070
     0
1070
   272
1070
     0
1070
   340
1005
1C
1070
   342
1005
109
1002
}
  0
ENDSEC
  0
SECTION
  2
OBJECTS
  0
DICTIONARY
  5
1A
330
0
100
AcDbDictionary
281
     1
  3
ACAD_COLOR
350
144
  3
ACAD_GROUP
350
18
  3
ACAD_LAYOUT
350
58
  3
ACAD_MATERIAL
350
143
  3
ACAD_MLINESTYLE
350
19
  3
ACAD_PLOTSETTINGS
350
59
  3
ACAD_PLOTSTYLENAME
350
56
  3
ACAD_TABLESTYLE
350
145
  3
ACDBHEADERROUNDTRIPXREC
350
1B09
  3
AcDbVariableDictionary
350
1D1
  0
DICTIONARY
  5
1B4
330
A
100
AcDbDictionary
280
     1
281
     1
  3
ACAD_LAYERFILTERS
360
1A2A
  3
ACLYDICTIONARY
360
1A29
  0
DICTIONARY
  5
D13
330
2
100
AcDbDictionary
280
     1
281
     1
  3
ACAD_SORTENTS
360
D14
  0
DICTIONARY
  5
144
102
{ACAD_REACTORS
330
1A
102
}
330
1A
100
AcDbDictionary
281
     1
  0
DICTIONARY
  5
18
102
{ACAD_REACTORS
330
1A
102
}
330
1A
100
AcDbDictionary
281
     1
  3
*A1
350
E0D
  3
*A2
350
FF8
  3
*A3
350
136A
  3
*A4
350
1555
  3
*A5
350
17BC
  3
*A6
350
1A98
  0
DICTIONARY
  5
58
102
{ACAD_REACTORS
330
1A
102
}
330
1A
100
AcDbDictionary
281
     1
  3
Model
350
5A
  3
ﾚｲｱｳﾄ1
350
5B
  0
DICTIONARY
  5
143
102
{ACAD_REACTORS
330
1A
102
}
330
1A
100
AcDbDictionary
281
     1
  0
DICTIONARY
  5
19
102
{ACAD_REACTORS
330
1A
102
}
330
1A
100
AcDbDictionary
281
     1
  3
STANDARD
350
1D
  0
DICTIONARY
  5
59
102
{ACAD_REACTORS
330
1A
102
}
330
1A
100
AcDbDictionary
281
     1
  0
ACDBDICTIONARYWDFLT
  5
56
102
{ACAD_REACTORS
330
1A
102
}
330
1A
100
AcDbDictionary
281
     1
  3
Normal
350
57
100
AcDbDictionaryWithDefault
340
57
  0
DICTIONARY
  5
145
102
{ACAD_REACTORS
330
1A
102
}
330
1A
100
AcDbDictionary
281
     1
  3
Standard
350
146
  0
DICTIONARY
  5
1B09
102
{ACAD_REACTORS
330
1A
102
}
330
1A
100
AcDbDictionary
281
     1
  0
DICTIONARY
  5
1D1
102
{ACAD_REACTORS
330
1A
102
}
330
1A
100
AcDbDictionary
281
     1
  3
CTABLESTYLE
350
1D2
  3
DIMASSOC
350
D03
  3
PROJECTNAME
350
D04
  0
DICTIONARY
  5
1A2A
102
{ACAD_REACTORS
330
1B4
102
}
330
1B4
100
AcDbDictionary
281
     1
  0
DICTIONARY
  5
1A29
102
{ACAD_REACTORS
330
1B4
102
}
330
1B4
100
AcDbDictionary
281
     1
1001
ACAD
1000
<All
  0
SORTENTSTABLE
  5
D14
102
{ACAD_REACTORS
330
D13
102
}
330
D13
100
AcDbSortentsTable
330
2
331
20
  5
20
331
21
  5
21
331
23
  5
23
331
1F
  5
1F
  0
GROUP
  5
E0D
102
{ACAD_REACTORS
330
18
102
}
330
18
100
AcDbGroup
300

 70
     1
 71
     1
  0
GROUP
  5
FF8
102
{ACAD_REACTORS
330
18
102
}
330
18
100
AcDbGroup
300

 70
     1
 71
     1
  0
GROUP
  5
136A
102
{ACAD_REACTORS
330
18
102
}
330
18
100
AcDbGroup
300

 70
     1
 71
     1
  0
GROUP
  5
1555
102
{ACAD_REACTORS
330
18
102
}
330
18
100
AcDbGroup
300

 70
     1
 71
     1
  0
GROUP
  5
17BC
102
{ACAD_REACTORS
330
18
102
}
330
18
100
AcDbGroup
300

 70
     1
 71
     1
  0
GROUP
  5
1A98
102
{ACAD_REACTORS
330
18
102
}
330
18
100
AcDbGroup
300

 70
     1
 71
     1
340
1A26
340
1A25
340
1A24
340
1A23
340
1A22
340
1A21
340
1A20
340
1A1F
340
1A1E
340
1A1D
340
1A1C
340
1A1B
340
1A1A
340
1A19
340
1A18
340
1A17
340
1A16
340
1A15
340
1A14
340
1A13
340
1A12
340
1A11
340
1A10
340
1A0F
340
1A0E
340
1A0D
340
1A0C
340
1A0B
340
1A0A
340
1A09
340
1A08
340
1A07
340
1A06
340
1A05
340
1A04
340
1A03
340
1A02
340
1A01
340
1A00
340
19FF
340
19FE
340
19FD
340
19FC
340
19FB
340
19FA
340
19F9
340
19F8
340
19F7
340
19F6
340
19F5
340
19F4
340
19F3
340
19F2
340
19F1
340
19F0
340
19EF
340
19EE
340
19ED
340
19EC
340
19EB
340
19EA
340
19E9
340
19E8
340
19E7
340
19E6
340
19E5
340
19E4
340
19E3
340
19E2
340
19E1
340
19E0
340
19DF
340
19DE
340
19DD
340
19DC
340
19DB
340
19DA
340
19D9
340
19D8
340
19D7
340
19D6
340
19D5
340
19D4
340
19D3
340
19D2
340
19D1
340
19D0
340
19CF
340
19CE
340
19CD
340
199F
340
199E
340
199D
340
199C
340
199B
340
199A
340
1999
340
1998
340
1997
340
1996
340
1995
340
1994
340
1993
340
1992
340
1991
340
1990
340
198E
340
198D
340
198C
340
198B
340
198A
340
1989
340
1988
340
1987
340
1986
340
1985
340
1984
340
1983
340
1982
340
1981
340
1977
340
1976
340
1975
340
1973
340
1972
340
1971
340
196E
340
196D
340
196C
340
196B
340
196A
340
1969
340
1968
340
1966
340
1965
340
1964
340
1963
340
1962
340
1961
340
1960
340
195F
340
195E
340
195D
340
195C
340
195B
340
195A
340
1959
340
1958
340
1957
340
1956
340
1955
340
1954
340
1953
340
1952
340
1951
340
1950
340
194F
340
194E
340
194D
340
194C
340
194B
340
194A
340
1949
340
1948
340
1947
340
1946
340
1945
340
1944
340
1943
340
1942
340
1941
340
1940
340
193D
340
193C
340
193B
340
1939
340
1937
340
1936
340
1935
340
1934
340
1931
340
1930
340
192F
340
192E
340
192D
340
192C
340
192B
340
192A
340
1929
340
1928
340
1927
340
1926
340
1924
340
1923
340
1922
340
1921
340
1920
340
191F
340
191E
340
191D
340
191C
340
191B
340
191A
340
1919
340
1916
340
1915
340
1914
340
1913
340
1912
340
1911
340
190D
340
190C
340
190B
340
190A
340
1909
340
1906
340
1905
340
1904
340
1903
340
1902
340
1901
340
1900
340
18FF
340
18FC
340
18FB
340
18FA
340
18F9
340
18F8
340
18F7
340
18F6
340
18F5
340
18F4
340
18F3
340
18F2
340
18F1
340
18F0
340
18EF
340
18EE
340
18ED
340
18EC
340
18EB
340
18EA
340
18E9
340
18E8
340
18E7
340
18E4
340
18E3
340
18E1
340
18E0
340
18DF
340
18DE
340
18DD
340
18DA
340
18D9
340
18D8
340
18D7
340
18D6
340
18D5
340
18D4
340
18D3
340
18D2
340
18D1
340
18D0
340
18CF
340
18CE
340
18CC
340
18CA
340
18C8
340
18C7
340
18C6
340
18C4
340
18C2
340
18C1
340
18BE
340
18BD
340
18BC
340
18BB
340
18BA
340
18B9
340
18B8
340
18B7
340
18B6
340
18B5
340
18B4
340
18B3
340
18B2
340
18B1
340
18B0
340
18AF
  0
LAYOUT
  5
5A
102
{ACAD_XDICTIONARY
360
1B0A
102
}
102
{ACAD_REACTORS
330
58
102
}
330
58
100
AcDbPlotSettings
  1

  2
なし
  4

  6

 40
0.0
 41
0.0
 42
0.0
 43
0.0
 44
0.0
 45
0.0
 46
0.0
 47
0.0
 48
0.0
 49
0.0
140
0.0
141
0.0
142
1.0
143
1.0
 70
  1712
 72
     0
 73
     0
 74
     0
  7
monochrome.ctb
 75
     0
147
1.0
148
0.0
149
0.0
100
AcDbLayout
  1
Model
 70
     1
 71
     0
 10
0.0
 20
0.0
 11
12.0
 21
9.0
 12
0.0
 22
0.0
 32
0.0
 14
0.0
 24
0.0
 34
0.0
 15
0.0
 25
0.0
 35
0.0
146
0.0
 13
0.0
 23
0.0
 33
0.0
 16
1.0
 26
0.0
 36
0.0
 17
0.0
 27
1.0
 37
0.0
 76
     0
330
2
  0
LAYOUT
  5
5B
102
{ACAD_XDICTIONARY
360
1B0C
102
}
102
{ACAD_REACTORS
330
58
102
}
330
58
100
AcDbPlotSettings
  1

  2
なし
  4

  6

 40
0.0
 41
0.0
 42
0.0
 43
0.0
 44
0.0
 45
0.0
 46
0.0
 47
0.0
 48
0.0
 49
0.0
140
0.0
141
0.0
142
1.0
143
1.0
 70
   688
 72
     0
 73
     0
 74
     5
  7
monochrome.ctb
 75
    16
147
1.0
148
0.0
149
0.0
100
AcDbLayout
  1
ﾚｲｱｳﾄ1
 70
     1
 71
     1
 10
0.0
 20
0.0
 11
12.0
 21
9.0
 12
0.0
 22
0.0
 32
0.0
 14
1.000000000000000E+20
 24
1.000000000000000E+20
 34
1.000000000000000E+20
 15
-1.000000000000000E+20
 25
-1.000000000000000E+20
 35
-1.000000000000000E+20
146
0.0
 13
0.0
 23
0.0
 33
0.0
 16
1.0
 26
0.0
 36
0.0
 17
0.0
 27
1.0
 37
0.0
 76
     0
330
7
  0
MLINESTYLE
  5
1D
102
{ACAD_REACTORS
330
19
102
}
330
19
100
AcDbMlineStyle
  2
STANDARD
 70
     0
  3

 62
   256
 51
90.0
 52
90.0
 71
     2
 49
0.5
 62
   256
  6
BYLAYER
 49
-0.5
 62
   256
  6
BYLAYER
  0
ACDBPLACEHOLDER
  5
57
102
{ACAD_REACTORS
330
56
102
}
330
56
  0
TABLESTYLE
  5
146
102
{ACAD_REACTORS
330
145
102
}
330
145
100
AcDbTableStyle
  3
Standard
 70
     0
 71
     0
 40
0.06
 41
0.06
280
     0
281
     0
  7
STANDARD
140
0.18
170
     2
 62
     0
 63
     7
283
     0
274
    -2
284
     1
 64
     0
275
    -2
285
     1
 65
     0
276
    -2
286
     1
 66
     0
277
    -2
287
     1
 67
     0
278
    -2
288
     1
 68
     0
279
    -2
289
     1
 69
     0
  7
STANDARD
140
0.25
170
     5
 62
     0
 63
     7
283
     0
274
    -2
284
     1
 64
     0
275
    -2
285
     1
 65
     0
276
    -2
286
     1
 66
     0
277
    -2
287
     1
 67
     0
278
    -2
288
     1
 68
     0
279
    -2
289
     1
 69
     0
  7
STANDARD
140
0.18
170
     5
 62
     0
 63
     7
283
     0
274
    -2
284
     1
 64
     0
275
    -2
285
     1
 65
     0
276
    -2
286
     1
 66
     0
277
    -2
287
     1
 67
     0
278
    -2
288
     1
 68
     0
279
    -2
289
     1
 69
     0
  0
DICTIONARYVAR
  5
1D2
102
{ACAD_REACTORS
330
1D1
102
}
330
1D1
100
DictionaryVariables
280
     0
  1
STANDARD
  0
DICTIONARYVAR
  5
D03
102
{ACAD_REACTORS
330
1D1
102
}
330
1D1
100
DictionaryVariables
280
     0
  1
1
  0
DICTIONARYVAR
  5
D04
102
{ACAD_REACTORS
330
1D1
102
}
330
1D1
100
DictionaryVariables
280
     0
  1

  0
DICTIONARY
  5
1B0A
330
5A
100
AcDbDictionary
280
     1
281
     1
  3
ACAD_XREC_ROUNDTRIP
360
1B0B
  0
DICTIONARY
  5
1B0C
330
5B
100
AcDbDictionary
280
     1
281
     1
  3
ACAD_XREC_ROUNDTRIP
360
1B0D
  0
XRECORD
  5
1B0B
102
{ACAD_REACTORS
330
1B0A
102
}
330
1B0A
100
AcDbXrecord
280
     1
102
SHADEPLOT
 70
     0
102
SHADEPLOTRESLEVEL
 70
     2
102
SHADEPLOTCUSTOMDPI
 70
   300
  0
XRECORD
  5
1B0D
102
{ACAD_REACTORS
330
1B0C
102
}
330
1B0C
100
AcDbXrecord
280
     1
102
SHADEPLOT
 70
     0
102
SHADEPLOTRESLEVEL
 70
     2
102
SHADEPLOTCUSTOMDPI
 70
   300
  0
ENDSEC
  0
EOF
