  0
SECTION
  2
HEADER
  9
$ACADVER
  1
AC1015
  9
$ACADMAINTVER
 70
    20
  9
$DWGCODEPAGE
  3
ANSI_932
  9
$INSBASE
 10
922.019522
 20
-675.4306699999999
 30
0.0
  9
$EXTMIN
 10
-73.43190124182342
 20
-0.013241688941207
 30
-0.0000000000000058
  9
$EXTMAX
 10
173.0501288197396
 20
392.0222937460941
 30
0.0000000000000104
  9
$LIMMIN
 10
0.0
 20
0.0
  9
$LIMMAX
 10
420.0
 20
297.0
  9
$ORTHOMODE
 70
     1
  9
$REGENMODE
 70
     1
  9
$FILLMODE
 70
     1
  9
$QTEXTMODE
 70
     0
  9
$MIRRTEXT
 70
     1
  9
$LTSCALE
 40
1.0
  9
$ATTMODE
 70
     1
  9
$TEXTSIZE
 40
30.0
  9
$TRACEWID
 40
0.05
  9
$TEXTSTYLE
  7
SUNPOU
  9
$CLAYER
  8
0
  9
$CELTYPE
  6
BYLAYER
  9
$CECOLOR
 62
   256
  9
$CELTSCALE
 40
1.0
  9
$DISPSILH
 70
     0
  9
$DIMSCALE
 40
1.0
  9
$DIMASZ
 40
2.0
  9
$DIMEXO
 40
10.0
  9
$DIMDLI
 40
0.38
  9
$DIMRND
 40
0.0
  9
$DIMDLE
 40
0.0
  9
$DIMEXE
 40
0.0
  9
$DIMTP
 40
0.0
  9
$DIMTM
 40
0.0
  9
$DIMTXT
 40
5.0
  9
$DIMCEN
 40
0.0
  9
$DIMTSZ
 40
0.0
  9
$DIMTOL
 70
     0
  9
$DIMLIM
 70
     0
  9
$DIMTIH
 70
     0
  9
$DIMTOH
 70
     0
  9
$DIMSE1
 70
     0
  9
$DIMSE2
 70
     0
  9
$DIMTAD
 70
     1
  9
$DIMZIN
 70
     0
  9
$DIMBLK
  1
Dot
  9
$DIMASO
 70
     1
  9
$DIMSHO
 70
     1
  9
$DIMPOST
  1

  9
$DIMAPOST
  1

  9
$DIMALT
 70
     0
  9
$DIMALTD
 70
     2
  9
$DIMALTF
 40
25.4
  9
$DIMLFAC
 40
1.0
  9
$DIMTOFL
 70
     0
  9
$DIMTVP
 40
0.0
  9
$DIMTIX
 70
     0
  9
$DIMSOXD
 70
     0
  9
$DIMSAH
 70
     0
  9
$DIMBLK1
  1

  9
$DIMBLK2
  1

  9
$DIMSTYLE
  2
STANDARD
  9
$DIMCLRD
 70
    60
  9
$DIMCLRE
 70
    70
  9
$DIMCLRT
 70
    60
  9
$DIMTFAC
 40
0.064286
  9
$DIMGAP
 40
3.0
  9
$DIMJUST
 70
     0
  9
$DIMSD1
 70
     0
  9
$DIMSD2
 70
     0
  9
$DIMTOLJ
 70
     1
  9
$DIMTZIN
 70
     0
  9
$DIMALTZ
 70
     0
  9
$DIMALTTZ
 70
     0
  9
$DIMUPT
 70
     0
  9
$DIMDEC
 70
     0
  9
$DIMTDEC
 70
     0
  9
$DIMALTU
 70
     2
  9
$DIMALTTD
 70
     2
  9
$DIMTXSTY
  7
SUNPOU
  9
$DIMAUNIT
 70
     0
  9
$DIMADEC
 70
     0
  9
$DIMALTRND
 40
0.0
  9
$DIMAZIN
 70
     0
  9
$DIMDSEP
 70
    46
  9
$DIMATFIT
 70
     3
  9
$DIMFRAC
 70
     0
  9
$DIMLDRBLK
  1

  9
$DIMLUNIT
 70
     2
  9
$DIMLWD
 70
    -2
  9
$DIMLWE
 70
    -2
  9
$DIMTMOVE
 70
     0
  9
$LUNITS
 70
     2
  9
$LUPREC
 70
     5
  9
$SKETCHINC
 40
0.1
  9
$FILLETRAD
 40
0.0
  9
$AUNITS
 70
     0
  9
$AUPREC
 70
     0
  9
$MENU
  1
acad
  9
$ELEVATION
 40
0.0
  9
$PELEVATION
 40
0.0
  9
$THICKNESS
 40
0.0
  9
$LIMCHECK
 70
     0
  9
$CHAMFERA
 40
0.0
  9
$CHAMFERB
 40
0.0
  9
$CHAMFERC
 40
0.0
  9
$CHAMFERD
 40
0.0
  9
$SKPOLY
 70
     0
  9
$TDCREATE
 40
2450623.654673033
  9
$TDUCREATE
 40
2450623.279673032
  9
$TDUPDATE
 40
2453865.644538299
  9
$TDUUPDATE
 40
2453865.269538299
  9
$TDINDWG
 40
0.0703452199
  9
$TDUSRTIMER
 40
0.0703450463
  9
$USRTIMER
 70
     1
  9
$ANGBASE
 50
0.0
  9
$ANGDIR
 70
     0
  9
$PDMODE
 70
     0
  9
$PDSIZE
 40
0.0
  9
$PLINEWID
 40
0.0
  9
$SPLFRAME
 70
     0
  9
$SPLINETYPE
 70
     6
  9
$SPLINESEGS
 70
     8
  9
$HANDSEED
  5
1371
  9
$SURFTAB1
 70
     6
  9
$SURFTAB2
 70
     6
  9
$SURFTYPE
 70
     6
  9
$SURFU
 70
     6
  9
$SURFV
 70
     6
  9
$UCSBASE
  2

  9
$UCSNAME
  2

  9
$UCSORG
 10
0.0
 20
0.0
 30
0.0
  9
$UCSXDIR
 10
1.0
 20
0.0
 30
0.0
  9
$UCSYDIR
 10
0.0
 20
1.0
 30
0.0
  9
$UCSORTHOREF
  2

  9
$UCSORTHOVIEW
 70
     0
  9
$UCSORGTOP
 10
0.0
 20
0.0
 30
0.0
  9
$UCSORGBOTTOM
 10
0.0
 20
0.0
 30
0.0
  9
$UCSORGLEFT
 10
0.0
 20
0.0
 30
0.0
  9
$UCSORGRIGHT
 10
0.0
 20
0.0
 30
0.0
  9
$UCSORGFRONT
 10
0.0
 20
0.0
 30
0.0
  9
$UCSORGBACK
 10
0.0
 20
0.0
 30
0.0
  9
$PUCSBASE
  2

  9
$PUCSNAME
  2

  9
$PUCSORG
 10
0.0
 20
0.0
 30
0.0
  9
$PUCSXDIR
 10
1.0
 20
0.0
 30
0.0
  9
$PUCSYDIR
 10
0.0
 20
1.0
 30
0.0
  9
$PUCSORTHOREF
  2

  9
$PUCSORTHOVIEW
 70
     0
  9
$PUCSORGTOP
 10
0.0
 20
0.0
 30
0.0
  9
$PUCSORGBOTTOM
 10
0.0
 20
0.0
 30
0.0
  9
$PUCSORGLEFT
 10
0.0
 20
0.0
 30
0.0
  9
$PUCSORGRIGHT
 10
0.0
 20
0.0
 30
0.0
  9
$PUCSORGFRONT
 10
0.0
 20
0.0
 30
0.0
  9
$PUCSORGBACK
 10
0.0
 20
0.0
 30
0.0
  9
$USERI1
 70
     0
  9
$USERI2
 70
     0
  9
$USERI3
 70
     0
  9
$USERI4
 70
     0
  9
$USERI5
 70
     0
  9
$USERR1
 40
0.0
  9
$USERR2
 40
0.0
  9
$USERR3
 40
0.0
  9
$USERR4
 40
0.0
  9
$USERR5
 40
0.0
  9
$WORLDVIEW
 70
     1
  9
$SHADEDGE
 70
     3
  9
$SHADEDIF
 70
    70
  9
$TILEMODE
 70
     1
  9
$MAXACTVP
 70
    16
  9
$PINSBASE
 10
0.0
 20
0.0
 30
0.0
  9
$PLIMCHECK
 70
     0
  9
$PEXTMIN
 10
1.000000000000000E+20
 20
1.000000000000000E+20
 30
1.000000000000000E+20
  9
$PEXTMAX
 10
-1.000000000000000E+20
 20
-1.000000000000000E+20
 30
-1.000000000000000E+20
  9
$PLIMMIN
 10
0.0
 20
0.0
  9
$PLIMMAX
 10
12.0
 20
9.0
  9
$UNITMODE
 70
     0
  9
$VISRETAIN
 70
     0
  9
$PLINEGEN
 70
     0
  9
$PSLTSCALE
 70
     1
  9
$TREEDEPTH
 70
  3020
  9
$CMLSTYLE
  2
STANDARD
  9
$CMLJUST
 70
     0
  9
$CMLSCALE
 40
1.0
  9
$PROXYGRAPHICS
 70
     1
  9
$MEASUREMENT
 70
     0
  9
$CELWEIGHT
370
    -1
  9
$ENDCAPS
280
     0
  9
$JOINSTYLE
280
     0
  9
$LWDISPLAY
290
     0
  9
$INSUNITS
 70
     0
  9
$HYPERLINKBASE
  1

  9
$STYLESHEET
  1

  9
$XEDIT
290
     1
  9
$CEPSNTYPE
380
     0
  9
$PSTYLEMODE
290
     1
  9
$FINGERPRINTGUID
  2
{FB88A696-E29C-4009-92AF-A3599A8169D5}
  9
$VERSIONGUID
  2
{1FBC955C-1DFD-4F46-9846-0D5D769AF29C}
  9
$EXTNAMES
290
     1
  9
$PSVPSCALE
 40
0.0
  9
$OLESTARTUP
290
     0
  0
ENDSEC
  0
SECTION
  2
CLASSES
  0
CLASS
  1
DICTIONARYVAR
  2
AcDbDictionaryVar
  3
ObjectDBX Classes
 90
        0
280
     0
281
     0
  0
CLASS
  1
ACDBDICTIONARYWDFLT
  2
AcDbDictionaryWithDefault
  3
ObjectDBX Classes
 90
        0
280
     0
281
     0
  0
CLASS
  1
ACDBPLACEHOLDER
  2
AcDbPlaceHolder
  3
ObjectDBX Classes
 90
        0
280
     0
281
     0
  0
CLASS
  1
LAYOUT
  2
AcDbLayout
  3
ObjectDBX Classes
 90
        0
280
     0
281
     0
  0
CLASS
  1
TABLESTYLE
  2
AcDbTableStyle
  3
ObjectDBX Classes
 90
     2047
280
     0
281
     0
  0
CLASS
  1
SORTENTSTABLE
  2
AcDbSortentsTable
  3
ObjectDBX Classes
 90
        0
280
     0
281
     0
  0
ENDSEC
  0
SECTION
  2
TABLES
  0
TABLE
  2
VPORT
  5
12
330
0
100
AcDbSymbolTable
 70
     9
  0
VPORT
  5
136B
330
12
100
AcDbSymbolTableRecord
100
AcDbViewportTableRecord
  2
*Active
 70
     0
 10
0.0
 20
0.0
 11
1.0
 21
1.0
 12
49.80911378895811
 22
196.0045260285764
 13
0.0
 23
0.0
 14
1.0
 24
1.0
 15
0.0
 25
0.0
 16
0.0
 26
0.0
 36
1.0
 17
0.0
 27
0.0
 37
0.0
 40
395.0473321221163
 41
1.565384615384615
 42
50.0
 43
0.0
 44
0.0
 50
0.0
 51
0.0
 71
     0
 72
 20000
 73
     1
 74
     1
 75
     0
 76
     0
 77
     0
 78
     0
281
     0
 65
     1
110
0.0
120
0.0
130
0.0
111
1.0
121
0.0
131
0.0
112
0.0
122
1.0
132
0.0
 79
     0
146
0.0
  0
ENDTAB
  0
TABLE
  2
LTYPE
  5
D
330
0
100
AcDbSymbolTable
 70
     2
  0
LTYPE
  5
E
330
D
100
AcDbSymbolTableRecord
100
AcDbLinetypeTableRecord
  2
BYBLOCK
 70
     0
  3

 72
    65
 73
     0
 40
0.0
  0
LTYPE
  5
F
330
D
100
AcDbSymbolTableRecord
100
AcDbLinetypeTableRecord
  2
BYLAYER
 70
     0
  3

 72
    65
 73
     0
 40
0.0
  0
LTYPE
  5
5
330
D
100
AcDbSymbolTableRecord
100
AcDbLinetypeTableRecord
  2
CONTINUOUS
 70
     0
  3
Solid line
 72
    65
 73
     0
 40
0.0
  0
ENDTAB
  0
TABLE
  2
LAYER
  5
A
102
{ACAD_XDICTIONARY
360
1B4
102
}
330
0
100
AcDbSymbolTable
 70
     6
  0
LAYER
  5
4
330
A
100
AcDbSymbolTableRecord
100
AcDbLayerTableRecord
  2
0
 70
     0
 62
     7
  6
CONTINUOUS
370
    -3
390
57
  0
LAYER
  5
25
330
A
100
AcDbSymbolTableRecord
100
AcDbLayerTableRecord
  2
KIJUN
 70
     0
 62
     7
  6
CONTINUOUS
370
    -3
390
57
  0
LAYER
  5
22
330
A
100
AcDbSymbolTableRecord
100
AcDbLayerTableRecord
  2
HOJO
 70
     0
 62
     3
  6
CONTINUOUS
370
    -3
390
57
  0
LAYER
  5
1B
330
A
100
AcDbSymbolTableRecord
100
AcDbLayerTableRecord
  2
WAKU
 70
     0
 62
     1
  6
CONTINUOUS
370
    -3
390
57
  0
LAYER
  5
31
330
A
100
AcDbSymbolTableRecord
100
AcDbLayerTableRecord
  2
DEFPOINTS
 70
     0
 62
     7
  6
CONTINUOUS
290
     0
370
    -3
390
57
  0
LAYER
  5
28
330
A
100
AcDbSymbolTableRecord
100
AcDbLayerTableRecord
  2
SUNPOU
 70
     0
 62
    70
  6
CONTINUOUS
370
    -3
390
57
  0
ENDTAB
  0
TABLE
  2
STYLE
  5
B
330
0
100
AcDbSymbolTable
 70
     3
  0
STYLE
  5
C
330
B
100
AcDbSymbolTableRecord
100
AcDbTextStyleTableRecord
  2
STANDARD
 70
     0
 40
0.0
 41
1.0
 50
0.0
 71
     0
 42
0.2
  3
txt
  4

  0
STYLE
  5
1C
330
B
100
AcDbSymbolTableRecord
100
AcDbTextStyleTableRecord
  2
SUNPOU
 70
     0
 40
0.0
 41
1.0
 50
0.0
 71
     0
 42
30.0
  3
txt
  4
bigfont
  0
STYLE
  5
14A
330
B
100
AcDbSymbolTableRecord
100
AcDbTextStyleTableRecord
  2
LIFE
 70
     0
 40
0.0
 41
0.7
 50
0.0
 71
     0
 42
10.0
  3
romans
  4
extfont
  0
ENDTAB
  0
TABLE
  2
VIEW
  5
10
330
0
100
AcDbSymbolTable
 70
     0
  0
ENDTAB
  0
TABLE
  2
UCS
  5
11
330
0
100
AcDbSymbolTable
 70
     0
  0
ENDTAB
  0
TABLE
  2
APPID
  5
14
330
0
100
AcDbSymbolTable
 70
    10
  0
APPID
  5
15
330
14
100
AcDbSymbolTableRecord
100
AcDbRegAppTableRecord
  2
ACAD
 70
     0
  0
APPID
  5
1D3
330
14
100
AcDbSymbolTableRecord
100
AcDbRegAppTableRecord
  2
ACAD_DSTYLE_DIMTEXT_FILL
 70
     0
  0
APPID
  5
1D4
330
14
100
AcDbSymbolTableRecord
100
AcDbRegAppTableRecord
  2
ACAD_DSTYLE_DIMEXT_LENGTH
 70
     0
  0
APPID
  5
1D5
330
14
100
AcDbSymbolTableRecord
100
AcDbRegAppTableRecord
  2
ACAD_DSTYLE_DIMEXT_ENABLED
 70
     0
  0
APPID
  5
1D6
330
14
100
AcDbSymbolTableRecord
100
AcDbRegAppTableRecord
  2
ACAD_DSTYLE_DIM_LINETYPE
 70
     0
  0
APPID
  5
1D7
330
14
100
AcDbSymbolTableRecord
100
AcDbRegAppTableRecord
  2
ACAD_DSTYLE_DIM_EXT1_LINETYPE
 70
     0
  0
APPID
  5
1D8
330
14
100
AcDbSymbolTableRecord
100
AcDbRegAppTableRecord
  2
ACAD_DSTYLE_DIM_EXT2_LINETYPE
 70
     0
  0
APPID
  5
294
330
14
100
AcDbSymbolTableRecord
100
AcDbRegAppTableRecord
  2
ACAD_DSTYLE_DIMJOGGED_JOGANGLE_SYMBOL
 70
     0
  0
APPID
  5
478
330
14
100
AcDbSymbolTableRecord
100
AcDbRegAppTableRecord
  2
ACAD_DSTYLE_DIMARC_LENGTH_SYMBOL
 70
     0
  0
APPID
  5
F55
330
14
100
AcDbSymbolTableRecord
100
AcDbRegAppTableRecord
  2
ACAD_EXEMPT_FROM_CAD_STANDARDS
 70
     0
  0
ENDTAB
  0
TABLE
  2
DIMSTYLE
  5
16
330
0
100
AcDbSymbolTable
 70
     3
100
AcDbDimStyleTable
 71
     1
340
1E
  0
DIMSTYLE
105
1E
102
{ACAD_REACTORS
330
12EF
330
12FC
102
}
330
16
100
AcDbSymbolTableRecord
100
AcDbDimStyleTableRecord
  2
STANDARD
 70
     0
340
C
  0
DIMSTYLE
105
1005
330
16
100
AcDbSymbolTableRecord
100
AcDbDimStyleTableRecord
  2
1-100
 70
     0
 40
100.0
 41
0.7
 42
2.5
 43
5.0
 44
1.0
 77
     1
147
1.0
172
     1
176
     3
177
     3
271
     2
272
     2
279
     2
340
C
342
109
  0
ENDTAB
  0
TABLE
  2
BLOCK_RECORD
  5
1
330
0
100
AcDbSymbolTable
 70
     7
  0
BLOCK_RECORD
  5
2
102
{ACAD_XDICTIONARY
360
D13
102
}
330
1
100
AcDbSymbolTableRecord
100
AcDbBlockTableRecord
  2
*MODEL_SPACE
340
5A
  0
BLOCK_RECORD
  5
7
330
1
100
AcDbSymbolTableRecord
100
AcDbBlockTableRecord
  2
*PAPER_SPACE
340
5B
  0
BLOCK_RECORD
  5
109
330
1
100
AcDbSymbolTableRecord
100
AcDbBlockTableRecord
  2
_Dot
340
0
102
{BLKREFS
331
F4D
331
F4E
331
1352
331
1353
331
1364
331
1365
102
}
  0
BLOCK_RECORD
  5
CDE
330
1
100
AcDbSymbolTableRecord
100
AcDbBlockTableRecord
  2
*D1
340
0
  0
BLOCK_RECORD
  5
12F0
330
1
100
AcDbSymbolTableRecord
100
AcDbBlockTableRecord
  2
*D5
340
0
  0
BLOCK_RECORD
  5
12FD
330
1
100
AcDbSymbolTableRecord
100
AcDbBlockTableRecord
  2
*D6
340
0
  0
ENDTAB
  0
ENDSEC
  0
SECTION
  2
BLOCKS
  0
BLOCK
  5
3
330
2
100
AcDbEntity
  8
0
100
AcDbBlockBegin
  2
*MODEL_SPACE
 70
     0
 10
0.0
 20
0.0
 30
0.0
  3
*MODEL_SPACE
  1

  0
ENDBLK
  5
6
330
2
100
AcDbEntity
  8
0
100
AcDbBlockEnd
  0
BLOCK
  5
8
330
7
100
AcDbEntity
 67
     1
  8
0
100
AcDbBlockBegin
  2
*PAPER_SPACE
 70
     0
 10
0.0
 20
0.0
 30
0.0
  3
*PAPER_SPACE
  1

  0
ENDBLK
  5
9
330
7
100
AcDbEntity
 67
     1
  8
0
100
AcDbBlockEnd
  0
BLOCK
  5
10C
330
109
100
AcDbEntity
  8
0
100
AcDbBlockBegin
  2
_Dot
 70
     0
 10
0.0
 20
0.0
 30
0.0
  3
_Dot
  1

  0
LWPOLYLINE
  5
10A
330
109
100
AcDbEntity
  8
0
  6
ByBlock
 62
     0
100
AcDbPolyline
 90
        2
 70
     1
 43
0.5
 10
-0.25
 20
0.0
 42
1.0
 10
0.25
 20
0.0
 42
1.0
  0
LINE
  5
10B
330
109
100
AcDbEntity
  8
0
  6
ByBlock
 62
     0
370
    -2
100
AcDbLine
 10
-0.5
 20
0.0
 30
0.0
 11
-1.0
 21
0.0
 31
0.0
  0
ENDBLK
  5
10D
330
109
100
AcDbEntity
  8
0
100
AcDbBlockEnd
  0
BLOCK
  5
CE8
330
CDE
100
AcDbEntity
  8
0
100
AcDbBlockBegin
  2
*D1
 70
     1
 10
0.0
 20
0.0
 30
0.0
  3
*D1
  1

  0
LINE
  5
F4A
330
CDE
100
AcDbEntity
  8
SUNPOU
 62
    70
370
    -2
100
AcDbLine
 10
30.13153620038668
 20
94.24654640442486
 30
0.0
 11
30.13153620038668
 21
134.3577586605915
 31
0.0
  0
LINE
  5
F4B
330
CDE
100
AcDbEntity
  8
SUNPOU
 62
    70
370
    -2
100
AcDbLine
 10
110.1315362003879
 20
94.24654640442261
 30
0.0
 11
110.1315362003879
 21
134.3577586605915
 31
0.0
  0
LINE
  5
F4C
330
CDE
100
AcDbEntity
  8
SUNPOU
 62
    60
370
    -2
100
AcDbLine
 10
32.13153620038668
 20
134.3577586605915
 30
0.0
 11
108.1315362003879
 21
134.3577586605915
 31
0.0
  0
INSERT
  5
F4D
330
CDE
100
AcDbEntity
  8
SUNPOU
 62
    60
370
    -2
100
AcDbBlockReference
  2
_Dot
 10
30.13153620038668
 20
134.3577586605915
 30
0.0
 41
2.0
 42
2.0
 43
2.0
 50
180.0
  0
INSERT
  5
F4E
330
CDE
100
AcDbEntity
  8
SUNPOU
 62
    60
370
    -2
100
AcDbBlockReference
  2
_Dot
 10
110.1315362003879
 20
134.3577586605915
 30
0.0
 41
2.0
 42
2.0
 43
2.0
  0
MTEXT
  5
F4F
330
CDE
100
AcDbEntity
  8
SUNPOU
 62
    60
100
AcDbMText
 10
70.1315362003873
 20
139.8577586605915
 30
0.0
 40
5.0
 41
0.0
 71
     5
 72
     1
  1
\A1;80φ
  7
SUNPOU
 73
     1
 44
1.0
1001
ACAD
1000
MTEXTBEGIN
1070
    73
1070
     1
1070
    44
1040
1.0
1070
    74
1070
     0
1000
MTEXTEND
  0
POINT
  5
F50
330
CDE
100
AcDbEntity
  8
DEFPOINTS
 62
     0
100
AcDbPoint
 10
30.13153620038668
 20
84.24654640442486
 30
0.0
  0
POINT
  5
F51
330
CDE
100
AcDbEntity
  8
DEFPOINTS
 62
     0
100
AcDbPoint
 10
110.1315362003879
 20
84.24654640442261
 30
0.0
  0
POINT
  5
F52
330
CDE
100
AcDbEntity
  8
DEFPOINTS
 62
     0
100
AcDbPoint
 10
110.1315362003879
 20
134.3577586605915
 30
0.0
  0
ENDBLK
  5
CE9
330
CDE
100
AcDbEntity
  8
0
100
AcDbBlockEnd
  0
BLOCK
  5
12FA
330
12F0
100
AcDbEntity
  8
0
100
AcDbBlockBegin
  2
*D5
 70
     1
 10
0.0
 20
0.0
 30
0.0
  3
*D5
  1

  0
LINE
  5
1361
330
12F0
100
AcDbEntity
  8
SUNPOU
 62
    70
370
    -2
100
AcDbLine
 10
-9.961432443754389
 20
351.2357310920708
 30
0.0
 11
-9.961432443754388
 21
384.0080010364252
 31
0.0
  0
LINE
  5
1362
330
12F0
100
AcDbEntity
  8
SUNPOU
 62
    70
370
    -2
100
AcDbLine
 10
172.0385675562456
 20
357.173537785078
 30
0.0
 11
172.0385675562456
 21
384.0080010364252
 31
0.0
  0
LINE
  5
1363
330
12F0
100
AcDbEntity
  8
SUNPOU
 62
    60
370
    -2
100
AcDbLine
 10
-7.961432443754388
 20
384.0080010364252
 30
0.0
 11
170.0385675562456
 21
384.0080010364252
 31
0.0
  0
INSERT
  5
1364
330
12F0
100
AcDbEntity
  8
SUNPOU
 62
    60
370
    -2
100
AcDbBlockReference
  2
_Dot
 10
-9.961432443754388
 20
384.0080010364252
 30
0.0
 41
2.0
 42
2.0
 43
2.0
 50
180.0
  0
INSERT
  5
1365
330
12F0
100
AcDbEntity
  8
SUNPOU
 62
    60
370
    -2
100
AcDbBlockReference
  2
_Dot
 10
172.0385675562456
 20
384.0080010364252
 30
0.0
 41
2.0
 42
2.0
 43
2.0
  0
MTEXT
  5
1366
330
12F0
100
AcDbEntity
  8
SUNPOU
 62
    60
100
AcDbMText
 10
81.0385675562456
 20
389.5080010364252
 30
0.0
 40
5.0
 41
0.0
 71
     5
 72
     1
  1
\A1;182
  7
SUNPOU
 73
     1
 44
1.0
1001
ACAD
1000
MTEXTBEGIN
1070
    73
1070
     1
1070
    44
1040
1.0
1070
    74
1070
     0
1000
MTEXTEND
  0
POINT
  5
1367
330
12F0
100
AcDbEntity
  8
DEFPOINTS
 62
     0
100
AcDbPoint
 10
-9.961432443754389
 20
341.2357310920707
 30
0.0
  0
POINT
  5
1368
330
12F0
100
AcDbEntity
  8
DEFPOINTS
 62
     0
100
AcDbPoint
 10
172.0385675562456
 20
347.173537785078
 30
0.0
  0
POINT
  5
1369
330
12F0
100
AcDbEntity
  8
DEFPOINTS
 62
     0
100
AcDbPoint
 10
172.0385675562456
 20
384.0080010364252
 30
0.0
  0
ENDBLK
  5
12FB
330
12F0
100
AcDbEntity
  8
0
100
AcDbBlockEnd
  0
BLOCK
  5
1307
330
12FD
100
AcDbEntity
  8
0
100
AcDbBlockBegin
  2
*D6
 70
     1
 10
0.0
 20
0.0
 30
0.0
  3
*D6
  1

  0
LINE
  5
134F
330
12FD
100
AcDbEntity
  8
SUNPOU
 62
    70
370
    -2
100
AcDbLine
 10
-19.96143244375439
 20
341.2357310920707
 30
0.0
 11
-65.40361306285008
 21
341.2357310920707
 31
0.0
  0
LINE
  5
1350
330
12FD
100
AcDbEntity
  8
SUNPOU
 62
    70
370
    -2
100
AcDbLine
 10
-20.10507357842698
 20
51.23573109207064
 30
0.0
 11
-65.40361306285014
 21
51.23573109207065
 31
0.0
  0
LINE
  5
1351
330
12FD
100
AcDbEntity
  8
SUNPOU
 62
    60
370
    -2
100
AcDbLine
 10
-65.40361306285008
 20
339.2357310920707
 30
0.0
 11
-65.40361306285014
 21
53.23573109207064
 31
0.0
  0
INSERT
  5
1352
330
12FD
100
AcDbEntity
  8
SUNPOU
 62
    60
370
    -2
100
AcDbBlockReference
  2
_Dot
 10
-65.40361306285008
 20
341.2357310920707
 30
0.0
 41
2.0
 42
2.0
 43
2.0
 50
90.0
  0
INSERT
  5
1353
330
12FD
100
AcDbEntity
  8
SUNPOU
 62
    60
370
    -2
100
AcDbBlockReference
  2
_Dot
 10
-65.40361306285014
 20
51.23573109207065
 30
0.0
 41
2.0
 42
2.0
 43
2.0
 50
270.0
  0
MTEXT
  5
1354
330
12FD
100
AcDbEntity
  8
SUNPOU
 62
    60
100
AcDbMText
 10
-70.90361306285014
 20
196.2357310920707
 30
0.0
 40
5.0
 41
0.0
 71
     5
 72
     1
  1
\A1;290
  7
SUNPOU
 11
0.0000000000000001
 21
1.0
 31
0.0
 73
     1
 44
1.0
1001
ACAD
1000
MTEXTBEGIN
1070
    73
1070
     1
1070
    44
1040
1.0
1070
    74
1070
     0
1000
MTEXTEND
  0
POINT
  5
1355
330
12FD
100
AcDbEntity
  8
DEFPOINTS
 62
     0
100
AcDbPoint
 10
-9.961432443754389
 20
341.2357310920707
 30
0.0
  0
POINT
  5
1356
330
12FD
100
AcDbEntity
  8
DEFPOINTS
 62
     0
100
AcDbPoint
 10
-10.10507357842698
 20
51.23573109207063
 30
0.0
  0
POINT
  5
1357
330
12FD
100
AcDbEntity
  8
DEFPOINTS
 62
     0
100
AcDbPoint
 10
-65.40361306285014
 20
51.23573109207065
 30
0.0
  0
ENDBLK
  5
1308
330
12FD
100
AcDbEntity
  8
0
100
AcDbBlockEnd
  0
ENDSEC
  0
SECTION
  2
ENTITIES
  0
LINE
  5
1F
330
2
100
AcDbEntity
  8
WAKU
100
AcDbLine
 10
0.0
 20
14.0
 30
0.0
 11
148.6829221395387
 21
14.0
 31
0.0
  0
LINE
  5
20
330
2
100
AcDbEntity
  8
WAKU
100
AcDbLine
 10
0.0
 20
0.0
 30
0.0
 11
148.6829221395387
 21
0.0
 31
0.0
  0
TEXT
  5
21
330
2
100
AcDbEntity
  8
HOJO
100
AcDbText
 10
9.653966000000025
 20
2.366626000000024
 30
0.0
 40
9.0
  1
TWR207
  7
SUNPOU
100
AcDbText
  0
TEXT
  5
23
330
2
100
AcDbEntity
  8
HOJO
100
AcDbText
 10
85.84696046283864
 20
5.044386000000031
 30
0.0
 40
6.0
  1
182×290×5
  7
SUNPOU
100
AcDbText
  0
ARC
  5
1129
102
{ACAD_REACTORS
330
136A
102
}
330
2
100
AcDbEntity
  8
KIJUN
100
AcDbCircle
 10
77.19721696886465
 20
178.3002777597289
 30
0.0
 40
87.15864941261905
100
AcDbArc
 50
99.83317537316455
 51
253.2614877551945
  0
ARC
  5
112A
102
{ACAD_REACTORS
330
136A
102
}
330
2
100
AcDbEntity
  8
KIJUN
100
AcDbCircle
 10
84.34587335489499
 20
328.3129762598628
 30
0.0
 40
13.33926025306996
100
AcDbArc
 50
104.3555106808482
 51
176.0333471346215
  0
ARC
  5
112B
102
{ACAD_REACTORS
330
136A
102
}
330
2
100
AcDbEntity
  8
KIJUN
100
AcDbCircle
 10
71.06297535370112
 20
324.2113232946151
 30
0.0
 40
5.024467081761912
100
AcDbArc
 50
90.27833186264233
 51
179.7216681373576
  0
ARC
  5
112C
102
{ACAD_REACTORS
330
136A
102
}
330
2
100
AcDbEntity
  8
KIJUN
100
AcDbCircle
 10
66.66748060477852
 20
318.9212745678042
 30
0.0
 40
5.351539943879082
100
AcDbArc
 50
96.74899704387861
 51
210.1209006019681
  0
ARC
  5
112D
102
{ACAD_REACTORS
330
136A
102
}
330
2
100
AcDbEntity
  8
KIJUN
100
AcDbCircle
 10
59.01645065749829
 20
308.1427874212236
 30
0.0
 40
8.638803609827441
100
AcDbArc
 50
69.52305252839792
 51
143.8754359395688
  0
ARC
  5
112E
102
{ACAD_REACTORS
330
136A
102
}
330
2
100
AcDbEntity
  8
KIJUN
100
AcDbCircle
 10
53.00674182201527
 20
308.0396315116308
 30
0.0
 40
5.285528569475902
100
AcDbArc
 50
100.5547226903366
 51
199.9555147157743
  0
ARC
  5
112F
102
{ACAD_REACTORS
330
136A
102
}
330
2
100
AcDbEntity
  8
KIJUN
100
AcDbCircle
 10
49.40318632945576
 20
299.8416279632023
 30
0.0
 40
6.538099052385336
100
AcDbArc
 50
102.0472326942612
 51
239.0281228896851
  0
ARC
  5
1130
102
{ACAD_REACTORS
330
136A
102
}
330
2
100
AcDbEntity
  8
KIJUN
100
AcDbCircle
 10
56.11092228212391
 20
277.6751400475485
 30
0.0
 40
14.85314804948898
100
AcDbArc
 50
294.6774791850117
 51
57.74183579310511
  0
ARC
  5
1131
102
{ACAD_REACTORS
330
136A
102
}
330
2
100
AcDbEntity
  8
KIJUN
100
AcDbCircle
 10
56.61352102167455
 20
287.0269554980566
 30
0.0
 40
12.79828450851289
100
AcDbArc
 50
145.7183752519995
 51
271.9032122339509
  0
ARC
  5
1132
102
{ACAD_REACTORS
330
136A
102
}
330
2
100
AcDbEntity
  8
KIJUN
100
AcDbCircle
 10
55.09425698980948
 20
284.6176169648865
 30
0.0
 40
10.56238125873748
100
AcDbArc
 50
280.6074297243057
 51
32.13381481437753
  0
ARC
  5
1133
102
{ACAD_REACTORS
330
136A
102
}
330
2
100
AcDbEntity
  8
KIJUN
100
AcDbCircle
 10
60.72181123435433
 20
285.525323636721
 30
0.0
 40
5.760973085705242
100
AcDbArc
 50
54.84933539495514
 51
290.80177444712
  0
LINE
  5
113B
102
{ACAD_REACTORS
330
136A
102
}
330
2
100
AcDbEntity
  8
KIJUN
100
AcDbLine
 10
81.0385675562456
 20
330.7948710294032
 30
0.0
 11
80.06527834665934
 21
327.1951373962793
 31
0.0
  0
LINE
  5
113C
102
{ACAD_REACTORS
330
136A
102
}
330
2
100
AcDbEntity
  8
KIJUN
100
AcDbLine
 10
80.06527834665934
 20
327.1951373962793
 30
0.0
 11
80.04033666658386
 21
288.5818349547835
 31
0.0
  0
CIRCLE
  5
113D
102
{ACAD_REACTORS
330
136A
102
}
330
2
100
AcDbEntity
  8
KIJUN
100
AcDbCircle
 10
81.0385675562456
 20
178.7357310920707
 30
0.0
 40
71.5
  0
CIRCLE
  5
113E
102
{ACAD_REACTORS
330
136A
102
}
330
2
100
AcDbEntity
  8
KIJUN
100
AcDbCircle
 10
81.0385675562456
 20
178.7357310920707
 30
0.0
 40
5.5
  0
LINE
  5
113F
102
{ACAD_REACTORS
330
136A
102
}
330
2
100
AcDbEntity
  8
KIJUN
100
AcDbLine
 10
77.52694175995538
 20
196.3898661393287
 30
0.0
 11
79.96557078515678
 21
184.1300501342885
 31
0.0
  0
LINE
  5
1140
102
{ACAD_REACTORS
330
136A
102
}
330
2
100
AcDbEntity
  8
KIJUN
100
AcDbLine
 10
81.03856755624537
 20
157.7357310920704
 30
0.0
 11
81.0385675562456
 21
173.2357310920704
 31
0.0
  0
LINE
  5
1141
102
{ACAD_REACTORS
330
136A
102
}
330
2
100
AcDbEntity
  8
KIJUN
100
AcDbLine
 10
84.55019335253627
 20
196.3898661393292
 30
0.0
 11
82.1115643273344
 21
184.1300501342884
 31
0.0
  0
ARC
  5
1142
102
{ACAD_REACTORS
330
136A
102
}
330
2
100
AcDbEntity
  8
KIJUN
100
AcDbCircle
 10
81.03856755624581
 20
196.2199992338738
 30
0.0
 40
3.515731858197005
100
AcDbArc
 50
2.769394221218455
 51
177.2306057787815
  0
LINE
  5
1143
102
{ACAD_REACTORS
330
136A
102
}
330
2
100
AcDbEntity
  8
KIJUN
100
AcDbLine
 10
77.52694175995538
 20
196.3898661393293
 30
0.0
 11
79.96557078515678
 21
184.1300501342885
 31
0.0
  0
LINE
  5
1144
102
{ACAD_REACTORS
330
136A
102
}
330
2
100
AcDbEntity
  8
KIJUN
100
AcDbLine
 10
71.0383033618927
 20
193.7021841135164
 30
0.0
 11
77.98293127463757
 21
183.3088139597347
 31
0.0
  0
ARC
  5
1145
102
{ACAD_REACTORS
330
136A
102
}
330
2
100
AcDbEntity
  8
KIJUN
100
AcDbCircle
 10
74.3476278113489
 20
194.8890885692217
 30
0.0
 40
3.515731858197005
100
AcDbArc
 50
25.26939422121569
 51
199.7306057787851
  0
LINE
  5
1146
102
{ACAD_REACTORS
330
136A
102
}
330
2
100
AcDbEntity
  8
KIJUN
100
AcDbLine
 10
71.03830336189247
 20
193.702184113517
 30
0.0
 11
77.98293127463779
 21
183.3088139597346
 31
0.0
  0
LINE
  5
1147
102
{ACAD_REACTORS
330
136A
102
}
330
2
100
AcDbEntity
  8
KIJUN
100
AcDbLine
 10
66.07211453479994
 20
188.7359952864236
 30
0.0
 11
76.46548468858117
 21
181.7913673736785
 31
0.0
  0
ARC
  5
1148
102
{ACAD_REACTORS
330
136A
102
}
330
2
100
AcDbEntity
  8
KIJUN
100
AcDbCircle
 10
68.67532298909276
 20
191.0989756592235
 30
0.0
 40
3.515731858197005
100
AcDbArc
 50
47.76939422121289
 51
222.2306057787856
  0
LINE
  5
1149
102
{ACAD_REACTORS
330
136A
102
}
330
2
100
AcDbEntity
  8
KIJUN
100
AcDbLine
 10
66.07211453479971
 20
188.7359952864238
 30
0.0
 11
76.46548468858163
 21
181.7913673736784
 31
0.0
  0
LINE
  5
114A
102
{ACAD_REACTORS
330
136A
102
}
330
2
100
AcDbEntity
  8
KIJUN
100
AcDbLine
 10
63.38443250898757
 20
182.2473568883609
 30
0.0
 11
75.64424851402776
 21
179.808727863159
 31
0.0
  0
ARC
  5
114B
102
{ACAD_REACTORS
330
136A
102
}
330
2
100
AcDbEntity
  8
KIJUN
100
AcDbCircle
 10
64.88521007909452
 20
185.4266708369675
 30
0.0
 40
3.515731858197005
100
AcDbArc
 50
70.2693942212149
 51
244.7306057787839
  0
LINE
  5
114C
102
{ACAD_REACTORS
330
136A
102
}
330
2
100
AcDbEntity
  8
KIJUN
100
AcDbLine
 10
63.38443250898712
 20
182.2473568883611
 30
0.0
 11
75.64424851402776
 21
179.8087278631593
 31
0.0
  0
LINE
  5
114D
102
{ACAD_REACTORS
330
136A
102
}
330
2
100
AcDbEntity
  8
KIJUN
100
AcDbLine
 10
63.38443250898757
 20
175.2241052957802
 30
0.0
 11
75.64424851402776
 21
177.6627343209816
 31
0.0
  0
ARC
  5
114E
102
{ACAD_REACTORS
330
136A
102
}
330
2
100
AcDbEntity
  8
KIJUN
100
AcDbCircle
 10
63.55429941444225
 20
178.7357310920708
 30
0.0
 40
3.515731858197005
100
AcDbArc
 50
92.76939422121845
 51
267.2306057787815
  0
LINE
  5
114F
102
{ACAD_REACTORS
330
136A
102
}
330
2
100
AcDbEntity
  8
KIJUN
100
AcDbLine
 10
63.38443250898712
 20
175.2241052957807
 30
0.0
 11
75.64424851402776
 21
177.6627343209821
 31
0.0
  0
LINE
  5
1150
102
{ACAD_REACTORS
330
136A
102
}
330
2
100
AcDbEntity
  8
KIJUN
100
AcDbLine
 10
66.07211453479994
 20
168.735466897718
 30
0.0
 11
76.46548468858163
 21
175.6800948104629
 31
0.0
  0
ARC
  5
1151
102
{ACAD_REACTORS
330
136A
102
}
330
2
100
AcDbEntity
  8
KIJUN
100
AcDbCircle
 10
64.88521007909429
 20
172.0447913471742
 30
0.0
 40
3.515731858197005
100
AcDbArc
 50
115.2693942212161
 51
289.7306057787851
  0
LINE
  5
1152
102
{ACAD_REACTORS
330
136A
102
}
330
2
100
AcDbEntity
  8
KIJUN
100
AcDbLine
 10
66.07211453479925
 20
168.7354668977175
 30
0.0
 11
76.46548468858139
 21
175.6800948104629
 31
0.0
  0
LINE
  5
1153
102
{ACAD_REACTORS
330
136A
102
}
330
2
100
AcDbEntity
  8
KIJUN
100
AcDbLine
 10
71.0383033618927
 20
163.7692780706248
 30
0.0
 11
77.98293127463779
 21
174.1626482244065
 31
0.0
  0
ARC
  5
1154
102
{ACAD_REACTORS
330
136A
102
}
330
2
100
AcDbEntity
  8
KIJUN
100
AcDbCircle
 10
68.67532298909231
 20
166.3724865249176
 30
0.0
 40
3.515731858197005
100
AcDbArc
 50
137.7693942212144
 51
312.2306057787871
  0
LINE
  5
1155
102
{ACAD_REACTORS
330
136A
102
}
330
2
100
AcDbEntity
  8
KIJUN
100
AcDbLine
 10
71.03830336189225
 20
163.7692780706245
 30
0.0
 11
77.98293127463779
 21
174.1626482244065
 31
0.0
  0
LINE
  5
1156
102
{ACAD_REACTORS
330
136A
102
}
330
2
100
AcDbEntity
  8
KIJUN
100
AcDbLine
 10
77.52694175995515
 20
161.0815960448124
 30
0.0
 11
79.96557078515701
 21
173.3414120498526
 31
0.0
  0
ARC
  5
1157
102
{ACAD_REACTORS
330
136A
102
}
330
2
100
AcDbEntity
  8
KIJUN
100
AcDbCircle
 10
74.34762781134844
 20
162.5823736149196
 30
0.0
 40
3.515731858197005
100
AcDbArc
 50
160.2693942212148
 51
334.7306057787843
  0
LINE
  5
1158
102
{ACAD_REACTORS
330
136A
102
}
330
2
100
AcDbEntity
  8
KIJUN
100
AcDbLine
 10
77.52694175995515
 20
161.0815960448118
 30
0.0
 11
79.96557078515701
 21
173.3414120498526
 31
0.0
  0
LINE
  5
1159
102
{ACAD_REACTORS
330
136A
102
}
330
2
100
AcDbEntity
  8
KIJUN
100
AcDbLine
 10
84.55019335253604
 20
161.0815960448123
 30
0.0
 11
82.11156432733464
 21
173.3414120498525
 31
0.0
  0
ARC
  5
115A
102
{ACAD_REACTORS
330
136A
102
}
330
2
100
AcDbEntity
  8
KIJUN
100
AcDbCircle
 10
81.0385675562456
 20
161.2514629502672
 30
0.0
 40
3.515731858197005
100
AcDbArc
 50
182.7693942212184
 51
357.2306057787816
  0
LINE
  5
115B
102
{ACAD_REACTORS
330
136A
102
}
330
2
100
AcDbEntity
  8
KIJUN
100
AcDbLine
 10
84.55019335253558
 20
161.0815960448117
 30
0.0
 11
82.11156432733417
 21
173.3414120498526
 31
0.0
  0
LINE
  5
115C
102
{ACAD_REACTORS
330
136A
102
}
330
2
100
AcDbEntity
  8
KIJUN
100
AcDbLine
 10
91.03883175059825
 20
163.7692780706245
 30
0.0
 11
84.09420383785363
 21
174.1626482244065
 31
0.0
  0
ARC
  5
115D
102
{ACAD_REACTORS
330
136A
102
}
330
2
100
AcDbEntity
  8
KIJUN
100
AcDbCircle
 10
87.7295073011423
 20
162.5823736149194
 30
0.0
 40
3.515731858197005
100
AcDbArc
 50
205.2693942212157
 51
19.73060577878514
  0
LINE
  5
115E
102
{ACAD_REACTORS
330
136A
102
}
330
2
100
AcDbEntity
  8
KIJUN
100
AcDbLine
 10
91.03883175059825
 20
163.7692780706241
 30
0.0
 11
84.09420383785294
 21
174.1626482244065
 31
0.0
  0
LINE
  5
115F
102
{ACAD_REACTORS
330
136A
102
}
330
2
100
AcDbEntity
  8
KIJUN
100
AcDbLine
 10
96.00502057769103
 20
168.7354668977178
 30
0.0
 11
85.61165042390934
 21
175.6800948104626
 31
0.0
  0
ARC
  5
1160
102
{ACAD_REACTORS
330
136A
102
}
330
2
100
AcDbEntity
  8
KIJUN
100
AcDbCircle
 10
93.40181212339798
 20
166.3724865249173
 30
0.0
 40
3.515731858197005
100
AcDbArc
 50
227.7693942212129
 51
42.23060577878561
  0
LINE
  5
1161
102
{ACAD_REACTORS
330
136A
102
}
330
2
100
AcDbEntity
  8
KIJUN
100
AcDbLine
 10
96.00502057769171
 20
168.7354668977171
 30
0.0
 11
85.6116504239098
 21
175.6800948104626
 31
0.0
  0
LINE
  5
1162
102
{ACAD_REACTORS
330
136A
102
}
330
2
100
AcDbEntity
  8
KIJUN
100
AcDbLine
 10
98.69270260350361
 20
175.2241052957801
 30
0.0
 11
86.43288659846366
 21
177.6627343209819
 31
0.0
  0
ARC
  5
1163
102
{ACAD_REACTORS
330
136A
102
}
330
2
100
AcDbEntity
  8
KIJUN
100
AcDbCircle
 10
97.19192503339668
 20
172.0447913471735
 30
0.0
 40
3.515731858197005
100
AcDbArc
 50
250.2693942212149
 51
64.73060577878389
  0
LINE
  5
1164
102
{ACAD_REACTORS
330
136A
102
}
330
2
100
AcDbEntity
  8
KIJUN
100
AcDbLine
 10
98.69270260350431
 20
175.2241052957799
 30
0.0
 11
86.43288659846342
 21
177.6627343209817
 31
0.0
  0
LINE
  5
1165
102
{ACAD_REACTORS
330
136A
102
}
330
2
100
AcDbEntity
  8
KIJUN
100
AcDbLine
 10
98.69270260350385
 20
182.2473568883608
 30
0.0
 11
86.43288659846366
 21
179.8087278631594
 31
0.0
  0
ARC
  5
1166
102
{ACAD_REACTORS
330
136A
102
}
330
2
100
AcDbEntity
  8
KIJUN
100
AcDbCircle
 10
98.52283569804871
 20
178.7357310920703
 30
0.0
 40
3.515731858197005
100
AcDbArc
 50
272.7693942212184
 51
87.23060577878156
  0
LINE
  5
1167
102
{ACAD_REACTORS
330
136A
102
}
330
2
100
AcDbEntity
  8
KIJUN
100
AcDbLine
 10
98.69270260350431
 20
182.2473568883608
 30
0.0
 11
86.43288659846342
 21
179.8087278631594
 31
0.0
  0
LINE
  5
1168
102
{ACAD_REACTORS
330
136A
102
}
330
2
100
AcDbEntity
  8
KIJUN
100
AcDbLine
 10
96.00502057769148
 20
188.7359952864235
 30
0.0
 11
85.6116504239098
 21
181.7913673736786
 31
0.0
  0
ARC
  5
1169
102
{ACAD_REACTORS
330
136A
102
}
330
2
100
AcDbEntity
  8
KIJUN
100
AcDbCircle
 10
97.19192503339691
 20
185.4266708369674
 30
0.0
 40
3.515731858197005
100
AcDbArc
 50
295.2693942212161
 51
109.7306057787851
  0
LINE
  5
116A
102
{ACAD_REACTORS
330
136A
102
}
330
2
100
AcDbEntity
  8
KIJUN
100
AcDbLine
 10
96.00502057769194
 20
188.7359952864235
 30
0.0
 11
85.6116504239098
 21
181.7913673736784
 31
0.0
  0
LINE
  5
116B
102
{ACAD_REACTORS
330
136A
102
}
330
2
100
AcDbEntity
  8
KIJUN
100
AcDbLine
 10
91.03883175059849
 20
193.7021841135164
 30
0.0
 11
84.0942038378534
 21
183.3088139597347
 31
0.0
  0
ARC
  5
116C
102
{ACAD_REACTORS
330
136A
102
}
330
2
100
AcDbEntity
  8
KIJUN
100
AcDbCircle
 10
93.40181212339865
 20
191.0989756592235
 30
0.0
 40
3.515731858197005
100
AcDbArc
 50
317.7693942212144
 51
132.230605778787
  0
LINE
  5
116D
102
{ACAD_REACTORS
330
136A
102
}
330
2
100
AcDbEntity
  8
KIJUN
100
AcDbLine
 10
91.03883175059895
 20
193.7021841135166
 30
0.0
 11
84.0942038378534
 21
183.3088139597345
 31
0.0
  0
LINE
  5
116E
102
{ACAD_REACTORS
330
136A
102
}
330
2
100
AcDbEntity
  8
KIJUN
100
AcDbLine
 10
84.55019335253604
 20
196.3898661393287
 30
0.0
 11
82.1115643273344
 21
184.1300501342885
 31
0.0
  0
ARC
  5
116F
102
{ACAD_REACTORS
330
136A
102
}
330
2
100
AcDbEntity
  8
KIJUN
100
AcDbCircle
 10
87.72950730114297
 20
194.8890885692216
 30
0.0
 40
3.515731858197005
100
AcDbArc
 50
340.2693942212147
 51
154.7306057787843
  0
CIRCLE
  5
1170
102
{ACAD_REACTORS
330
136A
102
}
330
2
100
AcDbEntity
  8
KIJUN
100
AcDbCircle
 10
81.0385675562456
 20
178.7357310920707
 30
0.0
 40
29.0
  0
ARC
  5
1171
102
{ACAD_REACTORS
330
136A
102
}
330
2
100
AcDbEntity
  8
KIJUN
100
AcDbCircle
 10
74.27551077762444
 20
236.6657502762749
 30
0.0
 40
12.54844338701598
100
AcDbArc
 50
20.37867983311704
 51
57.38741376272237
  0
ARC
  5
1173
102
{ACAD_REACTORS
330
136A
102
}
330
2
100
AcDbEntity
  8
KIJUN
100
AcDbCircle
 10
103.7046058675773
 20
236.4072922848909
 30
0.0
 40
6.696111152344174
100
AcDbArc
 50
57.79098504046596
 51
157.0490042491653
  0
ARC
  5
1174
102
{ACAD_REACTORS
330
136A
102
}
330
2
100
AcDbEntity
  8
KIJUN
100
AcDbCircle
 10
87.22864273863086
 20
216.0883788935341
 30
0.0
 40
8.869789448065807
100
AcDbArc
 50
225.7425981882318
 51
295.4383384427796
  0
ARC
  5
1175
102
{ACAD_REACTORS
330
136A
102
}
330
2
100
AcDbEntity
  8
KIJUN
100
AcDbCircle
 10
92.27171941552382
 20
207.6039991127075
 30
0.0
 40
1.321304481641556
100
AcDbArc
 50
158.9526012924009
 51
249.8208646685142
  0
ARC
  5
1176
102
{ACAD_REACTORS
330
136A
102
}
330
2
100
AcDbEntity
  8
KIJUN
100
AcDbCircle
 10
58.25067688425218
 20
228.235731092071
 30
0.0
 40
24.15135526794985
100
AcDbArc
 50
340.6556800667972
 51
10.65568006679719
  0
ARC
  5
1178
102
{ACAD_REACTORS
330
136A
102
}
330
2
100
AcDbEntity
  8
KIJUN
100
AcDbCircle
 10
69.04908012373443
 20
231.3244393893616
 30
0.0
 40
19.5689967719935
100
AcDbArc
 50
324.7938115978598
 51
29.75172503460898
  0
ARC
  5
1179
102
{ACAD_REACTORS
330
136A
102
}
330
2
100
AcDbEntity
  8
KIJUN
100
AcDbCircle
 10
71.0850537215685
 20
238.5025301337456
 30
0.0
 40
26.45854331704414
100
AcDbArc
 50
326.6853018636165
 51
1.117180096661956
  0
ARC
  5
117B
102
{ACAD_REACTORS
330
136A
102
}
330
2
100
AcDbEntity
  8
KIJUN
100
AcDbCircle
 10
58.37252924491389
 20
236.4072922848909
 30
0.0
 40
6.696111152344174
100
AcDbArc
 50
22.95099575083473
 51
122.209014959534
  0
ARC
  5
117D
102
{ACAD_REACTORS
330
136A
102
}
330
2
100
AcDbEntity
  8
KIJUN
100
AcDbCircle
 10
90.99208139092269
 20
238.5025301337456
 30
0.0
 40
26.45854331704414
100
AcDbArc
 50
178.882819903338
 51
213.3146981363835
  0
ARC
  5
117E
102
{ACAD_REACTORS
330
136A
102
}
330
2
100
AcDbEntity
  8
KIJUN
100
AcDbCircle
 10
93.02805498875676
 20
231.3244393893616
 30
0.0
 40
19.5689967719935
100
AcDbArc
 50
150.248274965391
 51
215.2061884021402
  0
ARC
  5
1180
102
{ACAD_REACTORS
330
136A
102
}
330
2
100
AcDbEntity
  8
KIJUN
100
AcDbCircle
 10
103.826458228239
 20
228.235731092071
 30
0.0
 40
24.15135526794985
100
AcDbArc
 50
169.3443199332028
 51
199.3443199332027
  0
ARC
  5
1181
102
{ACAD_REACTORS
330
136A
102
}
330
2
100
AcDbEntity
  8
KIJUN
100
AcDbCircle
 10
69.80541569696737
 20
207.6039991127075
 30
0.0
 40
1.321304481641556
100
AcDbArc
 50
290.1791353314857
 51
21.04739870759903
  0
ARC
  5
1182
102
{ACAD_REACTORS
330
136A
102
}
330
2
100
AcDbEntity
  8
KIJUN
100
AcDbCircle
 10
74.84849237386033
 20
216.0883788935341
 30
0.0
 40
8.869789448065807
100
AcDbArc
 50
244.5616615572204
 51
314.2574018117682
  0
ARC
  5
1184
102
{ACAD_REACTORS
330
136A
102
}
330
2
100
AcDbEntity
  8
KIJUN
100
AcDbCircle
 10
87.80162433486674
 20
236.6657502762749
 30
0.0
 40
12.54844338701598
100
AcDbArc
 50
122.6125862372776
 51
159.6213201668829
  0
ARC
  5
1185
102
{ACAD_REACTORS
330
136A
102
}
330
2
100
AcDbEntity
  8
KIJUN
100
AcDbCircle
 10
56.28592494776393
 20
235.5429924857055
 30
0.0
 40
6.696111152344174
100
AcDbArc
 50
102.7909850404645
 51
202.049004249166
  0
ARC
  5
1186
102
{ACAD_REACTORS
330
136A
102
}
330
2
100
AcDbEntity
  8
KIJUN
100
AcDbCircle
 10
62.15025391061539
 20
229.850988783909
 30
0.0
 40
24.15135526794985
100
AcDbArc
 50
214.3443199332034
 51
244.3443199332036
  0
ARC
  5
1188
102
{ACAD_REACTORS
330
136A
102
}
330
2
100
AcDbEntity
  8
KIJUN
100
AcDbCircle
 10
52.33058317186936
 20
224.3994112094057
 30
0.0
 40
19.5689967719935
100
AcDbArc
 50
195.248274965393
 51
260.2061884021413
  0
ARC
  5
1189
102
{ACAD_REACTORS
330
136A
102
}
330
2
100
AcDbEntity
  8
KIJUN
100
AcDbCircle
 10
45.81525579319776
 20
228.0354371133869
 30
0.0
 40
26.45854331704414
100
AcDbArc
 50
223.8828199033389
 51
258.3146981363809
  0
ARC
  5
118C
102
{ACAD_REACTORS
330
136A
102
}
330
2
100
AcDbEntity
  8
KIJUN
100
AcDbCircle
 10
31.73886153492907
 20
213.9590428551183
 30
0.0
 40
26.45854331704414
100
AcDbArc
 50
11.6853018636189
 51
46.11718009665983
  0
ARC
  5
118D
102
{ACAD_REACTORS
330
136A
102
}
330
2
100
AcDbEntity
  8
KIJUN
100
AcDbCircle
 10
35.37488743891021
 20
207.4437154764467
 30
0.0
 40
19.5689967719935
100
AcDbArc
 50
9.793811597859338
 51
74.75172503460654
  0
ARC
  5
118F
102
{ACAD_REACTORS
330
136A
102
}
330
2
100
AcDbEntity
  8
KIJUN
100
AcDbCircle
 10
29.92330986440692
 20
197.6240447377007
 30
0.0
 40
24.15135526794985
100
AcDbArc
 50
25.65568006679655
 51
55.65568006679712
  0
ARC
  5
1190
102
{ACAD_REACTORS
330
136A
102
}
330
2
100
AcDbEntity
  8
KIJUN
100
AcDbCircle
 10
50.24921286303873
 20
200.7709975102389
 30
0.0
 40
8.869789448065807
100
AcDbArc
 50
289.5616615572218
 51
359.2574018117656
  0
ARC
  5
1191
102
{ACAD_REACTORS
330
136A
102
}
330
2
100
AcDbEntity
  8
KIJUN
100
AcDbCircle
 10
52.68258162394835
 20
191.2056413167798
 30
0.0
 40
1.321304481641556
100
AcDbArc
 50
335.1791353314834
 51
66.04739870760255
  0
ARC
  5
1192
102
{ACAD_REACTORS
330
136A
102
}
330
2
100
AcDbEntity
  8
KIJUN
100
AcDbCircle
 10
68.56865733153625
 20
207.0917170243676
 30
0.0
 40
1.321304481641556
100
AcDbArc
 50
203.9526012923971
 51
294.8208646685164
  0
ARC
  5
1193
102
{ACAD_REACTORS
330
136A
102
}
330
2
100
AcDbEntity
  8
KIJUN
100
AcDbCircle
 10
59.00330113807711
 20
209.5250857852772
 30
0.0
 40
8.869789448065807
100
AcDbArc
 50
270.7425981882344
 51
340.4383384427788
  0
ARC
  5
1194
102
{ACAD_REACTORS
330
136A
102
}
330
2
100
AcDbEntity
  8
KIJUN
100
AcDbCircle
 10
24.23130616261045
 20
203.4883737005521
 30
0.0
 40
6.696111152344174
100
AcDbArc
 50
67.95099575083447
 51
167.2090149595348
  0
ARC
  5
1195
102
{ACAD_REACTORS
330
136A
102
}
330
2
100
AcDbEntity
  8
KIJUN
100
AcDbCircle
 10
44.85806146654062
 20
224.4806438012009
 30
0.0
 40
12.54844338701598
100
AcDbArc
 50
167.6125862372823
 51
204.621320166887
  0
ARC
  5
1198
102
{ACAD_REACTORS
330
136A
102
}
330
2
100
AcDbEntity
  8
KIJUN
100
AcDbCircle
 10
35.29365484711519
 20
214.9162371817756
 30
0.0
 40
12.54844338701598
100
AcDbArc
 50
65.37867983311238
 51
102.3874137627179
  0
ARC
  5
1199
102
{ACAD_REACTORS
330
136A
102
}
330
2
100
AcDbEntity
  8
KIJUN
100
AcDbCircle
 10
23.36700636342511
 20
201.4017694034023
 30
0.0
 40
6.696111152344174
100
AcDbArc
 50
147.7909850404628
 51
247.0490042491657
  0
ARC
  5
119A
102
{ACAD_REACTORS
330
136A
102
}
330
2
100
AcDbEntity
  8
KIJUN
100
AcDbCircle
 10
31.53856755624514
 20
201.523621764064
 30
0.0
 40
24.15135526794985
100
AcDbArc
 50
259.3443199332026
 51
289.3443199332034
  0
ARC
  5
119C
102
{ACAD_REACTORS
330
136A
102
}
330
2
100
AcDbEntity
  8
KIJUN
100
AcDbCircle
 10
28.44985925895452
 20
190.7252185245817
 30
0.0
 40
19.5689967719935
100
AcDbArc
 50
240.248274965391
 51
305.2061884021412
  0
ARC
  5
119D
102
{ACAD_REACTORS
330
136A
102
}
330
2
100
AcDbEntity
  8
KIJUN
100
AcDbCircle
 10
21.27176851457051
 20
188.6892449267477
 30
0.0
 40
26.45854331704414
100
AcDbArc
 50
268.882819903338
 51
303.3146981363831
  0
ARC
  5
11A0
102
{ACAD_REACTORS
330
136A
102
}
330
2
100
AcDbEntity
  8
KIJUN
100
AcDbCircle
 10
21.27176851457051
 20
168.7822172573935
 30
0.0
 40
26.45854331704414
100
AcDbArc
 50
56.68530186361695
 51
91.11718009666192
  0
ARC
  5
11A1
102
{ACAD_REACTORS
330
136A
102
}
330
2
100
AcDbEntity
  8
KIJUN
100
AcDbCircle
 10
28.44985925895452
 20
166.7462436595594
 30
0.0
 40
19.5689967719935
100
AcDbArc
 50
54.7938115978588
 51
119.751725034609
  0
ARC
  5
11A3
102
{ACAD_REACTORS
330
136A
102
}
330
2
100
AcDbEntity
  8
KIJUN
100
AcDbCircle
 10
31.53856755624514
 20
155.9478404200771
 30
0.0
 40
24.15135526794985
100
AcDbArc
 50
70.65568006679659
 51
100.6556800667974
  0
ARC
  5
11A4
102
{ACAD_REACTORS
330
136A
102
}
330
2
100
AcDbEntity
  8
KIJUN
100
AcDbCircle
 10
43.6859197547821
 20
172.5456559096853
 30
0.0
 40
8.869789448065807
100
AcDbArc
 50
334.5616615572209
 51
44.25740181176769
  0
ARC
  5
11A5
102
{ACAD_REACTORS
330
136A
102
}
330
2
100
AcDbEntity
  8
KIJUN
100
AcDbCircle
 10
52.17029953560853
 20
167.5025792327923
 30
0.0
 40
1.321304481641556
100
AcDbArc
 50
20.17913533148637
 51
111.0473987075984
  0
ARC
  5
11A6
102
{ACAD_REACTORS
330
136A
102
}
330
2
100
AcDbEntity
  8
KIJUN
100
AcDbCircle
 10
52.17029953560853
 20
189.9688829513488
 30
0.0
 40
1.321304481641556
100
AcDbArc
 50
248.9526012924016
 51
339.8208646685136
  0
ARC
  5
11A7
102
{ACAD_REACTORS
330
136A
102
}
330
2
100
AcDbEntity
  8
KIJUN
100
AcDbCircle
 10
43.6859197547821
 20
184.9258062744558
 30
0.0
 40
8.869789448065807
100
AcDbArc
 50
315.7425981882323
 51
25.43833844277886
  0
ARC
  5
11A8
102
{ACAD_REACTORS
330
136A
102
}
330
2
100
AcDbEntity
  8
KIJUN
100
AcDbCircle
 10
23.36700636342511
 20
156.0696927807389
 30
0.0
 40
6.696111152344174
100
AcDbArc
 50
112.9509957508343
 51
212.2090149595338
  0
ARC
  5
11A9
102
{ACAD_REACTORS
330
136A
102
}
330
2
100
AcDbEntity
  8
KIJUN
100
AcDbCircle
 10
23.10854837204118
 20
185.4987878706917
 30
0.0
 40
12.54844338701598
100
AcDbArc
 50
212.6125862372778
 51
249.6213201668842
  0
ARC
  5
11AC
102
{ACAD_REACTORS
330
136A
102
}
330
2
100
AcDbEntity
  8
KIJUN
100
AcDbCircle
 10
23.10854837204118
 20
171.9726743134494
 30
0.0
 40
12.54844338701598
100
AcDbArc
 50
110.3786798331157
 51
147.387413762722
  0
ARC
  5
11AD
102
{ACAD_REACTORS
330
136A
102
}
330
2
100
AcDbEntity
  8
KIJUN
100
AcDbCircle
 10
24.23130616261068
 20
153.983088483589
 30
0.0
 40
6.696111152344174
100
AcDbArc
 50
192.790985040465
 51
292.0490042491655
  0
ARC
  5
11AE
102
{ACAD_REACTORS
330
136A
102
}
330
2
100
AcDbEntity
  8
KIJUN
100
AcDbCircle
 10
29.92330986440692
 20
159.8474174464402
 30
0.0
 40
24.15135526794985
100
AcDbArc
 50
304.3443199332028
 51
334.3443199332035
  0
ARC
  5
11B0
102
{ACAD_REACTORS
330
136A
102
}
330
2
100
AcDbEntity
  8
KIJUN
100
AcDbCircle
 10
35.37488743891021
 20
150.0277467076942
 30
0.0
 40
19.5689967719935
100
AcDbArc
 50
285.2482749653934
 51
350.2061884021405
  0
ARC
  5
11B1
102
{ACAD_REACTORS
330
136A
102
}
330
2
100
AcDbEntity
  8
KIJUN
100
AcDbCircle
 10
31.73886153492907
 20
143.5124193290227
 30
0.0
 40
26.45854331704414
100
AcDbArc
 50
313.8828199033402
 51
348.3146981363811
  0
ARC
  5
11B4
102
{ACAD_REACTORS
330
136A
102
}
330
2
100
AcDbEntity
  8
KIJUN
100
AcDbCircle
 10
45.81525579319776
 20
129.4360250707542
 30
0.0
 40
26.45854331704414
100
AcDbArc
 50
101.6853018636191
 51
136.1171800966611
  0
ARC
  5
11B5
102
{ACAD_REACTORS
330
136A
102
}
330
2
100
AcDbEntity
  8
KIJUN
100
AcDbCircle
 10
52.33058317186936
 20
133.0720509747353
 30
0.0
 40
19.5689967719935
100
AcDbArc
 50
99.79381159785873
 51
164.7517250346069
  0
ARC
  5
11B7
102
{ACAD_REACTORS
330
136A
102
}
330
2
100
AcDbEntity
  8
KIJUN
100
AcDbCircle
 10
62.15025391061539
 20
127.620473400232
 30
0.0
 40
24.15135526794985
100
AcDbArc
 50
115.6556800667963
 51
145.6556800667964
  0
ARC
  5
11B8
102
{ACAD_REACTORS
330
136A
102
}
330
2
100
AcDbEntity
  8
KIJUN
100
AcDbCircle
 10
59.00330113807711
 20
147.9463763988637
 30
0.0
 40
8.869789448065807
100
AcDbArc
 50
19.56166155722113
 51
89.25740181176559
  0
ARC
  5
11B9
102
{ACAD_REACTORS
330
136A
102
}
330
2
100
AcDbEntity
  8
KIJUN
100
AcDbCircle
 10
68.56865733153625
 20
150.3797451597734
 30
0.0
 40
1.321304481641556
100
AcDbArc
 50
65.17913533148358
 51
156.0473987076029
  0
ARC
  5
11BA
102
{ACAD_REACTORS
330
136A
102
}
330
2
100
AcDbEntity
  8
KIJUN
100
AcDbCircle
 10
52.68258162394857
 20
166.2658208673612
 30
0.0
 40
1.321304481641556
100
AcDbArc
 50
293.9526012923975
 51
24.82086466851658
  0
ARC
  5
11BB
102
{ACAD_REACTORS
330
136A
102
}
330
2
100
AcDbEntity
  8
KIJUN
100
AcDbCircle
 10
50.24921286303873
 20
156.700464673902
 30
0.0
 40
8.869789448065807
100
AcDbArc
 50
0.7425981882344136
 51
70.43833844277822
  0
ARC
  5
11BC
102
{ACAD_REACTORS
330
136A
102
}
330
2
100
AcDbEntity
  8
KIJUN
100
AcDbCircle
 10
56.28592494776416
 20
121.9284696984355
 30
0.0
 40
6.696111152344174
100
AcDbArc
 50
157.9509957508337
 51
257.2090149595354
  0
ARC
  5
11BD
102
{ACAD_REACTORS
330
136A
102
}
330
2
100
AcDbEntity
  8
KIJUN
100
AcDbCircle
 10
35.29365484711519
 20
142.5552250023654
 30
0.0
 40
12.54844338701598
100
AcDbArc
 50
257.6125862372821
 51
294.6213201668876
  0
ARC
  5
11C0
102
{ACAD_REACTORS
330
136A
102
}
330
2
100
AcDbEntity
  8
KIJUN
100
AcDbCircle
 10
44.85806146654062
 20
132.9908183829402
 30
0.0
 40
12.54844338701598
100
AcDbArc
 50
155.378679833113
 51
192.3874137627177
  0
ARC
  5
11C1
102
{ACAD_REACTORS
330
136A
102
}
330
2
100
AcDbEntity
  8
KIJUN
100
AcDbCircle
 10
58.37252924491389
 20
121.0641698992501
 30
0.0
 40
6.696111152344174
100
AcDbArc
 50
237.7909850404622
 51
337.0490042491653
  0
ARC
  5
11C2
102
{ACAD_REACTORS
330
136A
102
}
330
2
100
AcDbEntity
  8
KIJUN
100
AcDbCircle
 10
58.25067688425218
 20
129.2357310920701
 30
0.0
 40
24.15135526794985
100
AcDbArc
 50
349.3443199332028
 51
19.34431993320279
  0
ARC
  5
11C4
102
{ACAD_REACTORS
330
136A
102
}
330
2
100
AcDbEntity
  8
KIJUN
100
AcDbCircle
 10
69.04908012373443
 20
126.1470227947795
 30
0.0
 40
19.5689967719935
100
AcDbArc
 50
330.2482749653908
 51
35.20618840214022
  0
ARC
  5
11C5
102
{ACAD_REACTORS
330
136A
102
}
330
2
100
AcDbEntity
  8
KIJUN
100
AcDbCircle
 10
71.0850537215685
 20
118.9689320503955
 30
0.0
 40
26.45854331704414
100
AcDbArc
 50
358.882819903338
 51
33.31469813638346
  0
ARC
  5
11C8
102
{ACAD_REACTORS
330
136A
102
}
330
2
100
AcDbEntity
  8
KIJUN
100
AcDbCircle
 10
90.99208139092269
 20
118.9689320503955
 30
0.0
 40
26.45854331704414
100
AcDbArc
 50
146.6853018636165
 51
181.117180096662
  0
ARC
  5
11C9
102
{ACAD_REACTORS
330
136A
102
}
330
2
100
AcDbEntity
  8
KIJUN
100
AcDbCircle
 10
93.02805498875676
 20
126.1470227947795
 30
0.0
 40
19.5689967719935
100
AcDbArc
 50
144.7938115978598
 51
209.751725034609
  0
ARC
  5
11CB
102
{ACAD_REACTORS
330
136A
102
}
330
2
100
AcDbEntity
  8
KIJUN
100
AcDbCircle
 10
103.826458228239
 20
129.23573109207
 30
0.0
 40
24.15135526794985
100
AcDbArc
 50
160.6556800667972
 51
190.6556800667972
  0
ARC
  5
11CC
102
{ACAD_REACTORS
330
136A
102
}
330
2
100
AcDbEntity
  8
KIJUN
100
AcDbCircle
 10
87.22864273863109
 20
141.383083290607
 30
0.0
 40
8.869789448065807
100
AcDbArc
 50
64.56166155722044
 51
134.2574018117681
  0
ARC
  5
11CD
102
{ACAD_REACTORS
330
136A
102
}
330
2
100
AcDbEntity
  8
KIJUN
100
AcDbCircle
 10
92.27171941552404
 20
149.8674630714335
 30
0.0
 40
1.321304481641556
100
AcDbArc
 50
110.1791353314857
 51
201.047398707599
  0
ARC
  5
11CE
102
{ACAD_REACTORS
330
136A
102
}
330
2
100
AcDbEntity
  8
KIJUN
100
AcDbCircle
 10
69.8054156969676
 20
149.8674630714335
 30
0.0
 40
1.321304481641556
100
AcDbArc
 50
338.952601292401
 51
69.82086466851426
  0
ARC
  5
11CF
102
{ACAD_REACTORS
330
136A
102
}
330
2
100
AcDbEntity
  8
KIJUN
100
AcDbCircle
 10
74.84849237386055
 20
141.383083290607
 30
0.0
 40
8.869789448065807
100
AcDbArc
 50
45.7425981882318
 51
115.4383384427795
  0
ARC
  5
11D0
102
{ACAD_REACTORS
330
136A
102
}
330
2
100
AcDbEntity
  8
KIJUN
100
AcDbCircle
 10
103.7046058675773
 20
121.0641698992499
 30
0.0
 40
6.696111152344174
100
AcDbArc
 50
202.9509957508347
 51
302.209014959534
  0
ARC
  5
11D1
102
{ACAD_REACTORS
330
136A
102
}
330
2
100
AcDbEntity
  8
KIJUN
100
AcDbCircle
 10
74.27551077762444
 20
120.8057119078661
 30
0.0
 40
12.54844338701598
100
AcDbArc
 50
302.6125862372776
 51
339.621320166883
  0
ARC
  5
11D4
102
{ACAD_REACTORS
330
136A
102
}
330
2
100
AcDbEntity
  8
KIJUN
100
AcDbCircle
 10
87.80162433486674
 20
120.8057119078661
 30
0.0
 40
12.54844338701598
100
AcDbArc
 50
200.3786798331168
 51
237.3874137627185
  0
ARC
  5
11D5
102
{ACAD_REACTORS
330
136A
102
}
330
2
100
AcDbEntity
  8
KIJUN
100
AcDbCircle
 10
105.7912101647266
 20
121.9284696984355
 30
0.0
 40
6.696111152344174
100
AcDbArc
 50
282.7909850404646
 51
22.04900424916604
  0
ARC
  5
11D6
102
{ACAD_REACTORS
330
136A
102
}
330
2
100
AcDbEntity
  8
KIJUN
100
AcDbCircle
 10
99.92688120187512
 20
127.6204734002319
 30
0.0
 40
24.15135526794985
100
AcDbArc
 50
34.34431993320357
 51
64.34431993320368
  0
ARC
  5
11D8
102
{ACAD_REACTORS
330
136A
102
}
330
2
100
AcDbEntity
  8
KIJUN
100
AcDbCircle
 10
109.7465519406211
 20
133.0720509747352
 30
0.0
 40
19.5689967719935
100
AcDbArc
 50
15.24827496539303
 51
80.20618840214128
  0
ARC
  5
11D9
102
{ACAD_REACTORS
330
136A
102
}
330
2
100
AcDbEntity
  8
KIJUN
100
AcDbCircle
 10
116.2618793192927
 20
129.4360250707542
 30
0.0
 40
26.45854331704414
100
AcDbArc
 50
43.88281990333885
 51
78.31469813638088
  0
ARC
  5
11DC
102
{ACAD_REACTORS
330
136A
102
}
330
2
100
AcDbEntity
  8
KIJUN
100
AcDbCircle
 10
130.3382735775614
 20
143.5124193290227
 30
0.0
 40
26.45854331704414
100
AcDbArc
 50
191.6853018636189
 51
226.1171800966597
  0
ARC
  5
11DD
102
{ACAD_REACTORS
330
136A
102
}
330
2
100
AcDbEntity
  8
KIJUN
100
AcDbCircle
 10
126.7022476735803
 20
150.0277467076942
 30
0.0
 40
19.5689967719935
100
AcDbArc
 50
189.7938115978593
 51
254.7517250346065
  0
ARC
  5
11DF
102
{ACAD_REACTORS
330
136A
102
}
330
2
100
AcDbEntity
  8
KIJUN
100
AcDbCircle
 10
132.1538252480836
 20
159.8474174464402
 30
0.0
 40
24.15135526794985
100
AcDbArc
 50
205.6556800667965
 51
235.6556800667971
  0
ARC
  5
11E0
102
{ACAD_REACTORS
330
136A
102
}
330
2
100
AcDbEntity
  8
KIJUN
100
AcDbCircle
 10
111.827922249452
 20
156.700464673902
 30
0.0
 40
8.869789448065807
100
AcDbArc
 50
109.5616615572218
 51
179.2574018117656
  0
ARC
  5
11E1
102
{ACAD_REACTORS
330
136A
102
}
330
2
100
AcDbEntity
  8
KIJUN
100
AcDbCircle
 10
109.3945534885421
 20
166.2658208673612
 30
0.0
 40
1.321304481641556
100
AcDbArc
 50
155.1791353314834
 51
246.0473987076026
  0
ARC
  5
11E2
102
{ACAD_REACTORS
330
136A
102
}
330
2
100
AcDbEntity
  8
KIJUN
100
AcDbCircle
 10
93.50847778095426
 20
150.3797451597734
 30
0.0
 40
1.321304481641556
100
AcDbArc
 50
23.95260129239709
 51
114.8208646685164
  0
ARC
  5
11E3
102
{ACAD_REACTORS
330
136A
102
}
330
2
100
AcDbEntity
  8
KIJUN
100
AcDbCircle
 10
103.0738339744136
 20
147.9463763988636
 30
0.0
 40
8.869789448065807
100
AcDbArc
 50
90.7425981882344
 51
160.4383384427789
  0
ARC
  5
11E4
102
{ACAD_REACTORS
330
136A
102
}
330
2
100
AcDbEntity
  8
KIJUN
100
AcDbCircle
 10
137.84582894988
 20
153.983088483589
 30
0.0
 40
6.696111152344174
100
AcDbArc
 50
247.9509957508343
 51
347.209014959535
  0
ARC
  5
11E5
102
{ACAD_REACTORS
330
136A
102
}
330
2
100
AcDbEntity
  8
KIJUN
100
AcDbCircle
 10
117.2190736459501
 20
132.9908183829402
 30
0.0
 40
12.54844338701598
100
AcDbArc
 50
347.6125862372823
 51
24.62132016688698
  0
ARC
  5
11E8
102
{ACAD_REACTORS
330
136A
102
}
330
2
100
AcDbEntity
  8
KIJUN
100
AcDbCircle
 10
126.7834802653753
 20
142.5552250023654
 30
0.0
 40
12.54844338701598
100
AcDbArc
 50
245.3786798331123
 51
282.3874137627178
  0
ARC
  5
11E9
102
{ACAD_REACTORS
330
136A
102
}
330
2
100
AcDbEntity
  8
KIJUN
100
AcDbCircle
 10
138.7101287490658
 20
156.0696927807387
 30
0.0
 40
6.696111152344174
100
AcDbArc
 50
327.7909850404628
 51
67.04900424916569
  0
ARC
  5
11EA
102
{ACAD_REACTORS
330
136A
102
}
330
2
100
AcDbEntity
  8
KIJUN
100
AcDbCircle
 10
130.5385675562458
 20
155.947840420077
 30
0.0
 40
24.15135526794985
100
AcDbArc
 50
79.34431993320261
 51
109.3443199332034
  0
ARC
  5
11EC
102
{ACAD_REACTORS
330
136A
102
}
330
2
100
AcDbEntity
  8
KIJUN
100
AcDbCircle
 10
133.6272758535364
 20
166.7462436595593
 30
0.0
 40
19.5689967719935
100
AcDbArc
 50
60.24827496539097
 51
125.2061884021411
  0
ARC
  5
11ED
102
{ACAD_REACTORS
330
136A
102
}
330
2
100
AcDbEntity
  8
KIJUN
100
AcDbCircle
 10
140.8053665979204
 20
168.7822172573933
 30
0.0
 40
26.45854331704414
100
AcDbArc
 50
88.88281990333805
 51
123.314698136383
  0
ARC
  5
11F0
102
{ACAD_REACTORS
330
136A
102
}
330
2
100
AcDbEntity
  8
KIJUN
100
AcDbCircle
 10
140.8053665979204
 20
188.6892449267475
 30
0.0
 40
26.45854331704414
100
AcDbArc
 50
236.6853018636152
 51
271.117180096662
  0
ARC
  5
11F1
102
{ACAD_REACTORS
330
136A
102
}
330
2
100
AcDbEntity
  8
KIJUN
100
AcDbCircle
 10
133.6272758535364
 20
190.7252185245816
 30
0.0
 40
19.5689967719935
100
AcDbArc
 50
234.7938115978588
 51
299.7517250346089
  0
ARC
  5
11F3
102
{ACAD_REACTORS
330
136A
102
}
330
2
100
AcDbEntity
  8
KIJUN
100
AcDbCircle
 10
130.5385675562458
 20
201.5236217640639
 30
0.0
 40
24.15135526794985
100
AcDbArc
 50
250.6556800667965
 51
280.6556800667974
  0
ARC
  5
11F4
102
{ACAD_REACTORS
330
136A
102
}
330
2
100
AcDbEntity
  8
KIJUN
100
AcDbCircle
 10
118.3912153577091
 20
184.9258062744557
 30
0.0
 40
8.869789448065807
100
AcDbArc
 50
154.5616615572211
 51
224.2574018117677
  0
ARC
  5
11F5
102
{ACAD_REACTORS
330
136A
102
}
330
2
100
AcDbEntity
  8
KIJUN
100
AcDbCircle
 10
109.9068355768824
 20
189.9688829513486
 30
0.0
 40
1.321304481641556
100
AcDbArc
 50
200.1791353314864
 51
291.0473987075984
  0
ARC
  5
11F6
102
{ACAD_REACTORS
330
136A
102
}
330
2
100
AcDbEntity
  8
KIJUN
100
AcDbCircle
 10
109.9068355768824
 20
167.5025792327922
 30
0.0
 40
1.321304481641556
100
AcDbArc
 50
68.95260129240161
 51
159.8208646685136
  0
ARC
  5
11F7
102
{ACAD_REACTORS
330
136A
102
}
330
2
100
AcDbEntity
  8
KIJUN
100
AcDbCircle
 10
118.3912153577091
 20
172.5456559096852
 30
0.0
 40
8.869789448065807
100
AcDbArc
 50
135.7425981882323
 51
205.4383384427788
  0
ARC
  5
11F8
102
{ACAD_REACTORS
330
136A
102
}
330
2
100
AcDbEntity
  8
KIJUN
100
AcDbCircle
 10
138.7101287490658
 20
201.4017694034022
 30
0.0
 40
6.696111152344174
100
AcDbArc
 50
292.9509957508342
 51
32.20901495953383
  0
ARC
  5
11F9
102
{ACAD_REACTORS
330
136A
102
}
330
2
100
AcDbEntity
  8
KIJUN
100
AcDbCircle
 10
138.9685867404498
 20
171.9726743134493
 30
0.0
 40
12.54844338701598
100
AcDbArc
 50
32.61258623727778
 51
69.62132016688427
  0
ARC
  5
11FC
102
{ACAD_REACTORS
330
136A
102
}
330
2
100
AcDbEntity
  8
KIJUN
100
AcDbCircle
 10
138.9685867404498
 20
185.4987878706916
 30
0.0
 40
12.54844338701598
100
AcDbArc
 50
290.3786798331157
 51
327.3874137627188
  0
ARC
  5
11FD
102
{ACAD_REACTORS
330
136A
102
}
330
2
100
AcDbEntity
  8
KIJUN
100
AcDbCircle
 10
137.8458289498805
 20
203.4883737005521
 30
0.0
 40
6.696111152344174
100
AcDbArc
 50
12.79098504046499
 51
112.0490042491655
  0
ARC
  5
11FE
102
{ACAD_REACTORS
330
136A
102
}
330
2
100
AcDbEntity
  8
KIJUN
100
AcDbCircle
 10
132.1538252480843
 20
197.6240447377009
 30
0.0
 40
24.15135526794985
100
AcDbArc
 50
124.3443199332028
 51
154.3443199332034
  0
ARC
  5
1200
102
{ACAD_REACTORS
330
136A
102
}
330
2
100
AcDbEntity
  8
KIJUN
100
AcDbCircle
 10
126.702247673581
 20
207.4437154764469
 30
0.0
 40
19.5689967719935
100
AcDbArc
 50
105.2482749653934
 51
170.2061884021406
  0
ARC
  5
1201
102
{ACAD_REACTORS
330
136A
102
}
330
2
100
AcDbEntity
  8
KIJUN
100
AcDbCircle
 10
130.3382735775621
 20
213.9590428551184
 30
0.0
 40
26.45854331704414
100
AcDbArc
 50
133.8828199033401
 51
168.3146981363811
  0
ARC
  5
1204
102
{ACAD_REACTORS
330
136A
102
}
330
2
100
AcDbEntity
  8
KIJUN
100
AcDbCircle
 10
116.2618793192934
 20
228.035437113387
 30
0.0
 40
26.45854331704414
100
AcDbArc
 50
281.6853018636191
 51
316.1171800966612
  0
ARC
  5
1205
102
{ACAD_REACTORS
330
136A
102
}
330
2
100
AcDbEntity
  8
KIJUN
100
AcDbCircle
 10
109.7465519406218
 20
224.3994112094059
 30
0.0
 40
19.5689967719935
100
AcDbArc
 50
279.7938115978587
 51
344.751725034607
  0
ARC
  5
1207
102
{ACAD_REACTORS
330
136A
102
}
330
2
100
AcDbEntity
  8
KIJUN
100
AcDbCircle
 10
99.9268812018758
 20
229.8509887839094
 30
0.0
 40
24.15135526794985
100
AcDbArc
 50
295.6556800667963
 51
325.6556800667965
  0
ARC
  5
1208
102
{ACAD_REACTORS
330
136A
102
}
330
2
100
AcDbEntity
  8
KIJUN
100
AcDbCircle
 10
103.073833974414
 20
209.5250857852775
 30
0.0
 40
8.869789448065807
100
AcDbArc
 50
199.5616615572211
 51
269.2574018117656
  0
ARC
  5
1209
102
{ACAD_REACTORS
330
136A
102
}
330
2
100
AcDbEntity
  8
KIJUN
100
AcDbCircle
 10
93.50847778095493
 20
207.0917170243677
 30
0.0
 40
1.321304481641556
100
AcDbArc
 50
245.1791353314836
 51
336.047398707603
  0
ARC
  5
120A
102
{ACAD_REACTORS
330
136A
102
}
330
2
100
AcDbEntity
  8
KIJUN
100
AcDbCircle
 10
109.3945534885426
 20
191.2056413167799
 30
0.0
 40
1.321304481641556
100
AcDbArc
 50
113.9526012923974
 51
204.8208646685166
  0
ARC
  5
120B
102
{ACAD_REACTORS
330
136A
102
}
330
2
100
AcDbEntity
  8
KIJUN
100
AcDbCircle
 10
111.8279222494524
 20
200.7709975102392
 30
0.0
 40
8.869789448065807
100
AcDbArc
 50
180.7425981882344
 51
250.4383384427782
  0
ARC
  5
120C
102
{ACAD_REACTORS
330
136A
102
}
330
2
100
AcDbEntity
  8
KIJUN
100
AcDbCircle
 10
105.791210164727
 20
235.5429924857057
 30
0.0
 40
6.696111152344174
100
AcDbArc
 50
337.950995750834
 51
77.20901495953544
  0
ARC
  5
120D
102
{ACAD_REACTORS
330
136A
102
}
330
2
100
AcDbEntity
  8
KIJUN
100
AcDbCircle
 10
126.783480265376
 20
214.9162371817757
 30
0.0
 40
12.54844338701598
100
AcDbArc
 50
77.61258623728211
 51
114.6213201668876
  0
ARC
  5
1210
102
{ACAD_REACTORS
330
136A
102
}
330
2
100
AcDbEntity
  8
KIJUN
100
AcDbCircle
 10
117.2190736459505
 20
224.480643801201
 30
0.0
 40
12.54844338701598
100
AcDbArc
 50
335.378679833113
 51
12.38741376271768
  0
ARC
  5
1211
102
{ACAD_REACTORS
330
136A
102
}
330
2
100
AcDbEntity
  8
KIJUN
100
AcDbCircle
 10
86.74647505818546
 20
267.2105287438842
 30
0.0
 40
12.37038364598895
100
AcDbArc
 50
198.4548741133916
 51
242.52140677795
  0
ARC
  5
1212
102
{ACAD_REACTORS
330
136A
102
}
330
2
100
AcDbEntity
  8
KIJUN
100
AcDbCircle
 10
81.0385675562456
 20
178.7357310920707
 30
0.0
 40
77.5
100
AcDbArc
 50
102.3079149001884
 51
255.2840796327571
  0
LINE
  5
1213
102
{ACAD_REACTORS
330
136A
102
}
330
2
100
AcDbEntity
  8
KIJUN
100
AcDbLine
 10
80.83943164555847
 20
75.44348706690851
 30
0.0
 11
80.83943164555847
 21
80.23573109207069
 31
0.0
  0
ARC
  5
1214
102
{ACAD_REACTORS
330
136A
102
}
330
2
100
AcDbEntity
  8
KIJUN
100
AcDbCircle
 10
80.83943164555847
 20
83.23573109207069
 30
0.0
 40
3.0
100
AcDbArc
 50
44.99999999999964
 51
90.0
  0
ARC
  5
1215
102
{ACAD_REACTORS
330
136A
102
}
330
2
100
AcDbEntity
  8
KIJUN
100
AcDbCircle
 10
83.51199804895026
 20
89.74293044389998
 30
0.0
 40
2.965459659647967
100
AcDbArc
 50
338.8851289672185
 51
154.3204508142014
  0
ARC
  5
1216
102
{ACAD_REACTORS
330
136A
102
}
330
2
100
AcDbEntity
  8
KIJUN
100
AcDbCircle
 10
87.34663099738776
 20
85.90829749546248
 30
0.0
 40
2.965459659647967
100
AcDbArc
 50
295.6795491857994
 51
111.1148710327808
  0
ARC
  5
1217
102
{ACAD_REACTORS
330
136A
102
}
330
2
100
AcDbEntity
  8
KIJUN
100
AcDbCircle
 10
80.8394316455587
 20
83.23573109207069
 30
0.0
 40
3.0
100
AcDbArc
 50
0.0000000000065138
 51
45.00000000000885
  0
LINE
  5
1218
102
{ACAD_REACTORS
330
136A
102
}
330
2
100
AcDbEntity
  8
KIJUN
100
AcDbLine
 10
86.27835694507069
 20
88.67465639158245
 30
0.0
 11
82.96075198911848
 21
85.35705143563024
 31
0.0
  0
LINE
  5
1219
102
{ACAD_REACTORS
330
136A
102
}
330
2
100
AcDbEntity
  8
KIJUN
100
AcDbLine
 10
86.27835694507069
 20
77.79680579255892
 30
0.0
 11
82.96075198911848
 21
81.11441074851114
 31
0.0
  0
ARC
  5
121A
102
{ACAD_REACTORS
330
136A
102
}
330
2
100
AcDbEntity
  8
KIJUN
100
AcDbCircle
 10
80.8394316455587
 20
83.23573109207069
 30
0.0
 40
3.0
100
AcDbArc
 50
314.9999999999911
 51
359.9999999999935
  0
ARC
  5
121B
102
{ACAD_REACTORS
330
136A
102
}
330
2
100
AcDbEntity
  8
KIJUN
100
AcDbCircle
 10
87.34663099738776
 20
80.5631646886789
 30
0.0
 40
2.965459659647967
100
AcDbArc
 50
248.8851289672191
 51
64.32045081420054
  0
ARC
  5
121C
102
{ACAD_REACTORS
330
136A
102
}
330
2
100
AcDbEntity
  8
KIJUN
100
AcDbCircle
 10
83.51199804895026
 20
76.7285317402414
 30
0.0
 40
2.965459659647967
100
AcDbArc
 50
205.6795491857986
 51
21.11487103278147
  0
ARC
  5
121D
102
{ACAD_REACTORS
330
136A
102
}
330
2
100
AcDbEntity
  8
KIJUN
100
AcDbCircle
 10
80.83943164555847
 20
83.23573109207069
 30
0.0
 40
3.0
100
AcDbArc
 50
270.0
 51
315.0000000000003
  0
ARC
  5
121E
102
{ACAD_REACTORS
330
136A
102
}
330
2
100
AcDbEntity
  8
KIJUN
100
AcDbCircle
 10
74.33223229372919
 20
80.5631646886789
 30
0.0
 40
2.965459659647967
100
AcDbArc
 50
115.6795491857994
 51
291.1148710327808
  0
ARC
  5
121F
102
{ACAD_REACTORS
330
136A
102
}
330
2
100
AcDbEntity
  8
KIJUN
100
AcDbCircle
 10
80.83943164555824
 20
83.23573109207069
 30
0.0
 40
3.0
100
AcDbArc
 50
180.0000000000065
 51
225.0000000000088
  0
ARC
  5
1220
102
{ACAD_REACTORS
330
136A
102
}
330
2
100
AcDbEntity
  8
KIJUN
100
AcDbCircle
 10
80.83943164555847
 20
83.23573109207069
 30
0.0
 40
3.0
100
AcDbArc
 50
224.9999999999996
 51
270.0
  0
ARC
  5
1221
102
{ACAD_REACTORS
330
136A
102
}
330
2
100
AcDbEntity
  8
KIJUN
100
AcDbCircle
 10
78.16686524216669
 20
76.7285317402414
 30
0.0
 40
2.965459659647967
100
AcDbArc
 50
158.8851289672185
 51
334.3204508142014
  0
LINE
  5
1222
102
{ACAD_REACTORS
330
136A
102
}
330
2
100
AcDbEntity
  8
KIJUN
100
AcDbLine
 10
75.40050634604625
 20
77.79680579255892
 30
0.0
 11
78.71811130199848
 21
81.11441074851114
 31
0.0
  0
LINE
  5
1223
102
{ACAD_REACTORS
330
136A
102
}
330
2
100
AcDbEntity
  8
KIJUN
100
AcDbLine
 10
75.40050634604625
 20
88.67465639158245
 30
0.0
 11
78.71811130199848
 21
85.35705143563024
 31
0.0
  0
ARC
  5
1224
102
{ACAD_REACTORS
330
136A
102
}
330
2
100
AcDbEntity
  8
KIJUN
100
AcDbCircle
 10
80.83943164555824
 20
83.23573109207069
 30
0.0
 40
3.0
100
AcDbArc
 50
134.9999999999911
 51
179.9999999999935
  0
ARC
  5
1225
102
{ACAD_REACTORS
330
136A
102
}
330
2
100
AcDbEntity
  8
KIJUN
100
AcDbCircle
 10
74.33223229372919
 20
85.90829749546248
 30
0.0
 40
2.965459659647967
100
AcDbArc
 50
68.88512896721917
 51
244.3204508142005
  0
ARC
  5
1226
102
{ACAD_REACTORS
330
136A
102
}
330
2
100
AcDbEntity
  8
KIJUN
100
AcDbCircle
 10
78.16686524216669
 20
89.74293044389998
 30
0.0
 40
2.965459659647967
100
AcDbArc
 50
25.67954918579855
 51
201.1148710327815
  0
ARC
  5
1227
102
{ACAD_REACTORS
330
136A
102
}
330
2
100
AcDbEntity
  8
KIJUN
100
AcDbCircle
 10
80.83943164555847
 20
83.23573109207069
 30
0.0
 40
3.0
100
AcDbArc
 50
90.0
 51
135.0000000000003
  0
LINE
  5
1228
102
{ACAD_REACTORS
330
136A
102
}
330
2
100
AcDbEntity
  8
KIJUN
100
AcDbLine
 10
73.04718762039641
 20
83.23573109207069
 30
0.0
 11
77.83943164555825
 21
83.23573109207069
 31
0.0
  0
LINE
  5
1229
102
{ACAD_REACTORS
330
136A
102
}
330
2
100
AcDbEntity
  8
KIJUN
100
AcDbLine
 10
83.83943164555871
 20
83.23573109207069
 30
0.0
 11
88.63167567072053
 21
83.23573109207069
 31
0.0
  0
LINE
  5
122A
102
{ACAD_REACTORS
330
136A
102
}
330
2
100
AcDbEntity
  8
KIJUN
100
AcDbLine
 10
80.83943164555847
 20
86.2357310920707
 30
0.0
 11
80.83943164555847
 21
91.02797511723276
 31
0.0
  0
ARC
  5
122D
102
{ACAD_REACTORS
330
136A
102
}
330
2
100
AcDbEntity
  8
KIJUN
100
AcDbCircle
 10
60.08136459693123
 20
98.94196163528892
 30
0.0
 40
5.0
100
AcDbArc
 50
351.8362728954592
 51
75.28407963275043
  0
LINE
  5
122F
102
{ACAD_REACTORS
330
136A
102
}
330
2
100
AcDbEntity
  8
KIJUN
100
AcDbLine
 10
82.01185676583184
 20
327.1951373962793
 30
0.0
 11
82.03679844590732
 21
288.5818349547835
 31
0.0
  0
ARC
  5
1231
102
{ACAD_REACTORS
330
136A
102
}
330
2
100
AcDbEntity
  8
KIJUN
100
AcDbCircle
 10
112.6739487830354
 20
299.8416279632023
 30
0.0
 40
6.538099052385336
100
AcDbArc
 50
300.9718771103149
 51
77.95276730573873
  0
ARC
  5
1232
102
{ACAD_REACTORS
330
136A
102
}
330
2
100
AcDbEntity
  8
KIJUN
100
AcDbCircle
 10
105.9662128303673
 20
277.6751400475485
 30
0.0
 40
14.85314804948898
100
AcDbArc
 50
122.2581642068949
 51
245.3225208149882
  0
ARC
  5
1235
102
{ACAD_REACTORS
330
136A
102
}
330
2
100
AcDbEntity
  8
KIJUN
100
AcDbCircle
 10
101.3553238781368
 20
285.525323636721
 30
0.0
 40
5.760973085705242
100
AcDbArc
 50
249.19822555288
 51
125.1506646050448
  0
ARC
  5
1236
102
{ACAD_REACTORS
330
136A
102
}
330
2
100
AcDbEntity
  8
KIJUN
100
AcDbCircle
 10
106.9828781226817
 20
284.6176169648865
 30
0.0
 40
10.56238125873748
100
AcDbArc
 50
147.8661851856224
 51
259.3925702756944
  0
ARC
  5
1237
102
{ACAD_REACTORS
330
136A
102
}
330
2
100
AcDbEntity
  8
KIJUN
100
AcDbCircle
 10
105.4636140908166
 20
287.0269554980566
 30
0.0
 40
12.79828450851289
100
AcDbArc
 50
268.0967877660492
 51
34.28162474800048
  0
ARC
  5
1238
102
{ACAD_REACTORS
330
136A
102
}
330
2
100
AcDbEntity
  8
KIJUN
100
AcDbCircle
 10
75.33066005430573
 20
267.2105287438842
 30
0.0
 40
12.37038364598895
100
AcDbArc
 50
297.4785932220499
 51
341.5451258866084
  0
ARC
  5
123A
102
{ACAD_REACTORS
330
136A
102
}
330
2
100
AcDbEntity
  8
KIJUN
100
AcDbCircle
 10
95.40965450771267
 20
318.9212745678042
 30
0.0
 40
5.351539943879082
100
AcDbArc
 50
329.8790993980319
 51
83.25100295612138
  0
ARC
  5
123B
102
{ACAD_REACTORS
330
136A
102
}
330
2
100
AcDbEntity
  8
KIJUN
100
AcDbCircle
 10
109.0703932904759
 20
308.0396315116308
 30
0.0
 40
5.285528569475902
100
AcDbArc
 50
340.0444852842255
 51
79.44527730966339
  0
ARC
  5
123C
102
{ACAD_REACTORS
330
136A
102
}
330
2
100
AcDbEntity
  8
KIJUN
100
AcDbCircle
 10
103.0606844549929
 20
308.1427874212236
 30
0.0
 40
8.638803609827441
100
AcDbArc
 50
36.12456406043114
 51
110.4769474716021
  0
LINE
  5
123D
102
{ACAD_REACTORS
330
136A
102
}
330
2
100
AcDbEntity
  8
KIJUN
100
AcDbLine
 10
81.0385675562456
 20
330.7948710294032
 30
0.0
 11
82.01185676583184
 21
327.1951373962793
 31
0.0
  0
ARC
  5
1240
102
{ACAD_REACTORS
330
136A
102
}
330
2
100
AcDbEntity
  8
KIJUN
100
AcDbCircle
 10
91.01415975879007
 20
324.2113232946151
 30
0.0
 40
5.024467081761912
100
AcDbArc
 50
0.278331862642337
 51
89.72166813735766
  0
ARC
  5
1241
102
{ACAD_REACTORS
330
136A
102
}
330
2
100
AcDbEntity
  8
KIJUN
100
AcDbCircle
 10
77.7312617575962
 20
328.3129762598628
 30
0.0
 40
13.33926025306996
100
AcDbArc
 50
3.966652865378478
 51
75.64448931915179
  0
ARC
  5
1244
102
{ACAD_REACTORS
330
136A
102
}
330
2
100
AcDbEntity
  8
KIJUN
100
AcDbCircle
 10
101.9957705155599
 20
98.94196163528892
 30
0.0
 40
5.0
100
AcDbArc
 50
104.7159203672495
 51
188.1637271045408
  0
ARC
  5
1245
102
{ACAD_REACTORS
330
136A
102
}
330
2
100
AcDbEntity
  8
KIJUN
100
AcDbCircle
 10
84.87991814362652
 20
178.3002777597289
 30
0.0
 40
87.15864941261905
100
AcDbArc
 50
286.7385122448055
 51
80.16682462683542
  0
ARC
  5
1246
102
{ACAD_REACTORS
330
136A
102
}
330
2
100
AcDbEntity
  8
KIJUN
100
AcDbCircle
 10
81.0385675562456
 20
178.7357310920707
 30
0.0
 40
77.5
100
AcDbArc
 50
284.7159203672428
 51
77.69208509981159
  0
ARC
  5
1249
102
{ACAD_REACTORS
330
136A
102
}
330
2
100
AcDbEntity
  8
KIJUN
100
AcDbCircle
 10
128.1084496974406
 20
87.69925329472213
 30
0.0
 40
63.95108040197798
100
AcDbArc
 50
170.520234550975
 51
190.216035854311
  0
ARC
  5
124A
102
{ACAD_REACTORS
330
136A
102
}
330
2
100
AcDbEntity
  8
KIJUN
100
AcDbCircle
 10
90.80868914481426
 20
82.01402782791168
 30
0.0
 40
26.25417437697841
100
AcDbArc
 50
192.4434674779767
 51
214.9719910940422
  0
ARC
  5
124B
102
{ACAD_REACTORS
330
136A
102
}
330
2
100
AcDbEntity
  8
KIJUN
100
AcDbCircle
 10
82.50917346581582
 20
105.6897525388865
 30
0.0
 40
42.45168417808981
100
AcDbArc
 50
257.0671656715225
 51
268.0147696040362
  0
ARC
  5
124C
102
{ACAD_REACTORS
330
136A
102
}
330
2
100
AcDbEntity
  8
KIJUN
100
AcDbCircle
 10
74.49971313984838
 20
70.32990310674122
 30
0.0
 40
6.197151285535654
100
AcDbArc
 50
212.8779992865774
 51
256.0727045147987
  0
ARC
  5
124D
102
{ACAD_REACTORS
330
136A
102
}
330
2
100
AcDbEntity
  8
KIJUN
100
AcDbCircle
 10
155.892302745668
 20
91.05722573715727
 30
0.0
 40
103.86585973725
100
AcDbArc
 50
177.9158089769391
 51
188.8788740243714
  0
ARC
  5
124E
102
{ACAD_REACTORS
330
136A
102
}
330
2
100
AcDbEntity
  8
KIJUN
100
AcDbCircle
 10
83.02674430351515
 20
108.207618875855
 30
0.0
 40
57.00656843230002
100
AcDbArc
 50
255.4985593413834
 51
268.0013313262485
  0
ARC
  5
124F
102
{ACAD_REACTORS
330
136A
102
}
330
2
100
AcDbEntity
  8
KIJUN
100
AcDbCircle
 10
74.7970604921573
 20
70.74571691504593
 30
0.0
 40
18.73078572568134
100
AcDbArc
 50
212.0450481945672
 51
251.1718237086001
  0
ARC
  5
1250
102
{ACAD_REACTORS
330
136A
102
}
330
2
100
AcDbEntity
  8
KIJUN
100
AcDbCircle
 10
91.05284473587614
 20
81.80557057280308
 30
0.0
 40
38.38521722576936
100
AcDbArc
 50
190.1730033267698
 51
213.1639927820539
  0
ARC
  5
1251
102
{ACAD_REACTORS
330
136A
102
}
330
2
100
AcDbEntity
  8
KIJUN
100
AcDbCircle
 10
33.96868541505057
 20
87.69925329472213
 30
0.0
 40
63.95108040197798
100
AcDbArc
 50
349.7839641456896
 51
9.47976544902441
  0
ARC
  5
1252
102
{ACAD_REACTORS
330
136A
102
}
330
2
100
AcDbEntity
  8
KIJUN
100
AcDbCircle
 10
71.26844596767694
 20
82.01402782791168
 30
0.0
 40
26.25417437697841
100
AcDbArc
 50
325.0280089059578
 51
347.5565325220239
  0
ARC
  5
1253
102
{ACAD_REACTORS
330
136A
102
}
330
2
100
AcDbEntity
  8
KIJUN
100
AcDbCircle
 10
79.56796164667537
 20
105.6897525388865
 30
0.0
 40
42.45168417808981
100
AcDbArc
 50
271.9852303959637
 51
282.9328343284808
  0
ARC
  5
1254
102
{ACAD_REACTORS
330
136A
102
}
330
2
100
AcDbEntity
  8
KIJUN
100
AcDbCircle
 10
87.57742197264281
 20
70.32990310674122
 30
0.0
 40
6.197151285535654
100
AcDbArc
 50
283.927295485203
 51
327.1220007134224
  0
ARC
  5
1255
102
{ACAD_REACTORS
330
136A
102
}
330
2
100
AcDbEntity
  8
KIJUN
100
AcDbCircle
 10
6.184832366823115
 20
91.05722573715727
 30
0.0
 40
103.86585973725
100
AcDbArc
 50
351.1211259756286
 51
2.084191023060831
  0
ARC
  5
1256
102
{ACAD_REACTORS
330
136A
102
}
330
2
100
AcDbEntity
  8
KIJUN
100
AcDbCircle
 10
79.05039080897603
 20
108.207618875855
 30
0.0
 40
57.00656843230002
100
AcDbArc
 50
271.9986686737515
 51
284.5014406586166
  0
ARC
  5
1257
102
{ACAD_REACTORS
330
136A
102
}
330
2
100
AcDbEntity
  8
KIJUN
100
AcDbCircle
 10
87.28007462033389
 20
70.74571691504593
 30
0.0
 40
18.73078572568134
100
AcDbArc
 50
288.8281762914017
 51
327.9549518054335
  0
ARC
  5
1258
102
{ACAD_REACTORS
330
136A
102
}
330
2
100
AcDbEntity
  8
KIJUN
100
AcDbCircle
 10
71.02429037661505
 20
81.80557057280308
 30
0.0
 40
38.38521722576936
100
AcDbArc
 50
326.8360072179463
 51
349.82699667323
  0
ARC
  5
1259
102
{ACAD_REACTORS
330
136A
102
}
330
2
100
AcDbEntity
  8
KIJUN
100
AcDbCircle
 10
15.45577284259457
 20
281.682148068559
 30
0.0
 40
73.14909655323088
100
AcDbArc
 50
31.12938039096944
 51
40.54847735279748
  0
ARC
  5
125B
102
{ACAD_REACTORS
330
136A
102
}
330
2
100
AcDbEntity
  8
KIJUN
100
AcDbCircle
 10
85.50728973933827
 20
332.0286261409398
 30
0.0
 40
20.97046391199844
100
AcDbArc
 50
201.8151238529653
 51
228.8974659175304
  0
ARC
  5
125C
102
{ACAD_REACTORS
330
136A
102
}
330
2
100
AcDbEntity
  8
KIJUN
100
AcDbCircle
 10
49.73596098315073
 20
289.845117852246
 30
0.0
 40
34.34142384409515
100
AcDbArc
 50
33.08926433940499
 51
50.19372920461993
  0
ARC
  5
125D
102
{ACAD_REACTORS
330
136A
102
}
330
2
100
AcDbEntity
  8
KIJUN
100
AcDbCircle
 10
78.01683512705716
 20
323.8933647314175
 30
0.0
 40
17.71847588024704
100
AcDbArc
 50
205.6062131279641
 51
236.4489491849499
  0
ARC
  5
125E
102
{ACAD_REACTORS
330
136A
102
}
330
2
100
AcDbEntity
  8
KIJUN
100
AcDbCircle
 10
46.82417315382486
 20
274.409965775205
 30
0.0
 40
40.78267054479299
100
AcDbArc
 50
39.02306161704997
 51
58.34971962676712
  0
ARC
  5
125F
102
{ACAD_REACTORS
330
136A
102
}
330
2
100
AcDbEntity
  8
KIJUN
100
AcDbCircle
 10
58.40249348366723
 20
317.639996874605
 30
0.0
 40
7.73932234067766
100
AcDbArc
 50
214.685846178374
 51
246.6337229431284
  0
ARC
  5
1260
102
{ACAD_REACTORS
330
136A
102
}
330
2
100
AcDbEntity
  8
KIJUN
100
AcDbCircle
 10
54.89469668015459
 20
292.4787503100361
 30
0.0
 40
17.65417877259834
100
AcDbArc
 50
55.15353703434286
 51
79.44148985269908
  0
ARC
  5
1261
102
{ACAD_REACTORS
330
136A
102
}
330
2
100
AcDbEntity
  8
KIJUN
100
AcDbCircle
 10
60.21970535386151
 20
324.0940172221772
 30
0.0
 40
14.41235829357305
100
AcDbArc
 50
250.1802496475376
 51
261.6616223557498
  0
ARC
  5
1262
102
{ACAD_REACTORS
330
136A
102
}
330
2
100
AcDbEntity
  8
KIJUN
100
AcDbCircle
 10
-293.2592300863545
 20
-284.4375979828409
 30
0.0
 40
691.4452033447329
100
AcDbArc
 50
58.22246683167621
 51
58.79478138674379
  0
ARC
  5
1263
102
{ACAD_REACTORS
330
136A
102
}
330
2
100
AcDbEntity
  8
KIJUN
100
AcDbCircle
 10
43.52194306783554
 20
235.6150674276246
 30
0.0
 40
70.76494918514105
100
AcDbArc
 50
73.21506815101201
 51
86.34056762870839
  0
ARC
  5
1264
102
{ACAD_REACTORS
330
136A
102
}
330
2
100
AcDbEntity
  8
KIJUN
100
AcDbCircle
 10
54.16444444374338
 20
274.4780647552359
 30
0.0
 40
30.50187301384331
100
AcDbArc
 50
43.31536570360412
 51
71.27281807284164
  0
ARC
  5
1265
102
{ACAD_REACTORS
330
136A
102
}
330
2
100
AcDbEntity
  8
KIJUN
100
AcDbCircle
 10
52.65995131821677
 20
280.0685616660537
 30
0.0
 40
28.22588176959944
100
AcDbArc
 50
294.8422618554336
 51
32.90633945096511
  0
ARC
  5
1266
102
{ACAD_REACTORS
330
136A
102
}
330
2
100
AcDbEntity
  8
KIJUN
100
AcDbCircle
 10
51.02817966130783
 20
279.7368097174587
 30
0.0
 40
25.32581725130882
100
AcDbArc
 50
290.0986162848863
 51
344.725013199775
  0
ARC
  5
1267
102
{ACAD_REACTORS
330
136A
102
}
330
2
100
AcDbEntity
  8
KIJUN
100
AcDbCircle
 10
55.88468261844344
 20
277.4306678161597
 30
0.0
 40
20.0556110515502
100
AcDbArc
 50
347.426351612178
 51
78.96380763615393
  0
ARC
  5
1268
102
{ACAD_REACTORS
330
136A
102
}
330
2
100
AcDbEntity
  8
KIJUN
100
AcDbCircle
 10
58.48377676837691
 20
286.9322413037646
 30
0.0
 40
10.25837377817896
100
AcDbArc
 50
83.05654617973857
 51
234.5987333510368
  0
ARC
  5
1269
102
{ACAD_REACTORS
330
136A
102
}
330
2
100
AcDbEntity
  8
KIJUN
100
AcDbCircle
 10
56.76964913306176
 20
285.1206374640865
 30
0.0
 40
7.796474894056986
100
AcDbArc
 50
237.155176880471
 51
320.2940894888077
  0
ARC
  5
126A
102
{ACAD_REACTORS
330
136A
102
}
330
2
100
AcDbEntity
  8
KIJUN
100
AcDbCircle
 10
146.6213622698966
 20
281.682148068559
 30
0.0
 40
73.14909655323088
100
AcDbArc
 50
139.4515226472009
 51
148.8706196090307
  0
ARC
  5
126B
102
{ACAD_REACTORS
330
136A
102
}
330
2
100
AcDbEntity
  8
KIJUN
100
AcDbCircle
 10
76.56984537315293
 20
332.0286261409398
 30
0.0
 40
20.97046391199844
100
AcDbArc
 50
311.1025340824704
 51
338.184876147034
  0
ARC
  5
126C
102
{ACAD_REACTORS
330
136A
102
}
330
2
100
AcDbEntity
  8
KIJUN
100
AcDbCircle
 10
112.3411741293404
 20
289.845117852246
 30
0.0
 40
34.34142384409515
100
AcDbArc
 50
129.8062707953808
 51
146.9107356605957
  0
ARC
  5
126D
102
{ACAD_REACTORS
330
136A
102
}
330
2
100
AcDbEntity
  8
KIJUN
100
AcDbCircle
 10
84.06029998543402
 20
323.8933647314175
 30
0.0
 40
17.71847588024704
100
AcDbArc
 50
303.5510508150468
 51
334.3937868720358
  0
ARC
  5
126E
102
{ACAD_REACTORS
330
136A
102
}
330
2
100
AcDbEntity
  8
KIJUN
100
AcDbCircle
 10
115.2529619586663
 20
274.409965775205
 30
0.0
 40
40.78267054479299
100
AcDbArc
 50
121.6502803732345
 51
140.97693838295
  0
ARC
  5
126F
102
{ACAD_REACTORS
330
136A
102
}
330
2
100
AcDbEntity
  8
KIJUN
100
AcDbCircle
 10
103.6746416288239
 20
317.639996874605
 30
0.0
 40
7.73932234067766
100
AcDbArc
 50
293.3662770568732
 51
325.3141538216253
  0
ARC
  5
1270
102
{ACAD_REACTORS
330
136A
102
}
330
2
100
AcDbEntity
  8
KIJUN
100
AcDbCircle
 10
107.1824384323366
 20
292.4787503100361
 30
0.0
 40
17.65417877259834
100
AcDbArc
 50
100.5585101473009
 51
124.846462965659
  0
ARC
  5
1271
102
{ACAD_REACTORS
330
136A
102
}
330
2
100
AcDbEntity
  8
KIJUN
100
AcDbCircle
 10
101.8574297586297
 20
324.0940172221772
 30
0.0
 40
14.41235829357305
100
AcDbArc
 50
278.3383776442469
 51
289.8197503524606
  0
ARC
  5
1272
102
{ACAD_REACTORS
330
136A
102
}
330
2
100
AcDbEntity
  8
KIJUN
100
AcDbCircle
 10
455.3363651988457
 20
-284.4375979828409
 30
0.0
 40
691.4452033447329
100
AcDbArc
 50
121.2052186132597
 51
121.7775331683238
  0
ARC
  5
1273
102
{ACAD_REACTORS
330
136A
102
}
330
2
100
AcDbEntity
  8
KIJUN
100
AcDbCircle
 10
118.5551920446556
 20
235.6150674276246
 30
0.0
 40
70.76494918514105
100
AcDbArc
 50
93.65943237129322
 51
106.7849318489897
  0
ARC
  5
1274
102
{ACAD_REACTORS
330
136A
102
}
330
2
100
AcDbEntity
  8
KIJUN
100
AcDbCircle
 10
107.9126906687478
 20
274.4780647552359
 30
0.0
 40
30.50187301384331
100
AcDbArc
 50
108.7271819271566
 51
136.6846342963979
  0
ARC
  5
1275
102
{ACAD_REACTORS
330
136A
102
}
330
2
100
AcDbEntity
  8
KIJUN
100
AcDbCircle
 10
109.4171837942744
 20
280.0685616660537
 30
0.0
 40
28.22588176959944
100
AcDbArc
 50
147.0936605490349
 51
245.1577381445646
  0
ARC
  5
1276
102
{ACAD_REACTORS
330
136A
102
}
330
2
100
AcDbEntity
  8
KIJUN
100
AcDbCircle
 10
111.0489554511833
 20
279.7368097174587
 30
0.0
 40
25.32581725130882
100
AcDbArc
 50
195.2749868002241
 51
249.9013837151154
  0
ARC
  5
1277
102
{ACAD_REACTORS
330
136A
102
}
330
2
100
AcDbEntity
  8
KIJUN
100
AcDbCircle
 10
106.1924524940477
 20
277.4306678161597
 30
0.0
 40
20.0556110515502
100
AcDbArc
 50
101.0361923638444
 51
192.5736483878215
  0
ARC
  5
1278
102
{ACAD_REACTORS
330
136A
102
}
330
2
100
AcDbEntity
  8
KIJUN
100
AcDbCircle
 10
103.5933583441142
 20
286.9322413037646
 30
0.0
 40
10.25837377817896
100
AcDbArc
 50
305.4012666489651
 51
96.94345382026142
  0
ARC
  5
1279
102
{ACAD_REACTORS
330
136A
102
}
330
2
100
AcDbEntity
  8
KIJUN
100
AcDbCircle
 10
105.3074859794294
 20
285.1206374640865
 30
0.0
 40
7.796474894056986
100
AcDbArc
 50
219.7059105111938
 51
302.844823119529
  0
ARC
  5
127B
102
{ACAD_REACTORS
330
136A
102
}
330
2
100
AcDbEntity
  8
KIJUN
100
AcDbCircle
 10
79.44154492395347
 20
233.8484220184929
 30
0.0
 40
15.77426359977681
100
AcDbArc
 50
132.9610672499601
 51
160.8678809398255
  0
ARC
  5
127C
102
{ACAD_REACTORS
330
136A
102
}
330
2
100
AcDbEntity
  8
KIJUN
100
AcDbCircle
 10
54.55603304095177
 20
230.1292833419174
 30
0.0
 40
24.09238239107871
100
AcDbArc
 50
26.91572590947793
 51
38.65212296013961
  0
ARC
  5
127D
102
{ACAD_REACTORS
330
136A
102
}
330
2
100
AcDbEntity
  8
KIJUN
100
AcDbCircle
 10
70.9539460957161
 20
243.6042761777187
 30
0.0
 40
2.883797511124274
100
AcDbArc
 50
33.05324395742052
 51
141.6822215599913
  0
ARC
  5
127E
102
{ACAD_REACTORS
330
136A
102
}
330
2
100
AcDbEntity
  8
KIJUN
100
AcDbCircle
 10
116.0037487363134
 20
230.9278470740351
 30
0.0
 40
40.45708718294271
100
AcDbArc
 50
181.655771578656
 51
195.608269928484
  0
ARC
  5
127F
102
{ACAD_REACTORS
330
136A
102
}
330
2
100
AcDbEntity
  8
KIJUN
100
AcDbCircle
 10
78.6406646484175
 20
234.1606720336765
 30
0.0
 40
2.057759946352541
100
AcDbArc
 50
314.8366347982019
 51
148.5733385934007
  0
ARC
  5
1280
102
{ACAD_REACTORS
330
136A
102
}
330
2
100
AcDbEntity
  8
KIJUN
100
AcDbCircle
 10
85.10738520615882
 20
230.3524609449105
 30
0.0
 40
9.562274063110326
100
AcDbArc
 50
149.3056461907624
 51
183.5590966349576
  0
ARC
  5
1281
102
{ACAD_REACTORS
330
136A
102
}
330
2
100
AcDbEntity
  8
KIJUN
100
AcDbCircle
 10
82.63559018853772
 20
233.8484220184929
 30
0.0
 40
15.77426359977681
100
AcDbArc
 50
19.13211906017538
 51
47.03893275004144
  0
ARC
  5
1282
102
{ACAD_REACTORS
330
136A
102
}
330
2
100
AcDbEntity
  8
KIJUN
100
AcDbCircle
 10
107.5211020715394
 20
230.1292833419174
 30
0.0
 40
24.09238239107871
100
AcDbArc
 50
141.3478770398596
 51
153.0842740905216
  0
ARC
  5
1283
102
{ACAD_REACTORS
330
136A
102
}
330
2
100
AcDbEntity
  8
KIJUN
100
AcDbCircle
 10
91.12318901677509
 20
243.6042761777187
 30
0.0
 40
2.883797511124274
100
AcDbArc
 50
38.31777844000946
 51
146.9467560425814
  0
ARC
  5
1284
102
{ACAD_REACTORS
330
136A
102
}
330
2
100
AcDbEntity
  8
KIJUN
100
AcDbCircle
 10
46.07338637617772
 20
230.9278470740351
 30
0.0
 40
40.45708718294271
100
AcDbArc
 50
344.3917300715157
 51
358.344228421344
  0
ARC
  5
1285
102
{ACAD_REACTORS
330
136A
102
}
330
2
100
AcDbEntity
  8
KIJUN
100
AcDbCircle
 10
83.43647046407369
 20
234.1606720336765
 30
0.0
 40
2.057759946352541
100
AcDbArc
 50
31.42666140659923
 51
225.1633652017999
  0
ARC
  5
1286
102
{ACAD_REACTORS
330
136A
102
}
330
2
100
AcDbEntity
  8
KIJUN
100
AcDbCircle
 10
76.96974990633236
 20
230.3524609449105
 30
0.0
 40
9.562274063110326
100
AcDbArc
 50
356.4409033650426
 51
30.6943538092373
  0
ARC
  5
1287
102
{ACAD_REACTORS
330
136A
102
}
330
2
100
AcDbEntity
  8
KIJUN
100
AcDbCircle
 10
197.6570505672599
 20
171.8472102929464
 30
0.0
 40
112.6064369175913
100
AcDbArc
 50
146.0812443954131
 51
161.2311013353736
  0
ARC
  5
1288
102
{ACAD_REACTORS
330
136A
102
}
330
2
100
AcDbEntity
  8
KIJUN
100
AcDbCircle
 10
21.28432614047512
 20
247.0152648874734
 30
0.0
 40
83.84043854134933
100
AcDbArc
 50
331.1457605214108
 51
351.5418937478036
  0
ARC
  5
1289
102
{ACAD_REACTORS
330
136A
102
}
330
2
100
AcDbEntity
  8
KIJUN
100
AcDbCircle
 10
40.93874453973199
 20
216.57702304258
 30
0.0
 40
15.77426359977681
100
AcDbArc
 50
177.96106724996
 51
205.8678809398256
  0
ARC
  5
128A
102
{ACAD_REACTORS
330
136A
102
}
330
2
100
AcDbEntity
  8
KIJUN
100
AcDbCircle
 10
25.97185851234278
 20
196.3504806584314
 30
0.0
 40
24.09238239107871
100
AcDbArc
 50
71.91572590947865
 51
83.65212296014027
  0
ARC
  5
128B
102
{ACAD_REACTORS
330
136A
102
}
330
2
100
AcDbEntity
  8
KIJUN
100
AcDbCircle
 10
28.03867522003884
 20
217.4738149873979
 30
0.0
 40
2.883797511124274
100
AcDbArc
 50
78.05324395742075
 51
186.6822215599912
  0
ARC
  5
128C
102
{ACAD_REACTORS
330
136A
102
}
330
2
100
AcDbEntity
  8
KIJUN
100
AcDbCircle
 10
68.85728513876603
 20
240.3652469452347
 30
0.0
 40
40.45708718294271
100
AcDbArc
 50
226.6557715786559
 51
240.6082699284846
  0
ARC
  5
128D
102
{ACAD_REACTORS
330
136A
102
}
330
2
100
AcDbEntity
  8
KIJUN
100
AcDbCircle
 10
40.15164256282
 20
216.2315092719918
 30
0.0
 40
2.057759946352541
100
AcDbArc
 50
359.8366347982024
 51
193.5733385934008
  0
ARC
  5
128E
102
{ACAD_REACTORS
330
136A
102
}
330
2
100
AcDbEntity
  8
KIJUN
100
AcDbCircle
 10
47.41711640629358
 20
218.111359345353
 30
0.0
 40
9.562274063110326
100
AcDbArc
 50
194.3056461907632
 51
228.5590966349583
  0
ARC
  5
128F
102
{ACAD_REACTORS
330
136A
102
}
330
2
100
AcDbEntity
  8
KIJUN
100
AcDbCircle
 10
43.19727560573631
 20
218.8355541085843
 30
0.0
 40
15.77426359977681
100
AcDbArc
 50
64.13211906017483
 51
92.0389327500416
  0
ARC
  5
1290
102
{ACAD_REACTORS
330
136A
102
}
330
2
100
AcDbEntity
  8
KIJUN
100
AcDbCircle
 10
63.42381798988492
 20
233.8024401359735
 30
0.0
 40
24.09238239107871
100
AcDbArc
 50
186.3478770398597
 51
198.0842740905211
  0
ARC
  5
1291
102
{ACAD_REACTORS
330
136A
102
}
330
2
100
AcDbEntity
  8
KIJUN
100
AcDbCircle
 10
42.30048366091842
 20
231.7356234282775
 30
0.0
 40
2.883797511124274
100
AcDbArc
 50
83.31777844000898
 51
191.9467560425811
  0
ARC
  5
1292
102
{ACAD_REACTORS
330
136A
102
}
330
2
100
AcDbEntity
  8
KIJUN
100
AcDbCircle
 10
19.40905170308153
 20
190.9170135095502
 30
0.0
 40
40.45708718294271
100
AcDbArc
 50
29.39173007151575
 51
43.3442284213445
  0
ARC
  5
1293
102
{ACAD_REACTORS
330
136A
102
}
330
2
100
AcDbEntity
  8
KIJUN
100
AcDbCircle
 10
43.54278937632438
 20
219.6226560854963
 30
0.0
 40
2.057759946352541
100
AcDbArc
 50
76.42666140659899
 51
270.1633652017993
  0
ARC
  5
1294
102
{ACAD_REACTORS
330
136A
102
}
330
2
100
AcDbEntity
  8
KIJUN
100
AcDbCircle
 10
41.66293930296328
 20
212.3571822420227
 30
0.0
 40
9.562274063110326
100
AcDbArc
 50
41.44090336504304
 51
75.69435380923692
  0
ARC
  5
1295
102
{ACAD_REACTORS
330
136A
102
}
330
2
100
AcDbEntity
  8
KIJUN
100
AcDbCircle
 10
168.3712074744273
 20
256.3265314714417
 30
0.0
 40
112.6064369175913
100
AcDbArc
 50
191.0812443954137
 51
206.2311013353726
  0
ARC
  5
1296
102
{ACAD_REACTORS
330
136A
102
}
330
2
100
AcDbEntity
  8
KIJUN
100
AcDbCircle
 10
-9.494983116489038
 20
184.7640231453066
 30
0.0
 40
83.84043854134933
100
AcDbArc
 50
16.14576052141059
 51
36.54189374780262
  0
ARC
  5
1297
102
{ACAD_REACTORS
330
136A
102
}
330
2
100
AcDbEntity
  8
KIJUN
100
AcDbCircle
 10
25.92587662982342
 20
177.1387084597785
 30
0.0
 40
15.77426359977681
100
AcDbArc
 50
222.9610672499608
 51
250.867880939824
  0
ARC
  5
1298
102
{ACAD_REACTORS
330
136A
102
}
330
2
100
AcDbEntity
  8
KIJUN
100
AcDbCircle
 10
29.64501530639891
 20
152.2531965767768
 30
0.0
 40
24.09238239107871
100
AcDbArc
 50
116.9157259094779
 51
128.6521229601395
  0
ARC
  5
1299
102
{ACAD_REACTORS
330
136A
102
}
330
2
100
AcDbEntity
  8
KIJUN
100
AcDbCircle
 10
16.17002247059767
 20
168.6511096315412
 30
0.0
 40
2.883797511124274
100
AcDbArc
 50
123.0532439574195
 51
231.6822215599919
  0
ARC
  5
129A
102
{ACAD_REACTORS
330
136A
102
}
330
2
100
AcDbEntity
  8
KIJUN
100
AcDbCircle
 10
28.84645157428125
 20
213.7009122721386
 30
0.0
 40
40.45708718294271
100
AcDbArc
 50
271.6557715786554
 51
285.6082699284856
  0
ARC
  5
129B
102
{ACAD_REACTORS
330
136A
102
}
330
2
100
AcDbEntity
  8
KIJUN
100
AcDbCircle
 10
25.6136266146398
 20
176.3378281842426
 30
0.0
 40
2.057759946352541
100
AcDbArc
 50
44.83663479820189
 51
238.5733385934023
  0
ARC
  5
129C
102
{ACAD_REACTORS
330
136A
102
}
330
2
100
AcDbEntity
  8
KIJUN
100
AcDbCircle
 10
29.42183770340577
 20
182.8045487419839
 30
0.0
 40
9.562274063110326
100
AcDbArc
 50
239.3056461907632
 51
273.5590966349592
  0
ARC
  5
129D
102
{ACAD_REACTORS
330
136A
102
}
330
2
100
AcDbEntity
  8
KIJUN
100
AcDbCircle
 10
25.92587662982342
 20
180.3327537243628
 30
0.0
 40
15.77426359977681
100
AcDbArc
 50
109.132119060176
 51
137.0389327500409
  0
ARC
  5
129E
102
{ACAD_REACTORS
330
136A
102
}
330
2
100
AcDbEntity
  8
KIJUN
100
AcDbCircle
 10
29.64501530639891
 20
205.2182656073645
 30
0.0
 40
24.09238239107871
100
AcDbArc
 50
231.3478770398604
 51
243.084274090522
  0
ARC
  5
129F
102
{ACAD_REACTORS
330
136A
102
}
330
2
100
AcDbEntity
  8
KIJUN
100
AcDbCircle
 10
16.17002247059767
 20
188.8203525526002
 30
0.0
 40
2.883797511124274
100
AcDbArc
 50
128.3177784400102
 51
236.9467560425808
  0
ARC
  5
12A0
102
{ACAD_REACTORS
330
136A
102
}
330
2
100
AcDbEntity
  8
KIJUN
100
AcDbCircle
 10
28.84645157428125
 20
143.7705499120028
 30
0.0
 40
40.45708718294271
100
AcDbArc
 50
74.39173007151445
 51
88.34422842134461
  0
ARC
  5
12A1
102
{ACAD_REACTORS
330
136A
102
}
330
2
100
AcDbEntity
  8
KIJUN
100
AcDbCircle
 10
25.6136266146398
 20
181.1336339998988
 30
0.0
 40
2.057759946352541
100
AcDbArc
 50
121.4266614065977
 51
315.1633652017987
  0
ARC
  5
12A2
102
{ACAD_REACTORS
330
136A
102
}
330
2
100
AcDbEntity
  8
KIJUN
100
AcDbCircle
 10
29.42183770340577
 20
174.6669134421575
 30
0.0
 40
9.562274063110326
100
AcDbArc
 50
86.44090336504403
 51
120.6943538092367
  0
ARC
  5
12A3
102
{ACAD_REACTORS
330
136A
102
}
330
2
100
AcDbEntity
  8
KIJUN
100
AcDbCircle
 10
87.92708835536997
 20
295.354214103085
 30
0.0
 40
112.6064369175913
100
AcDbArc
 50
236.0812443954134
 51
251.2311013353742
  0
ARC
  5
12A4
102
{ACAD_REACTORS
330
136A
102
}
330
2
100
AcDbEntity
  8
KIJUN
100
AcDbCircle
 10
12.75903376084289
 20
118.9814896763002
 30
0.0
 40
83.84043854134933
100
AcDbArc
 50
61.14576052140982
 51
81.54189374780404
  0
ARC
  5
12A5
102
{ACAD_REACTORS
330
136A
102
}
330
2
100
AcDbEntity
  8
KIJUN
100
AcDbCircle
 10
43.19727560573631
 20
138.6359080755571
 30
0.0
 40
15.77426359977681
100
AcDbArc
 50
267.9610672499584
 51
295.8678809398234
  0
ARC
  5
12A6
102
{ACAD_REACTORS
330
136A
102
}
330
2
100
AcDbEntity
  8
KIJUN
100
AcDbCircle
 10
63.42381798988492
 20
123.6690220481678
 30
0.0
 40
24.09238239107871
100
AcDbArc
 50
161.9157259094784
 51
173.6521229601396
  0
ARC
  5
12A7
102
{ACAD_REACTORS
330
136A
102
}
330
2
100
AcDbEntity
  8
KIJUN
100
AcDbCircle
 10
42.30048366091842
 20
125.7358387558639
 30
0.0
 40
2.883797511124274
100
AcDbArc
 50
168.0532439574201
 51
276.6822215599927
  0
ARC
  5
12A8
102
{ACAD_REACTORS
330
136A
102
}
330
2
100
AcDbEntity
  8
KIJUN
100
AcDbCircle
 10
19.40905170308156
 20
166.5544486745911
 30
0.0
 40
40.45708718294271
100
AcDbArc
 50
316.6557715786549
 51
330.6082699284838
  0
ARC
  5
12A9
102
{ACAD_REACTORS
330
136A
102
}
330
2
100
AcDbEntity
  8
KIJUN
100
AcDbCircle
 10
43.54278937632443
 20
137.8488060986451
 30
0.0
 40
2.057759946352541
100
AcDbArc
 50
89.83663479820236
 51
283.5733385933993
  0
ARC
  5
12AA
102
{ACAD_REACTORS
330
136A
102
}
330
2
100
AcDbEntity
  8
KIJUN
100
AcDbCircle
 10
41.66293930296331
 20
145.1142799421187
 30
0.0
 40
9.562274063110326
100
AcDbArc
 50
284.3056461907614
 51
318.559096634957
  0
ARC
  5
12AB
102
{ACAD_REACTORS
330
136A
102
}
330
2
100
AcDbEntity
  8
KIJUN
100
AcDbCircle
 10
40.93874453973199
 20
140.8944391415614
 30
0.0
 40
15.77426359977681
100
AcDbArc
 50
154.1321190601744
 51
182.038932750041
  0
ARC
  5
12AC
102
{ACAD_REACTORS
330
136A
102
}
330
2
100
AcDbEntity
  8
KIJUN
100
AcDbCircle
 10
25.97185851234281
 20
161.12098152571
 30
0.0
 40
24.09238239107871
100
AcDbArc
 50
276.3478770398565
 51
288.0842740905196
  0
ARC
  5
12AD
102
{ACAD_REACTORS
330
136A
102
}
330
2
100
AcDbEntity
  8
KIJUN
100
AcDbCircle
 10
28.03867522003884
 20
139.9976471967435
 30
0.0
 40
2.883797511124274
100
AcDbArc
 50
173.3177784400098
 51
281.946756042581
  0
ARC
  5
12AE
102
{ACAD_REACTORS
330
136A
102
}
330
2
100
AcDbEntity
  8
KIJUN
100
AcDbCircle
 10
68.85728513876609
 20
117.1062152389066
 30
0.0
 40
40.45708718294271
100
AcDbArc
 50
119.3917300715188
 51
133.3442284213423
  0
ARC
  5
12AF
102
{ACAD_REACTORS
330
136A
102
}
330
2
100
AcDbEntity
  8
KIJUN
100
AcDbCircle
 10
40.15164256282003
 20
141.2399529121494
 30
0.0
 40
2.057759946352541
100
AcDbArc
 50
166.426661406599
 51
0.1633652017992691
  0
ARC
  5
12B0
102
{ACAD_REACTORS
330
136A
102
}
330
2
100
AcDbEntity
  8
KIJUN
100
AcDbCircle
 10
47.41711640629364
 20
139.3601028387884
 30
0.0
 40
9.562274063110326
100
AcDbArc
 50
131.4409033650438
 51
165.6943538092373
  0
ARC
  5
12B1
102
{ACAD_REACTORS
330
136A
102
}
330
2
100
AcDbEntity
  8
KIJUN
100
AcDbCircle
 10
3.447767176874606
 20
266.0683710102524
 30
0.0
 40
112.6064369175913
100
AcDbArc
 50
281.0812443954152
 51
296.2311013353712
  0
ARC
  5
12B2
102
{ACAD_REACTORS
330
136A
102
}
330
2
100
AcDbEntity
  8
KIJUN
100
AcDbCircle
 10
75.01027550300967
 20
88.20218041933605
 30
0.0
 40
83.84043854134933
100
AcDbArc
 50
106.1457605214087
 51
126.5418937478014
  0
ARC
  5
12B3
102
{ACAD_REACTORS
330
136A
102
}
330
2
100
AcDbEntity
  8
KIJUN
100
AcDbCircle
 10
82.63559018853772
 20
123.6230401656485
 30
0.0
 40
15.77426359977681
100
AcDbArc
 50
312.9610672499599
 51
340.8678809398236
  0
ARC
  5
12B4
102
{ACAD_REACTORS
330
136A
102
}
330
2
100
AcDbEntity
  8
KIJUN
100
AcDbCircle
 10
107.5211020715394
 20
127.342178842224
 30
0.0
 40
24.09238239107871
100
AcDbArc
 50
206.9157259094782
 51
218.6521229601404
  0
ARC
  5
12B5
102
{ACAD_REACTORS
330
136A
102
}
330
2
100
AcDbEntity
  8
KIJUN
100
AcDbCircle
 10
91.12318901677509
 20
113.8671860064228
 30
0.0
 40
2.883797511124274
100
AcDbArc
 50
213.0532439574183
 51
321.6822215599913
  0
ARC
  5
12B6
102
{ACAD_REACTORS
330
136A
102
}
330
2
100
AcDbEntity
  8
KIJUN
100
AcDbCircle
 10
46.07338637617772
 20
126.5436151101063
 30
0.0
 40
40.45708718294271
100
AcDbArc
 50
1.655771578655394
 51
15.60826992848574
  0
ARC
  5
12B7
102
{ACAD_REACTORS
330
136A
102
}
330
2
100
AcDbEntity
  8
KIJUN
100
AcDbCircle
 10
83.43647046407369
 20
123.3107901504649
 30
0.0
 40
2.057759946352541
100
AcDbArc
 50
134.8366347982001
 51
328.5733385934017
  0
ARC
  5
12B8
102
{ACAD_REACTORS
330
136A
102
}
330
2
100
AcDbEntity
  8
KIJUN
100
AcDbCircle
 10
76.96974990633236
 20
127.1190012392308
 30
0.0
 40
9.562274063110326
100
AcDbArc
 50
329.3056461907641
 51
3.559096634959044
  0
ARC
  5
12B9
102
{ACAD_REACTORS
330
136A
102
}
330
2
100
AcDbEntity
  8
KIJUN
100
AcDbCircle
 10
79.44154492395347
 20
123.6230401656485
 30
0.0
 40
15.77426359977681
100
AcDbArc
 50
199.1321190601762
 51
227.0389327500401
  0
ARC
  5
12BA
102
{ACAD_REACTORS
330
136A
102
}
330
2
100
AcDbEntity
  8
KIJUN
100
AcDbCircle
 10
54.55603304095177
 20
127.342178842224
 30
0.0
 40
24.09238239107871
100
AcDbArc
 50
321.3478770398596
 51
333.0842740905216
  0
ARC
  5
12BB
102
{ACAD_REACTORS
330
136A
102
}
330
2
100
AcDbEntity
  8
KIJUN
100
AcDbCircle
 10
70.9539460957161
 20
113.8671860064228
 30
0.0
 40
2.883797511124274
100
AcDbArc
 50
218.3177784400113
 51
326.9467560425819
  0
ARC
  5
12BC
102
{ACAD_REACTORS
330
136A
102
}
330
2
100
AcDbEntity
  8
KIJUN
100
AcDbCircle
 10
116.0037487363134
 20
126.5436151101063
 30
0.0
 40
40.45708718294271
100
AcDbArc
 50
164.3917300715143
 51
178.3442284213446
  0
ARC
  5
12BD
102
{ACAD_REACTORS
330
136A
102
}
330
2
100
AcDbEntity
  8
KIJUN
100
AcDbCircle
 10
78.6406646484175
 20
123.3107901504649
 30
0.0
 40
2.057759946352541
100
AcDbArc
 50
211.4266614065983
 51
45.16336520179982
  0
ARC
  5
12BE
102
{ACAD_REACTORS
330
136A
102
}
330
2
100
AcDbEntity
  8
KIJUN
100
AcDbCircle
 10
85.10738520615882
 20
127.1190012392308
 30
0.0
 40
9.562274063110326
100
AcDbArc
 50
176.4409033650442
 51
210.6943538092359
  0
ARC
  5
12BF
102
{ACAD_REACTORS
330
136A
102
}
330
2
100
AcDbEntity
  8
KIJUN
100
AcDbCircle
 10
-35.5799154547687
 20
185.624251891195
 30
0.0
 40
112.6064369175913
100
AcDbArc
 50
326.0812443954141
 51
341.231101335374
  0
ARC
  5
12C0
102
{ACAD_REACTORS
330
136A
102
}
330
2
100
AcDbEntity
  8
KIJUN
100
AcDbCircle
 10
140.792808972016
 20
110.456197296668
 30
0.0
 40
83.84043854134933
100
AcDbArc
 50
151.1457605214105
 51
171.5418937478036
  0
ARC
  5
12C1
102
{ACAD_REACTORS
330
136A
102
}
330
2
100
AcDbEntity
  8
KIJUN
100
AcDbCircle
 10
121.1383905727591
 20
140.8944391415614
 30
0.0
 40
15.77426359977681
100
AcDbArc
 50
357.9610672499584
 51
25.86788093982673
  0
ARC
  5
12C2
102
{ACAD_REACTORS
330
136A
102
}
330
2
100
AcDbEntity
  8
KIJUN
100
AcDbCircle
 10
136.1052766001484
 20
161.12098152571
 30
0.0
 40
24.09238239107871
100
AcDbArc
 50
251.9157259094769
 51
263.6521229601402
  0
ARC
  5
12C3
102
{ACAD_REACTORS
330
136A
102
}
330
2
100
AcDbEntity
  8
KIJUN
100
AcDbCircle
 10
134.0384598924523
 20
139.9976471967435
 30
0.0
 40
2.883797511124274
100
AcDbArc
 50
258.0532439574191
 51
6.682221559992866
  0
ARC
  5
12C4
102
{ACAD_REACTORS
330
136A
102
}
330
2
100
AcDbEntity
  8
KIJUN
100
AcDbCircle
 10
93.2198499737251
 20
117.1062152389066
 30
0.0
 40
40.45708718294271
100
AcDbArc
 50
46.65577157865806
 51
60.60826992848463
  0
ARC
  5
12C5
102
{ACAD_REACTORS
330
136A
102
}
330
2
100
AcDbEntity
  8
KIJUN
100
AcDbCircle
 10
121.9254925496711
 20
141.2399529121495
 30
0.0
 40
2.057759946352541
100
AcDbArc
 50
179.8366347982024
 51
13.57333859339912
  0
ARC
  5
12C6
102
{ACAD_REACTORS
330
136A
102
}
330
2
100
AcDbEntity
  8
KIJUN
100
AcDbCircle
 10
114.6600187061975
 20
139.3601028387884
 30
0.0
 40
9.562274063110326
100
AcDbArc
 50
14.30564619076138
 51
48.55909663495832
  0
ARC
  5
12C7
102
{ACAD_REACTORS
330
136A
102
}
330
2
100
AcDbEntity
  8
KIJUN
100
AcDbCircle
 10
118.8798595067549
 20
138.635908075557
 30
0.0
 40
15.77426359977681
100
AcDbArc
 50
244.1321190601766
 51
272.0389327500416
  0
ARC
  5
12C8
102
{ACAD_REACTORS
330
136A
102
}
330
2
100
AcDbEntity
  8
KIJUN
100
AcDbCircle
 10
98.65331712260626
 20
123.6690220481679
 30
0.0
 40
24.09238239107871
100
AcDbArc
 50
6.347877039859541
 51
18.0842740905237
  0
ARC
  5
12C9
102
{ACAD_REACTORS
330
136A
102
}
330
2
100
AcDbEntity
  8
KIJUN
100
AcDbCircle
 10
119.7766514515727
 20
125.7358387558639
 30
0.0
 40
2.883797511124274
100
AcDbArc
 50
263.3177784400106
 51
11.94675604258112
  0
ARC
  5
12CA
102
{ACAD_REACTORS
330
136A
102
}
330
2
100
AcDbEntity
  8
KIJUN
100
AcDbCircle
 10
142.6680834094096
 20
166.5544486745912
 30
0.0
 40
40.45708718294271
100
AcDbArc
 50
209.3917300715157
 51
223.3442284213421
  0
ARC
  5
12CB
102
{ACAD_REACTORS
330
136A
102
}
330
2
100
AcDbEntity
  8
KIJUN
100
AcDbCircle
 10
118.5343457361667
 20
137.8488060986451
 30
0.0
 40
2.057759946352541
100
AcDbArc
 50
256.4266614066006
 51
90.16336520179763
  0
ARC
  5
12CC
102
{ACAD_REACTORS
330
136A
102
}
330
2
100
AcDbEntity
  8
KIJUN
100
AcDbCircle
 10
120.4141958095279
 20
145.1142799421187
 30
0.0
 40
9.562274063110326
100
AcDbArc
 50
221.4409033650424
 51
255.6943538092352
  0
ARC
  5
12CD
102
{ACAD_REACTORS
330
136A
102
}
330
2
100
AcDbEntity
  8
KIJUN
100
AcDbCircle
 10
-6.29407236193623
 20
101.1449307126997
 30
0.0
 40
112.6064369175913
100
AcDbArc
 50
11.0812443954119
 51
26.23110133537376
  0
ARC
  5
12CE
102
{ACAD_REACTORS
330
136A
102
}
330
2
100
AcDbEntity
  8
KIJUN
100
AcDbCircle
 10
171.5721182289802
 20
172.7074390388347
 30
0.0
 40
83.84043854134933
100
AcDbArc
 50
196.1457605214114
 51
216.5418937478051
  0
ARC
  5
12CF
102
{ACAD_REACTORS
330
136A
102
}
330
2
100
AcDbEntity
  8
KIJUN
100
AcDbCircle
 10
136.1512584826678
 20
180.3327537243627
 30
0.0
 40
15.77426359977681
100
AcDbArc
 50
42.96106724995913
 51
70.86788093982566
  0
ARC
  5
12D0
102
{ACAD_REACTORS
330
136A
102
}
330
2
100
AcDbEntity
  8
KIJUN
100
AcDbCircle
 10
132.4321198060923
 20
205.2182656073644
 30
0.0
 40
24.09238239107871
100
AcDbArc
 50
296.915725909478
 51
308.6521229601392
  0
ARC
  5
12D1
102
{ACAD_REACTORS
330
136A
102
}
330
2
100
AcDbEntity
  8
KIJUN
100
AcDbCircle
 10
145.9071126418935
 20
188.8203525526001
 30
0.0
 40
2.883797511124274
100
AcDbArc
 50
303.0532439574195
 51
51.68222155999188
  0
ARC
  5
12D2
102
{ACAD_REACTORS
330
136A
102
}
330
2
100
AcDbEntity
  8
KIJUN
100
AcDbCircle
 10
133.2306835382099
 20
143.7705499120028
 30
0.0
 40
40.45708718294271
100
AcDbArc
 50
91.6557715786554
 51
105.6082699284838
  0
ARC
  5
12D3
102
{ACAD_REACTORS
330
136A
102
}
330
2
100
AcDbEntity
  8
KIJUN
100
AcDbCircle
 10
136.4635084978514
 20
181.1336339998987
 30
0.0
 40
2.057759946352541
100
AcDbArc
 50
224.8366347982002
 51
58.57333859340059
  0
ARC
  5
12D4
102
{ACAD_REACTORS
330
136A
102
}
330
2
100
AcDbEntity
  8
KIJUN
100
AcDbCircle
 10
132.6552974090854
 20
174.6669134421574
 30
0.0
 40
9.562274063110326
100
AcDbArc
 50
59.30564619076355
 51
93.55909663495763
  0
ARC
  5
12D5
102
{ACAD_REACTORS
330
136A
102
}
330
2
100
AcDbEntity
  8
KIJUN
100
AcDbCircle
 10
136.1512584826678
 20
177.1387084597785
 30
0.0
 40
15.77426359977681
100
AcDbArc
 50
289.1321190601744
 51
317.0389327500416
  0
ARC
  5
12D6
102
{ACAD_REACTORS
330
136A
102
}
330
2
100
AcDbEntity
  8
KIJUN
100
AcDbCircle
 10
132.4321198060923
 20
152.2531965767768
 30
0.0
 40
24.09238239107871
100
AcDbArc
 50
51.34787703985821
 51
63.08427409052189
  0
ARC
  5
12D7
102
{ACAD_REACTORS
330
136A
102
}
330
2
100
AcDbEntity
  8
KIJUN
100
AcDbCircle
 10
145.9071126418935
 20
168.6511096315411
 30
0.0
 40
2.883797511124274
100
AcDbArc
 50
308.3177784400107
 51
56.94675604258048
  0
ARC
  5
12D8
102
{ACAD_REACTORS
330
136A
102
}
330
2
100
AcDbEntity
  8
KIJUN
100
AcDbCircle
 10
133.2306835382099
 20
213.7009122721385
 30
0.0
 40
40.45708718294271
100
AcDbArc
 50
254.3917300715162
 51
268.3442284213446
  0
ARC
  5
12D9
102
{ACAD_REACTORS
330
136A
102
}
330
2
100
AcDbEntity
  8
KIJUN
100
AcDbCircle
 10
136.4635084978514
 20
176.3378281842425
 30
0.0
 40
2.057759946352541
100
AcDbArc
 50
301.4266614065994
 51
135.1633652018004
  0
ARC
  5
12DA
102
{ACAD_REACTORS
330
136A
102
}
330
2
100
AcDbEntity
  8
KIJUN
100
AcDbCircle
 10
132.6552974090854
 20
182.8045487419838
 30
0.0
 40
9.562274063110326
100
AcDbArc
 50
266.4409033650424
 51
300.6943538092365
  0
ARC
  5
12DB
102
{ACAD_REACTORS
330
136A
102
}
330
2
100
AcDbEntity
  8
KIJUN
100
AcDbCircle
 10
74.15004675712123
 20
62.1172480810564
 30
0.0
 40
112.6064369175913
100
AcDbArc
 50
56.08124439541303
 51
71.23110133537426
  0
ARC
  5
12DC
102
{ACAD_REACTORS
330
136A
102
}
330
2
100
AcDbEntity
  8
KIJUN
100
AcDbCircle
 10
149.3181013516483
 20
238.4899725078411
 30
0.0
 40
83.84043854134933
100
AcDbArc
 50
241.1457605214098
 51
261.541893747804
  0
ARC
  5
12DD
102
{ACAD_REACTORS
330
136A
102
}
330
2
100
AcDbEntity
  8
KIJUN
100
AcDbCircle
 10
118.8798595067549
 20
218.8355541085843
 30
0.0
 40
15.77426359977681
100
AcDbArc
 50
87.96106724996
 51
115.8678809398252
  0
ARC
  5
12DE
102
{ACAD_REACTORS
330
136A
102
}
330
2
100
AcDbEntity
  8
KIJUN
100
AcDbCircle
 10
98.65331712260633
 20
233.8024401359735
 30
0.0
 40
24.09238239107871
100
AcDbArc
 50
341.9157259094787
 51
353.6521229601402
  0
ARC
  5
12DF
102
{ACAD_REACTORS
330
136A
102
}
330
2
100
AcDbEntity
  8
KIJUN
100
AcDbCircle
 10
119.7766514515728
 20
231.7356234282775
 30
0.0
 40
2.883797511124274
100
AcDbArc
 50
348.0532439574205
 51
96.68222155999105
  0
ARC
  5
12E0
102
{ACAD_REACTORS
330
136A
102
}
330
2
100
AcDbEntity
  8
KIJUN
100
AcDbCircle
 10
142.6680834094097
 20
190.9170135095502
 30
0.0
 40
40.45708718294271
100
AcDbArc
 50
136.6557715786557
 51
150.6082699284842
  0
ARC
  5
12E1
102
{ACAD_REACTORS
330
136A
102
}
330
2
100
AcDbEntity
  8
KIJUN
100
AcDbCircle
 10
118.5343457361668
 20
219.6226560854963
 30
0.0
 40
2.057759946352541
100
AcDbArc
 50
269.8366347982023
 51
103.573338593401
  0
ARC
  5
12E2
102
{ACAD_REACTORS
330
136A
102
}
330
2
100
AcDbEntity
  8
KIJUN
100
AcDbCircle
 10
120.4141958095279
 20
212.3571822420227
 30
0.0
 40
9.562274063110326
100
AcDbArc
 50
104.305646190763
 51
138.5590966349578
  0
ARC
  5
12E3
102
{ACAD_REACTORS
330
136A
102
}
330
2
100
AcDbEntity
  8
KIJUN
100
AcDbCircle
 10
121.1383905727592
 20
216.57702304258
 30
0.0
 40
15.77426359977681
100
AcDbArc
 50
334.1321190601747
 51
2.038932750041623
  0
ARC
  5
12E4
102
{ACAD_REACTORS
330
136A
102
}
330
2
100
AcDbEntity
  8
KIJUN
100
AcDbCircle
 10
136.1052766001484
 20
196.3504806584314
 30
0.0
 40
24.09238239107871
100
AcDbArc
 50
96.34787703985971
 51
108.0842740905213
  0
ARC
  5
12E5
102
{ACAD_REACTORS
330
136A
102
}
330
2
100
AcDbEntity
  8
KIJUN
100
AcDbCircle
 10
134.0384598924523
 20
217.4738149873979
 30
0.0
 40
2.883797511124274
100
AcDbArc
 50
353.317778440009
 51
101.9467560425809
  0
ARC
  5
12E6
102
{ACAD_REACTORS
330
136A
102
}
330
2
100
AcDbEntity
  8
KIJUN
100
AcDbCircle
 10
93.21984997372515
 20
240.3652469452348
 30
0.0
 40
40.45708718294271
100
AcDbArc
 50
299.3917300715155
 51
313.3442284213442
  0
ARC
  5
12E7
102
{ACAD_REACTORS
330
136A
102
}
330
2
100
AcDbEntity
  8
KIJUN
100
AcDbCircle
 10
121.9254925496712
 20
216.2315092719919
 30
0.0
 40
2.057759946352541
100
AcDbArc
 50
346.4266614065992
 51
180.1633652017992
  0
ARC
  5
12E8
102
{ACAD_REACTORS
330
136A
102
}
330
2
100
AcDbEntity
  8
KIJUN
100
AcDbCircle
 10
114.6600187061976
 20
218.1113593453531
 30
0.0
 40
9.562274063110326
100
AcDbArc
 50
311.4409033650432
 51
345.6943538092367
  0
ARC
  5
12E9
102
{ACAD_REACTORS
330
136A
102
}
330
2
100
AcDbEntity
  8
KIJUN
100
AcDbCircle
 10
158.6293679356166
 20
91.40309117388889
 30
0.0
 40
112.6064369175913
100
AcDbArc
 50
101.0812443954135
 51
116.2311013353728
  0
ARC
  5
12EA
102
{ACAD_REACTORS
330
136A
102
}
330
2
100
AcDbEntity
  8
KIJUN
100
AcDbCircle
 10
87.06685960948158
 20
269.2692817648053
 30
0.0
 40
83.84043854134933
100
AcDbArc
 50
286.1457605214103
 51
306.5418937478032
  0
DIMENSION
  5
12EF
330
2
100
AcDbEntity
  8
SUNPOU
100
AcDbDimension
  2
*D5
 10
172.0385675562456
 20
384.0080010364252
 30
0.0
 11
81.0385675562456
 21
389.5080010364252
 31
0.0
 70
    32
 71
     5
 42
182.0
  3
STANDARD
100
AcDbAlignedDimension
 13
-9.961432443754389
 23
341.2357310920707
 33
0.0
 14
172.0385675562456
 24
347.173537785078
 34
0.0
100
AcDbRotatedDimension
1001
ACAD
1000
DSTYLE
1002
{
1070
    41
1040
2.0
1070
    42
1040
10.0
1070
    44
1040
0.0
1070
    73
1070
     0
1070
    74
1070
     0
1070
    77
1070
     1
1070
   140
1040
5.0
1070
   141
1040
0.0
1070
   146
1040
0.064286
1070
   147
1040
3.0
1070
   176
1070
    60
1070
   177
1070
    70
1070
   178
1070
    60
1070
   271
1070
     0
1070
   272
1070
     0
1070
   340
1005
1C
1070
   342
1005
109
1002
}
  0
DIMENSION
  5
12FC
330
2
100
AcDbEntity
  8
SUNPOU
100
AcDbDimension
  2
*D6
 10
-65.40361306285014
 20
51.23573109207065
 30
0.0
 11
-70.90361306285014
 21
196.2357310920707
 31
0.0
 70
    32
 71
     5
 42
290.0000000000001
  3
STANDARD
100
AcDbAlignedDimension
 13
-9.961432443754389
 23
341.2357310920707
 33
0.0
 14
-10.10507357842698
 24
51.23573109207063
 34
0.0
 50
90.0
100
AcDbRotatedDimension
1001
ACAD
1000
DSTYLE
1002
{
1070
    41
1040
2.0
1070
    42
1040
10.0
1070
    44
1040
0.0
1070
    73
1070
     0
1070
    74
1070
     0
1070
    77
1070
     1
1070
   140
1040
5.0
1070
   141
1040
0.0
1070
   146
1040
0.064286
1070
   147
1040
3.0
1070
   176
1070
    60
1070
   177
1070
    70
1070
   178
1070
    60
1070
   271
1070
     0
1070
   272
1070
     0
1070
   340
1005
1C
1070
   342
1005
109
1002
}
  0
ENDSEC
  0
SECTION
  2
OBJECTS
  0
DICTIONARY
  5
1A
330
0
100
AcDbDictionary
281
     1
  3
ACAD_COLOR
350
144
  3
ACAD_GROUP
350
18
  3
ACAD_LAYOUT
350
58
  3
ACAD_MATERIAL
350
143
  3
ACAD_MLINESTYLE
350
19
  3
ACAD_PLOTSETTINGS
350
59
  3
ACAD_PLOTSTYLENAME
350
56
  3
ACAD_TABLESTYLE
350
145
  3
ACDBHEADERROUNDTRIPXREC
350
136C
  3
AcDbVariableDictionary
350
1D1
  0
DICTIONARY
  5
1B4
330
A
100
AcDbDictionary
280
     1
281
     1
  3
ACAD_LAYERFILTERS
360
12EE
  3
ACLYDICTIONARY
360
12ED
  0
DICTIONARY
  5
D13
330
2
100
AcDbDictionary
280
     1
281
     1
  3
ACAD_SORTENTS
360
D14
  0
DICTIONARY
  5
144
102
{ACAD_REACTORS
330
1A
102
}
330
1A
100
AcDbDictionary
281
     1
  0
DICTIONARY
  5
18
102
{ACAD_REACTORS
330
1A
102
}
330
1A
100
AcDbDictionary
281
     1
  3
*A1
350
E0D
  3
*A2
350
FF8
  3
*A3
350
136A
  0
DICTIONARY
  5
58
102
{ACAD_REACTORS
330
1A
102
}
330
1A
100
AcDbDictionary
281
     1
  3
Model
350
5A
  3
ﾚｲｱｳﾄ1
350
5B
  0
DICTIONARY
  5
143
102
{ACAD_REACTORS
330
1A
102
}
330
1A
100
AcDbDictionary
281
     1
  0
DICTIONARY
  5
19
102
{ACAD_REACTORS
330
1A
102
}
330
1A
100
AcDbDictionary
281
     1
  3
STANDARD
350
1D
  0
DICTIONARY
  5
59
102
{ACAD_REACTORS
330
1A
102
}
330
1A
100
AcDbDictionary
281
     1
  0
ACDBDICTIONARYWDFLT
  5
56
102
{ACAD_REACTORS
330
1A
102
}
330
1A
100
AcDbDictionary
281
     1
  3
Normal
350
57
100
AcDbDictionaryWithDefault
340
57
  0
DICTIONARY
  5
145
102
{ACAD_REACTORS
330
1A
102
}
330
1A
100
AcDbDictionary
281
     1
  3
Standard
350
146
  0
DICTIONARY
  5
136C
102
{ACAD_REACTORS
330
1A
102
}
330
1A
100
AcDbDictionary
281
     1
  0
DICTIONARY
  5
1D1
102
{ACAD_REACTORS
330
1A
102
}
330
1A
100
AcDbDictionary
281
     1
  3
CTABLESTYLE
350
1D2
  3
DIMASSOC
350
D03
  3
PROJECTNAME
350
D04
  0
DICTIONARY
  5
12EE
102
{ACAD_REACTORS
330
1B4
102
}
330
1B4
100
AcDbDictionary
281
     1
  0
DICTIONARY
  5
12ED
102
{ACAD_REACTORS
330
1B4
102
}
330
1B4
100
AcDbDictionary
281
     1
1001
ACAD
1000
<All
  0
SORTENTSTABLE
  5
D14
102
{ACAD_REACTORS
330
D13
102
}
330
D13
100
AcDbSortentsTable
330
2
331
12D0
  5
12D1
331
1299
  5
129A
331
1168
  5
1169
331
12D8
  5
12D9
331
1131
  5
1132
331
1262
  5
1263
331
12A1
  5
12A2
331
1225
  5
1226
331
1170
  5
1171
331
12E0
  5
12E1
331
12A9
  5
12AA
331
126A
  5
126B
331
122D
  5
122F
331
11B7
  5
11B8
331
1178
  5
1179
331
12E8
  5
12E9
331
1141
  5
1142
331
1272
  5
1273
331
1235
  5
1236
331
11F6
  5
11F7
331
1180
  5
1181
331
11FE
  5
1200
331
20
  5
20
331
12B1
  5
12B2
331
123B
  5
123C
331
1188
  5
1189
331
12B9
  5
12BA
331
1149
  5
114A
331
1282
  5
1283
331
1190
  5
1191
331
12C1
  5
12C2
331
1151
  5
1152
331
124B
  5
124C
331
128A
  5
128B
331
11CF
  5
11D0
331
1198
  5
1199
331
12C9
  5
12CA
331
1159
  5
115A
331
1253
  5
1254
331
1292
  5
1293
331
1216
  5
1217
331
11A0
  5
11A1
331
1161
  5
1162
331
112A
  5
112A
331
121E
  5
121F
331
11DF
  5
11E0
331
12D1
  5
12D2
331
129A
  5
129B
331
125B
  5
125C
331
11A8
  5
11A9
331
1169
  5
116A
331
12D9
  5
12DA
331
1132
  5
1133
331
1263
  5
1264
331
12A2
  5
12A3
331
1226
  5
1227
331
11B0
  5
11B1
331
12E1
  5
12E2
331
1171
  5
1173
331
126B
  5
126C
331
12AA
  5
12AB
331
11B8
  5
11B9
331
1179
  5
117B
331
12E9
  5
12EA
331
1142
  5
1143
331
1273
  5
1274
331
1236
  5
1237
331
11F7
  5
11F8
331
1181
  5
1182
331
21
  5
21
331
12B2
  5
12B3
331
127B
  5
127C
331
123C
  5
123D
331
11C0
  5
11C1
331
1189
  5
118C
331
12BA
  5
12BB
331
114A
  5
114B
331
1244
  5
1245
331
1283
  5
1284
331
1207
  5
1208
331
11C8
  5
11C9
331
1191
  5
1192
331
12C2
  5
12C3
331
1152
  5
1153
331
124C
  5
124D
331
128B
  5
128C
331
11D0
  5
11D1
331
1199
  5
119A
331
12CA
  5
12CB
331
115A
  5
115B
331
1254
  5
1255
331
1293
  5
1294
331
1217
  5
1218
331
11D8
  5
11D9
331
11A1
  5
11A3
331
1162
  5
1163
331
112B
  5
112B
331
121F
  5
1220
331
12D2
  5
12D3
331
129B
  5
129C
331
125C
  5
125D
331
11E0
  5
11E1
331
11A9
  5
11AC
331
116A
  5
116B
331
12DA
  5
12DB
331
1133
  5
113B
331
1264
  5
1265
331
12A3
  5
12A4
331
1227
  5
1228
331
11E8
  5
11E9
331
11B1
  5
11B4
331
12E2
  5
12E3
331
113B
  5
113C
331
126C
  5
126D
331
12AB
  5
12AC
331
122F
  5
1231
331
11F0
  5
11F1
331
11B9
  5
11BA
331
12EA
  5
12EF
331
1143
  5
1144
331
1274
  5
1275
331
1237
  5
1238
331
11F8
  5
11F9
331
1182
  5
1184
331
12B3
  5
12B4
331
127C
  5
127D
331
123D
  5
1240
331
1200
  5
1201
331
11C1
  5
11C2
331
12BB
  5
12BC
331
114B
  5
114C
331
1245
  5
1246
331
1284
  5
1285
331
1208
  5
1209
331
11C9
  5
11CB
331
1192
  5
1193
331
12C3
  5
12C4
331
1153
  5
1154
331
124D
  5
124E
331
128C
  5
128D
331
1210
  5
1211
331
11D1
  5
11D4
331
119A
  5
119C
331
12CB
  5
12CC
331
115B
  5
115C
331
1255
  5
1256
331
1294
  5
1295
331
1218
  5
1219
331
11D9
  5
11DC
331
1163
  5
1164
331
112C
  5
112C
331
12D3
  5
12D4
331
129C
  5
129D
331
125D
  5
125E
331
1220
  5
1221
331
11E1
  5
11E2
331
12DB
  5
12DC
331
116B
  5
116C
331
1265
  5
1266
331
12A4
  5
12A5
331
1228
  5
1229
331
11E9
  5
11EA
331
1173
  5
1174
331
12E3
  5
12E4
331
113C
  5
113D
331
126D
  5
126E
331
12AC
  5
12AD
331
11F1
  5
11F3
331
11BA
  5
11BB
331
117B
  5
117D
331
1275
  5
1276
331
1144
  5
1145
331
11F9
  5
11FC
331
23
  5
23
331
12B4
  5
12B5
331
127D
  5
127E
331
1201
  5
1204
331
11C2
  5
11C4
331
12BC
  5
12BD
331
114C
  5
114D
331
1246
  5
1249
331
1285
  5
1286
331
1209
  5
120A
331
1193
  5
1194
331
12C4
  5
12C5
331
1154
  5
1155
331
124E
  5
124F
331
128D
  5
128E
331
1211
  5
1212
331
12CC
  5
12CD
331
115C
  5
115D
331
1256
  5
1257
331
1295
  5
1296
331
1219
  5
121A
331
11A3
  5
11A4
331
1164
  5
1165
331
112D
  5
112D
331
12D4
  5
12D5
331
129D
  5
129E
331
125E
  5
125F
331
1221
  5
1222
331
11E2
  5
11E3
331
116C
  5
116D
331
12A5
  5
12A6
331
1266
  5
1267
331
12DC
  5
12DD
331
1229
  5
122A
331
11EA
  5
11EC
331
1174
  5
1175
331
12E4
  5
12E5
331
113D
  5
113E
331
126E
  5
126F
331
12AD
  5
12AE
331
1231
  5
1232
331
11BB
  5
11BC
331
1276
  5
1277
331
1145
  5
1146
331
1184
  5
1185
331
12B5
  5
12B6
331
127E
  5
127F
331
118C
  5
118D
331
12FC
  5
131B
331
114D
  5
114E
331
1286
  5
1287
331
12BD
  5
12BE
331
120A
  5
120B
331
11CB
  5
11CC
331
1194
  5
1195
331
12C5
  5
12C6
331
1155
  5
1156
331
124F
  5
1250
331
128E
  5
128F
331
1212
  5
1213
331
119C
  5
119D
331
12CD
  5
12CE
331
115D
  5
115E
331
1257
  5
1258
331
1296
  5
1297
331
121A
  5
121B
331
11A4
  5
11A5
331
1165
  5
1166
331
112E
  5
112E
331
12D5
  5
12D6
331
129E
  5
129F
331
125F
  5
1260
331
1222
  5
1223
331
11E3
  5
11E4
331
11AC
  5
11AD
331
116D
  5
116E
331
12A6
  5
12A7
331
1267
  5
1268
331
12DD
  5
12DE
331
122A
  5
122D
331
11B4
  5
11B5
331
1175
  5
1176
331
12E5
  5
12E6
331
113E
  5
113F
331
126F
  5
1270
331
12AE
  5
12AF
331
1232
  5
1235
331
11F3
  5
11F4
331
11BC
  5
11BD
331
117D
  5
117E
331
1277
  5
1278
331
1146
  5
1147
331
1185
  5
1186
331
1238
  5
123A
331
12B6
  5
12B7
331
127F
  5
1280
331
1240
  5
1241
331
11C4
  5
11C5
331
118D
  5
118F
331
12BE
  5
12BF
331
114E
  5
114F
331
1287
  5
1288
331
120B
  5
120C
331
11CC
  5
11CD
331
1195
  5
1198
331
12C6
  5
12C7
331
1156
  5
1157
331
1250
  5
1251
331
128F
  5
1290
331
1213
  5
1214
331
11D4
  5
11D5
331
119D
  5
11A0
331
12CE
  5
12CF
331
115E
  5
115F
331
1297
  5
1298
331
121B
  5
121C
331
11DC
  5
11DD
331
11A5
  5
11A6
331
1166
  5
1167
331
112F
  5
112F
331
1258
  5
1259
331
12D6
  5
12D7
331
129F
  5
12A0
331
1260
  5
1261
331
1223
  5
1224
331
11E4
  5
11E5
331
11AD
  5
11AE
331
116E
  5
116F
331
12A7
  5
12A8
331
1268
  5
1269
331
12DE
  5
12DF
331
11EC
  5
11ED
331
11B5
  5
11B7
331
1176
  5
1178
331
12E6
  5
12E7
331
113F
  5
1140
331
1270
  5
1271
331
12AF
  5
12B0
331
11F4
  5
11F5
331
11BD
  5
11C0
331
117E
  5
1180
331
1147
  5
1148
331
11FC
  5
11FD
331
1186
  5
1188
331
1278
  5
1279
331
12B7
  5
12B8
331
1280
  5
1281
331
1241
  5
1244
331
1204
  5
1205
331
11C5
  5
11C8
331
12BF
  5
12C0
331
114F
  5
1150
331
1249
  5
124A
331
1288
  5
1289
331
120C
  5
120D
331
11CD
  5
11CE
331
12C7
  5
12C8
331
1157
  5
1158
331
1251
  5
1252
331
1290
  5
1291
331
1214
  5
1215
331
11D5
  5
11D6
331
12CF
  5
12D0
331
115F
  5
1160
331
121C
  5
121D
331
11DD
  5
11DF
331
11A6
  5
11A7
331
1167
  5
1168
331
1F
  5
1F
331
1298
  5
1299
331
1259
  5
125B
331
12D7
  5
12D8
331
12A0
  5
12A1
331
1261
  5
1262
331
1130
  5
1130
331
1224
  5
1225
331
11E5
  5
11E8
331
11AE
  5
11B0
331
116F
  5
1170
331
12A8
  5
12A9
331
1269
  5
126A
331
12DF
  5
12E0
331
11ED
  5
11F0
331
12E7
  5
12E8
331
1140
  5
1141
331
1271
  5
1272
331
12EF
  5
12FC
331
11F5
  5
11F6
331
11FD
  5
11FE
331
12B0
  5
12B1
331
1279
  5
127B
331
123A
  5
123B
331
12B8
  5
12B9
331
1148
  5
1149
331
1281
  5
1282
331
1205
  5
1207
331
118F
  5
1190
331
12C0
  5
12C1
331
1150
  5
1151
331
124A
  5
124B
331
1289
  5
128A
331
120D
  5
1210
331
11CE
  5
11CF
331
12C8
  5
12C9
331
1158
  5
1159
331
1252
  5
1253
331
1291
  5
1292
331
1215
  5
1216
331
11D6
  5
11D8
331
1160
  5
1161
331
1129
  5
1129
331
121D
  5
121E
331
11A7
  5
11A8
  0
GROUP
  5
E0D
102
{ACAD_REACTORS
330
18
102
}
330
18
100
AcDbGroup
300

 70
     1
 71
     1
  0
GROUP
  5
FF8
102
{ACAD_REACTORS
330
18
102
}
330
18
100
AcDbGroup
300

 70
     1
 71
     1
  0
GROUP
  5
136A
102
{ACAD_REACTORS
330
18
102
}
330
18
100
AcDbGroup
300

 70
     1
 71
     1
340
12EA
340
12E9
340
12E8
340
12E7
340
12E6
340
12E5
340
12E4
340
12E3
340
12E2
340
12E1
340
12E0
340
12DF
340
12DE
340
12DD
340
12DC
340
12DB
340
12DA
340
12D9
340
12D8
340
12D7
340
12D6
340
12D5
340
12D4
340
12D3
340
12D2
340
12D1
340
12D0
340
12CF
340
12CE
340
12CD
340
12CC
340
12CB
340
12CA
340
12C9
340
12C8
340
12C7
340
12C6
340
12C5
340
12C4
340
12C3
340
12C2
340
12C1
340
12C0
340
12BF
340
12BE
340
12BD
340
12BC
340
12BB
340
12BA
340
12B9
340
12B8
340
12B7
340
12B6
340
12B5
340
12B4
340
12B3
340
12B2
340
12B1
340
12B0
340
12AF
340
12AE
340
12AD
340
12AC
340
12AB
340
12AA
340
12A9
340
12A8
340
12A7
340
12A6
340
12A5
340
12A4
340
12A3
340
12A2
340
12A1
340
12A0
340
129F
340
129E
340
129D
340
129C
340
129B
340
129A
340
1299
340
1298
340
1297
340
1296
340
1295
340
1294
340
1293
340
1292
340
1291
340
1290
340
128F
340
128E
340
128D
340
128C
340
128B
340
128A
340
1289
340
1288
340
1287
340
1286
340
1285
340
1284
340
1283
340
1282
340
1281
340
1280
340
127F
340
127E
340
127D
340
127C
340
127B
340
1279
340
1278
340
1277
340
1276
340
1275
340
1274
340
1273
340
1272
340
1271
340
1270
340
126F
340
126E
340
126D
340
126C
340
126B
340
126A
340
1269
340
1268
340
1267
340
1266
340
1265
340
1264
340
1263
340
1262
340
1261
340
1260
340
125F
340
125E
340
125D
340
125C
340
125B
340
1259
340
1258
340
1257
340
1256
340
1255
340
1254
340
1253
340
1252
340
1251
340
1250
340
124F
340
124E
340
124D
340
124C
340
124B
340
124A
340
1249
340
1246
340
1245
340
1244
340
1241
340
1240
340
123D
340
123C
340
123B
340
123A
340
1238
340
1237
340
1236
340
1235
340
1232
340
1231
340
122F
340
122D
340
122A
340
1229
340
1228
340
1227
340
1226
340
1225
340
1224
340
1223
340
1222
340
1221
340
1220
340
121F
340
121E
340
121D
340
121C
340
121B
340
121A
340
1219
340
1218
340
1217
340
1216
340
1215
340
1214
340
1213
340
1212
340
1211
340
1210
340
120D
340
120C
340
120B
340
120A
340
1209
340
1208
340
1207
340
1205
340
1204
340
1201
340
1200
340
11FE
340
11FD
340
11FC
340
11F9
340
11F8
340
11F7
340
11F6
340
11F5
340
11F4
340
11F3
340
11F1
340
11F0
340
11ED
340
11EC
340
11EA
340
11E9
340
11E8
340
11E5
340
11E4
340
11E3
340
11E2
340
11E1
340
11E0
340
11DF
340
11DD
340
11DC
340
11D9
340
11D8
340
11D6
340
11D5
340
11D4
340
11D1
340
11D0
340
11CF
340
11CE
340
11CD
340
11CC
340
11CB
340
11C9
340
11C8
340
11C5
340
11C4
340
11C2
340
11C1
340
11C0
340
11BD
340
11BC
340
11BB
340
11BA
340
11B9
340
11B8
340
11B7
340
11B5
340
11B4
340
11B1
340
11B0
340
11AE
340
11AD
340
11AC
340
11A9
340
11A8
340
11A7
340
11A6
340
11A5
340
11A4
340
11A3
340
11A1
340
11A0
340
119D
340
119C
340
119A
340
1199
340
1198
340
1195
340
1194
340
1193
340
1192
340
1191
340
1190
340
118F
340
118D
340
118C
340
1189
340
1188
340
1186
340
1185
340
1184
340
1182
340
1181
340
1180
340
117E
340
117D
340
117B
340
1179
340
1178
340
1176
340
1175
340
1174
340
1173
340
1171
340
1170
340
116F
340
116E
340
116D
340
116C
340
116B
340
116A
340
1169
340
1168
340
1167
340
1166
340
1165
340
1164
340
1163
340
1162
340
1161
340
1160
340
115F
340
115E
340
115D
340
115C
340
115B
340
115A
340
1159
340
1158
340
1157
340
1156
340
1155
340
1154
340
1153
340
1152
340
1151
340
1150
340
114F
340
114E
340
114D
340
114C
340
114B
340
114A
340
1149
340
1148
340
1147
340
1146
340
1145
340
1144
340
1143
340
1142
340
1141
340
1140
340
113F
340
113E
340
113D
340
113C
340
113B
340
1133
340
1132
340
1131
340
1130
340
112F
340
112E
340
112D
340
112C
340
112B
340
112A
340
1129
  0
LAYOUT
  5
5A
102
{ACAD_XDICTIONARY
360
136D
102
}
102
{ACAD_REACTORS
330
58
102
}
330
58
100
AcDbPlotSettings
  1

  2
なし
  4

  6

 40
0.0
 41
0.0
 42
0.0
 43
0.0
 44
0.0
 45
0.0
 46
0.0
 47
0.0
 48
0.0
 49
0.0
140
0.0
141
0.0
142
1.0
143
1.0
 70
  1712
 72
     0
 73
     0
 74
     0
  7
monochrome.ctb
 75
     0
147
1.0
148
0.0
149
0.0
100
AcDbLayout
  1
Model
 70
     1
 71
     0
 10
0.0
 20
0.0
 11
12.0
 21
9.0
 12
0.0
 22
0.0
 32
0.0
 14
0.0
 24
0.0
 34
0.0
 15
0.0
 25
0.0
 35
0.0
146
0.0
 13
0.0
 23
0.0
 33
0.0
 16
1.0
 26
0.0
 36
0.0
 17
0.0
 27
1.0
 37
0.0
 76
     0
330
2
  0
LAYOUT
  5
5B
102
{ACAD_XDICTIONARY
360
136F
102
}
102
{ACAD_REACTORS
330
58
102
}
330
58
100
AcDbPlotSettings
  1

  2
なし
  4

  6

 40
0.0
 41
0.0
 42
0.0
 43
0.0
 44
0.0
 45
0.0
 46
0.0
 47
0.0
 48
0.0
 49
0.0
140
0.0
141
0.0
142
1.0
143
1.0
 70
   688
 72
     0
 73
     0
 74
     5
  7
monochrome.ctb
 75
    16
147
1.0
148
0.0
149
0.0
100
AcDbLayout
  1
ﾚｲｱｳﾄ1
 70
     1
 71
     1
 10
0.0
 20
0.0
 11
12.0
 21
9.0
 12
0.0
 22
0.0
 32
0.0
 14
1.000000000000000E+20
 24
1.000000000000000E+20
 34
1.000000000000000E+20
 15
-1.000000000000000E+20
 25
-1.000000000000000E+20
 35
-1.000000000000000E+20
146
0.0
 13
0.0
 23
0.0
 33
0.0
 16
1.0
 26
0.0
 36
0.0
 17
0.0
 27
1.0
 37
0.0
 76
     0
330
7
  0
MLINESTYLE
  5
1D
102
{ACAD_REACTORS
330
19
102
}
330
19
100
AcDbMlineStyle
  2
STANDARD
 70
     0
  3

 62
   256
 51
90.0
 52
90.0
 71
     2
 49
0.5
 62
   256
  6
BYLAYER
 49
-0.5
 62
   256
  6
BYLAYER
  0
ACDBPLACEHOLDER
  5
57
102
{ACAD_REACTORS
330
56
102
}
330
56
  0
TABLESTYLE
  5
146
102
{ACAD_REACTORS
330
145
102
}
330
145
100
AcDbTableStyle
  3
Standard
 70
     0
 71
     0
 40
0.06
 41
0.06
280
     0
281
     0
  7
STANDARD
140
0.18
170
     2
 62
     0
 63
     7
283
     0
274
    -2
284
     1
 64
     0
275
    -2
285
     1
 65
     0
276
    -2
286
     1
 66
     0
277
    -2
287
     1
 67
     0
278
    -2
288
     1
 68
     0
279
    -2
289
     1
 69
     0
  7
STANDARD
140
0.25
170
     5
 62
     0
 63
     7
283
     0
274
    -2
284
     1
 64
     0
275
    -2
285
     1
 65
     0
276
    -2
286
     1
 66
     0
277
    -2
287
     1
 67
     0
278
    -2
288
     1
 68
     0
279
    -2
289
     1
 69
     0
  7
STANDARD
140
0.18
170
     5
 62
     0
 63
     7
283
     0
274
    -2
284
     1
 64
     0
275
    -2
285
     1
 65
     0
276
    -2
286
     1
 66
     0
277
    -2
287
     1
 67
     0
278
    -2
288
     1
 68
     0
279
    -2
289
     1
 69
     0
  0
DICTIONARYVAR
  5
1D2
102
{ACAD_REACTORS
330
1D1
102
}
330
1D1
100
DictionaryVariables
280
     0
  1
STANDARD
  0
DICTIONARYVAR
  5
D03
102
{ACAD_REACTORS
330
1D1
102
}
330
1D1
100
DictionaryVariables
280
     0
  1
1
  0
DICTIONARYVAR
  5
D04
102
{ACAD_REACTORS
330
1D1
102
}
330
1D1
100
DictionaryVariables
280
     0
  1

  0
DICTIONARY
  5
136D
330
5A
100
AcDbDictionary
280
     1
281
     1
  3
ACAD_XREC_ROUNDTRIP
360
136E
  0
DICTIONARY
  5
136F
330
5B
100
AcDbDictionary
280
     1
281
     1
  3
ACAD_XREC_ROUNDTRIP
360
1370
  0
XRECORD
  5
136E
102
{ACAD_REACTORS
330
136D
102
}
330
136D
100
AcDbXrecord
280
     1
102
SHADEPLOT
 70
     0
102
SHADEPLOTRESLEVEL
 70
     2
102
SHADEPLOTCUSTOMDPI
 70
   300
  0
XRECORD
  5
1370
102
{ACAD_REACTORS
330
136F
102
}
330
136F
100
AcDbXrecord
280
     1
102
SHADEPLOT
 70
     0
102
SHADEPLOTRESLEVEL
 70
     2
102
SHADEPLOTCUSTOMDPI
 70
   300
  0
ENDSEC
  0
EOF
