  0
SECTION
  2
HEADER
  9
$ACADVER
  1
AC1015
  9
$ACADMAINTVER
 70
    20
  9
$DWGCODEPAGE
  3
ANSI_932
  9
$INSBASE
 10
922.019522
 20
-675.4306699999999
 30
0.0
  9
$EXTMIN
 10
-0.0064049753888185
 20
-0.0039612527231157
 30
-0.0000000000112498
  9
$EXTMAX
 10
131.8604679055507
 20
142.3728481819457
 30
0.0000000000002956
  9
$LIMMIN
 10
0.0
 20
0.0
  9
$LIMMAX
 10
420.0
 20
297.0
  9
$ORTHOMODE
 70
     0
  9
$REGENMODE
 70
     1
  9
$FILLMODE
 70
     1
  9
$QTEXTMODE
 70
     0
  9
$MIRRTEXT
 70
     1
  9
$LTSCALE
 40
1.0
  9
$ATTMODE
 70
     1
  9
$TEXTSIZE
 40
30.0
  9
$TRACEWID
 40
0.05
  9
$TEXTSTYLE
  7
SUNPOU
  9
$CLAYER
  8
0
  9
$CELTYPE
  6
BYLAYER
  9
$CECOLOR
 62
   256
  9
$CELTSCALE
 40
1.0
  9
$DISPSILH
 70
     0
  9
$DIMSCALE
 40
1.0
  9
$DIMASZ
 40
2.0
  9
$DIMEXO
 40
10.0
  9
$DIMDLI
 40
0.38
  9
$DIMRND
 40
0.0
  9
$DIMDLE
 40
0.0
  9
$DIMEXE
 40
0.0
  9
$DIMTP
 40
0.0
  9
$DIMTM
 40
0.0
  9
$DIMTXT
 40
5.0
  9
$DIMCEN
 40
0.0
  9
$DIMTSZ
 40
0.0
  9
$DIMTOL
 70
     0
  9
$DIMLIM
 70
     0
  9
$DIMTIH
 70
     0
  9
$DIMTOH
 70
     0
  9
$DIMSE1
 70
     0
  9
$DIMSE2
 70
     0
  9
$DIMTAD
 70
     1
  9
$DIMZIN
 70
     0
  9
$DIMBLK
  1
Dot
  9
$DIMASO
 70
     1
  9
$DIMSHO
 70
     1
  9
$DIMPOST
  1

  9
$DIMAPOST
  1

  9
$DIMALT
 70
     0
  9
$DIMALTD
 70
     2
  9
$DIMALTF
 40
25.4
  9
$DIMLFAC
 40
1.0
  9
$DIMTOFL
 70
     0
  9
$DIMTVP
 40
0.0
  9
$DIMTIX
 70
     0
  9
$DIMSOXD
 70
     0
  9
$DIMSAH
 70
     0
  9
$DIMBLK1
  1

  9
$DIMBLK2
  1

  9
$DIMSTYLE
  2
STANDARD
  9
$DIMCLRD
 70
    60
  9
$DIMCLRE
 70
    70
  9
$DIMCLRT
 70
    60
  9
$DIMTFAC
 40
0.064286
  9
$DIMGAP
 40
3.0
  9
$DIMJUST
 70
     0
  9
$DIMSD1
 70
     0
  9
$DIMSD2
 70
     0
  9
$DIMTOLJ
 70
     1
  9
$DIMTZIN
 70
     0
  9
$DIMALTZ
 70
     0
  9
$DIMALTTZ
 70
     0
  9
$DIMUPT
 70
     0
  9
$DIMDEC
 70
     0
  9
$DIMTDEC
 70
     0
  9
$DIMALTU
 70
     2
  9
$DIMALTTD
 70
     2
  9
$DIMTXSTY
  7
SUNPOU
  9
$DIMAUNIT
 70
     0
  9
$DIMADEC
 70
     0
  9
$DIMALTRND
 40
0.0
  9
$DIMAZIN
 70
     0
  9
$DIMDSEP
 70
    46
  9
$DIMATFIT
 70
     3
  9
$DIMFRAC
 70
     0
  9
$DIMLDRBLK
  1

  9
$DIMLUNIT
 70
     2
  9
$DIMLWD
 70
    -2
  9
$DIMLWE
 70
    -2
  9
$DIMTMOVE
 70
     0
  9
$LUNITS
 70
     2
  9
$LUPREC
 70
     5
  9
$SKETCHINC
 40
0.1
  9
$FILLETRAD
 40
4.0
  9
$AUNITS
 70
     0
  9
$AUPREC
 70
     0
  9
$MENU
  1
acad
  9
$ELEVATION
 40
0.0
  9
$PELEVATION
 40
0.0
  9
$THICKNESS
 40
0.0
  9
$LIMCHECK
 70
     0
  9
$CHAMFERA
 40
0.0
  9
$CHAMFERB
 40
0.0
  9
$CHAMFERC
 40
0.0
  9
$CHAMFERD
 40
0.0
  9
$SKPOLY
 70
     0
  9
$TDCREATE
 40
2450623.654673033
  9
$TDUCREATE
 40
2450623.279673032
  9
$TDUPDATE
 40
2453865.619872859
  9
$TDUUPDATE
 40
2453865.244872859
  9
$TDINDWG
 40
0.0456794213
  9
$TDUSRTIMER
 40
0.0456792477
  9
$USRTIMER
 70
     1
  9
$ANGBASE
 50
0.0
  9
$ANGDIR
 70
     0
  9
$PDMODE
 70
     0
  9
$PDSIZE
 40
0.0
  9
$PLINEWID
 40
0.0
  9
$SPLFRAME
 70
     0
  9
$SPLINETYPE
 70
     6
  9
$SPLINESEGS
 70
     8
  9
$HANDSEED
  5
1005
  9
$SURFTAB1
 70
     6
  9
$SURFTAB2
 70
     6
  9
$SURFTYPE
 70
     6
  9
$SURFU
 70
     6
  9
$SURFV
 70
     6
  9
$UCSBASE
  2

  9
$UCSNAME
  2

  9
$UCSORG
 10
0.0
 20
0.0
 30
0.0
  9
$UCSXDIR
 10
1.0
 20
0.0
 30
0.0
  9
$UCSYDIR
 10
0.0
 20
1.0
 30
0.0
  9
$UCSORTHOREF
  2

  9
$UCSORTHOVIEW
 70
     0
  9
$UCSORGTOP
 10
0.0
 20
0.0
 30
0.0
  9
$UCSORGBOTTOM
 10
0.0
 20
0.0
 30
0.0
  9
$UCSORGLEFT
 10
0.0
 20
0.0
 30
0.0
  9
$UCSORGRIGHT
 10
0.0
 20
0.0
 30
0.0
  9
$UCSORGFRONT
 10
0.0
 20
0.0
 30
0.0
  9
$UCSORGBACK
 10
0.0
 20
0.0
 30
0.0
  9
$PUCSBASE
  2

  9
$PUCSNAME
  2

  9
$PUCSORG
 10
0.0
 20
0.0
 30
0.0
  9
$PUCSXDIR
 10
1.0
 20
0.0
 30
0.0
  9
$PUCSYDIR
 10
0.0
 20
1.0
 30
0.0
  9
$PUCSORTHOREF
  2

  9
$PUCSORTHOVIEW
 70
     0
  9
$PUCSORGTOP
 10
0.0
 20
0.0
 30
0.0
  9
$PUCSORGBOTTOM
 10
0.0
 20
0.0
 30
0.0
  9
$PUCSORGLEFT
 10
0.0
 20
0.0
 30
0.0
  9
$PUCSORGRIGHT
 10
0.0
 20
0.0
 30
0.0
  9
$PUCSORGFRONT
 10
0.0
 20
0.0
 30
0.0
  9
$PUCSORGBACK
 10
0.0
 20
0.0
 30
0.0
  9
$USERI1
 70
     0
  9
$USERI2
 70
     0
  9
$USERI3
 70
     0
  9
$USERI4
 70
     0
  9
$USERI5
 70
     0
  9
$USERR1
 40
0.0
  9
$USERR2
 40
0.0
  9
$USERR3
 40
0.0
  9
$USERR4
 40
0.0
  9
$USERR5
 40
0.0
  9
$WORLDVIEW
 70
     1
  9
$SHADEDGE
 70
     3
  9
$SHADEDIF
 70
    70
  9
$TILEMODE
 70
     1
  9
$MAXACTVP
 70
    16
  9
$PINSBASE
 10
0.0
 20
0.0
 30
0.0
  9
$PLIMCHECK
 70
     0
  9
$PEXTMIN
 10
1.000000000000000E+20
 20
1.000000000000000E+20
 30
1.000000000000000E+20
  9
$PEXTMAX
 10
-1.000000000000000E+20
 20
-1.000000000000000E+20
 30
-1.000000000000000E+20
  9
$PLIMMIN
 10
0.0
 20
0.0
  9
$PLIMMAX
 10
12.0
 20
9.0
  9
$UNITMODE
 70
     0
  9
$VISRETAIN
 70
     0
  9
$PLINEGEN
 70
     0
  9
$PSLTSCALE
 70
     1
  9
$TREEDEPTH
 70
  3020
  9
$CMLSTYLE
  2
STANDARD
  9
$CMLJUST
 70
     0
  9
$CMLSCALE
 40
1.0
  9
$PROXYGRAPHICS
 70
     1
  9
$MEASUREMENT
 70
     0
  9
$CELWEIGHT
370
    -1
  9
$ENDCAPS
280
     0
  9
$JOINSTYLE
280
     0
  9
$LWDISPLAY
290
     0
  9
$INSUNITS
 70
     0
  9
$HYPERLINKBASE
  1

  9
$STYLESHEET
  1

  9
$XEDIT
290
     1
  9
$CEPSNTYPE
380
     0
  9
$PSTYLEMODE
290
     1
  9
$FINGERPRINTGUID
  2
{FB88A696-E29C-4009-92AF-A3599A8169D5}
  9
$VERSIONGUID
  2
{E82171A6-9A95-47BD-9AD4-692A466A6D5D}
  9
$EXTNAMES
290
     1
  9
$PSVPSCALE
 40
0.0
  9
$OLESTARTUP
290
     0
  0
ENDSEC
  0
SECTION
  2
CLASSES
  0
CLASS
  1
DICTIONARYVAR
  2
AcDbDictionaryVar
  3
ObjectDBX Classes
 90
        0
280
     0
281
     0
  0
CLASS
  1
ACDBDICTIONARYWDFLT
  2
AcDbDictionaryWithDefault
  3
ObjectDBX Classes
 90
        0
280
     0
281
     0
  0
CLASS
  1
ACDBPLACEHOLDER
  2
AcDbPlaceHolder
  3
ObjectDBX Classes
 90
        0
280
     0
281
     0
  0
CLASS
  1
LAYOUT
  2
AcDbLayout
  3
ObjectDBX Classes
 90
        0
280
     0
281
     0
  0
CLASS
  1
TABLESTYLE
  2
AcDbTableStyle
  3
ObjectDBX Classes
 90
     2047
280
     0
281
     0
  0
CLASS
  1
SORTENTSTABLE
  2
AcDbSortentsTable
  3
ObjectDBX Classes
 90
        0
280
     0
281
     0
  0
ENDSEC
  0
SECTION
  2
TABLES
  0
TABLE
  2
VPORT
  5
12
330
0
100
AcDbSymbolTable
 70
     5
  0
VPORT
  5
FFF
330
12
100
AcDbSymbolTableRecord
100
AcDbViewportTableRecord
  2
*Active
 70
     0
 10
0.0
 20
0.0
 11
1.0
 21
1.0
 12
65.92703146508097
 22
71.18444346461131
 13
0.0
 23
0.0
 14
1.0
 24
1.0
 15
0.0
 25
0.0
 16
0.0
 26
0.0
 36
1.0
 17
0.0
 27
0.0
 37
0.0
 40
143.4706133483795
 41
1.565384615384615
 42
50.0
 43
0.0
 44
0.0
 50
0.0
 51
0.0
 71
     0
 72
 20000
 73
     1
 74
     1
 75
     0
 76
     0
 77
     0
 78
     0
281
     0
 65
     1
110
0.0
120
0.0
130
0.0
111
1.0
121
0.0
131
0.0
112
0.0
122
1.0
132
0.0
 79
     0
146
0.0
  0
ENDTAB
  0
TABLE
  2
LTYPE
  5
D
330
0
100
AcDbSymbolTable
 70
     2
  0
LTYPE
  5
E
330
D
100
AcDbSymbolTableRecord
100
AcDbLinetypeTableRecord
  2
BYBLOCK
 70
     0
  3

 72
    65
 73
     0
 40
0.0
  0
LTYPE
  5
F
330
D
100
AcDbSymbolTableRecord
100
AcDbLinetypeTableRecord
  2
BYLAYER
 70
     0
  3

 72
    65
 73
     0
 40
0.0
  0
LTYPE
  5
5
330
D
100
AcDbSymbolTableRecord
100
AcDbLinetypeTableRecord
  2
CONTINUOUS
 70
     0
  3
Solid line
 72
    65
 73
     0
 40
0.0
  0
ENDTAB
  0
TABLE
  2
LAYER
  5
A
102
{ACAD_XDICTIONARY
360
1B4
102
}
330
0
100
AcDbSymbolTable
 70
     6
  0
LAYER
  5
4
330
A
100
AcDbSymbolTableRecord
100
AcDbLayerTableRecord
  2
0
 70
     0
 62
     7
  6
CONTINUOUS
370
    -3
390
57
  0
LAYER
  5
25
330
A
100
AcDbSymbolTableRecord
100
AcDbLayerTableRecord
  2
KIJUN
 70
     0
 62
     7
  6
CONTINUOUS
370
    -3
390
57
  0
LAYER
  5
22
330
A
100
AcDbSymbolTableRecord
100
AcDbLayerTableRecord
  2
HOJO
 70
     0
 62
     3
  6
CONTINUOUS
370
    -3
390
57
  0
LAYER
  5
1B
330
A
100
AcDbSymbolTableRecord
100
AcDbLayerTableRecord
  2
WAKU
 70
     0
 62
     1
  6
CONTINUOUS
370
    -3
390
57
  0
LAYER
  5
31
330
A
100
AcDbSymbolTableRecord
100
AcDbLayerTableRecord
  2
DEFPOINTS
 70
     0
 62
     7
  6
CONTINUOUS
290
     0
370
    -3
390
57
  0
LAYER
  5
28
330
A
100
AcDbSymbolTableRecord
100
AcDbLayerTableRecord
  2
SUNPOU
 70
     0
 62
    70
  6
CONTINUOUS
370
    -3
390
57
  0
ENDTAB
  0
TABLE
  2
STYLE
  5
B
330
0
100
AcDbSymbolTable
 70
     3
  0
STYLE
  5
C
330
B
100
AcDbSymbolTableRecord
100
AcDbTextStyleTableRecord
  2
STANDARD
 70
     0
 40
0.0
 41
1.0
 50
0.0
 71
     0
 42
0.2
  3
txt
  4

  0
STYLE
  5
1C
330
B
100
AcDbSymbolTableRecord
100
AcDbTextStyleTableRecord
  2
SUNPOU
 70
     0
 40
0.0
 41
1.0
 50
0.0
 71
     0
 42
30.0
  3
txt
  4
bigfont
  0
STYLE
  5
14A
330
B
100
AcDbSymbolTableRecord
100
AcDbTextStyleTableRecord
  2
LIFE
 70
     0
 40
0.0
 41
0.7
 50
0.0
 71
     0
 42
10.0
  3
romans
  4
extfont
  0
ENDTAB
  0
TABLE
  2
VIEW
  5
10
330
0
100
AcDbSymbolTable
 70
     0
  0
ENDTAB
  0
TABLE
  2
UCS
  5
11
330
0
100
AcDbSymbolTable
 70
     0
  0
ENDTAB
  0
TABLE
  2
APPID
  5
14
330
0
100
AcDbSymbolTable
 70
    10
  0
APPID
  5
15
330
14
100
AcDbSymbolTableRecord
100
AcDbRegAppTableRecord
  2
ACAD
 70
     0
  0
APPID
  5
1D3
330
14
100
AcDbSymbolTableRecord
100
AcDbRegAppTableRecord
  2
ACAD_DSTYLE_DIMTEXT_FILL
 70
     0
  0
APPID
  5
1D4
330
14
100
AcDbSymbolTableRecord
100
AcDbRegAppTableRecord
  2
ACAD_DSTYLE_DIMEXT_LENGTH
 70
     0
  0
APPID
  5
1D5
330
14
100
AcDbSymbolTableRecord
100
AcDbRegAppTableRecord
  2
ACAD_DSTYLE_DIMEXT_ENABLED
 70
     0
  0
APPID
  5
1D6
330
14
100
AcDbSymbolTableRecord
100
AcDbRegAppTableRecord
  2
ACAD_DSTYLE_DIM_LINETYPE
 70
     0
  0
APPID
  5
1D7
330
14
100
AcDbSymbolTableRecord
100
AcDbRegAppTableRecord
  2
ACAD_DSTYLE_DIM_EXT1_LINETYPE
 70
     0
  0
APPID
  5
1D8
330
14
100
AcDbSymbolTableRecord
100
AcDbRegAppTableRecord
  2
ACAD_DSTYLE_DIM_EXT2_LINETYPE
 70
     0
  0
APPID
  5
294
330
14
100
AcDbSymbolTableRecord
100
AcDbRegAppTableRecord
  2
ACAD_DSTYLE_DIMJOGGED_JOGANGLE_SYMBOL
 70
     0
  0
APPID
  5
478
330
14
100
AcDbSymbolTableRecord
100
AcDbRegAppTableRecord
  2
ACAD_DSTYLE_DIMARC_LENGTH_SYMBOL
 70
     0
  0
APPID
  5
F55
330
14
100
AcDbSymbolTableRecord
100
AcDbRegAppTableRecord
  2
ACAD_EXEMPT_FROM_CAD_STANDARDS
 70
     0
  0
ENDTAB
  0
TABLE
  2
DIMSTYLE
  5
16
330
0
100
AcDbSymbolTable
 70
     2
100
AcDbDimStyleTable
 71
     1
340
1E
  0
DIMSTYLE
105
1E
102
{ACAD_REACTORS
330
CDD
102
}
330
16
100
AcDbSymbolTableRecord
100
AcDbDimStyleTableRecord
  2
STANDARD
 70
     0
340
C
  0
ENDTAB
  0
TABLE
  2
BLOCK_RECORD
  5
1
330
0
100
AcDbSymbolTable
 70
     4
  0
BLOCK_RECORD
  5
2
102
{ACAD_XDICTIONARY
360
D13
102
}
330
1
100
AcDbSymbolTableRecord
100
AcDbBlockTableRecord
  2
*MODEL_SPACE
340
5A
  0
BLOCK_RECORD
  5
7
330
1
100
AcDbSymbolTableRecord
100
AcDbBlockTableRecord
  2
*PAPER_SPACE
340
5B
  0
BLOCK_RECORD
  5
109
330
1
100
AcDbSymbolTableRecord
100
AcDbBlockTableRecord
  2
_Dot
340
0
102
{BLKREFS
331
F4D
331
F4E
102
}
  0
BLOCK_RECORD
  5
CDE
330
1
100
AcDbSymbolTableRecord
100
AcDbBlockTableRecord
  2
*D1
340
0
  0
ENDTAB
  0
ENDSEC
  0
SECTION
  2
BLOCKS
  0
BLOCK
  5
3
330
2
100
AcDbEntity
  8
0
100
AcDbBlockBegin
  2
*MODEL_SPACE
 70
     0
 10
0.0
 20
0.0
 30
0.0
  3
*MODEL_SPACE
  1

  0
ENDBLK
  5
6
330
2
100
AcDbEntity
  8
0
100
AcDbBlockEnd
  0
BLOCK
  5
8
330
7
100
AcDbEntity
 67
     1
  8
0
100
AcDbBlockBegin
  2
*PAPER_SPACE
 70
     0
 10
0.0
 20
0.0
 30
0.0
  3
*PAPER_SPACE
  1

  0
ENDBLK
  5
9
330
7
100
AcDbEntity
 67
     1
  8
0
100
AcDbBlockEnd
  0
BLOCK
  5
10C
330
109
100
AcDbEntity
  8
0
100
AcDbBlockBegin
  2
_Dot
 70
     0
 10
0.0
 20
0.0
 30
0.0
  3
_Dot
  1

  0
LWPOLYLINE
  5
10A
330
109
100
AcDbEntity
  8
0
  6
ByBlock
 62
     0
100
AcDbPolyline
 90
        2
 70
     1
 43
0.5
 10
-0.25
 20
0.0
 42
1.0
 10
0.25
 20
0.0
 42
1.0
  0
LINE
  5
10B
330
109
100
AcDbEntity
  8
0
  6
ByBlock
 62
     0
370
    -2
100
AcDbLine
 10
-0.5
 20
0.0
 30
0.0
 11
-1.0
 21
0.0
 31
0.0
  0
ENDBLK
  5
10D
330
109
100
AcDbEntity
  8
0
100
AcDbBlockEnd
  0
BLOCK
  5
CE8
330
CDE
100
AcDbEntity
  8
0
100
AcDbBlockBegin
  2
*D1
 70
     1
 10
0.0
 20
0.0
 30
0.0
  3
*D1
  1

  0
LINE
  5
F4A
330
CDE
100
AcDbEntity
  8
SUNPOU
 62
    70
370
    -2
100
AcDbLine
 10
30.13153620038668
 20
94.24654640442486
 30
0.0
 11
30.13153620038668
 21
134.3577586605915
 31
0.0
  0
LINE
  5
F4B
330
CDE
100
AcDbEntity
  8
SUNPOU
 62
    70
370
    -2
100
AcDbLine
 10
110.1315362003879
 20
94.24654640442261
 30
0.0
 11
110.1315362003879
 21
134.3577586605915
 31
0.0
  0
LINE
  5
F4C
330
CDE
100
AcDbEntity
  8
SUNPOU
 62
    60
370
    -2
100
AcDbLine
 10
32.13153620038668
 20
134.3577586605915
 30
0.0
 11
108.1315362003879
 21
134.3577586605915
 31
0.0
  0
INSERT
  5
F4D
330
CDE
100
AcDbEntity
  8
SUNPOU
 62
    60
370
    -2
100
AcDbBlockReference
  2
_Dot
 10
30.13153620038668
 20
134.3577586605915
 30
0.0
 41
2.0
 42
2.0
 43
2.0
 50
180.0
  0
INSERT
  5
F4E
330
CDE
100
AcDbEntity
  8
SUNPOU
 62
    60
370
    -2
100
AcDbBlockReference
  2
_Dot
 10
110.1315362003879
 20
134.3577586605915
 30
0.0
 41
2.0
 42
2.0
 43
2.0
  0
MTEXT
  5
F4F
330
CDE
100
AcDbEntity
  8
SUNPOU
 62
    60
100
AcDbMText
 10
70.1315362003873
 20
139.8577586605915
 30
0.0
 40
5.0
 41
0.0
 71
     5
 72
     1
  1
\A1;80φ
  7
SUNPOU
 73
     1
 44
1.0
1001
ACAD
1000
MTEXTBEGIN
1070
    73
1070
     1
1070
    44
1040
1.0
1070
    74
1070
     0
1000
MTEXTEND
  0
POINT
  5
F50
330
CDE
100
AcDbEntity
  8
DEFPOINTS
 62
     0
100
AcDbPoint
 10
30.13153620038668
 20
84.24654640442486
 30
0.0
  0
POINT
  5
F51
330
CDE
100
AcDbEntity
  8
DEFPOINTS
 62
     0
100
AcDbPoint
 10
110.1315362003879
 20
84.24654640442261
 30
0.0
  0
POINT
  5
F52
330
CDE
100
AcDbEntity
  8
DEFPOINTS
 62
     0
100
AcDbPoint
 10
110.1315362003879
 20
134.3577586605915
 30
0.0
  0
ENDBLK
  5
CE9
330
CDE
100
AcDbEntity
  8
0
100
AcDbBlockEnd
  0
ENDSEC
  0
SECTION
  2
ENTITIES
  0
LINE
  5
1F
330
2
100
AcDbEntity
  8
WAKU
100
AcDbLine
 10
0.0
 20
14.0
 30
0.0
 11
131.828810471624
 21
14.0
 31
0.0
  0
LINE
  5
20
330
2
100
AcDbEntity
  8
WAKU
100
AcDbLine
 10
0.0
 20
0.0
 30
0.0
 11
131.828810471624
 21
0.0
 31
0.0
  0
TEXT
  5
21
330
2
100
AcDbEntity
  8
HOJO
100
AcDbText
 10
9.653966000000025
 20
2.366626000000024
 30
0.0
 40
9.0
  1
TWR205
  7
SUNPOU
100
AcDbText
  0
TEXT
  5
23
330
2
100
AcDbEntity
  8
HOJO
100
AcDbText
 10
85.84696046283864
 20
5.044386000000031
 30
0.0
 40
6.0
  1
80φ×6
  7
SUNPOU
100
AcDbText
  0
DIMENSION
  5
CDD
330
2
100
AcDbEntity
  8
SUNPOU
100
AcDbDimension
  2
*D1
 10
110.1315362003879
 20
134.3577586605915
 30
0.0
 11
70.1315362003873
 21
139.8577586605915
 31
0.0
 70
    32
  1
80φ
 71
     5
 42
80.00000000000124
  3
STANDARD
100
AcDbAlignedDimension
 13
30.13153620038668
 23
84.24654640442486
 33
0.0
 14
110.1315362003879
 24
84.24654640442261
 34
0.0
100
AcDbRotatedDimension
1001
ACAD
1000
DSTYLE
1002
{
1070
    41
1040
2.0
1070
    42
1040
10.0
1070
    44
1040
0.0
1070
    73
1070
     0
1070
    74
1070
     0
1070
    77
1070
     1
1070
   140
1040
5.0
1070
   141
1040
0.0
1070
   146
1040
0.064286
1070
   147
1040
3.0
1070
   176
1070
    60
1070
   177
1070
    70
1070
   178
1070
    60
1070
   271
1070
     0
1070
   272
1070
     0
1070
   340
1005
1C
1070
   342
1005
109
1002
}
  0
CIRCLE
  5
EB0
102
{ACAD_REACTORS
330
FF8
102
}
330
2
100
AcDbEntity
  8
KIJUN
100
AcDbCircle
 10
70.13153620038707
 20
84.24654640442474
 30
0.0
 40
8.0
  0
CIRCLE
  5
EB1
102
{ACAD_REACTORS
330
FF8
102
}
330
2
100
AcDbEntity
  8
KIJUN
100
AcDbCircle
 10
70.13153620038707
 20
84.24654640442474
 30
0.0
 40
11.0
  0
ARC
  5
EB2
102
{ACAD_REACTORS
330
FF8
102
}
330
2
100
AcDbEntity
  8
KIJUN
100
AcDbCircle
 10
70.1315362003873
 20
115.3706971716959
 30
0.0
 40
8.875849232728954
100
AcDbArc
 50
90.0
 51
195.3191847200406
  0
ARC
  5
EB3
102
{ACAD_REACTORS
330
FF8
102
}
330
2
100
AcDbEntity
  8
KIJUN
100
AcDbCircle
 10
58.22083935531833
 20
113.0015122651021
 30
0.0
 40
8.875849232728954
100
AcDbArc
 50
58.08467029285381
 51
112.4999999999917
  0
ARC
  5
EB4
102
{ACAD_REACTORS
330
FF8
102
}
330
2
100
AcDbEntity
  8
KIJUN
100
AcDbCircle
 10
69.92581522154188
 20
116.2207969800142
 30
0.0
 40
4.03100230082784
100
AcDbArc
 50
87.07465648337606
 51
155.6510454239832
  0
ARC
  5
EB5
102
{ACAD_REACTORS
330
FF8
102
}
330
2
100
AcDbEntity
  8
KIJUN
100
AcDbCircle
 10
58.22083935531833
 20
113.0015122651021
 30
0.0
 40
4.875849232728954
100
AcDbArc
 50
49.91249400811398
 51
112.4999999999917
  0
LINE
  5
EB9
102
{ACAD_REACTORS
330
FF8
102
}
330
2
100
AcDbEntity
  8
KIJUN
100
AcDbLine
 10
57.25141340152737
 20
116.8497021829101
 30
0.0
 11
59.12474324542069
 21
113.8374234614954
 31
0.0
  0
ARC
  5
EBA
102
{ACAD_REACTORS
330
FF8
102
}
330
2
100
AcDbEntity
  8
KIJUN
100
AcDbCircle
 10
57.65562788109838
 20
113.2115872833012
 30
0.0
 40
1.596862823045404
100
AcDbArc
 50
308.5612257006327
 51
23.07377459497155
  0
ARC
  5
EBB
102
{ACAD_REACTORS
330
FF8
102
}
330
2
100
AcDbEntity
  8
KIJUN
100
AcDbCircle
 10
82.60744451967577
 20
113.2115872833011
 30
0.0
 40
1.596862823045404
100
AcDbArc
 50
156.9262254050284
 51
231.4387742993631
  0
LINE
  5
EBC
102
{ACAD_REACTORS
330
FF8
102
}
330
2
100
AcDbEntity
  8
KIJUN
100
AcDbLine
 10
83.01165899924701
 20
116.8497021829099
 30
0.0
 11
81.13832915535345
 21
113.8374234614953
 31
0.0
  0
ARC
  5
EC0
102
{ACAD_REACTORS
330
FF8
102
}
330
2
100
AcDbEntity
  8
KIJUN
100
AcDbCircle
 10
70.13153620038707
 20
115.3706971716959
 30
0.0
 40
8.875849232728954
100
AcDbArc
 50
344.6808152799594
 51
90.0
  0
ARC
  5
EC1
102
{ACAD_REACTORS
330
FF8
102
}
330
2
100
AcDbEntity
  8
KIJUN
100
AcDbCircle
 10
82.04223304545582
 20
113.001512265102
 30
0.0
 40
4.875849232728954
100
AcDbArc
 50
67.5000000000083
 51
130.087505991886
  0
ARC
  5
EC2
102
{ACAD_REACTORS
330
FF8
102
}
330
2
100
AcDbEntity
  8
KIJUN
100
AcDbCircle
 10
70.3372571792325
 20
116.2207969800142
 30
0.0
 40
4.03100230082784
100
AcDbArc
 50
24.34895457601673
 51
92.92534351662395
  0
ARC
  5
EC3
102
{ACAD_REACTORS
330
FF8
102
}
330
2
100
AcDbEntity
  8
KIJUN
100
AcDbCircle
 10
82.04223304545582
 20
113.001512265102
 30
0.0
 40
8.875849232728954
100
AcDbArc
 50
67.5000000000083
 51
121.9153297071462
  0
ARC
  5
EC4
102
{ACAD_REACTORS
330
FF8
102
}
330
2
100
AcDbEntity
  8
KIJUN
100
AcDbCircle
 10
41.37657033970919
 20
96.15724324949212
 30
0.0
 40
8.875849232728954
100
AcDbArc
 50
103.0846702928537
 51
157.4999999999962
  0
ARC
  5
EC5
102
{ACAD_REACTORS
330
FF8
102
}
330
2
100
AcDbEntity
  8
KIJUN
100
AcDbCircle
 10
47.37686009585587
 20
106.7102891106082
 30
0.0
 40
4.03100230082784
100
AcDbArc
 50
132.0746564833736
 51
200.651045423985
  0
ARC
  5
EC6
102
{ACAD_REACTORS
330
FF8
102
}
330
2
100
AcDbEntity
  8
KIJUN
100
AcDbCircle
 10
41.37657033970919
 20
96.15724324949212
 30
0.0
 40
4.875849232728954
100
AcDbArc
 50
94.91249400811481
 51
157.4999999999962
  0
ARC
  5
EC7
102
{ACAD_REACTORS
330
FF8
102
}
330
2
100
AcDbEntity
  8
KIJUN
100
AcDbCircle
 10
48.1234381341772
 20
106.2546444706348
 30
0.0
 40
8.875849232728954
100
AcDbArc
 50
135.000000000005
 51
240.3191847200365
  0
LINE
  5
ECB
102
{ACAD_REACTORS
330
FF8
102
}
330
2
100
AcDbEntity
  8
KIJUN
100
AcDbLine
 10
37.97000148774947
 20
98.19283676988391
 30
0.0
 11
41.42464843450198
 21
97.38747829516377
 31
0.0
  0
ARC
  5
ECC
102
{ACAD_REACTORS
330
FF8
102
}
330
2
100
AcDbEntity
  8
KIJUN
100
AcDbCircle
 10
40.82836000355729
 20
95.90612385319321
 30
0.0
 40
1.596862823045404
100
AcDbArc
 50
353.5612257006346
 51
68.07377459496618
  0
ARC
  5
ECD
102
{ACAD_REACTORS
330
FF8
102
}
330
2
100
AcDbEntity
  8
KIJUN
100
AcDbCircle
 10
58.47195875161862
 20
113.5497226012547
 30
0.0
 40
1.596862823045404
100
AcDbArc
 50
201.9262254050282
 51
276.4387742993648
  0
LINE
  5
ECE
102
{ACAD_REACTORS
330
FF8
102
}
330
2
100
AcDbEntity
  8
KIJUN
100
AcDbLine
 10
56.18524583492768
 20
116.4080811170623
 30
0.0
 11
56.99060430964806
 21
112.95343417031
 31
0.0
  0
ARC
  5
ED2
102
{ACAD_REACTORS
330
FF8
102
}
330
2
100
AcDbEntity
  8
KIJUN
100
AcDbCircle
 10
48.12343813417697
 20
106.2546444706346
 30
0.0
 40
8.875849232728954
100
AcDbArc
 50
29.68081527995878
 51
134.9999999999957
  0
ARC
  5
ED3
102
{ACAD_REACTORS
330
FF8
102
}
330
2
100
AcDbEntity
  8
KIJUN
100
AcDbCircle
 10
58.2208393553197
 20
113.0015122651028
 30
0.0
 40
4.875849232728954
100
AcDbArc
 50
112.5000000000058
 51
175.0875059918921
  0
ARC
  5
ED4
102
{ACAD_REACTORS
330
FF8
102
}
330
2
100
AcDbEntity
  8
KIJUN
100
AcDbCircle
 10
47.66779349420363
 20
107.0012225089557
 30
0.0
 40
4.03100230082784
100
AcDbArc
 50
69.34895457601327
 51
137.9253435166272
  0
ARC
  5
ED5
102
{ACAD_REACTORS
330
FF8
102
}
330
2
100
AcDbEntity
  8
KIJUN
100
AcDbCircle
 10
58.2208393553197
 20
113.0015122651028
 30
0.0
 40
8.875849232728954
100
AcDbArc
 50
112.5000000000058
 51
166.9153297071454
  0
ARC
  5
ED6
102
{ACAD_REACTORS
330
FF8
102
}
330
2
100
AcDbEntity
  8
KIJUN
100
AcDbCircle
 10
39.00738543311565
 20
84.2465464044252
 30
0.0
 40
8.875849232728954
100
AcDbArc
 50
180.0
 51
285.3191847200416
  0
ARC
  5
ED7
102
{ACAD_REACTORS
330
FF8
102
}
330
2
100
AcDbEntity
  8
KIJUN
100
AcDbCircle
 10
41.37657033970919
 20
72.33584955935623
 30
0.0
 40
8.875849232728954
100
AcDbArc
 50
148.0846702928542
 51
202.4999999999917
  0
ARC
  5
ED8
102
{ACAD_REACTORS
330
FF8
102
}
330
2
100
AcDbEntity
  8
KIJUN
100
AcDbCircle
 10
41.37657033970919
 20
72.33584955935623
 30
0.0
 40
4.875849232728954
100
AcDbArc
 50
139.9124940081091
 51
202.4999999999917
  0
LINE
  5
EDC
102
{ACAD_REACTORS
330
FF8
102
}
330
2
100
AcDbEntity
  8
KIJUN
100
AcDbLine
 10
37.5283804219012
 20
71.3664236055655
 30
0.0
 11
40.54065914331618
 21
73.23975344945859
 31
0.0
  0
ARC
  5
EDD
102
{ACAD_REACTORS
330
FF8
102
}
330
2
100
AcDbEntity
  8
KIJUN
100
AcDbCircle
 10
41.16649532151024
 20
71.77063808513617
 30
0.0
 40
1.596862823045404
100
AcDbArc
 50
38.5612257006361
 51
113.0737745949738
  0
ARC
  5
EDE
102
{ACAD_REACTORS
330
FF8
102
}
330
2
100
AcDbEntity
  8
KIJUN
100
AcDbCircle
 10
58.22083935531947
 20
55.49158054374686
 30
0.0
 40
8.875849232728954
100
AcDbArc
 50
193.0846702928546
 51
247.4999999999942
  0
ARC
  5
EDF
102
{ACAD_REACTORS
330
FF8
102
}
330
2
100
AcDbEntity
  8
KIJUN
100
AcDbCircle
 10
47.66779349420341
 20
61.49187029989377
 30
0.0
 40
4.03100230082784
100
AcDbArc
 50
222.0746564833728
 51
290.6510454239867
  0
ARC
  5
EE0
102
{ACAD_REACTORS
330
FF8
102
}
330
2
100
AcDbEntity
  8
KIJUN
100
AcDbCircle
 10
58.22083935531947
 20
55.49158054374686
 30
0.0
 40
4.875849232728954
100
AcDbArc
 50
184.9124940081079
 51
247.4999999999942
  0
ARC
  5
EE1
102
{ACAD_REACTORS
330
FF8
102
}
330
2
100
AcDbEntity
  8
KIJUN
100
AcDbCircle
 10
48.12343813417675
 20
62.23844833821499
 30
0.0
 40
8.875849232728954
100
AcDbArc
 50
225.0000000000042
 51
330.3191847200411
  0
LINE
  5
EE5
102
{ACAD_REACTORS
330
FF8
102
}
330
2
100
AcDbEntity
  8
KIJUN
100
AcDbLine
 10
56.18524583492768
 20
52.08501169178737
 30
0.0
 11
56.99060430964761
 21
55.53965863853978
 31
0.0
  0
ARC
  5
EE6
102
{ACAD_REACTORS
330
FF8
102
}
330
2
100
AcDbEntity
  8
KIJUN
100
AcDbCircle
 10
58.47195875161839
 20
54.94337020759508
 30
0.0
 40
1.596862823045404
100
AcDbArc
 50
83.56122570063522
 51
158.0737745949717
  0
ARC
  5
EE7
102
{ACAD_REACTORS
330
FF8
102
}
330
2
100
AcDbEntity
  8
KIJUN
100
AcDbCircle
 10
40.82836000355706
 20
72.58696895565652
 30
0.0
 40
1.596862823045404
100
AcDbArc
 50
291.9262254050338
 51
6.438774299365425
  0
LINE
  5
EE8
102
{ACAD_REACTORS
330
FF8
102
}
330
2
100
AcDbEntity
  8
KIJUN
100
AcDbLine
 10
37.97000148774924
 20
70.30025603896581
 30
0.0
 11
41.42464843450176
 21
71.10561451368596
 31
0.0
  0
ARC
  5
EEC
102
{ACAD_REACTORS
330
FF8
102
}
330
2
100
AcDbEntity
  8
KIJUN
100
AcDbCircle
 10
48.12343813417697
 20
62.23844833821488
 30
0.0
 40
8.875849232728954
100
AcDbArc
 50
119.6808152799635
 51
224.999999999995
  0
ARC
  5
EED
102
{ACAD_REACTORS
330
FF8
102
}
330
2
100
AcDbEntity
  8
KIJUN
100
AcDbCircle
 10
41.37657033970896
 20
72.3358495593576
 30
0.0
 40
4.875849232728954
100
AcDbArc
 50
202.5000000000026
 51
265.0875059918852
  0
ARC
  5
EEE
102
{ACAD_REACTORS
330
FF8
102
}
330
2
100
AcDbEntity
  8
KIJUN
100
AcDbCircle
 10
47.37686009585565
 20
61.78280369824154
 30
0.0
 40
4.03100230082784
100
AcDbArc
 50
159.348954576015
 51
227.9253435166264
  0
ARC
  5
EEF
102
{ACAD_REACTORS
330
FF8
102
}
330
2
100
AcDbEntity
  8
KIJUN
100
AcDbCircle
 10
41.37657033970896
 20
72.3358495593576
 30
0.0
 40
8.875849232728954
100
AcDbArc
 50
202.5000000000026
 51
256.9153297071463
  0
ARC
  5
EF0
102
{ACAD_REACTORS
330
FF8
102
}
330
2
100
AcDbEntity
  8
KIJUN
100
AcDbCircle
 10
38.15728562479723
 20
84.04082542557977
 30
0.0
 40
4.03100230082784
100
AcDbArc
 50
177.0746564833695
 51
245.6510454239808
  0
ARC
  5
EF4
102
{ACAD_REACTORS
330
FF8
102
}
330
2
100
AcDbEntity
  8
KIJUN
100
AcDbCircle
 10
41.16649532151046
 20
96.72245472371367
 30
0.0
 40
1.596862823045404
100
AcDbArc
 50
246.9262254050261
 51
321.4387742993638
  0
LINE
  5
EF5
102
{ACAD_REACTORS
330
FF8
102
}
330
2
100
AcDbEntity
  8
KIJUN
100
AcDbLine
 10
37.52838042190166
 20
97.12666920328491
 30
0.0
 11
40.54065914331641
 21
95.25333935939135
 31
0.0
  0
ARC
  5
EF6
102
{ACAD_REACTORS
330
FF8
102
}
330
2
100
AcDbEntity
  8
KIJUN
100
AcDbCircle
 10
39.00738543311565
 20
84.24654640442486
 30
0.0
 40
8.875849232728954
100
AcDbArc
 50
74.68081527995848
 51
180.0
  0
ARC
  5
EF7
102
{ACAD_REACTORS
330
FF8
102
}
330
2
100
AcDbEntity
  8
KIJUN
100
AcDbCircle
 10
41.37657033970964
 20
96.15724324949372
 30
0.0
 40
4.875849232728954
100
AcDbArc
 50
157.5000000000083
 51
220.0875059918909
  0
ARC
  5
EF8
102
{ACAD_REACTORS
330
FF8
102
}
330
2
100
AcDbEntity
  8
KIJUN
100
AcDbCircle
 10
38.15728562479723
 20
84.4522673832704
 30
0.0
 40
4.03100230082784
100
AcDbArc
 50
114.3489545760192
 51
182.9253435166305
  0
ARC
  5
EF9
102
{ACAD_REACTORS
330
FF8
102
}
330
2
100
AcDbEntity
  8
KIJUN
100
AcDbCircle
 10
41.37657033970964
 20
96.15724324949372
 30
0.0
 40
8.875849232728954
100
AcDbArc
 50
157.5000000000083
 51
211.9153297071456
  0
ARC
  5
EFA
102
{ACAD_REACTORS
330
FF8
102
}
330
2
100
AcDbEntity
  8
KIJUN
100
AcDbCircle
 10
70.33725717923227
 20
52.2722958288349
 30
0.0
 40
4.03100230082784
100
AcDbArc
 50
267.074656483376
 51
335.651045423978
  0
ARC
  5
EFB
102
{ACAD_REACTORS
330
FF8
102
}
330
2
100
AcDbEntity
  8
KIJUN
100
AcDbCircle
 10
70.13153620038685
 20
53.12239563715332
 30
0.0
 40
8.875849232728954
100
AcDbArc
 50
270.0
 51
15.31918472004065
  0
ARC
  5
EFF
102
{ACAD_REACTORS
330
FF8
102
}
330
2
100
AcDbEntity
  8
KIJUN
100
AcDbCircle
 10
70.13153620038707
 20
53.1223956371532
 30
0.0
 40
8.875849232728954
100
AcDbArc
 50
164.6808152799593
 51
270.0
  0
ARC
  5
F00
102
{ACAD_REACTORS
330
FF8
102
}
330
2
100
AcDbEntity
  8
KIJUN
100
AcDbCircle
 10
69.92581522154165
 20
52.2722958288349
 30
0.0
 40
4.03100230082784
100
AcDbArc
 50
204.3489545760167
 51
272.925343516624
  0
ARC
  5
F01
102
{ACAD_REACTORS
330
FF8
102
}
330
2
100
AcDbEntity
  8
KIJUN
100
AcDbCircle
 10
57.65562788109838
 20
55.28150552554837
 30
0.0
 40
1.596862823045404
100
AcDbArc
 50
336.9262254050284
 51
51.43877429936312
  0
LINE
  5
F02
102
{ACAD_REACTORS
330
FF8
102
}
330
2
100
AcDbEntity
  8
KIJUN
100
AcDbLine
 10
57.25141340152714
 20
51.64339062593956
 30
0.0
 11
59.12474324542069
 21
54.65566934735409
 31
0.0
  0
ARC
  5
F03
102
{ACAD_REACTORS
330
FF8
102
}
330
2
100
AcDbEntity
  8
KIJUN
100
AcDbCircle
 10
58.22083935531833
 20
55.49158054374743
 30
0.0
 40
4.875849232728954
100
AcDbArc
 50
247.5000000000083
 51
310.087505991886
  0
ARC
  5
F04
102
{ACAD_REACTORS
330
FF8
102
}
330
2
100
AcDbEntity
  8
KIJUN
100
AcDbCircle
 10
58.22083935531833
 20
55.49158054374743
 30
0.0
 40
8.875849232728954
100
AcDbArc
 50
247.5000000000083
 51
301.9153297071462
  0
ARC
  5
F0F
102
{ACAD_REACTORS
330
FF8
102
}
330
2
100
AcDbEntity
  8
KIJUN
100
AcDbCircle
 10
98.88650206106541
 20
72.33584955935646
 30
0.0
 40
8.875849232728954
100
AcDbArc
 50
283.0846702928537
 51
337.4999999999912
  0
ARC
  5
F10
102
{ACAD_REACTORS
330
FF8
102
}
330
2
100
AcDbEntity
  8
KIJUN
100
AcDbCircle
 10
92.8862123049185
 20
61.7828036982404
 30
0.0
 40
4.03100230082784
100
AcDbArc
 50
312.0746564833736
 51
20.65104542397928
  0
ARC
  5
F11
102
{ACAD_REACTORS
330
FF8
102
}
330
2
100
AcDbEntity
  8
KIJUN
100
AcDbCircle
 10
92.13963426659717
 20
62.23844833821374
 30
0.0
 40
8.875849232728954
100
AcDbArc
 50
314.9999999999958
 51
60.3191847200365
  0
ARC
  5
F12
102
{ACAD_REACTORS
330
FF8
102
}
330
2
100
AcDbEntity
  8
KIJUN
100
AcDbCircle
 10
92.59527890657073
 20
61.49187029989263
 30
0.0
 40
4.03100230082784
100
AcDbArc
 50
249.3489545760132
 51
317.9253435166273
  0
ARC
  5
F13
102
{ACAD_REACTORS
330
FF8
102
}
330
2
100
AcDbEntity
  8
KIJUN
100
AcDbCircle
 10
82.04223304545582
 20
55.49158054374675
 30
0.0
 40
8.875849232728954
100
AcDbArc
 50
238.0846702928538
 51
292.4999999999917
  0
ARC
  5
F14
102
{ACAD_REACTORS
330
FF8
102
}
330
2
100
AcDbEntity
  8
KIJUN
100
AcDbCircle
 10
82.04223304545582
 20
55.49158054374675
 30
0.0
 40
4.875849232728954
100
AcDbArc
 50
229.9124940081139
 51
292.4999999999917
  0
LINE
  5
F15
102
{ACAD_REACTORS
330
FF8
102
}
330
2
100
AcDbEntity
  8
KIJUN
100
AcDbLine
 10
83.01165899924678
 20
51.64339062593876
 30
0.0
 11
81.13832915535345
 21
54.65566934735363
 31
0.0
  0
ARC
  5
F16
102
{ACAD_REACTORS
330
FF8
102
}
330
2
100
AcDbEntity
  8
KIJUN
100
AcDbCircle
 10
82.60744451967577
 20
55.28150552554769
 30
0.0
 40
1.596862823045404
100
AcDbArc
 50
128.5612257006327
 51
203.0737745949716
  0
ARC
  5
F17
102
{ACAD_REACTORS
330
FF8
102
}
330
2
100
AcDbEntity
  8
KIJUN
100
AcDbCircle
 10
81.79111364915554
 20
54.94337020759417
 30
0.0
 40
1.596862823045404
100
AcDbArc
 50
21.92622540502824
 51
96.43877429936479
  0
LINE
  5
F18
102
{ACAD_REACTORS
330
FF8
102
}
330
2
100
AcDbEntity
  8
KIJUN
100
AcDbLine
 10
84.07782656584647
 20
52.08501169178646
 30
0.0
 11
83.27246809112608
 21
55.53965863853898
 31
0.0
  0
ARC
  5
F19
102
{ACAD_REACTORS
330
FF8
102
}
330
2
100
AcDbEntity
  8
KIJUN
100
AcDbCircle
 10
82.04223304545468
 20
55.49158054374595
 30
0.0
 40
4.875849232728954
100
AcDbArc
 50
292.5000000000058
 51
355.0875059918856
  0
ARC
  5
F1A
102
{ACAD_REACTORS
330
FF8
102
}
330
2
100
AcDbEntity
  8
KIJUN
100
AcDbCircle
 10
82.04223304545468
 20
55.49158054374595
 30
0.0
 40
8.875849232728954
100
AcDbArc
 50
292.5000000000058
 51
346.9153297071454
  0
ARC
  5
F1B
102
{ACAD_REACTORS
330
FF8
102
}
330
2
100
AcDbEntity
  8
KIJUN
100
AcDbCircle
 10
92.1396342665974
 20
62.23844833821397
 30
0.0
 40
8.875849232728954
100
AcDbArc
 50
209.6808152799587
 51
314.9999999999958
  0
ARC
  5
F1D
102
{ACAD_REACTORS
330
FF8
102
}
330
2
100
AcDbEntity
  8
KIJUN
100
AcDbCircle
 10
82.04223304545582
 20
113.001512265102
 30
0.0
 40
8.875849232728954
100
AcDbArc
 50
13.08467029284826
 51
67.4999999999942
  0
ARC
  5
F1E
102
{ACAD_REACTORS
330
FF8
102
}
330
2
100
AcDbEntity
  8
KIJUN
100
AcDbCircle
 10
92.59527890657187
 20
107.001222508955
 30
0.0
 40
4.03100230082784
100
AcDbArc
 50
42.07465648337275
 51
110.6510454239867
  0
ARC
  5
F1F
102
{ACAD_REACTORS
330
FF8
102
}
330
2
100
AcDbEntity
  8
KIJUN
100
AcDbCircle
 10
82.04223304545582
 20
113.001512265102
 30
0.0
 40
4.875849232728954
100
AcDbArc
 50
4.912494008107863
 51
67.4999999999942
  0
ARC
  5
F20
102
{ACAD_REACTORS
330
FF8
102
}
330
2
100
AcDbEntity
  8
KIJUN
100
AcDbCircle
 10
92.1396342665983
 20
106.2546444706337
 30
0.0
 40
8.875849232728954
100
AcDbArc
 50
45.00000000000425
 51
150.3191847200412
  0
LINE
  5
F24
102
{ACAD_REACTORS
330
FF8
102
}
330
2
100
AcDbEntity
  8
KIJUN
100
AcDbLine
 10
84.0778265658476
 20
116.4080811170616
 30
0.0
 11
83.27246809112768
 21
112.9534341703091
 31
0.0
  0
ARC
  5
F25
102
{ACAD_REACTORS
330
FF8
102
}
330
2
100
AcDbEntity
  8
KIJUN
100
AcDbCircle
 10
81.79111364915712
 20
113.5497226012538
 30
0.0
 40
1.596862823045404
100
AcDbArc
 50
263.5612257006352
 51
338.0737745949718
  0
ARC
  5
F29
102
{ACAD_REACTORS
330
FF8
102
}
330
2
100
AcDbEntity
  8
KIJUN
100
AcDbCircle
 10
92.1396342665983
 20
106.2546444706339
 30
0.0
 40
8.875849232728954
100
AcDbArc
 50
299.6808152799523
 51
44.99999999999504
  0
ARC
  5
F2A
102
{ACAD_REACTORS
330
FF8
102
}
330
2
100
AcDbEntity
  8
KIJUN
100
AcDbCircle
 10
92.88621230491941
 20
106.7102891106072
 30
0.0
 40
4.03100230082784
100
AcDbArc
 50
339.348954576015
 51
47.92534351662639
  0
ARC
  5
F2B
102
{ACAD_REACTORS
330
FF8
102
}
330
2
100
AcDbEntity
  8
KIJUN
100
AcDbCircle
 10
102.1057867759771
 20
84.45226738326869
 30
0.0
 40
4.03100230082784
100
AcDbArc
 50
357.0746564833695
 51
65.65104542398076
  0
ARC
  5
F2C
102
{ACAD_REACTORS
330
FF8
102
}
330
2
100
AcDbEntity
  8
KIJUN
100
AcDbCircle
 10
101.2556869676589
 20
84.24654640442339
 30
0.0
 40
8.875849232728954
100
AcDbArc
 50
0.0
 51
105.3191847200398
  0
ARC
  5
F2F
102
{ACAD_REACTORS
330
FF8
102
}
330
2
100
AcDbEntity
  8
KIJUN
100
AcDbCircle
 10
98.88650206106541
 20
72.33584955935646
 30
0.0
 40
4.875849232728954
100
AcDbArc
 50
274.9124940081149
 51
337.4999999999912
  0
LINE
  5
F30
102
{ACAD_REACTORS
330
FF8
102
}
330
2
100
AcDbEntity
  8
KIJUN
100
AcDbLine
 10
102.2930709130251
 20
70.30025603896445
 30
0.0
 11
98.83842396627262
 21
71.10561451368482
 31
0.0
  0
ARC
  5
F31
102
{ACAD_REACTORS
330
FF8
102
}
330
2
100
AcDbEntity
  8
KIJUN
100
AcDbCircle
 10
99.09657707926392
 20
71.77063808513492
 30
0.0
 40
1.596862823045404
100
AcDbArc
 50
66.92622540502617
 51
141.4387742993639
  0
LINE
  5
F32
102
{ACAD_REACTORS
330
FF8
102
}
330
2
100
AcDbEntity
  8
KIJUN
100
AcDbLine
 10
102.7346919788727
 20
71.36642360556368
 30
0.0
 11
99.72241325745796
 21
73.23975344945722
 31
0.0
  0
ARC
  5
F33
102
{ACAD_REACTORS
330
FF8
102
}
330
2
100
AcDbEntity
  8
KIJUN
100
AcDbCircle
 10
101.2556869676589
 20
84.2465464044236
 30
0.0
 40
8.875849232728954
100
AcDbArc
 50
254.6808152799584
 51
359.9999999999935
  0
ARC
  5
F34
102
{ACAD_REACTORS
330
FF8
102
}
330
2
100
AcDbEntity
  8
KIJUN
100
AcDbCircle
 10
98.88650206106474
 20
72.33584955935498
 30
0.0
 40
4.875849232728954
100
AcDbArc
 50
337.5000000000027
 51
40.08750599188601
  0
ARC
  5
F35
102
{ACAD_REACTORS
330
FF8
102
}
330
2
100
AcDbEntity
  8
KIJUN
100
AcDbCircle
 10
102.1057867759773
 20
84.04082542557807
 30
0.0
 40
4.03100230082784
100
AcDbArc
 50
294.3489545760193
 51
2.925343516623896
  0
ARC
  5
F36
102
{ACAD_REACTORS
330
FF8
102
}
330
2
100
AcDbEntity
  8
KIJUN
100
AcDbCircle
 10
98.88650206106474
 20
72.33584955935498
 30
0.0
 40
8.875849232728954
100
AcDbArc
 50
337.5000000000027
 51
31.9153297071458
  0
ARC
  5
F37
102
{ACAD_REACTORS
330
FF8
102
}
330
2
100
AcDbEntity
  8
KIJUN
100
AcDbCircle
 10
98.88650206106564
 20
96.15724324949235
 30
0.0
 40
8.875849232728954
100
AcDbArc
 50
328.0846702928485
 51
22.49999999999168
  0
ARC
  5
F38
102
{ACAD_REACTORS
330
FF8
102
}
330
2
100
AcDbEntity
  8
KIJUN
100
AcDbCircle
 10
98.88650206106564
 20
96.15724324949235
 30
0.0
 40
4.875849232728954
100
AcDbArc
 50
319.912494008109
 51
22.49999999999168
  0
LINE
  5
F3B
102
{ACAD_REACTORS
330
FF8
102
}
330
2
100
AcDbEntity
  8
KIJUN
100
AcDbLine
 10
102.7346919788736
 20
97.1266692032831
 30
0.0
 11
99.72241325745887
 21
95.25333935939
 31
0.0
  0
ARC
  5
F3C
102
{ACAD_REACTORS
330
FF8
102
}
330
2
100
AcDbEntity
  8
KIJUN
100
AcDbCircle
 10
99.09657707926482
 20
96.72245472371242
 30
0.0
 40
1.596862823045404
100
AcDbArc
 50
218.5612257006361
 51
293.0737745949738
  0
ARC
  5
F3D
102
{ACAD_REACTORS
330
FF8
102
}
330
2
100
AcDbEntity
  8
KIJUN
100
AcDbCircle
 10
99.434712397218
 20
95.90612385319195
 30
0.0
 40
1.596862823045404
100
AcDbArc
 50
111.9262254050215
 51
186.4387742993654
  0
LINE
  5
F3E
102
{ACAD_REACTORS
330
FF8
102
}
330
2
100
AcDbEntity
  8
KIJUN
100
AcDbLine
 10
102.2930709130256
 20
98.19283676988277
 30
0.0
 11
98.83842396627329
 21
97.38747829516263
 31
0.0
  0
ARC
  5
F3F
102
{ACAD_REACTORS
330
FF8
102
}
330
2
100
AcDbEntity
  8
KIJUN
100
AcDbCircle
 10
98.88650206106611
 20
96.15724324949098
 30
0.0
 40
4.875849232728954
100
AcDbArc
 50
22.50000000000261
 51
85.0875059918852
  0
ARC
  5
F40
102
{ACAD_REACTORS
330
FF8
102
}
330
2
100
AcDbEntity
  8
KIJUN
100
AcDbCircle
 10
98.88650206106611
 20
96.15724324949098
 30
0.0
 40
8.875849232728954
100
AcDbArc
 50
22.50000000000261
 51
76.91532970714629
  0
ARC
  5
F53
102
{ACAD_REACTORS
330
FF8
102
}
330
2
100
AcDbEntity
  8
KIJUN
100
AcDbCircle
 10
105.2562915318522
 20
113.7820201455562
 30
0.0
 40
39.21790732918304
100
AcDbArc
 50
173.9980271335788
 51
197.4332544625395
  0
ARC
  5
F5B
102
{ACAD_REACTORS
330
FF8
102
}
330
2
100
AcDbEntity
  8
KIJUN
100
AcDbCircle
 10
33.29348021099209
 20
113.9535026609509
 30
0.0
 40
40.90538023597493
100
AcDbArc
 50
343.0565587781889
 51
5.512159625691184
  0
ARC
  5
F5C
102
{ACAD_REACTORS
330
FF8
102
}
330
2
100
AcDbEntity
  8
KIJUN
100
AcDbCircle
 10
97.48362675870676
 20
97.59015902875102
 30
0.0
 40
24.31833716164765
100
AcDbArc
 50
140.6000499589448
 51
175.1975221766993
  0
ARC
  5
F5D
102
{ACAD_REACTORS
330
FF8
102
}
330
2
100
AcDbEntity
  8
KIJUN
100
AcDbCircle
 10
60.38922812048437
 20
112.9538275317665
 30
0.0
 40
24.14926564706098
100
AcDbArc
 50
319.6775057501369
 51
354.5249221142149
  0
ARC
  5
F5E
102
{ACAD_REACTORS
330
FF8
102
}
330
2
100
AcDbEntity
  8
KIJUN
100
AcDbCircle
 10
80.14289640243891
 20
108.463542724454
 30
0.0
 40
4.787340756435595
100
AcDbArc
 50
95.93788197501602
 51
107.6418283334742
  0
ARC
  5
F5F
102
{ACAD_REACTORS
330
FF8
102
}
330
2
100
AcDbEntity
  8
KIJUN
100
AcDbCircle
 10
79.73688235505401
 20
112.4183763401369
 30
0.0
 40
0.8117412883550462
100
AcDbArc
 50
61.50296335171811
 51
96.31145665893519
  0
ARC
  5
F60
102
{ACAD_REACTORS
330
FF8
102
}
330
2
100
AcDbEntity
  8
KIJUN
100
AcDbCircle
 10
79.82626400528066
 20
112.6960058445418
 30
0.0
 40
0.5278636325823049
100
AcDbArc
 50
28.76998373791044
 51
55.64137695498333
  0
ARC
  5
F61
102
{ACAD_REACTORS
330
FF8
102
}
330
2
100
AcDbEntity
  8
KIJUN
100
AcDbCircle
 10
79.15300137401408
 20
112.3489889062958
 30
0.0
 40
1.285188773426376
100
AcDbArc
 50
8.312375762836834
 51
27.88469964055941
  0
ARC
  5
F63
102
{ACAD_REACTORS
330
FF8
102
}
330
2
100
AcDbEntity
  8
KIJUN
100
AcDbCircle
 10
69.92962494053988
 20
111.3749267002899
 30
0.0
 40
10.55896031755683
100
AcDbArc
 50
346.8703806798759
 51
6.30645081200246
  0
ARC
  5
F64
102
{ACAD_REACTORS
330
FF8
102
}
330
2
100
AcDbEntity
  8
KIJUN
100
AcDbCircle
 10
72.10455053339831
 20
112.0192429244165
 30
0.0
 40
8.660176617851194
100
AcDbArc
 50
319.4670604621507
 51
339.4295149516117
  0
ARC
  5
F65
102
{ACAD_REACTORS
330
FF8
102
}
330
2
100
AcDbEntity
  8
KIJUN
100
AcDbCircle
 10
89.535762344318
 20
96.87420002282227
 30
0.0
 40
14.43180128618306
100
AcDbArc
 50
138.742736959451
 51
161.8230083039199
  0
ARC
  5
F66
102
{ACAD_REACTORS
330
FF8
102
}
330
2
100
AcDbEntity
  8
KIJUN
100
AcDbCircle
 10
78.78454639726299
 20
100.70564220951
 30
0.0
 40
3.035405741525593
100
AcDbArc
 50
167.2364290886457
 51
213.5378237235605
  0
ARC
  5
F67
102
{ACAD_REACTORS
330
FF8
102
}
330
2
100
AcDbEntity
  8
KIJUN
100
AcDbCircle
 10
75.71940148788169
 20
101.9338089005256
 30
0.0
 40
2.954052860987566
100
AcDbArc
 50
280.4356261688105
 51
343.0465516208682
  0
ARC
  5
F68
102
{ACAD_REACTORS
330
FF8
102
}
330
2
100
AcDbEntity
  8
KIJUN
100
AcDbCircle
 10
61.81025934367509
 20
107.7513803590652
 30
0.0
 40
18.01839606445678
100
AcDbArc
 50
338.2427872436134
 51
354.3931552355186
  0
ARC
  5
F69
102
{ACAD_REACTORS
330
FF8
102
}
330
2
100
AcDbEntity
  8
KIJUN
100
AcDbCircle
 10
88.95259640058128
 20
105.147969327131
 30
0.0
 40
9.248643294779373
100
AcDbArc
 50
157.1877842701404
 51
174.7704323636768
  0
ARC
  5
F6A
102
{ACAD_REACTORS
330
FF8
102
}
330
2
100
AcDbEntity
  8
KIJUN
100
AcDbCircle
 10
87.83981362131035
 20
104.7459621893151
 30
0.0
 40
8.417060489993129
100
AcDbArc
 50
126.1882677306262
 51
151.7201830837672
  0
ARC
  5
F6B
102
{ACAD_REACTORS
330
FF8
102
}
330
2
100
AcDbEntity
  8
KIJUN
100
AcDbCircle
 10
81.65966771065415
 20
109.3933012096738
 30
0.0
 40
3.04038158374184
100
AcDbArc
 50
24.40792198803715
 51
47.48046710106506
  0
ARC
  5
F6C
102
{ACAD_REACTORS
330
FF8
102
}
330
2
100
AcDbEntity
  8
KIJUN
100
AcDbCircle
 10
83.41081445294593
 20
111.2813375379806
 30
0.0
 40
0.4655434557833327
100
AcDbArc
 50
49.28551601399302
 51
97.2206707702707
  0
ARC
  5
F6D
102
{ACAD_REACTORS
330
FF8
102
}
330
2
100
AcDbEntity
  8
KIJUN
100
AcDbCircle
 10
83.52010332431236
 20
110.6743606745591
 30
0.0
 40
1.0819204911054
100
AcDbArc
 50
98.92247252497329
 51
126.9301678915141
  0
ARC
  5
F6E
102
{ACAD_REACTORS
330
FF8
102
}
330
2
100
AcDbEntity
  8
KIJUN
100
AcDbCircle
 10
74.08375511487308
 20
129.9682328547333
 30
0.0
 40
39.21790732918304
100
AcDbArc
 50
218.9980271335787
 51
242.4332544625398
  0
ARC
  5
F6F
102
{ACAD_REACTORS
330
FF8
102
}
330
2
100
AcDbEntity
  8
KIJUN
100
AcDbCircle
 10
23.07710678715438
 20
79.20409742599563
 30
0.0
 40
40.90538023597493
100
AcDbArc
 50
28.0565587781889
 51
50.51215962569138
  0
ARC
  5
F70
102
{ACAD_REACTORS
330
FF8
102
}
330
2
100
AcDbEntity
  8
KIJUN
100
AcDbCircle
 10
40.59606245925555
 20
119.3713017358898
 30
0.0
 40
39.21790732918304
100
AcDbArc
 50
263.9980271335787
 51
287.4332544625401
  0
ARC
  5
F71
102
{ACAD_REACTORS
330
FF8
102
}
330
2
100
AcDbEntity
  8
KIJUN
100
AcDbCircle
 10
40.4245799438609
 20
47.40849041502975
 30
0.0
 40
40.90538023597493
100
AcDbArc
 50
73.05655877818927
 51
95.51215962569175
  0
ARC
  5
F72
102
{ACAD_REACTORS
330
FF8
102
}
330
2
100
AcDbEntity
  8
KIJUN
100
AcDbCircle
 10
24.40984975007848
 20
88.19876531891074
 30
0.0
 40
39.21790732918304
100
AcDbArc
 50
308.9980271335784
 51
332.43325446254
  0
ARC
  5
F73
102
{ACAD_REACTORS
330
FF8
102
}
330
2
100
AcDbEntity
  8
KIJUN
100
AcDbCircle
 10
75.1739851788162
 20
37.19211699119203
 30
0.0
 40
40.90538023597493
100
AcDbArc
 50
118.0565587781891
 51
140.5121596256919
  0
ARC
  5
F74
102
{ACAD_REACTORS
330
FF8
102
}
330
2
100
AcDbEntity
  8
KIJUN
100
AcDbCircle
 10
35.00678086892199
 20
54.71107266329318
 30
0.0
 40
39.21790732918304
100
AcDbArc
 50
353.9980271335786
 51
17.43325446254004
  0
ARC
  5
F75
102
{ACAD_REACTORS
330
FF8
102
}
330
2
100
AcDbEntity
  8
KIJUN
100
AcDbCircle
 10
106.9695921897821
 20
54.53959014789852
 30
0.0
 40
40.90538023597493
100
AcDbArc
 50
163.0565587781893
 51
185.5121596256917
  0
ARC
  5
F76
102
{ACAD_REACTORS
330
FF8
102
}
330
2
100
AcDbEntity
  8
KIJUN
100
AcDbCircle
 10
66.17931728590107
 20
38.52485995411612
 30
0.0
 40
39.21790732918304
100
AcDbArc
 50
38.99802713357837
 51
62.43325446253964
  0
ARC
  5
F77
102
{ACAD_REACTORS
330
FF8
102
}
330
2
100
AcDbEntity
  8
KIJUN
100
AcDbCircle
 10
117.1859656136198
 20
89.28899538285385
 30
0.0
 40
40.90538023597493
100
AcDbArc
 50
208.0565587781891
 51
230.5121596256916
  0
ARC
  5
F78
102
{ACAD_REACTORS
330
FF8
102
}
330
2
100
AcDbEntity
  8
KIJUN
100
AcDbCircle
 10
99.66700994151864
 20
49.12179107295961
 30
0.0
 40
39.21790732918304
100
AcDbArc
 50
83.99802713357869
 51
107.4332544625394
  0
ARC
  5
F79
102
{ACAD_REACTORS
330
FF8
102
}
330
2
100
AcDbEntity
  8
KIJUN
100
AcDbCircle
 10
99.83849245691329
 20
121.0846023938197
 30
0.0
 40
40.90538023597493
100
AcDbArc
 50
253.0565587781888
 51
275.5121596256911
  0
ARC
  5
F7A
102
{ACAD_REACTORS
330
FF8
102
}
330
2
100
AcDbEntity
  8
KIJUN
100
AcDbCircle
 10
115.8532226506957
 20
80.29432748993873
 30
0.0
 40
39.21790732918304
100
AcDbArc
 50
128.9980271335786
 51
152.4332544625398
  0
ARC
  5
F7B
102
{ACAD_REACTORS
330
FF8
102
}
330
2
100
AcDbEntity
  8
KIJUN
100
AcDbCircle
 10
65.08908722195798
 20
131.3009758176574
 30
0.0
 40
40.90538023597493
100
AcDbArc
 50
298.0565587781887
 51
320.5121596256914
  0
ARC
  5
F7D
102
{ACAD_REACTORS
330
FF8
102
}
330
2
100
AcDbEntity
  8
KIJUN
100
AcDbCircle
 10
80.03702594161593
 20
113.0227540900286
 30
0.0
 40
24.31833716164765
100
AcDbArc
 50
185.6000499589446
 51
220.1975221766991
  0
ARC
  5
F7E
102
{ACAD_REACTORS
330
FF8
102
}
330
2
100
AcDbEntity
  8
KIJUN
100
AcDbCircle
 10
42.94357093810741
 20
97.65680745128902
 30
0.0
 40
24.14926564706098
100
AcDbArc
 50
4.677505750136905
 51
39.52492211421505
  0
ARC
  5
F7F
102
{ACAD_REACTORS
330
FF8
102
}
330
2
100
AcDbEntity
  8
KIJUN
100
AcDbCircle
 10
60.08663457029664
 20
108.4496494100591
 30
0.0
 40
4.787340756435595
100
AcDbArc
 50
140.9378819750157
 51
152.6418283334739
  0
ARC
  5
F80
102
{ACAD_REACTORS
330
FF8
102
}
330
2
100
AcDbEntity
  8
KIJUN
100
AcDbCircle
 10
57.00304961601997
 20
110.95904379201
 30
0.0
 40
0.8117412883550462
100
AcDbArc
 50
106.5029633517182
 51
141.311456658935
  0
ARC
  5
F81
102
{ACAD_REACTORS
330
FF8
102
}
330
2
100
AcDbEntity
  8
KIJUN
100
AcDbCircle
 10
56.86993828178665
 20
111.2185598682212
 30
0.0
 40
0.5278636325823049
100
AcDbArc
 50
73.76998373791015
 51
100.6413769549831
  0
ARC
  5
F82
102
{ACAD_REACTORS
330
FF8
102
}
330
2
100
AcDbEntity
  8
KIJUN
100
AcDbCircle
 10
56.63924773991894
 20
110.4971132659127
 30
0.0
 40
1.285188773426376
100
AcDbArc
 50
53.31237576283719
 51
72.8846996405595
  0
ARC
  5
F83
102
{ACAD_REACTORS
330
FF8
102
}
330
2
100
AcDbEntity
  8
KIJUN
100
AcDbCircle
 10
50.80610170953742
 20
103.2864352532026
 30
0.0
 40
10.55896031755683
100
AcDbArc
 50
31.87038067987586
 51
51.30645081200221
  0
ARC
  5
F84
102
{ACAD_REACTORS
330
FF8
102
}
330
2
100
AcDbEntity
  8
KIJUN
100
AcDbCircle
 10
51.88840597351534
 20
105.2799402597974
 30
0.0
 40
8.660176617851194
100
AcDbArc
 50
4.467060462150698
 51
24.42951495161177
  0
ARC
  5
F85
102
{ACAD_REACTORS
330
FF8
102
}
330
2
100
AcDbEntity
  8
KIJUN
100
AcDbCircle
 10
74.92329658639419
 20
106.8965057985193
 30
0.0
 40
14.43180128618306
100
AcDbArc
 50
183.7427369594509
 51
206.8230083039197
  0
ARC
  5
F86
102
{ACAD_REACTORS
330
FF8
102
}
330
2
100
AcDbEntity
  8
KIJUN
100
AcDbCircle
 10
64.61180013229949
 20
102.0034868482869
 30
0.0
 40
3.035405741525593
100
AcDbArc
 50
212.2364290886458
 51
258.5378237235604
  0
ARC
  5
F87
102
{ACAD_REACTORS
330
FF8
102
}
330
2
100
AcDbEntity
  8
KIJUN
100
AcDbCircle
 10
61.57597038591198
 20
100.7045470931885
 30
0.0
 40
2.954052860987566
100
AcDbArc
 50
325.4356261688103
 51
28.04655162086824
  0
ARC
  5
F88
102
{ACAD_REACTORS
330
FF8
102
}
330
2
100
AcDbEntity
  8
KIJUN
100
AcDbCircle
 10
47.62707742688522
 20
94.98294259090314
 30
0.0
 40
18.01839606445678
100
AcDbArc
 50
23.2427872436134
 51
39.39315523551864
  0
ARC
  5
F89
102
{ACAD_REACTORS
330
FF8
102
}
330
2
100
AcDbEntity
  8
KIJUN
100
AcDbCircle
 10
68.6604976119711
 20
112.3345835861958
 30
0.0
 40
9.248643294779373
100
AcDbArc
 50
202.1877842701404
 51
219.7704323636771
  0
ARC
  5
F8A
102
{ACAD_REACTORS
330
FF8
102
}
330
2
100
AcDbEntity
  8
KIJUN
100
AcDbCircle
 10
68.15790333599597
 20
111.2634653637507
 30
0.0
 40
8.417060489993129
100
AcDbArc
 50
171.1882677306262
 51
196.7201830837672
  0
ARC
  5
F8B
102
{ACAD_REACTORS
330
FF8
102
}
330
2
100
AcDbEntity
  8
KIJUN
100
AcDbCircle
 10
60.50171531808021
 20
110.1796072173719
 30
0.0
 40
3.04038158374184
100
AcDbArc
 50
69.40792198803677
 51
92.48046710106534
  0
ARC
  5
F8C
102
{ACAD_REACTORS
330
FF8
102
}
330
2
100
AcDbEntity
  8
KIJUN
100
AcDbCircle
 10
60.40491976353515
 20
112.7528982445715
 30
0.0
 40
0.4655434557833327
100
AcDbArc
 50
94.285516013993
 51
142.220670770271
  0
ARC
  5
F8D
102
{ACAD_REACTORS
330
FF8
102
}
330
2
100
AcDbEntity
  8
KIJUN
100
AcDbCircle
 10
60.91139612173529
 20
112.4009796904742
 30
0.0
 40
1.0819204911054
100
AcDbArc
 50
143.9224725249733
 51
171.9301678915142
  0
ARC
  5
F8E
102
{ACAD_REACTORS
330
FF8
102
}
330
2
100
AcDbEntity
  8
KIJUN
100
AcDbCircle
 10
56.78792357606081
 20
111.5986369627444
 30
0.0
 40
24.31833716164765
100
AcDbArc
 50
230.6000499589449
 51
265.1975221766999
  0
ARC
  5
F8F
102
{ACAD_REACTORS
330
FF8
102
}
330
2
100
AcDbEntity
  8
KIJUN
100
AcDbCircle
 10
41.4242550730453
 20
74.50423832452202
 30
0.0
 40
24.14926564706098
100
AcDbArc
 50
49.67750575013745
 51
84.5249221142143
  0
ARC
  5
F90
102
{ACAD_REACTORS
330
FF8
102
}
330
2
100
AcDbEntity
  8
KIJUN
100
AcDbCircle
 10
45.91453988035775
 20
94.25790660647654
 30
0.0
 40
4.787340756435595
100
AcDbArc
 50
185.937881975016
 51
197.6418283334742
  0
ARC
  5
F91
102
{ACAD_REACTORS
330
FF8
102
}
330
2
100
AcDbEntity
  8
KIJUN
100
AcDbCircle
 10
41.95970626467493
 20
93.85189255909166
 30
0.0
 40
0.8117412883550462
100
AcDbArc
 50
151.502963351718
 51
186.3114566589352
  0
ARC
  5
F92
102
{ACAD_REACTORS
330
FF8
102
}
330
2
100
AcDbEntity
  8
KIJUN
100
AcDbCircle
 10
41.68207676026995
 20
93.9412742093183
 30
0.0
 40
0.5278636325823049
100
AcDbArc
 50
118.7699837379098
 51
145.6413769549834
  0
ARC
  5
F93
102
{ACAD_REACTORS
330
FF8
102
}
330
2
100
AcDbEntity
  8
KIJUN
100
AcDbCircle
 10
42.02909369851603
 20
93.26801157805173
 30
0.0
 40
1.285188773426376
100
AcDbArc
 50
98.3123757628369
 51
117.8846996405595
  0
ARC
  5
F94
102
{ACAD_REACTORS
330
FF8
102
}
330
2
100
AcDbEntity
  8
KIJUN
100
AcDbCircle
 10
43.00315590452188
 20
84.04463514457752
 30
0.0
 40
10.55896031755683
100
AcDbArc
 50
76.87038067987639
 51
96.30645081200309
  0
ARC
  5
F95
102
{ACAD_REACTORS
330
FF8
102
}
330
2
100
AcDbEntity
  8
KIJUN
100
AcDbCircle
 10
42.35883968039526
 20
86.21956073743595
 30
0.0
 40
8.660176617851194
100
AcDbArc
 50
49.46706046215087
 51
69.42951495161224
  0
ARC
  5
F96
102
{ACAD_REACTORS
330
FF8
102
}
330
2
100
AcDbEntity
  8
KIJUN
100
AcDbCircle
 10
57.50388258198956
 20
103.6507725483556
 30
0.0
 40
14.43180128618306
100
AcDbArc
 50
228.7427369594511
 51
251.8230083039202
  0
ARC
  5
F97
102
{ACAD_REACTORS
330
FF8
102
}
330
2
100
AcDbEntity
  8
KIJUN
100
AcDbCircle
 10
53.67244039530177
 20
92.89955660130063
 30
0.0
 40
3.035405741525593
100
AcDbArc
 50
257.236429088645
 51
303.5378237235598
  0
ARC
  5
F98
102
{ACAD_REACTORS
330
FF8
102
}
330
2
100
AcDbEntity
  8
KIJUN
100
AcDbCircle
 10
52.44427370428619
 20
89.83441169191932
 30
0.0
 40
2.954052860987566
100
AcDbArc
 50
10.43562616881055
 51
73.04655162086826
  0
ARC
  5
F99
102
{ACAD_REACTORS
330
FF8
102
}
330
2
100
AcDbEntity
  8
KIJUN
100
AcDbCircle
 10
46.62670224574656
 20
75.92526954771274
 30
0.0
 40
18.01839606445678
100
AcDbArc
 50
68.24278724361278
 51
84.39315523551842
  0
ARC
  5
F9A
102
{ACAD_REACTORS
330
FF8
102
}
330
2
100
AcDbEntity
  8
KIJUN
100
AcDbCircle
 10
49.2301132776808
 20
103.0676066046189
 30
0.0
 40
9.248643294779373
100
AcDbArc
 50
247.1877842701403
 51
264.7704323636771
  0
ARC
  5
F9B
102
{ACAD_REACTORS
330
FF8
102
}
330
2
100
AcDbEntity
  8
KIJUN
100
AcDbCircle
 10
49.63212041549666
 20
101.954823825348
 30
0.0
 40
8.417060489993129
100
AcDbArc
 50
216.1882677306262
 51
241.7201830837667
  0
ARC
  5
F9C
102
{ACAD_REACTORS
330
FF8
102
}
330
2
100
AcDbEntity
  8
KIJUN
100
AcDbCircle
 10
44.984781395138
 20
95.7746779146918
 30
0.0
 40
3.04038158374184
100
AcDbArc
 50
114.4079219880366
 51
137.4804671010651
  0
ARC
  5
F9D
102
{ACAD_REACTORS
330
FF8
102
}
330
2
100
AcDbEntity
  8
KIJUN
100
AcDbCircle
 10
43.09674506683116
 20
97.52582465698358
 30
0.0
 40
0.4655434557833327
100
AcDbArc
 50
139.2855160139929
 51
187.2206707702708
  0
ARC
  5
F9E
102
{ACAD_REACTORS
330
FF8
102
}
330
2
100
AcDbEntity
  8
KIJUN
100
AcDbCircle
 10
43.70372193025271
 20
97.63511352835001
 30
0.0
 40
1.0819204911054
100
AcDbArc
 50
188.9224725249732
 51
216.9301678915145
  0
ARC
  5
F9F
102
{ACAD_REACTORS
330
FF8
102
}
330
2
100
AcDbEntity
  8
KIJUN
100
AcDbCircle
 10
41.35532851478316
 20
94.15203614565358
 30
0.0
 40
24.31833716164765
100
AcDbArc
 50
275.6000499589446
 51
310.1975221766995
  0
ARC
  5
FA0
102
{ACAD_REACTORS
330
FF8
102
}
330
2
100
AcDbEntity
  8
KIJUN
100
AcDbCircle
 10
56.72127515352281
 20
57.05858114214505
 30
0.0
 40
24.14926564706098
100
AcDbArc
 50
94.6775057501369
 51
129.5249221142147
  0
ARC
  5
FA1
102
{ACAD_REACTORS
330
FF8
102
}
330
2
100
AcDbEntity
  8
KIJUN
100
AcDbCircle
 10
45.92843319475273
 20
74.20164477433428
 30
0.0
 40
4.787340756435595
100
AcDbArc
 50
230.9378819750156
 51
242.641828333474
  0
ARC
  5
FA2
102
{ACAD_REACTORS
330
FF8
102
}
330
2
100
AcDbEntity
  8
KIJUN
100
AcDbCircle
 10
43.41903881280174
 20
71.11805982005761
 30
0.0
 40
0.8117412883550462
100
AcDbArc
 50
196.5029633517182
 51
231.3114566589355
  0
ARC
  5
FA3
102
{ACAD_REACTORS
330
FF8
102
}
330
2
100
AcDbEntity
  8
KIJUN
100
AcDbCircle
 10
43.15952273659061
 20
70.9849484858243
 30
0.0
 40
0.5278636325823049
100
AcDbArc
 50
163.76998373791
 51
190.6413769549832
  0
ARC
  5
FA4
102
{ACAD_REACTORS
330
FF8
102
}
330
2
100
AcDbEntity
  8
KIJUN
100
AcDbCircle
 10
43.88096933889909
 20
70.75425794395659
 30
0.0
 40
1.285188773426376
100
AcDbArc
 50
143.3123757628367
 51
162.8846996405592
  0
ARC
  5
FA5
102
{ACAD_REACTORS
330
FF8
102
}
330
2
100
AcDbEntity
  8
KIJUN
100
AcDbCircle
 10
51.09164735160916
 20
64.92111191357506
 30
0.0
 40
10.55896031755683
100
AcDbArc
 50
121.8703806798762
 51
141.3064508120023
  0
ARC
  5
FA6
102
{ACAD_REACTORS
330
FF8
102
}
330
2
100
AcDbEntity
  8
KIJUN
100
AcDbCircle
 10
49.09814234501436
 20
66.00341617755299
 30
0.0
 40
8.660176617851194
100
AcDbArc
 50
94.46706046215131
 51
114.4295149516117
  0
ARC
  5
FA7
102
{ACAD_REACTORS
330
FF8
102
}
330
2
100
AcDbEntity
  8
KIJUN
100
AcDbCircle
 10
47.4815768062925
 20
89.03830679043183
 30
0.0
 40
14.43180128618306
100
AcDbArc
 50
273.7427369594517
 51
296.8230083039201
  0
ARC
  5
FA8
102
{ACAD_REACTORS
330
FF8
102
}
330
2
100
AcDbEntity
  8
KIJUN
100
AcDbCircle
 10
52.37459575652491
 20
78.72681033633714
 30
0.0
 40
3.035405741525593
100
AcDbArc
 50
302.2364290886456
 51
348.5378237235606
  0
ARC
  5
FA9
102
{ACAD_REACTORS
330
FF8
102
}
330
2
100
AcDbEntity
  8
KIJUN
100
AcDbCircle
 10
53.6735355116233
 20
75.69098058994963
 30
0.0
 40
2.954052860987566
100
AcDbArc
 50
55.43562616881025
 51
118.0465516208682
  0
ARC
  5
FAA
102
{ACAD_REACTORS
330
FF8
102
}
330
2
100
AcDbEntity
  8
KIJUN
100
AcDbCircle
 10
59.39514001390867
 20
61.74208763092287
 30
0.0
 40
18.01839606445678
100
AcDbArc
 50
113.2427872436139
 51
129.3931552355183
  0
ARC
  5
FAB
102
{ACAD_REACTORS
330
FF8
102
}
330
2
100
AcDbEntity
  8
KIJUN
100
AcDbCircle
 10
42.04349901861599
 20
82.77550781600874
 30
0.0
 40
9.248643294779373
100
AcDbArc
 50
292.1877842701407
 51
309.7704323636772
  0
ARC
  5
FAC
102
{ACAD_REACTORS
330
FF8
102
}
330
2
100
AcDbEntity
  8
KIJUN
100
AcDbCircle
 10
43.11461724106107
 20
82.2729135400336
 30
0.0
 40
8.417060489993129
100
AcDbArc
 50
261.1882677306264
 51
286.720183083768
  0
ARC
  5
FAD
102
{ACAD_REACTORS
330
FF8
102
}
330
2
100
AcDbEntity
  8
KIJUN
100
AcDbCircle
 10
44.19847538743991
 20
74.61672552211786
 30
0.0
 40
3.04038158374184
100
AcDbArc
 50
159.4079219880369
 51
182.4804671010653
  0
ARC
  5
FAE
102
{ACAD_REACTORS
330
FF8
102
}
330
2
100
AcDbEntity
  8
KIJUN
100
AcDbCircle
 10
41.62518436024032
 20
74.5199299675728
 30
0.0
 40
0.4655434557833327
100
AcDbArc
 50
184.285516013993
 51
232.220670770271
  0
ARC
  5
FAF
102
{ACAD_REACTORS
330
FF8
102
}
330
2
100
AcDbEntity
  8
KIJUN
100
AcDbCircle
 10
41.97710291433762
 20
75.02640632577294
 30
0.0
 40
1.0819204911054
100
AcDbArc
 50
233.922472524974
 51
261.9301678915146
  0
ARC
  5
FB0
102
{ACAD_REACTORS
330
FF8
102
}
330
2
100
AcDbEntity
  8
KIJUN
100
AcDbCircle
 10
42.77944564206743
 20
70.90293378009843
 30
0.0
 40
24.31833716164765
100
AcDbArc
 50
320.6000499589448
 51
355.1975221766999
  0
ARC
  5
FB1
102
{ACAD_REACTORS
330
FF8
102
}
330
2
100
AcDbEntity
  8
KIJUN
100
AcDbCircle
 10
79.87384428028981
 20
55.53926527708293
 30
0.0
 40
24.14926564706098
100
AcDbArc
 50
139.6775057501369
 51
174.5249221142143
  0
ARC
  5
FB2
102
{ACAD_REACTORS
330
FF8
102
}
330
2
100
AcDbEntity
  8
KIJUN
100
AcDbCircle
 10
60.12017599833528
 20
60.02955008439538
 30
0.0
 40
4.787340756435595
100
AcDbArc
 50
275.9378819750158
 51
287.6418283334743
  0
ARC
  5
FB3
102
{ACAD_REACTORS
330
FF8
102
}
330
2
100
AcDbEntity
  8
KIJUN
100
AcDbCircle
 10
60.52619004572019
 20
56.07471646871257
 30
0.0
 40
0.8117412883550462
100
AcDbArc
 50
241.5029633517175
 51
276.3114566589345
  0
ARC
  5
FB4
102
{ACAD_REACTORS
330
FF8
102
}
330
2
100
AcDbEntity
  8
KIJUN
100
AcDbCircle
 10
60.43680839549352
 20
55.79708696430758
 30
0.0
 40
0.5278636325823049
100
AcDbArc
 50
208.7699837379102
 51
235.6413769549833
  0
ARC
  5
FB5
102
{ACAD_REACTORS
330
FF8
102
}
330
2
100
AcDbEntity
  8
KIJUN
100
AcDbCircle
 10
61.11007102676011
 20
56.14410390255367
 30
0.0
 40
1.285188773426376
100
AcDbArc
 50
188.3123757628368
 51
207.8846996405597
  0
ARC
  5
FB6
102
{ACAD_REACTORS
330
FF8
102
}
330
2
100
AcDbEntity
  8
KIJUN
100
AcDbCircle
 10
70.33344746023431
 20
57.11816610855952
 30
0.0
 40
10.55896031755683
100
AcDbArc
 50
166.8703806798765
 51
186.306450812003
  0
ARC
  5
FB7
102
{ACAD_REACTORS
330
FF8
102
}
330
2
100
AcDbEntity
  8
KIJUN
100
AcDbCircle
 10
68.15852186737588
 20
56.47384988443289
 30
0.0
 40
8.660176617851194
100
AcDbArc
 50
139.4670604621505
 51
159.4295149516122
  0
ARC
  5
FB8
102
{ACAD_REACTORS
330
FF8
102
}
330
2
100
AcDbEntity
  8
KIJUN
100
AcDbCircle
 10
50.72731005645619
 20
71.61889278602719
 30
0.0
 40
14.43180128618306
100
AcDbArc
 50
318.742736959451
 51
341.8230083039203
  0
ARC
  5
FB9
102
{ACAD_REACTORS
330
FF8
102
}
330
2
100
AcDbEntity
  8
KIJUN
100
AcDbCircle
 10
61.47852600351121
 20
67.78745059933941
 30
0.0
 40
3.035405741525593
100
AcDbArc
 50
347.2364290886448
 51
33.53782372356003
  0
ARC
  5
FBA
102
{ACAD_REACTORS
330
FF8
102
}
330
2
100
AcDbEntity
  8
KIJUN
100
AcDbCircle
 10
64.54367091289251
 20
66.55928390832382
 30
0.0
 40
2.954052860987566
100
AcDbArc
 50
100.4356261688112
 51
163.0465516208682
  0
ARC
  5
FBB
102
{ACAD_REACTORS
330
FF8
102
}
330
2
100
AcDbEntity
  8
KIJUN
100
AcDbCircle
 10
78.45281305709909
 20
60.74171244978419
 30
0.0
 40
18.01839606445678
100
AcDbArc
 50
158.2427872436124
 51
174.3931552355184
  0
ARC
  5
FBC
102
{ACAD_REACTORS
330
FF8
102
}
330
2
100
AcDbEntity
  8
KIJUN
100
AcDbCircle
 10
51.3104760001929
 20
63.34512348171843
 30
0.0
 40
9.248643294779373
100
AcDbArc
 50
337.1877842701405
 51
354.7704323636771
  0
ARC
  5
FBD
102
{ACAD_REACTORS
330
FF8
102
}
330
2
100
AcDbEntity
  8
KIJUN
100
AcDbCircle
 10
52.42325877946385
 20
63.74713061953428
 30
0.0
 40
8.417060489993129
100
AcDbArc
 50
306.1882677306267
 51
331.7201830837663
  0
ARC
  5
FBE
102
{ACAD_REACTORS
330
FF8
102
}
330
2
100
AcDbEntity
  8
KIJUN
100
AcDbCircle
 10
58.60340469012005
 20
59.09979159917563
 30
0.0
 40
3.04038158374184
100
AcDbArc
 50
204.4079219880366
 51
227.4804671010648
  0
ARC
  5
FBF
102
{ACAD_REACTORS
330
FF8
102
}
330
2
100
AcDbEntity
  8
KIJUN
100
AcDbCircle
 10
56.85225794782827
 20
57.21175527086879
 30
0.0
 40
0.4655434557833327
100
AcDbArc
 50
229.2855160139934
 51
277.22067077027
  0
ARC
  5
FC0
102
{ACAD_REACTORS
330
FF8
102
}
330
2
100
AcDbEntity
  8
KIJUN
100
AcDbCircle
 10
56.74296907646183
 20
57.81873213429034
 30
0.0
 40
1.0819204911054
100
AcDbArc
 50
278.9224725249725
 51
306.9301678915147
  0
ARC
  5
FC1
102
{ACAD_REACTORS
330
FF8
102
}
330
2
100
AcDbEntity
  8
KIJUN
100
AcDbCircle
 10
60.22604645915823
 20
55.47033871882084
 30
0.0
 40
24.31833716164765
100
AcDbArc
 50
5.600049958944691
 51
40.19752217669948
  0
ARC
  5
FC2
102
{ACAD_REACTORS
330
FF8
102
}
330
2
100
AcDbEntity
  8
KIJUN
100
AcDbCircle
 10
97.31950146266678
 20
70.83628535756048
 30
0.0
 40
24.14926564706098
100
AcDbArc
 50
184.6775057501369
 51
219.5249221142145
  0
ARC
  5
FC3
102
{ACAD_REACTORS
330
FF8
102
}
330
2
100
AcDbEntity
  8
KIJUN
100
AcDbCircle
 10
80.17643783047754
 20
60.04344339879037
 30
0.0
 40
4.787340756435595
100
AcDbArc
 50
320.9378819750158
 51
332.6418283334742
  0
ARC
  5
FC4
102
{ACAD_REACTORS
330
FF8
102
}
330
2
100
AcDbEntity
  8
KIJUN
100
AcDbCircle
 10
83.26002278475421
 20
57.53404901683939
 30
0.0
 40
0.8117412883550462
100
AcDbArc
 50
286.5029633517182
 51
321.3114566589358
  0
ARC
  5
FC5
102
{ACAD_REACTORS
330
FF8
102
}
330
2
100
AcDbEntity
  8
KIJUN
100
AcDbCircle
 10
83.39313411898752
 20
57.27453294062826
 30
0.0
 40
0.5278636325823049
100
AcDbArc
 50
253.7699837379104
 51
280.6413769549832
  0
ARC
  5
FC6
102
{ACAD_REACTORS
330
FF8
102
}
330
2
100
AcDbEntity
  8
KIJUN
100
AcDbCircle
 10
83.62382466085524
 20
57.99597954293677
 30
0.0
 40
1.285188773426376
100
AcDbArc
 50
233.3123757628364
 51
252.8846996405593
  0
ARC
  5
FC7
102
{ACAD_REACTORS
330
FF8
102
}
330
2
100
AcDbEntity
  8
KIJUN
100
AcDbCircle
 10
89.45697069123676
 20
65.20665755564684
 30
0.0
 40
10.55896031755683
100
AcDbArc
 50
211.8703806798762
 51
231.3064508120027
  0
ARC
  5
FC8
102
{ACAD_REACTORS
330
FF8
102
}
330
2
100
AcDbEntity
  8
KIJUN
100
AcDbCircle
 10
88.37466642725884
 20
63.21315254905201
 30
0.0
 40
8.660176617851194
100
AcDbArc
 50
184.4670604621512
 51
204.4295149516118
  0
ARC
  5
FC9
102
{ACAD_REACTORS
330
FF8
102
}
330
2
100
AcDbEntity
  8
KIJUN
100
AcDbCircle
 10
65.33977581437998
 20
61.59658701033018
 30
0.0
 40
14.43180128618306
100
AcDbArc
 50
3.742736959451575
 51
26.82300830392028
  0
ARC
  5
FCA
102
{ACAD_REACTORS
330
FF8
102
}
330
2
100
AcDbEntity
  8
KIJUN
100
AcDbCircle
 10
75.65127226847469
 20
66.48960596056259
 30
0.0
 40
3.035405741525593
100
AcDbArc
 50
32.23642908864561
 51
78.53782372356057
  0
ARC
  5
FCB
102
{ACAD_REACTORS
330
FF8
102
}
330
2
100
AcDbEntity
  8
KIJUN
100
AcDbCircle
 10
78.68710201486219
 20
67.78854571566097
 30
0.0
 40
2.954052860987566
100
AcDbArc
 50
145.4356261688104
 51
208.0465516208683
  0
ARC
  5
FCC
102
{ACAD_REACTORS
330
FF8
102
}
330
2
100
AcDbEntity
  8
KIJUN
100
AcDbCircle
 10
92.63599497388895
 20
73.51015021794634
 30
0.0
 40
18.01839606445678
100
AcDbArc
 50
203.2427872436139
 51
219.3931552355183
  0
ARC
  5
FCD
102
{ACAD_REACTORS
330
FF8
102
}
330
2
100
AcDbEntity
  8
KIJUN
100
AcDbCircle
 10
71.60257478880308
 20
56.15850922265363
 30
0.0
 40
9.248643294779373
100
AcDbArc
 50
22.18778427014071
 51
39.770432363677
  0
ARC
  5
FCE
102
{ACAD_REACTORS
330
FF8
102
}
330
2
100
AcDbEntity
  8
KIJUN
100
AcDbCircle
 10
72.1051690647782
 20
57.22962744509871
 30
0.0
 40
8.417060489993129
100
AcDbArc
 50
351.1882677306264
 51
16.720183083768
  0
ARC
  5
FCF
102
{ACAD_REACTORS
330
FF8
102
}
330
2
100
AcDbEntity
  8
KIJUN
100
AcDbCircle
 10
79.76135708269396
 20
58.31348559147755
 30
0.0
 40
3.04038158374184
100
AcDbArc
 50
249.4079219880373
 51
272.4804671010649
  0
ARC
  5
FD0
102
{ACAD_REACTORS
330
FF8
102
}
330
2
100
AcDbEntity
  8
KIJUN
100
AcDbCircle
 10
79.85815263723901
 20
55.740194564278
 30
0.0
 40
0.4655434557833327
100
AcDbArc
 50
274.2855160139931
 51
322.2206707702707
  0
ARC
  5
FD1
102
{ACAD_REACTORS
330
FF8
102
}
330
2
100
AcDbEntity
  8
KIJUN
100
AcDbCircle
 10
79.35167627903888
 20
56.0921131183753
 30
0.0
 40
1.0819204911054
100
AcDbArc
 50
323.9224725249739
 51
351.9301678915146
  0
ARC
  5
FD2
102
{ACAD_REACTORS
330
FF8
102
}
330
2
100
AcDbEntity
  8
KIJUN
100
AcDbCircle
 10
83.47514882471337
 20
56.89445584610504
 30
0.0
 40
24.31833716164765
100
AcDbArc
 50
50.60004995894463
 51
85.19752217669923
  0
ARC
  5
FD3
102
{ACAD_REACTORS
330
FF8
102
}
330
2
100
AcDbEntity
  8
KIJUN
100
AcDbCircle
 10
98.83881732772888
 20
93.98885448432741
 30
0.0
 40
24.14926564706098
100
AcDbArc
 50
229.6775057501365
 51
264.5249221142149
  0
ARC
  5
FD4
102
{ACAD_REACTORS
330
FF8
102
}
330
2
100
AcDbEntity
  8
KIJUN
100
AcDbCircle
 10
94.34853252041643
 20
74.2351862023729
 30
0.0
 40
4.787340756435595
100
AcDbArc
 50
5.937881975015914
 51
17.6418283334742
  0
ARC
  5
FD5
102
{ACAD_REACTORS
330
FF8
102
}
330
2
100
AcDbEntity
  8
KIJUN
100
AcDbCircle
 10
98.30336613609924
 20
74.6412002497578
 30
0.0
 40
0.8117412883550462
100
AcDbArc
 50
331.5029633517176
 51
6.311456658934504
  0
ARC
  5
FD6
102
{ACAD_REACTORS
330
FF8
102
}
330
2
100
AcDbEntity
  8
KIJUN
100
AcDbCircle
 10
98.58099564050423
 20
74.55181859953114
 30
0.0
 40
0.5278636325823049
100
AcDbArc
 50
298.7699837379108
 51
325.6413769549831
  0
ARC
  5
FD7
102
{ACAD_REACTORS
330
FF8
102
}
330
2
100
AcDbEntity
  8
KIJUN
100
AcDbCircle
 10
98.23397870225814
 20
75.22508123079773
 30
0.0
 40
1.285188773426376
100
AcDbArc
 50
278.3123757628367
 51
297.8846996405597
  0
ARC
  5
FD8
102
{ACAD_REACTORS
330
FF8
102
}
330
2
100
AcDbEntity
  8
KIJUN
100
AcDbCircle
 10
97.25991649625228
 20
84.44845766427192
 30
0.0
 40
10.55896031755683
100
AcDbArc
 50
256.8703806798759
 51
276.3064508120024
  0
ARC
  5
FD9
102
{ACAD_REACTORS
330
FF8
102
}
330
2
100
AcDbEntity
  8
KIJUN
100
AcDbCircle
 10
97.90423272037891
 20
82.2735320714135
 30
0.0
 40
8.660176617851194
100
AcDbArc
 50
229.4670604621505
 51
249.4295149516117
  0
ARC
  5
FDA
102
{ACAD_REACTORS
330
FF8
102
}
330
2
100
AcDbEntity
  8
KIJUN
100
AcDbCircle
 10
82.75918981878461
 20
64.8423202604938
 30
0.0
 40
14.43180128618306
100
AcDbArc
 50
48.74273695945087
 51
71.82300830392001
  0
ARC
  5
FDB
102
{ACAD_REACTORS
330
FF8
102
}
330
2
100
AcDbEntity
  8
KIJUN
100
AcDbCircle
 10
86.5906320054724
 20
75.59353620754882
 30
0.0
 40
3.035405741525593
100
AcDbArc
 50
77.23642908864556
 51
123.5378237235607
  0
ARC
  5
FDC
102
{ACAD_REACTORS
330
FF8
102
}
330
2
100
AcDbEntity
  8
KIJUN
100
AcDbCircle
 10
87.81879869648799
 20
78.65868111693012
 30
0.0
 40
2.954052860987566
100
AcDbArc
 50
190.4356261688112
 51
253.0465516208681
  0
ARC
  5
FDD
102
{ACAD_REACTORS
330
FF8
102
}
330
2
100
AcDbEntity
  8
KIJUN
100
AcDbCircle
 10
93.63637015502762
 20
92.5678232611367
 30
0.0
 40
18.01839606445678
100
AcDbArc
 50
248.2427872436132
 51
264.3931552355186
  0
ARC
  5
FDE
102
{ACAD_REACTORS
330
FF8
102
}
330
2
100
AcDbEntity
  8
KIJUN
100
AcDbCircle
 10
91.03295912309338
 20
65.42548620423052
 30
0.0
 40
9.248643294779373
100
AcDbArc
 50
67.18778427014061
 51
84.77043236367681
  0
ARC
  5
FDF
102
{ACAD_REACTORS
330
FF8
102
}
330
2
100
AcDbEntity
  8
KIJUN
100
AcDbCircle
 10
90.63095198527753
 20
66.53826898350146
 30
0.0
 40
8.417060489993129
100
AcDbArc
 50
36.18826773062675
 51
61.72018308376687
  0
ARC
  5
FE0
102
{ACAD_REACTORS
330
FF8
102
}
330
2
100
AcDbEntity
  8
KIJUN
100
AcDbCircle
 10
95.27829100563618
 20
72.71841489415766
 30
0.0
 40
3.04038158374184
100
AcDbArc
 50
294.4079219880371
 51
317.4804671010648
  0
ARC
  5
FE1
102
{ACAD_REACTORS
330
FF8
102
}
330
2
100
AcDbEntity
  8
KIJUN
100
AcDbCircle
 10
97.16632733394302
 20
70.96726815186588
 30
0.0
 40
0.4655434557833327
100
AcDbArc
 50
319.2855160139934
 51
7.220670770269981
  0
ARC
  5
FE2
102
{ACAD_REACTORS
330
FF8
102
}
330
2
100
AcDbEntity
  8
KIJUN
100
AcDbCircle
 10
96.55935047052146
 20
70.85797928049945
 30
0.0
 40
1.0819204911054
100
AcDbArc
 50
8.922472524972555
 51
36.93016789151439
  0
ARC
  5
FE3
102
{ACAD_REACTORS
330
FF8
102
}
330
2
100
AcDbEntity
  8
KIJUN
100
AcDbCircle
 10
98.90774388599098
 20
74.34105666319587
 30
0.0
 40
24.31833716164765
100
AcDbArc
 50
95.60004995894464
 51
130.1975221766991
  0
ARC
  5
FE4
102
{ACAD_REACTORS
330
FF8
102
}
330
2
100
AcDbEntity
  8
KIJUN
100
AcDbCircle
 10
83.54179724725137
 20
111.4345116667044
 30
0.0
 40
24.14926564706098
100
AcDbArc
 50
274.6775057501369
 51
309.524922114215
  0
ARC
  5
FE5
102
{ACAD_REACTORS
330
FF8
102
}
330
2
100
AcDbEntity
  8
KIJUN
100
AcDbCircle
 10
94.33463920602148
 20
94.29144803451517
 30
0.0
 40
4.787340756435595
100
AcDbArc
 50
50.93788197501591
 51
62.64182833347398
  0
ARC
  5
FE6
102
{ACAD_REACTORS
330
FF8
102
}
330
2
100
AcDbEntity
  8
KIJUN
100
AcDbCircle
 10
96.84403358797244
 20
97.37503298879184
 30
0.0
 40
0.8117412883550462
100
AcDbArc
 50
16.50296335171818
 51
51.31145665893519
  0
ARC
  5
FE7
102
{ACAD_REACTORS
330
FF8
102
}
330
2
100
AcDbEntity
  8
KIJUN
100
AcDbCircle
 10
97.10354966418359
 20
97.50814432302519
 30
0.0
 40
0.5278636325823049
100
AcDbArc
 50
343.7699837379101
 51
10.64137695498322
  0
ARC
  5
FE8
102
{ACAD_REACTORS
330
FF8
102
}
330
2
100
AcDbEntity
  8
KIJUN
100
AcDbCircle
 10
96.38210306187509
 20
97.73883486489287
 30
0.0
 40
1.285188773426376
100
AcDbArc
 50
323.3123757628366
 51
342.8846996405595
  0
ARC
  5
FE9
102
{ACAD_REACTORS
330
FF8
102
}
330
2
100
AcDbEntity
  8
KIJUN
100
AcDbCircle
 10
89.17142504916501
 20
103.5719808952744
 30
0.0
 40
10.55896031755683
100
AcDbArc
 50
301.8703806798758
 51
321.3064508120023
  0
ARC
  5
FEA
102
{ACAD_REACTORS
330
FF8
102
}
330
2
100
AcDbEntity
  8
KIJUN
100
AcDbCircle
 10
91.1649300557598
 20
102.4896766312965
 30
0.0
 40
8.660176617851194
100
AcDbArc
 50
274.4670604621509
 51
294.4295149516118
  0
ARC
  5
FEB
102
{ACAD_REACTORS
330
FF8
102
}
330
2
100
AcDbEntity
  8
KIJUN
100
AcDbCircle
 10
92.78149559448166
 20
79.45478601841762
 30
0.0
 40
14.43180128618306
100
AcDbArc
 50
93.7427369594512
 51
116.8230083039197
  0
ARC
  5
FEC
102
{ACAD_REACTORS
330
FF8
102
}
330
2
100
AcDbEntity
  8
KIJUN
100
AcDbCircle
 10
87.88847664424926
 20
89.76628247251232
 30
0.0
 40
3.035405741525593
100
AcDbArc
 50
122.2364290886456
 51
168.5378237235604
  0
ARC
  5
FED
102
{ACAD_REACTORS
330
FF8
102
}
330
2
100
AcDbEntity
  8
KIJUN
100
AcDbCircle
 10
86.58953688915088
 20
92.80211221889983
 30
0.0
 40
2.954052860987566
100
AcDbArc
 50
235.4356261688103
 51
298.0465516208682
  0
ARC
  5
FEE
102
{ACAD_REACTORS
330
FF8
102
}
330
2
100
AcDbEntity
  8
KIJUN
100
AcDbCircle
 10
80.86793238686549
 20
106.7510051779266
 30
0.0
 40
18.01839606445678
100
AcDbArc
 50
293.2427872436136
 51
309.3931552355186
  0
ARC
  5
FEF
102
{ACAD_REACTORS
330
FF8
102
}
330
2
100
AcDbEntity
  8
KIJUN
100
AcDbCircle
 10
98.21957338215822
 20
85.71758499284072
 30
0.0
 40
9.248643294779373
100
AcDbArc
 50
112.1877842701403
 51
129.7704323636769
  0
ARC
  5
FF0
102
{ACAD_REACTORS
330
FF8
102
}
330
2
100
AcDbEntity
  8
KIJUN
100
AcDbCircle
 10
97.14845515971312
 20
86.22017926881584
 30
0.0
 40
8.417060489993129
100
AcDbArc
 50
81.18826773062599
 51
106.7201830837672
  0
ARC
  5
FF1
102
{ACAD_REACTORS
330
FF8
102
}
330
2
100
AcDbEntity
  8
KIJUN
100
AcDbCircle
 10
96.06459701333427
 20
93.87636728673161
 30
0.0
 40
3.04038158374184
100
AcDbArc
 50
339.4079219880368
 51
2.480467101065339
  0
ARC
  5
FF2
102
{ACAD_REACTORS
330
FF8
102
}
330
2
100
AcDbEntity
  8
KIJUN
100
AcDbCircle
 10
98.63788804053385
 20
93.97316284127667
 30
0.0
 40
0.4655434557833327
100
AcDbArc
 50
4.285516013993008
 51
52.22067077027098
  0
ARC
  5
FF3
102
{ACAD_REACTORS
330
FF8
102
}
330
2
100
AcDbEntity
  8
KIJUN
100
AcDbCircle
 10
98.28596948643657
 20
93.46668648307653
 30
0.0
 40
1.0819204911054
100
AcDbArc
 50
53.92247252497331
 51
81.93016789151419
  0
ENDSEC
  0
SECTION
  2
OBJECTS
  0
DICTIONARY
  5
1A
330
0
100
AcDbDictionary
281
     1
  3
ACAD_COLOR
350
144
  3
ACAD_GROUP
350
18
  3
ACAD_LAYOUT
350
58
  3
ACAD_MATERIAL
350
143
  3
ACAD_MLINESTYLE
350
19
  3
ACAD_PLOTSETTINGS
350
59
  3
ACAD_PLOTSTYLENAME
350
56
  3
ACAD_TABLESTYLE
350
145
  3
ACDBHEADERROUNDTRIPXREC
350
1000
  3
AcDbVariableDictionary
350
1D1
  0
DICTIONARY
  5
1B4
330
A
100
AcDbDictionary
280
     1
281
     1
  3
ACAD_LAYERFILTERS
360
FF7
  3
ACLYDICTIONARY
360
FF6
  0
DICTIONARY
  5
D13
330
2
100
AcDbDictionary
280
     1
281
     1
  3
ACAD_SORTENTS
360
D14
  0
DICTIONARY
  5
144
102
{ACAD_REACTORS
330
1A
102
}
330
1A
100
AcDbDictionary
281
     1
  0
DICTIONARY
  5
18
102
{ACAD_REACTORS
330
1A
102
}
330
1A
100
AcDbDictionary
281
     1
  3
*A1
350
E0D
  3
*A2
350
FF8
  0
DICTIONARY
  5
58
102
{ACAD_REACTORS
330
1A
102
}
330
1A
100
AcDbDictionary
281
     1
  3
Model
350
5A
  3
ﾚｲｱｳﾄ1
350
5B
  0
DICTIONARY
  5
143
102
{ACAD_REACTORS
330
1A
102
}
330
1A
100
AcDbDictionary
281
     1
  0
DICTIONARY
  5
19
102
{ACAD_REACTORS
330
1A
102
}
330
1A
100
AcDbDictionary
281
     1
  3
STANDARD
350
1D
  0
DICTIONARY
  5
59
102
{ACAD_REACTORS
330
1A
102
}
330
1A
100
AcDbDictionary
281
     1
  0
ACDBDICTIONARYWDFLT
  5
56
102
{ACAD_REACTORS
330
1A
102
}
330
1A
100
AcDbDictionary
281
     1
  3
Normal
350
57
100
AcDbDictionaryWithDefault
340
57
  0
DICTIONARY
  5
145
102
{ACAD_REACTORS
330
1A
102
}
330
1A
100
AcDbDictionary
281
     1
  3
Standard
350
146
  0
DICTIONARY
  5
1000
102
{ACAD_REACTORS
330
1A
102
}
330
1A
100
AcDbDictionary
281
     1
  0
DICTIONARY
  5
1D1
102
{ACAD_REACTORS
330
1A
102
}
330
1A
100
AcDbDictionary
281
     1
  3
CTABLESTYLE
350
1D2
  3
DIMASSOC
350
D03
  3
PROJECTNAME
350
D04
  0
DICTIONARY
  5
FF7
102
{ACAD_REACTORS
330
1B4
102
}
330
1B4
100
AcDbDictionary
281
     1
  0
DICTIONARY
  5
FF6
102
{ACAD_REACTORS
330
1B4
102
}
330
1B4
100
AcDbDictionary
281
     1
1001
ACAD
1000
<All
  0
SORTENTSTABLE
  5
D14
102
{ACAD_REACTORS
330
D13
102
}
330
D13
100
AcDbSortentsTable
330
2
331
20
  5
20
331
21
  5
21
331
23
  5
23
331
1F
  5
1F
331
CDD
  5
E0C
  0
GROUP
  5
E0D
102
{ACAD_REACTORS
330
18
102
}
330
18
100
AcDbGroup
300

 70
     1
 71
     1
  0
GROUP
  5
FF8
102
{ACAD_REACTORS
330
18
102
}
330
18
100
AcDbGroup
300

 70
     1
 71
     1
340
FF3
340
FF2
340
FF1
340
FF0
340
FEF
340
FEE
340
FED
340
FEC
340
FEB
340
FEA
340
FE9
340
FE8
340
FE7
340
FE6
340
FE5
340
FE4
340
FE3
340
FE2
340
FE1
340
FE0
340
FDF
340
FDE
340
FDD
340
FDC
340
FDB
340
FDA
340
FD9
340
FD8
340
FD7
340
FD6
340
FD5
340
FD4
340
FD3
340
FD2
340
FD1
340
FD0
340
FCF
340
FCE
340
FCD
340
FCC
340
FCB
340
FCA
340
FC9
340
FC8
340
FC7
340
FC6
340
FC5
340
FC4
340
FC3
340
FC2
340
FC1
340
FC0
340
FBF
340
FBE
340
FBD
340
FBC
340
FBB
340
FBA
340
FB9
340
FB8
340
FB7
340
FB6
340
FB5
340
FB4
340
FB3
340
FB2
340
FB1
340
FB0
340
FAF
340
FAE
340
FAD
340
FAC
340
FAB
340
FAA
340
FA9
340
FA8
340
FA7
340
FA6
340
FA5
340
FA4
340
FA3
340
FA2
340
FA1
340
FA0
340
F9F
340
F9E
340
F9D
340
F9C
340
F9B
340
F9A
340
F99
340
F98
340
F97
340
F96
340
F95
340
F94
340
F93
340
F92
340
F91
340
F90
340
F8F
340
F8E
340
F8D
340
F8C
340
F8B
340
F8A
340
F89
340
F88
340
F87
340
F86
340
F85
340
F84
340
F83
340
F82
340
F81
340
F80
340
F7F
340
F7E
340
F7D
340
F7B
340
F7A
340
F79
340
F78
340
F77
340
F76
340
F75
340
F74
340
F73
340
F72
340
F71
340
F70
340
F6F
340
F6E
340
F6D
340
F6C
340
F6B
340
F6A
340
F69
340
F68
340
F67
340
F66
340
F65
340
F64
340
F63
340
F61
340
F60
340
F5F
340
F5E
340
F5D
340
F5C
340
F5B
340
F53
340
F40
340
F3F
340
F3E
340
F3D
340
F3C
340
F3B
340
F38
340
F37
340
F36
340
F35
340
F34
340
F33
340
F32
340
F31
340
F30
340
F2F
340
F2C
340
F2B
340
F2A
340
F29
340
F25
340
F24
340
F20
340
F1F
340
F1E
340
F1D
340
F1B
340
F1A
340
F19
340
F18
340
F17
340
F16
340
F15
340
F14
340
F13
340
F12
340
F11
340
F10
340
F0F
340
F04
340
F03
340
F02
340
F01
340
F00
340
EFF
340
EFB
340
EFA
340
EF9
340
EF8
340
EF7
340
EF6
340
EF5
340
EF4
340
EF0
340
EEF
340
EEE
340
EED
340
EEC
340
EE8
340
EE7
340
EE6
340
EE5
340
EE1
340
EE0
340
EDF
340
EDE
340
EDD
340
EDC
340
ED8
340
ED7
340
ED6
340
ED5
340
ED4
340
ED3
340
ED2
340
ECE
340
ECD
340
ECC
340
ECB
340
EC7
340
EC6
340
EC5
340
EC4
340
EC3
340
EC2
340
EC1
340
EC0
340
EBC
340
EBB
340
EBA
340
EB9
340
EB5
340
EB4
340
EB3
340
EB2
340
EB1
340
EB0
  0
LAYOUT
  5
5A
102
{ACAD_XDICTIONARY
360
1001
102
}
102
{ACAD_REACTORS
330
58
102
}
330
58
100
AcDbPlotSettings
  1

  2
なし
  4

  6

 40
0.0
 41
0.0
 42
0.0
 43
0.0
 44
0.0
 45
0.0
 46
0.0
 47
0.0
 48
0.0
 49
0.0
140
0.0
141
0.0
142
1.0
143
1.0
 70
  1712
 72
     0
 73
     0
 74
     0
  7
monochrome.ctb
 75
     0
147
1.0
148
0.0
149
0.0
100
AcDbLayout
  1
Model
 70
     1
 71
     0
 10
0.0
 20
0.0
 11
12.0
 21
9.0
 12
0.0
 22
0.0
 32
0.0
 14
0.0
 24
0.0
 34
0.0
 15
0.0
 25
0.0
 35
0.0
146
0.0
 13
0.0
 23
0.0
 33
0.0
 16
1.0
 26
0.0
 36
0.0
 17
0.0
 27
1.0
 37
0.0
 76
     0
330
2
  0
LAYOUT
  5
5B
102
{ACAD_XDICTIONARY
360
1003
102
}
102
{ACAD_REACTORS
330
58
102
}
330
58
100
AcDbPlotSettings
  1

  2
なし
  4

  6

 40
0.0
 41
0.0
 42
0.0
 43
0.0
 44
0.0
 45
0.0
 46
0.0
 47
0.0
 48
0.0
 49
0.0
140
0.0
141
0.0
142
1.0
143
1.0
 70
   688
 72
     0
 73
     0
 74
     5
  7
monochrome.ctb
 75
    16
147
1.0
148
0.0
149
0.0
100
AcDbLayout
  1
ﾚｲｱｳﾄ1
 70
     1
 71
     1
 10
0.0
 20
0.0
 11
12.0
 21
9.0
 12
0.0
 22
0.0
 32
0.0
 14
1.000000000000000E+20
 24
1.000000000000000E+20
 34
1.000000000000000E+20
 15
-1.000000000000000E+20
 25
-1.000000000000000E+20
 35
-1.000000000000000E+20
146
0.0
 13
0.0
 23
0.0
 33
0.0
 16
1.0
 26
0.0
 36
0.0
 17
0.0
 27
1.0
 37
0.0
 76
     0
330
7
  0
MLINESTYLE
  5
1D
102
{ACAD_REACTORS
330
19
102
}
330
19
100
AcDbMlineStyle
  2
STANDARD
 70
     0
  3

 62
   256
 51
90.0
 52
90.0
 71
     2
 49
0.5
 62
   256
  6
BYLAYER
 49
-0.5
 62
   256
  6
BYLAYER
  0
ACDBPLACEHOLDER
  5
57
102
{ACAD_REACTORS
330
56
102
}
330
56
  0
TABLESTYLE
  5
146
102
{ACAD_REACTORS
330
145
102
}
330
145
100
AcDbTableStyle
  3
Standard
 70
     0
 71
     0
 40
0.06
 41
0.06
280
     0
281
     0
  7
STANDARD
140
0.18
170
     2
 62
     0
 63
     7
283
     0
274
    -2
284
     1
 64
     0
275
    -2
285
     1
 65
     0
276
    -2
286
     1
 66
     0
277
    -2
287
     1
 67
     0
278
    -2
288
     1
 68
     0
279
    -2
289
     1
 69
     0
  7
STANDARD
140
0.25
170
     5
 62
     0
 63
     7
283
     0
274
    -2
284
     1
 64
     0
275
    -2
285
     1
 65
     0
276
    -2
286
     1
 66
     0
277
    -2
287
     1
 67
     0
278
    -2
288
     1
 68
     0
279
    -2
289
     1
 69
     0
  7
STANDARD
140
0.18
170
     5
 62
     0
 63
     7
283
     0
274
    -2
284
     1
 64
     0
275
    -2
285
     1
 65
     0
276
    -2
286
     1
 66
     0
277
    -2
287
     1
 67
     0
278
    -2
288
     1
 68
     0
279
    -2
289
     1
 69
     0
  0
DICTIONARYVAR
  5
1D2
102
{ACAD_REACTORS
330
1D1
102
}
330
1D1
100
DictionaryVariables
280
     0
  1
STANDARD
  0
DICTIONARYVAR
  5
D03
102
{ACAD_REACTORS
330
1D1
102
}
330
1D1
100
DictionaryVariables
280
     0
  1
1
  0
DICTIONARYVAR
  5
D04
102
{ACAD_REACTORS
330
1D1
102
}
330
1D1
100
DictionaryVariables
280
     0
  1

  0
DICTIONARY
  5
1001
330
5A
100
AcDbDictionary
280
     1
281
     1
  3
ACAD_XREC_ROUNDTRIP
360
1002
  0
DICTIONARY
  5
1003
330
5B
100
AcDbDictionary
280
     1
281
     1
  3
ACAD_XREC_ROUNDTRIP
360
1004
  0
XRECORD
  5
1002
102
{ACAD_REACTORS
330
1001
102
}
330
1001
100
AcDbXrecord
280
     1
102
SHADEPLOT
 70
     0
102
SHADEPLOTRESLEVEL
 70
     2
102
SHADEPLOTCUSTOMDPI
 70
   300
  0
XRECORD
  5
1004
102
{ACAD_REACTORS
330
1003
102
}
330
1003
100
AcDbXrecord
280
     1
102
SHADEPLOT
 70
     0
102
SHADEPLOTRESLEVEL
 70
     2
102
SHADEPLOTCUSTOMDPI
 70
   300
  0
ENDSEC
  0
EOF
