  0
SECTION
  2
HEADER
  9
$ACADVER
  1
AC1015
  9
$ACADMAINTVER
 70
    20
  9
$DWGCODEPAGE
  3
ANSI_932
  9
$INSBASE
 10
922.019522
 20
-675.4306699999999
 30
0.0
  9
$EXTMIN
 10
-0.025633200973175
 20
-0.0175583290980512
 30
-0.0000000349181948
  9
$EXTMAX
 10
131.8372158521811
 20
142.3775665241363
 30
0.0000000814935746
  9
$LIMMIN
 10
0.0
 20
0.0
  9
$LIMMAX
 10
420.0
 20
297.0
  9
$ORTHOMODE
 70
     0
  9
$REGENMODE
 70
     1
  9
$FILLMODE
 70
     1
  9
$QTEXTMODE
 70
     0
  9
$MIRRTEXT
 70
     1
  9
$LTSCALE
 40
1.0
  9
$ATTMODE
 70
     1
  9
$TEXTSIZE
 40
30.0
  9
$TRACEWID
 40
0.05
  9
$TEXTSTYLE
  7
SUNPOU
  9
$CLAYER
  8
0
  9
$CELTYPE
  6
BYLAYER
  9
$CECOLOR
 62
   256
  9
$CELTSCALE
 40
1.0
  9
$DISPSILH
 70
     0
  9
$DIMSCALE
 40
1.0
  9
$DIMASZ
 40
2.0
  9
$DIMEXO
 40
10.0
  9
$DIMDLI
 40
0.38
  9
$DIMRND
 40
0.0
  9
$DIMDLE
 40
0.0
  9
$DIMEXE
 40
0.0
  9
$DIMTP
 40
0.0
  9
$DIMTM
 40
0.0
  9
$DIMTXT
 40
5.0
  9
$DIMCEN
 40
0.0
  9
$DIMTSZ
 40
0.0
  9
$DIMTOL
 70
     0
  9
$DIMLIM
 70
     0
  9
$DIMTIH
 70
     0
  9
$DIMTOH
 70
     0
  9
$DIMSE1
 70
     0
  9
$DIMSE2
 70
     0
  9
$DIMTAD
 70
     1
  9
$DIMZIN
 70
     0
  9
$DIMBLK
  1
Dot
  9
$DIMASO
 70
     1
  9
$DIMSHO
 70
     1
  9
$DIMPOST
  1

  9
$DIMAPOST
  1

  9
$DIMALT
 70
     0
  9
$DIMALTD
 70
     2
  9
$DIMALTF
 40
25.4
  9
$DIMLFAC
 40
1.0
  9
$DIMTOFL
 70
     0
  9
$DIMTVP
 40
0.0
  9
$DIMTIX
 70
     0
  9
$DIMSOXD
 70
     0
  9
$DIMSAH
 70
     0
  9
$DIMBLK1
  1

  9
$DIMBLK2
  1

  9
$DIMSTYLE
  2
STANDARD
  9
$DIMCLRD
 70
    60
  9
$DIMCLRE
 70
    70
  9
$DIMCLRT
 70
    60
  9
$DIMTFAC
 40
0.064286
  9
$DIMGAP
 40
3.0
  9
$DIMJUST
 70
     0
  9
$DIMSD1
 70
     0
  9
$DIMSD2
 70
     0
  9
$DIMTOLJ
 70
     1
  9
$DIMTZIN
 70
     0
  9
$DIMALTZ
 70
     0
  9
$DIMALTTZ
 70
     0
  9
$DIMUPT
 70
     0
  9
$DIMDEC
 70
     0
  9
$DIMTDEC
 70
     0
  9
$DIMALTU
 70
     2
  9
$DIMALTTD
 70
     2
  9
$DIMTXSTY
  7
SUNPOU
  9
$DIMAUNIT
 70
     0
  9
$DIMADEC
 70
     0
  9
$DIMALTRND
 40
0.0
  9
$DIMAZIN
 70
     0
  9
$DIMDSEP
 70
    46
  9
$DIMATFIT
 70
     3
  9
$DIMFRAC
 70
     0
  9
$DIMLDRBLK
  1

  9
$DIMLUNIT
 70
     2
  9
$DIMLWD
 70
    -2
  9
$DIMLWE
 70
    -2
  9
$DIMTMOVE
 70
     0
  9
$LUNITS
 70
     2
  9
$LUPREC
 70
     5
  9
$SKETCHINC
 40
0.1
  9
$FILLETRAD
 40
4.0
  9
$AUNITS
 70
     0
  9
$AUPREC
 70
     0
  9
$MENU
  1
acad
  9
$ELEVATION
 40
0.0
  9
$PELEVATION
 40
0.0
  9
$THICKNESS
 40
0.0
  9
$LIMCHECK
 70
     0
  9
$CHAMFERA
 40
0.0
  9
$CHAMFERB
 40
0.0
  9
$CHAMFERC
 40
0.0
  9
$CHAMFERD
 40
0.0
  9
$SKPOLY
 70
     0
  9
$TDCREATE
 40
2450623.654673033
  9
$TDUCREATE
 40
2450623.279673032
  9
$TDUPDATE
 40
2453858.468504687
  9
$TDUUPDATE
 40
2453858.093504687
  9
$TDINDWG
 40
0.0297765741
  9
$TDUSRTIMER
 40
0.0297764005
  9
$USRTIMER
 70
     1
  9
$ANGBASE
 50
0.0
  9
$ANGDIR
 70
     0
  9
$PDMODE
 70
     0
  9
$PDSIZE
 40
0.0
  9
$PLINEWID
 40
0.0
  9
$SPLFRAME
 70
     0
  9
$SPLINETYPE
 70
     6
  9
$SPLINESEGS
 70
     8
  9
$HANDSEED
  5
E1A
  9
$SURFTAB1
 70
     6
  9
$SURFTAB2
 70
     6
  9
$SURFTYPE
 70
     6
  9
$SURFU
 70
     6
  9
$SURFV
 70
     6
  9
$UCSBASE
  2

  9
$UCSNAME
  2

  9
$UCSORG
 10
0.0
 20
0.0
 30
0.0
  9
$UCSXDIR
 10
1.0
 20
0.0
 30
0.0
  9
$UCSYDIR
 10
0.0
 20
1.0
 30
0.0
  9
$UCSORTHOREF
  2

  9
$UCSORTHOVIEW
 70
     0
  9
$UCSORGTOP
 10
0.0
 20
0.0
 30
0.0
  9
$UCSORGBOTTOM
 10
0.0
 20
0.0
 30
0.0
  9
$UCSORGLEFT
 10
0.0
 20
0.0
 30
0.0
  9
$UCSORGRIGHT
 10
0.0
 20
0.0
 30
0.0
  9
$UCSORGFRONT
 10
0.0
 20
0.0
 30
0.0
  9
$UCSORGBACK
 10
0.0
 20
0.0
 30
0.0
  9
$PUCSBASE
  2

  9
$PUCSNAME
  2

  9
$PUCSORG
 10
0.0
 20
0.0
 30
0.0
  9
$PUCSXDIR
 10
1.0
 20
0.0
 30
0.0
  9
$PUCSYDIR
 10
0.0
 20
1.0
 30
0.0
  9
$PUCSORTHOREF
  2

  9
$PUCSORTHOVIEW
 70
     0
  9
$PUCSORGTOP
 10
0.0
 20
0.0
 30
0.0
  9
$PUCSORGBOTTOM
 10
0.0
 20
0.0
 30
0.0
  9
$PUCSORGLEFT
 10
0.0
 20
0.0
 30
0.0
  9
$PUCSORGRIGHT
 10
0.0
 20
0.0
 30
0.0
  9
$PUCSORGFRONT
 10
0.0
 20
0.0
 30
0.0
  9
$PUCSORGBACK
 10
0.0
 20
0.0
 30
0.0
  9
$USERI1
 70
     0
  9
$USERI2
 70
     0
  9
$USERI3
 70
     0
  9
$USERI4
 70
     0
  9
$USERI5
 70
     0
  9
$USERR1
 40
0.0
  9
$USERR2
 40
0.0
  9
$USERR3
 40
0.0
  9
$USERR4
 40
0.0
  9
$USERR5
 40
0.0
  9
$WORLDVIEW
 70
     1
  9
$SHADEDGE
 70
     3
  9
$SHADEDIF
 70
    70
  9
$TILEMODE
 70
     1
  9
$MAXACTVP
 70
    16
  9
$PINSBASE
 10
0.0
 20
0.0
 30
0.0
  9
$PLIMCHECK
 70
     0
  9
$PEXTMIN
 10
1.000000000000000E+20
 20
1.000000000000000E+20
 30
1.000000000000000E+20
  9
$PEXTMAX
 10
-1.000000000000000E+20
 20
-1.000000000000000E+20
 30
-1.000000000000000E+20
  9
$PLIMMIN
 10
0.0
 20
0.0
  9
$PLIMMAX
 10
12.0
 20
9.0
  9
$UNITMODE
 70
     0
  9
$VISRETAIN
 70
     0
  9
$PLINEGEN
 70
     0
  9
$PSLTSCALE
 70
     1
  9
$TREEDEPTH
 70
  3020
  9
$CMLSTYLE
  2
STANDARD
  9
$CMLJUST
 70
     0
  9
$CMLSCALE
 40
1.0
  9
$PROXYGRAPHICS
 70
     1
  9
$MEASUREMENT
 70
     0
  9
$CELWEIGHT
370
    -1
  9
$ENDCAPS
280
     0
  9
$JOINSTYLE
280
     0
  9
$LWDISPLAY
290
     0
  9
$INSUNITS
 70
     0
  9
$HYPERLINKBASE
  1

  9
$STYLESHEET
  1

  9
$XEDIT
290
     1
  9
$CEPSNTYPE
380
     0
  9
$PSTYLEMODE
290
     1
  9
$FINGERPRINTGUID
  2
{FB88A696-E29C-4009-92AF-A3599A8169D5}
  9
$VERSIONGUID
  2
{56B4EA37-2F6A-4372-A74B-9118CDA06315}
  9
$EXTNAMES
290
     1
  9
$PSVPSCALE
 40
0.0
  9
$OLESTARTUP
290
     0
  0
ENDSEC
  0
SECTION
  2
CLASSES
  0
CLASS
  1
DICTIONARYVAR
  2
AcDbDictionaryVar
  3
ObjectDBX Classes
 90
        0
280
     0
281
     0
  0
CLASS
  1
ACDBDICTIONARYWDFLT
  2
AcDbDictionaryWithDefault
  3
ObjectDBX Classes
 90
        0
280
     0
281
     0
  0
CLASS
  1
ACDBPLACEHOLDER
  2
AcDbPlaceHolder
  3
ObjectDBX Classes
 90
        0
280
     0
281
     0
  0
CLASS
  1
LAYOUT
  2
AcDbLayout
  3
ObjectDBX Classes
 90
        0
280
     0
281
     0
  0
CLASS
  1
TABLESTYLE
  2
AcDbTableStyle
  3
ObjectDBX Classes
 90
     2047
280
     0
281
     0
  0
CLASS
  1
SORTENTSTABLE
  2
AcDbSortentsTable
  3
ObjectDBX Classes
 90
        0
280
     0
281
     0
  0
ENDSEC
  0
SECTION
  2
TABLES
  0
TABLE
  2
VPORT
  5
12
330
0
100
AcDbSymbolTable
 70
     3
  0
VPORT
  5
E14
330
12
100
AcDbSymbolTableRecord
100
AcDbViewportTableRecord
  2
*Active
 70
     0
 10
0.0
 20
0.0
 11
1.0
 21
1.0
 12
65.90579132560396
 22
71.18000409751914
 13
0.0
 23
0.0
 14
1.0
 24
1.0
 15
0.0
 25
0.0
 16
0.0
 26
0.0
 36
1.0
 17
0.0
 27
0.0
 37
0.0
 40
143.4862752352515
 41
1.557544757033248
 42
50.0
 43
0.0
 44
0.0
 50
0.0
 51
0.0
 71
     0
 72
 20000
 73
     1
 74
     1
 75
     0
 76
     0
 77
     0
 78
     0
281
     0
 65
     1
110
0.0
120
0.0
130
0.0
111
1.0
121
0.0
131
0.0
112
0.0
122
1.0
132
0.0
 79
     0
146
0.0
  0
ENDTAB
  0
TABLE
  2
LTYPE
  5
D
330
0
100
AcDbSymbolTable
 70
     1
  0
LTYPE
  5
E
330
D
100
AcDbSymbolTableRecord
100
AcDbLinetypeTableRecord
  2
BYBLOCK
 70
     0
  3

 72
    65
 73
     0
 40
0.0
  0
LTYPE
  5
F
330
D
100
AcDbSymbolTableRecord
100
AcDbLinetypeTableRecord
  2
BYLAYER
 70
     0
  3

 72
    65
 73
     0
 40
0.0
  0
LTYPE
  5
5
330
D
100
AcDbSymbolTableRecord
100
AcDbLinetypeTableRecord
  2
CONTINUOUS
 70
     0
  3
Solid line
 72
    65
 73
     0
 40
0.0
  0
ENDTAB
  0
TABLE
  2
LAYER
  5
A
102
{ACAD_XDICTIONARY
360
1B4
102
}
330
0
100
AcDbSymbolTable
 70
     6
  0
LAYER
  5
4
330
A
100
AcDbSymbolTableRecord
100
AcDbLayerTableRecord
  2
0
 70
     0
 62
     7
  6
CONTINUOUS
370
    -3
390
57
  0
LAYER
  5
25
330
A
100
AcDbSymbolTableRecord
100
AcDbLayerTableRecord
  2
KIJUN
 70
     0
 62
     7
  6
CONTINUOUS
370
    -3
390
57
  0
LAYER
  5
22
330
A
100
AcDbSymbolTableRecord
100
AcDbLayerTableRecord
  2
HOJO
 70
     0
 62
     3
  6
CONTINUOUS
370
    -3
390
57
  0
LAYER
  5
1B
330
A
100
AcDbSymbolTableRecord
100
AcDbLayerTableRecord
  2
WAKU
 70
     0
 62
     1
  6
CONTINUOUS
370
    -3
390
57
  0
LAYER
  5
31
330
A
100
AcDbSymbolTableRecord
100
AcDbLayerTableRecord
  2
DEFPOINTS
 70
     0
 62
     7
  6
CONTINUOUS
290
     0
370
    -3
390
57
  0
LAYER
  5
28
330
A
100
AcDbSymbolTableRecord
100
AcDbLayerTableRecord
  2
SUNPOU
 70
     0
 62
    70
  6
CONTINUOUS
370
    -3
390
57
  0
ENDTAB
  0
TABLE
  2
STYLE
  5
B
330
0
100
AcDbSymbolTable
 70
     3
  0
STYLE
  5
C
330
B
100
AcDbSymbolTableRecord
100
AcDbTextStyleTableRecord
  2
STANDARD
 70
     0
 40
0.0
 41
1.0
 50
0.0
 71
     0
 42
0.2
  3
txt
  4

  0
STYLE
  5
1C
330
B
100
AcDbSymbolTableRecord
100
AcDbTextStyleTableRecord
  2
SUNPOU
 70
     0
 40
0.0
 41
1.0
 50
0.0
 71
     0
 42
30.0
  3
txt
  4
bigfont
  0
STYLE
  5
14A
330
B
100
AcDbSymbolTableRecord
100
AcDbTextStyleTableRecord
  2
LIFE
 70
     0
 40
0.0
 41
0.7
 50
0.0
 71
     0
 42
10.0
  3
romans
  4
extfont
  0
ENDTAB
  0
TABLE
  2
VIEW
  5
10
330
0
100
AcDbSymbolTable
 70
     0
  0
ENDTAB
  0
TABLE
  2
UCS
  5
11
330
0
100
AcDbSymbolTable
 70
     0
  0
ENDTAB
  0
TABLE
  2
APPID
  5
14
330
0
100
AcDbSymbolTable
 70
     9
  0
APPID
  5
15
330
14
100
AcDbSymbolTableRecord
100
AcDbRegAppTableRecord
  2
ACAD
 70
     0
  0
APPID
  5
1D3
330
14
100
AcDbSymbolTableRecord
100
AcDbRegAppTableRecord
  2
ACAD_DSTYLE_DIMTEXT_FILL
 70
     0
  0
APPID
  5
1D4
330
14
100
AcDbSymbolTableRecord
100
AcDbRegAppTableRecord
  2
ACAD_DSTYLE_DIMEXT_LENGTH
 70
     0
  0
APPID
  5
1D5
330
14
100
AcDbSymbolTableRecord
100
AcDbRegAppTableRecord
  2
ACAD_DSTYLE_DIMEXT_ENABLED
 70
     0
  0
APPID
  5
1D6
330
14
100
AcDbSymbolTableRecord
100
AcDbRegAppTableRecord
  2
ACAD_DSTYLE_DIM_LINETYPE
 70
     0
  0
APPID
  5
1D7
330
14
100
AcDbSymbolTableRecord
100
AcDbRegAppTableRecord
  2
ACAD_DSTYLE_DIM_EXT1_LINETYPE
 70
     0
  0
APPID
  5
1D8
330
14
100
AcDbSymbolTableRecord
100
AcDbRegAppTableRecord
  2
ACAD_DSTYLE_DIM_EXT2_LINETYPE
 70
     0
  0
APPID
  5
294
330
14
100
AcDbSymbolTableRecord
100
AcDbRegAppTableRecord
  2
ACAD_DSTYLE_DIMJOGGED_JOGANGLE_SYMBOL
 70
     0
  0
APPID
  5
478
330
14
100
AcDbSymbolTableRecord
100
AcDbRegAppTableRecord
  2
ACAD_DSTYLE_DIMARC_LENGTH_SYMBOL
 70
     0
  0
ENDTAB
  0
TABLE
  2
DIMSTYLE
  5
16
330
0
100
AcDbSymbolTable
 70
     1
100
AcDbDimStyleTable
 71
     1
340
1E
  0
DIMSTYLE
105
1E
102
{ACAD_REACTORS
330
CDD
102
}
330
16
100
AcDbSymbolTableRecord
100
AcDbDimStyleTableRecord
  2
STANDARD
 70
     0
340
C
  0
ENDTAB
  0
TABLE
  2
BLOCK_RECORD
  5
1
330
0
100
AcDbSymbolTable
 70
     5
  0
BLOCK_RECORD
  5
2
102
{ACAD_XDICTIONARY
360
D13
102
}
330
1
100
AcDbSymbolTableRecord
100
AcDbBlockTableRecord
  2
*MODEL_SPACE
340
5A
  0
BLOCK_RECORD
  5
7
330
1
100
AcDbSymbolTableRecord
100
AcDbBlockTableRecord
  2
*PAPER_SPACE
340
5B
  0
BLOCK_RECORD
  5
109
330
1
100
AcDbSymbolTableRecord
100
AcDbBlockTableRecord
  2
_Dot
340
0
102
{BLKREFS
331
993
331
994
331
CF6
331
CF7
102
}
  0
BLOCK_RECORD
  5
CDE
330
1
100
AcDbSymbolTableRecord
100
AcDbBlockTableRecord
  2
*D4
340
0
  0
ENDTAB
  0
ENDSEC
  0
SECTION
  2
BLOCKS
  0
BLOCK
  5
3
330
2
100
AcDbEntity
  8
0
100
AcDbBlockBegin
  2
*MODEL_SPACE
 70
     0
 10
0.0
 20
0.0
 30
0.0
  3
*MODEL_SPACE
  1

  0
ENDBLK
  5
6
330
2
100
AcDbEntity
  8
0
100
AcDbBlockEnd
  0
BLOCK
  5
8
330
7
100
AcDbEntity
 67
     1
  8
0
100
AcDbBlockBegin
  2
*PAPER_SPACE
 70
     0
 10
0.0
 20
0.0
 30
0.0
  3
*PAPER_SPACE
  1

  0
ENDBLK
  5
9
330
7
100
AcDbEntity
 67
     1
  8
0
100
AcDbBlockEnd
  0
BLOCK
  5
10C
330
109
100
AcDbEntity
  8
0
100
AcDbBlockBegin
  2
_Dot
 70
     0
 10
0.0
 20
0.0
 30
0.0
  3
_Dot
  1

  0
LWPOLYLINE
  5
10A
330
109
100
AcDbEntity
  8
0
  6
ByBlock
 62
     0
100
AcDbPolyline
 90
        2
 70
     1
 43
0.5
 10
-0.25
 20
0.0
 42
1.0
 10
0.25
 20
0.0
 42
1.0
  0
LINE
  5
10B
330
109
100
AcDbEntity
  8
0
  6
ByBlock
 62
     0
370
    -2
100
AcDbLine
 10
-0.5
 20
0.0
 30
0.0
 11
-1.0
 21
0.0
 31
0.0
  0
ENDBLK
  5
10D
330
109
100
AcDbEntity
  8
0
100
AcDbBlockEnd
  0
BLOCK
  5
CE8
330
CDE
100
AcDbEntity
  8
0
100
AcDbBlockBegin
  2
*D4
 70
     1
 10
0.0
 20
0.0
 30
0.0
  3
*D4
  1

  0
LINE
  5
CF3
330
CDE
100
AcDbEntity
  8
SUNPOU
 62
    70
370
    -2
100
AcDbLine
 10
30.13153620038668
 20
94.24654640442486
 30
0.0
 11
30.13153620038668
 21
134.3577586605915
 31
0.0
  0
LINE
  5
CF4
330
CDE
100
AcDbEntity
  8
SUNPOU
 62
    70
370
    -2
100
AcDbLine
 10
100.1315362003867
 20
94.24654640442486
 30
0.0
 11
100.1315362003867
 21
134.3577586605915
 31
0.0
  0
LINE
  5
CF5
330
CDE
100
AcDbEntity
  8
SUNPOU
 62
    60
370
    -2
100
AcDbLine
 10
32.13153620038668
 20
134.3577586605915
 30
0.0
 11
98.13153620038669
 21
134.3577586605915
 31
0.0
  0
INSERT
  5
CF6
330
CDE
100
AcDbEntity
  8
SUNPOU
 62
    60
370
    -2
100
AcDbBlockReference
  2
_Dot
 10
30.13153620038668
 20
134.3577586605915
 30
0.0
 41
2.0
 42
2.0
 43
2.0
 50
180.0
  0
INSERT
  5
CF7
330
CDE
100
AcDbEntity
  8
SUNPOU
 62
    60
370
    -2
100
AcDbBlockReference
  2
_Dot
 10
100.1315362003867
 20
134.3577586605915
 30
0.0
 41
2.0
 42
2.0
 43
2.0
  0
MTEXT
  5
CF8
330
CDE
100
AcDbEntity
  8
SUNPOU
 62
    60
100
AcDbMText
 10
65.13153620038668
 20
139.8577586605915
 30
0.0
 40
5.0
 41
0.0
 71
     5
 72
     1
  1
\A1;70φ
  7
SUNPOU
 73
     1
 44
1.0
1001
ACAD
1000
MTEXTBEGIN
1070
    73
1070
     1
1070
    44
1040
1.0
1070
    74
1070
     0
1000
MTEXTEND
  0
POINT
  5
CF9
330
CDE
100
AcDbEntity
  8
DEFPOINTS
 62
     0
100
AcDbPoint
 10
30.13153620038668
 20
84.24654640442486
 30
0.0
  0
POINT
  5
CFA
330
CDE
100
AcDbEntity
  8
DEFPOINTS
 62
     0
100
AcDbPoint
 10
100.1315362003867
 20
84.24654640442486
 30
0.0
  0
POINT
  5
CFB
330
CDE
100
AcDbEntity
  8
DEFPOINTS
 62
     0
100
AcDbPoint
 10
100.1315362003867
 20
134.3577586605915
 30
0.0
  0
ENDBLK
  5
CE9
330
CDE
100
AcDbEntity
  8
0
100
AcDbBlockEnd
  0
ENDSEC
  0
SECTION
  2
ENTITIES
  0
LINE
  5
1F
330
2
100
AcDbEntity
  8
WAKU
100
AcDbLine
 10
0.0
 20
14.0
 30
0.0
 11
131.828810471624
 21
14.0
 31
0.0
  0
LINE
  5
20
330
2
100
AcDbEntity
  8
WAKU
100
AcDbLine
 10
0.0
 20
0.0
 30
0.0
 11
131.828810471624
 21
0.0
 31
0.0
  0
TEXT
  5
21
330
2
100
AcDbEntity
  8
HOJO
100
AcDbText
 10
9.653966000000025
 20
2.366626000000024
 30
0.0
 40
9.0
  1
TWR203
  7
SUNPOU
100
AcDbText
  0
TEXT
  5
23
330
2
100
AcDbEntity
  8
HOJO
100
AcDbText
 10
85.84696046283864
 20
5.044386000000031
 30
0.0
 40
6.0
  1
70φ×7
  7
SUNPOU
100
AcDbText
  0
CIRCLE
  5
183
102
{ACAD_REACTORS
330
E0D
102
}
330
2
100
AcDbEntity
  8
KIJUN
100
AcDbCircle
 10
65.13153620038668
 20
84.24654640442486
 30
0.0
 40
30.625
  0
CIRCLE
  5
184
102
{ACAD_REACTORS
330
E0D
102
}
330
2
100
AcDbEntity
  8
KIJUN
100
AcDbCircle
 10
65.13153620038668
 20
84.24654640442486
 30
0.0
 40
35.0
  0
ARC
  5
187
102
{ACAD_REACTORS
330
E0D
102
}
330
2
100
AcDbEntity
  8
KIJUN
100
AcDbCircle
 10
98.59596789014052
 20
117.71097809418
 30
0.0
 40
40.58467746813867
100
AcDbArc
 50
214.4562671712911
 51
235.5437328286936
  0
ARC
  5
188
102
{ACAD_REACTORS
330
E0D
102
}
330
2
100
AcDbEntity
  8
KIJUN
100
AcDbCircle
 10
98.59596789014052
 20
117.71097809418
 30
0.0
 40
37.95967746813867
100
AcDbArc
 50
208.1666451550622
 51
241.833354844942
  0
ARC
  5
189
102
{ACAD_REACTORS
330
E0D
102
}
330
2
100
AcDbEntity
  8
KIJUN
100
AcDbCircle
 10
98.59596789014052
 20
50.78211471467193
 30
0.0
 40
40.58467746813867
100
AcDbArc
 50
124.4562671713064
 51
145.5437328287089
  0
ARC
  5
18A
102
{ACAD_REACTORS
330
E0D
102
}
330
2
100
AcDbEntity
  8
KIJUN
100
AcDbCircle
 10
98.59596789014052
 20
50.78211471467193
 30
0.0
 40
37.95967746813867
100
AcDbArc
 50
118.1666451550579
 51
151.8333548449378
  0
ARC
  5
18D
102
{ACAD_REACTORS
330
E0D
102
}
330
2
100
AcDbEntity
  8
KIJUN
100
AcDbCircle
 10
98.59596789014052
 20
117.71097809418
 30
0.0
 40
33.58467746813867
100
AcDbArc
 50
198.7471613262302
 51
250.8530216013472
  0
ARC
  5
18E
102
{ACAD_REACTORS
330
E0D
102
}
330
2
100
AcDbEntity
  8
KIJUN
100
AcDbCircle
 10
98.59596789014052
 20
50.78211471467193
 30
0.0
 40
33.58467746813867
100
AcDbArc
 50
109.3113235653013
 51
160.5471113474369
  0
ARC
  5
194
102
{ACAD_REACTORS
330
E0D
102
}
330
2
100
AcDbEntity
  8
KIJUN
100
AcDbCircle
 10
31.66710451063284
 20
50.78211471467193
 30
0.0
 40
33.58467746813867
100
AcDbArc
 50
84.8561719920714
 51
85.15011298099985
  0
ARC
  5
196
102
{ACAD_REACTORS
330
E0D
102
}
330
2
100
AcDbEntity
  8
KIJUN
100
AcDbCircle
 10
60.44580416996058
 20
86.0251160033049
 30
0.0
 40
1.75
100
AcDbArc
 50
139.2231528662982
 51
221.5097304995154
  0
ARC
  5
197
102
{ACAD_REACTORS
330
E0D
102
}
330
2
100
AcDbEntity
  8
KIJUN
100
AcDbCircle
 10
31.66710451063284
 20
117.71097809418
 30
0.0
 40
33.58467746813867
100
AcDbArc
 50
274.8498870190001
 51
275.1452253543166
  0
ARC
  5
19D
102
{ACAD_REACTORS
330
E0D
102
}
330
2
100
AcDbEntity
  8
KIJUN
100
AcDbCircle
 10
31.66710451063284
 20
117.71097809418
 30
0.0
 40
33.58467746813867
100
AcDbArc
 50
289.1469783986528
 51
340.6381890599633
  0
ARC
  5
19E
102
{ACAD_REACTORS
330
E0D
102
}
330
2
100
AcDbEntity
  8
KIJUN
100
AcDbCircle
 10
31.66710451063284
 20
117.71097809418
 30
0.0
 40
40.58467746813867
100
AcDbArc
 50
304.4562671713065
 51
325.5437328287089
  0
ARC
  5
19F
102
{ACAD_REACTORS
330
E0D
102
}
330
2
100
AcDbEntity
  8
KIJUN
100
AcDbCircle
 10
31.66710451063284
 20
117.71097809418
 30
0.0
 40
37.95967746813867
100
AcDbArc
 50
298.1666451550575
 51
331.8333548449378
  0
LINE
  5
1A0
102
{ACAD_REACTORS
330
E0D
102
}
330
2
100
AcDbEntity
  8
KIJUN
100
AcDbLine
 10
61.50745861667985
 20
89.93552807197602
 30
0.0
 11
59.12060085517317
 21
87.16806664724208
 31
0.0
  0
LINE
  5
1A1
102
{ACAD_REACTORS
330
E0D
102
}
330
2
100
AcDbEntity
  8
KIJUN
100
AcDbLine
 10
59.13532860894918
 20
84.86530834511814
 30
0.0
 11
65.3394527120987
 21
77.85522097653665
 31
0.0
  0
ARC
  5
1A2
102
{ACAD_REACTORS
330
E0D
102
}
330
2
100
AcDbEntity
  8
KIJUN
100
AcDbCircle
 10
31.66710451063284
 20
50.78211471467193
 30
0.0
 40
40.58467746813867
100
AcDbArc
 50
34.45626717129111
 51
55.54373282869354
  0
ARC
  5
1A3
102
{ACAD_REACTORS
330
E0D
102
}
330
2
100
AcDbEntity
  8
KIJUN
100
AcDbCircle
 10
31.66710451063284
 20
50.78211471467193
 30
0.0
 40
37.95967746813867
100
AcDbArc
 50
28.16664515506217
 51
61.83335484494204
  0
ARC
  5
1A4
102
{ACAD_REACTORS
330
E0D
102
}
330
2
100
AcDbEntity
  8
KIJUN
100
AcDbCircle
 10
31.66710451063284
 20
50.78211471467193
 30
0.0
 40
33.58467746813867
100
AcDbArc
 50
19.2397113398144
 51
70.68867643469869
  0
ARC
  5
1A6
102
{ACAD_REACTORS
330
E0D
102
}
330
2
100
AcDbEntity
  8
KIJUN
100
AcDbCircle
 10
66.64992827310976
 20
79.01502863472387
 30
0.0
 40
1.75
100
AcDbArc
 50
221.5097304995154
 51
315.9253459324468
  0
ARC
  5
1A7
102
{ACAD_REACTORS
330
E0D
102
}
330
2
100
AcDbEntity
  8
KIJUN
100
AcDbCircle
 10
69.64927832832518
 20
82.11285874386977
 30
0.0
 40
1.75
100
AcDbArc
 50
315.9253459324468
 51
45.58114978084
  0
ARC
  5
1A8
102
{ACAD_REACTORS
330
E0D
102
}
330
2
100
AcDbEntity
  8
KIJUN
100
AcDbCircle
 10
62.83266193146715
 20
88.79257742803792
 30
0.0
 40
1.75
100
AcDbArc
 50
45.58114978084
 51
139.2231528662982
  0
LINE
  5
1A9
102
{ACAD_REACTORS
330
E0D
102
}
330
2
100
AcDbEntity
  8
KIJUN
100
AcDbLine
 10
70.87410046358184
 20
83.36278303636982
 30
0.0
 11
64.05748406672365
 21
90.04250172053799
 31
0.0
  0
LINE
  5
1AA
102
{ACAD_REACTORS
330
E0D
102
}
330
2
100
AcDbEntity
  8
KIJUN
100
AcDbLine
 10
67.90718791033089
 20
77.79773729547696
 30
0.0
 11
70.90653796554625
 21
80.89556740462013
 31
0.0
  0
ARC
  5
1AB
102
{ACAD_REACTORS
330
E0D
102
}
330
2
100
AcDbEntity
  8
KIJUN
100
AcDbCircle
 10
31.66710451063284
 20
50.78211471467193
 30
0.0
 40
33.58467746813867
100
AcDbArc
 50
4.849887019000154
 51
5.256017247199655
  0
ARC
  5
1AC
102
{ACAD_REACTORS
330
E0D
102
}
330
2
100
AcDbEntity
  8
KIJUN
100
AcDbCircle
 10
98.59596789014052
 20
50.78211471467193
 30
0.0
 40
33.58467746813867
100
AcDbArc
 50
174.7446283785835
 51
175.1501129809998
  0
ARC
  5
1AD
102
{ACAD_REACTORS
330
E0D
102
}
330
2
100
AcDbEntity
  8
KIJUN
100
AcDbCircle
 10
98.59596789014052
 20
117.71097809418
 30
0.0
 40
33.58467746813867
100
AcDbArc
 50
264.8547746456834
 51
265.1501129809982
  0
ARC
  5
1AF
102
{ACAD_REACTORS
330
E0D
102
}
330
2
100
AcDbEntity
  8
KIJUN
100
AcDbCircle
 10
98.59596789014052
 20
50.78211471467193
 30
0.0
 40
33.58467746813867
100
AcDbArc
 50
94.84988701900013
 51
95.14382800792859
  0
DIMENSION
  5
CDD
330
2
100
AcDbEntity
  8
SUNPOU
100
AcDbDimension
  2
*D4
 10
100.1315362003867
 20
134.3577586605915
 30
0.0
 11
65.13153620038668
 21
139.8577586605915
 31
0.0
 70
    32
  1
70φ
 71
     5
 42
70.0
  3
STANDARD
100
AcDbAlignedDimension
 13
30.13153620038668
 23
84.24654640442486
 33
0.0
 14
100.1315362003867
 24
84.24654640442486
 34
0.0
100
AcDbRotatedDimension
1001
ACAD
1000
DSTYLE
1002
{
1070
    41
1040
2.0
1070
    42
1040
10.0
1070
    44
1040
0.0
1070
    73
1070
     0
1070
    74
1070
     0
1070
    77
1070
     1
1070
   140
1040
5.0
1070
   141
1040
0.0
1070
   146
1040
0.064286
1070
   147
1040
3.0
1070
   176
1070
    60
1070
   177
1070
    70
1070
   178
1070
    60
1070
   271
1070
     0
1070
   272
1070
     0
1070
   340
1005
1C
1070
   342
1005
109
1002
}
  0
ARC
  5
D0B
102
{ACAD_REACTORS
330
E0D
102
}
330
2
100
AcDbEntity
  8
KIJUN
100
AcDbCircle
 10
85.71329816670015
 20
90.74560958479537
 30
0.0
 40
4.375091506266253
100
AcDbArc
 50
129.8413380045871
 51
136.7721728499251
  0
ARC
  5
D0C
102
{ACAD_REACTORS
330
E0D
102
}
330
2
100
AcDbEntity
  8
KIJUN
100
AcDbCircle
 10
88.34051471411077
 20
87.59694843291356
 30
0.0
 40
8.475863852588089
100
AcDbArc
 50
115.6680266381802
 51
129.8413380047504
  0
ARC
  5
D0D
102
{ACAD_REACTORS
330
E0D
102
}
330
2
100
AcDbEntity
  8
KIJUN
100
AcDbCircle
 10
88.34051471408001
 20
87.5969484329498
 30
0.0
 40
8.475863852542101
100
AcDbArc
 50
101.4947152714528
 51
115.6680266380988
  0
ARC
  5
D0E
102
{ACAD_REACTORS
330
E0D
102
}
330
2
100
AcDbEntity
  8
KIJUN
100
AcDbCircle
 10
87.5233228505993
 20
91.61547195464882
 30
0.0
 40
4.375091506241052
100
AcDbArc
 50
94.56388044888424
 51
101.4947152715369
  0
ARC
  5
D0F
102
{ACAD_REACTORS
330
E0D
102
}
330
2
100
AcDbEntity
  8
KIJUN
100
AcDbCircle
 10
83.98734498490899
 20
98.97319592872845
 30
0.0
 40
4.375091506018434
100
AcDbArc
 50
309.8413380459681
 51
316.7721728705452
  0
ARC
  5
D10
102
{ACAD_REACTORS
330
E0D
102
}
330
2
100
AcDbEntity
  8
KIJUN
100
AcDbCircle
 10
81.36012843981287
 20
102.1218570827912
 30
0.0
 40
8.475863852532024
100
AcDbArc
 50
295.6680266379819
 51
309.8413380046521
  0
ARC
  5
D11
102
{ACAD_REACTORS
330
E0D
102
}
330
2
100
AcDbEntity
  8
KIJUN
100
AcDbCircle
 10
81.36012843977445
 20
102.1218570828112
 30
0.0
 40
8.47586385256676
100
AcDbArc
 50
281.4947152715219
 51
295.6680266381572
  0
ARC
  5
D12
102
{ACAD_REACTORS
330
E0D
102
}
330
2
100
AcDbEntity
  8
KIJUN
100
AcDbCircle
 10
82.17732029682485
 20
98.10333356018244
 30
0.0
 40
4.375091506635964
100
AcDbArc
 50
274.5638805152475
 51
281.4947153566194
  0
ARC
  5
D15
102
{ACAD_REACTORS
330
E0D
102
}
330
2
100
AcDbEntity
  8
KIJUN
100
AcDbCircle
 10
80.47981459541333
 20
75.73407000386234
 30
0.0
 40
3.012769458618418
100
AcDbArc
 50
154.3319733618924
 51
188.5233754348012
  0
ARC
  5
D16
102
{ACAD_REACTORS
330
E0D
102
}
330
2
100
AcDbEntity
  8
KIJUN
100
AcDbCircle
 10
83.24816784610097
 20
76.14895789425144
 30
0.0
 40
5.812039306665305
100
AcDbArc
 50
188.5233754348278
 51
212.961581445251
  0
ARC
  5
D17
102
{ACAD_REACTORS
330
E0D
102
}
330
2
100
AcDbEntity
  8
KIJUN
100
AcDbCircle
 10
85.71329816670326
 20
77.74748322403138
 30
0.0
 40
8.750091506252781
100
AcDbArc
 50
212.9615814452644
 51
230.1586619951994
  0
ARC
  5
D18
102
{ACAD_REACTORS
330
E0D
102
}
330
2
100
AcDbEntity
  8
KIJUN
100
AcDbCircle
 10
88.34051471408683
 20
80.89614437593645
 30
0.0
 40
12.85086385257513
100
AcDbArc
 50
230.158661995319
 51
244.331973361934
  0
ARC
  5
D19
102
{ACAD_REACTORS
330
E0D
102
}
330
2
100
AcDbEntity
  8
KIJUN
100
AcDbCircle
 10
88.34051471409942
 20
80.8961443759191
 30
0.0
 40
12.85086385256495
100
AcDbArc
 50
244.3319733618498
 51
258.5052847284778
  0
ARC
  5
D1A
102
{ACAD_REACTORS
330
E0D
102
}
330
2
100
AcDbEntity
  8
KIJUN
100
AcDbCircle
 10
87.52332285059607
 20
76.87762085418815
 30
0.0
 40
8.750091506228104
100
AcDbArc
 50
258.5052847285069
 51
275.7023652784905
  0
ARC
  5
D1B
102
{ACAD_REACTORS
330
E0D
102
}
330
2
100
AcDbEntity
  8
KIJUN
100
AcDbCircle
 10
87.81525014820699
 20
73.95410769698812
 30
0.0
 40
5.812039306655722
100
AcDbArc
 50
275.7023652785226
 51
300.1405712889813
  0
ARC
  5
D1C
102
{ACAD_REACTORS
330
E0D
102
}
330
2
100
AcDbEntity
  8
KIJUN
100
AcDbCircle
 10
89.22082855846381
 20
71.53331009809893
 30
0.0
 40
3.01276945861181
100
AcDbArc
 50
300.1405712889327
 51
334.3319733619021
  0
ARC
  5
D1D
102
{ACAD_REACTORS
330
E0D
102
}
330
2
100
AcDbEntity
  8
KIJUN
100
AcDbCircle
 10
89.22082855845886
 20
71.53331009810256
 30
0.0
 40
3.012769458617836
100
AcDbArc
 50
334.3319733618804
 51
8.523375434858174
  0
ARC
  5
D1E
102
{ACAD_REACTORS
330
E0D
102
}
330
2
100
AcDbEntity
  8
KIJUN
100
AcDbCircle
 10
86.45247530777998
 20
71.11842220771603
 30
0.0
 40
5.812039306655653
100
AcDbArc
 50
8.52337543484511
 51
32.96158144527884
  0
ARC
  5
D1F
102
{ACAD_REACTORS
330
E0D
102
}
330
2
100
AcDbEntity
  8
KIJUN
100
AcDbCircle
 10
83.98734498719051
 20
69.51989687794443
 30
0.0
 40
8.750091506227846
100
AcDbArc
 50
32.96158144528263
 51
50.15866199527103
  0
ARC
  5
D20
102
{ACAD_REACTORS
330
E0D
102
}
330
2
100
AcDbEntity
  8
KIJUN
100
AcDbCircle
 10
81.36012843979752
 20
66.37123572605905
 30
0.0
 40
12.85086385254112
100
AcDbArc
 50
50.15866199527918
 51
64.33197336192654
  0
ARC
  5
D21
102
{ACAD_REACTORS
330
E0D
102
}
330
2
100
AcDbEntity
  8
KIJUN
100
AcDbCircle
 10
81.36012843978186
 20
66.37123572604799
 30
0.0
 40
12.85086385255787
100
AcDbArc
 50
64.33197336188498
 51
78.50528472852602
  0
ARC
  5
D22
102
{ACAD_REACTORS
330
E0D
102
}
330
2
100
AcDbEntity
  8
KIJUN
100
AcDbCircle
 10
82.177320303271
 20
70.38975924777878
 30
0.0
 40
8.75009150622402
100
AcDbArc
 50
78.50528472848663
 51
95.70236527846692
  0
ARC
  5
D23
102
{ACAD_REACTORS
330
E0D
102
}
330
2
100
AcDbEntity
  8
KIJUN
100
AcDbCircle
 10
81.88539300566134
 20
73.31327240497859
 30
0.0
 40
5.812039306651986
100
AcDbArc
 50
95.70236527849917
 51
120.1405712889683
  0
ARC
  5
D24
102
{ACAD_REACTORS
330
E0D
102
}
330
2
100
AcDbEntity
  8
KIJUN
100
AcDbCircle
 10
80.47981459540441
 20
75.73407000386777
 30
0.0
 40
3.012769458608028
100
AcDbArc
 50
120.1405712889057
 51
154.3319733619119
  0
ARC
  5
D25
102
{ACAD_REACTORS
330
E0D
102
}
330
2
100
AcDbEntity
  8
KIJUN
100
AcDbCircle
 10
85.71329816670766
 20
77.74748322405571
 30
0.0
 40
4.375091506271418
100
AcDbArc
 50
223.2278271500032
 51
230.1586619953411
  0
ARC
  5
D26
102
{ACAD_REACTORS
330
E0D
102
}
330
2
100
AcDbEntity
  8
KIJUN
100
AcDbCircle
 10
88.34051471411077
 20
80.89614437593708
 30
0.0
 40
8.475863852588089
100
AcDbArc
 50
230.1586619952496
 51
244.3319733618198
  0
ARC
  5
D27
102
{ACAD_REACTORS
330
E0D
102
}
330
2
100
AcDbEntity
  8
KIJUN
100
AcDbCircle
 10
88.34051471408001
 20
80.89614437590084
 30
0.0
 40
8.475863852542101
100
AcDbArc
 50
244.3319733619012
 51
258.5052847285472
  0
ARC
  5
D28
102
{ACAD_REACTORS
330
E0D
102
}
330
2
100
AcDbEntity
  8
KIJUN
100
AcDbCircle
 10
87.52332285060305
 20
76.87762085420158
 30
0.0
 40
4.375091506241576
100
AcDbArc
 50
258.5052847284143
 51
265.436119551067
  0
ARC
  5
D29
102
{ACAD_REACTORS
330
E0D
102
}
330
2
100
AcDbEntity
  8
KIJUN
100
AcDbCircle
 10
83.98734498490522
 20
69.51989688012196
 30
0.0
 40
4.375091506021022
100
AcDbArc
 50
43.2278271294188
 51
50.15866195399589
  0
ARC
  5
D2A
102
{ACAD_REACTORS
330
E0D
102
}
330
2
100
AcDbEntity
  8
KIJUN
100
AcDbCircle
 10
81.36012843981287
 20
66.37123572605943
 30
0.0
 40
8.475863852532024
100
AcDbArc
 50
50.15866199534786
 51
64.33197336201806
  0
ARC
  5
D2B
102
{ACAD_REACTORS
330
E0D
102
}
330
2
100
AcDbEntity
  8
KIJUN
100
AcDbCircle
 10
81.36012843976898
 20
66.37123572604004
 30
0.0
 40
8.475863852568521
100
AcDbArc
 50
64.33197336180739
 51
78.50528472844266
  0
ARC
  5
D2C
102
{ACAD_REACTORS
330
E0D
102
}
330
2
100
AcDbEntity
  8
KIJUN
100
AcDbCircle
 10
82.17732029682862
 20
70.38975924866933
 30
0.0
 40
4.375091506635436
100
AcDbArc
 50
78.50528464342957
 51
85.4361194848014
  0
ARC
  5
D2D
102
{ACAD_REACTORS
330
E0D
102
}
330
2
100
AcDbEntity
  8
KIJUN
100
AcDbCircle
 10
80.47981459541185
 20
92.75902280499057
 30
0.0
 40
3.012769458616889
100
AcDbArc
 50
171.4766245652031
 51
205.668026638112
  0
ARC
  5
D2E
102
{ACAD_REACTORS
330
E0D
102
}
330
2
100
AcDbEntity
  8
KIJUN
100
AcDbCircle
 10
83.24816784610097
 20
92.34413491460101
 30
0.0
 40
5.812039306665305
100
AcDbArc
 50
147.0384185547489
 51
171.4766245651721
  0
ARC
  5
D2F
102
{ACAD_REACTORS
330
E0D
102
}
330
2
100
AcDbEntity
  8
KIJUN
100
AcDbCircle
 10
85.71329816670026
 20
90.74560958482061
 30
0.0
 40
8.7500915062505
100
AcDbArc
 50
129.8413380047873
 51
147.0384185547224
  0
ARC
  5
D30
102
{ACAD_REACTORS
330
E0D
102
}
330
2
100
AcDbEntity
  8
KIJUN
100
AcDbCircle
 10
88.34051471408683
 20
87.59694843291509
 30
0.0
 40
12.85086385257513
100
AcDbArc
 50
115.668026638066
 51
129.841338004681
  0
ARC
  5
D31
102
{ACAD_REACTORS
330
E0D
102
}
330
2
100
AcDbEntity
  8
KIJUN
100
AcDbCircle
 10
88.34051471409578
 20
87.59694843293198
 30
0.0
 40
12.85086385256378
100
AcDbArc
 50
101.4947152715065
 51
115.6680266381346
  0
ARC
  5
D32
102
{ACAD_REACTORS
330
E0D
102
}
330
2
100
AcDbEntity
  8
KIJUN
100
AcDbCircle
 10
87.52332285059607
 20
91.61547195466248
 30
0.0
 40
8.750091506228104
100
AcDbArc
 50
84.29763472150957
 51
101.4947152714931
  0
ARC
  5
D33
102
{ACAD_REACTORS
330
E0D
102
}
330
2
100
AcDbEntity
  8
KIJUN
100
AcDbCircle
 10
87.81525014821013
 20
94.5389851118632
 30
0.0
 40
5.81203930665473
100
AcDbArc
 50
59.85942871104897
 51
84.29763472150774
  0
ARC
  5
D34
102
{ACAD_REACTORS
330
E0D
102
}
330
2
100
AcDbEntity
  8
KIJUN
100
AcDbCircle
 10
89.22082855846158
 20
96.9597827107524
 30
0.0
 40
3.01276945861352
100
AcDbArc
 50
25.66802663806786
 51
59.85942871103707
  0
ARC
  5
D35
102
{ACAD_REACTORS
330
E0D
102
}
330
2
100
AcDbEntity
  8
KIJUN
100
AcDbCircle
 10
89.22082855846108
 20
96.95978271074876
 30
0.0
 40
3.012769458615542
100
AcDbArc
 50
351.4766245651484
 51
25.66802663812612
  0
ARC
  5
D36
102
{ACAD_REACTORS
330
E0D
102
}
330
2
100
AcDbEntity
  8
KIJUN
100
AcDbCircle
 10
86.45247530778105
 20
97.37467060113619
 30
0.0
 40
5.812039306654646
100
AcDbArc
 50
327.0384185547174
 51
351.4766245651511
  0
ARC
  5
D37
102
{ACAD_REACTORS
330
E0D
102
}
330
2
100
AcDbEntity
  8
KIJUN
100
AcDbCircle
 10
83.987344987189
 20
98.97319593090779
 30
0.0
 40
8.750091506228987
100
AcDbArc
 50
309.8413380047356
 51
327.038418554724
  0
ARC
  5
D38
102
{ACAD_REACTORS
330
E0D
102
}
330
2
100
AcDbEntity
  8
KIJUN
100
AcDbCircle
 10
81.36012843979752
 20
102.1218570827929
 30
0.0
 40
12.85086385254112
100
AcDbArc
 50
295.6680266380735
 51
309.8413380047208
  0
ARC
  5
D39
102
{ACAD_REACTORS
330
E0D
102
}
330
2
100
AcDbEntity
  8
KIJUN
100
AcDbCircle
 10
81.36012843977637
 20
102.1218570828033
 30
0.0
 40
12.85086385255963
100
AcDbArc
 50
281.4947152714974
 51
295.6680266381384
  0
ARC
  5
D3A
102
{ACAD_REACTORS
330
E0D
102
}
330
2
100
AcDbEntity
  8
KIJUN
100
AcDbCircle
 10
82.17732030327551
 20
98.10333356107253
 30
0.0
 40
8.750091506223791
100
AcDbArc
 50
264.2976347215033
 51
281.4947152714836
  0
ARC
  5
D3B
102
{ACAD_REACTORS
330
E0D
102
}
330
2
100
AcDbEntity
  8
KIJUN
100
AcDbCircle
 10
81.88539300566134
 20
95.17982040387341
 30
0.0
 40
5.812039306651986
100
AcDbArc
 50
239.8594287110316
 51
264.2976347215009
  0
ARC
  5
D3C
102
{ACAD_REACTORS
330
E0D
102
}
330
2
100
AcDbEntity
  8
KIJUN
100
AcDbCircle
 10
80.47981459540663
 20
92.7590228049849
 30
0.0
 40
3.012769458609731
100
AcDbArc
 50
205.6680266380581
 51
239.8594287110643
  0
ARC
  5
D3D
102
{ACAD_REACTORS
330
E0D
102
}
330
2
100
AcDbEntity
  8
KIJUN
100
AcDbCircle
 10
91.48364087280873
 20
80.17471704612317
 30
0.0
 40
2.672846203620878
100
AcDbArc
 50
236.8615287013787
 51
269.9999999999574
  0
ARC
  5
D3E
102
{ACAD_REACTORS
330
E0D
102
}
330
2
100
AcDbEntity
  8
KIJUN
100
AcDbCircle
 10
92.66883580292629
 20
81.99013670867328
 30
0.0
 40
4.840894997709697
100
AcDbArc
 50
212.3939296501091
 51
236.8615287017242
  0
ARC
  5
D3F
102
{ACAD_REACTORS
330
E0D
102
}
330
2
100
AcDbEntity
  8
KIJUN
100
AcDbCircle
 10
94.55438108131479
 20
83.18645992329336
 30
0.0
 40
7.073935577433251
100
AcDbArc
 50
194.7247245119572
 51
212.3939296500764
  0
ARC
  5
D40
102
{ACAD_REACTORS
330
E0D
102
}
330
2
100
AcDbEntity
  8
KIJUN
100
AcDbCircle
 10
97.54031752848261
 20
83.97118302680398
 30
0.0
 40
10.16126562388251
100
AcDbArc
 50
179.9999999999829
 51
194.7247245118966
  0
ARC
  5
D41
102
{ACAD_REACTORS
330
E0D
102
}
330
2
100
AcDbEntity
  8
KIJUN
100
AcDbCircle
 10
97.54031752846913
 20
83.97118302680414
 30
0.0
 40
10.16126562386903
100
AcDbArc
 50
165.2752754880569
 51
179.9999999999838
  0
ARC
  5
D42
102
{ACAD_REACTORS
330
E0D
102
}
330
2
100
AcDbEntity
  8
KIJUN
100
AcDbCircle
 10
94.55438108131025
 20
84.75590613032952
 30
0.0
 40
7.073935577424658
100
AcDbArc
 50
147.6060703499645
 51
165.2752754881101
  0
ARC
  5
D43
102
{ACAD_REACTORS
330
E0D
102
}
330
2
100
AcDbEntity
  8
KIJUN
100
AcDbCircle
 10
92.66883580295877
 20
85.95222934492392
 30
0.0
 40
4.840894997746122
100
AcDbArc
 50
123.1384712985031
 51
147.6060703499288
  0
ARC
  5
D44
102
{ACAD_REACTORS
330
E0D
102
}
330
2
100
AcDbEntity
  8
KIJUN
100
AcDbCircle
 10
91.48364087280496
 20
87.76764900747535
 30
0.0
 40
2.672846203636385
100
AcDbArc
 50
89.99999999996161
 51
123.1384712983977
  0
ARC
  5
D45
102
{ACAD_REACTORS
330
E0D
102
}
330
2
100
AcDbEntity
  8
KIJUN
100
AcDbCircle
 10
91.48364087280894
 20
87.76764900747135
 30
0.0
 40
2.672846203640389
100
AcDbArc
 50
56.86152870162783
 51
90.00000000004691
  0
ARC
  5
D46
102
{ACAD_REACTORS
330
E0D
102
}
330
2
100
AcDbEntity
  8
KIJUN
100
AcDbCircle
 10
90.29844594265085
 20
85.9522293449241
 30
0.0
 40
4.840894997748958
100
AcDbArc
 50
32.3939296500475
 51
56.86152870144164
  0
ARC
  5
D47
102
{ACAD_REACTORS
330
E0D
102
}
330
2
100
AcDbEntity
  8
KIJUN
100
AcDbCircle
 10
88.41290066430632
 20
84.75590613033105
 30
0.0
 40
7.073935577420898
100
AcDbArc
 50
14.72472451188498
 51
32.39392965004011
  0
ARC
  5
D48
102
{ACAD_REACTORS
330
E0D
102
}
330
2
100
AcDbEntity
  8
KIJUN
100
AcDbCircle
 10
85.42696421714987
 20
83.97118302680537
 30
0.0
 40
10.16126562386301
100
AcDbArc
 50
0.0000000000092951
 51
14.72472451194482
  0
ARC
  5
D49
102
{ACAD_REACTORS
330
E0D
102
}
330
2
100
AcDbEntity
  8
KIJUN
100
AcDbCircle
 10
85.42696421713865
 20
83.97118302680874
 30
0.0
 40
10.16126562387424
100
AcDbArc
 50
345.2752754880634
 51
359.9999999999902
  0
ARC
  5
D4A
102
{ACAD_REACTORS
330
E0D
102
}
330
2
100
AcDbEntity
  8
KIJUN
100
AcDbCircle
 10
88.41290066430721
 20
83.18645992328383
 30
0.0
 40
7.073935577420613
100
AcDbArc
 50
327.6060703499502
 51
345.2752754880958
  0
ARC
  5
D4B
102
{ACAD_REACTORS
330
E0D
102
}
330
2
100
AcDbEntity
  8
KIJUN
100
AcDbCircle
 10
90.29844594268318
 20
81.99013670867344
 30
0.0
 40
4.840894997712828
100
AcDbArc
 50
303.1384712983292
 51
327.6060703499123
  0
ARC
  5
D4C
102
{ACAD_REACTORS
330
E0D
102
}
330
2
100
AcDbEntity
  8
KIJUN
100
AcDbCircle
 10
91.48364087280603
 20
80.17471704612381
 30
0.0
 40
2.672846203621533
100
AcDbArc
 50
270.0000000000152
 51
303.1384712986172
  0
ARC
  5
D4D
102
{ACAD_REACTORS
330
E0D
102
}
330
2
100
AcDbEntity
  8
KIJUN
100
AcDbCircle
 10
61.55791604065538
 20
57.88219651090024
 30
0.0
 40
2.672846203621062
100
AcDbArc
 50
148.0970283737595
 51
181.2354996723382
  0
ARC
  5
D4E
102
{ACAD_REACTORS
330
E0D
102
}
330
2
100
AcDbEntity
  8
KIJUN
100
AcDbCircle
 10
63.39846866145737
 20
56.73642095539516
 30
0.0
 40
4.840894997706196
100
AcDbArc
 50
123.6294293224049
 51
148.09702837402
  0
ARC
  5
D4F
102
{ACAD_REACTORS
330
E0D
102
}
330
2
100
AcDbEntity
  8
KIJUN
100
AcDbCircle
 10
64.63516962484948
 20
54.87710899719946
 30
0.0
 40
7.073935577441488
100
AcDbArc
 50
105.9602241844303
 51
123.6294293225495
  0
ARC
  5
D50
102
{ACAD_REACTORS
330
E0D
102
}
330
2
100
AcDbEntity
  8
KIJUN
100
AcDbCircle
 10
65.48409265460583
 20
51.90878682715601
 30
0.0
 40
10.16126562387677
100
AcDbArc
 50
91.23549967237281
 51
105.9602241842865
  0
ARC
  5
D51
102
{ACAD_REACTORS
330
E0D
102
}
330
2
100
AcDbEntity
  8
KIJUN
100
AcDbCircle
 10
65.48409265460408
 20
51.90878682716209
 30
0.0
 40
10.16126562387066
100
AcDbArc
 50
76.51077516043685
 51
91.23549967236373
  0
ARC
  5
D52
102
{ACAD_REACTORS
330
E0D
102
}
330
2
100
AcDbEntity
  8
KIJUN
100
AcDbCircle
 10
66.20425096064195
 20
54.9109491861814
 30
0.0
 40
7.073935577427991
100
AcDbArc
 50
58.84157002231797
 51
76.51077516046361
  0
ARC
  5
D53
102
{ACAD_REACTORS
330
E0D
102
}
330
2
100
AcDbEntity
  8
KIJUN
100
AcDbCircle
 10
67.35964017434259
 20
56.82185106628984
 30
0.0
 40
4.840894997739004
100
AcDbArc
 50
34.37397097090808
 51
58.84157002233369
  0
ARC
  5
D54
102
{ACAD_REACTORS
330
E0D
102
}
330
2
100
AcDbEntity
  8
KIJUN
100
AcDbCircle
 10
69.14908276636423
 20
58.04591429320048
 30
0.0
 40
2.672846203634958
100
AcDbArc
 50
1.23549967237527
 51
34.37397097081138
  0
ARC
  5
D55
102
{ACAD_REACTORS
330
E0D
102
}
330
2
100
AcDbEntity
  8
KIJUN
100
AcDbCircle
 10
69.14908276635658
 20
58.04591429319676
 30
0.0
 40
2.672846203642682
100
AcDbArc
 50
328.0970283740323
 51
1.235499672451378
  0
ARC
  5
D56
102
{ACAD_REACTORS
330
E0D
102
}
330
2
100
AcDbEntity
  8
KIJUN
100
AcDbCircle
 10
67.30853014555555
 20
59.19168984873791
 30
0.0
 40
4.840894997746079
100
AcDbArc
 50
303.6294293224082
 51
328.0970283738024
  0
ARC
  5
D57
102
{ACAD_REACTORS
330
E0D
102
}
330
2
100
AcDbEntity
  8
KIJUN
100
AcDbCircle
 10
66.07182918219177
 20
61.05100180688779
 30
0.0
 40
7.073935577427534
100
AcDbArc
 50
285.9602241844111
 51
303.6294293225662
  0
ARC
  5
D58
102
{ACAD_REACTORS
330
E0D
102
}
330
2
100
AcDbEntity
  8
KIJUN
100
AcDbCircle
 10
65.22290615243507
 20
64.01932397692951
 30
0.0
 40
10.16126562386125
100
AcDbArc
 50
271.2354996723421
 51
285.9602241842776
  0
ARC
  5
D59
102
{ACAD_REACTORS
330
E0D
102
}
330
2
100
AcDbEntity
  8
KIJUN
100
AcDbCircle
 10
65.2229061524364
 20
64.01932397693887
 30
0.0
 40
10.16126562387057
100
AcDbArc
 50
256.5107751604066
 51
271.2354996723334
  0
ARC
  5
D5A
102
{ACAD_REACTORS
330
E0D
102
}
330
2
100
AcDbEntity
  8
KIJUN
100
AcDbCircle
 10
64.50274784638996
 20
61.01716161791365
 30
0.0
 40
7.073935577420164
100
AcDbArc
 50
238.8415700223308
 51
256.5107751604764
  0
ARC
  5
D5B
102
{ACAD_REACTORS
330
E0D
102
}
330
2
100
AcDbEntity
  8
KIJUN
100
AcDbCircle
 10
63.34735863268146
 20
59.10625973779062
 30
0.0
 40
4.840894997714614
100
AcDbArc
 50
214.3739709707599
 51
238.841570022343
  0
ARC
  5
D5C
102
{ACAD_REACTORS
330
E0D
102
}
330
2
100
AcDbEntity
  8
KIJUN
100
AcDbCircle
 10
61.55791604065509
 20
57.88219651090514
 30
0.0
 40
2.67284620362087
100
AcDbArc
 50
181.2354996724435
 51
214.3739709710454
  0
ARC
  5
D5D
102
{ACAD_REACTORS
330
E0D
102
}
330
2
100
AcDbEntity
  8
KIJUN
100
AcDbCircle
 10
56.21802429665916
 20
99.36544880186898
 30
0.0
 40
3.01276945861688
100
AcDbArc
 50
262.9848911170892
 51
297.176293189998
  0
ARC
  5
D5E
102
{ACAD_REACTORS
330
E0D
102
}
330
2
100
AcDbEntity
  8
KIJUN
100
AcDbCircle
 10
56.55990212777087
 20
102.1437632604556
 30
0.0
 40
5.812039306666032
100
AcDbArc
 50
238.5466851066541
 51
262.9848911170773
  0
ARC
  5
D5F
102
{ACAD_REACTORS
330
E0D
102
}
330
2
100
AcDbEntity
  8
KIJUN
100
AcDbCircle
 10
58.09298849710524
 20
104.6501145749476
 30
0.0
 40
8.750091506252498
100
AcDbArc
 50
221.349604556645
 51
238.5466851065801
  0
ARC
  5
D60
102
{ACAD_REACTORS
330
E0D
102
}
330
2
100
AcDbEntity
  8
KIJUN
100
AcDbCircle
 10
61.17140732479364
 20
107.3592973590594
 30
0.0
 40
12.85086385257875
100
AcDbArc
 50
207.1762931899984
 51
221.3496045566134
  0
ARC
  5
D61
102
{ACAD_REACTORS
330
E0D
102
}
330
2
100
AcDbEntity
  8
KIJUN
100
AcDbCircle
 10
61.1714073247723
 20
107.3592973590585
 30
0.0
 40
12.85086385255936
100
AcDbArc
 50
193.0029818234103
 51
207.1762931900384
  0
ARC
  5
D62
102
{ACAD_REACTORS
330
E0D
102
}
330
2
100
AcDbEntity
  8
KIJUN
100
AcDbCircle
 10
57.17578552135243
 20
106.4366163521838
 30
0.0
 40
8.750091506230978
100
AcDbArc
 50
175.8059012734092
 51
193.0029818233928
  0
ARC
  5
D63
102
{ACAD_REACTORS
330
E0D
102
}
330
2
100
AcDbEntity
  8
KIJUN
100
AcDbCircle
 10
54.24560138082947
 20
106.651492200334
 30
0.0
 40
5.812039306645237
100
AcDbArc
 50
151.3676952629391
 51
175.8059012733979
  0
ARC
  5
D64
102
{ACAD_REACTORS
330
E0D
102
}
330
2
100
AcDbEntity
  8
KIJUN
100
AcDbCircle
 10
51.78864601849443
 20
107.9928653883681
 30
0.0
 40
3.01276945861636
100
AcDbArc
 50
117.1762931900664
 51
151.3676952630357
  0
ARC
  5
D65
102
{ACAD_REACTORS
330
E0D
102
}
330
2
100
AcDbEntity
  8
KIJUN
100
AcDbCircle
 10
51.78864601848685
 20
107.9928653883678
 30
0.0
 40
3.012769458613137
100
AcDbArc
 50
82.98489111695797
 51
117.1762931899357
  0
ARC
  5
D66
102
{ACAD_REACTORS
330
E0D
102
}
330
2
100
AcDbEntity
  8
KIJUN
100
AcDbCircle
 10
51.44676818738883
 20
105.2145509297847
 30
0.0
 40
5.812039306657158
100
AcDbArc
 50
58.54668510670524
 51
82.98489111713896
  0
ARC
  5
D67
102
{ACAD_REACTORS
330
E0D
102
}
330
2
100
AcDbEntity
  8
KIJUN
100
AcDbCircle
 10
49.91368181806141
 20
102.7081996153086
 30
0.0
 40
8.750091506226373
100
AcDbArc
 50
41.3496045566099
 51
58.54668510659831
  0
ARC
  5
D68
102
{ACAD_REACTORS
330
E0D
102
}
330
2
100
AcDbEntity
  8
KIJUN
100
AcDbCircle
 10
46.83526299038135
 20
99.99901683119142
 30
0.0
 40
12.85086385254993
100
AcDbArc
 50
27.17629318998478
 51
41.34960455663215
  0
ARC
  5
D69
102
{ACAD_REACTORS
330
E0D
102
}
330
2
100
AcDbEntity
  8
KIJUN
100
AcDbCircle
 10
46.83526299038583
 20
99.99901683118048
 30
0.0
 40
12.85086385255094
100
AcDbArc
 50
13.00298182339626
 51
27.17629319003732
  0
ARC
  5
D6A
102
{ACAD_REACTORS
330
E0D
102
}
330
2
100
AcDbEntity
  8
KIJUN
100
AcDbCircle
 10
50.83088479379957
 20
100.9216978380504
 30
0.0
 40
8.750091506229617
100
AcDbArc
 50
355.8059012734136
 51
13.0029818233939
  0
ARC
  5
D6B
102
{ACAD_REACTORS
330
E0D
102
}
330
2
100
AcDbEntity
  8
KIJUN
100
AcDbCircle
 10
53.76106893432473
 20
100.7068219899002
 30
0.0
 40
5.81203930664169
100
AcDbArc
 50
331.3676952629334
 51
355.8059012734026
  0
ARC
  5
D6C
102
{ACAD_REACTORS
330
E0D
102
}
330
2
100
AcDbEntity
  8
KIJUN
100
AcDbCircle
 10
56.21802429665785
 20
99.36544880186502
 30
0.0
 40
3.012769458613952
100
AcDbArc
 50
297.1762931900547
 51
331.3676952630609
  0
ARC
  5
D6D
102
{ACAD_REACTORS
330
E0D
102
}
330
2
100
AcDbEntity
  8
KIJUN
100
AcDbCircle
 10
44.54977423407291
 20
90.74560958479537
 30
0.0
 40
4.375091506266253
100
AcDbArc
 50
43.22782715007491
 51
50.15866199541284
  0
ARC
  5
D6E
102
{ACAD_REACTORS
330
E0D
102
}
330
2
100
AcDbEntity
  8
KIJUN
100
AcDbCircle
 10
41.92255768666234
 20
87.59694843291402
 30
0.0
 40
8.475863852587705
100
AcDbArc
 50
50.15866199524793
 51
64.33197336181812
  0
ARC
  5
D6F
102
{ACAD_REACTORS
330
E0D
102
}
330
2
100
AcDbEntity
  8
KIJUN
100
AcDbCircle
 10
41.9225576866931
 20
87.59694843294935
 30
0.0
 40
8.475863852542538
100
AcDbArc
 50
64.3319733619021
 51
78.50528472854815
  0
ARC
  5
D70
102
{ACAD_REACTORS
330
E0D
102
}
330
2
100
AcDbEntity
  8
KIJUN
100
AcDbCircle
 10
42.73974955017379
 20
91.6154719546493
 30
0.0
 40
4.375091506240587
100
AcDbArc
 50
78.50528472846221
 51
85.4361195511149
  0
ARC
  5
D71
102
{ACAD_REACTORS
330
E0D
102
}
330
2
100
AcDbEntity
  8
KIJUN
100
AcDbCircle
 10
46.27572741586415
 20
98.97319592872845
 30
0.0
 40
4.375091506018439
100
AcDbArc
 50
223.2278271294547
 51
230.1586619540318
  0
ARC
  5
D72
102
{ACAD_REACTORS
330
E0D
102
}
330
2
100
AcDbEntity
  8
KIJUN
100
AcDbCircle
 10
48.90294396096027
 20
102.1218570827912
 30
0.0
 40
8.475863852532027
100
AcDbArc
 50
230.1586619953478
 51
244.331973362018
  0
ARC
  5
D73
102
{ACAD_REACTORS
330
E0D
102
}
330
2
100
AcDbEntity
  8
KIJUN
100
AcDbCircle
 10
48.90294396099875
 20
102.1218570828119
 30
0.0
 40
8.475863852567412
100
AcDbArc
 50
244.3319733618443
 51
258.5052847284796
  0
ARC
  5
D74
102
{ACAD_REACTORS
330
E0D
102
}
330
2
100
AcDbEntity
  8
KIJUN
100
AcDbCircle
 10
48.08575210394833
 20
98.10333356018055
 30
0.0
 40
4.375091506634102
100
AcDbArc
 50
258.5052846433773
 51
265.4361194847492
  0
ARC
  5
D75
102
{ACAD_REACTORS
330
E0D
102
}
330
2
100
AcDbEntity
  8
KIJUN
100
AcDbCircle
 10
58.0929884970706
 20
104.6501145749223
 30
0.0
 40
4.375091506211451
100
AcDbArc
 50
221.3496045567229
 51
228.2804393643885
  0
ARC
  5
D76
102
{ACAD_REACTORS
330
E0D
102
}
330
2
100
AcDbEntity
  8
KIJUN
100
AcDbCircle
 10
61.17140732478486
 20
107.3592973590565
 30
0.0
 40
8.475863852571908
100
AcDbArc
 50
207.1762931900128
 51
221.3496045566354
  0
ARC
  5
D77
102
{ACAD_REACTORS
330
E0D
102
}
330
2
100
AcDbEntity
  8
KIJUN
100
AcDbCircle
 10
61.17140732476923
 20
107.3592973590455
 30
0.0
 40
8.47586385255299
100
AcDbArc
 50
193.0029818233603
 51
207.1762931899951
  0
ARC
  5
D78
102
{ACAD_REACTORS
330
E0D
102
}
330
2
100
AcDbEntity
  8
KIJUN
100
AcDbCircle
 10
57.17578552136532
 20
106.4366163521871
 30
0.0
 40
4.375091506243813
100
AcDbArc
 50
186.0721469965781
 51
193.0029818234395
  0
ARC
  5
D79
102
{ACAD_REACTORS
330
E0D
102
}
330
2
100
AcDbEntity
  8
KIJUN
100
AcDbCircle
 10
49.91368181902736
 20
102.7081996143654
 30
0.0
 40
4.375091506124397
100
AcDbArc
 50
41.34960457424317
 51
48.28043940191929
  0
ARC
  5
D7A
102
{ACAD_REACTORS
330
E0D
102
}
330
2
100
AcDbEntity
  8
KIJUN
100
AcDbCircle
 10
46.83526299037214
 20
99.99901683117393
 30
0.0
 40
8.475863852568421
100
AcDbArc
 50
27.17629319005933
 51
41.34960455669284
  0
ARC
  5
D7B
102
{ACAD_REACTORS
330
E0D
102
}
330
2
100
AcDbEntity
  8
KIJUN
100
AcDbCircle
 10
46.8352629903726
 20
99.99901683118935
 30
0.0
 40
8.475863852560975
100
AcDbArc
 50
13.00298182333276
 51
27.17629318996812
  0
ARC
  5
D7C
102
{ACAD_REACTORS
330
E0D
102
}
330
2
100
AcDbEntity
  8
KIJUN
100
AcDbCircle
 10
50.83088479221379
 20
100.921697847408
 30
0.0
 40
4.375091505668385
100
AcDbArc
 50
6.072146885895469
 51
13.00298169934437
  0
ARC
  5
D7D
102
{ACAD_REACTORS
330
E0D
102
}
330
2
100
AcDbEntity
  8
KIJUN
100
AcDbCircle
 10
45.07187153885618
 20
77.39414794166292
 30
0.0
 40
4.375091506256537
100
AcDbArc
 50
310.6462578067462
 51
317.5770926305162
  0
ARC
  5
D7E
102
{ACAD_REACTORS
330
E0D
102
}
330
2
100
AcDbEntity
  8
KIJUN
100
AcDbCircle
 10
42.40068172784541
 20
80.50559114853951
 30
0.0
 40
8.47586385254282
100
AcDbArc
 50
296.4729464400778
 51
310.6462578067154
  0
ARC
  5
D7F
102
{ACAD_REACTORS
330
E0D
102
}
330
2
100
AcDbEntity
  8
KIJUN
100
AcDbCircle
 10
42.40068172784342
 20
80.50559114853941
 30
0.0
 40
8.475863852543605
100
AcDbArc
 50
282.2996350734414
 51
296.4729464400902
  0
ARC
  5
D80
102
{ACAD_REACTORS
330
E0D
102
}
330
2
100
AcDbEntity
  8
KIJUN
100
AcDbCircle
 10
43.27424532580897
 20
76.49894411186379
 30
0.0
 40
4.375091506241993
100
AcDbArc
 50
275.3688002460095
 51
282.2996350733682
  0
ARC
  5
D81
102
{ACAD_REACTORS
330
E0D
102
}
330
2
100
AcDbEntity
  8
KIJUN
100
AcDbCircle
 10
46.91323585568423
 20
69.19161973975358
 30
0.0
 40
4.375091506165662
100
AcDbArc
 50
130.6462578215848
 51
137.5770926496188
  0
ARC
  5
D82
102
{ACAD_REACTORS
330
E0D
102
}
330
2
100
AcDbEntity
  8
KIJUN
100
AcDbCircle
 10
49.58442566590872
 20
66.08017653206701
 30
0.0
 40
8.475863852554327
100
AcDbArc
 50
116.4729464401204
 51
130.6462578067755
  0
ARC
  5
D83
102
{ACAD_REACTORS
330
E0D
102
}
330
2
100
AcDbEntity
  8
KIJUN
100
AcDbCircle
 10
49.58442566588409
 20
66.08017653207084
 30
0.0
 40
8.475863852539923
100
AcDbArc
 50
102.2996350733371
 51
116.4729464399828
  0
ARC
  5
D84
102
{ACAD_REACTORS
330
E0D
102
}
330
2
100
AcDbEntity
  8
KIJUN
100
AcDbCircle
 10
48.7108620653275
 20
70.08682356834618
 30
0.0
 40
4.375091506077447
100
AcDbArc
 50
95.36880021349885
 51
102.2996350388964
  0
ARC
  5
D85
102
{ACAD_REACTORS
330
E0D
102
}
330
2
100
AcDbEntity
  8
KIJUN
100
AcDbCircle
 10
58.80908040059839
 20
63.68127062565718
 30
0.0
 40
4.37509150624833
100
AcDbArc
 50
132.5244804073324
 51
139.4553152450587
  0
ARC
  5
D86
102
{ACAD_REACTORS
330
E0D
102
}
330
2
100
AcDbEntity
  8
KIJUN
100
AcDbCircle
 10
61.92525415884553
 20
61.01560092653794
 30
0.0
 40
8.475863852574137
100
AcDbArc
 50
139.4553152454245
 51
153.6286266120267
  0
ARC
  5
D87
102
{ACAD_REACTORS
330
E0D
102
}
330
2
100
AcDbEntity
  8
KIJUN
100
AcDbCircle
 10
61.92525415881997
 20
61.01560092654298
 30
0.0
 40
8.475863852549004
100
AcDbArc
 50
153.6286266119805
 51
167.8019379786207
  0
ARC
  5
D88
102
{ACAD_REACTORS
330
E0D
102
}
330
2
100
AcDbEntity
  8
KIJUN
100
AcDbCircle
 10
57.91706477919746
 20
61.88206023499065
 30
0.0
 40
4.375091506256866
100
AcDbArc
 50
167.801937978506
 51
174.7327728022344
  0
ARC
  5
D89
102
{ACAD_REACTORS
330
E0D
102
}
330
2
100
AcDbEntity
  8
KIJUN
100
AcDbCircle
 10
50.60330074922291
 20
65.50809074542832
 30
0.0
 40
4.375091506092558
100
AcDbArc
 50
312.5244803850438
 51
319.4553152104122
  0
ARC
  5
D8A
102
{ACAD_REACTORS
330
E0D
102
}
330
2
100
AcDbEntity
  8
KIJUN
100
AcDbCircle
 10
47.48712698917468
 20
68.17376044261886
 30
0.0
 40
8.475863852533292
100
AcDbArc
 50
319.4553152453624
 51
333.6286266120168
  0
ARC
  5
D8B
102
{ACAD_REACTORS
330
E0D
102
}
330
2
100
AcDbEntity
  8
KIJUN
100
AcDbCircle
 10
47.48712698917403
 20
68.17376044263537
 30
0.0
 40
8.475863852541204
100
AcDbArc
 50
333.6286266119188
 51
347.8019379785767
  0
ARC
  5
D8C
102
{ACAD_REACTORS
330
E0D
102
}
330
2
100
AcDbEntity
  8
KIJUN
100
AcDbCircle
 10
51.49531636925762
 20
67.30730113741005
 30
0.0
 40
4.375091506479255
100
AcDbArc
 50
347.8019379358981
 51
354.732772771587
  0
ARC
  5
D8D
102
{ACAD_REACTORS
330
E0D
102
}
330
2
100
AcDbEntity
  8
KIJUN
100
AcDbCircle
 10
38.77943152796456
 20
80.17471704612258
 30
0.0
 40
2.672846203620295
100
AcDbArc
 50
270.0000000000463
 51
303.1384712986251
  0
ARC
  5
D8E
102
{ACAD_REACTORS
330
E0D
102
}
330
2
100
AcDbEntity
  8
KIJUN
100
AcDbCircle
 10
37.59423659784686
 20
81.99013670867342
 30
0.0
 40
4.840894997709789
100
AcDbArc
 50
303.1384712982748
 51
327.6060703498898
  0
ARC
  5
D8F
102
{ACAD_REACTORS
330
E0D
102
}
330
2
100
AcDbEntity
  8
KIJUN
100
AcDbCircle
 10
35.7086913194584
 20
83.18645992329356
 30
0.0
 40
7.073935577433332
100
AcDbArc
 50
327.6060703499222
 51
345.2752754880413
  0
ARC
  5
D90
102
{ACAD_REACTORS
330
E0D
102
}
330
2
100
AcDbEntity
  8
KIJUN
100
AcDbCircle
 10
32.72275487229058
 20
83.97118302680354
 30
0.0
 40
10.16126562388246
100
AcDbArc
 50
345.2752754881059
 51
0.0000000000195517
  0
ARC
  5
D91
102
{ACAD_REACTORS
330
E0D
102
}
330
2
100
AcDbEntity
  8
KIJUN
100
AcDbCircle
 10
32.72275487230401
 20
83.97118302680414
 30
0.0
 40
10.16126562386903
100
AcDbArc
 50
0.0000000000161863
 51
14.72472451194303
  0
ARC
  5
D92
102
{ACAD_REACTORS
330
E0D
102
}
330
2
100
AcDbEntity
  8
KIJUN
100
AcDbCircle
 10
35.70869131946289
 20
84.7559061303297
 30
0.0
 40
7.073935577424591
100
AcDbArc
 50
14.72472451188843
 51
32.39392965003408
  0
ARC
  5
D93
102
{ACAD_REACTORS
330
E0D
102
}
330
2
100
AcDbEntity
  8
KIJUN
100
AcDbCircle
 10
37.59423659781451
 20
85.95222934492431
 30
0.0
 40
4.840894997745838
100
AcDbArc
 50
32.39392965006794
 51
56.86152870149356
  0
ARC
  5
D94
102
{ACAD_REACTORS
330
E0D
102
}
330
2
100
AcDbEntity
  8
KIJUN
100
AcDbCircle
 10
38.77943152796846
 20
87.76764900747554
 30
0.0
 40
2.672846203636195
100
AcDbArc
 50
56.86152870160128
 51
90.00000000003732
  0
ARC
  5
D95
102
{ACAD_REACTORS
330
E0D
102
}
330
2
100
AcDbEntity
  8
KIJUN
100
AcDbCircle
 10
38.77943152796439
 20
87.76764900747087
 30
0.0
 40
2.672846203640872
100
AcDbArc
 50
89.99999999994988
 51
123.1384712983689
  0
ARC
  5
D96
102
{ACAD_REACTORS
330
E0D
102
}
330
2
100
AcDbEntity
  8
KIJUN
100
AcDbCircle
 10
39.9646264581223
 20
85.95222934492396
 30
0.0
 40
4.840894997749061
100
AcDbArc
 50
123.1384712985571
 51
147.6060703499513
  0
ARC
  5
D97
102
{ACAD_REACTORS
330
E0D
102
}
330
2
100
AcDbEntity
  8
KIJUN
100
AcDbCircle
 10
41.85017173646688
 20
84.7559061303316
 30
0.0
 40
7.073935577420675
100
AcDbArc
 50
147.6060703499639
 51
165.275275488119
  0
ARC
  5
D98
102
{ACAD_REACTORS
330
E0D
102
}
330
2
100
AcDbEntity
  8
KIJUN
100
AcDbCircle
 10
44.83610818362328
 20
83.97118302680425
 30
0.0
 40
10.16126562386316
100
AcDbArc
 50
165.2752754880489
 51
179.9999999999844
  0
ARC
  5
D99
102
{ACAD_REACTORS
330
E0D
102
}
330
2
100
AcDbEntity
  8
KIJUN
100
AcDbCircle
 10
44.83610818363451
 20
83.97118302680985
 30
0.0
 40
10.16126562387438
100
AcDbArc
 50
180.000000000016
 51
194.7247245119428
  0
ARC
  5
D9A
102
{ACAD_REACTORS
330
E0D
102
}
330
2
100
AcDbEntity
  8
KIJUN
100
AcDbCircle
 10
41.85017173646602
 20
83.18645992328328
 30
0.0
 40
7.0739355774204
100
AcDbArc
 50
194.7247245119001
 51
212.3939296500457
  0
ARC
  5
D9B
102
{ACAD_REACTORS
330
E0D
102
}
330
2
100
AcDbEntity
  8
KIJUN
100
AcDbCircle
 10
39.96462645809005
 20
81.99013670867399
 30
0.0
 40
4.840894997713213
100
AcDbArc
 50
212.3939296500924
 51
236.8615287016755
  0
ARC
  5
D9C
102
{ACAD_REACTORS
330
E0D
102
}
330
2
100
AcDbEntity
  8
KIJUN
100
AcDbCircle
 10
38.77943152796738
 20
80.17471704612402
 30
0.0
 40
2.672846203621731
100
AcDbArc
 50
236.8615287013841
 51
269.999999999986
  0
ARC
  5
D9D
102
{ACAD_REACTORS
330
E0D
102
}
330
2
100
AcDbEntity
  8
KIJUN
100
AcDbCircle
 10
50.33312318426288
 20
75.45445358175334
 30
0.0
 40
3.012769458617179
100
AcDbArc
 50
352.2815443671557
 51
26.47294644006466
  0
ARC
  5
D9E
102
{ACAD_REACTORS
330
E0D
102
}
330
2
100
AcDbEntity
  8
KIJUN
100
AcDbCircle
 10
47.55921474957587
 20
75.830410598112
 30
0.0
 40
5.812039306662742
100
AcDbArc
 50
327.8433383566862
 51
352.2815443671094
  0
ARC
  5
D9F
102
{ACAD_REACTORS
330
E0D
102
}
330
2
100
AcDbEntity
  8
KIJUN
100
AcDbCircle
 10
45.07187153885526
 20
77.39414794165316
 30
0.0
 40
8.750091506250607
100
AcDbArc
 50
310.6462578068114
 51
327.8433383567465
  0
ARC
  5
DA0
102
{ACAD_REACTORS
330
E0D
102
}
330
2
100
AcDbEntity
  8
KIJUN
100
AcDbCircle
 10
42.4006817278295
 20
80.50559114858069
 30
0.0
 40
12.85086385258529
100
AcDbArc
 50
296.4729464400581
 51
310.6462578066731
  0
ARC
  5
DA1
102
{ACAD_REACTORS
330
E0D
102
}
330
2
100
AcDbEntity
  8
KIJUN
100
AcDbCircle
 10
42.40068172783149
 20
80.5055911485476
 30
0.0
 40
12.85086385255478
100
AcDbArc
 50
282.2996350734879
 51
296.4729464401159
  0
ARC
  5
DA2
102
{ACAD_REACTORS
330
E0D
102
}
330
2
100
AcDbEntity
  8
KIJUN
100
AcDbCircle
 10
43.27424532579825
 20
76.49894411185008
 30
0.0
 40
8.75009150623152
100
AcDbArc
 50
265.1025545235124
 51
282.2996350734959
  0
ARC
  5
DA3
102
{ACAD_REACTORS
330
E0D
102
}
330
2
100
AcDbEntity
  8
KIJUN
100
AcDbCircle
 10
43.02341646101601
 20
73.57161843676355
 30
0.0
 40
5.8120393066563
100
AcDbArc
 50
240.6643485129837
 51
265.1025545234425
  0
ARC
  5
DA4
102
{ACAD_REACTORS
330
E0D
102
}
330
2
100
AcDbEntity
  8
KIJUN
100
AcDbCircle
 10
41.6519842094756
 20
71.1313140988569
 30
0.0
 40
3.012769458611789
100
AcDbArc
 50
206.4729464400741
 51
240.6643485130434
  0
ARC
  5
DA5
102
{ACAD_REACTORS
330
E0D
102
}
330
2
100
AcDbEntity
  8
KIJUN
100
AcDbCircle
 10
41.65198420947763
 20
71.13131409885849
 30
0.0
 40
3.012769458614312
100
AcDbArc
 50
172.2815443671063
 51
206.4729464400839
  0
ARC
  5
DA6
102
{ACAD_REACTORS
330
E0D
102
}
330
2
100
AcDbEntity
  8
KIJUN
100
AcDbCircle
 10
44.42589264416239
 20
70.75535708250689
 30
0.0
 40
5.812039306656696
100
AcDbArc
 50
147.8433383567159
 51
172.2815443671496
  0
ARC
  5
DA7
102
{ACAD_REACTORS
330
E0D
102
}
330
2
100
AcDbEntity
  8
KIJUN
100
AcDbCircle
 10
46.91323585485718
 20
69.19161973896395
 30
0.0
 40
8.750091506223656
100
AcDbArc
 50
130.646257806678
 51
147.8433383566664
  0
ARC
  5
DA8
102
{ACAD_REACTORS
330
E0D
102
}
330
2
100
AcDbEntity
  8
KIJUN
100
AcDbCircle
 10
49.58442566590512
 20
66.08017653206977
 30
0.0
 40
12.85086385254749
100
AcDbArc
 50
116.4729464401068
 51
130.6462578067542
  0
ARC
  5
DA9
102
{ACAD_REACTORS
330
E0D
102
}
330
2
100
AcDbEntity
  8
KIJUN
100
AcDbCircle
 10
49.58442566590078
 20
66.08017653205997
 30
0.0
 40
12.85086385255431
100
AcDbArc
 50
102.2996350734289
 51
116.47294644007
  0
ARC
  5
DAA
102
{ACAD_REACTORS
330
E0D
102
}
330
2
100
AcDbEntity
  8
KIJUN
100
AcDbCircle
 10
48.71086206794388
 20
70.08682356876962
 30
0.0
 40
8.750091506221309
100
AcDbArc
 50
85.10255452350902
 51
102.2996350734893
  0
ARC
  5
DAB
102
{ACAD_REACTORS
330
E0D
102
}
330
2
100
AcDbEntity
  8
KIJUN
100
AcDbCircle
 10
48.96169093273481
 20
73.01414924385054
 30
0.0
 40
5.81203930665094
100
AcDbArc
 50
60.66434851305839
 51
85.10255452352756
  0
ARC
  5
DAC
102
{ACAD_REACTORS
330
E0D
102
}
330
2
100
AcDbEntity
  8
KIJUN
100
AcDbCircle
 10
50.33312318426787
 20
75.45445358175488
 30
0.0
 40
3.012769458612034
100
AcDbArc
 50
26.47294644008083
 51
60.66434851308698
  0
ARC
  5
DAD
102
{ACAD_REACTORS
330
E0D
102
}
330
2
100
AcDbEntity
  8
KIJUN
100
AcDbCircle
 10
56.86006202986219
 20
68.9390753459412
 30
0.0
 40
3.012769458616773
100
AcDbArc
 50
63.62862661209188
 51
97.82002868500089
  0
ARC
  5
DAE
102
{ACAD_REACTORS
330
E0D
102
}
330
2
100
AcDbEntity
  8
KIJUN
100
AcDbCircle
 10
57.24093599387455
 20
66.16583776042556
 30
0.0
 40
5.812039306662709
100
AcDbArc
 50
97.82002868484646
 51
122.2582346952696
  0
ARC
  5
DAF
102
{ACAD_REACTORS
330
E0D
102
}
330
2
100
AcDbEntity
  8
KIJUN
100
AcDbCircle
 10
58.80908040060842
 20
63.68127062566944
 30
0.0
 40
8.750091506246805
100
AcDbArc
 50
122.2582346953517
 51
139.4553152452868
  0
ARC
  5
DB0
102
{ACAD_REACTORS
330
E0D
102
}
330
2
100
AcDbEntity
  8
KIJUN
100
AcDbCircle
 10
61.92525415885024
 20
61.01560092652827
 30
0.0
 40
12.85086385258284
100
AcDbArc
 50
139.4553152453655
 51
153.6286266119805
  0
ARC
  5
DB1
102
{ACAD_REACTORS
330
E0D
102
}
330
2
100
AcDbEntity
  8
KIJUN
100
AcDbCircle
 10
61.9252541588174
 20
61.01560092654406
 30
0.0
 40
12.8508638525464
100
AcDbArc
 50
153.6286266119786
 51
167.8019379786066
  0
ARC
  5
DB2
102
{ACAD_REACTORS
330
E0D
102
}
330
2
100
AcDbEntity
  8
KIJUN
100
AcDbCircle
 10
57.91706477917133
 20
61.88206023499677
 30
0.0
 40
8.750091506230173
100
AcDbArc
 50
167.8019379785423
 51
184.9990185285259
  0
ARC
  5
DB3
102
{ACAD_REACTORS
330
E0D
102
}
330
2
100
AcDbEntity
  8
KIJUN
100
AcDbCircle
 10
54.99018836924681
 20
61.62604225040354
 30
0.0
 40
5.812039306658521
100
AcDbArc
 50
184.9990185285614
 51
209.4372245390202
  0
ARC
  5
DB4
102
{ACAD_REACTORS
330
E0D
102
}
330
2
100
AcDbEntity
  8
KIJUN
100
AcDbCircle
 10
52.55231911812256
 20
60.2502860232312
 30
0.0
 40
3.012769458612325
100
AcDbArc
 50
209.4372245390848
 51
243.6286266120541
  0
ARC
  5
DB5
102
{ACAD_REACTORS
330
E0D
102
}
330
2
100
AcDbEntity
  8
KIJUN
100
AcDbCircle
 10
52.55231911813063
 20
60.25028602322728
 30
0.0
 40
3.012769458612399
100
AcDbArc
 50
243.6286266118834
 51
277.820028684861
  0
ARC
  5
DB6
102
{ACAD_REACTORS
330
E0D
102
}
330
2
100
AcDbEntity
  8
KIJUN
100
AcDbCircle
 10
52.17144515409884
 20
63.02352360874231
 30
0.0
 40
5.812039306660375
100
AcDbArc
 50
277.8200286849647
 51
302.2582346953983
  0
ARC
  5
DB7
102
{ACAD_REACTORS
330
E0D
102
}
330
2
100
AcDbEntity
  8
KIJUN
100
AcDbCircle
 10
50.60330074739554
 20
65.50809074348592
 30
0.0
 40
8.750091506217572
100
AcDbArc
 50
302.2582346953116
 51
319.4553152453
  0
ARC
  5
DB8
102
{ACAD_REACTORS
330
E0D
102
}
330
2
100
AcDbEntity
  8
KIJUN
100
AcDbCircle
 10
47.4871269891739
 20
68.17376044262982
 30
0.0
 40
12.85086385254004
100
AcDbArc
 50
319.4553152453068
 51
333.6286266119542
  0
ARC
  5
DB9
102
{ACAD_REACTORS
330
E0D
102
}
330
2
100
AcDbEntity
  8
KIJUN
100
AcDbCircle
 10
47.48712698914863
 20
68.17376044263525
 30
0.0
 40
12.8508638525651
100
AcDbArc
 50
333.6286266119826
 51
347.8019379786236
  0
ARC
  5
DBA
102
{ACAD_REACTORS
330
E0D
102
}
330
2
100
AcDbEntity
  8
KIJUN
100
AcDbCircle
 10
51.49531636881816
 20
67.3073011341817
 30
0.0
 40
8.75009150622577
100
AcDbArc
 50
347.8019379785403
 51
4.999018528520548
  0
ARC
  5
DBB
102
{ACAD_REACTORS
330
E0D
102
}
330
2
100
AcDbEntity
  8
KIJUN
100
AcDbCircle
 10
54.42219277875017
 20
67.56331911877231
 30
0.0
 40
5.812039306646881
100
AcDbArc
 50
4.999018528585652
 51
29.43722453905486
  0
ARC
  5
DBC
102
{ACAD_REACTORS
330
E0D
102
}
330
2
100
AcDbEntity
  8
KIJUN
100
AcDbCircle
 10
56.86006202985809
 20
68.93907534594615
 30
0.0
 40
3.012769458614167
100
AcDbArc
 50
29.43722453897396
 51
63.62862661198025
  0
ARC
  5
DBD
102
{ACAD_REACTORS
330
E0D
102
}
330
2
100
AcDbEntity
  8
KIJUN
100
AcDbCircle
 10
49.78325780536153
 20
92.75902280499048
 30
0.0
 40
3.012769458616871
100
AcDbArc
 50
334.3319733618896
 51
8.523375434798618
  0
ARC
  5
DBE
102
{ACAD_REACTORS
330
E0D
102
}
330
2
100
AcDbEntity
  8
KIJUN
100
AcDbCircle
 10
47.01490455467235
 20
92.34413491460088
 30
0.0
 40
5.812039306665345
100
AcDbArc
 50
8.523375434829087
 51
32.96158144525227
  0
ARC
  5
DBF
102
{ACAD_REACTORS
330
E0D
102
}
330
2
100
AcDbEntity
  8
KIJUN
100
AcDbCircle
 10
44.54977423407306
 20
90.74560958482079
 30
0.0
 40
8.750091506250376
100
AcDbArc
 50
32.96158144527669
 51
50.15866199521172
  0
ARC
  5
DC0
102
{ACAD_REACTORS
330
E0D
102
}
330
2
100
AcDbEntity
  8
KIJUN
100
AcDbCircle
 10
41.92255768668643
 20
87.59694843291439
 30
0.0
 40
12.85086385257573
100
AcDbArc
 50
50.15866199532065
 51
64.33197336193564
  0
ARC
  5
DC1
102
{ACAD_REACTORS
330
E0D
102
}
330
2
100
AcDbEntity
  8
KIJUN
100
AcDbCircle
 10
41.92255768667735
 20
87.59694843293152
 30
0.0
 40
12.85086385256421
100
AcDbArc
 50
64.33197336186605
 51
78.50528472849409
  0
ARC
  5
DC2
102
{ACAD_REACTORS
330
E0D
102
}
330
2
100
AcDbEntity
  8
KIJUN
100
AcDbCircle
 10
42.73974955017698
 20
91.61547195466248
 30
0.0
 40
8.750091506228105
100
AcDbArc
 50
78.50528472850685
 51
95.70236527849038
  0
ARC
  5
DC3
102
{ACAD_REACTORS
330
E0D
102
}
330
2
100
AcDbEntity
  8
KIJUN
100
AcDbCircle
 10
42.44782225256297
 20
94.53898511186332
 30
0.0
 40
5.812039306654606
100
AcDbArc
 50
95.70236527849273
 51
120.1405712889515
  0
ARC
  5
DC4
102
{ACAD_REACTORS
330
E0D
102
}
330
2
100
AcDbEntity
  8
KIJUN
100
AcDbCircle
 10
41.0422438423116
 20
96.9597827107526
 30
0.0
 40
3.012769458613373
100
AcDbArc
 50
120.1405712889656
 51
154.331973361935
  0
ARC
  5
DC5
102
{ACAD_REACTORS
330
E0D
102
}
330
2
100
AcDbEntity
  8
KIJUN
100
AcDbCircle
 10
41.04224384231208
 20
96.95978271074848
 30
0.0
 40
3.012769458615589
100
AcDbArc
 50
154.3319733618683
 51
188.523375434846
  0
ARC
  5
DC6
102
{ACAD_REACTORS
330
E0D
102
}
330
2
100
AcDbEntity
  8
KIJUN
100
AcDbCircle
 10
43.81059709299217
 20
97.37467060113685
 30
0.0
 40
5.812039306654884
100
AcDbArc
 50
188.523375434855
 51
212.9615814452888
  0
ARC
  5
DC7
102
{ACAD_REACTORS
330
E0D
102
}
330
2
100
AcDbEntity
  8
KIJUN
100
AcDbCircle
 10
46.27572741358423
 20
98.97319593090703
 30
0.0
 40
8.750091506228468
100
AcDbArc
 50
212.9615814452722
 51
230.1586619952606
  0
ARC
  5
DC8
102
{ACAD_REACTORS
330
E0D
102
}
330
2
100
AcDbEntity
  8
KIJUN
100
AcDbCircle
 10
48.90294396097566
 20
102.1218570827934
 30
0.0
 40
12.8508638525415
100
AcDbArc
 50
230.1586619952804
 51
244.3319733619277
  0
ARC
  5
DC9
102
{ACAD_REACTORS
330
E0D
102
}
330
2
100
AcDbEntity
  8
KIJUN
100
AcDbCircle
 10
48.90294396099687
 20
102.1218570828033
 30
0.0
 40
12.85086385255963
100
AcDbArc
 50
244.3319733618616
 51
258.5052847285026
  0
ARC
  5
DCA
102
{ACAD_REACTORS
330
E0D
102
}
330
2
100
AcDbEntity
  8
KIJUN
100
AcDbCircle
 10
48.08575209749764
 20
98.10333356107198
 30
0.0
 40
8.750091506223229
100
AcDbArc
 50
258.5052847285163
 51
275.7023652784965
  0
ARC
  5
DCB
102
{ACAD_REACTORS
330
E0D
102
}
330
2
100
AcDbEntity
  8
KIJUN
100
AcDbCircle
 10
48.37767939511181
 20
95.1798204038738
 30
0.0
 40
5.812039306652375
100
AcDbArc
 50
275.702365278498
 51
300.1405712889671
  0
ARC
  5
DCC
102
{ACAD_REACTORS
330
E0D
102
}
330
2
100
AcDbEntity
  8
KIJUN
100
AcDbCircle
 10
49.78325780536669
 20
92.75902280498518
 30
0.0
 40
3.012769458609925
100
AcDbArc
 50
300.1405712889318
 51
334.331973361938
  0
ARC
  5
DCD
102
{ACAD_REACTORS
330
E0D
102
}
330
2
100
AcDbEntity
  8
KIJUN
100
AcDbCircle
 10
72.17008390370259
 20
104.6501145749223
 30
0.0
 40
4.375091506211447
100
AcDbArc
 50
311.7195606356114
 51
318.650395443277
  0
ARC
  5
DCE
102
{ACAD_REACTORS
330
E0D
102
}
330
2
100
AcDbEntity
  8
KIJUN
100
AcDbCircle
 10
69.09166507598829
 20
107.3592973590563
 30
0.0
 40
8.47586385257178
100
AcDbArc
 50
318.6503954433659
 51
332.8237068099885
  0
ARC
  5
DCF
102
{ACAD_REACTORS
330
E0D
102
}
330
2
100
AcDbEntity
  8
KIJUN
100
AcDbCircle
 10
69.09166507600395
 20
107.359297359046
 30
0.0
 40
8.475863852553148
100
AcDbArc
 50
332.823706810002
 51
346.9970181766367
  0
ARC
  5
DD0
102
{ACAD_REACTORS
330
E0D
102
}
330
2
100
AcDbEntity
  8
KIJUN
100
AcDbCircle
 10
73.08728687940785
 20
106.4366163521861
 30
0.0
 40
4.375091506243665
100
AcDbArc
 50
346.9970181765726
 51
353.9278530034341
  0
ARC
  5
DD1
102
{ACAD_REACTORS
330
E0D
102
}
330
2
100
AcDbEntity
  8
KIJUN
100
AcDbCircle
 10
80.34939058174572
 20
102.7081996143649
 30
0.0
 40
4.375091506124724
100
AcDbArc
 50
131.7195605980763
 51
138.6503954257524
  0
ARC
  5
DD2
102
{ACAD_REACTORS
330
E0D
102
}
330
2
100
AcDbEntity
  8
KIJUN
100
AcDbCircle
 10
83.427809410401
 20
99.99901683117439
 30
0.0
 40
8.475863852568169
100
AcDbArc
 50
138.6503954433097
 51
152.8237068099432
  0
ARC
  5
DD3
102
{ACAD_REACTORS
330
E0D
102
}
330
2
100
AcDbEntity
  8
KIJUN
100
AcDbCircle
 10
83.42780941040059
 20
99.99901683118935
 30
0.0
 40
8.475863852560975
100
AcDbArc
 50
152.8237068100319
 51
166.9970181766672
  0
ARC
  5
DD4
102
{ACAD_REACTORS
330
E0D
102
}
330
2
100
AcDbEntity
  8
KIJUN
100
AcDbCircle
 10
79.43218760855939
 20
100.921697847408
 30
0.0
 40
4.375091505668385
100
AcDbArc
 50
166.9970183006556
 51
173.9278531141045
  0
ARC
  5
DD5
102
{ACAD_REACTORS
330
E0D
102
}
330
2
100
AcDbEntity
  8
KIJUN
100
AcDbCircle
 10
72.17008390370259
 20
63.84297823392966
 30
0.0
 40
4.375091506211447
100
AcDbArc
 50
41.34960455672294
 51
48.2804393643886
  0
ARC
  5
DD6
102
{ACAD_REACTORS
330
E0D
102
}
330
2
100
AcDbEntity
  8
KIJUN
100
AcDbCircle
 10
69.0916650759828
 20
61.13379544979505
 30
0.0
 40
8.47586385257634
100
AcDbArc
 50
27.17629318999038
 51
41.34960455661298
  0
ARC
  5
DD7
102
{ACAD_REACTORS
330
E0D
102
}
330
2
100
AcDbEntity
  8
KIJUN
100
AcDbCircle
 10
69.09166507600943
 20
61.13379544980531
 30
0.0
 40
8.475863852547956
100
AcDbArc
 50
13.00298182337606
 51
27.17629319001082
  0
ARC
  5
DD8
102
{ACAD_REACTORS
330
E0D
102
}
330
2
100
AcDbEntity
  8
KIJUN
100
AcDbCircle
 10
73.08728687939285
 20
62.05647645666493
 30
0.0
 40
4.375091506258493
100
AcDbArc
 50
6.07214699653343
 51
13.0029818233948
  0
ARC
  5
DD9
102
{ACAD_REACTORS
330
E0D
102
}
330
2
100
AcDbEntity
  8
KIJUN
100
AcDbCircle
 10
80.34939058175323
 20
65.78489319448571
 30
0.0
 40
4.375091506130067
100
AcDbArc
 50
221.3496045741781
 51
228.2804394018542
  0
ARC
  5
DDA
102
{ACAD_REACTORS
330
E0D
102
}
330
2
100
AcDbEntity
  8
KIJUN
100
AcDbCircle
 10
83.42780941040464
 20
68.49407597767715
 30
0.0
 40
8.47586385257121
100
AcDbArc
 50
207.1762931900428
 51
221.3496045566763
  0
ARC
  5
DDB
102
{ACAD_REACTORS
330
E0D
102
}
330
2
100
AcDbEntity
  8
KIJUN
100
AcDbCircle
 10
83.42780941040242
 20
68.49407597766289
 30
0.0
 40
8.47586385256271
100
AcDbArc
 50
193.0029818233285
 51
207.1762931899638
  0
ARC
  5
DDC
102
{ACAD_REACTORS
330
E0D
102
}
330
2
100
AcDbEntity
  8
KIJUN
100
AcDbCircle
 10
79.43218760855564
 20
67.57139496144424
 30
0.0
 40
4.375091505664679
100
AcDbArc
 50
186.0721468859036
 51
193.0029816993525
  0
ARC
  5
DDD
102
{ACAD_REACTORS
330
E0D
102
}
330
2
100
AcDbEntity
  8
KIJUN
100
AcDbCircle
 10
74.0450481041141
 20
99.3654488018687
 30
0.0
 40
3.012769458616588
100
AcDbArc
 50
242.823706810001
 51
277.0151088829099
  0
ARC
  5
DDE
102
{ACAD_REACTORS
330
E0D
102
}
330
2
100
AcDbEntity
  8
KIJUN
100
AcDbCircle
 10
73.7031702730024
 20
102.143763260456
 30
0.0
 40
5.812039306666417
100
AcDbArc
 50
277.0151088829214
 51
301.4533148933446
  0
ARC
  5
DDF
102
{ACAD_REACTORS
330
E0D
102
}
330
2
100
AcDbEntity
  8
KIJUN
100
AcDbCircle
 10
72.17008390366794
 20
104.6501145749465
 30
0.0
 40
8.750091506251617
100
AcDbArc
 50
301.4533148934248
 51
318.6503954433598
  0
ARC
  5
DE0
102
{ACAD_REACTORS
330
E0D
102
}
330
2
100
AcDbEntity
  8
KIJUN
100
AcDbCircle
 10
69.09166507597948
 20
107.3592973590603
 30
0.0
 40
12.85086385257927
100
AcDbArc
 50
318.6503954433832
 51
332.8237068099982
  0
ARC
  5
DE1
102
{ACAD_REACTORS
330
E0D
102
}
330
2
100
AcDbEntity
  8
KIJUN
100
AcDbCircle
 10
69.09166507600082
 20
107.3592973590576
 30
0.0
 40
12.85086385255905
100
AcDbArc
 50
332.8237068099655
 51
346.9970181765935
  0
ARC
  5
DE2
102
{ACAD_REACTORS
330
E0D
102
}
330
2
100
AcDbEntity
  8
KIJUN
100
AcDbCircle
 10
73.08728687942077
 20
106.4366163521851
 30
0.0
 40
8.750091506231077
100
AcDbArc
 50
346.9970181765985
 51
4.194098726582126
  0
ARC
  5
DE3
102
{ACAD_REACTORS
330
E0D
102
}
330
2
100
AcDbEntity
  8
KIJUN
100
AcDbCircle
 10
76.01747101994383
 20
106.6514922003334
 30
0.0
 40
5.812039306645389
100
AcDbArc
 50
4.194098726607193
 51
28.63230473706596
  0
ARC
  5
DE4
102
{ACAD_REACTORS
330
E0D
102
}
330
2
100
AcDbEntity
  8
KIJUN
100
AcDbCircle
 10
78.47442638227872
 20
107.992865388368
 30
0.0
 40
3.012769458616419
100
AcDbArc
 50
28.63230473696554
 51
62.82370680993492
  0
ARC
  5
DE5
102
{ACAD_REACTORS
330
E0D
102
}
330
2
100
AcDbEntity
  8
KIJUN
100
AcDbCircle
 10
78.47442638228631
 20
107.9928653883679
 30
0.0
 40
3.012769458613044
100
AcDbArc
 50
62.82370681006416
 51
97.01510888304184
  0
ARC
  5
DE6
102
{ACAD_REACTORS
330
E0D
102
}
330
2
100
AcDbEntity
  8
KIJUN
100
AcDbCircle
 10
78.81630421338434
 20
105.2145509297847
 30
0.0
 40
5.812039306657157
100
AcDbArc
 50
97.01510888286097
 51
121.4533148932947
  0
ARC
  5
DE7
102
{ACAD_REACTORS
330
E0D
102
}
330
2
100
AcDbEntity
  8
KIJUN
100
AcDbCircle
 10
80.34939058271183
 20
102.708199615309
 30
0.0
 40
8.750091506226091
100
AcDbArc
 50
121.4533148934033
 51
138.6503954433917
  0
ARC
  5
DE8
102
{ACAD_REACTORS
330
E0D
102
}
330
2
100
AcDbEntity
  8
KIJUN
100
AcDbCircle
 10
83.42780941039197
 20
99.99901683119166
 30
0.0
 40
12.8508638525498
100
AcDbArc
 50
138.6503954433687
 51
152.823706810016
  0
ARC
  5
DE9
102
{ACAD_REACTORS
330
E0D
102
}
330
2
100
AcDbEntity
  8
KIJUN
100
AcDbCircle
 10
83.42780941038745
 20
99.99901683117979
 30
0.0
 40
12.85086385255119
100
AcDbArc
 50
152.8237068099597
 51
166.9970181766008
  0
ARC
  5
DEA
102
{ACAD_REACTORS
330
E0D
102
}
330
2
100
AcDbEntity
  8
KIJUN
100
AcDbCircle
 10
79.43218760697361
 20
100.9216978380504
 30
0.0
 40
8.750091506229617
100
AcDbArc
 50
166.9970181766061
 51
184.1940987265863
  0
ARC
  5
DEB
102
{ACAD_REACTORS
330
E0D
102
}
330
2
100
AcDbEntity
  8
KIJUN
100
AcDbCircle
 10
76.50200346644846
 20
100.7068219899002
 30
0.0
 40
5.812039306641697
100
AcDbArc
 50
184.1940987265973
 51
208.6323047370666
  0
ARC
  5
DEC
102
{ACAD_REACTORS
330
E0D
102
}
330
2
100
AcDbEntity
  8
KIJUN
100
AcDbCircle
 10
74.04504810411542
 20
99.36544880186529
 30
0.0
 40
3.012769458614163
100
AcDbArc
 50
208.6323047369428
 51
242.823706809949
  0
ARC
  5
DED
102
{ACAD_REACTORS
330
E0D
102
}
330
2
100
AcDbEntity
  8
KIJUN
100
AcDbCircle
 10
74.04504810411558
 20
69.12764400698285
 30
0.0
 40
3.012769458616859
100
AcDbArc
 50
82.98489111711905
 51
117.176293190028
  0
ARC
  5
DEE
102
{ACAD_REACTORS
330
E0D
102
}
330
2
100
AcDbEntity
  8
KIJUN
100
AcDbCircle
 10
73.70317027299924
 20
66.34932954839531
 30
0.0
 40
5.812039306667479
100
AcDbArc
 50
58.54668510662535
 51
82.98489111704851
  0
ARC
  5
DEF
102
{ACAD_REACTORS
330
E0D
102
}
330
2
100
AcDbEntity
  8
KIJUN
100
AcDbCircle
 10
72.17008390367245
 20
63.8429782339048
 30
0.0
 40
8.750091506248685
100
AcDbArc
 50
41.34960455666304
 51
58.54668510659807
  0
ARC
  5
DF0
102
{ACAD_REACTORS
330
E0D
102
}
330
2
100
AcDbEntity
  8
KIJUN
100
AcDbCircle
 10
69.09166507597948
 20
61.13379544979164
 30
0.0
 40
12.85086385257927
100
AcDbArc
 50
27.17629319000183
 51
41.34960455661682
  0
ARC
  5
DF1
102
{ACAD_REACTORS
330
E0D
102
}
330
2
100
AcDbEntity
  8
KIJUN
100
AcDbCircle
 10
69.09166507599717
 20
61.13379544979389
 30
0.0
 40
12.85086385256251
100
AcDbArc
 50
13.00298182340087
 51
27.17629319002893
  0
ARC
  5
DF2
102
{ACAD_REACTORS
330
E0D
102
}
330
2
100
AcDbEntity
  8
KIJUN
100
AcDbCircle
 10
73.08728687942378
 20
62.05647645666644
 30
0.0
 40
8.75009150622804
100
AcDbArc
 50
355.8059012734194
 51
13.00298182340297
  0
ARC
  5
DF3
102
{ACAD_REACTORS
330
E0D
102
}
330
2
100
AcDbEntity
  8
KIJUN
100
AcDbCircle
 10
76.01747101994067
 20
61.84160060851784
 30
0.0
 40
5.812039306648485
100
AcDbArc
 50
331.367695262943
 51
355.8059012734018
  0
ARC
  5
DF4
102
{ACAD_REACTORS
330
E0D
102
}
330
2
100
AcDbEntity
  8
KIJUN
100
AcDbCircle
 10
78.47442638228241
 20
60.50022742048375
 30
0.0
 40
3.012769458613721
100
AcDbArc
 50
297.1762931900125
 51
331.3676952629819
  0
ARC
  5
DF5
102
{ACAD_REACTORS
330
E0D
102
}
330
2
100
AcDbEntity
  8
KIJUN
100
AcDbCircle
 10
78.47442638228483
 20
60.50022742048454
 30
0.0
 40
3.012769458613315
100
AcDbArc
 50
262.9848911169871
 51
297.1762931899648
  0
ARC
  5
DF6
102
{ACAD_REACTORS
330
E0D
102
}
330
2
100
AcDbEntity
  8
KIJUN
100
AcDbCircle
 10
78.81630421338539
 20
63.27854187906753
 30
0.0
 40
5.812039306657512
100
AcDbArc
 50
238.5466851066953
 51
262.984891117129
  0
ARC
  5
DF7
102
{ACAD_REACTORS
330
E0D
102
}
330
2
100
AcDbEntity
  8
KIJUN
100
AcDbCircle
 10
80.34939058270429
 20
65.78489319354233
 30
0.0
 40
8.75009150622119
100
AcDbArc
 50
221.3496045566465
 51
238.5466851066349
  0
ARC
  5
DF8
102
{ACAD_REACTORS
330
E0D
102
}
330
2
100
AcDbEntity
  8
KIJUN
100
AcDbCircle
 10
83.4278094103938
 20
68.49407597765875
 30
0.0
 40
12.85086385255133
100
AcDbArc
 50
207.1762931899793
 51
221.3496045566267
  0
ARC
  5
DF9
102
{ACAD_REACTORS
330
E0D
102
}
330
2
100
AcDbEntity
  8
KIJUN
100
AcDbCircle
 10
83.42780941038745
 20
68.49407597767084
 30
0.0
 40
12.85086385255119
100
AcDbArc
 50
193.0029818233992
 51
207.1762931900402
  0
ARC
  5
DFA
102
{ACAD_REACTORS
330
E0D
102
}
330
2
100
AcDbEntity
  8
KIJUN
100
AcDbCircle
 10
79.4321876069721
 20
67.57139497079998
 30
0.0
 40
8.750091506228098
100
AcDbArc
 50
175.8059012734143
 51
193.0029818233947
  0
ARC
  5
DFB
102
{ACAD_REACTORS
330
E0D
102
}
330
2
100
AcDbEntity
  8
KIJUN
100
AcDbCircle
 10
76.5020034664516
 20
67.78627081895063
 30
0.0
 40
5.812039306644779
100
AcDbArc
 50
151.3676952629424
 51
175.8059012734116
  0
ARC
  5
DFC
102
{ACAD_REACTORS
330
E0D
102
}
330
2
100
AcDbEntity
  8
KIJUN
100
AcDbCircle
 10
74.04504810411468
 20
69.12764400698603
 30
0.0
 40
3.012769458613623
100
AcDbArc
 50
117.1762931900405
 51
151.3676952630467
  0
ARC
  5
DFD
102
{ACAD_REACTORS
330
E0D
102
}
330
2
100
AcDbEntity
  8
KIJUN
100
AcDbCircle
 10
60.42151493559297
 20
110.5741529672092
 30
0.0
 40
2.672846203623144
100
AcDbArc
 50
181.2354996723735
 51
214.3739709709523
  0
ARC
  5
DFE
102
{ACAD_REACTORS
330
E0D
102
}
330
2
100
AcDbEntity
  8
KIJUN
100
AcDbCircle
 10
62.21095752761795
 20
111.7982161940907
 30
0.0
 40
4.840894997713525
100
AcDbArc
 50
214.3739709706793
 51
238.8415700222945
  0
ARC
  5
DFF
102
{ACAD_REACTORS
330
E0D
102
}
330
2
100
AcDbEntity
  8
KIJUN
100
AcDbCircle
 10
63.36634674132898
 20
113.7091180742262
 30
0.0
 40
7.07393557743105
100
AcDbArc
 50
238.8415700223324
 51
256.5107751604515
  0
ARC
  5
E00
102
{ACAD_REACTORS
330
E0D
102
}
330
2
100
AcDbEntity
  8
KIJUN
100
AcDbCircle
 10
64.08650504736394
 20
116.7112804332524
 30
0.0
 40
10.16126562387975
100
AcDbArc
 50
256.5107751604535
 51
271.2354996723672
  0
ARC
  5
E01
102
{ACAD_REACTORS
330
E0D
102
}
330
2
100
AcDbEntity
  8
KIJUN
100
AcDbCircle
 10
64.08650504735913
 20
116.7112804332413
 30
0.0
 40
10.16126562386875
100
AcDbArc
 50
271.2354996723957
 51
285.9602241843226
  0
ARC
  5
E02
102
{ACAD_REACTORS
330
E0D
102
}
330
2
100
AcDbEntity
  8
KIJUN
100
AcDbCircle
 10
64.93542807713699
 20
113.7429582631952
 30
0.0
 40
7.073935577425042
100
AcDbArc
 50
285.9602241843203
 51
303.629429322466
  0
ARC
  5
E03
102
{ACAD_REACTORS
330
E0D
102
}
330
2
100
AcDbEntity
  8
KIJUN
100
AcDbCircle
 10
66.17212904048209
 20
111.8836463050389
 30
0.0
 40
4.840894997748514
100
AcDbArc
 50
303.6294293224886
 51
328.0970283739142
  0
ARC
  5
E04
102
{ACAD_REACTORS
330
E0D
102
}
330
2
100
AcDbEntity
  8
KIJUN
100
AcDbCircle
 10
68.01268166129696
 20
110.7378707495056
 30
0.0
 40
2.672846203637523
100
AcDbArc
 50
328.0970283739351
 51
1.235499672371188
  0
ARC
  5
E05
102
{ACAD_REACTORS
330
E0D
102
}
330
2
100
AcDbEntity
  8
KIJUN
100
AcDbCircle
 10
68.01268166129894
 20
110.7378707495019
 30
0.0
 40
2.672846203635632
100
AcDbArc
 50
1.235499672451286
 51
34.37397097087031
  0
ARC
  5
E06
102
{ACAD_REACTORS
330
E0D
102
}
330
2
100
AcDbEntity
  8
KIJUN
100
AcDbCircle
 10
66.22323906926769
 20
109.5138075225897
 30
0.0
 40
4.840894997748473
100
AcDbArc
 50
34.37397097089135
 51
58.8415700222855
  0
ARC
  5
E07
102
{ACAD_REACTORS
330
E0D
102
}
330
2
100
AcDbEntity
  8
KIJUN
100
AcDbCircle
 10
65.06784985557792
 20
107.6029056424974
 30
0.0
 40
7.073935577418066
100
AcDbArc
 50
58.84157002229276
 51
76.51077516044789
  0
ARC
  5
E08
102
{ACAD_REACTORS
330
E0D
102
}
330
2
100
AcDbEntity
  8
KIJUN
100
AcDbCircle
 10
64.34769154954465
 20
104.6007432834664
 30
0.0
 40
10.16126562387098
100
AcDbArc
 50
76.51077516046647
 51
91.23549967240199
  0
ARC
  5
E09
102
{ACAD_REACTORS
330
E0D
102
}
330
2
100
AcDbEntity
  8
KIJUN
100
AcDbCircle
 10
64.34769154954522
 20
104.6007432834682
 30
0.0
 40
10.16126562386923
100
AcDbArc
 50
91.2354996724054
 51
105.9602241843322
  0
ARC
  5
E0A
102
{ACAD_REACTORS
330
E0D
102
}
330
2
100
AcDbEntity
  8
KIJUN
100
AcDbCircle
 10
63.49876851976116
 20
107.5690654535147
 30
0.0
 40
7.073935577423368
100
AcDbArc
 50
105.9602241842871
 51
123.6294293224327
  0
ARC
  5
E0B
102
{ACAD_REACTORS
330
E0D
102
}
330
2
100
AcDbEntity
  8
KIJUN
100
AcDbCircle
 10
62.26206755639972
 20
109.4283774117024
 30
0.0
 40
4.840894997711761
100
AcDbArc
 50
123.6294293224839
 51
148.097028374067
  0
ARC
  5
E0C
102
{ACAD_REACTORS
330
E0D
102
}
330
2
100
AcDbEntity
  8
KIJUN
100
AcDbCircle
 10
60.42151493558833
 20
110.5741529672077
 30
0.0
 40
2.672846203618475
100
AcDbArc
 50
148.0970283737433
 51
181.2354996723452
  0
ENDSEC
  0
SECTION
  2
OBJECTS
  0
DICTIONARY
  5
1A
330
0
100
AcDbDictionary
281
     1
  3
ACAD_COLOR
350
144
  3
ACAD_GROUP
350
18
  3
ACAD_LAYOUT
350
58
  3
ACAD_MATERIAL
350
143
  3
ACAD_MLINESTYLE
350
19
  3
ACAD_PLOTSETTINGS
350
59
  3
ACAD_PLOTSTYLENAME
350
56
  3
ACAD_TABLESTYLE
350
145
  3
ACDBHEADERROUNDTRIPXREC
350
E15
  3
AcDbVariableDictionary
350
1D1
  0
DICTIONARY
  5
1B4
330
A
100
AcDbDictionary
280
     1
281
     1
  3
ACAD_LAYERFILTERS
360
1C2
  3
ACLYDICTIONARY
360
1C1
  0
DICTIONARY
  5
D13
330
2
100
AcDbDictionary
280
     1
281
     1
  3
ACAD_SORTENTS
360
D14
  0
DICTIONARY
  5
144
102
{ACAD_REACTORS
330
1A
102
}
330
1A
100
AcDbDictionary
281
     1
  0
DICTIONARY
  5
18
102
{ACAD_REACTORS
330
1A
102
}
330
1A
100
AcDbDictionary
281
     1
  3
*A2
350
E0D
  0
DICTIONARY
  5
58
102
{ACAD_REACTORS
330
1A
102
}
330
1A
100
AcDbDictionary
281
     1
  3
Model
350
5A
  3
ﾚｲｱｳﾄ1
350
5B
  0
DICTIONARY
  5
143
102
{ACAD_REACTORS
330
1A
102
}
330
1A
100
AcDbDictionary
281
     1
  0
DICTIONARY
  5
19
102
{ACAD_REACTORS
330
1A
102
}
330
1A
100
AcDbDictionary
281
     1
  3
STANDARD
350
1D
  0
DICTIONARY
  5
59
102
{ACAD_REACTORS
330
1A
102
}
330
1A
100
AcDbDictionary
281
     1
  0
ACDBDICTIONARYWDFLT
  5
56
102
{ACAD_REACTORS
330
1A
102
}
330
1A
100
AcDbDictionary
281
     1
  3
Normal
350
57
100
AcDbDictionaryWithDefault
340
57
  0
DICTIONARY
  5
145
102
{ACAD_REACTORS
330
1A
102
}
330
1A
100
AcDbDictionary
281
     1
  3
Standard
350
146
  0
DICTIONARY
  5
E15
102
{ACAD_REACTORS
330
1A
102
}
330
1A
100
AcDbDictionary
281
     1
  0
DICTIONARY
  5
1D1
102
{ACAD_REACTORS
330
1A
102
}
330
1A
100
AcDbDictionary
281
     1
  3
CTABLESTYLE
350
1D2
  3
DIMASSOC
350
D03
  3
PROJECTNAME
350
D04
  0
DICTIONARY
  5
1C2
102
{ACAD_REACTORS
330
1B4
102
}
330
1B4
100
AcDbDictionary
281
     1
  0
DICTIONARY
  5
1C1
102
{ACAD_REACTORS
330
1B4
102
}
330
1B4
100
AcDbDictionary
281
     1
1001
ACAD
1000
<All
  0
SORTENTSTABLE
  5
D14
102
{ACAD_REACTORS
330
D13
102
}
330
D13
100
AcDbSortentsTable
330
2
331
D49
  5
DD7
331
D6B
  5
DA9
331
D8D
  5
D69
331
194
  5
D68
331
DAF
  5
D4A
331
DC9
  5
D44
331
D1E
  5
DFD
331
DEB
  5
D24
331
D40
  5
DCE
331
D5A
  5
DC0
331
D7C
  5
D92
331
D9E
  5
D59
331
DDA
  5
D2D
331
D0D
  5
E06
331
DFC
  5
D15
331
D2F
  5
DDE
331
183
  5
183
331
D69
  5
DA7
331
D8B
  5
D81
331
DAD
  5
D48
331
DC7
  5
D42
331
DE9
  5
D22
331
D1C
  5
DFB
331
D3E
  5
DCC
331
E0B
  5
1A2
331
1A3
  5
DB1
331
D7A
  5
D90
331
D58
  5
DBE
331
DBE
  5
D39
331
DD8
  5
D2B
331
D0B
  5
E04
331
DFA
  5
D11
331
D2D
  5
DDC
331
D9C
  5
D78
331
D89
  5
D7F
331
DAB
  5
D66
331
DC5
  5
D40
331
DE7
  5
D20
331
D1A
  5
DF9
331
D3C
  5
DEB
331
E09
  5
1A0
331
1A1
  5
DAF
331
D78
  5
D8E
331
D56
  5
DBC
331
D9A
  5
D76
331
DD6
  5
D29
331
DBC
  5
D57
331
D2B
  5
DF2
331
DF8
  5
D0F
331
D67
  5
DA5
331
DA9
  5
D64
331
DC3
  5
D3E
331
DE5
  5
D1E
331
D18
  5
DF7
331
D3A
  5
DE9
331
E07
  5
19E
331
19F
  5
DAD
331
D76
  5
D8C
331
D54
  5
DBA
331
D98
  5
D74
331
DBA
  5
D55
331
CDD
  5
E0C
331
DD4
  5
D37
331
D29
  5
DF0
331
DF6
  5
D0D
331
D65
  5
DA3
331
D87
  5
D7D
331
18E
  5
D27
331
DC1
  5
D3C
331
DE3
  5
D1C
331
D16
  5
DF5
331
D38
  5
DE7
331
E05
  5
197
331
D52
  5
DB8
331
19D
  5
DAB
331
D74
  5
D9A
331
D96
  5
D72
331
DB8
  5
D53
331
DD2
  5
D35
331
D27
  5
DEE
331
DF4
  5
D0B
331
D85
  5
D7B
331
D63
  5
DA1
331
DA7
  5
D62
331
DE1
  5
D1A
331
D36
  5
DE5
331
E03
  5
194
331
D50
  5
DB6
331
D72
  5
D98
331
D94
  5
D70
331
DB6
  5
D51
331
DD0
  5
D33
331
D25
  5
DEC
331
DF2
  5
1AF
331
D61
  5
D9F
331
D47
  5
DD5
331
1AC
  5
DC9
331
D83
  5
D89
331
18A
  5
1A8
331
DA5
  5
D60
331
D12
  5
E0B
331
E01
  5
18D
331
D34
  5
DE3
331
D4E
  5
DB4
331
D70
  5
D96
331
D92
  5
D6E
331
DB4
  5
D4F
331
DCE
  5
D31
331
D23
  5
E02
331
DF0
  5
1AC
331
D5F
  5
D9D
331
D45
  5
DD3
331
1AA
  5
DC7
331
D81
  5
D87
331
188
  5
1A6
331
DDF
  5
D18
331
DA3
  5
D5E
331
23
  5
23
331
D10
  5
E09
331
D32
  5
DE1
331
D4C
  5
DDA
331
D6E
  5
D94
331
197
  5
D7A
331
D90
  5
D6C
331
DB2
  5
D4D
331
DCC
  5
D47
331
D21
  5
E00
331
DEE
  5
1AA
331
D5D
  5
D9B
331
D43
  5
DD1
331
1A8
  5
DC5
331
D7F
  5
D85
331
DA1
  5
D5C
331
DFF
  5
189
331
DDD
  5
D16
331
21
  5
21
331
D30
  5
DDF
331
D4A
  5
DD8
331
D6C
  5
DAA
331
D8E
  5
D6A
331
DB0
  5
D4B
331
DCA
  5
D45
331
D1F
  5
DFE
331
DEC
  5
D25
331
D41
  5
DCF
331
D5B
  5
DC1
331
1A6
  5
DC3
331
D7D
  5
D83
331
D9F
  5
D5A
331
DDB
  5
D2E
331
D0E
  5
E07
331
DFD
  5
187
331
184
  5
184
331
1F
  5
1F
331
D48
  5
DD6
331
D6A
  5
DA8
331
D8C
  5
D82
331
DAE
  5
D49
331
DC8
  5
D43
331
DEA
  5
D23
331
D1D
  5
DFC
331
D3F
  5
DCD
331
E0C
  5
1A3
331
1A4
  5
DB2
331
D7B
  5
D91
331
D59
  5
DBF
331
D9D
  5
D58
331
DD9
  5
D2C
331
D0C
  5
E05
331
DFB
  5
D12
331
D2E
  5
DDD
331
DBF
  5
D3A
331
D68
  5
DA6
331
D8A
  5
D80
331
DAC
  5
D67
331
DC6
  5
D41
331
DE8
  5
D21
331
D1B
  5
DFA
331
D3D
  5
DCB
331
E0A
  5
1A1
331
1A2
  5
DB0
331
D79
  5
D8F
331
D9B
  5
D77
331
DD7
  5
D2A
331
DBD
  5
D38
331
D2C
  5
DF3
331
DF9
  5
D10
331
D57
  5
DBD
331
D88
  5
D7E
331
DAA
  5
D65
331
DC4
  5
D3F
331
DE6
  5
D1F
331
D19
  5
DF8
331
D3B
  5
DEA
331
E08
  5
19F
331
1A0
  5
DAE
331
D77
  5
D8D
331
D55
  5
DBB
331
D99
  5
D75
331
DD5
  5
D28
331
DBB
  5
D56
331
D2A
  5
DF1
331
DF7
  5
D0E
331
D66
  5
DA4
331
DA8
  5
D63
331
DC2
  5
D3D
331
DE4
  5
D1D
331
D17
  5
DF6
331
D39
  5
DE8
331
E06
  5
19D
331
19E
  5
DAC
331
D75
  5
D8B
331
D53
  5
DB9
331
D97
  5
D73
331
DB9
  5
D54
331
DD3
  5
D36
331
D28
  5
DEF
331
DF5
  5
D0C
331
1AF
  5
DDB
331
D86
  5
D7C
331
18D
  5
D26
331
D64
  5
DA2
331
DC0
  5
D3B
331
DE2
  5
D1B
331
D15
  5
DF4
331
D37
  5
DE6
331
E04
  5
196
331
D51
  5
DB7
331
D73
  5
D99
331
D95
  5
D71
331
DB7
  5
D52
331
DD1
  5
D34
331
D26
  5
DED
331
DF3
  5
CDD
331
1AD
  5
DCA
331
D84
  5
D8A
331
D62
  5
DA0
331
DA6
  5
D61
331
DE0
  5
D19
331
D35
  5
DE4
331
E02
  5
18E
331
D4F
  5
DB5
331
D71
  5
D97
331
D93
  5
D6F
331
DB5
  5
D50
331
DCF
  5
D32
331
D24
  5
E03
331
DF1
  5
1AD
331
D60
  5
D9E
331
D46
  5
DD4
331
1AB
  5
DC8
331
D82
  5
D88
331
189
  5
1A7
331
DA4
  5
D5F
331
D11
  5
E0A
331
E00
  5
18A
331
D33
  5
DE2
331
D4D
  5
DB3
331
D6F
  5
D95
331
D91
  5
D6D
331
DB3
  5
D4E
331
DCD
  5
D30
331
D22
  5
E01
331
DEF
  5
1AB
331
D5E
  5
D9C
331
D44
  5
DD2
331
1A9
  5
DC6
331
D80
  5
D86
331
187
  5
1A4
331
DDE
  5
D17
331
DA2
  5
D5D
331
D31
  5
DE0
331
D4B
  5
DD9
331
D6D
  5
D93
331
196
  5
D79
331
D8F
  5
D6B
331
DB1
  5
D4C
331
DCB
  5
D46
331
D20
  5
DFF
331
DED
  5
1A9
331
D5C
  5
DC2
331
D42
  5
DD0
331
1A7
  5
DC4
331
D7E
  5
D84
331
DA0
  5
D5B
331
DDC
  5
D2F
331
D0F
  5
E08
331
DFE
  5
188
331
20
  5
20
  0
GROUP
  5
E0D
102
{ACAD_REACTORS
330
18
102
}
330
18
100
AcDbGroup
300

 70
     1
 71
     1
340
D12
340
D11
340
D10
340
D0F
340
D0E
340
D0D
340
D0C
340
D0B
340
D24
340
D23
340
D22
340
D21
340
D20
340
D1F
340
D1E
340
D1D
340
D1C
340
D1B
340
D1A
340
D19
340
D18
340
D17
340
D16
340
D15
340
D2C
340
D2B
340
D2A
340
D29
340
D28
340
D27
340
D26
340
D25
340
D3C
340
D3B
340
D3A
340
D39
340
D38
340
D37
340
D36
340
D35
340
D34
340
D33
340
D32
340
D31
340
D30
340
D2F
340
D2E
340
D2D
340
1AF
340
D4C
340
D4B
340
D4A
340
D49
340
D48
340
D47
340
D46
340
D45
340
D44
340
D43
340
D42
340
D41
340
D40
340
D3F
340
D3E
340
D3D
340
1AD
340
1AC
340
1AB
340
1AA
340
1A9
340
1A8
340
1A7
340
1A6
340
D5C
340
D5B
340
D5A
340
D59
340
D58
340
D57
340
D56
340
D55
340
D54
340
D53
340
D52
340
D51
340
D50
340
D4F
340
D4E
340
D4D
340
1A4
340
1A3
340
1A2
340
1A1
340
1A0
340
19F
340
19E
340
19D
340
D6C
340
D6B
340
D6A
340
D69
340
D68
340
D67
340
D66
340
D65
340
D64
340
D63
340
D62
340
D61
340
D60
340
D5F
340
D5E
340
D5D
340
D74
340
D73
340
D72
340
D71
340
D70
340
D6F
340
D6E
340
D6D
340
D7C
340
D7B
340
D7A
340
D79
340
D78
340
D77
340
D76
340
D75
340
D84
340
D83
340
D82
340
D81
340
D80
340
D7F
340
D7E
340
D7D
340
D8C
340
D8B
340
D8A
340
D89
340
D88
340
D87
340
D86
340
D85
340
197
340
196
340
D9C
340
D9B
340
D9A
340
D99
340
D98
340
D97
340
D96
340
D95
340
D94
340
D93
340
D92
340
D91
340
D90
340
D8F
340
D8E
340
D8D
340
194
340
DAC
340
DAB
340
DAA
340
DA9
340
DA8
340
DA7
340
DA6
340
DA5
340
DA4
340
DA3
340
DA2
340
DA1
340
DA0
340
D9F
340
D9E
340
D9D
340
DBC
340
DBB
340
DBA
340
DB9
340
DB8
340
DB7
340
DB6
340
DB5
340
DB4
340
DB3
340
DB2
340
DB1
340
DB0
340
DAF
340
DAE
340
DAD
340
DCC
340
DCB
340
DCA
340
DC9
340
DC8
340
DC7
340
DC6
340
DC5
340
DC4
340
DC3
340
DC2
340
DC1
340
DC0
340
DBF
340
DBE
340
DBD
340
DD4
340
DD3
340
DD2
340
DD1
340
DD0
340
DCF
340
DCE
340
DCD
340
DDC
340
DDB
340
DDA
340
DD9
340
DD8
340
DD7
340
DD6
340
DD5
340
18E
340
18D
340
DEC
340
DEB
340
DEA
340
DE9
340
DE8
340
DE7
340
DE6
340
DE5
340
DE4
340
DE3
340
DE2
340
DE1
340
DE0
340
DDF
340
DDE
340
DDD
340
DFC
340
DFB
340
DFA
340
DF9
340
DF8
340
DF7
340
DF6
340
DF5
340
DF4
340
DF3
340
DF2
340
DF1
340
DF0
340
DEF
340
DEE
340
DED
340
18A
340
189
340
188
340
187
340
E0C
340
E0B
340
E0A
340
E09
340
E08
340
E07
340
E06
340
E05
340
E04
340
E03
340
E02
340
E01
340
E00
340
DFF
340
DFE
340
DFD
340
184
340
183
  0
LAYOUT
  5
5A
102
{ACAD_XDICTIONARY
360
E16
102
}
102
{ACAD_REACTORS
330
58
102
}
330
58
100
AcDbPlotSettings
  1

  2
なし
  4

  6

 40
0.0
 41
0.0
 42
0.0
 43
0.0
 44
0.0
 45
0.0
 46
0.0
 47
0.0
 48
0.0
 49
0.0
140
0.0
141
0.0
142
1.0
143
1.0
 70
  1712
 72
     0
 73
     0
 74
     0
  7
monochrome.ctb
 75
     0
147
1.0
148
0.0
149
0.0
100
AcDbLayout
  1
Model
 70
     1
 71
     0
 10
0.0
 20
0.0
 11
12.0
 21
9.0
 12
0.0
 22
0.0
 32
0.0
 14
0.0
 24
0.0
 34
0.0
 15
0.0
 25
0.0
 35
0.0
146
0.0
 13
0.0
 23
0.0
 33
0.0
 16
1.0
 26
0.0
 36
0.0
 17
0.0
 27
1.0
 37
0.0
 76
     0
330
2
  0
LAYOUT
  5
5B
102
{ACAD_XDICTIONARY
360
E18
102
}
102
{ACAD_REACTORS
330
58
102
}
330
58
100
AcDbPlotSettings
  1

  2
なし
  4

  6

 40
0.0
 41
0.0
 42
0.0
 43
0.0
 44
0.0
 45
0.0
 46
0.0
 47
0.0
 48
0.0
 49
0.0
140
0.0
141
0.0
142
1.0
143
1.0
 70
   688
 72
     0
 73
     0
 74
     5
  7
monochrome.ctb
 75
    16
147
1.0
148
0.0
149
0.0
100
AcDbLayout
  1
ﾚｲｱｳﾄ1
 70
     1
 71
     1
 10
0.0
 20
0.0
 11
12.0
 21
9.0
 12
0.0
 22
0.0
 32
0.0
 14
1.000000000000000E+20
 24
1.000000000000000E+20
 34
1.000000000000000E+20
 15
-1.000000000000000E+20
 25
-1.000000000000000E+20
 35
-1.000000000000000E+20
146
0.0
 13
0.0
 23
0.0
 33
0.0
 16
1.0
 26
0.0
 36
0.0
 17
0.0
 27
1.0
 37
0.0
 76
     0
330
7
  0
MLINESTYLE
  5
1D
102
{ACAD_REACTORS
330
19
102
}
330
19
100
AcDbMlineStyle
  2
STANDARD
 70
     0
  3

 62
   256
 51
90.0
 52
90.0
 71
     2
 49
0.5
 62
   256
  6
BYLAYER
 49
-0.5
 62
   256
  6
BYLAYER
  0
ACDBPLACEHOLDER
  5
57
102
{ACAD_REACTORS
330
56
102
}
330
56
  0
TABLESTYLE
  5
146
102
{ACAD_REACTORS
330
145
102
}
330
145
100
AcDbTableStyle
  3
Standard
 70
     0
 71
     0
 40
0.06
 41
0.06
280
     0
281
     0
  7
STANDARD
140
0.18
170
     2
 62
     0
 63
     7
283
     0
274
    -2
284
     1
 64
     0
275
    -2
285
     1
 65
     0
276
    -2
286
     1
 66
     0
277
    -2
287
     1
 67
     0
278
    -2
288
     1
 68
     0
279
    -2
289
     1
 69
     0
  7
STANDARD
140
0.25
170
     5
 62
     0
 63
     7
283
     0
274
    -2
284
     1
 64
     0
275
    -2
285
     1
 65
     0
276
    -2
286
     1
 66
     0
277
    -2
287
     1
 67
     0
278
    -2
288
     1
 68
     0
279
    -2
289
     1
 69
     0
  7
STANDARD
140
0.18
170
     5
 62
     0
 63
     7
283
     0
274
    -2
284
     1
 64
     0
275
    -2
285
     1
 65
     0
276
    -2
286
     1
 66
     0
277
    -2
287
     1
 67
     0
278
    -2
288
     1
 68
     0
279
    -2
289
     1
 69
     0
  0
DICTIONARYVAR
  5
1D2
102
{ACAD_REACTORS
330
1D1
102
}
330
1D1
100
DictionaryVariables
280
     0
  1
STANDARD
  0
DICTIONARYVAR
  5
D03
102
{ACAD_REACTORS
330
1D1
102
}
330
1D1
100
DictionaryVariables
280
     0
  1
1
  0
DICTIONARYVAR
  5
D04
102
{ACAD_REACTORS
330
1D1
102
}
330
1D1
100
DictionaryVariables
280
     0
  1

  0
DICTIONARY
  5
E16
330
5A
100
AcDbDictionary
280
     1
281
     1
  3
ACAD_XREC_ROUNDTRIP
360
E17
  0
DICTIONARY
  5
E18
330
5B
100
AcDbDictionary
280
     1
281
     1
  3
ACAD_XREC_ROUNDTRIP
360
E19
  0
XRECORD
  5
E17
102
{ACAD_REACTORS
330
E16
102
}
330
E16
100
AcDbXrecord
280
     1
102
SHADEPLOT
 70
     0
102
SHADEPLOTRESLEVEL
 70
     2
102
SHADEPLOTCUSTOMDPI
 70
   300
  0
XRECORD
  5
E19
102
{ACAD_REACTORS
330
E18
102
}
330
E18
100
AcDbXrecord
280
     1
102
SHADEPLOT
 70
     0
102
SHADEPLOTRESLEVEL
 70
     2
102
SHADEPLOTCUSTOMDPI
 70
   300
  0
ENDSEC
  0
EOF
