  0
SECTION
  2
HEADER
  9
$ACADVER
  1
AC1015
  9
$ACADMAINTVER
 70
    20
  9
$DWGCODEPAGE
  3
ANSI_932
  9
$INSBASE
 10
922.019522
 20
-675.4306699999999
 30
0.0
  9
$EXTMIN
 10
-36.95196692665229
 20
-0.0075636913210246
 30
-0.0000000000000053
  9
$EXTMAX
 10
152.3634814286255
 20
149.4638394504728
 30
0.0000000000000099
  9
$LIMMIN
 10
0.0
 20
0.0
  9
$LIMMAX
 10
420.0
 20
297.0
  9
$ORTHOMODE
 70
     1
  9
$REGENMODE
 70
     1
  9
$FILLMODE
 70
     1
  9
$QTEXTMODE
 70
     0
  9
$MIRRTEXT
 70
     1
  9
$LTSCALE
 40
1.0
  9
$ATTMODE
 70
     1
  9
$TEXTSIZE
 40
30.0
  9
$TRACEWID
 40
0.05
  9
$TEXTSTYLE
  7
SUNPOU
  9
$CLAYER
  8
0
  9
$CELTYPE
  6
BYLAYER
  9
$CECOLOR
 62
   256
  9
$CELTSCALE
 40
1.0
  9
$DISPSILH
 70
     0
  9
$DIMSCALE
 40
1.0
  9
$DIMASZ
 40
2.0
  9
$DIMEXO
 40
10.0
  9
$DIMDLI
 40
0.38
  9
$DIMRND
 40
0.0
  9
$DIMDLE
 40
0.0
  9
$DIMEXE
 40
0.0
  9
$DIMTP
 40
0.0
  9
$DIMTM
 40
0.0
  9
$DIMTXT
 40
5.0
  9
$DIMCEN
 40
0.0
  9
$DIMTSZ
 40
0.0
  9
$DIMTOL
 70
     0
  9
$DIMLIM
 70
     0
  9
$DIMTIH
 70
     0
  9
$DIMTOH
 70
     0
  9
$DIMSE1
 70
     0
  9
$DIMSE2
 70
     0
  9
$DIMTAD
 70
     1
  9
$DIMZIN
 70
     0
  9
$DIMBLK
  1
Dot
  9
$DIMASO
 70
     1
  9
$DIMSHO
 70
     1
  9
$DIMPOST
  1

  9
$DIMAPOST
  1

  9
$DIMALT
 70
     0
  9
$DIMALTD
 70
     2
  9
$DIMALTF
 40
25.4
  9
$DIMLFAC
 40
1.0
  9
$DIMTOFL
 70
     0
  9
$DIMTVP
 40
0.0
  9
$DIMTIX
 70
     0
  9
$DIMSOXD
 70
     0
  9
$DIMSAH
 70
     0
  9
$DIMBLK1
  1

  9
$DIMBLK2
  1

  9
$DIMSTYLE
  2
STANDARD
  9
$DIMCLRD
 70
    60
  9
$DIMCLRE
 70
    70
  9
$DIMCLRT
 70
    60
  9
$DIMTFAC
 40
0.064286
  9
$DIMGAP
 40
3.0
  9
$DIMJUST
 70
     0
  9
$DIMSD1
 70
     0
  9
$DIMSD2
 70
     0
  9
$DIMTOLJ
 70
     1
  9
$DIMTZIN
 70
     0
  9
$DIMALTZ
 70
     0
  9
$DIMALTTZ
 70
     0
  9
$DIMUPT
 70
     0
  9
$DIMDEC
 70
     0
  9
$DIMTDEC
 70
     0
  9
$DIMALTU
 70
     2
  9
$DIMALTTD
 70
     2
  9
$DIMTXSTY
  7
SUNPOU
  9
$DIMAUNIT
 70
     0
  9
$DIMADEC
 70
     0
  9
$DIMALTRND
 40
0.0
  9
$DIMAZIN
 70
     0
  9
$DIMDSEP
 70
    46
  9
$DIMATFIT
 70
     3
  9
$DIMFRAC
 70
     0
  9
$DIMLDRBLK
  1

  9
$DIMLUNIT
 70
     2
  9
$DIMLWD
 70
    -2
  9
$DIMLWE
 70
    -2
  9
$DIMTMOVE
 70
     0
  9
$LUNITS
 70
     2
  9
$LUPREC
 70
     5
  9
$SKETCHINC
 40
0.1
  9
$FILLETRAD
 40
0.0
  9
$AUNITS
 70
     0
  9
$AUPREC
 70
     0
  9
$MENU
  1
acad
  9
$ELEVATION
 40
0.0
  9
$PELEVATION
 40
0.0
  9
$THICKNESS
 40
0.0
  9
$LIMCHECK
 70
     0
  9
$CHAMFERA
 40
0.0
  9
$CHAMFERB
 40
0.0
  9
$CHAMFERC
 40
0.0
  9
$CHAMFERD
 40
0.0
  9
$SKPOLY
 70
     0
  9
$TDCREATE
 40
2450623.654673033
  9
$TDUCREATE
 40
2450623.279673032
  9
$TDUPDATE
 40
2453867.615330613
  9
$TDUUPDATE
 40
2453867.240330613
  9
$TDINDWG
 40
0.4623516667
  9
$TDUSRTIMER
 40
0.4623514931
  9
$USRTIMER
 70
     1
  9
$ANGBASE
 50
0.0
  9
$ANGDIR
 70
     0
  9
$PDMODE
 70
     0
  9
$PDSIZE
 40
0.0
  9
$PLINEWID
 40
0.0
  9
$SPLFRAME
 70
     0
  9
$SPLINETYPE
 70
     6
  9
$SPLINESEGS
 70
     8
  9
$HANDSEED
  5
35D6
  9
$SURFTAB1
 70
     6
  9
$SURFTAB2
 70
     6
  9
$SURFTYPE
 70
     6
  9
$SURFU
 70
     6
  9
$SURFV
 70
     6
  9
$UCSBASE
  2

  9
$UCSNAME
  2

  9
$UCSORG
 10
0.0
 20
0.0
 30
0.0
  9
$UCSXDIR
 10
1.0
 20
0.0
 30
0.0
  9
$UCSYDIR
 10
0.0
 20
1.0
 30
0.0
  9
$UCSORTHOREF
  2

  9
$UCSORTHOVIEW
 70
     0
  9
$UCSORGTOP
 10
0.0
 20
0.0
 30
0.0
  9
$UCSORGBOTTOM
 10
0.0
 20
0.0
 30
0.0
  9
$UCSORGLEFT
 10
0.0
 20
0.0
 30
0.0
  9
$UCSORGRIGHT
 10
0.0
 20
0.0
 30
0.0
  9
$UCSORGFRONT
 10
0.0
 20
0.0
 30
0.0
  9
$UCSORGBACK
 10
0.0
 20
0.0
 30
0.0
  9
$PUCSBASE
  2

  9
$PUCSNAME
  2

  9
$PUCSORG
 10
0.0
 20
0.0
 30
0.0
  9
$PUCSXDIR
 10
1.0
 20
0.0
 30
0.0
  9
$PUCSYDIR
 10
0.0
 20
1.0
 30
0.0
  9
$PUCSORTHOREF
  2

  9
$PUCSORTHOVIEW
 70
     0
  9
$PUCSORGTOP
 10
0.0
 20
0.0
 30
0.0
  9
$PUCSORGBOTTOM
 10
0.0
 20
0.0
 30
0.0
  9
$PUCSORGLEFT
 10
0.0
 20
0.0
 30
0.0
  9
$PUCSORGRIGHT
 10
0.0
 20
0.0
 30
0.0
  9
$PUCSORGFRONT
 10
0.0
 20
0.0
 30
0.0
  9
$PUCSORGBACK
 10
0.0
 20
0.0
 30
0.0
  9
$USERI1
 70
     0
  9
$USERI2
 70
     0
  9
$USERI3
 70
     0
  9
$USERI4
 70
     0
  9
$USERI5
 70
     0
  9
$USERR1
 40
0.0
  9
$USERR2
 40
0.0
  9
$USERR3
 40
0.0
  9
$USERR4
 40
0.0
  9
$USERR5
 40
0.0
  9
$WORLDVIEW
 70
     1
  9
$SHADEDGE
 70
     3
  9
$SHADEDIF
 70
    70
  9
$TILEMODE
 70
     1
  9
$MAXACTVP
 70
    16
  9
$PINSBASE
 10
0.0
 20
0.0
 30
0.0
  9
$PLIMCHECK
 70
     0
  9
$PEXTMIN
 10
1.000000000000000E+20
 20
1.000000000000000E+20
 30
1.000000000000000E+20
  9
$PEXTMAX
 10
-1.000000000000000E+20
 20
-1.000000000000000E+20
 30
-1.000000000000000E+20
  9
$PLIMMIN
 10
0.0
 20
0.0
  9
$PLIMMAX
 10
12.0
 20
9.0
  9
$UNITMODE
 70
     0
  9
$VISRETAIN
 70
     0
  9
$PLINEGEN
 70
     0
  9
$PSLTSCALE
 70
     1
  9
$TREEDEPTH
 70
  3020
  9
$CMLSTYLE
  2
STANDARD
  9
$CMLJUST
 70
     0
  9
$CMLSCALE
 40
1.0
  9
$PROXYGRAPHICS
 70
     1
  9
$MEASUREMENT
 70
     0
  9
$CELWEIGHT
370
    -1
  9
$ENDCAPS
280
     0
  9
$JOINSTYLE
280
     0
  9
$LWDISPLAY
290
     0
  9
$INSUNITS
 70
     0
  9
$HYPERLINKBASE
  1

  9
$STYLESHEET
  1

  9
$XEDIT
290
     1
  9
$CEPSNTYPE
380
     0
  9
$PSTYLEMODE
290
     1
  9
$FINGERPRINTGUID
  2
{FB88A696-E29C-4009-92AF-A3599A8169D5}
  9
$VERSIONGUID
  2
{5EFB18EA-60D0-4587-A725-4039FC61BE48}
  9
$EXTNAMES
290
     1
  9
$PSVPSCALE
 40
0.0
  9
$OLESTARTUP
290
     0
  0
ENDSEC
  0
SECTION
  2
CLASSES
  0
CLASS
  1
DICTIONARYVAR
  2
AcDbDictionaryVar
  3
ObjectDBX Classes
 90
        0
280
     0
281
     0
  0
CLASS
  1
ACDBDICTIONARYWDFLT
  2
AcDbDictionaryWithDefault
  3
ObjectDBX Classes
 90
        0
280
     0
281
     0
  0
CLASS
  1
ACDBPLACEHOLDER
  2
AcDbPlaceHolder
  3
ObjectDBX Classes
 90
        0
280
     0
281
     0
  0
CLASS
  1
LAYOUT
  2
AcDbLayout
  3
ObjectDBX Classes
 90
        0
280
     0
281
     0
  0
CLASS
  1
TABLESTYLE
  2
AcDbTableStyle
  3
ObjectDBX Classes
 90
     2047
280
     0
281
     0
  0
CLASS
  1
SORTENTSTABLE
  2
AcDbSortentsTable
  3
ObjectDBX Classes
 90
        0
280
     0
281
     0
  0
ENDSEC
  0
SECTION
  2
TABLES
  0
TABLE
  2
VPORT
  5
12
330
0
100
AcDbSymbolTable
 70
    24
  0
VPORT
  5
35D0
330
12
100
AcDbSymbolTableRecord
100
AcDbViewportTableRecord
  2
*Active
 70
     0
 10
0.0
 20
0.0
 11
1.0
 21
1.0
 12
57.70575725098661
 22
74.72813787957591
 13
0.0
 23
0.0
 14
1.0
 24
1.0
 15
0.0
 25
0.0
 16
0.0
 26
0.0
 36
1.0
 17
0.0
 27
0.0
 37
0.0
 40
150.6197109764299
 41
1.565384615384615
 42
50.0
 43
0.0
 44
0.0
 50
0.0
 51
0.0
 71
     0
 72
 20000
 73
     1
 74
     1
 75
     0
 76
     0
 77
     0
 78
     0
281
     0
 65
     1
110
0.0
120
0.0
130
0.0
111
1.0
121
0.0
131
0.0
112
0.0
122
1.0
132
0.0
 79
     0
146
0.0
  0
ENDTAB
  0
TABLE
  2
LTYPE
  5
D
330
0
100
AcDbSymbolTable
 70
     2
  0
LTYPE
  5
E
330
D
100
AcDbSymbolTableRecord
100
AcDbLinetypeTableRecord
  2
BYBLOCK
 70
     0
  3

 72
    65
 73
     0
 40
0.0
  0
LTYPE
  5
F
330
D
100
AcDbSymbolTableRecord
100
AcDbLinetypeTableRecord
  2
BYLAYER
 70
     0
  3

 72
    65
 73
     0
 40
0.0
  0
LTYPE
  5
5
330
D
100
AcDbSymbolTableRecord
100
AcDbLinetypeTableRecord
  2
CONTINUOUS
 70
     0
  3
Solid line
 72
    65
 73
     0
 40
0.0
  0
ENDTAB
  0
TABLE
  2
LAYER
  5
A
102
{ACAD_XDICTIONARY
360
1B4
102
}
330
0
100
AcDbSymbolTable
 70
     6
  0
LAYER
  5
4
330
A
100
AcDbSymbolTableRecord
100
AcDbLayerTableRecord
  2
0
 70
     0
 62
     7
  6
CONTINUOUS
370
    -3
390
57
  0
LAYER
  5
25
330
A
100
AcDbSymbolTableRecord
100
AcDbLayerTableRecord
  2
KIJUN
 70
     0
 62
     7
  6
CONTINUOUS
370
    -3
390
57
  0
LAYER
  5
22
330
A
100
AcDbSymbolTableRecord
100
AcDbLayerTableRecord
  2
HOJO
 70
     0
 62
     3
  6
CONTINUOUS
370
    -3
390
57
  0
LAYER
  5
1B
330
A
100
AcDbSymbolTableRecord
100
AcDbLayerTableRecord
  2
WAKU
 70
     0
 62
     1
  6
CONTINUOUS
370
    -3
390
57
  0
LAYER
  5
31
330
A
100
AcDbSymbolTableRecord
100
AcDbLayerTableRecord
  2
DEFPOINTS
 70
     0
 62
     7
  6
CONTINUOUS
290
     0
370
    -3
390
57
  0
LAYER
  5
28
330
A
100
AcDbSymbolTableRecord
100
AcDbLayerTableRecord
  2
SUNPOU
 70
     0
 62
    70
  6
CONTINUOUS
370
    -3
390
57
  0
ENDTAB
  0
TABLE
  2
STYLE
  5
B
330
0
100
AcDbSymbolTable
 70
     3
  0
STYLE
  5
C
330
B
100
AcDbSymbolTableRecord
100
AcDbTextStyleTableRecord
  2
STANDARD
 70
     0
 40
0.0
 41
1.0
 50
0.0
 71
     0
 42
0.2
  3
txt
  4

  0
STYLE
  5
1C
330
B
100
AcDbSymbolTableRecord
100
AcDbTextStyleTableRecord
  2
SUNPOU
 70
     0
 40
0.0
 41
1.0
 50
0.0
 71
     0
 42
30.0
  3
txt
  4
bigfont
  0
STYLE
  5
14A
330
B
100
AcDbSymbolTableRecord
100
AcDbTextStyleTableRecord
  2
LIFE
 70
     0
 40
0.0
 41
0.7
 50
0.0
 71
     0
 42
10.0
  3
romans
  4
extfont
  0
ENDTAB
  0
TABLE
  2
VIEW
  5
10
330
0
100
AcDbSymbolTable
 70
     0
  0
ENDTAB
  0
TABLE
  2
UCS
  5
11
330
0
100
AcDbSymbolTable
 70
     0
  0
ENDTAB
  0
TABLE
  2
APPID
  5
14
330
0
100
AcDbSymbolTable
 70
    10
  0
APPID
  5
15
330
14
100
AcDbSymbolTableRecord
100
AcDbRegAppTableRecord
  2
ACAD
 70
     0
  0
APPID
  5
1D3
330
14
100
AcDbSymbolTableRecord
100
AcDbRegAppTableRecord
  2
ACAD_DSTYLE_DIMTEXT_FILL
 70
     0
  0
APPID
  5
1D4
330
14
100
AcDbSymbolTableRecord
100
AcDbRegAppTableRecord
  2
ACAD_DSTYLE_DIMEXT_LENGTH
 70
     0
  0
APPID
  5
1D5
330
14
100
AcDbSymbolTableRecord
100
AcDbRegAppTableRecord
  2
ACAD_DSTYLE_DIMEXT_ENABLED
 70
     0
  0
APPID
  5
1D6
330
14
100
AcDbSymbolTableRecord
100
AcDbRegAppTableRecord
  2
ACAD_DSTYLE_DIM_LINETYPE
 70
     0
  0
APPID
  5
1D7
330
14
100
AcDbSymbolTableRecord
100
AcDbRegAppTableRecord
  2
ACAD_DSTYLE_DIM_EXT1_LINETYPE
 70
     0
  0
APPID
  5
1D8
330
14
100
AcDbSymbolTableRecord
100
AcDbRegAppTableRecord
  2
ACAD_DSTYLE_DIM_EXT2_LINETYPE
 70
     0
  0
APPID
  5
294
330
14
100
AcDbSymbolTableRecord
100
AcDbRegAppTableRecord
  2
ACAD_DSTYLE_DIMJOGGED_JOGANGLE_SYMBOL
 70
     0
  0
APPID
  5
478
330
14
100
AcDbSymbolTableRecord
100
AcDbRegAppTableRecord
  2
ACAD_DSTYLE_DIMARC_LENGTH_SYMBOL
 70
     0
  0
APPID
  5
F55
330
14
100
AcDbSymbolTableRecord
100
AcDbRegAppTableRecord
  2
ACAD_EXEMPT_FROM_CAD_STANDARDS
 70
     0
  0
ENDTAB
  0
TABLE
  2
DIMSTYLE
  5
16
330
0
100
AcDbSymbolTable
 70
     3
100
AcDbDimStyleTable
 71
     1
340
1E
  0
DIMSTYLE
105
1E
102
{ACAD_REACTORS
330
3578
330
3586
102
}
330
16
100
AcDbSymbolTableRecord
100
AcDbDimStyleTableRecord
  2
STANDARD
 70
     0
340
C
  0
DIMSTYLE
105
1005
330
16
100
AcDbSymbolTableRecord
100
AcDbDimStyleTableRecord
  2
1-100
 70
     0
 40
100.0
 41
0.7
 42
2.5
 43
5.0
 44
1.0
 77
     1
147
1.0
172
     1
176
     3
177
     3
271
     2
272
     2
279
     2
340
C
342
109
  0
ENDTAB
  0
TABLE
  2
BLOCK_RECORD
  5
1
330
0
100
AcDbSymbolTable
 70
    33
  0
BLOCK_RECORD
  5
2
102
{ACAD_XDICTIONARY
360
D13
102
}
330
1
100
AcDbSymbolTableRecord
100
AcDbBlockTableRecord
  2
*MODEL_SPACE
340
5A
  0
BLOCK_RECORD
  5
7
330
1
100
AcDbSymbolTableRecord
100
AcDbBlockTableRecord
  2
*PAPER_SPACE
340
5B
  0
BLOCK_RECORD
  5
109
330
1
100
AcDbSymbolTableRecord
100
AcDbBlockTableRecord
  2
_Dot
340
0
102
{BLKREFS
331
28F6
331
28F7
331
28FF
331
2900
331
29FF
331
2A00
331
2A11
331
2A12
331
2BBE
331
2BBF
331
2BC7
331
2BC8
331
2C78
331
2C79
331
2C8A
331
2C8B
331
2D85
331
2D86
331
2D97
331
2D98
331
2EBA
331
2EBB
331
2EC7
331
2EC8
331
2FA0
331
2FA1
331
2FB2
331
2FB3
331
308A
331
308B
331
309C
331
309D
331
31E3
331
31E4
331
31EC
331
31ED
331
334D
331
334E
331
3356
331
3357
331
34D1
331
34D2
331
34DA
331
34DB
331
35B2
331
35B3
331
35C4
331
35C5
102
}
  0
BLOCK_RECORD
  5
2D4D
330
1
100
AcDbSymbolTableRecord
100
AcDbBlockTableRecord
  2
*D9
340
0
  0
BLOCK_RECORD
  5
2D5A
330
1
100
AcDbSymbolTableRecord
100
AcDbBlockTableRecord
  2
*D10
340
0
  0
BLOCK_RECORD
  5
2EB6
330
1
100
AcDbSymbolTableRecord
100
AcDbBlockTableRecord
  2
*D13
340
0
  0
BLOCK_RECORD
  5
2EC3
330
1
100
AcDbSymbolTableRecord
100
AcDbBlockTableRecord
  2
*D14
340
0
  0
BLOCK_RECORD
  5
2F55
330
1
100
AcDbSymbolTableRecord
100
AcDbBlockTableRecord
  2
*D16
340
0
  0
BLOCK_RECORD
  5
2F62
330
1
100
AcDbSymbolTableRecord
100
AcDbBlockTableRecord
  2
*D17
340
0
  0
BLOCK_RECORD
  5
3050
330
1
100
AcDbSymbolTableRecord
100
AcDbBlockTableRecord
  2
*D19
340
0
  0
BLOCK_RECORD
  5
305D
330
1
100
AcDbSymbolTableRecord
100
AcDbBlockTableRecord
  2
*D20
340
0
  0
BLOCK_RECORD
  5
30FC
330
1
100
AcDbSymbolTableRecord
100
AcDbBlockTableRecord
  2
*D22
340
0
  0
BLOCK_RECORD
  5
3109
330
1
100
AcDbSymbolTableRecord
100
AcDbBlockTableRecord
  2
*D23
340
0
  0
BLOCK_RECORD
  5
3276
330
1
100
AcDbSymbolTableRecord
100
AcDbBlockTableRecord
  2
*D25
340
0
  0
BLOCK_RECORD
  5
3295
330
1
100
AcDbSymbolTableRecord
100
AcDbBlockTableRecord
  2
*D26
340
0
  0
BLOCK_RECORD
  5
33E7
330
1
100
AcDbSymbolTableRecord
100
AcDbBlockTableRecord
  2
*D28
340
0
  0
BLOCK_RECORD
  5
33F4
330
1
100
AcDbSymbolTableRecord
100
AcDbBlockTableRecord
  2
*D29
340
0
  0
BLOCK_RECORD
  5
3579
330
1
100
AcDbSymbolTableRecord
100
AcDbBlockTableRecord
  2
*D31
340
0
  0
BLOCK_RECORD
  5
3587
330
1
100
AcDbSymbolTableRecord
100
AcDbBlockTableRecord
  2
*D32
340
0
  0
ENDTAB
  0
ENDSEC
  0
SECTION
  2
BLOCKS
  0
BLOCK
  5
3
330
2
100
AcDbEntity
  8
0
100
AcDbBlockBegin
  2
*MODEL_SPACE
 70
     0
 10
0.0
 20
0.0
 30
0.0
  3
*MODEL_SPACE
  1

  0
ENDBLK
  5
6
330
2
100
AcDbEntity
  8
0
100
AcDbBlockEnd
  0
BLOCK
  5
8
330
7
100
AcDbEntity
 67
     1
  8
0
100
AcDbBlockBegin
  2
*PAPER_SPACE
 70
     0
 10
0.0
 20
0.0
 30
0.0
  3
*PAPER_SPACE
  1

  0
ENDBLK
  5
9
330
7
100
AcDbEntity
 67
     1
  8
0
100
AcDbBlockEnd
  0
BLOCK
  5
10C
330
109
100
AcDbEntity
  8
0
100
AcDbBlockBegin
  2
_Dot
 70
     0
 10
0.0
 20
0.0
 30
0.0
  3
_Dot
  1

  0
LWPOLYLINE
  5
10A
330
109
100
AcDbEntity
  8
0
  6
ByBlock
 62
     0
100
AcDbPolyline
 90
        2
 70
     1
 43
0.5
 10
-0.25
 20
0.0
 42
1.0
 10
0.25
 20
0.0
 42
1.0
  0
LINE
  5
10B
330
109
100
AcDbEntity
  8
0
  6
ByBlock
 62
     0
370
    -2
100
AcDbLine
 10
-0.5
 20
0.0
 30
0.0
 11
-1.0
 21
0.0
 31
0.0
  0
ENDBLK
  5
10D
330
109
100
AcDbEntity
  8
0
100
AcDbBlockEnd
  0
BLOCK
  5
2D57
330
2D4D
100
AcDbEntity
  8
0
100
AcDbBlockBegin
  2
*D9
 70
     1
 10
0.0
 20
0.0
 30
0.0
  3
*D9
  1

  0
LINE
  5
2D94
330
2D4D
100
AcDbEntity
  8
SUNPOU
 62
    70
370
    -2
100
AcDbLine
 10
0.1418159049885054
 20
125.6030844466623
 30
0.0
 11
0.1418159049885066
 21
145.3652734674748
 31
0.0
  0
LINE
  5
2D95
330
2D4D
100
AcDbEntity
  8
SUNPOU
 62
    70
370
    -2
100
AcDbLine
 10
148.1418159049885
 20
124.931205663816
 30
0.0
 11
148.1418159049885
 21
145.3652734674748
 31
0.0
  0
LINE
  5
2D96
330
2D4D
100
AcDbEntity
  8
SUNPOU
 62
    60
370
    -2
100
AcDbLine
 10
2.141815904988506
 20
145.3652734674748
 30
0.0
 11
146.1418159049885
 21
145.3652734674748
 31
0.0
  0
INSERT
  5
2D97
330
2D4D
100
AcDbEntity
  8
SUNPOU
 62
    60
370
    -2
100
AcDbBlockReference
  2
_Dot
 10
0.1418159049885066
 20
145.3652734674748
 30
0.0
 41
2.0
 42
2.0
 43
2.0
 50
180.0
  0
INSERT
  5
2D98
330
2D4D
100
AcDbEntity
  8
SUNPOU
 62
    60
370
    -2
100
AcDbBlockReference
  2
_Dot
 10
148.1418159049885
 20
145.3652734674748
 30
0.0
 41
2.0
 42
2.0
 43
2.0
  0
MTEXT
  5
2D99
330
2D4D
100
AcDbEntity
  8
SUNPOU
 62
    60
100
AcDbMText
 10
74.1418159049885
 20
150.8652734674748
 30
0.0
 40
5.0
 41
0.0
 71
     5
 72
     1
  1
\A1;148
  7
SUNPOU
 73
     1
 44
1.0
1001
ACAD
1000
MTEXTBEGIN
1070
    73
1070
     1
1070
    44
1040
1.0
1070
    74
1070
     0
1000
MTEXTEND
  0
POINT
  5
2D9A
330
2D4D
100
AcDbEntity
  8
DEFPOINTS
 62
     0
100
AcDbPoint
 10
0.1418159049885048
 20
115.6030844466623
 30
0.0
  0
POINT
  5
2D9B
330
2D4D
100
AcDbEntity
  8
DEFPOINTS
 62
     0
100
AcDbPoint
 10
148.1418159049885
 20
114.931205663816
 30
0.0
  0
POINT
  5
2D9C
330
2D4D
100
AcDbEntity
  8
DEFPOINTS
 62
     0
100
AcDbPoint
 10
148.1418159049885
 20
145.3652734674748
 30
0.0
  0
ENDBLK
  5
2D58
330
2D4D
100
AcDbEntity
  8
0
100
AcDbBlockEnd
  0
BLOCK
  5
2D64
330
2D5A
100
AcDbEntity
  8
0
100
AcDbBlockBegin
  2
*D10
 70
     1
 10
0.0
 20
0.0
 30
0.0
  3
*D10
  1

  0
LINE
  5
2D82
330
2D5A
100
AcDbEntity
  8
SUNPOU
 62
    70
370
    -2
100
AcDbLine
 10
-9.858184095011495
 20
115.6030844466623
 30
0.0
 11
-29.12859584432521
 21
115.6030844466623
 31
0.0
  0
LINE
  5
2D83
330
2D5A
100
AcDbEntity
  8
SUNPOU
 62
    70
370
    -2
100
AcDbLine
 10
-10.17002237899623
 20
35.60308444666254
 30
0.0
 11
-29.12859584432522
 21
35.60308444666254
 31
0.0
  0
LINE
  5
2D84
330
2D5A
100
AcDbEntity
  8
SUNPOU
 62
    60
370
    -2
100
AcDbLine
 10
-29.12859584432521
 20
113.6030844466623
 30
0.0
 11
-29.12859584432522
 21
37.60308444666254
 31
0.0
  0
INSERT
  5
2D85
330
2D5A
100
AcDbEntity
  8
SUNPOU
 62
    60
370
    -2
100
AcDbBlockReference
  2
_Dot
 10
-29.12859584432521
 20
115.6030844466623
 30
0.0
 41
2.0
 42
2.0
 43
2.0
 50
90.0
  0
INSERT
  5
2D86
330
2D5A
100
AcDbEntity
  8
SUNPOU
 62
    60
370
    -2
100
AcDbBlockReference
  2
_Dot
 10
-29.12859584432522
 20
35.60308444666254
 30
0.0
 41
2.0
 42
2.0
 43
2.0
 50
270.0
  0
MTEXT
  5
2D87
330
2D5A
100
AcDbEntity
  8
SUNPOU
 62
    60
100
AcDbMText
 10
-34.62859584432523
 20
75.60308444666244
 30
0.0
 40
5.0
 41
0.0
 71
     5
 72
     1
  1
\A1;80
  7
SUNPOU
 11
0.0000000000000001
 21
1.0
 31
0.0
 73
     1
 44
1.0
1001
ACAD
1000
MTEXTBEGIN
1070
    73
1070
     1
1070
    44
1040
1.0
1070
    74
1070
     0
1000
MTEXTEND
  0
POINT
  5
2D88
330
2D5A
100
AcDbEntity
  8
DEFPOINTS
 62
     0
100
AcDbPoint
 10
0.1418159049885048
 20
115.6030844466623
 30
0.0
  0
POINT
  5
2D89
330
2D5A
100
AcDbEntity
  8
DEFPOINTS
 62
     0
100
AcDbPoint
 10
-0.1700223789962365
 20
35.60308444666254
 30
0.0
  0
POINT
  5
2D8A
330
2D5A
100
AcDbEntity
  8
DEFPOINTS
 62
     0
100
AcDbPoint
 10
-29.12859584432522
 20
35.60308444666254
 30
0.0
  0
ENDBLK
  5
2D65
330
2D5A
100
AcDbEntity
  8
0
100
AcDbBlockEnd
  0
BLOCK
  5
2EC0
330
2EB6
100
AcDbEntity
  8
0
100
AcDbBlockBegin
  2
*D13
 70
     1
 10
0.0
 20
0.0
 30
0.0
  3
*D13
  1

  0
LINE
  5
2EB7
330
2EB6
100
AcDbEntity
  8
SUNPOU
 62
    70
370
    -2
100
AcDbLine
 10
44.62777553604053
 20
75.56064489621573
 30
0.0
 11
44.62777553604053
 21
103.3282186239353
 31
0.0
  0
LINE
  5
2EB8
330
2EB6
100
AcDbEntity
  8
SUNPOU
 62
    70
370
    -2
100
AcDbLine
 10
98.62777553604042
 20
75.56064489621566
 30
0.0
 11
98.62777553604042
 21
103.3282186239353
 31
0.0
  0
LINE
  5
2EB9
330
2EB6
100
AcDbEntity
  8
SUNPOU
 62
    60
370
    -2
100
AcDbLine
 10
46.62777553604053
 20
103.3282186239353
 30
0.0
 11
96.62777553604042
 21
103.3282186239353
 31
0.0
  0
INSERT
  5
2EBA
330
2EB6
100
AcDbEntity
  8
SUNPOU
 62
    60
370
    -2
100
AcDbBlockReference
  2
_Dot
 10
44.62777553604053
 20
103.3282186239353
 30
0.0
 41
2.0
 42
2.0
 43
2.0
 50
180.0
  0
INSERT
  5
2EBB
330
2EB6
100
AcDbEntity
  8
SUNPOU
 62
    60
370
    -2
100
AcDbBlockReference
  2
_Dot
 10
98.62777553604042
 20
103.3282186239353
 30
0.0
 41
2.0
 42
2.0
 43
2.0
  0
MTEXT
  5
2EBC
330
2EB6
100
AcDbEntity
  8
SUNPOU
 62
    60
100
AcDbMText
 10
71.62777553604048
 20
108.8282186239353
 30
0.0
 40
5.0
 41
0.0
 71
     5
 72
     1
  1
\A1;54
  7
SUNPOU
 73
     1
 44
1.0
1001
ACAD
1000
MTEXTBEGIN
1070
    73
1070
     1
1070
    44
1040
1.0
1070
    74
1070
     0
1000
MTEXTEND
  0
POINT
  5
2EBD
330
2EB6
100
AcDbEntity
  8
DEFPOINTS
 62
     0
100
AcDbPoint
 10
44.62777553604053
 20
65.56064489621573
 30
0.0
  0
POINT
  5
2EBE
330
2EB6
100
AcDbEntity
  8
DEFPOINTS
 62
     0
100
AcDbPoint
 10
98.62777553604042
 20
65.56064489621566
 30
0.0
  0
POINT
  5
2EBF
330
2EB6
100
AcDbEntity
  8
DEFPOINTS
 62
     0
100
AcDbPoint
 10
98.62777553604042
 20
103.3282186239353
 30
0.0
  0
ENDBLK
  5
2EC1
330
2EB6
100
AcDbEntity
  8
0
100
AcDbBlockEnd
  0
BLOCK
  5
2ECD
330
2EC3
100
AcDbEntity
  8
0
100
AcDbBlockBegin
  2
*D14
 70
     1
 10
0.0
 20
0.0
 30
0.0
  3
*D14
  1

  0
LINE
  5
2EC4
330
2EC3
100
AcDbEntity
  8
SUNPOU
 62
    70
370
    -2
100
AcDbLine
 10
56.46639654069609
 20
87.39926590087112
 30
0.0
 11
26.88340140478659
 21
87.39926590087113
 31
0.0
  0
LINE
  5
2EC5
330
2EC3
100
AcDbEntity
  8
SUNPOU
 62
    70
370
    -2
100
AcDbLine
 10
56.46639654069602
 20
33.39926590087123
 30
0.0
 11
26.88340140478658
 21
33.39926590087124
 31
0.0
  0
LINE
  5
2EC6
330
2EC3
100
AcDbEntity
  8
SUNPOU
 62
    60
370
    -2
100
AcDbLine
 10
26.88340140478659
 20
85.39926590087112
 30
0.0
 11
26.88340140478658
 21
35.39926590087123
 31
0.0
  0
INSERT
  5
2EC7
330
2EC3
100
AcDbEntity
  8
SUNPOU
 62
    60
370
    -2
100
AcDbBlockReference
  2
_Dot
 10
26.88340140478659
 20
87.39926590087113
 30
0.0
 41
2.0
 42
2.0
 43
2.0
 50
90.0
  0
INSERT
  5
2EC8
330
2EC3
100
AcDbEntity
  8
SUNPOU
 62
    60
370
    -2
100
AcDbBlockReference
  2
_Dot
 10
26.88340140478658
 20
33.39926590087124
 30
0.0
 41
2.0
 42
2.0
 43
2.0
 50
270.0
  0
MTEXT
  5
2EC9
330
2EC3
100
AcDbEntity
  8
SUNPOU
 62
    60
100
AcDbMText
 10
21.38340140478657
 20
60.39926590087119
 30
0.0
 40
5.0
 41
0.0
 71
     5
 72
     1
  1
\A1;54
  7
SUNPOU
 11
0.0000000000000001
 21
1.0
 31
0.0
 73
     1
 44
1.0
1001
ACAD
1000
MTEXTBEGIN
1070
    73
1070
     1
1070
    44
1040
1.0
1070
    74
1070
     0
1000
MTEXTEND
  0
POINT
  5
2ECA
330
2EC3
100
AcDbEntity
  8
DEFPOINTS
 62
     0
100
AcDbPoint
 10
66.46639654069608
 20
87.39926590087112
 30
0.0
  0
POINT
  5
2ECB
330
2EC3
100
AcDbEntity
  8
DEFPOINTS
 62
     0
100
AcDbPoint
 10
66.46639654069602
 20
33.39926590087123
 30
0.0
  0
POINT
  5
2ECC
330
2EC3
100
AcDbEntity
  8
DEFPOINTS
 62
     0
100
AcDbPoint
 10
26.88340140478658
 20
33.39926590087124
 30
0.0
  0
ENDBLK
  5
2ECE
330
2EC3
100
AcDbEntity
  8
0
100
AcDbBlockEnd
  0
BLOCK
  5
2F5F
330
2F55
100
AcDbEntity
  8
0
100
AcDbBlockBegin
  2
*D16
 70
     1
 10
0.0
 20
0.0
 30
0.0
  3
*D16
  1

  0
LINE
  5
2FAF
330
2F55
100
AcDbEntity
  8
SUNPOU
 62
    70
370
    -2
100
AcDbLine
 10
-6.955946714665485
 20
222.8416558432654
 30
0.0
 11
-6.955946714665484
 21
243.6803208305053
 31
0.0
  0
LINE
  5
2FB0
330
2F55
100
AcDbEntity
  8
SUNPOU
 62
    70
370
    -2
100
AcDbLine
 10
165.0440532853345
 20
220.4892270029193
 30
0.0
 11
165.0440532853345
 21
243.6803208305053
 31
0.0
  0
LINE
  5
2FB1
330
2F55
100
AcDbEntity
  8
SUNPOU
 62
    60
370
    -2
100
AcDbLine
 10
-4.955946714665484
 20
243.6803208305053
 30
0.0
 11
163.0440532853345
 21
243.6803208305053
 31
0.0
  0
INSERT
  5
2FB2
330
2F55
100
AcDbEntity
  8
SUNPOU
 62
    60
370
    -2
100
AcDbBlockReference
  2
_Dot
 10
-6.955946714665484
 20
243.6803208305053
 30
0.0
 41
2.0
 42
2.0
 43
2.0
 50
180.0
  0
INSERT
  5
2FB3
330
2F55
100
AcDbEntity
  8
SUNPOU
 62
    60
370
    -2
100
AcDbBlockReference
  2
_Dot
 10
165.0440532853345
 20
243.6803208305053
 30
0.0
 41
2.0
 42
2.0
 43
2.0
  0
MTEXT
  5
2FB4
330
2F55
100
AcDbEntity
  8
SUNPOU
 62
    60
100
AcDbMText
 10
79.04405328533453
 20
249.1803208305053
 30
0.0
 40
5.0
 41
0.0
 71
     5
 72
     1
  1
\A1;172
  7
SUNPOU
 73
     1
 44
1.0
1001
ACAD
1000
MTEXTBEGIN
1070
    73
1070
     1
1070
    44
1040
1.0
1070
    74
1070
     0
1000
MTEXTEND
  0
POINT
  5
2FB5
330
2F55
100
AcDbEntity
  8
DEFPOINTS
 62
     0
100
AcDbPoint
 10
-6.955946714665486
 20
212.8416558432654
 30
0.0
  0
POINT
  5
2FB6
330
2F55
100
AcDbEntity
  8
DEFPOINTS
 62
     0
100
AcDbPoint
 10
165.0440532853345
 20
210.4892270029193
 30
0.0
  0
POINT
  5
2FB7
330
2F55
100
AcDbEntity
  8
DEFPOINTS
 62
     0
100
AcDbPoint
 10
165.0440532853345
 20
243.6803208305053
 30
0.0
  0
ENDBLK
  5
2F60
330
2F55
100
AcDbEntity
  8
0
100
AcDbBlockEnd
  0
BLOCK
  5
2F6C
330
2F62
100
AcDbEntity
  8
0
100
AcDbBlockBegin
  2
*D17
 70
     1
 10
0.0
 20
0.0
 30
0.0
  3
*D17
  1

  0
LINE
  5
2F9D
330
2F62
100
AcDbEntity
  8
SUNPOU
 62
    70
370
    -2
100
AcDbLine
 10
-16.95594671466549
 20
212.8416558432654
 30
0.0
 11
-35.7209210111059
 21
212.8416558432654
 31
0.0
  0
LINE
  5
2F9E
330
2F62
100
AcDbEntity
  8
SUNPOU
 62
    70
370
    -2
100
AcDbLine
 10
-12.82070709250229
 20
42.84165584326565
 30
0.0
 11
-35.72092101110594
 21
42.84165584326566
 31
0.0
  0
LINE
  5
2F9F
330
2F62
100
AcDbEntity
  8
SUNPOU
 62
    60
370
    -2
100
AcDbLine
 10
-35.7209210111059
 20
210.8416558432654
 30
0.0
 11
-35.72092101110594
 21
44.84165584326566
 31
0.0
  0
INSERT
  5
2FA0
330
2F62
100
AcDbEntity
  8
SUNPOU
 62
    60
370
    -2
100
AcDbBlockReference
  2
_Dot
 10
-35.7209210111059
 20
212.8416558432654
 30
0.0
 41
2.0
 42
2.0
 43
2.0
 50
90.0
  0
INSERT
  5
2FA1
330
2F62
100
AcDbEntity
  8
SUNPOU
 62
    60
370
    -2
100
AcDbBlockReference
  2
_Dot
 10
-35.72092101110594
 20
42.84165584326566
 30
0.0
 41
2.0
 42
2.0
 43
2.0
 50
270.0
  0
MTEXT
  5
2FA2
330
2F62
100
AcDbEntity
  8
SUNPOU
 62
    60
100
AcDbMText
 10
-41.22092101110593
 20
127.8416558432655
 30
0.0
 40
5.0
 41
0.0
 71
     5
 72
     1
  1
\A1;170
  7
SUNPOU
 11
0.0000000000000001
 21
1.0
 31
0.0
 73
     1
 44
1.0
1001
ACAD
1000
MTEXTBEGIN
1070
    73
1070
     1
1070
    44
1040
1.0
1070
    74
1070
     0
1000
MTEXTEND
  0
POINT
  5
2FA3
330
2F62
100
AcDbEntity
  8
DEFPOINTS
 62
     0
100
AcDbPoint
 10
-6.955946714665486
 20
212.8416558432654
 30
0.0
  0
POINT
  5
2FA4
330
2F62
100
AcDbEntity
  8
DEFPOINTS
 62
     0
100
AcDbPoint
 10
-2.820707092502289
 20
42.84165584326565
 30
0.0
  0
POINT
  5
2FA5
330
2F62
100
AcDbEntity
  8
DEFPOINTS
 62
     0
100
AcDbPoint
 10
-35.72092101110594
 20
42.84165584326566
 30
0.0
  0
ENDBLK
  5
2F6D
330
2F62
100
AcDbEntity
  8
0
100
AcDbBlockEnd
  0
BLOCK
  5
305A
330
3050
100
AcDbEntity
  8
0
100
AcDbBlockBegin
  2
*D19
 70
     1
 10
0.0
 20
0.0
 30
0.0
  3
*D19
  1

  0
LINE
  5
3099
330
3050
100
AcDbEntity
  8
SUNPOU
 62
    70
370
    -2
100
AcDbLine
 10
26.77615250246225
 20
88.38649375862404
 30
0.0
 11
26.77615250246225
 21
100.1932696032997
 31
0.0
  0
LINE
  5
309A
330
3050
100
AcDbEntity
  8
SUNPOU
 62
    70
370
    -2
100
AcDbLine
 10
128.7761525024628
 20
88.67617922769978
 30
0.0
 11
128.7761525024628
 21
100.1932696032997
 31
0.0
  0
LINE
  5
309B
330
3050
100
AcDbEntity
  8
SUNPOU
 62
    60
370
    -2
100
AcDbLine
 10
28.77615250246225
 20
100.1932696032997
 30
0.0
 11
126.7761525024628
 21
100.1932696032997
 31
0.0
  0
INSERT
  5
309C
330
3050
100
AcDbEntity
  8
SUNPOU
 62
    60
370
    -2
100
AcDbBlockReference
  2
_Dot
 10
26.77615250246225
 20
100.1932696032997
 30
0.0
 41
2.0
 42
2.0
 43
2.0
 50
180.0
  0
INSERT
  5
309D
330
3050
100
AcDbEntity
  8
SUNPOU
 62
    60
370
    -2
100
AcDbBlockReference
  2
_Dot
 10
128.7761525024628
 20
100.1932696032997
 30
0.0
 41
2.0
 42
2.0
 43
2.0
  0
MTEXT
  5
309E
330
3050
100
AcDbEntity
  8
SUNPOU
 62
    60
100
AcDbMText
 10
77.77615250246253
 20
105.6932696032997
 30
0.0
 40
5.0
 41
0.0
 71
     5
 72
     1
  1
\A1;102
  7
SUNPOU
 73
     1
 44
1.0
1001
ACAD
1000
MTEXTBEGIN
1070
    73
1070
     1
1070
    44
1040
1.0
1070
    74
1070
     0
1000
MTEXTEND
  0
POINT
  5
309F
330
3050
100
AcDbEntity
  8
DEFPOINTS
 62
     0
100
AcDbPoint
 10
26.77615250246225
 20
78.38649375862404
 30
0.0
  0
POINT
  5
30A0
330
3050
100
AcDbEntity
  8
DEFPOINTS
 62
     0
100
AcDbPoint
 10
128.7761525024628
 20
78.67617922769977
 30
0.0
  0
POINT
  5
30A1
330
3050
100
AcDbEntity
  8
DEFPOINTS
 62
     0
100
AcDbPoint
 10
128.7761525024628
 20
100.1932696032997
 30
0.0
  0
ENDBLK
  5
305B
330
3050
100
AcDbEntity
  8
0
100
AcDbBlockEnd
  0
BLOCK
  5
3067
330
305D
100
AcDbEntity
  8
0
100
AcDbBlockBegin
  2
*D20
 70
     1
 10
0.0
 20
0.0
 30
0.0
  3
*D20
  1

  0
LINE
  5
3087
330
305D
100
AcDbEntity
  8
SUNPOU
 62
    70
370
    -2
100
AcDbLine
 10
16.77615250246225
 20
78.38649375862404
 30
0.0
 11
7.307928459925285
 21
78.38649375862404
 31
0.0
  0
LINE
  5
3088
330
305D
100
AcDbEntity
  8
SUNPOU
 62
    70
370
    -2
100
AcDbLine
 10
16.85609841476389
 20
46.38649375862399
 30
0.0
 11
7.307928459925278
 21
46.38649375862399
 31
0.0
  0
LINE
  5
3089
330
305D
100
AcDbEntity
  8
SUNPOU
 62
    60
370
    -2
100
AcDbLine
 10
7.307928459925284
 20
76.38649375862404
 30
0.0
 11
7.307928459925278
 21
48.38649375862399
 31
0.0
  0
INSERT
  5
308A
330
305D
100
AcDbEntity
  8
SUNPOU
 62
    60
370
    -2
100
AcDbBlockReference
  2
_Dot
 10
7.307928459925285
 20
78.38649375862404
 30
0.0
 41
2.0
 42
2.0
 43
2.0
 50
90.0
  0
INSERT
  5
308B
330
305D
100
AcDbEntity
  8
SUNPOU
 62
    60
370
    -2
100
AcDbBlockReference
  2
_Dot
 10
7.307928459925278
 20
46.38649375862399
 30
0.0
 41
2.0
 42
2.0
 43
2.0
 50
270.0
  0
MTEXT
  5
308C
330
305D
100
AcDbEntity
  8
SUNPOU
 62
    60
100
AcDbMText
 10
1.807928459925271
 20
62.38649375862401
 30
0.0
 40
5.0
 41
0.0
 71
     5
 72
     1
  1
\A1;32
  7
SUNPOU
 11
0.0000000000000001
 21
1.0
 31
0.0
 73
     1
 44
1.0
1001
ACAD
1000
MTEXTBEGIN
1070
    73
1070
     1
1070
    44
1040
1.0
1070
    74
1070
     0
1000
MTEXTEND
  0
POINT
  5
308D
330
305D
100
AcDbEntity
  8
DEFPOINTS
 62
     0
100
AcDbPoint
 10
26.77615250246225
 20
78.38649375862404
 30
0.0
  0
POINT
  5
308E
330
305D
100
AcDbEntity
  8
DEFPOINTS
 62
     0
100
AcDbPoint
 10
26.85609841476389
 20
46.38649375862399
 30
0.0
  0
POINT
  5
308F
330
305D
100
AcDbEntity
  8
DEFPOINTS
 62
     0
100
AcDbPoint
 10
7.307928459925278
 20
46.38649375862399
 30
0.0
  0
ENDBLK
  5
3068
330
305D
100
AcDbEntity
  8
0
100
AcDbBlockEnd
  0
BLOCK
  5
3106
330
30FC
100
AcDbEntity
  8
0
100
AcDbBlockBegin
  2
*D22
 70
     1
 10
0.0
 20
0.0
 30
0.0
  3
*D22
  1

  0
LINE
  5
31E0
330
30FC
100
AcDbEntity
  8
SUNPOU
 62
    70
370
    -2
100
AcDbLine
 10
5.990362397614164
 20
179.3740075797039
 30
0.0
 11
-15.86928620185925
 21
179.3740075797039
 31
0.0
  0
LINE
  5
31E1
330
30FC
100
AcDbEntity
  8
SUNPOU
 62
    70
370
    -2
100
AcDbLine
 10
4.766901656834306
 20
46.37400757970431
 30
0.0
 11
-15.86928620185928
 21
46.37400757970431
 31
0.0
  0
LINE
  5
31E2
330
30FC
100
AcDbEntity
  8
SUNPOU
 62
    60
370
    -2
100
AcDbLine
 10
-15.86928620185925
 20
177.3740075797039
 30
0.0
 11
-15.86928620185928
 21
48.37400757970431
 31
0.0
  0
INSERT
  5
31E3
330
30FC
100
AcDbEntity
  8
SUNPOU
 62
    60
370
    -2
100
AcDbBlockReference
  2
_Dot
 10
-15.86928620185925
 20
179.3740075797039
 30
0.0
 41
2.0
 42
2.0
 43
2.0
 50
90.0
  0
INSERT
  5
31E4
330
30FC
100
AcDbEntity
  8
SUNPOU
 62
    60
370
    -2
100
AcDbBlockReference
  2
_Dot
 10
-15.86928620185928
 20
46.37400757970431
 30
0.0
 41
2.0
 42
2.0
 43
2.0
 50
270.0
  0
MTEXT
  5
31E5
330
30FC
100
AcDbEntity
  8
SUNPOU
 62
    60
100
AcDbMText
 10
-21.36928620185928
 20
112.8740075797041
 30
0.0
 40
5.0
 41
0.0
 71
     5
 72
     1
  1
\A1;133
  7
SUNPOU
 11
0.0000000000000001
 21
1.0
 31
0.0
 73
     1
 44
1.0
1001
ACAD
1000
MTEXTBEGIN
1070
    73
1070
     1
1070
    44
1040
1.0
1070
    74
1070
     0
1000
MTEXTEND
  0
POINT
  5
31E6
330
30FC
100
AcDbEntity
  8
DEFPOINTS
 62
     0
100
AcDbPoint
 10
15.99036239761416
 20
179.3740075797039
 30
0.0
  0
POINT
  5
31E7
330
30FC
100
AcDbEntity
  8
DEFPOINTS
 62
     0
100
AcDbPoint
 10
14.76690165683431
 20
46.37400757970431
 30
0.0
  0
POINT
  5
31E8
330
30FC
100
AcDbEntity
  8
DEFPOINTS
 62
     0
100
AcDbPoint
 10
-15.86928620185928
 20
46.37400757970431
 30
0.0
  0
ENDBLK
  5
3107
330
30FC
100
AcDbEntity
  8
0
100
AcDbBlockEnd
  0
BLOCK
  5
3113
330
3109
100
AcDbEntity
  8
0
100
AcDbBlockBegin
  2
*D23
 70
     1
 10
0.0
 20
0.0
 30
0.0
  3
*D23
  1

  0
LINE
  5
31E9
330
3109
100
AcDbEntity
  8
SUNPOU
 62
    70
370
    -2
100
AcDbLine
 10
15.99036239761416
 20
189.3740075797039
 30
0.0
 11
15.99036239761416
 21
204.2147186650006
 31
0.0
  0
LINE
  5
31EA
330
3109
100
AcDbEntity
  8
SUNPOU
 62
    70
370
    -2
100
AcDbLine
 10
69.99036239761443
 20
189.5793105005016
 30
0.0
 11
69.99036239761443
 21
204.2147186650006
 31
0.0
  0
LINE
  5
31EB
330
3109
100
AcDbEntity
  8
SUNPOU
 62
    60
370
    -2
100
AcDbLine
 10
17.99036239761416
 20
204.2147186650006
 30
0.0
 11
67.99036239761443
 21
204.2147186650006
 31
0.0
  0
INSERT
  5
31EC
330
3109
100
AcDbEntity
  8
SUNPOU
 62
    60
370
    -2
100
AcDbBlockReference
  2
_Dot
 10
15.99036239761416
 20
204.2147186650006
 30
0.0
 41
2.0
 42
2.0
 43
2.0
 50
180.0
  0
INSERT
  5
31ED
330
3109
100
AcDbEntity
  8
SUNPOU
 62
    60
370
    -2
100
AcDbBlockReference
  2
_Dot
 10
69.99036239761443
 20
204.2147186650006
 30
0.0
 41
2.0
 42
2.0
 43
2.0
  0
MTEXT
  5
31EE
330
3109
100
AcDbEntity
  8
SUNPOU
 62
    60
100
AcDbMText
 10
42.9903623976143
 20
209.7147186650007
 30
0.0
 40
5.0
 41
0.0
 71
     5
 72
     1
  1
\A1;54
  7
SUNPOU
 73
     1
 44
1.0
1001
ACAD
1000
MTEXTBEGIN
1070
    73
1070
     1
1070
    44
1040
1.0
1070
    74
1070
     0
1000
MTEXTEND
  0
POINT
  5
31EF
330
3109
100
AcDbEntity
  8
DEFPOINTS
 62
     0
100
AcDbPoint
 10
15.99036239761416
 20
179.3740075797039
 30
0.0
  0
POINT
  5
31F0
330
3109
100
AcDbEntity
  8
DEFPOINTS
 62
     0
100
AcDbPoint
 10
69.99036239761443
 20
179.5793105005016
 30
0.0
  0
POINT
  5
31F1
330
3109
100
AcDbEntity
  8
DEFPOINTS
 62
     0
100
AcDbPoint
 10
69.99036239761443
 20
204.2147186650006
 30
0.0
  0
ENDBLK
  5
3114
330
3109
100
AcDbEntity
  8
0
100
AcDbBlockEnd
  0
BLOCK
  5
3280
330
3276
100
AcDbEntity
  8
0
100
AcDbBlockBegin
  2
*D25
 70
     1
 10
0.0
 20
0.0
 30
0.0
  3
*D25
  1

  0
LINE
  5
334A
330
3276
100
AcDbEntity
  8
SUNPOU
 62
    70
370
    -2
100
AcDbLine
 10
-68.9031625570903
 20
224.0410889786088
 30
0.0
 11
-68.9031625570903
 21
255.6383599886624
 31
0.0
  0
LINE
  5
334B
330
3276
100
AcDbEntity
  8
SUNPOU
 62
    70
370
    -2
100
AcDbLine
 10
214.0968374429097
 20
229.1482236532713
 30
0.0
 11
214.0968374429097
 21
255.6383599886624
 31
0.0
  0
LINE
  5
334C
330
3276
100
AcDbEntity
  8
SUNPOU
 62
    60
370
    -2
100
AcDbLine
 10
-66.9031625570903
 20
255.6383599886624
 30
0.0
 11
212.0968374429097
 21
255.6383599886624
 31
0.0
  0
INSERT
  5
334D
330
3276
100
AcDbEntity
  8
SUNPOU
 62
    60
370
    -2
100
AcDbBlockReference
  2
_Dot
 10
-68.9031625570903
 20
255.6383599886624
 30
0.0
 41
2.0
 42
2.0
 43
2.0
 50
180.0
  0
INSERT
  5
334E
330
3276
100
AcDbEntity
  8
SUNPOU
 62
    60
370
    -2
100
AcDbBlockReference
  2
_Dot
 10
214.0968374429097
 20
255.6383599886624
 30
0.0
 41
2.0
 42
2.0
 43
2.0
  0
MTEXT
  5
334F
330
3276
100
AcDbEntity
  8
SUNPOU
 62
    60
100
AcDbMText
 10
72.5968374429097
 20
261.1383599886624
 30
0.0
 40
5.0
 41
0.0
 71
     5
 72
     1
  1
\A1;283
  7
SUNPOU
 73
     1
 44
1.0
1001
ACAD
1000
MTEXTBEGIN
1070
    73
1070
     1
1070
    44
1040
1.0
1070
    74
1070
     0
1000
MTEXTEND
  0
POINT
  5
3350
330
3276
100
AcDbEntity
  8
DEFPOINTS
 62
     0
100
AcDbPoint
 10
-68.9031625570903
 20
214.0410889786088
 30
0.0
  0
POINT
  5
3351
330
3276
100
AcDbEntity
  8
DEFPOINTS
 62
     0
100
AcDbPoint
 10
214.0968374429097
 20
219.1482236532713
 30
0.0
  0
POINT
  5
3352
330
3276
100
AcDbEntity
  8
DEFPOINTS
 62
     0
100
AcDbPoint
 10
214.0968374429097
 20
255.6383599886624
 30
0.0
  0
ENDBLK
  5
3281
330
3276
100
AcDbEntity
  8
0
100
AcDbBlockEnd
  0
BLOCK
  5
329F
330
3295
100
AcDbEntity
  8
0
100
AcDbBlockBegin
  2
*D26
 70
     1
 10
0.0
 20
0.0
 30
0.0
  3
*D26
  1

  0
LINE
  5
3353
330
3295
100
AcDbEntity
  8
SUNPOU
 62
    70
370
    -2
100
AcDbLine
 10
-79.8360753158986
 20
138.0410888860841
 30
0.0
 11
-107.8199535032295
 21
138.0410888860841
 31
0.0
  0
LINE
  5
3354
330
3295
100
AcDbEntity
  8
SUNPOU
 62
    70
370
    -2
100
AcDbLine
 10
-78.9031625570903
 20
214.0410889786088
 30
0.0
 11
-107.8199535032295
 21
214.0410889786088
 31
0.0
  0
LINE
  5
3355
330
3295
100
AcDbEntity
  8
SUNPOU
 62
    60
370
    -2
100
AcDbLine
 10
-107.8199535032295
 20
140.0410888860841
 30
0.0
 11
-107.8199535032295
 21
212.0410889786088
 31
0.0
  0
INSERT
  5
3356
330
3295
100
AcDbEntity
  8
SUNPOU
 62
    60
370
    -2
100
AcDbBlockReference
  2
_Dot
 10
-107.8199535032295
 20
138.0410888860841
 30
0.0
 41
2.0
 42
2.0
 43
2.0
 50
270.0
  0
INSERT
  5
3357
330
3295
100
AcDbEntity
  8
SUNPOU
 62
    60
370
    -2
100
AcDbBlockReference
  2
_Dot
 10
-107.8199535032295
 20
214.0410889786088
 30
0.0
 41
2.0
 42
2.0
 43
2.0
 50
90.0
  0
MTEXT
  5
3358
330
3295
100
AcDbEntity
  8
SUNPOU
 62
    60
100
AcDbMText
 10
-113.3199535032295
 20
176.0410889323464
 30
0.0
 40
5.0
 41
0.0
 71
     5
 72
     1
  1
\A1;76
  7
SUNPOU
 11
0.0000000000000001
 21
1.0
 31
0.0
 73
     1
 44
1.0
1001
ACAD
1000
MTEXTBEGIN
1070
    73
1070
     1
1070
    44
1040
1.0
1070
    74
1070
     0
1000
MTEXTEND
  0
POINT
  5
3359
330
3295
100
AcDbEntity
  8
DEFPOINTS
 62
     0
100
AcDbPoint
 10
-69.8360753158986
 20
138.0410888860841
 30
0.0
  0
POINT
  5
335A
330
3295
100
AcDbEntity
  8
DEFPOINTS
 62
     0
100
AcDbPoint
 10
-68.9031625570903
 20
214.0410889786088
 30
0.0
  0
POINT
  5
335B
330
3295
100
AcDbEntity
  8
DEFPOINTS
 62
     0
100
AcDbPoint
 10
-107.8199535032295
 20
214.0410889786088
 30
0.0
  0
ENDBLK
  5
32A0
330
3295
100
AcDbEntity
  8
0
100
AcDbBlockEnd
  0
BLOCK
  5
33F1
330
33E7
100
AcDbEntity
  8
0
100
AcDbBlockBegin
  2
*D28
 70
     1
 10
0.0
 20
0.0
 30
0.0
  3
*D28
  1

  0
LINE
  5
34CE
330
33E7
100
AcDbEntity
  8
SUNPOU
 62
    70
370
    -2
100
AcDbLine
 10
-13.60661830403456
 20
140.7172245237277
 30
0.0
 11
-13.60661830403455
 21
154.4203747121562
 31
0.0
  0
LINE
  5
34CF
330
33E7
100
AcDbEntity
  8
SUNPOU
 62
    70
370
    -2
100
AcDbLine
 10
67.39338169596544
 20
141.0295830922748
 30
0.0
 11
67.39338169596544
 21
154.4203747121562
 31
0.0
  0
LINE
  5
34D0
330
33E7
100
AcDbEntity
  8
SUNPOU
 62
    60
370
    -2
100
AcDbLine
 10
-11.60661830403455
 20
154.4203747121562
 30
0.0
 11
65.39338169596544
 21
154.4203747121562
 31
0.0
  0
INSERT
  5
34D1
330
33E7
100
AcDbEntity
  8
SUNPOU
 62
    60
370
    -2
100
AcDbBlockReference
  2
_Dot
 10
-13.60661830403455
 20
154.4203747121562
 30
0.0
 41
2.0
 42
2.0
 43
2.0
 50
180.0
  0
INSERT
  5
34D2
330
33E7
100
AcDbEntity
  8
SUNPOU
 62
    60
370
    -2
100
AcDbBlockReference
  2
_Dot
 10
67.39338169596544
 20
154.4203747121562
 30
0.0
 41
2.0
 42
2.0
 43
2.0
  0
MTEXT
  5
34D3
330
33E7
100
AcDbEntity
  8
SUNPOU
 62
    60
100
AcDbMText
 10
26.89338169596545
 20
159.9203747121562
 30
0.0
 40
5.0
 41
0.0
 71
     5
 72
     1
  1
\A1;81
  7
SUNPOU
 73
     1
 44
1.0
1001
ACAD
1000
MTEXTBEGIN
1070
    73
1070
     1
1070
    44
1040
1.0
1070
    74
1070
     0
1000
MTEXTEND
  0
POINT
  5
34D4
330
33E7
100
AcDbEntity
  8
DEFPOINTS
 62
     0
100
AcDbPoint
 10
-13.60661830403456
 20
130.7172245237277
 30
0.0
  0
POINT
  5
34D5
330
33E7
100
AcDbEntity
  8
DEFPOINTS
 62
     0
100
AcDbPoint
 10
67.39338169596544
 20
131.0295830922748
 30
0.0
  0
POINT
  5
34D6
330
33E7
100
AcDbEntity
  8
DEFPOINTS
 62
     0
100
AcDbPoint
 10
67.39338169596544
 20
154.4203747121562
 30
0.0
  0
ENDBLK
  5
33F2
330
33E7
100
AcDbEntity
  8
0
100
AcDbBlockEnd
  0
BLOCK
  5
33FE
330
33F4
100
AcDbEntity
  8
0
100
AcDbBlockBegin
  2
*D29
 70
     1
 10
0.0
 20
0.0
 30
0.0
  3
*D29
  1

  0
LINE
  5
34D7
330
33F4
100
AcDbEntity
  8
SUNPOU
 62
    70
370
    -2
100
AcDbLine
 10
-23.60661830403456
 20
130.7172245237277
 30
0.0
 11
-40.63343382143647
 21
130.7172245237277
 31
0.0
  0
LINE
  5
34D8
330
33F4
100
AcDbEntity
  8
SUNPOU
 62
    70
370
    -2
100
AcDbLine
 10
-23.80906538472527
 20
36.71722452372772
 30
0.0
 11
-40.63343382143648
 21
36.71722452372772
 31
0.0
  0
LINE
  5
34D9
330
33F4
100
AcDbEntity
  8
SUNPOU
 62
    60
370
    -2
100
AcDbLine
 10
-40.63343382143647
 20
128.7172245237277
 30
0.0
 11
-40.63343382143648
 21
38.71722452372772
 31
0.0
  0
INSERT
  5
34DA
330
33F4
100
AcDbEntity
  8
SUNPOU
 62
    60
370
    -2
100
AcDbBlockReference
  2
_Dot
 10
-40.63343382143647
 20
130.7172245237277
 30
0.0
 41
2.0
 42
2.0
 43
2.0
 50
90.0
  0
INSERT
  5
34DB
330
33F4
100
AcDbEntity
  8
SUNPOU
 62
    60
370
    -2
100
AcDbBlockReference
  2
_Dot
 10
-40.63343382143648
 20
36.71722452372772
 30
0.0
 41
2.0
 42
2.0
 43
2.0
 50
270.0
  0
MTEXT
  5
34DC
330
33F4
100
AcDbEntity
  8
SUNPOU
 62
    60
100
AcDbMText
 10
-46.13343382143649
 20
83.7172245237277
 30
0.0
 40
5.0
 41
0.0
 71
     5
 72
     1
  1
\A1;94
  7
SUNPOU
 11
0.0000000000000001
 21
1.0
 31
0.0
 73
     1
 44
1.0
1001
ACAD
1000
MTEXTBEGIN
1070
    73
1070
     1
1070
    44
1040
1.0
1070
    74
1070
     0
1000
MTEXTEND
  0
POINT
  5
34DD
330
33F4
100
AcDbEntity
  8
DEFPOINTS
 62
     0
100
AcDbPoint
 10
-13.60661830403456
 20
130.7172245237277
 30
0.0
  0
POINT
  5
34DE
330
33F4
100
AcDbEntity
  8
DEFPOINTS
 62
     0
100
AcDbPoint
 10
-13.80906538472527
 20
36.71722452372771
 30
0.0
  0
POINT
  5
34DF
330
33F4
100
AcDbEntity
  8
DEFPOINTS
 62
     0
100
AcDbPoint
 10
-40.63343382143648
 20
36.71722452372772
 30
0.0
  0
ENDBLK
  5
33FF
330
33F4
100
AcDbEntity
  8
0
100
AcDbBlockEnd
  0
BLOCK
  5
3583
330
3579
100
AcDbEntity
  8
0
100
AcDbBlockBegin
  2
*D31
 70
     1
 10
0.0
 20
0.0
 30
0.0
  3
*D31
  1

  0
LINE
  5
35AF
330
3579
100
AcDbEntity
  8
SUNPOU
 62
    70
370
    -2
100
AcDbLine
 10
-0.6389176541695314
 20
126.8800304967673
 30
0.0
 11
-0.6389176541695305
 21
141.4469254406451
 31
0.0
  0
LINE
  5
35B0
330
3579
100
AcDbEntity
  8
SUNPOU
 62
    70
370
    -2
100
AcDbLine
 10
151.3610823458304
 20
126.5763703404513
 30
0.0
 11
151.3610823458304
 21
141.4469254406451
 31
0.0
  0
LINE
  5
35B1
330
3579
100
AcDbEntity
  8
SUNPOU
 62
    60
370
    -2
100
AcDbLine
 10
1.361082345830469
 20
141.4469254406451
 30
0.0
 11
149.3610823458304
 21
141.4469254406451
 31
0.0
  0
INSERT
  5
35B2
330
3579
100
AcDbEntity
  8
SUNPOU
 62
    60
370
    -2
100
AcDbBlockReference
  2
_Dot
 10
-0.6389176541695305
 20
141.4469254406451
 30
0.0
 41
2.0
 42
2.0
 43
2.0
 50
180.0
  0
INSERT
  5
35B3
330
3579
100
AcDbEntity
  8
SUNPOU
 62
    60
370
    -2
100
AcDbBlockReference
  2
_Dot
 10
151.3610823458304
 20
141.4469254406451
 30
0.0
 41
2.0
 42
2.0
 43
2.0
  0
MTEXT
  5
35B4
330
3579
100
AcDbEntity
  8
SUNPOU
 62
    60
100
AcDbMText
 10
75.36108234583045
 20
146.9469254406451
 30
0.0
 40
5.0
 41
0.0
 71
     5
 72
     1
  1
\A1;152
  7
SUNPOU
 73
     1
 44
1.0
1001
ACAD
1000
MTEXTBEGIN
1070
    73
1070
     1
1070
    44
1040
1.0
1070
    74
1070
     0
1000
MTEXTEND
  0
POINT
  5
35B5
330
3579
100
AcDbEntity
  8
DEFPOINTS
 62
     0
100
AcDbPoint
 10
-0.6389176541695321
 20
116.8800304967673
 30
0.0
  0
POINT
  5
35B6
330
3579
100
AcDbEntity
  8
DEFPOINTS
 62
     0
100
AcDbPoint
 10
151.3610823458304
 20
116.5763703404514
 30
0.0
  0
POINT
  5
35B7
330
3579
100
AcDbEntity
  8
DEFPOINTS
 62
     0
100
AcDbPoint
 10
151.3610823458304
 20
141.4469254406451
 30
0.0
  0
ENDBLK
  5
3584
330
3579
100
AcDbEntity
  8
0
100
AcDbBlockEnd
  0
BLOCK
  5
3591
330
3587
100
AcDbEntity
  8
0
100
AcDbBlockBegin
  2
*D32
 70
     1
 10
0.0
 20
0.0
 30
0.0
  3
*D32
  1

  0
LINE
  5
35C1
330
3587
100
AcDbEntity
  8
SUNPOU
 62
    70
370
    -2
100
AcDbLine
 10
-10.63891765416953
 20
116.8800304967673
 30
0.0
 11
-28.92678899111841
 21
116.8800304967673
 31
0.0
  0
LINE
  5
35C2
330
3587
100
AcDbEntity
  8
SUNPOU
 62
    70
370
    -2
100
AcDbLine
 10
-9.113164155751292
 20
35.88003049676734
 30
0.0
 11
-28.92678899111843
 21
35.88003049676735
 31
0.0
  0
LINE
  5
35C3
330
3587
100
AcDbEntity
  8
SUNPOU
 62
    60
370
    -2
100
AcDbLine
 10
-28.92678899111841
 20
114.8800304967673
 30
0.0
 11
-28.92678899111843
 21
37.88003049676735
 31
0.0
  0
INSERT
  5
35C4
330
3587
100
AcDbEntity
  8
SUNPOU
 62
    60
370
    -2
100
AcDbBlockReference
  2
_Dot
 10
-28.92678899111841
 20
116.8800304967673
 30
0.0
 41
2.0
 42
2.0
 43
2.0
 50
90.0
  0
INSERT
  5
35C5
330
3587
100
AcDbEntity
  8
SUNPOU
 62
    60
370
    -2
100
AcDbBlockReference
  2
_Dot
 10
-28.92678899111843
 20
35.88003049676735
 30
0.0
 41
2.0
 42
2.0
 43
2.0
 50
270.0
  0
MTEXT
  5
35C6
330
3587
100
AcDbEntity
  8
SUNPOU
 62
    60
100
AcDbMText
 10
-34.42678899111843
 20
76.38003049676735
 30
0.0
 40
5.0
 41
0.0
 71
     5
 72
     1
  1
\A1;81
  7
SUNPOU
 11
0.0000000000000001
 21
1.0
 31
0.0
 73
     1
 44
1.0
1001
ACAD
1000
MTEXTBEGIN
1070
    73
1070
     1
1070
    44
1040
1.0
1070
    74
1070
     0
1000
MTEXTEND
  0
POINT
  5
35C7
330
3587
100
AcDbEntity
  8
DEFPOINTS
 62
     0
100
AcDbPoint
 10
-0.6389176541695321
 20
116.8800304967673
 30
0.0
  0
POINT
  5
35C8
330
3587
100
AcDbEntity
  8
DEFPOINTS
 62
     0
100
AcDbPoint
 10
0.8868358442487078
 20
35.88003049676734
 30
0.0
  0
POINT
  5
35C9
330
3587
100
AcDbEntity
  8
DEFPOINTS
 62
     0
100
AcDbPoint
 10
-28.92678899111843
 20
35.88003049676735
 30
0.0
  0
ENDBLK
  5
3592
330
3587
100
AcDbEntity
  8
0
100
AcDbBlockEnd
  0
ENDSEC
  0
SECTION
  2
ENTITIES
  0
LINE
  5
1F
330
2
100
AcDbEntity
  8
WAKU
100
AcDbLine
 10
0.0
 20
14.0
 30
0.0
 11
148.6829221395387
 21
14.0
 31
0.0
  0
LINE
  5
20
330
2
100
AcDbEntity
  8
WAKU
100
AcDbLine
 10
0.0
 20
0.0
 30
0.0
 11
148.6829221395387
 21
0.0
 31
0.0
  0
TEXT
  5
21
330
2
100
AcDbEntity
  8
HOJO
100
AcDbText
 10
9.653966000000025
 20
2.366626000000024
 30
0.0
 40
9.0
  1
TWM307
  7
SUNPOU
100
AcDbText
  0
TEXT
  5
23
330
2
100
AcDbEntity
  8
HOJO
100
AcDbText
 10
85.84696046283864
 20
5.044386000000031
 30
0.0
 40
6.0
  1
152×81×5
  7
SUNPOU
100
AcDbText
  0
ARC
  5
3523
102
{ACAD_REACTORS
330
35A5
102
}
330
2
100
AcDbEntity
  8
KIJUN
100
AcDbCircle
 10
65.0432962139887
 20
106.7161364307088
 30
0.0
 40
6.952210115415532
100
AcDbArc
 50
196.0203016072003
 51
264.3685562082767
  0
ARC
  5
3524
102
{ACAD_REACTORS
330
35A5
102
}
330
2
100
AcDbEntity
  8
KIJUN
100
AcDbCircle
 10
104.4629932972325
 20
79.1867790447252
 30
0.0
 40
45.08840479680872
100
AcDbArc
 50
152.7987364494063
 51
211.59641945823
  0
ARC
  5
3525
102
{ACAD_REACTORS
330
35A5
102
}
330
2
100
AcDbEntity
  8
KIJUN
100
AcDbCircle
 10
48.23608234583071
 20
78.92247978891941
 30
0.0
 40
29.38164818385799
100
AcDbArc
 50
215.6510224107179
 51
307.3428825730279
  0
ARC
  5
3527
102
{ACAD_REACTORS
330
35A5
102
}
330
2
100
AcDbEntity
  8
KIJUN
100
AcDbCircle
 10
16.12255787306571
 20
77.88231544359632
 30
0.0
 40
3.762432089791424
100
AcDbArc
 50
30.59877195347776
 51
181.2920198483665
  0
ARC
  5
352B
102
{ACAD_REACTORS
330
35A5
102
}
330
2
100
AcDbEntity
  8
KIJUN
100
AcDbCircle
 10
42.50673924014546
 20
85.76295238426226
 30
0.0
 40
50.96779292341897
100
AcDbArc
 50
297.5224727845081
 51
310.1364322433669
  0
SPLINE
  5
352C
102
{ACAD_REACTORS
330
35A5
102
}
330
2
100
AcDbEntity
  8
KIJUN
100
AcDbSpline
210
0.0
220
0.0
230
1.0
 70
     8
 71
     3
 72
    11
 73
     7
 74
     5
 42
0.0000000001
 43
0.0000000001
 44
0.0000000001
 40
0.0
 40
0.0
 40
0.0
 40
0.0
 40
16.15549442140351
 40
26.83746200939093
 40
30.36898406775327
 40
33.43151171219559
 40
33.43151171219559
 40
33.43151171219559
 40
33.43151171219559
 10
75.36108234583071
 20
60.7974797889193
 30
0.0
 10
72.61775760765226
 20
65.68960775801466
 30
0.0
 10
68.06055424885278
 20
73.81639701565157
 30
0.0
 10
69.86722730725381
 20
84.02314269660307
 30
0.0
 10
72.17546025674209
 20
89.70779028909239
 30
0.0
 10
74.35078072841952
 20
90.45189106767017
 30
0.0
 10
75.36108234583071
 20
90.7974797889193
 30
0.0
 11
75.36108234583071
 21
60.7974797889193
 31
0.0
 11
69.36108234583071
 21
75.7974797889193
 31
0.0
 11
70.88762709439288
 21
86.36980652816886
 31
0.0
 11
72.60936053936302
 21
89.45319459864766
 31
0.0
 11
75.36108234583071
 21
90.7974797889193
 31
0.0
  0
ARC
  5
352D
102
{ACAD_REACTORS
330
35A5
102
}
330
2
100
AcDbEntity
  8
KIJUN
100
AcDbCircle
 10
54.95306524107945
 20
107.6746587766924
 30
0.0
 40
3.611507869469098
100
AcDbArc
 50
274.8674278393464
 51
151.9518107255201
  0
SPLINE
  5
352E
102
{ACAD_REACTORS
330
35A5
102
}
330
2
100
AcDbEntity
  8
KIJUN
100
AcDbSpline
210
0.0
220
0.0
230
1.0
 70
     8
 71
     3
 72
    18
 73
    14
 74
    12
 42
0.0000000001
 43
0.0000000001
 44
0.0000000001
 40
0.0
 40
0.0
 40
0.0
 40
0.0
 40
2.359524203417288
 40
5.199601359497298
 40
7.137901648283486
 40
10.55578567655287
 40
13.64024199054377
 40
16.85466631036
 40
18.567538952855
 40
22.5111403985164
 40
26.95389808809963
 40
32.42680554827691
 40
35.17442601198029
 40
35.17442601198029
 40
35.17442601198029
 40
35.17442601198029
 10
51.76572020880098
 20
109.3728403737092
 30
0.0
 10
51.85905365166945
 20
110.1566880456608
 30
0.0
 10
52.06472931107686
 20
111.8840258770829
 30
0.0
 10
53.70993279927432
 20
113.9733935467795
 30
0.0
 10
56.5529350029808
 20
114.3694953270645
 30
0.0
 10
59.30248390599763
 20
113.0072827446138
 30
0.0
 10
60.78856472013029
 20
109.8534965702203
 30
0.0
 10
60.0873058035421
 20
107.0927071665399
 30
0.0
 10
61.40994738673248
 20
104.3576635993553
 30
0.0
 10
63.44460070683249
 20
101.6755284739635
 30
0.0
 10
67.95846901996611
 20
99.37864515018791
 30
0.0
 10
72.1198077768525
 20
101.2701251269913
 30
0.0
 10
74.54911372364404
 20
102.4754347146827
 30
0.0
 10
75.36108234583071
 20
102.8782961025284
 30
0.0
 11
51.76572020880098
 21
109.3728403737092
 31
0.0
 11
52.25015699310233
 21
111.6820990141667
 31
0.0
 11
54.11423018075902
 21
113.8248237756671
 31
0.0
 11
56.02490767835206
 21
114.1508905015074
 31
0.0
 11
59.10063015897185
 21
112.660299191688
 31
0.0
 11
60.40548199773866
 21
109.8654409785071
 31
0.0
 11
60.45208428298519
 21
106.6513544932307
 31
0.0
 11
61.1045102023686
 21
105.0676016371561
 31
0.0
 11
63.57440904885152
 21
101.9932574712623
 31
0.0
 11
67.62877142089109
 21
100.1766007495506
 31
0.0
 11
72.89478106120441
 21
101.6671907454218
 31
0.0
 11
75.36108234583071
 21
102.8782961025284
 31
0.0
  0
ARC
  5
352F
102
{ACAD_REACTORS
330
35A5
102
}
330
2
100
AcDbEntity
  8
KIJUN
100
AcDbCircle
 10
30.70078408802169
 20
67.67331879751407
 30
0.0
 40
4.500000000000206
100
AcDbArc
 50
314.2703822727629
 51
270.0000000000782
  0
SPLINE
  5
3530
102
{ACAD_REACTORS
330
35A5
102
}
330
2
100
AcDbEntity
  8
KIJUN
100
AcDbSpline
210
0.0
220
0.0
230
1.0
 70
     8
 71
     3
 72
    20
 73
    16
 74
    14
 42
0.0000000001
 43
0.0000000001
 44
0.0000000001
 40
0.0
 40
0.0
 40
0.0
 40
0.0
 40
4.623084909620364
 40
11.8942133155923
 40
16.75856825016528
 40
20.37104818078303
 40
26.70206053499049
 40
30.64597157829251
 40
36.57057326154407
 40
43.20730157540832
 40
49.38010074058466
 40
62.54383857523138
 40
72.33697926253452
 40
89.52731915123477
 40
99.09731523282673
 40
99.09731523282673
 40
99.09731523282673
 40
99.09731523282673
 10
30.70078408802192
 20
63.17331879751407
 30
0.0
 10
32.41217310280774
 20
63.14390518848925
 30
0.0
 10
36.81521271937743
 20
63.06823023400276
 30
0.0
 10
37.69828817184202
 20
70.67514739133435
 30
0.0
 10
34.65570716315472
 20
75.15383753274673
 30
0.0
 10
29.87184588362959
 20
77.05125322694073
 30
0.0
 10
24.86348613008255
 20
75.88061949122104
 30
0.0
 10
21.25318380502347
 20
71.55106731647771
 30
0.0
 10
20.7193904633761
 20
65.80428298139702
 30
0.0
 10
21.89522156417258
 20
59.67574312995341
 30
0.0
 10
25.77844467777072
 20
51.6503709462194
 30
0.0
 10
35.26652840194334
 20
47.15118338542533
 30
0.0
 10
48.25667763677092
 20
44.55761974106375
 30
0.0
 10
61.15656827878542
 20
46.6878035832765
 30
0.0
 10
68.13498134800858
 20
52.34129044063396
 30
0.0
 10
70.6305922328022
 20
54.36308295969297
 30
0.0
 11
30.70078408802192
 21
63.17331879751407
 31
0.0
 11
35.26444908180383
 21
63.91215295081849
 31
0.0
 11
36.75383114941769
 21
71.02910801269729
 31
0.0
 11
34.05135820969963
 21
75.07368326105108
 31
0.0
 11
30.70078408802192
 21
76.42411441600109
 31
0.0
 11
24.54005389933537
 21
74.9656491365605
 31
0.0
 11
21.99490745624144
 21
71.95289891447339
 31
0.0
 11
21.00817892904979
 21
66.11104373663704
 31
0.0
 11
22.22261419518509
 21
59.58637441962071
 31
0.0
 11
25.08046992931486
 21
54.11498427300319
 31
0.0
 11
36.34812178155926
 21
47.30880946508626
 31
0.0
 11
45.96750605841544
 21
45.47222277900675
 31
0.0
 11
62.82845258391626
 21
48.82129246374609
 31
0.0
 11
70.6305922328022
 21
54.36308295969297
 31
0.0
  0
ARC
  5
3531
102
{ACAD_REACTORS
330
35A5
102
}
330
2
100
AcDbEntity
  8
KIJUN
100
AcDbCircle
 10
103.7691746464747
 20
79.12939549065811
 30
0.0
 40
41.38296976002815
100
AcDbArc
 50
157.5208819165011
 51
226.6488184486521
  0
ARC
  5
3532
102
{ACAD_REACTORS
330
35A5
102
}
330
2
100
AcDbEntity
  8
KIJUN
100
AcDbCircle
 10
75.93377908611251
 20
88.62126585240208
 30
0.0
 40
12.17810843930463
100
AcDbArc
 50
92.69542785045979
 51
148.6779113478536
  0
SPLINE
  5
3533
102
{ACAD_REACTORS
330
35A5
102
}
330
2
100
AcDbEntity
  8
KIJUN
100
AcDbSpline
210
0.0
220
0.0
230
1.0
 70
     8
 71
     3
 72
    16
 73
    12
 74
    10
 42
0.0000000001
 43
0.0000000001
 44
0.0000000001
 40
0.0
 40
0.0
 40
0.0
 40
0.0
 40
8.567181396427319
 40
16.0179288037842
 40
25.00821491876047
 40
34.32938151736708
 40
45.46070162563064
 40
58.58770799357785
 40
73.61745824188793
 40
85.86215154742232
 40
96.52830934377293
 40
96.52830934377293
 40
96.52830934377293
 40
96.52830934377293
 10
19.36108234583048
 20
79.79747978891919
 30
0.0
 10
17.66378406258207
 20
77.47336739266009
 30
0.0
 10
14.49037126765796
 20
73.12800978055264
 30
0.0
 10
12.05914542413433
 20
65.05434908155345
 30
0.0
 10
12.30935495988899
 20
56.02950521644213
 30
0.0
 10
18.68023144867311
 20
48.02546173398378
 30
0.0
 10
27.73172319614884
 20
41.29778088139032
 30
0.0
 10
40.56443933943643
 20
37.53048778174224
 30
0.0
 10
54.28893338625442
 20
37.80885120903181
 30
0.0
 10
66.31374219416443
 20
42.40404101622858
 30
0.0
 10
72.48708132961747
 20
46.930204452702
 30
0.0
 10
75.36108234583071
 20
49.03736202667471
 30
0.0
 11
19.36108234583048
 21
79.79747978891919
 31
0.0
 11
14.73152310087607
 21
72.58888920013226
 31
0.0
 11
12.56986505502891
 21
65.45861070479566
 31
0.0
 11
13.21836307618969
 21
56.49174420943143
 31
0.0
 11
18.51442923666127
 21
48.82129246374609
 31
0.0
 11
27.48531549235622
 21
42.23118721875823
 31
0.0
 11
40.02294187678262
 21
38.34194296972203
 31
0.0
 11
55.04647835467221
 21
38.77408209558041
 31
0.0
 11
66.5032747038299
 21
43.09546284257851
 31
0.0
 11
75.36108234583071
 21
49.03736202667471
 31
0.0
  0
ARC
  5
3534
102
{ACAD_REACTORS
330
35A5
102
}
330
2
100
AcDbEntity
  8
KIJUN
100
AcDbCircle
 10
5.080188710283891
 20
59.12446053037115
 30
0.0
 40
3.611507869469098
100
AcDbArc
 50
274.8674278393464
 51
151.9518107255201
  0
SPLINE
  5
3535
102
{ACAD_REACTORS
330
35A5
102
}
330
2
100
AcDbEntity
  8
KIJUN
100
AcDbSpline
210
0.0
220
0.0
230
1.0
 70
     8
 71
     3
 72
    13
 73
     9
 74
     7
 42
0.0000000001
 43
0.0000000001
 44
0.0000000001
 40
0.0
 40
0.0
 40
0.0
 40
0.0
 40
2.56075614588647
 40
5.30209162349398
 40
7.975712731631697
 40
11.03396517889341
 40
15.4201197365931
 40
23.67211104652254
 40
23.67211104652254
 40
23.67211104652254
 40
23.67211104652254
 10
1.892843678005419
 20
60.82264212738789
 30
0.0
 10
2.165540060992896
 20
61.64877004332768
 30
0.0
 10
2.730162823030411
 20
63.35928274094441
 30
0.0
 10
5.125242838456017
 20
64.98880715620652
 30
0.0
 10
8.239390333820153
 20
64.65416257917533
 30
0.0
 10
10.29672633541679
 20
61.61550700940018
 30
0.0
 10
10.84814726631157
 20
56.29002475334593
 30
0.0
 10
14.10423254279203
 20
53.29087346879259
 30
0.0
 10
16.23027125822796
 20
51.33259805430407
 30
0.0
 11
1.892843678005419
 21
60.82264212738789
 31
0.0
 11
2.950626555838425
 21
63.15471575874233
 31
0.0
 11
5.23888238113659
 21
64.66428704847283
 31
0.0
 11
7.893258814532146
 21
64.34407527524479
 31
0.0
 11
9.815394031732921
 21
61.96535624224009
 31
0.0
 11
11.05105209640623
 21
57.75685283232849
 31
0.0
 11
16.23027125822796
 21
51.33259805430407
 31
0.0
  0
SPLINE
  5
3536
102
{ACAD_REACTORS
330
35A5
102
}
330
2
100
AcDbEntity
  8
KIJUN
100
AcDbSpline
210
0.0
220
0.0
230
1.0
 70
     8
 71
     3
 72
     9
 73
     5
 74
     3
 42
0.0000000001
 43
0.0000000001
 44
0.0000000001
 40
0.0
 40
0.0
 40
0.0
 40
0.0
 40
2.545458753005333
 40
5.301339917635701
 40
5.301339917635701
 40
5.301339917635701
 40
5.301339917635701
 10
12.36108234583071
 20
77.7974797889193
 30
0.0
 10
12.3186628350831
 20
76.9427693683736
 30
0.0
 10
12.23031717033905
 20
75.16269319738544
 30
0.0
 10
12.77434065777618
 20
73.46390161031374
 30
0.0
 10
13.05714917513933
 20
72.58079133815988
 30
0.0
 11
12.36108234583071
 21
77.7974797889193
 31
0.0
 11
12.3796150774815
 21
75.25208850247452
 31
0.0
 11
13.05714917513933
 21
72.58079133815988
 31
0.0
  0
SPLINE
  5
3537
102
{ACAD_REACTORS
330
35A5
102
}
330
2
100
AcDbEntity
  8
KIJUN
100
AcDbSpline
210
0.0
220
0.0
230
1.0
 70
     8
 71
     3
 72
    10
 73
     6
 74
     4
 42
0.0000000001
 43
0.0000000001
 44
0.0000000001
 40
0.0
 40
0.0
 40
0.0
 40
0.0
 40
3.109344935836741
 40
10.33032946624564
 40
20.29300731799054
 40
20.29300731799054
 40
20.29300731799054
 40
20.29300731799054
 10
19.36108234583048
 20
79.79747978891919
 30
0.0
 10
18.28265964090212
 20
79.63687581922255
 30
0.0
 10
14.69976289715697
 20
79.10329335899714
 30
0.0
 10
12.61836539477798
 20
71.31914155240275
 30
0.0
 10
11.74822079785889
 20
65.91673201404448
 30
0.0
 10
11.2437317017193
 20
62.78454373794364
 30
0.0
 11
19.36108234583048
 21
79.79747978891919
 31
0.0
 11
16.35441928831551
 21
79.00501326685764
 31
0.0
 11
13.05714917513955
 21
72.58079133815988
 31
0.0
 11
11.2437317017193
 21
62.78454373794364
 31
0.0
  0
SPLINE
  5
3538
102
{ACAD_REACTORS
330
35A5
102
}
330
2
100
AcDbEntity
  8
KIJUN
100
AcDbSpline
210
0.0
220
0.0
230
1.0
 70
     8
 71
     3
 72
     9
 73
     5
 74
     3
 42
0.0000000001
 43
0.0000000001
 44
0.0000000001
 40
0.0
 40
0.0
 40
0.0
 40
0.0
 40
2.125728586424946
 40
6.929560421462535
 40
6.929560421462535
 40
6.929560421462535
 40
6.929560421462535
 10
8.361082345830709
 20
68.79747978891919
 30
0.0
 10
8.954589465034416
 20
68.37234430590727
 30
0.0
 10
10.88933478922803
 20
66.98646558382953
 30
0.0
 10
11.09863613743169
 20
64.50487537693954
 30
0.0
 10
11.2437317017193
 20
62.78454373794364
 30
0.0
 11
8.361082345830709
 21
68.79747978891919
 31
0.0
 11
9.979233955460586
 21
67.41896341564086
 31
0.0
 11
11.2437317017193
 21
62.78454373794364
 31
0.0
  0
ARC
  5
3539
102
{ACAD_REACTORS
330
35A5
102
}
330
2
100
AcDbEntity
  8
KIJUN
100
AcDbCircle
 10
46.95299004518665
 20
79.12939549065811
 30
0.0
 40
41.38296976002815
100
AcDbArc
 50
324.0828574479668
 51
22.47911808349893
  0
ARC
  5
353A
102
{ACAD_REACTORS
330
35A5
102
}
330
2
100
AcDbEntity
  8
KIJUN
100
AcDbCircle
 10
46.2591713944289
 20
79.1867790447252
 30
0.0
 40
45.08840479680872
100
AcDbArc
 50
328.4035805417699
 51
27.20126355059362
  0
SPLINE
  5
353B
102
{ACAD_REACTORS
330
35A5
102
}
330
2
100
AcDbEntity
  8
KIJUN
100
AcDbSpline
210
0.0
220
0.0
230
1.0
 70
     8
 71
     3
 72
    20
 73
    16
 74
    14
 42
0.0000000001
 43
0.0000000001
 44
0.0000000001
 40
0.0
 40
0.0
 40
0.0
 40
0.0
 40
4.623084909620364
 40
11.8942133155923
 40
16.75856825016528
 40
20.37104818078303
 40
26.70206053499049
 40
30.64597157829251
 40
36.57057326154407
 40
43.20730157540832
 40
49.38010074058466
 40
62.54383857523138
 40
72.33697926253452
 40
89.52731915123477
 40
106.8621358966423
 40
106.8621358966423
 40
106.8621358966423
 40
106.8621358966423
 10
120.0213806036395
 20
63.17331879751407
 30
0.0
 10
118.309991591962
 20
63.14390519033132
 30
0.0
 10
113.9069519833892
 20
63.06823024058407
 30
0.0
 10
113.023876455226
 20
70.67514735305422
 30
0.0
 10
116.0664576655656
 20
75.15383761397237
 30
0.0
 10
120.8503183225859
 20
77.05125293924957
 30
0.0
 10
125.8586814197888
 20
75.88062118509032
 30
0.0
 10
129.4689733890486
 20
71.55106287315962
 30
0.0
 10
130.0028214331589
 20
65.80431095655836
 30
0.0
 10
128.8267517713423
 20
59.67562972600447
 30
0.0
 10
124.9446879571985
 20
51.65094458127327
 30
0.0
 10
115.4482084166714
 20
47.14678138344742
 30
0.0
 10
102.4911619566159
 20
44.5728355326459
 30
0.0
 10
86.64348035313777
 20
47.0325197653718
 30
0.0
 10
79.13235890384516
 20
56.19637716648123
 30
0.0
 10
75.36108234583071
 20
60.7974797889193
 30
0.0
 11
120.0213806036395
 21
63.17331879751407
 31
0.0
 11
115.4577156098576
 21
63.91215295081849
 31
0.0
 11
113.9683335422437
 21
71.02910801269729
 31
0.0
 11
116.6708064819618
 21
75.07368326105108
 31
0.0
 11
120.0213806036395
 21
76.42411441600109
 31
0.0
 11
126.182110792326
 21
74.9656491365605
 31
0.0
 11
128.72725723542
 21
71.95289891447339
 31
0.0
 11
129.7139857626116
 21
66.11104373663704
 31
0.0
 11
128.4995504964763
 21
59.58637441962071
 31
0.0
 11
125.6416947623465
 21
54.11498427300319
 31
0.0
 11
114.3740429101021
 21
47.30880946508626
 31
0.0
 11
104.754658633246
 21
45.47222277900675
 31
0.0
 11
87.89371210774516
 21
48.82129246374609
 31
0.0
 11
75.36108234583071
 21
60.7974797889193
 31
0.0
  0
SPLINE
  5
353C
102
{ACAD_REACTORS
330
35A5
102
}
330
2
100
AcDbEntity
  8
KIJUN
100
AcDbSpline
210
0.0
220
0.0
230
1.0
 70
     8
 71
     3
 72
    16
 73
    12
 74
    10
 42
0.0000000001
 43
0.0000000001
 44
0.0000000001
 40
0.0
 40
0.0
 40
0.0
 40
0.0
 40
8.567181396427319
 40
16.0179288037842
 40
25.00821491876047
 40
34.32938151736708
 40
45.46070162563064
 40
58.58770799357785
 40
73.61745824188793
 40
85.86215154742232
 40
96.52830934377293
 40
96.52830934377293
 40
96.52830934377293
 40
96.52830934377293
 10
131.3610823458309
 20
79.79747978891919
 30
0.0
 10
133.0583806290793
 20
77.47336739266009
 30
0.0
 10
136.2317934240034
 20
73.12800978055264
 30
0.0
 10
138.6630192675271
 20
65.05434908155345
 30
0.0
 10
138.4128097317724
 20
56.02950521644213
 30
0.0
 10
132.0419332429883
 20
48.02546173398378
 30
0.0
 10
122.9904414955125
 20
41.29778088139032
 30
0.0
 10
110.157725352225
 20
37.53048778174224
 30
0.0
 10
96.433231305407
 20
37.80885120903181
 30
0.0
 10
84.40842249749692
 20
42.40404101622858
 30
0.0
 10
78.23508336204395
 20
46.930204452702
 30
0.0
 10
75.36108234583071
 20
49.03736202667471
 30
0.0
 11
131.3610823458309
 21
79.79747978891919
 31
0.0
 11
135.9906415907853
 21
72.58888920013226
 31
0.0
 11
138.1522996366325
 21
65.45861070479566
 31
0.0
 11
137.5038016154717
 21
56.49174420943143
 31
0.0
 11
132.2077354550001
 21
48.82129246374609
 31
0.0
 11
123.2368491993052
 21
42.23118721875823
 31
0.0
 11
110.6992228148788
 21
38.34194296972203
 31
0.0
 11
95.6756863369892
 21
38.77408209558041
 31
0.0
 11
84.21888998783151
 21
43.09546284257851
 31
0.0
 11
75.36108234583071
 21
49.03736202667471
 31
0.0
  0
ARC
  5
353D
102
{ACAD_REACTORS
330
35A5
102
}
330
2
100
AcDbEntity
  8
KIJUN
100
AcDbCircle
 10
102.4860823458307
 20
78.92247978891941
 30
0.0
 40
29.38164818385799
100
AcDbArc
 50
232.6571174269721
 51
324.3489775892822
  0
ARC
  5
3540
102
{ACAD_REACTORS
330
35A5
102
}
330
2
100
AcDbEntity
  8
KIJUN
100
AcDbCircle
 10
120.0213806036397
 20
67.67331879751407
 30
0.0
 40
4.500000000000206
100
AcDbArc
 50
269.9999999999219
 51
225.7296177272372
  0
SPLINE
  5
3541
102
{ACAD_REACTORS
330
35A5
102
}
330
2
100
AcDbEntity
  8
KIJUN
100
AcDbSpline
210
0.0
220
0.0
230
1.0
 70
     8
 71
     3
 72
     9
 73
     5
 74
     3
 42
0.0000000001
 43
0.0000000001
 44
0.0000000001
 40
0.0
 40
0.0
 40
0.0
 40
0.0
 40
2.125728586424946
 40
6.929560421462535
 40
6.929560421462535
 40
6.929560421462535
 40
6.929560421462535
 10
142.3610823458307
 20
68.79747978891919
 30
0.0
 10
141.767575226627
 20
68.37234430590727
 30
0.0
 10
139.8328299024333
 20
66.98646558382953
 30
0.0
 10
139.6235285542297
 20
64.50487537693954
 30
0.0
 10
139.4784329899421
 20
62.78454373794364
 30
0.0
 11
142.3610823458307
 21
68.79747978891919
 31
0.0
 11
140.7429307362008
 21
67.41896341564086
 31
0.0
 11
139.4784329899421
 21
62.78454373794364
 31
0.0
  0
SPLINE
  5
3542
102
{ACAD_REACTORS
330
35A5
102
}
330
2
100
AcDbEntity
  8
KIJUN
100
AcDbSpline
210
0.0
220
0.0
230
1.0
 70
     8
 71
     3
 72
    10
 73
     6
 74
     4
 42
0.0000000001
 43
0.0000000001
 44
0.0000000001
 40
0.0
 40
0.0
 40
0.0
 40
0.0
 40
3.109344935836741
 40
10.33032946624564
 40
20.29300731799054
 40
20.29300731799054
 40
20.29300731799054
 40
20.29300731799054
 10
131.3610823458309
 20
79.79747978891919
 30
0.0
 10
132.4395050507593
 20
79.63687581922255
 30
0.0
 10
136.0224017945044
 20
79.10329335899714
 30
0.0
 10
138.1037992968834
 20
71.31914155240275
 30
0.0
 10
138.9739438938024
 20
65.91673201404448
 30
0.0
 10
139.4784329899421
 20
62.78454373794364
 30
0.0
 11
131.3610823458309
 21
79.79747978891919
 31
0.0
 11
134.3677454033459
 21
79.00501326685764
 31
0.0
 11
137.6650155165218
 21
72.58079133815988
 31
0.0
 11
139.4784329899421
 21
62.78454373794364
 31
0.0
  0
SPLINE
  5
3543
102
{ACAD_REACTORS
330
35A5
102
}
330
2
100
AcDbEntity
  8
KIJUN
100
AcDbSpline
210
0.0
220
0.0
230
1.0
 70
     8
 71
     3
 72
     9
 73
     5
 74
     3
 42
0.0000000001
 43
0.0000000001
 44
0.0000000001
 40
0.0
 40
0.0
 40
0.0
 40
0.0
 40
2.545458753005333
 40
5.301339917635701
 40
5.301339917635701
 40
5.301339917635701
 40
5.301339917635701
 10
138.3610823458307
 20
77.7974797889193
 30
0.0
 10
138.4035018565783
 20
76.9427693683736
 30
0.0
 10
138.4918475213223
 20
75.16269319738544
 30
0.0
 10
137.9478240338852
 20
73.46390161031374
 30
0.0
 10
137.6650155165221
 20
72.58079133815988
 30
0.0
 11
138.3610823458307
 21
77.7974797889193
 31
0.0
 11
138.3425496141799
 21
75.25208850247452
 31
0.0
 11
137.6650155165221
 21
72.58079133815988
 31
0.0
  0
SPLINE
  5
3544
102
{ACAD_REACTORS
330
35A5
102
}
330
2
100
AcDbEntity
  8
KIJUN
100
AcDbSpline
210
0.0
220
0.0
230
1.0
 70
     8
 71
     3
 72
    13
 73
     9
 74
     7
 42
0.0000000001
 43
0.0000000001
 44
0.0000000001
 40
0.0
 40
0.0
 40
0.0
 40
0.0
 40
2.56075614588647
 40
5.30209162349398
 40
7.975712731631697
 40
11.03396517889341
 40
15.4201197365931
 40
23.67211104652254
 40
23.67211104652254
 40
23.67211104652254
 40
23.67211104652254
 10
148.829321013656
 20
60.82264212738789
 30
0.0
 10
148.5566246306685
 20
61.64877004332768
 30
0.0
 10
147.992001868631
 20
63.35928274094441
 30
0.0
 10
145.5969218532054
 20
64.98880715620652
 30
0.0
 10
142.4827743578412
 20
64.65416257917533
 30
0.0
 10
140.4254383562446
 20
61.61550700940018
 30
0.0
 10
139.8740174253498
 20
56.29002475334593
 30
0.0
 10
136.6179321488694
 20
53.29087346879259
 30
0.0
 10
134.4918934334334
 20
51.33259805430407
 30
0.0
 11
148.829321013656
 21
60.82264212738789
 31
0.0
 11
147.771538135823
 21
63.15471575874233
 31
0.0
 11
145.4832823105248
 21
64.66428704847283
 31
0.0
 11
142.8289058771293
 21
64.34407527524479
 31
0.0
 11
140.9067706599285
 21
61.96535624224009
 31
0.0
 11
139.6711125952551
 21
57.75685283232849
 31
0.0
 11
134.4918934334334
 21
51.33259805430407
 31
0.0
  0
ARC
  5
3545
102
{ACAD_REACTORS
330
35A5
102
}
330
2
100
AcDbEntity
  8
KIJUN
100
AcDbCircle
 10
145.6419759813775
 20
59.12446053037115
 30
0.0
 40
3.611507869469098
100
AcDbArc
 50
28.0481892744799
 51
265.1325721606536
  0
ARC
  5
3548
102
{ACAD_REACTORS
330
35A5
102
}
330
2
100
AcDbEntity
  8
KIJUN
100
AcDbCircle
 10
134.5996068185957
 20
77.88231544359632
 30
0.0
 40
3.762432089791424
100
AcDbArc
 50
358.7079801516335
 51
149.4012280465222
  0
SPLINE
  5
3549
102
{ACAD_REACTORS
330
35A5
102
}
330
2
100
AcDbEntity
  8
KIJUN
100
AcDbSpline
210
0.0
220
0.0
230
1.0
 70
     8
 71
     3
 72
    11
 73
     7
 74
     5
 42
0.0000000001
 43
0.0000000001
 44
0.0000000001
 40
0.0
 40
0.0
 40
0.0
 40
0.0
 40
16.15549442140351
 40
26.83746200939093
 40
30.36898406775327
 40
33.43151171219559
 40
33.43151171219559
 40
33.43151171219559
 40
33.43151171219559
 10
75.36108234583071
 20
60.7974797889193
 30
0.0
 10
78.10440708400915
 20
65.68960775801466
 30
0.0
 10
82.66161044280876
 20
73.81639701565157
 30
0.0
 10
80.85493738440755
 20
84.02314269660307
 30
0.0
 10
78.54670443491932
 20
89.70779028909239
 30
0.0
 10
76.37138396324189
 20
90.45189106767017
 30
0.0
 10
75.36108234583071
 20
90.7974797889193
 30
0.0
 11
75.36108234583071
 21
60.7974797889193
 31
0.0
 11
81.36108234583071
 21
75.7974797889193
 31
0.0
 11
79.83453759726853
 21
86.36980652816886
 31
0.0
 11
78.11280415229839
 21
89.45319459864766
 31
0.0
 11
75.36108234583071
 21
90.7974797889193
 31
0.0
  0
ARC
  5
354B
102
{ACAD_REACTORS
330
35A5
102
}
330
2
100
AcDbEntity
  8
KIJUN
100
AcDbCircle
 10
95.76909945058195
 20
107.6746587766924
 30
0.0
 40
3.611507869469098
100
AcDbArc
 50
28.0481892744799
 51
265.1325721606536
  0
SPLINE
  5
354C
102
{ACAD_REACTORS
330
35A5
102
}
330
2
100
AcDbEntity
  8
KIJUN
100
AcDbSpline
210
0.0
220
0.0
230
1.0
 70
     8
 71
     3
 72
    18
 73
    14
 74
    12
 42
0.0000000001
 43
0.0000000001
 44
0.0000000001
 40
0.0
 40
0.0
 40
0.0
 40
0.0
 40
2.359524203417288
 40
5.199601359497298
 40
7.137901648283486
 40
10.55578567655287
 40
13.64024199054377
 40
16.85466631036
 40
18.567538952855
 40
22.5111403985164
 40
26.95389808809963
 40
32.42680554827691
 40
35.17442601198029
 40
35.17442601198029
 40
35.17442601198029
 40
35.17442601198029
 10
98.95644448286043
 20
109.3728403737092
 30
0.0
 10
98.86311103999197
 20
110.1566880456608
 30
0.0
 10
98.65743538058461
 20
111.8840258770829
 30
0.0
 10
97.01223189238703
 20
113.9733935467795
 30
0.0
 10
94.16922968868062
 20
114.3694953270645
 30
0.0
 10
91.41968078566378
 20
113.0072827446138
 30
0.0
 10
89.93359997153111
 20
109.8534965702203
 30
0.0
 10
90.6348588881193
 20
107.0927071665399
 30
0.0
 10
89.31221730492893
 20
104.3576635993553
 30
0.0
 10
87.27756398482899
 20
101.6755284739635
 30
0.0
 10
82.76369567169529
 20
99.37864515018791
 30
0.0
 10
78.60235691480887
 20
101.2701251269913
 30
0.0
 10
76.17305096801738
 20
102.4754347146827
 30
0.0
 10
75.36108234583071
 20
102.8782961025284
 30
0.0
 11
98.95644448286043
 21
109.3728403737092
 31
0.0
 11
98.47200769855909
 21
111.6820990141667
 31
0.0
 11
96.6079345109024
 21
113.8248237756671
 31
0.0
 11
94.69725701330935
 21
114.1508905015074
 31
0.0
 11
91.62153453268956
 21
112.660299191688
 31
0.0
 11
90.31668269392275
 21
109.8654409785071
 31
0.0
 11
90.27008040867622
 21
106.6513544932307
 31
0.0
 11
89.61765448929282
 21
105.0676016371561
 31
0.0
 11
87.14775564280989
 21
101.9932574712623
 31
0.0
 11
83.09339327077031
 21
100.1766007495506
 31
0.0
 11
77.82738363045701
 21
101.6671907454218
 31
0.0
 11
75.36108234583071
 21
102.8782961025284
 31
0.0
  0
ARC
  5
354D
102
{ACAD_REACTORS
330
35A5
102
}
330
2
100
AcDbEntity
  8
KIJUN
100
AcDbCircle
 10
74.78838560554891
 20
88.62126585240208
 30
0.0
 40
12.17810843930463
100
AcDbArc
 50
31.32208865214654
 51
87.30457214954022
  0
ARC
  5
354E
102
{ACAD_REACTORS
330
35A5
102
}
330
2
100
AcDbEntity
  8
KIJUN
100
AcDbCircle
 10
85.67886847767272
 20
106.7161364307088
 30
0.0
 40
6.952210115415532
100
AcDbArc
 50
275.6314437917233
 51
343.9796983927997
  0
ARC
  5
3553
102
{ACAD_REACTORS
330
35A5
102
}
330
2
100
AcDbEntity
  8
KIJUN
100
AcDbCircle
 10
46.62963780222457
 20
78.5245869951759
 30
0.0
 40
42.64455649840855
100
AcDbArc
 50
209.0808588116019
 51
297.1039676951501
  0
ARC
  5
3555
102
{ACAD_REACTORS
330
35A5
102
}
330
2
100
AcDbEntity
  8
KIJUN
100
AcDbCircle
 10
56.19790781387135
 20
107.6852581020907
 30
0.0
 40
9.194772394676647
100
AcDbArc
 50
57.54153284434271
 51
137.1751782245698
  0
ARC
  5
3557
102
{ACAD_REACTORS
330
35A5
102
}
330
2
100
AcDbEntity
  8
KIJUN
100
AcDbCircle
 10
70.57224585793007
 20
131.3081706490716
 30
0.0
 40
18.46049719125524
100
AcDbArc
 50
239.2467912259159
 51
261.1098022706773
  0
ARC
  5
355A
102
{ACAD_REACTORS
330
35A5
102
}
330
2
100
AcDbEntity
  8
KIJUN
100
AcDbCircle
 10
73.38690685992398
 20
164.8211185251566
 30
0.0
 40
52.0610829334897
100
AcDbArc
 50
263.7501727337426
 51
272.1731981518599
  0
ARC
  5
355B
102
{ACAD_REACTORS
330
35A5
102
}
330
2
100
AcDbEntity
  8
KIJUN
100
AcDbCircle
 10
53.37501355990348
 20
110.8046409044706
 30
0.0
 40
5.017518136766199
100
AcDbArc
 50
141.3923974197287
 51
199.7581745222129
  0
ARC
  5
355C
102
{ACAD_REACTORS
330
35A5
102
}
330
2
100
AcDbEntity
  8
KIJUN
100
AcDbCircle
 10
55.27643479990925
 20
110.9377145023545
 30
0.0
 40
6.871501496662894
100
AcDbArc
 50
195.4387613435049
 51
296.6734157961968
  0
ARC
  5
355E
102
{ACAD_REACTORS
330
35A5
102
}
330
2
100
AcDbEntity
  8
KIJUN
100
AcDbCircle
 10
4.740494561731516
 20
61.01658208844082
 30
0.0
 40
5.631380921705706
100
AcDbArc
 50
210.7038277127363
 51
325.1355843078237
  0
ARC
  5
355F
102
{ACAD_REACTORS
330
35A5
102
}
330
2
100
AcDbEntity
  8
KIJUN
100
AcDbCircle
 10
6.92157292565983
 20
60.9408218379594
 30
0.0
 40
7.560490579829362
100
AcDbArc
 50
135.0187076149827
 51
201.7339180431266
  0
ARC
  5
3561
102
{ACAD_REACTORS
330
35A5
102
}
330
2
100
AcDbEntity
  8
KIJUN
100
AcDbCircle
 10
8.387064604403844
 20
58.30277147473641
 30
0.0
 40
10.49474047690259
100
AcDbArc
 50
90.14184965149846
 51
130.4822137914083
  0
ARC
  5
3562
102
{ACAD_REACTORS
330
35A5
102
}
330
2
100
AcDbEntity
  8
KIJUN
100
AcDbCircle
 10
15.52490689237671
 20
71.00244665712105
 30
0.0
 40
7.495482707842299
100
AcDbArc
 50
114.9670827131867
 51
197.1079393376566
  0
ARC
  5
3563
102
{ACAD_REACTORS
330
35A5
102
}
330
2
100
AcDbEntity
  8
KIJUN
100
AcDbCircle
 10
28.84790368773758
 20
70.46854387193066
 30
0.0
 40
13.30521794321837
100
AcDbArc
 50
31.51222078268489
 51
135.4807649281542
  0
ARC
  5
3564
102
{ACAD_REACTORS
330
35A5
102
}
330
2
100
AcDbEntity
  8
KIJUN
100
AcDbCircle
 10
36.86450925258734
 20
94.47667809607962
 30
0.0
 40
34.98950823334495
100
AcDbArc
 50
249.0625901300194
 51
260.8778987391464
  0
ARC
  5
3565
102
{ACAD_REACTORS
330
35A5
102
}
330
2
100
AcDbEntity
  8
KIJUN
100
AcDbCircle
 10
33.29390561738546
 20
73.65301338793398
 30
0.0
 40
13.86493733771699
100
AcDbArc
 50
261.8039467443529
 51
292.5249997375398
  0
ARC
  5
3566
102
{ACAD_REACTORS
330
35A5
102
}
330
2
100
AcDbEntity
  8
KIJUN
100
AcDbCircle
 10
36.17819161265071
 20
66.66467538905462
 30
0.0
 40
6.304804503687771
100
AcDbArc
 50
292.6421129111536
 51
349.2057505700446
  0
ARC
  5
3567
102
{ACAD_REACTORS
330
35A5
102
}
330
2
100
AcDbEntity
  8
KIJUN
100
AcDbCircle
 10
25.43809864351392
 20
68.55993868469702
 30
0.0
 40
17.2104640252263
100
AcDbArc
 50
349.7041443612983
 51
30.99587449909372
  0
ARC
  5
3568
102
{ACAD_REACTORS
330
35A5
102
}
330
2
100
AcDbEntity
  8
KIJUN
100
AcDbCircle
 10
108.2154254515154
 20
85.76295238426226
 30
0.0
 40
50.96779292341896
100
AcDbArc
 50
229.8635677566328
 51
242.4775272154923
  0
ARC
  5
3569
102
{ACAD_REACTORS
330
35A5
102
}
330
2
100
AcDbEntity
  8
KIJUN
100
AcDbCircle
 10
104.0925268894363
 20
78.5245869951759
 30
0.0
 40
42.64455649840854
100
AcDbArc
 50
242.8960323048504
 51
330.9191411883979
  0
ARC
  5
356A
102
{ACAD_REACTORS
330
35A5
102
}
330
2
100
AcDbEntity
  8
KIJUN
100
AcDbCircle
 10
94.52425687778957
 20
107.6852581020907
 30
0.0
 40
9.194772394676645
100
AcDbArc
 50
42.82482177543049
 51
122.4584671556572
  0
ARC
  5
356B
102
{ACAD_REACTORS
330
35A5
102
}
330
2
100
AcDbEntity
  8
KIJUN
100
AcDbCircle
 10
80.14991883373085
 20
131.3081706490716
 30
0.0
 40
18.46049719125523
100
AcDbArc
 50
278.8901977293224
 51
300.7532087740838
  0
ARC
  5
356C
102
{ACAD_REACTORS
330
35A5
102
}
330
2
100
AcDbEntity
  8
KIJUN
100
AcDbCircle
 10
77.33525783173694
 20
164.8211185251566
 30
0.0
 40
52.06108293348968
100
AcDbArc
 50
267.8268018481396
 51
276.2498272662574
  0
ARC
  5
356D
102
{ACAD_REACTORS
330
35A5
102
}
330
2
100
AcDbEntity
  8
KIJUN
100
AcDbCircle
 10
97.34715113175745
 20
110.8046409044706
 30
0.0
 40
5.017518136766198
100
AcDbArc
 50
340.2418254777871
 51
38.60760258027108
  0
ARC
  5
356E
102
{ACAD_REACTORS
330
35A5
102
}
330
2
100
AcDbEntity
  8
KIJUN
100
AcDbCircle
 10
95.44572989175167
 20
110.9377145023545
 30
0.0
 40
6.871501496662892
100
AcDbArc
 50
243.3265842038029
 51
344.5612386564952
  0
ARC
  5
356F
102
{ACAD_REACTORS
330
35A5
102
}
330
2
100
AcDbEntity
  8
KIJUN
100
AcDbCircle
 10
145.9816701299294
 20
61.01658208844082
 30
0.0
 40
5.631380921705705
100
AcDbArc
 50
214.8644156921767
 51
329.2961722872634
  0
ARC
  5
3570
102
{ACAD_REACTORS
330
35A5
102
}
330
2
100
AcDbEntity
  8
KIJUN
100
AcDbCircle
 10
143.8005917660011
 20
60.9408218379594
 30
0.0
 40
7.560490579829361
100
AcDbArc
 50
338.2660819568735
 51
44.98129238501701
  0
ARC
  5
3571
102
{ACAD_REACTORS
330
35A5
102
}
330
2
100
AcDbEntity
  8
KIJUN
100
AcDbCircle
 10
142.335100087257
 20
58.30277147473641
 30
0.0
 40
10.49474047690259
100
AcDbArc
 50
49.51778620859189
 51
89.85815034850091
  0
ARC
  5
3572
102
{ACAD_REACTORS
330
35A5
102
}
330
2
100
AcDbEntity
  8
KIJUN
100
AcDbCircle
 10
135.1972577992842
 20
71.00244665712105
 30
0.0
 40
7.495482707842297
100
AcDbArc
 50
342.8920606623434
 51
65.03291728681277
  0
ARC
  5
3573
102
{ACAD_REACTORS
330
35A5
102
}
330
2
100
AcDbEntity
  8
KIJUN
100
AcDbCircle
 10
121.8742610039233
 20
70.46854387193066
 30
0.0
 40
13.30521794321836
100
AcDbArc
 50
44.51923507184615
 51
148.4877792173152
  0
ARC
  5
3574
102
{ACAD_REACTORS
330
35A5
102
}
330
2
100
AcDbEntity
  8
KIJUN
100
AcDbCircle
 10
113.8576554390736
 20
94.47667809607962
 30
0.0
 40
34.98950823334494
100
AcDbArc
 50
279.1221012608531
 51
290.9374098699808
  0
ARC
  5
3575
102
{ACAD_REACTORS
330
35A5
102
}
330
2
100
AcDbEntity
  8
KIJUN
100
AcDbCircle
 10
117.4282590742754
 20
73.65301338793398
 30
0.0
 40
13.86493733771699
100
AcDbArc
 50
247.4750002624596
 51
278.1960532556469
  0
ARC
  5
3576
102
{ACAD_REACTORS
330
35A5
102
}
330
2
100
AcDbEntity
  8
KIJUN
100
AcDbCircle
 10
114.5439730790102
 20
66.66467538905462
 30
0.0
 40
6.304804503687769
100
AcDbArc
 50
190.7942494299553
 51
247.3578870888459
  0
ARC
  5
3577
102
{ACAD_REACTORS
330
35A5
102
}
330
2
100
AcDbEntity
  8
KIJUN
100
AcDbCircle
 10
125.284066048147
 20
68.55993868469702
 30
0.0
 40
17.2104640252263
100
AcDbArc
 50
149.0041255009064
 51
190.2958556387018
  0
DIMENSION
  5
3578
330
2
100
AcDbEntity
  8
SUNPOU
100
AcDbDimension
  2
*D31
 10
151.3610823458304
 20
141.4469254406451
 30
0.0
 11
75.36108234583045
 21
146.9469254406451
 31
0.0
 70
    32
 71
     5
 42
151.9999999999999
  3
STANDARD
100
AcDbAlignedDimension
 13
-0.6389176541695321
 23
116.8800304967673
 33
0.0
 14
151.3610823458304
 24
116.5763703404514
 34
0.0
100
AcDbRotatedDimension
1001
ACAD
1000
DSTYLE
1002
{
1070
    41
1040
2.0
1070
    42
1040
10.0
1070
    44
1040
0.0
1070
    73
1070
     0
1070
    74
1070
     0
1070
    77
1070
     1
1070
   140
1040
5.0
1070
   141
1040
0.0
1070
   146
1040
0.064286
1070
   147
1040
3.0
1070
   176
1070
    60
1070
   177
1070
    70
1070
   178
1070
    60
1070
   271
1070
     0
1070
   272
1070
     0
1070
   340
1005
1C
1070
   342
1005
109
1002
}
  0
DIMENSION
  5
3586
330
2
100
AcDbEntity
  8
SUNPOU
100
AcDbDimension
  2
*D32
 10
-28.92678899111843
 20
35.88003049676735
 30
0.0
 11
-34.42678899111843
 21
76.38003049676735
 31
0.0
 70
    32
 71
     5
 42
81.00000000000003
  3
STANDARD
100
AcDbAlignedDimension
 13
-0.6389176541695321
 23
116.8800304967673
 33
0.0
 14
0.8868358442487078
 24
35.88003049676734
 34
0.0
 50
90.0
100
AcDbRotatedDimension
1001
ACAD
1000
DSTYLE
1002
{
1070
    41
1040
2.0
1070
    42
1040
10.0
1070
    44
1040
0.0
1070
    73
1070
     0
1070
    74
1070
     0
1070
    77
1070
     1
1070
   140
1040
5.0
1070
   141
1040
0.0
1070
   146
1040
0.064286
1070
   147
1040
3.0
1070
   176
1070
    60
1070
   177
1070
    70
1070
   178
1070
    60
1070
   271
1070
     0
1070
   272
1070
     0
1070
   340
1005
1C
1070
   342
1005
109
1002
}
  0
ENDSEC
  0
SECTION
  2
OBJECTS
  0
DICTIONARY
  5
1A
330
0
100
AcDbDictionary
281
     1
  3
ACAD_COLOR
350
144
  3
ACAD_GROUP
350
18
  3
ACAD_LAYOUT
350
58
  3
ACAD_MATERIAL
350
143
  3
ACAD_MLINESTYLE
350
19
  3
ACAD_PLOTSETTINGS
350
59
  3
ACAD_PLOTSTYLENAME
350
56
  3
ACAD_TABLESTYLE
350
145
  3
ACDBHEADERROUNDTRIPXREC
350
35D1
  3
AcDbVariableDictionary
350
1D1
  0
DICTIONARY
  5
1B4
330
A
100
AcDbDictionary
280
     1
281
     1
  3
ACAD_LAYERFILTERS
360
1A2A
  3
ACLYDICTIONARY
360
1A29
  0
DICTIONARY
  5
D13
330
2
100
AcDbDictionary
280
     1
281
     1
  3
ACAD_SORTENTS
360
D14
  0
DICTIONARY
  5
144
102
{ACAD_REACTORS
330
1A
102
}
330
1A
100
AcDbDictionary
281
     1
  0
DICTIONARY
  5
18
102
{ACAD_REACTORS
330
1A
102
}
330
1A
100
AcDbDictionary
281
     1
  3
*A1
350
E0D
  3
*A10
350
2905
  3
*A11
350
2A17
  3
*A12
350
213E
  3
*A13
350
2B84
  3
*A14
350
2C6B
  3
*A15
350
2D78
  3
*A16
350
22C8
  3
*A17
350
241A
  3
*A18
350
24D6
  3
*A19
350
2573
  3
*A2
350
1EFE
  3
*A20
350
265A
  3
*A21
350
26DD
  3
*A22
350
275E
  3
*A23
350
2EE1
  3
*A24
350
2F81
  3
*A25
350
307D
  3
*A26
350
3181
  3
*A27
350
31DF
  3
*A28
350
32E4
  3
*A29
350
3349
  3
*A3
350
2037
  3
*A30
350
3467
  3
*A31
350
34BB
  3
*A32
350
35A5
  3
*A4
350
FF8
  3
*A5
350
136A
  3
*A6
350
1555
  3
*A7
350
17BC
  3
*A8
350
1A98
  3
*A9
350
1CBC
  0
DICTIONARY
  5
58
102
{ACAD_REACTORS
330
1A
102
}
330
1A
100
AcDbDictionary
281
     1
  3
Model
350
5A
  3
ﾚｲｱｳﾄ1
350
5B
  0
DICTIONARY
  5
143
102
{ACAD_REACTORS
330
1A
102
}
330
1A
100
AcDbDictionary
281
     1
  0
DICTIONARY
  5
19
102
{ACAD_REACTORS
330
1A
102
}
330
1A
100
AcDbDictionary
281
     1
  3
STANDARD
350
1D
  0
DICTIONARY
  5
59
102
{ACAD_REACTORS
330
1A
102
}
330
1A
100
AcDbDictionary
281
     1
  0
ACDBDICTIONARYWDFLT
  5
56
102
{ACAD_REACTORS
330
1A
102
}
330
1A
100
AcDbDictionary
281
     1
  3
Normal
350
57
100
AcDbDictionaryWithDefault
340
57
  0
DICTIONARY
  5
145
102
{ACAD_REACTORS
330
1A
102
}
330
1A
100
AcDbDictionary
281
     1
  3
Standard
350
146
  0
DICTIONARY
  5
35D1
102
{ACAD_REACTORS
330
1A
102
}
330
1A
100
AcDbDictionary
281
     1
  0
DICTIONARY
  5
1D1
102
{ACAD_REACTORS
330
1A
102
}
330
1A
100
AcDbDictionary
281
     1
  3
CTABLESTYLE
350
1D2
  3
DIMASSOC
350
D03
  3
PROJECTNAME
350
D04
  0
DICTIONARY
  5
1A2A
102
{ACAD_REACTORS
330
1B4
102
}
330
1B4
100
AcDbDictionary
281
     1
  0
DICTIONARY
  5
1A29
102
{ACAD_REACTORS
330
1B4
102
}
330
1B4
100
AcDbDictionary
281
     1
1001
ACAD
1000
<All
  0
SORTENTSTABLE
  5
D14
102
{ACAD_REACTORS
330
D13
102
}
330
D13
100
AcDbSortentsTable
330
2
331
23
  5
23
331
21
  5
21
331
1F
  5
1F
331
20
  5
20
  0
GROUP
  5
E0D
102
{ACAD_REACTORS
330
18
102
}
330
18
100
AcDbGroup
300

 70
     1
 71
     1
  0
GROUP
  5
2905
102
{ACAD_REACTORS
330
18
102
}
330
18
100
AcDbGroup
300

 70
     1
 71
     1
  0
GROUP
  5
2A17
102
{ACAD_REACTORS
330
18
102
}
330
18
100
AcDbGroup
300

 70
     1
 71
     1
  0
GROUP
  5
213E
102
{ACAD_REACTORS
330
18
102
}
330
18
100
AcDbGroup
300

 70
     1
 71
     1
  0
GROUP
  5
2B84
102
{ACAD_REACTORS
330
18
102
}
330
18
100
AcDbGroup
300

 70
     1
 71
     1
  0
GROUP
  5
2C6B
102
{ACAD_REACTORS
330
18
102
}
330
18
100
AcDbGroup
300

 70
     1
 71
     1
  0
GROUP
  5
2D78
102
{ACAD_REACTORS
330
18
102
}
330
18
100
AcDbGroup
300

 70
     1
 71
     1
  0
GROUP
  5
22C8
102
{ACAD_REACTORS
330
18
102
}
330
18
100
AcDbGroup
300

 70
     1
 71
     1
  0
GROUP
  5
241A
102
{ACAD_REACTORS
330
18
102
}
330
18
100
AcDbGroup
300

 70
     1
 71
     1
  0
GROUP
  5
24D6
102
{ACAD_REACTORS
330
18
102
}
330
18
100
AcDbGroup
300

 70
     1
 71
     1
  0
GROUP
  5
2573
102
{ACAD_REACTORS
330
18
102
}
330
18
100
AcDbGroup
300

 70
     1
 71
     1
  0
GROUP
  5
1EFE
102
{ACAD_REACTORS
330
18
102
}
330
18
100
AcDbGroup
300

 70
     1
 71
     1
  0
GROUP
  5
265A
102
{ACAD_REACTORS
330
18
102
}
330
18
100
AcDbGroup
300

 70
     1
 71
     1
  0
GROUP
  5
26DD
102
{ACAD_REACTORS
330
18
102
}
330
18
100
AcDbGroup
300

 70
     1
 71
     1
  0
GROUP
  5
275E
102
{ACAD_REACTORS
330
18
102
}
330
18
100
AcDbGroup
300

 70
     1
 71
     1
  0
GROUP
  5
2EE1
102
{ACAD_REACTORS
330
18
102
}
330
18
100
AcDbGroup
300

 70
     1
 71
     1
  0
GROUP
  5
2F81
102
{ACAD_REACTORS
330
18
102
}
330
18
100
AcDbGroup
300

 70
     1
 71
     1
  0
GROUP
  5
307D
102
{ACAD_REACTORS
330
18
102
}
330
18
100
AcDbGroup
300

 70
     1
 71
     1
  0
GROUP
  5
3181
102
{ACAD_REACTORS
330
18
102
}
330
18
100
AcDbGroup
300

 70
     1
 71
     1
  0
GROUP
  5
31DF
102
{ACAD_REACTORS
330
18
102
}
330
18
100
AcDbGroup
300

 70
     1
 71
     1
  0
GROUP
  5
32E4
102
{ACAD_REACTORS
330
18
102
}
330
18
100
AcDbGroup
300

 70
     1
 71
     1
  0
GROUP
  5
3349
102
{ACAD_REACTORS
330
18
102
}
330
18
100
AcDbGroup
300

 70
     1
 71
     1
  0
GROUP
  5
2037
102
{ACAD_REACTORS
330
18
102
}
330
18
100
AcDbGroup
300

 70
     1
 71
     1
  0
GROUP
  5
3467
102
{ACAD_REACTORS
330
18
102
}
330
18
100
AcDbGroup
300

 70
     1
 71
     1
  0
GROUP
  5
34BB
102
{ACAD_REACTORS
330
18
102
}
330
18
100
AcDbGroup
300

 70
     1
 71
     1
  0
GROUP
  5
35A5
102
{ACAD_REACTORS
330
18
102
}
330
18
100
AcDbGroup
300

 70
     1
 71
     1
340
3577
340
3576
340
3575
340
3574
340
3573
340
3572
340
3571
340
3570
340
356F
340
356E
340
356D
340
356C
340
356B
340
356A
340
3569
340
3568
340
3567
340
3566
340
3565
340
3564
340
3563
340
3562
340
3561
340
355F
340
355E
340
355C
340
355B
340
355A
340
3557
340
3555
340
3553
340
354E
340
354D
340
354C
340
354B
340
3549
340
3548
340
3545
340
3544
340
3543
340
3542
340
3541
340
3540
340
353D
340
353C
340
353B
340
353A
340
3539
340
3538
340
3537
340
3536
340
3535
340
3534
340
3533
340
3532
340
3531
340
3530
340
352F
340
352E
340
352D
340
352C
340
352B
340
3527
340
3525
340
3524
340
3523
  0
GROUP
  5
FF8
102
{ACAD_REACTORS
330
18
102
}
330
18
100
AcDbGroup
300

 70
     1
 71
     1
  0
GROUP
  5
136A
102
{ACAD_REACTORS
330
18
102
}
330
18
100
AcDbGroup
300

 70
     1
 71
     1
  0
GROUP
  5
1555
102
{ACAD_REACTORS
330
18
102
}
330
18
100
AcDbGroup
300

 70
     1
 71
     1
  0
GROUP
  5
17BC
102
{ACAD_REACTORS
330
18
102
}
330
18
100
AcDbGroup
300

 70
     1
 71
     1
  0
GROUP
  5
1A98
102
{ACAD_REACTORS
330
18
102
}
330
18
100
AcDbGroup
300

 70
     1
 71
     1
  0
GROUP
  5
1CBC
102
{ACAD_REACTORS
330
18
102
}
330
18
100
AcDbGroup
300

 70
     1
 71
     1
  0
LAYOUT
  5
5A
102
{ACAD_XDICTIONARY
360
35D2
102
}
102
{ACAD_REACTORS
330
58
102
}
330
58
100
AcDbPlotSettings
  1

  2
なし
  4

  6

 40
0.0
 41
0.0
 42
0.0
 43
0.0
 44
0.0
 45
0.0
 46
0.0
 47
0.0
 48
0.0
 49
0.0
140
0.0
141
0.0
142
1.0
143
1.0
 70
  1712
 72
     0
 73
     0
 74
     0
  7
monochrome.ctb
 75
     0
147
1.0
148
0.0
149
0.0
100
AcDbLayout
  1
Model
 70
     1
 71
     0
 10
0.0
 20
0.0
 11
12.0
 21
9.0
 12
0.0
 22
0.0
 32
0.0
 14
0.0
 24
0.0
 34
0.0
 15
0.0
 25
0.0
 35
0.0
146
0.0
 13
0.0
 23
0.0
 33
0.0
 16
1.0
 26
0.0
 36
0.0
 17
0.0
 27
1.0
 37
0.0
 76
     0
330
2
  0
LAYOUT
  5
5B
102
{ACAD_XDICTIONARY
360
35D4
102
}
102
{ACAD_REACTORS
330
58
102
}
330
58
100
AcDbPlotSettings
  1

  2
なし
  4

  6

 40
0.0
 41
0.0
 42
0.0
 43
0.0
 44
0.0
 45
0.0
 46
0.0
 47
0.0
 48
0.0
 49
0.0
140
0.0
141
0.0
142
1.0
143
1.0
 70
   688
 72
     0
 73
     0
 74
     5
  7
monochrome.ctb
 75
    16
147
1.0
148
0.0
149
0.0
100
AcDbLayout
  1
ﾚｲｱｳﾄ1
 70
     1
 71
     1
 10
0.0
 20
0.0
 11
12.0
 21
9.0
 12
0.0
 22
0.0
 32
0.0
 14
1.000000000000000E+20
 24
1.000000000000000E+20
 34
1.000000000000000E+20
 15
-1.000000000000000E+20
 25
-1.000000000000000E+20
 35
-1.000000000000000E+20
146
0.0
 13
0.0
 23
0.0
 33
0.0
 16
1.0
 26
0.0
 36
0.0
 17
0.0
 27
1.0
 37
0.0
 76
     0
330
7
  0
MLINESTYLE
  5
1D
102
{ACAD_REACTORS
330
19
102
}
330
19
100
AcDbMlineStyle
  2
STANDARD
 70
     0
  3

 62
   256
 51
90.0
 52
90.0
 71
     2
 49
0.5
 62
   256
  6
BYLAYER
 49
-0.5
 62
   256
  6
BYLAYER
  0
ACDBPLACEHOLDER
  5
57
102
{ACAD_REACTORS
330
56
102
}
330
56
  0
TABLESTYLE
  5
146
102
{ACAD_REACTORS
330
145
102
}
330
145
100
AcDbTableStyle
  3
Standard
 70
     0
 71
     0
 40
0.06
 41
0.06
280
     0
281
     0
  7
STANDARD
140
0.18
170
     2
 62
     0
 63
     7
283
     0
274
    -2
284
     1
 64
     0
275
    -2
285
     1
 65
     0
276
    -2
286
     1
 66
     0
277
    -2
287
     1
 67
     0
278
    -2
288
     1
 68
     0
279
    -2
289
     1
 69
     0
  7
STANDARD
140
0.25
170
     5
 62
     0
 63
     7
283
     0
274
    -2
284
     1
 64
     0
275
    -2
285
     1
 65
     0
276
    -2
286
     1
 66
     0
277
    -2
287
     1
 67
     0
278
    -2
288
     1
 68
     0
279
    -2
289
     1
 69
     0
  7
STANDARD
140
0.18
170
     5
 62
     0
 63
     7
283
     0
274
    -2
284
     1
 64
     0
275
    -2
285
     1
 65
     0
276
    -2
286
     1
 66
     0
277
    -2
287
     1
 67
     0
278
    -2
288
     1
 68
     0
279
    -2
289
     1
 69
     0
  0
DICTIONARYVAR
  5
1D2
102
{ACAD_REACTORS
330
1D1
102
}
330
1D1
100
DictionaryVariables
280
     0
  1
STANDARD
  0
DICTIONARYVAR
  5
D03
102
{ACAD_REACTORS
330
1D1
102
}
330
1D1
100
DictionaryVariables
280
     0
  1
1
  0
DICTIONARYVAR
  5
D04
102
{ACAD_REACTORS
330
1D1
102
}
330
1D1
100
DictionaryVariables
280
     0
  1

  0
DICTIONARY
  5
35D2
330
5A
100
AcDbDictionary
280
     1
281
     1
  3
ACAD_XREC_ROUNDTRIP
360
35D3
  0
DICTIONARY
  5
35D4
330
5B
100
AcDbDictionary
280
     1
281
     1
  3
ACAD_XREC_ROUNDTRIP
360
35D5
  0
XRECORD
  5
35D3
102
{ACAD_REACTORS
330
35D2
102
}
330
35D2
100
AcDbXrecord
280
     1
102
SHADEPLOT
 70
     0
102
SHADEPLOTRESLEVEL
 70
     2
102
SHADEPLOTCUSTOMDPI
 70
   300
  0
XRECORD
  5
35D5
102
{ACAD_REACTORS
330
35D4
102
}
330
35D4
100
AcDbXrecord
280
     1
102
SHADEPLOT
 70
     0
102
SHADEPLOTRESLEVEL
 70
     2
102
SHADEPLOTCUSTOMDPI
 70
   300
  0
ENDSEC
  0
EOF
