  0
SECTION
  2
HEADER
  9
$ACADVER
  1
AC1015
  9
$ACADMAINTVER
 70
    20
  9
$DWGCODEPAGE
  3
ANSI_932
  9
$INSBASE
 10
922.019522
 20
-675.4306699999999
 30
0.0
  9
$EXTMIN
 10
-37.14728238192481
 20
-0.0211609326183862
 30
-0.000000000000013
  9
$EXTMAX
 10
149.1664936245988
 20
153.365900073379
 30
0.0000000000000023
  9
$LIMMIN
 10
0.0
 20
0.0
  9
$LIMMAX
 10
420.0
 20
297.0
  9
$ORTHOMODE
 70
     1
  9
$REGENMODE
 70
     1
  9
$FILLMODE
 70
     1
  9
$QTEXTMODE
 70
     0
  9
$MIRRTEXT
 70
     1
  9
$LTSCALE
 40
1.0
  9
$ATTMODE
 70
     1
  9
$TEXTSIZE
 40
30.0
  9
$TRACEWID
 40
0.05
  9
$TEXTSTYLE
  7
SUNPOU
  9
$CLAYER
  8
0
  9
$CELTYPE
  6
BYLAYER
  9
$CECOLOR
 62
   256
  9
$CELTSCALE
 40
1.0
  9
$DISPSILH
 70
     0
  9
$DIMSCALE
 40
1.0
  9
$DIMASZ
 40
2.0
  9
$DIMEXO
 40
10.0
  9
$DIMDLI
 40
0.38
  9
$DIMRND
 40
0.0
  9
$DIMDLE
 40
0.0
  9
$DIMEXE
 40
0.0
  9
$DIMTP
 40
0.0
  9
$DIMTM
 40
0.0
  9
$DIMTXT
 40
5.0
  9
$DIMCEN
 40
0.0
  9
$DIMTSZ
 40
0.0
  9
$DIMTOL
 70
     0
  9
$DIMLIM
 70
     0
  9
$DIMTIH
 70
     0
  9
$DIMTOH
 70
     0
  9
$DIMSE1
 70
     0
  9
$DIMSE2
 70
     0
  9
$DIMTAD
 70
     1
  9
$DIMZIN
 70
     0
  9
$DIMBLK
  1
Dot
  9
$DIMASO
 70
     1
  9
$DIMSHO
 70
     1
  9
$DIMPOST
  1

  9
$DIMAPOST
  1

  9
$DIMALT
 70
     0
  9
$DIMALTD
 70
     2
  9
$DIMALTF
 40
25.4
  9
$DIMLFAC
 40
1.0
  9
$DIMTOFL
 70
     0
  9
$DIMTVP
 40
0.0
  9
$DIMTIX
 70
     0
  9
$DIMSOXD
 70
     0
  9
$DIMSAH
 70
     0
  9
$DIMBLK1
  1

  9
$DIMBLK2
  1

  9
$DIMSTYLE
  2
STANDARD
  9
$DIMCLRD
 70
    60
  9
$DIMCLRE
 70
    70
  9
$DIMCLRT
 70
    60
  9
$DIMTFAC
 40
0.064286
  9
$DIMGAP
 40
3.0
  9
$DIMJUST
 70
     0
  9
$DIMSD1
 70
     0
  9
$DIMSD2
 70
     0
  9
$DIMTOLJ
 70
     1
  9
$DIMTZIN
 70
     0
  9
$DIMALTZ
 70
     0
  9
$DIMALTTZ
 70
     0
  9
$DIMUPT
 70
     0
  9
$DIMDEC
 70
     0
  9
$DIMTDEC
 70
     0
  9
$DIMALTU
 70
     2
  9
$DIMALTTD
 70
     2
  9
$DIMTXSTY
  7
SUNPOU
  9
$DIMAUNIT
 70
     0
  9
$DIMADEC
 70
     0
  9
$DIMALTRND
 40
0.0
  9
$DIMAZIN
 70
     0
  9
$DIMDSEP
 70
    46
  9
$DIMATFIT
 70
     3
  9
$DIMFRAC
 70
     0
  9
$DIMLDRBLK
  1

  9
$DIMLUNIT
 70
     2
  9
$DIMLWD
 70
    -2
  9
$DIMLWE
 70
    -2
  9
$DIMTMOVE
 70
     0
  9
$LUNITS
 70
     2
  9
$LUPREC
 70
     5
  9
$SKETCHINC
 40
0.1
  9
$FILLETRAD
 40
0.0
  9
$AUNITS
 70
     0
  9
$AUPREC
 70
     0
  9
$MENU
  1
acad
  9
$ELEVATION
 40
0.0
  9
$PELEVATION
 40
0.0
  9
$THICKNESS
 40
0.0
  9
$LIMCHECK
 70
     0
  9
$CHAMFERA
 40
0.0
  9
$CHAMFERB
 40
0.0
  9
$CHAMFERC
 40
0.0
  9
$CHAMFERD
 40
0.0
  9
$SKPOLY
 70
     0
  9
$TDCREATE
 40
2450623.654673033
  9
$TDUCREATE
 40
2450623.279673032
  9
$TDUPDATE
 40
2453866.774751424
  9
$TDUUPDATE
 40
2453866.399751424
  9
$TDINDWG
 40
0.3245454745
  9
$TDUSRTIMER
 40
0.3245453009
  9
$USRTIMER
 70
     1
  9
$ANGBASE
 50
0.0
  9
$ANGDIR
 70
     0
  9
$PDMODE
 70
     0
  9
$PDSIZE
 40
0.0
  9
$PLINEWID
 40
0.0
  9
$SPLFRAME
 70
     0
  9
$SPLINETYPE
 70
     6
  9
$SPLINESEGS
 70
     8
  9
$HANDSEED
  5
2DA3
  9
$SURFTAB1
 70
     6
  9
$SURFTAB2
 70
     6
  9
$SURFTYPE
 70
     6
  9
$SURFU
 70
     6
  9
$SURFV
 70
     6
  9
$UCSBASE
  2

  9
$UCSNAME
  2

  9
$UCSORG
 10
0.0
 20
0.0
 30
0.0
  9
$UCSXDIR
 10
1.0
 20
0.0
 30
0.0
  9
$UCSYDIR
 10
0.0
 20
1.0
 30
0.0
  9
$UCSORTHOREF
  2

  9
$UCSORTHOVIEW
 70
     0
  9
$UCSORGTOP
 10
0.0
 20
0.0
 30
0.0
  9
$UCSORGBOTTOM
 10
0.0
 20
0.0
 30
0.0
  9
$UCSORGLEFT
 10
0.0
 20
0.0
 30
0.0
  9
$UCSORGRIGHT
 10
0.0
 20
0.0
 30
0.0
  9
$UCSORGFRONT
 10
0.0
 20
0.0
 30
0.0
  9
$UCSORGBACK
 10
0.0
 20
0.0
 30
0.0
  9
$PUCSBASE
  2

  9
$PUCSNAME
  2

  9
$PUCSORG
 10
0.0
 20
0.0
 30
0.0
  9
$PUCSXDIR
 10
1.0
 20
0.0
 30
0.0
  9
$PUCSYDIR
 10
0.0
 20
1.0
 30
0.0
  9
$PUCSORTHOREF
  2

  9
$PUCSORTHOVIEW
 70
     0
  9
$PUCSORGTOP
 10
0.0
 20
0.0
 30
0.0
  9
$PUCSORGBOTTOM
 10
0.0
 20
0.0
 30
0.0
  9
$PUCSORGLEFT
 10
0.0
 20
0.0
 30
0.0
  9
$PUCSORGRIGHT
 10
0.0
 20
0.0
 30
0.0
  9
$PUCSORGFRONT
 10
0.0
 20
0.0
 30
0.0
  9
$PUCSORGBACK
 10
0.0
 20
0.0
 30
0.0
  9
$USERI1
 70
     0
  9
$USERI2
 70
     0
  9
$USERI3
 70
     0
  9
$USERI4
 70
     0
  9
$USERI5
 70
     0
  9
$USERR1
 40
0.0
  9
$USERR2
 40
0.0
  9
$USERR3
 40
0.0
  9
$USERR4
 40
0.0
  9
$USERR5
 40
0.0
  9
$WORLDVIEW
 70
     1
  9
$SHADEDGE
 70
     3
  9
$SHADEDIF
 70
    70
  9
$TILEMODE
 70
     1
  9
$MAXACTVP
 70
    16
  9
$PINSBASE
 10
0.0
 20
0.0
 30
0.0
  9
$PLIMCHECK
 70
     0
  9
$PEXTMIN
 10
1.000000000000000E+20
 20
1.000000000000000E+20
 30
1.000000000000000E+20
  9
$PEXTMAX
 10
-1.000000000000000E+20
 20
-1.000000000000000E+20
 30
-1.000000000000000E+20
  9
$PLIMMIN
 10
0.0
 20
0.0
  9
$PLIMMAX
 10
12.0
 20
9.0
  9
$UNITMODE
 70
     0
  9
$VISRETAIN
 70
     0
  9
$PLINEGEN
 70
     0
  9
$PSLTSCALE
 70
     1
  9
$TREEDEPTH
 70
  3020
  9
$CMLSTYLE
  2
STANDARD
  9
$CMLJUST
 70
     0
  9
$CMLSCALE
 40
1.0
  9
$PROXYGRAPHICS
 70
     1
  9
$MEASUREMENT
 70
     0
  9
$CELWEIGHT
370
    -1
  9
$ENDCAPS
280
     0
  9
$JOINSTYLE
280
     0
  9
$LWDISPLAY
290
     0
  9
$INSUNITS
 70
     0
  9
$HYPERLINKBASE
  1

  9
$STYLESHEET
  1

  9
$XEDIT
290
     1
  9
$CEPSNTYPE
380
     0
  9
$PSTYLEMODE
290
     1
  9
$FINGERPRINTGUID
  2
{FB88A696-E29C-4009-92AF-A3599A8169D5}
  9
$VERSIONGUID
  2
{078818E4-95F6-447B-9775-002182974441}
  9
$EXTNAMES
290
     1
  9
$PSVPSCALE
 40
0.0
  9
$OLESTARTUP
290
     0
  0
ENDSEC
  0
SECTION
  2
CLASSES
  0
CLASS
  1
DICTIONARYVAR
  2
AcDbDictionaryVar
  3
ObjectDBX Classes
 90
        0
280
     0
281
     0
  0
CLASS
  1
ACDBDICTIONARYWDFLT
  2
AcDbDictionaryWithDefault
  3
ObjectDBX Classes
 90
        0
280
     0
281
     0
  0
CLASS
  1
ACDBPLACEHOLDER
  2
AcDbPlaceHolder
  3
ObjectDBX Classes
 90
        0
280
     0
281
     0
  0
CLASS
  1
LAYOUT
  2
AcDbLayout
  3
ObjectDBX Classes
 90
        0
280
     0
281
     0
  0
CLASS
  1
TABLESTYLE
  2
AcDbTableStyle
  3
ObjectDBX Classes
 90
     2047
280
     0
281
     0
  0
CLASS
  1
SORTENTSTABLE
  2
AcDbSortentsTable
  3
ObjectDBX Classes
 90
        0
280
     0
281
     0
  0
ENDSEC
  0
SECTION
  2
TABLES
  0
TABLE
  2
VPORT
  5
12
330
0
100
AcDbSymbolTable
 70
    16
  0
VPORT
  5
2D9D
330
12
100
AcDbSymbolTableRecord
100
AcDbViewportTableRecord
  2
*Active
 70
     0
 10
0.0
 20
0.0
 11
1.0
 21
1.0
 12
56.00960562133703
 22
76.67236957038035
 13
0.0
 23
0.0
 14
1.0
 24
1.0
 15
0.0
 25
0.0
 16
0.0
 26
0.0
 36
1.0
 17
0.0
 27
0.0
 37
0.0
 40
154.5654507192317
 41
1.565384615384615
 42
50.0
 43
0.0
 44
0.0
 50
0.0
 51
0.0
 71
     0
 72
 20000
 73
     1
 74
     1
 75
     0
 76
     0
 77
     0
 78
     0
281
     0
 65
     1
110
0.0
120
0.0
130
0.0
111
1.0
121
0.0
131
0.0
112
0.0
122
1.0
132
0.0
 79
     0
146
0.0
  0
ENDTAB
  0
TABLE
  2
LTYPE
  5
D
330
0
100
AcDbSymbolTable
 70
     2
  0
LTYPE
  5
E
330
D
100
AcDbSymbolTableRecord
100
AcDbLinetypeTableRecord
  2
BYBLOCK
 70
     0
  3

 72
    65
 73
     0
 40
0.0
  0
LTYPE
  5
F
330
D
100
AcDbSymbolTableRecord
100
AcDbLinetypeTableRecord
  2
BYLAYER
 70
     0
  3

 72
    65
 73
     0
 40
0.0
  0
LTYPE
  5
5
330
D
100
AcDbSymbolTableRecord
100
AcDbLinetypeTableRecord
  2
CONTINUOUS
 70
     0
  3
Solid line
 72
    65
 73
     0
 40
0.0
  0
ENDTAB
  0
TABLE
  2
LAYER
  5
A
102
{ACAD_XDICTIONARY
360
1B4
102
}
330
0
100
AcDbSymbolTable
 70
     6
  0
LAYER
  5
4
330
A
100
AcDbSymbolTableRecord
100
AcDbLayerTableRecord
  2
0
 70
     0
 62
     7
  6
CONTINUOUS
370
    -3
390
57
  0
LAYER
  5
25
330
A
100
AcDbSymbolTableRecord
100
AcDbLayerTableRecord
  2
KIJUN
 70
     0
 62
     7
  6
CONTINUOUS
370
    -3
390
57
  0
LAYER
  5
22
330
A
100
AcDbSymbolTableRecord
100
AcDbLayerTableRecord
  2
HOJO
 70
     0
 62
     3
  6
CONTINUOUS
370
    -3
390
57
  0
LAYER
  5
1B
330
A
100
AcDbSymbolTableRecord
100
AcDbLayerTableRecord
  2
WAKU
 70
     0
 62
     1
  6
CONTINUOUS
370
    -3
390
57
  0
LAYER
  5
31
330
A
100
AcDbSymbolTableRecord
100
AcDbLayerTableRecord
  2
DEFPOINTS
 70
     0
 62
     7
  6
CONTINUOUS
290
     0
370
    -3
390
57
  0
LAYER
  5
28
330
A
100
AcDbSymbolTableRecord
100
AcDbLayerTableRecord
  2
SUNPOU
 70
     0
 62
    70
  6
CONTINUOUS
370
    -3
390
57
  0
ENDTAB
  0
TABLE
  2
STYLE
  5
B
330
0
100
AcDbSymbolTable
 70
     3
  0
STYLE
  5
C
330
B
100
AcDbSymbolTableRecord
100
AcDbTextStyleTableRecord
  2
STANDARD
 70
     0
 40
0.0
 41
1.0
 50
0.0
 71
     0
 42
0.2
  3
txt
  4

  0
STYLE
  5
1C
330
B
100
AcDbSymbolTableRecord
100
AcDbTextStyleTableRecord
  2
SUNPOU
 70
     0
 40
0.0
 41
1.0
 50
0.0
 71
     0
 42
30.0
  3
txt
  4
bigfont
  0
STYLE
  5
14A
330
B
100
AcDbSymbolTableRecord
100
AcDbTextStyleTableRecord
  2
LIFE
 70
     0
 40
0.0
 41
0.7
 50
0.0
 71
     0
 42
10.0
  3
romans
  4
extfont
  0
ENDTAB
  0
TABLE
  2
VIEW
  5
10
330
0
100
AcDbSymbolTable
 70
     0
  0
ENDTAB
  0
TABLE
  2
UCS
  5
11
330
0
100
AcDbSymbolTable
 70
     0
  0
ENDTAB
  0
TABLE
  2
APPID
  5
14
330
0
100
AcDbSymbolTable
 70
    10
  0
APPID
  5
15
330
14
100
AcDbSymbolTableRecord
100
AcDbRegAppTableRecord
  2
ACAD
 70
     0
  0
APPID
  5
1D3
330
14
100
AcDbSymbolTableRecord
100
AcDbRegAppTableRecord
  2
ACAD_DSTYLE_DIMTEXT_FILL
 70
     0
  0
APPID
  5
1D4
330
14
100
AcDbSymbolTableRecord
100
AcDbRegAppTableRecord
  2
ACAD_DSTYLE_DIMEXT_LENGTH
 70
     0
  0
APPID
  5
1D5
330
14
100
AcDbSymbolTableRecord
100
AcDbRegAppTableRecord
  2
ACAD_DSTYLE_DIMEXT_ENABLED
 70
     0
  0
APPID
  5
1D6
330
14
100
AcDbSymbolTableRecord
100
AcDbRegAppTableRecord
  2
ACAD_DSTYLE_DIM_LINETYPE
 70
     0
  0
APPID
  5
1D7
330
14
100
AcDbSymbolTableRecord
100
AcDbRegAppTableRecord
  2
ACAD_DSTYLE_DIM_EXT1_LINETYPE
 70
     0
  0
APPID
  5
1D8
330
14
100
AcDbSymbolTableRecord
100
AcDbRegAppTableRecord
  2
ACAD_DSTYLE_DIM_EXT2_LINETYPE
 70
     0
  0
APPID
  5
294
330
14
100
AcDbSymbolTableRecord
100
AcDbRegAppTableRecord
  2
ACAD_DSTYLE_DIMJOGGED_JOGANGLE_SYMBOL
 70
     0
  0
APPID
  5
478
330
14
100
AcDbSymbolTableRecord
100
AcDbRegAppTableRecord
  2
ACAD_DSTYLE_DIMARC_LENGTH_SYMBOL
 70
     0
  0
APPID
  5
F55
330
14
100
AcDbSymbolTableRecord
100
AcDbRegAppTableRecord
  2
ACAD_EXEMPT_FROM_CAD_STANDARDS
 70
     0
  0
ENDTAB
  0
TABLE
  2
DIMSTYLE
  5
16
330
0
100
AcDbSymbolTable
 70
     3
100
AcDbDimStyleTable
 71
     1
340
1E
  0
DIMSTYLE
105
1E
102
{ACAD_REACTORS
330
2D4C
330
2D59
102
}
330
16
100
AcDbSymbolTableRecord
100
AcDbDimStyleTableRecord
  2
STANDARD
 70
     0
340
C
  0
DIMSTYLE
105
1005
330
16
100
AcDbSymbolTableRecord
100
AcDbDimStyleTableRecord
  2
1-100
 70
     0
 40
100.0
 41
0.7
 42
2.5
 43
5.0
 44
1.0
 77
     1
147
1.0
172
     1
176
     3
177
     3
271
     2
272
     2
279
     2
340
C
342
109
  0
ENDTAB
  0
TABLE
  2
BLOCK_RECORD
  5
1
330
0
100
AcDbSymbolTable
 70
    34
  0
BLOCK_RECORD
  5
2
102
{ACAD_XDICTIONARY
360
D13
102
}
330
1
100
AcDbSymbolTableRecord
100
AcDbBlockTableRecord
  2
*MODEL_SPACE
340
5A
  0
BLOCK_RECORD
  5
7
330
1
100
AcDbSymbolTableRecord
100
AcDbBlockTableRecord
  2
*PAPER_SPACE
340
5B
  0
BLOCK_RECORD
  5
109
330
1
100
AcDbSymbolTableRecord
100
AcDbBlockTableRecord
  2
_Dot
340
0
102
{BLKREFS
331
2010
331
2011
331
201D
331
201E
331
2117
331
2118
331
2124
331
2125
331
2295
331
2296
331
22B9
331
22BA
331
22D5
331
22D6
331
241E
331
241F
331
24E3
331
24E4
331
24F5
331
24F6
331
2580
331
2581
331
259B
331
259C
331
2645
331
2646
331
2652
331
2653
331
26B6
331
26B7
331
26C3
331
26C4
331
276B
331
276C
331
277D
331
277E
331
28F6
331
28F7
331
28FF
331
2900
331
29FF
331
2A00
331
2A11
331
2A12
331
2BBE
331
2BBF
331
2BC7
331
2BC8
331
2C78
331
2C79
331
2C8A
331
2C8B
331
2D85
331
2D86
331
2D97
331
2D98
102
}
  0
BLOCK_RECORD
  5
28A5
330
1
100
AcDbSymbolTableRecord
100
AcDbBlockTableRecord
  2
*D19
340
0
  0
BLOCK_RECORD
  5
28B2
330
1
100
AcDbSymbolTableRecord
100
AcDbBlockTableRecord
  2
*D20
340
0
  0
BLOCK_RECORD
  5
29C7
330
1
100
AcDbSymbolTableRecord
100
AcDbBlockTableRecord
  2
*D23
340
0
  0
BLOCK_RECORD
  5
29D4
330
1
100
AcDbSymbolTableRecord
100
AcDbBlockTableRecord
  2
*D24
340
0
  0
BLOCK_RECORD
  5
2A84
330
1
100
AcDbSymbolTableRecord
100
AcDbBlockTableRecord
  2
*D26
340
0
  0
BLOCK_RECORD
  5
2A91
330
1
100
AcDbSymbolTableRecord
100
AcDbBlockTableRecord
  2
*D27
340
0
  0
BLOCK_RECORD
  5
2C09
330
1
100
AcDbSymbolTableRecord
100
AcDbBlockTableRecord
  2
*D29
340
0
  0
BLOCK_RECORD
  5
2C16
330
1
100
AcDbSymbolTableRecord
100
AcDbBlockTableRecord
  2
*D30
340
0
  0
BLOCK_RECORD
  5
2D4D
330
1
100
AcDbSymbolTableRecord
100
AcDbBlockTableRecord
  2
*D32
340
0
  0
BLOCK_RECORD
  5
2D5A
330
1
100
AcDbSymbolTableRecord
100
AcDbBlockTableRecord
  2
*D33
340
0
  0
ENDTAB
  0
ENDSEC
  0
SECTION
  2
BLOCKS
  0
BLOCK
  5
3
330
2
100
AcDbEntity
  8
0
100
AcDbBlockBegin
  2
*MODEL_SPACE
 70
     0
 10
0.0
 20
0.0
 30
0.0
  3
*MODEL_SPACE
  1

  0
ENDBLK
  5
6
330
2
100
AcDbEntity
  8
0
100
AcDbBlockEnd
  0
BLOCK
  5
8
330
7
100
AcDbEntity
 67
     1
  8
0
100
AcDbBlockBegin
  2
*PAPER_SPACE
 70
     0
 10
0.0
 20
0.0
 30
0.0
  3
*PAPER_SPACE
  1

  0
ENDBLK
  5
9
330
7
100
AcDbEntity
 67
     1
  8
0
100
AcDbBlockEnd
  0
BLOCK
  5
10C
330
109
100
AcDbEntity
  8
0
100
AcDbBlockBegin
  2
_Dot
 70
     0
 10
0.0
 20
0.0
 30
0.0
  3
_Dot
  1

  0
LWPOLYLINE
  5
10A
330
109
100
AcDbEntity
  8
0
  6
ByBlock
 62
     0
100
AcDbPolyline
 90
        2
 70
     1
 43
0.5
 10
-0.25
 20
0.0
 42
1.0
 10
0.25
 20
0.0
 42
1.0
  0
LINE
  5
10B
330
109
100
AcDbEntity
  8
0
  6
ByBlock
 62
     0
370
    -2
100
AcDbLine
 10
-0.5
 20
0.0
 30
0.0
 11
-1.0
 21
0.0
 31
0.0
  0
ENDBLK
  5
10D
330
109
100
AcDbEntity
  8
0
100
AcDbBlockEnd
  0
BLOCK
  5
28AF
330
28A5
100
AcDbEntity
  8
0
100
AcDbBlockBegin
  2
*D19
 70
     1
 10
0.0
 20
0.0
 30
0.0
  3
*D19
  1

  0
LINE
  5
28F3
330
28A5
100
AcDbEntity
  8
SUNPOU
 62
    70
370
    -2
100
AcDbLine
 10
-24.8306364237521
 20
115.557185286975
 30
0.0
 11
-24.83063642375209
 21
183.8979766120355
 31
0.0
  0
LINE
  5
28F4
330
28A5
100
AcDbEntity
  8
SUNPOU
 62
    70
370
    -2
100
AcDbLine
 10
170.1693635762479
 20
115.557185286975
 30
0.0
 11
170.1693635762479
 21
183.8979766120355
 31
0.0
  0
LINE
  5
28F5
330
28A5
100
AcDbEntity
  8
SUNPOU
 62
    60
370
    -2
100
AcDbLine
 10
-22.83063642375209
 20
183.8979766120355
 30
0.0
 11
168.1693635762479
 21
183.8979766120355
 31
0.0
  0
INSERT
  5
28F6
330
28A5
100
AcDbEntity
  8
SUNPOU
 62
    60
370
    -2
100
AcDbBlockReference
  2
_Dot
 10
-24.83063642375209
 20
183.8979766120355
 30
0.0
 41
2.0
 42
2.0
 43
2.0
 50
180.0
  0
INSERT
  5
28F7
330
28A5
100
AcDbEntity
  8
SUNPOU
 62
    60
370
    -2
100
AcDbBlockReference
  2
_Dot
 10
170.1693635762479
 20
183.8979766120355
 30
0.0
 41
2.0
 42
2.0
 43
2.0
  0
MTEXT
  5
28F8
330
28A5
100
AcDbEntity
  8
SUNPOU
 62
    60
100
AcDbMText
 10
72.66936357624792
 20
189.3979766120355
 30
0.0
 40
5.0
 41
0.0
 71
     5
 72
     1
  1
\A1;195
  7
SUNPOU
 73
     1
 44
1.0
1001
ACAD
1000
MTEXTBEGIN
1070
    73
1070
     1
1070
    44
1040
1.0
1070
    74
1070
     0
1000
MTEXTEND
  0
POINT
  5
28F9
330
28A5
100
AcDbEntity
  8
DEFPOINTS
 62
     0
100
AcDbPoint
 10
-24.8306364237521
 20
105.557185286975
 30
0.0
  0
POINT
  5
28FA
330
28A5
100
AcDbEntity
  8
DEFPOINTS
 62
     0
100
AcDbPoint
 10
170.1693635762479
 20
105.557185286975
 30
0.0
  0
POINT
  5
28FB
330
28A5
100
AcDbEntity
  8
DEFPOINTS
 62
     0
100
AcDbPoint
 10
170.1693635762479
 20
183.8979766120355
 30
0.0
  0
ENDBLK
  5
28B0
330
28A5
100
AcDbEntity
  8
0
100
AcDbBlockEnd
  0
BLOCK
  5
28BC
330
28B2
100
AcDbEntity
  8
0
100
AcDbBlockBegin
  2
*D20
 70
     1
 10
0.0
 20
0.0
 30
0.0
  3
*D20
  1

  0
LINE
  5
28FC
330
28B2
100
AcDbEntity
  8
SUNPOU
 62
    70
370
    -2
100
AcDbLine
 10
-21.33063642375351
 20
154.1914492309566
 30
0.0
 11
-53.00898335138707
 21
154.1914492309566
 31
0.0
  0
LINE
  5
28FD
330
28B2
100
AcDbEntity
  8
SUNPOU
 62
    70
370
    -2
100
AcDbLine
 10
62.66936357624789
 20
32.19144923095685
 30
0.0
 11
-53.00898335138709
 21
32.19144923095689
 31
0.0
  0
LINE
  5
28FE
330
28B2
100
AcDbEntity
  8
SUNPOU
 62
    60
370
    -2
100
AcDbLine
 10
-53.00898335138707
 20
152.1914492309566
 30
0.0
 11
-53.00898335138709
 21
34.19144923095688
 31
0.0
  0
INSERT
  5
28FF
330
28B2
100
AcDbEntity
  8
SUNPOU
 62
    60
370
    -2
100
AcDbBlockReference
  2
_Dot
 10
-53.00898335138707
 20
154.1914492309566
 30
0.0
 41
2.0
 42
2.0
 43
2.0
 50
90.0
  0
INSERT
  5
2900
330
28B2
100
AcDbEntity
  8
SUNPOU
 62
    60
370
    -2
100
AcDbBlockReference
  2
_Dot
 10
-53.00898335138709
 20
32.19144923095689
 30
0.0
 41
2.0
 42
2.0
 43
2.0
 50
270.0
  0
MTEXT
  5
2901
330
28B2
100
AcDbEntity
  8
SUNPOU
 62
    60
100
AcDbMText
 10
-58.50898335138709
 20
93.19144923095675
 30
0.0
 40
5.0
 41
0.0
 71
     5
 72
     1
  1
\A1;122
  7
SUNPOU
 11
0.0000000000000001
 21
1.0
 31
0.0
 73
     1
 44
1.0
1001
ACAD
1000
MTEXTBEGIN
1070
    73
1070
     1
1070
    44
1040
1.0
1070
    74
1070
     0
1000
MTEXTEND
  0
POINT
  5
2902
330
28B2
100
AcDbEntity
  8
DEFPOINTS
 62
     0
100
AcDbPoint
 10
-11.3306364237535
 20
154.1914492309566
 30
0.0
  0
POINT
  5
2903
330
28B2
100
AcDbEntity
  8
DEFPOINTS
 62
     0
100
AcDbPoint
 10
72.6693635762479
 20
32.19144923095685
 30
0.0
  0
POINT
  5
2904
330
28B2
100
AcDbEntity
  8
DEFPOINTS
 62
     0
100
AcDbPoint
 10
-53.00898335138709
 20
32.19144923095689
 30
0.0
  0
ENDBLK
  5
28BD
330
28B2
100
AcDbEntity
  8
0
100
AcDbBlockEnd
  0
BLOCK
  5
29D1
330
29C7
100
AcDbEntity
  8
0
100
AcDbBlockBegin
  2
*D23
 70
     1
 10
0.0
 20
0.0
 30
0.0
  3
*D23
  1

  0
LINE
  5
2A0E
330
29C7
100
AcDbEntity
  8
SUNPOU
 62
    70
370
    -2
100
AcDbLine
 10
-14.35123912425035
 20
80.61368459387081
 30
0.0
 11
-14.35123912425035
 21
92.46364794139401
 31
0.0
  0
LINE
  5
2A0F
330
29C7
100
AcDbEntity
  8
SUNPOU
 62
    70
370
    -2
100
AcDbLine
 10
175.6487608757496
 20
81.7793531233416
 30
0.0
 11
175.6487608757496
 21
92.46364794139401
 31
0.0
  0
LINE
  5
2A10
330
29C7
100
AcDbEntity
  8
SUNPOU
 62
    60
370
    -2
100
AcDbLine
 10
-12.35123912425035
 20
92.46364794139401
 30
0.0
 11
173.6487608757496
 21
92.46364794139401
 31
0.0
  0
INSERT
  5
2A11
330
29C7
100
AcDbEntity
  8
SUNPOU
 62
    60
370
    -2
100
AcDbBlockReference
  2
_Dot
 10
-14.35123912425035
 20
92.46364794139401
 30
0.0
 41
2.0
 42
2.0
 43
2.0
 50
180.0
  0
INSERT
  5
2A12
330
29C7
100
AcDbEntity
  8
SUNPOU
 62
    60
370
    -2
100
AcDbBlockReference
  2
_Dot
 10
175.6487608757496
 20
92.46364794139401
 30
0.0
 41
2.0
 42
2.0
 43
2.0
  0
MTEXT
  5
2A13
330
29C7
100
AcDbEntity
  8
SUNPOU
 62
    60
100
AcDbMText
 10
80.64876087574964
 20
97.96364794139401
 30
0.0
 40
5.0
 41
0.0
 71
     5
 72
     1
  1
\A1;190
  7
SUNPOU
 73
     1
 44
1.0
1001
ACAD
1000
MTEXTBEGIN
1070
    73
1070
     1
1070
    44
1040
1.0
1070
    74
1070
     0
1000
MTEXTEND
  0
POINT
  5
2A14
330
29C7
100
AcDbEntity
  8
DEFPOINTS
 62
     0
100
AcDbPoint
 10
-14.35123912425035
 20
70.6136845938708
 30
0.0
  0
POINT
  5
2A15
330
29C7
100
AcDbEntity
  8
DEFPOINTS
 62
     0
100
AcDbPoint
 10
175.6487608757496
 20
71.7793531233416
 30
0.0
  0
POINT
  5
2A16
330
29C7
100
AcDbEntity
  8
DEFPOINTS
 62
     0
100
AcDbPoint
 10
175.6487608757496
 20
92.46364794139401
 30
0.0
  0
ENDBLK
  5
29D2
330
29C7
100
AcDbEntity
  8
0
100
AcDbBlockEnd
  0
BLOCK
  5
29DE
330
29D4
100
AcDbEntity
  8
0
100
AcDbBlockBegin
  2
*D24
 70
     1
 10
0.0
 20
0.0
 30
0.0
  3
*D24
  1

  0
LINE
  5
29FC
330
29D4
100
AcDbEntity
  8
SUNPOU
 62
    70
370
    -2
100
AcDbLine
 10
-24.35123912425036
 20
70.6136845938708
 30
0.0
 11
-36.30120157972692
 21
70.61368459387082
 31
0.0
  0
LINE
  5
29FD
330
29D4
100
AcDbEntity
  8
SUNPOU
 62
    70
370
    -2
100
AcDbLine
 10
-24.24874540162227
 20
35.61368459387081
 30
0.0
 11
-36.30120157972692
 21
35.61368459387081
 31
0.0
  0
LINE
  5
29FE
330
29D4
100
AcDbEntity
  8
SUNPOU
 62
    60
370
    -2
100
AcDbLine
 10
-36.30120157972692
 20
68.61368459387081
 30
0.0
 11
-36.30120157972692
 21
37.61368459387081
 31
0.0
  0
INSERT
  5
29FF
330
29D4
100
AcDbEntity
  8
SUNPOU
 62
    60
370
    -2
100
AcDbBlockReference
  2
_Dot
 10
-36.30120157972692
 20
70.61368459387082
 30
0.0
 41
2.0
 42
2.0
 43
2.0
 50
90.0
  0
INSERT
  5
2A00
330
29D4
100
AcDbEntity
  8
SUNPOU
 62
    60
370
    -2
100
AcDbBlockReference
  2
_Dot
 10
-36.30120157972692
 20
35.61368459387081
 30
0.0
 41
2.0
 42
2.0
 43
2.0
 50
270.0
  0
MTEXT
  5
2A01
330
29D4
100
AcDbEntity
  8
SUNPOU
 62
    60
100
AcDbMText
 10
-41.80120157972693
 20
53.1136845938708
 30
0.0
 40
5.0
 41
0.0
 71
     5
 72
     1
  1
\A1;35
  7
SUNPOU
 11
0.0000000000000001
 21
1.0
 31
0.0
 73
     1
 44
1.0
1001
ACAD
1000
MTEXTBEGIN
1070
    73
1070
     1
1070
    44
1040
1.0
1070
    74
1070
     0
1000
MTEXTEND
  0
POINT
  5
2A02
330
29D4
100
AcDbEntity
  8
DEFPOINTS
 62
     0
100
AcDbPoint
 10
-14.35123912425035
 20
70.6136845938708
 30
0.0
  0
POINT
  5
2A03
330
29D4
100
AcDbEntity
  8
DEFPOINTS
 62
     0
100
AcDbPoint
 10
-14.24874540162227
 20
35.6136845938708
 30
0.0
  0
POINT
  5
2A04
330
29D4
100
AcDbEntity
  8
DEFPOINTS
 62
     0
100
AcDbPoint
 10
-36.30120157972692
 20
35.61368459387081
 30
0.0
  0
ENDBLK
  5
29DF
330
29D4
100
AcDbEntity
  8
0
100
AcDbBlockEnd
  0
BLOCK
  5
2A8E
330
2A84
100
AcDbEntity
  8
0
100
AcDbBlockBegin
  2
*D26
 70
     1
 10
0.0
 20
0.0
 30
0.0
  3
*D26
  1

  0
LINE
  5
2BBB
330
2A84
100
AcDbEntity
  8
SUNPOU
 62
    70
370
    -2
100
AcDbLine
 10
31.21615968861807
 20
127.8401345178345
 30
0.0
 11
31.21615968861807
 21
139.586281537088
 31
0.0
  0
LINE
  5
2BBC
330
2A84
100
AcDbEntity
  8
SUNPOU
 62
    70
370
    -2
100
AcDbLine
 10
128.2161596886165
 20
129.6474070552491
 30
0.0
 11
128.2161596886165
 21
139.586281537088
 31
0.0
  0
LINE
  5
2BBD
330
2A84
100
AcDbEntity
  8
SUNPOU
 62
    60
370
    -2
100
AcDbLine
 10
33.21615968861806
 20
139.586281537088
 30
0.0
 11
126.2161596886165
 21
139.586281537088
 31
0.0
  0
INSERT
  5
2BBE
330
2A84
100
AcDbEntity
  8
SUNPOU
 62
    60
370
    -2
100
AcDbBlockReference
  2
_Dot
 10
31.21615968861807
 20
139.586281537088
 30
0.0
 41
2.0
 42
2.0
 43
2.0
 50
180.0
  0
INSERT
  5
2BBF
330
2A84
100
AcDbEntity
  8
SUNPOU
 62
    60
370
    -2
100
AcDbBlockReference
  2
_Dot
 10
128.2161596886165
 20
139.586281537088
 30
0.0
 41
2.0
 42
2.0
 43
2.0
  0
MTEXT
  5
2BC0
330
2A84
100
AcDbEntity
  8
SUNPOU
 62
    60
100
AcDbMText
 10
79.71615968861728
 20
145.086281537088
 30
0.0
 40
5.0
 41
0.0
 71
     5
 72
     1
  1
\A1;97
  7
SUNPOU
 73
     1
 44
1.0
1001
ACAD
1000
MTEXTBEGIN
1070
    73
1070
     1
1070
    44
1040
1.0
1070
    74
1070
     0
1000
MTEXTEND
  0
POINT
  5
2BC1
330
2A84
100
AcDbEntity
  8
DEFPOINTS
 62
     0
100
AcDbPoint
 10
31.21615968861807
 20
117.8401345178345
 30
0.0
  0
POINT
  5
2BC2
330
2A84
100
AcDbEntity
  8
DEFPOINTS
 62
     0
100
AcDbPoint
 10
128.2161596886165
 20
119.6474070552491
 30
0.0
  0
POINT
  5
2BC3
330
2A84
100
AcDbEntity
  8
DEFPOINTS
 62
     0
100
AcDbPoint
 10
128.2161596886165
 20
139.586281537088
 30
0.0
  0
ENDBLK
  5
2A8F
330
2A84
100
AcDbEntity
  8
0
100
AcDbBlockEnd
  0
BLOCK
  5
2A9B
330
2A91
100
AcDbEntity
  8
0
100
AcDbBlockBegin
  2
*D27
 70
     1
 10
0.0
 20
0.0
 30
0.0
  3
*D27
  1

  0
LINE
  5
2BC4
330
2A91
100
AcDbEntity
  8
SUNPOU
 62
    70
370
    -2
100
AcDbLine
 10
21.21615968861807
 20
117.8401345178345
 30
0.0
 11
7.977641516827156
 21
117.8401345178345
 31
0.0
  0
LINE
  5
2BC5
330
2A91
100
AcDbEntity
  8
SUNPOU
 62
    70
370
    -2
100
AcDbLine
 10
22.25074273696964
 20
40.8401345178345
 30
0.0
 11
7.977641516827135
 21
40.84013451783451
 31
0.0
  0
LINE
  5
2BC6
330
2A91
100
AcDbEntity
  8
SUNPOU
 62
    60
370
    -2
100
AcDbLine
 10
7.977641516827154
 20
115.8401345178345
 30
0.0
 11
7.977641516827138
 21
42.8401345178345
 31
0.0
  0
INSERT
  5
2BC7
330
2A91
100
AcDbEntity
  8
SUNPOU
 62
    60
370
    -2
100
AcDbBlockReference
  2
_Dot
 10
7.977641516827154
 20
117.8401345178345
 30
0.0
 41
2.0
 42
2.0
 43
2.0
 50
90.0
  0
INSERT
  5
2BC8
330
2A91
100
AcDbEntity
  8
SUNPOU
 62
    60
370
    -2
100
AcDbBlockReference
  2
_Dot
 10
7.977641516827137
 20
40.84013451783451
 30
0.0
 41
2.0
 42
2.0
 43
2.0
 50
270.0
  0
MTEXT
  5
2BC9
330
2A91
100
AcDbEntity
  8
SUNPOU
 62
    60
100
AcDbMText
 10
2.477641516827133
 20
79.34013451783449
 30
0.0
 40
5.0
 41
0.0
 71
     5
 72
     1
  1
\A1;77
  7
SUNPOU
 11
0.0000000000000001
 21
1.0
 31
0.0
 73
     1
 44
1.0
1001
ACAD
1000
MTEXTBEGIN
1070
    73
1070
     1
1070
    44
1040
1.0
1070
    74
1070
     0
1000
MTEXTEND
  0
POINT
  5
2BCA
330
2A91
100
AcDbEntity
  8
DEFPOINTS
 62
     0
100
AcDbPoint
 10
31.21615968861807
 20
117.8401345178345
 30
0.0
  0
POINT
  5
2BCB
330
2A91
100
AcDbEntity
  8
DEFPOINTS
 62
     0
100
AcDbPoint
 10
32.25074273696964
 20
40.8401345178345
 30
0.0
  0
POINT
  5
2BCC
330
2A91
100
AcDbEntity
  8
DEFPOINTS
 62
     0
100
AcDbPoint
 10
7.977641516827137
 20
40.84013451783451
 30
0.0
  0
ENDBLK
  5
2A9C
330
2A91
100
AcDbEntity
  8
0
100
AcDbBlockEnd
  0
BLOCK
  5
2C13
330
2C09
100
AcDbEntity
  8
0
100
AcDbBlockBegin
  2
*D29
 70
     1
 10
0.0
 20
0.0
 30
0.0
  3
*D29
  1

  0
LINE
  5
2C87
330
2C09
100
AcDbEntity
  8
SUNPOU
 62
    70
370
    -2
100
AcDbLine
 10
27.31215803555756
 20
106.3991236133032
 30
0.0
 11
27.31215803555756
 21
122.1925405403298
 31
0.0
  0
LINE
  5
2C88
330
2C09
100
AcDbEntity
  8
SUNPOU
 62
    70
370
    -2
100
AcDbLine
 10
117.3121580355575
 20
108.7928774974993
 30
0.0
 11
117.3121580355575
 21
122.1925405403298
 31
0.0
  0
LINE
  5
2C89
330
2C09
100
AcDbEntity
  8
SUNPOU
 62
    60
370
    -2
100
AcDbLine
 10
29.31215803555756
 20
122.1925405403298
 30
0.0
 11
115.3121580355575
 21
122.1925405403298
 31
0.0
  0
INSERT
  5
2C8A
330
2C09
100
AcDbEntity
  8
SUNPOU
 62
    60
370
    -2
100
AcDbBlockReference
  2
_Dot
 10
27.31215803555756
 20
122.1925405403298
 30
0.0
 41
2.0
 42
2.0
 43
2.0
 50
180.0
  0
INSERT
  5
2C8B
330
2C09
100
AcDbEntity
  8
SUNPOU
 62
    60
370
    -2
100
AcDbBlockReference
  2
_Dot
 10
117.3121580355575
 20
122.1925405403298
 30
0.0
 41
2.0
 42
2.0
 43
2.0
  0
MTEXT
  5
2C8C
330
2C09
100
AcDbEntity
  8
SUNPOU
 62
    60
100
AcDbMText
 10
72.31215803555755
 20
127.6925405403298
 30
0.0
 40
5.0
 41
0.0
 71
     5
 72
     1
  1
\A1;90
  7
SUNPOU
 73
     1
 44
1.0
1001
ACAD
1000
MTEXTBEGIN
1070
    73
1070
     1
1070
    44
1040
1.0
1070
    74
1070
     0
1000
MTEXTEND
  0
POINT
  5
2C8D
330
2C09
100
AcDbEntity
  8
DEFPOINTS
 62
     0
100
AcDbPoint
 10
27.31215803555756
 20
96.39912361330324
 30
0.0
  0
POINT
  5
2C8E
330
2C09
100
AcDbEntity
  8
DEFPOINTS
 62
     0
100
AcDbPoint
 10
117.3121580355575
 20
98.79287749749938
 30
0.0
  0
POINT
  5
2C8F
330
2C09
100
AcDbEntity
  8
DEFPOINTS
 62
     0
100
AcDbPoint
 10
117.3121580355575
 20
122.1925405403298
 30
0.0
  0
ENDBLK
  5
2C14
330
2C09
100
AcDbEntity
  8
0
100
AcDbBlockEnd
  0
BLOCK
  5
2C20
330
2C16
100
AcDbEntity
  8
0
100
AcDbBlockBegin
  2
*D30
 70
     1
 10
0.0
 20
0.0
 30
0.0
  3
*D30
  1

  0
LINE
  5
2C75
330
2C16
100
AcDbEntity
  8
SUNPOU
 62
    70
370
    -2
100
AcDbLine
 10
17.31215803555756
 20
96.39912361330324
 30
0.0
 11
6.685379181480826
 21
96.39912361330324
 31
0.0
  0
LINE
  5
2C76
330
2C16
100
AcDbEntity
  8
SUNPOU
 62
    70
370
    -2
100
AcDbLine
 10
19.39574259876804
 20
37.39912361330323
 30
0.0
 11
6.685379181480812
 21
37.39912361330324
 31
0.0
  0
LINE
  5
2C77
330
2C16
100
AcDbEntity
  8
SUNPOU
 62
    60
370
    -2
100
AcDbLine
 10
6.685379181480826
 20
94.39912361330325
 30
0.0
 11
6.685379181480813
 21
39.39912361330324
 31
0.0
  0
INSERT
  5
2C78
330
2C16
100
AcDbEntity
  8
SUNPOU
 62
    60
370
    -2
100
AcDbBlockReference
  2
_Dot
 10
6.685379181480826
 20
96.39912361330324
 30
0.0
 41
2.0
 42
2.0
 43
2.0
 50
90.0
  0
INSERT
  5
2C79
330
2C16
100
AcDbEntity
  8
SUNPOU
 62
    60
370
    -2
100
AcDbBlockReference
  2
_Dot
 10
6.685379181480812
 20
37.39912361330324
 30
0.0
 41
2.0
 42
2.0
 43
2.0
 50
270.0
  0
MTEXT
  5
2C7A
330
2C16
100
AcDbEntity
  8
SUNPOU
 62
    60
100
AcDbMText
 10
1.185379181480808
 20
66.89912361330325
 30
0.0
 40
5.0
 41
0.0
 71
     5
 72
     1
  1
\A1;59
  7
SUNPOU
 11
0.0000000000000001
 21
1.0
 31
0.0
 73
     1
 44
1.0
1001
ACAD
1000
MTEXTBEGIN
1070
    73
1070
     1
1070
    44
1040
1.0
1070
    74
1070
     0
1000
MTEXTEND
  0
POINT
  5
2C7B
330
2C16
100
AcDbEntity
  8
DEFPOINTS
 62
     0
100
AcDbPoint
 10
27.31215803555756
 20
96.39912361330324
 30
0.0
  0
POINT
  5
2C7C
330
2C16
100
AcDbEntity
  8
DEFPOINTS
 62
     0
100
AcDbPoint
 10
29.39574259876804
 20
37.39912361330323
 30
0.0
  0
POINT
  5
2C7D
330
2C16
100
AcDbEntity
  8
DEFPOINTS
 62
     0
100
AcDbPoint
 10
6.685379181480812
 20
37.39912361330324
 30
0.0
  0
ENDBLK
  5
2C21
330
2C16
100
AcDbEntity
  8
0
100
AcDbBlockEnd
  0
BLOCK
  5
2D57
330
2D4D
100
AcDbEntity
  8
0
100
AcDbBlockBegin
  2
*D32
 70
     1
 10
0.0
 20
0.0
 30
0.0
  3
*D32
  1

  0
LINE
  5
2D94
330
2D4D
100
AcDbEntity
  8
SUNPOU
 62
    70
370
    -2
100
AcDbLine
 10
0.1418159049885054
 20
125.6030844466623
 30
0.0
 11
0.1418159049885066
 21
145.3652734674748
 31
0.0
  0
LINE
  5
2D95
330
2D4D
100
AcDbEntity
  8
SUNPOU
 62
    70
370
    -2
100
AcDbLine
 10
148.1418159049885
 20
124.931205663816
 30
0.0
 11
148.1418159049885
 21
145.3652734674748
 31
0.0
  0
LINE
  5
2D96
330
2D4D
100
AcDbEntity
  8
SUNPOU
 62
    60
370
    -2
100
AcDbLine
 10
2.141815904988506
 20
145.3652734674748
 30
0.0
 11
146.1418159049885
 21
145.3652734674748
 31
0.0
  0
INSERT
  5
2D97
330
2D4D
100
AcDbEntity
  8
SUNPOU
 62
    60
370
    -2
100
AcDbBlockReference
  2
_Dot
 10
0.1418159049885066
 20
145.3652734674748
 30
0.0
 41
2.0
 42
2.0
 43
2.0
 50
180.0
  0
INSERT
  5
2D98
330
2D4D
100
AcDbEntity
  8
SUNPOU
 62
    60
370
    -2
100
AcDbBlockReference
  2
_Dot
 10
148.1418159049885
 20
145.3652734674748
 30
0.0
 41
2.0
 42
2.0
 43
2.0
  0
MTEXT
  5
2D99
330
2D4D
100
AcDbEntity
  8
SUNPOU
 62
    60
100
AcDbMText
 10
74.1418159049885
 20
150.8652734674748
 30
0.0
 40
5.0
 41
0.0
 71
     5
 72
     1
  1
\A1;148
  7
SUNPOU
 73
     1
 44
1.0
1001
ACAD
1000
MTEXTBEGIN
1070
    73
1070
     1
1070
    44
1040
1.0
1070
    74
1070
     0
1000
MTEXTEND
  0
POINT
  5
2D9A
330
2D4D
100
AcDbEntity
  8
DEFPOINTS
 62
     0
100
AcDbPoint
 10
0.1418159049885048
 20
115.6030844466623
 30
0.0
  0
POINT
  5
2D9B
330
2D4D
100
AcDbEntity
  8
DEFPOINTS
 62
     0
100
AcDbPoint
 10
148.1418159049885
 20
114.931205663816
 30
0.0
  0
POINT
  5
2D9C
330
2D4D
100
AcDbEntity
  8
DEFPOINTS
 62
     0
100
AcDbPoint
 10
148.1418159049885
 20
145.3652734674748
 30
0.0
  0
ENDBLK
  5
2D58
330
2D4D
100
AcDbEntity
  8
0
100
AcDbBlockEnd
  0
BLOCK
  5
2D64
330
2D5A
100
AcDbEntity
  8
0
100
AcDbBlockBegin
  2
*D33
 70
     1
 10
0.0
 20
0.0
 30
0.0
  3
*D33
  1

  0
LINE
  5
2D82
330
2D5A
100
AcDbEntity
  8
SUNPOU
 62
    70
370
    -2
100
AcDbLine
 10
-9.858184095011495
 20
115.6030844466623
 30
0.0
 11
-29.12859584432521
 21
115.6030844466623
 31
0.0
  0
LINE
  5
2D83
330
2D5A
100
AcDbEntity
  8
SUNPOU
 62
    70
370
    -2
100
AcDbLine
 10
-10.17002237899623
 20
35.60308444666254
 30
0.0
 11
-29.12859584432522
 21
35.60308444666254
 31
0.0
  0
LINE
  5
2D84
330
2D5A
100
AcDbEntity
  8
SUNPOU
 62
    60
370
    -2
100
AcDbLine
 10
-29.12859584432521
 20
113.6030844466623
 30
0.0
 11
-29.12859584432522
 21
37.60308444666254
 31
0.0
  0
INSERT
  5
2D85
330
2D5A
100
AcDbEntity
  8
SUNPOU
 62
    60
370
    -2
100
AcDbBlockReference
  2
_Dot
 10
-29.12859584432521
 20
115.6030844466623
 30
0.0
 41
2.0
 42
2.0
 43
2.0
 50
90.0
  0
INSERT
  5
2D86
330
2D5A
100
AcDbEntity
  8
SUNPOU
 62
    60
370
    -2
100
AcDbBlockReference
  2
_Dot
 10
-29.12859584432522
 20
35.60308444666254
 30
0.0
 41
2.0
 42
2.0
 43
2.0
 50
270.0
  0
MTEXT
  5
2D87
330
2D5A
100
AcDbEntity
  8
SUNPOU
 62
    60
100
AcDbMText
 10
-34.62859584432523
 20
75.60308444666244
 30
0.0
 40
5.0
 41
0.0
 71
     5
 72
     1
  1
\A1;80
  7
SUNPOU
 11
0.0000000000000001
 21
1.0
 31
0.0
 73
     1
 44
1.0
1001
ACAD
1000
MTEXTBEGIN
1070
    73
1070
     1
1070
    44
1040
1.0
1070
    74
1070
     0
1000
MTEXTEND
  0
POINT
  5
2D88
330
2D5A
100
AcDbEntity
  8
DEFPOINTS
 62
     0
100
AcDbPoint
 10
0.1418159049885048
 20
115.6030844466623
 30
0.0
  0
POINT
  5
2D89
330
2D5A
100
AcDbEntity
  8
DEFPOINTS
 62
     0
100
AcDbPoint
 10
-0.1700223789962365
 20
35.60308444666254
 30
0.0
  0
POINT
  5
2D8A
330
2D5A
100
AcDbEntity
  8
DEFPOINTS
 62
     0
100
AcDbPoint
 10
-29.12859584432522
 20
35.60308444666254
 30
0.0
  0
ENDBLK
  5
2D65
330
2D5A
100
AcDbEntity
  8
0
100
AcDbBlockEnd
  0
ENDSEC
  0
SECTION
  2
ENTITIES
  0
LINE
  5
1F
330
2
100
AcDbEntity
  8
WAKU
100
AcDbLine
 10
0.0
 20
14.0
 30
0.0
 11
148.6829221395387
 21
14.0
 31
0.0
  0
LINE
  5
20
330
2
100
AcDbEntity
  8
WAKU
100
AcDbLine
 10
0.0
 20
0.0
 30
0.0
 11
148.6829221395387
 21
0.0
 31
0.0
  0
TEXT
  5
21
330
2
100
AcDbEntity
  8
HOJO
100
AcDbText
 10
9.653966000000025
 20
2.366626000000024
 30
0.0
 40
9.0
  1
TWM265
  7
SUNPOU
100
AcDbText
  0
TEXT
  5
23
330
2
100
AcDbEntity
  8
HOJO
100
AcDbText
 10
85.84696046283864
 20
5.044386000000031
 30
0.0
 40
6.0
  1
148×80×5
  7
SUNPOU
100
AcDbText
  0
ARC
  5
2CEE
102
{ACAD_REACTORS
330
2D78
102
}
330
2
100
AcDbEntity
  8
KIJUN
100
AcDbCircle
 10
74.97240938925575
 20
98.48912511873528
 30
0.0
 40
17.13410311087369
100
AcDbArc
 50
92.77856151603955
 51
143.822950015969
  0
ARC
  5
2CEF
102
{ACAD_REACTORS
330
2D78
102
}
330
2
100
AcDbEntity
  8
KIJUN
100
AcDbCircle
 10
53.24316725633844
 20
96.52200336558133
 30
0.0
 40
14.43402821676813
100
AcDbArc
 50
56.82321513132822
 51
167.674832183095
  0
ARC
  5
2CF0
102
{ACAD_REACTORS
330
2D78
102
}
330
2
100
AcDbEntity
  8
KIJUN
100
AcDbCircle
 10
35.51415633051943
 20
85.65627593602414
 30
0.0
 40
14.41087719816667
100
AcDbArc
 50
75.42005283222313
 51
184.1910893523117
  0
ARC
  5
2CF1
102
{ACAD_REACTORS
330
2D78
102
}
330
2
100
AcDbEntity
  8
KIJUN
100
AcDbCircle
 10
21.2668159049872
 20
70.60308444666237
 30
0.0
 40
14.00055802459316
100
AcDbArc
 50
90.51155586658923
 51
209.9986815395254
  0
ARC
  5
2CF4
102
{ACAD_REACTORS
330
2D78
102
}
330
2
100
AcDbEntity
  8
KIJUN
100
AcDbCircle
 10
63.54483684991373
 20
78.48973052550082
 30
0.0
 40
39.13512280167638
100
AcDbArc
 50
227.5720111603623
 51
263.5400792788086
  0
ARC
  5
2CF5
102
{ACAD_REACTORS
330
2D78
102
}
330
2
100
AcDbEntity
  8
KIJUN
100
AcDbCircle
 10
64.16548874681598
 20
47.29246718128286
 30
0.0
 40
9.184982071903672
100
AcDbArc
 50
236.8423748867291
 51
288.9075924154603
  0
ARC
  5
2CF6
102
{ACAD_REACTORS
330
2D78
102
}
330
2
100
AcDbEntity
  8
KIJUN
100
AcDbCircle
 10
76.95792953634463
 20
51.8406829198276
 30
0.0
 40
16.4799909029239
100
AcDbArc
 50
233.4418521350201
 51
260.1609668376743
  0
ARC
  5
2CF7
102
{ACAD_REACTORS
330
2D78
102
}
330
2
100
AcDbEntity
  8
KIJUN
100
AcDbCircle
 10
76.95792953634463
 20
51.8406829198276
 30
0.0
 40
14.4799909029239
100
AcDbArc
 50
233.5700282796819
 51
258.7854702239416
  0
ARC
  5
2CF8
102
{ACAD_REACTORS
330
2D78
102
}
330
2
100
AcDbEntity
  8
KIJUN
100
AcDbCircle
 10
74.14181590498742
 20
50.10308444666236
 30
0.0
 40
1.5
100
AcDbArc
 50
90.0
 51
180.0
  0
ARC
  5
2CF9
102
{ACAD_REACTORS
330
2D78
102
}
330
2
100
AcDbEntity
  8
KIJUN
100
AcDbCircle
 10
45.26644707506193
 20
56.13043475659208
 30
0.0
 40
28.03105011113689
100
AcDbArc
 50
321.2970087401072
 51
347.5830609163751
  0
ARC
  5
2CFA
102
{ACAD_REACTORS
330
2D78
102
}
330
2
100
AcDbEntity
  8
KIJUN
100
AcDbCircle
 10
74.14181590498742
 20
51.32183444666225
 30
0.0
 40
7.281250000000051
100
AcDbArc
 50
90.0
 51
153.2150044924998
  0
ARC
  5
2CFB
102
{ACAD_REACTORS
330
2D78
102
}
330
2
100
AcDbEntity
  8
KIJUN
100
AcDbCircle
 10
54.74593079763076
 20
52.00241934083988
 30
0.0
 40
13.15550499581021
100
AcDbArc
 50
289.5207339379528
 51
11.40170154279237
  0
ARC
  5
2CFC
102
{ACAD_REACTORS
330
2D78
102
}
330
2
100
AcDbEntity
  8
KIJUN
100
AcDbCircle
 10
61.54355865621846
 20
51.96609695994493
 30
0.0
 40
6.643978061157634
100
AcDbArc
 50
23.3844554146475
 51
178.8011215936658
  0
ARC
  5
2CFD
102
{ACAD_REACTORS
330
2D78
102
}
330
2
100
AcDbEntity
  8
KIJUN
100
AcDbCircle
 10
57.90103500676059
 20
52.10510790748674
 30
0.0
 40
3.0
100
AcDbArc
 50
175.628922135428
 51
0.0
  0
ARC
  5
2CFE
102
{ACAD_REACTORS
330
2D78
102
}
330
2
100
AcDbEntity
  8
KIJUN
100
AcDbCircle
 10
50.88287160238905
 20
61.71662782272733
 30
0.0
 40
18.31814796323303
100
AcDbArc
 50
165.8467423131461
 51
221.3980601418111
  0
ARC
  5
2CFF
102
{ACAD_REACTORS
330
2D78
102
}
330
2
100
AcDbEntity
  8
KIJUN
100
AcDbCircle
 10
-9.054030987977967
 20
19.20217266234772
 30
0.0
 40
72.03518884408492
100
AcDbArc
 50
27.38298296153341
 51
65.21705219059217
  0
ARC
  5
2D00
102
{ACAD_REACTORS
330
2D78
102
}
330
2
100
AcDbEntity
  8
KIJUN
100
AcDbCircle
 10
70.617971347604
 20
72.98482350866698
 30
0.0
 40
26.80924844718664
100
AcDbArc
 50
191.757054948799
 51
234.5150342050108
  0
SPLINE
  5
2D01
102
{ACAD_REACTORS
330
2D78
102
}
330
2
100
AcDbEntity
  8
KIJUN
100
AcDbSpline
210
0.0
220
0.0
230
1.0
 70
     8
 71
     3
 72
    12
 73
     8
 74
     6
 42
0.0000000001
 43
0.0000000001
 44
0.0000000001
 40
0.0
 40
0.0
 40
0.0
 40
0.0
 40
7.894469069233666
 40
19.03082158089182
 40
24.9875152611449
 40
29.62444130143359
 40
34.17974754458487
 40
34.17974754458487
 40
34.17974754458487
 40
34.17974754458487
 10
44.37117047108495
 20
67.52210934340644
 30
0.0
 10
43.85610367704617
 20
64.82610926917413
 30
0.0
 10
42.61445662344067
 20
58.32698995604128
 30
0.0
 10
48.86397338800413
 20
51.3973660582906
 30
0.0
 10
54.2228571067622
 20
46.8191923201516
 30
0.0
 10
60.70003944230186
 20
46.78121008452351
 30
0.0
 10
60.83443425871732
 20
50.34101137893842
 30
0.0
 10
60.90103500676059
 20
52.10510790748674
 30
0.0
 11
44.37117047108495
 21
67.52210934340644
 31
0.0
 11
43.85868529289678
 21
59.64429233441058
 31
0.0
 11
50.13409130698801
 21
50.44442132323752
 31
0.0
 11
55.15441635095794
 21
47.23840571921198
 31
0.0
 11
59.76903493495502
 21
47.6926946441664
 31
0.0
 11
60.90103500676059
 21
52.10510790748674
 31
0.0
  0
ARC
  5
2D02
102
{ACAD_REACTORS
330
2D78
102
}
330
2
100
AcDbEntity
  8
KIJUN
100
AcDbCircle
 10
12.2893268026728
 20
22.44157289645398
 30
0.0
 40
41.28167702442548
100
AcDbArc
 50
60.04201391459034
 51
94.37274569381015
  0
SPLINE
  5
2D03
102
{ACAD_REACTORS
330
2D78
102
}
330
2
100
AcDbEntity
  8
KIJUN
100
AcDbSpline
210
0.0
220
0.0
230
1.0
 70
     8
 71
     3
 72
     9
 73
     5
 74
     3
 42
0.0000000001
 43
0.0000000001
 44
0.0000000001
 40
0.0
 40
0.0
 40
0.0
 40
0.0
 40
4.295847067763203
 40
9.800295262485295
 40
9.800295262485295
 40
9.800295262485295
 40
9.800295262485295
 10
33.12076825788608
 20
66.19571585290657
 30
0.0
 10
33.74527592331572
 20
67.59241537176873
 30
0.0
 10
35.16999133295491
 20
70.77876429478739
 30
0.0
 10
38.71993271170223
 20
71.1005360291048
 30
0.0
 10
40.71379798721227
 20
71.28126281280242
 30
0.0
 11
33.12076825788608
 21
66.19571585290657
 31
0.0
 11
35.40263359844039
 21
69.83541262560436
 31
0.0
 11
40.71379798721227
 21
71.28126281280242
 31
0.0
  0
SPLINE
  5
2D04
102
{ACAD_REACTORS
330
2D78
102
}
330
2
100
AcDbEntity
  8
KIJUN
100
AcDbSpline
210
0.0
220
0.0
230
1.0
 70
     8
 71
     3
 72
    11
 73
     7
 74
     5
 42
0.0000000001
 43
0.0000000001
 44
0.0000000001
 40
0.0
 40
0.0
 40
0.0
 40
0.0
 40
3.817979733793976
 40
9.20707078688183
 40
20.93438863980559
 40
35.17796542318258
 40
35.17796542318258
 40
35.17796542318258
 40
35.17796542318258
 10
6.017835388693811
 20
45.02568142926577
 30
0.0
 10
5.837496978107623
 20
46.34111825192387
 30
0.0
 10
5.402610303051602
 20
49.51329851120695
 30
0.0
 10
11.10532456606657
 20
55.02700695616616
 30
0.0
 10
22.13439570226228
 20
55.10938884470307
 30
0.0
 10
30.53578691731468
 20
53.32416708699198
 30
0.0
 10
35.14347804750491
 20
52.34507323838148
 30
0.0
 11
6.017835388693811
 21
45.02568142926577
 31
0.0
 11
5.982890436836669
 21
48.84350123879073
 31
0.0
 11
9.51325956968958
 21
52.91520802640093
 31
0.0
 11
21.10011248119599
 21
54.72485540382547
 31
0.0
 11
35.14347804750491
 21
52.34507323838148
 31
0.0
  0
SPLINE
  5
2D05
102
{ACAD_REACTORS
330
2D78
102
}
330
2
100
AcDbEntity
  8
KIJUN
100
AcDbSpline
210
0.0
220
0.0
230
1.0
 70
     8
 71
     3
 72
    18
 73
    14
 74
    12
 42
0.0000000001
 43
0.0000000001
 44
0.0000000001
 40
0.0
 40
0.0
 40
0.0
 40
0.0
 40
10.95090277455686
 40
18.99298893836481
 40
20.89783774407312
 40
21.83393083229956
 40
26.7096958431198
 40
32.6743179341937
 40
33.78150171173412
 40
35.94157404461309
 40
39.05875154210324
 40
46.12157260720159
 40
52.21809473811561
 40
52.21809473811561
 40
52.21809473811561
 40
52.21809473811561
 10
32.58004927034813
 20
60.96746863761416
 30
0.0
 10
29.58674892879094
 20
62.78120817899498
 30
0.0
 10
24.39523901889681
 20
65.92691550155087
 30
0.0
 10
14.30345056870592
 20
63.65970111642629
 30
0.0
 10
14.17265339648873
 20
68.02381933249364
 30
0.0
 10
15.98767921592628
 20
69.89576085612691
 30
0.0
 10
19.21635724083154
 20
72.48154373711867
 30
0.0
 10
18.61687955740399
 20
77.41765190076782
 30
0.0
 10
21.16351119396989
 20
79.26250907174744
 30
0.0
 10
23.39019075566799
 20
79.88770613426099
 30
0.0
 10
26.92213146634603
 20
77.23068705993779
 30
0.0
 10
31.82717264807172
 20
75.08248030629286
 30
0.0
 10
34.93847375619498
 20
71.90693790296936
 30
0.0
 10
36.37989190139228
 20
70.4357577497392
 30
0.0
 11
32.58004927034813
 21
60.96746863761416
 31
0.0
 11
22.27690199823314
 21
64.67791711009112
 31
0.0
 11
14.40146280541171
 21
66.3065998251352
 31
0.0
 11
14.47676701206774
 21
68.20995955179444
 31
0.0
 11
15.06691310561496
 21
68.93659416292734
 31
0.0
 11
18.20655389607896
 21
72.66697486033525
 31
0.0
 11
20.01332837909036
 21
78.35136424327391
 31
0.0
 11
20.90042712860509
 21
79.01386837598408
 31
0.0
 11
23.00108034156096
 21
79.51702696148903
 31
0.0
 11
25.80727113108606
 21
78.15979124001557
 31
0.0
 11
31.87226446558725
 21
74.54049610835625
 31
0.0
 11
36.37989190139228
 21
70.4357577497392
 31
0.0
  0
ARC
  5
2D06
102
{ACAD_REACTORS
330
2D78
102
}
330
2
100
AcDbEntity
  8
KIJUN
100
AcDbCircle
 10
-1.97127381538894
 20
29.60792649126495
 30
0.0
 40
62.65297456005744
100
AcDbArc
 50
23.55189441902599
 51
61.72578869661973
  0
SPLINE
  5
2D07
102
{ACAD_REACTORS
330
2D78
102
}
330
2
100
AcDbEntity
  8
KIJUN
100
AcDbSpline
210
0.0
220
0.0
230
1.0
 70
     8
 71
     3
 72
     9
 73
     5
 74
     3
 42
0.0000000001
 43
0.0000000001
 44
0.0000000001
 40
0.0
 40
0.0
 40
0.0
 40
0.0
 40
1.295417260302715
 40
2.788808725917935
 40
2.788808725917935
 40
2.788808725917935
 40
2.788808725917935
 10
27.70693025332844
 20
84.78581540048992
 30
0.0
 10
27.49047714508277
 20
85.22636940456511
 30
0.0
 10
27.02449113769655
 20
86.17480577981908
 30
0.0
 10
27.92294881406756
 20
86.77181842954011
 30
0.0
 10
28.40406787169218
 20
87.09151536238165
 30
0.0
 11
27.70693025332844
 21
84.78581540048992
 31
0.0
 11
27.35197073269137
 21
86.03165231477658
 31
0.0
 11
28.40406787169218
 21
87.09151536238165
 31
0.0
  0
ARC
  5
2D08
102
{ACAD_REACTORS
330
2D78
102
}
330
2
100
AcDbEntity
  8
KIJUN
100
AcDbCircle
 10
-26.96136794527706
 20
40.64286497114301
 30
0.0
 40
88.57730180889026
100
AcDbArc
 50
11.55322574517574
 51
41.73111755105726
  0
ARC
  5
2D09
102
{ACAD_REACTORS
330
2D78
102
}
330
2
100
AcDbEntity
  8
KIJUN
100
AcDbCircle
 10
-53.74107396136287
 20
22.45251935393264
 30
0.0
 40
117.7472624269258
100
AcDbArc
 50
17.51801382660677
 51
37.64759543544844
  0
SPLINE
  5
2D0A
102
{ACAD_REACTORS
330
2D78
102
}
330
2
100
AcDbEntity
  8
KIJUN
100
AcDbSpline
210
0.0
220
0.0
230
1.0
 70
     8
 71
     3
 72
    10
 73
     6
 74
     4
 42
0.0000000001
 43
0.0000000001
 44
0.0000000001
 40
0.0
 40
0.0
 40
0.0
 40
0.0
 40
1.213674442457954
 40
3.010719012565838
 40
5.632849010990076
 40
5.632849010990076
 40
5.632849010990076
 40
5.632849010990076
 10
35.04187254432191
 20
93.72639332282995
 30
0.0
 10
35.19624674143808
 20
94.10217983583825
 30
0.0
 10
35.57919732031482
 20
95.03438006993775
 30
0.0
 10
37.53361183707546
 20
96.13134499142521
 30
0.0
 10
38.76092242448203
 20
95.02774011021498
 30
0.0
 10
39.48915070755061
 20
94.37291296533715
 30
0.0
 11
35.04187254432191
 21
93.72639332282995
 31
0.0
 11
35.61251921955659
 21
94.79754598436761
 31
0.0
 11
37.19673366315829
 21
95.64585829928352
 31
0.0
 11
39.48915070755061
 21
94.37291296533715
 31
0.0
  0
ARC
  5
2D0B
102
{ACAD_REACTORS
330
2D78
102
}
330
2
100
AcDbEntity
  8
KIJUN
100
AcDbCircle
 10
-296.4065059379013
 20
16.53556041302738
 30
0.0
 40
369.211635020282
100
AcDbArc
 50
6.390922423270114
 51
14.439789465528
  0
ARC
  5
2D0C
102
{ACAD_REACTORS
330
2D78
102
}
330
2
100
AcDbEntity
  8
KIJUN
100
AcDbCircle
 10
-1411.751563541143
 20
-216.7350709234107
 30
0.0
 40
1505.5263533025
100
AcDbArc
 50
10.44806509911227
 51
12.2910604847627
  0
ARC
  5
2D0D
102
{ACAD_REACTORS
330
2D78
102
}
330
2
100
AcDbEntity
  8
KIJUN
100
AcDbCircle
 10
-26.96136794527706
 20
40.64286497114301
 30
0.0
 40
91.57730180889025
100
AcDbArc
 50
11.55322574517574
 51
37.61890799570399
  0
ARC
  5
2D0E
102
{ACAD_REACTORS
330
2D78
102
}
330
2
100
AcDbEntity
  8
KIJUN
100
AcDbCircle
 10
48.9690635117563
 20
106.4043926202071
 30
0.0
 40
7.559881330252836
100
AcDbArc
 50
253.3704445332727
 51
342.6345599502561
  0
SPLINE
  5
2D0F
102
{ACAD_REACTORS
330
2D78
102
}
330
2
100
AcDbEntity
  8
KIJUN
100
AcDbSpline
210
0.0
220
0.0
230
1.0
 70
     8
 71
     3
 72
     9
 73
     5
 74
     3
 42
0.0000000001
 43
0.0000000001
 44
0.0000000001
 40
0.0
 40
0.0
 40
0.0
 40
0.0
 40
1.475059109319189
 40
3.917200924870097
 40
3.917200924870097
 40
3.917200924870097
 40
3.917200924870097
 10
46.80555648257928
 20
99.1607027412706
 30
0.0
 10
46.21718426200928
 20
99.178588471303
 30
0.0
 10
44.65468944941261
 20
99.22608622768597
 30
0.0
 10
45.22215536610673
 20
97.57291043122648
 30
0.0
 10
45.57593661721898
 20
96.54225363867908
 30
0.0
 11
46.80555648257928
 21
99.1607027412706
 31
0.0
 11
45.34246193788635
 21
98.97320946332355
 31
0.0
 11
45.57593661721898
 21
96.54225363867908
 31
0.0
  0
SPLINE
  5
2D10
102
{ACAD_REACTORS
330
2D78
102
}
330
2
100
AcDbEntity
  8
KIJUN
100
AcDbSpline
210
0.0
220
0.0
230
1.0
 70
     8
 71
     3
 72
     9
 73
     5
 74
     3
 42
0.0000000001
 43
0.0000000001
 44
0.0000000001
 40
0.0
 40
0.0
 40
0.0
 40
0.0
 40
1.475059109319302
 40
4.061455835849801
 40
4.061455835849801
 40
4.061455835849801
 40
4.061455835849801
 10
56.18436947140025
 20
104.148031470871
 30
0.0
 10
56.49500670990971
 20
104.6362235849181
 30
0.0
 10
57.35032119677038
 20
105.9804210466236
 30
0.0
 10
58.52088616164696
 20
104.6228202853147
 30
0.0
 10
59.26631969969617
 20
103.7582795130155
 30
0.0
 11
56.18436947140025
 21
104.148031470871
 31
0.0
 11
57.15786373817832
 21
105.2562319439516
 31
0.0
 11
59.26631969969617
 21
103.7582795130155
 31
0.0
  0
ARC
  5
2D11
102
{ACAD_REACTORS
330
2D78
102
}
330
2
100
AcDbEntity
  8
KIJUN
100
AcDbCircle
 10
27.71017592215503
 20
94.42351871284939
 30
0.0
 40
7.364764705603477
100
AcDbArc
 50
275.4063012896664
 51
354.5684305324158
  0
ARC
  5
2D12
102
{ACAD_REACTORS
330
2D78
102
}
330
2
100
AcDbEntity
  8
KIJUN
100
AcDbCircle
 10
-296.4065059379013
 20
16.53556041302738
 30
0.0
 40
372.211635020282
100
AcDbArc
 50
6.483969539607061
 51
13.60066375448394
  0
SPLINE
  5
2D13
102
{ACAD_REACTORS
330
2D78
102
}
330
2
100
AcDbEntity
  8
KIJUN
100
AcDbSpline
210
0.0
220
0.0
230
1.0
 70
     8
 71
     3
 72
     9
 73
     5
 74
     3
 42
0.0000000001
 43
0.0000000001
 44
0.0000000001
 40
0.0
 40
0.0
 40
0.0
 40
0.0
 40
1.405413976970796
 40
4.355255145102425
 40
4.355255145102425
 40
4.355255145102425
 40
4.355255145102425
 10
67.251352497791
 20
107.0745393550072
 30
0.0
 10
66.72107821058822
 20
107.1096410343269
 30
0.0
 10
65.07780451650328
 20
107.2184180722417
 30
0.0
 10
65.25062257728447
 20
105.3368079703518
 30
0.0
 10
65.36767331560054
 20
104.0623818446704
 30
0.0
 11
67.251352497791
 21
107.0745393550072
 31
0.0
 11
65.84964164957182
 21
106.9725827728287
 31
0.0
 11
65.36767331560054
 21
104.0623818446704
 31
0.0
  0
ARC
  5
2D14
102
{ACAD_REACTORS
330
2D78
102
}
330
2
100
AcDbEntity
  8
KIJUN
100
AcDbCircle
 10
444.6901377478761
 20
16.53556041302738
 30
0.0
 40
372.211635020282
100
AcDbArc
 50
166.3993362455161
 51
173.5160304603929
  0
ARC
  5
2D15
102
{ACAD_REACTORS
330
2D78
102
}
330
2
100
AcDbEntity
  8
KIJUN
100
AcDbCircle
 10
1560.035195351118
 20
-216.7350709234107
 30
0.0
 40
1505.5263533025
100
AcDbArc
 50
167.7089395152373
 51
169.5519349008877
  0
ARC
  5
2D16
102
{ACAD_REACTORS
330
2D78
102
}
330
2
100
AcDbEntity
  8
KIJUN
100
AcDbCircle
 10
175.2449997552519
 20
40.64286497114301
 30
0.0
 40
91.57730180889025
100
AcDbArc
 50
142.381092004296
 51
168.4467742548242
  0
ARC
  5
2D17
102
{ACAD_REACTORS
330
2D78
102
}
330
2
100
AcDbEntity
  8
KIJUN
100
AcDbCircle
 10
444.6901377478761
 20
16.53556041302738
 30
0.0
 40
369.211635020282
100
AcDbArc
 50
165.5602105344716
 51
173.6090775767299
  0
ARC
  5
2D18
102
{ACAD_REACTORS
330
2D78
102
}
330
2
100
AcDbEntity
  8
KIJUN
100
AcDbCircle
 10
202.0247057713377
 20
22.45251935393264
 30
0.0
 40
117.7472624269258
100
AcDbArc
 50
142.3524045645515
 51
162.4819861733932
  0
ARC
  5
2D19
102
{ACAD_REACTORS
330
2D78
102
}
330
2
100
AcDbEntity
  8
KIJUN
100
AcDbCircle
 10
150.2549056253638
 20
29.60792649126495
 30
0.0
 40
62.65297456005744
100
AcDbArc
 50
118.2742113033802
 51
156.448105580974
  0
ARC
  5
2D1A
102
{ACAD_REACTORS
330
2D78
102
}
330
2
100
AcDbEntity
  8
KIJUN
100
AcDbCircle
 10
175.2449997552519
 20
40.64286497114301
 30
0.0
 40
88.57730180889026
100
AcDbArc
 50
138.2688824489427
 51
168.4467742548242
  0
ARC
  5
2D1B
102
{ACAD_REACTORS
330
2D78
102
}
330
2
100
AcDbEntity
  8
KIJUN
100
AcDbCircle
 10
157.3376627979528
 20
19.20217266234772
 30
0.0
 40
72.03518884408492
100
AcDbArc
 50
114.7829478094078
 51
152.6170170384666
  0
ARC
  5
2D1C
102
{ACAD_REACTORS
330
2D78
102
}
330
2
100
AcDbEntity
  8
KIJUN
100
AcDbCircle
 10
127.0168159049876
 20
70.60308444666237
 30
0.0
 40
14.00055802459316
100
AcDbArc
 50
330.0013184604746
 51
89.48844413341076
  0
SPLINE
  5
2D1D
102
{ACAD_REACTORS
330
2D78
102
}
330
2
100
AcDbEntity
  8
KIJUN
100
AcDbSpline
210
0.0
220
0.0
230
1.0
 70
     8
 71
     3
 72
     9
 73
     5
 74
     3
 42
0.0000000001
 43
0.0000000001
 44
0.0000000001
 40
0.0
 40
0.0
 40
0.0
 40
0.0
 40
4.295847067763203
 40
9.800295262485295
 40
9.800295262485295
 40
9.800295262485295
 40
9.800295262485295
 10
115.1628635520888
 20
66.19571585290657
 30
0.0
 10
114.5383558866591
 20
67.59241537176873
 30
0.0
 10
113.1136404770199
 20
70.77876429478739
 30
0.0
 10
109.5636990982726
 20
71.1005360291048
 30
0.0
 10
107.5698338227625
 20
71.28126281280242
 30
0.0
 11
115.1628635520888
 21
66.19571585290657
 31
0.0
 11
112.8809982115344
 21
69.83541262560436
 31
0.0
 11
107.5698338227625
 21
71.28126281280242
 31
0.0
  0
ARC
  5
2D1E
102
{ACAD_REACTORS
330
2D78
102
}
330
2
100
AcDbEntity
  8
KIJUN
100
AcDbCircle
 10
84.73879496006111
 20
78.48973052550082
 30
0.0
 40
39.13512280167638
100
AcDbArc
 50
276.4599207211913
 51
312.4279888396376
  0
SPLINE
  5
2D1F
102
{ACAD_REACTORS
330
2D78
102
}
330
2
100
AcDbEntity
  8
KIJUN
100
AcDbSpline
210
0.0
220
0.0
230
1.0
 70
     8
 71
     3
 72
    18
 73
    14
 74
    12
 42
0.0000000001
 43
0.0000000001
 44
0.0000000001
 40
0.0
 40
0.0
 40
0.0
 40
0.0
 40
10.95090277455686
 40
18.99298893836481
 40
20.89783774407312
 40
21.83393083229956
 40
26.7096958431198
 40
32.6743179341937
 40
33.78150171173412
 40
35.94157404461309
 40
39.05875154210324
 40
46.12157260720159
 40
52.21809473811561
 40
52.21809473811561
 40
52.21809473811561
 40
52.21809473811561
 10
115.7035825396267
 20
60.96746863761416
 30
0.0
 10
118.6968828811839
 20
62.78120817899498
 30
0.0
 10
123.888392791078
 20
65.92691550155087
 30
0.0
 10
133.9801812412689
 20
63.65970111642629
 30
0.0
 10
134.110978413486
 20
68.02381933249364
 30
0.0
 10
132.2959525940486
 20
69.89576085612691
 30
0.0
 10
129.0672745691432
 20
72.48154373711867
 30
0.0
 10
129.6667522525708
 20
77.41765190076782
 30
0.0
 10
127.1201206160049
 20
79.26250907174744
 30
0.0
 10
124.8934410543069
 20
79.88770613426099
 30
0.0
 10
121.3615003436288
 20
77.23068705993779
 30
0.0
 10
116.4564591619031
 20
75.08248030629286
 30
0.0
 10
113.3451580537798
 20
71.90693790296936
 30
0.0
 10
111.9037399085826
 20
70.4357577497392
 30
0.0
 11
115.7035825396267
 21
60.96746863761416
 31
0.0
 11
126.0067298117417
 21
64.67791711009112
 31
0.0
 11
133.8821690045631
 21
66.3065998251352
 31
0.0
 11
133.8068647979071
 21
68.20995955179444
 31
0.0
 11
133.2167187043599
 21
68.93659416292734
 31
0.0
 11
130.0770779138959
 21
72.66697486033525
 31
0.0
 11
128.2703034308845
 21
78.35136424327391
 31
0.0
 11
127.3832046813697
 21
79.01386837598408
 31
0.0
 11
125.2825514684139
 21
79.51702696148903
 31
0.0
 11
122.4763606788888
 21
78.15979124001557
 31
0.0
 11
116.4113673443876
 21
74.54049610835625
 31
0.0
 11
111.9037399085826
 21
70.4357577497392
 31
0.0
  0
SPLINE
  5
2D20
102
{ACAD_REACTORS
330
2D78
102
}
330
2
100
AcDbEntity
  8
KIJUN
100
AcDbSpline
210
0.0
220
0.0
230
1.0
 70
     8
 71
     3
 72
    11
 73
     7
 74
     5
 42
0.0000000001
 43
0.0000000001
 44
0.0000000001
 40
0.0
 40
0.0
 40
0.0
 40
0.0
 40
3.817979733793976
 40
9.20707078688183
 40
20.93438863980559
 40
35.17796542318258
 40
35.17796542318258
 40
35.17796542318258
 40
35.17796542318258
 10
142.265796421281
 20
45.02568142926577
 30
0.0
 10
142.4461348318672
 20
46.34111825192387
 30
0.0
 10
142.8810215069233
 20
49.51329851120695
 30
0.0
 10
137.1783072439082
 20
55.02700695616616
 30
0.0
 10
126.1492361077126
 20
55.10938884470307
 30
0.0
 10
117.7478448926601
 20
53.32416708699198
 30
0.0
 10
113.1401537624699
 20
52.34507323838148
 30
0.0
 11
142.265796421281
 21
45.02568142926577
 31
0.0
 11
142.3007413731381
 21
48.84350123879073
 31
0.0
 11
138.7703722402853
 21
52.91520802640093
 31
0.0
 11
127.1835193287788
 21
54.72485540382547
 31
0.0
 11
113.1401537624699
 21
52.34507323838148
 31
0.0
  0
ARC
  5
2D21
102
{ACAD_REACTORS
330
2D78
102
}
330
2
100
AcDbEntity
  8
KIJUN
100
AcDbCircle
 10
135.994305007302
 20
22.44157289645398
 30
0.0
 40
41.28167702442548
100
AcDbArc
 50
85.62725430618986
 51
119.9579860854096
  0
ARC
  5
2D22
102
{ACAD_REACTORS
330
2D78
102
}
330
2
100
AcDbEntity
  8
KIJUN
100
AcDbCircle
 10
97.40076020758579
 20
61.71662782272733
 30
0.0
 40
18.31814796323303
100
AcDbArc
 50
318.6019398581872
 51
14.15325768685393
  0
ARC
  5
2D25
102
{ACAD_REACTORS
330
2D78
102
}
330
2
100
AcDbEntity
  8
KIJUN
100
AcDbCircle
 10
74.14181590498742
 20
51.32183444666225
 30
0.0
 40
7.281250000000051
100
AcDbArc
 50
26.78499550750017
 51
90.0
  0
SPLINE
  5
2D26
102
{ACAD_REACTORS
330
2D78
102
}
330
2
100
AcDbEntity
  8
KIJUN
100
AcDbSpline
210
0.0
220
0.0
230
1.0
 70
     8
 71
     3
 72
    12
 73
     8
 74
     6
 42
0.0000000001
 43
0.0000000001
 44
0.0000000001
 40
0.0
 40
0.0
 40
0.0
 40
0.0
 40
7.894469069233666
 40
19.03082158089182
 40
24.9875152611449
 40
29.62444130143359
 40
34.17974754458487
 40
34.17974754458487
 40
34.17974754458487
 40
34.17974754458487
 10
103.9124613388899
 20
67.52210934340644
 30
0.0
 10
104.4275281329287
 20
64.82610926917413
 30
0.0
 10
105.6691751865342
 20
58.32698995604128
 30
0.0
 10
99.41965842197067
 20
51.3973660582906
 30
0.0
 10
94.06077470321264
 20
46.8191923201516
 30
0.0
 10
87.58359236767295
 20
46.78121008452351
 30
0.0
 10
87.44919755125749
 20
50.34101137893842
 30
0.0
 10
87.38259680321425
 20
52.10510790748674
 30
0.0
 11
103.9124613388899
 21
67.52210934340644
 31
0.0
 11
104.424946517078
 21
59.64429233441058
 31
0.0
 11
98.14954050298684
 21
50.44442132323752
 31
0.0
 11
93.12921545901691
 21
47.23840571921198
 31
0.0
 11
88.51459687501984
 21
47.6926946441664
 31
0.0
 11
87.38259680321425
 21
52.10510790748674
 31
0.0
  0
ARC
  5
2D27
102
{ACAD_REACTORS
330
2D78
102
}
330
2
100
AcDbEntity
  8
KIJUN
100
AcDbCircle
 10
77.66566046237085
 20
72.98482350866698
 30
0.0
 40
26.80924844718664
100
AcDbArc
 50
305.4849657949893
 51
348.2429450512009
  0
ARC
  5
2D28
102
{ACAD_REACTORS
330
2D78
102
}
330
2
100
AcDbEntity
  8
KIJUN
100
AcDbCircle
 10
90.38259680321425
 20
52.10510790748674
 30
0.0
 40
3.0
100
AcDbArc
 50
180.0
 51
4.371077864571985
  0
ARC
  5
2D29
102
{ACAD_REACTORS
330
2D78
102
}
330
2
100
AcDbEntity
  8
KIJUN
100
AcDbCircle
 10
86.74007315375638
 20
51.96609695994493
 30
0.0
 40
6.643978061157634
100
AcDbArc
 50
1.198878406334202
 51
156.6155445853525
  0
ARC
  5
2D2A
102
{ACAD_REACTORS
330
2D78
102
}
330
2
100
AcDbEntity
  8
KIJUN
100
AcDbCircle
 10
93.53770101234408
 20
52.00241934083988
 30
0.0
 40
13.15550499581021
100
AcDbArc
 50
168.5982984572012
 51
250.4792660620473
  0
ARC
  5
2D2B
102
{ACAD_REACTORS
330
2D78
102
}
330
2
100
AcDbEntity
  8
KIJUN
100
AcDbCircle
 10
103.0171847349129
 20
56.13043475659208
 30
0.0
 40
28.03105011113689
100
AcDbArc
 50
192.4169390836249
 51
218.7029912598928
  0
ARC
  5
2D2C
102
{ACAD_REACTORS
330
2D78
102
}
330
2
100
AcDbEntity
  8
KIJUN
100
AcDbCircle
 10
74.14181590498742
 20
50.10308444666236
 30
0.0
 40
1.5
100
AcDbArc
 50
0.0
 51
90.0
  0
ARC
  5
2D2D
102
{ACAD_REACTORS
330
2D78
102
}
330
2
100
AcDbEntity
  8
KIJUN
100
AcDbCircle
 10
71.32570227363022
 20
51.8406829198276
 30
0.0
 40
14.4799909029239
100
AcDbArc
 50
281.2145297760584
 51
306.4299717203181
  0
ARC
  5
2D2E
102
{ACAD_REACTORS
330
2D78
102
}
330
2
100
AcDbEntity
  8
KIJUN
100
AcDbCircle
 10
71.32570227363022
 20
51.8406829198276
 30
0.0
 40
16.4799909029239
100
AcDbArc
 50
279.8390331623257
 51
306.5581478649799
  0
ARC
  5
2D2F
102
{ACAD_REACTORS
330
2D78
102
}
330
2
100
AcDbEntity
  8
KIJUN
100
AcDbCircle
 10
84.11814306315887
 20
47.29246718128286
 30
0.0
 40
9.184982071903672
100
AcDbArc
 50
251.0924075845397
 51
303.1576251132709
  0
SPLINE
  5
2D30
102
{ACAD_REACTORS
330
2D78
102
}
330
2
100
AcDbEntity
  8
KIJUN
100
AcDbSpline
210
0.0
220
0.0
230
1.0
 70
     8
 71
     3
 72
    10
 73
     6
 74
     4
 42
0.0000000001
 43
0.0000000001
 44
0.0000000001
 40
0.0
 40
0.0
 40
0.0
 40
0.0
 40
1.213674442457954
 40
3.010719012565838
 40
5.632849010990076
 40
5.632849010990076
 40
5.632849010990076
 40
5.632849010990076
 10
113.2417592656529
 20
93.72639332282995
 30
0.0
 10
113.0873850685368
 20
94.10217983583825
 30
0.0
 10
112.70443448966
 20
95.03438006993775
 30
0.0
 10
110.7500199728994
 20
96.13134499142521
 30
0.0
 10
109.5227093854928
 20
95.02774011021498
 30
0.0
 10
108.7944811024242
 20
94.37291296533715
 30
0.0
 11
113.2417592656529
 21
93.72639332282995
 31
0.0
 11
112.6711125904182
 21
94.79754598436761
 31
0.0
 11
111.0868981468165
 21
95.64585829928352
 31
0.0
 11
108.7944811024242
 21
94.37291296533715
 31
0.0
  0
ARC
  5
2D31
102
{ACAD_REACTORS
330
2D78
102
}
330
2
100
AcDbEntity
  8
KIJUN
100
AcDbCircle
 10
112.7694754794554
 20
85.65627593602414
 30
0.0
 40
14.41087719816667
100
AcDbArc
 50
355.8089106476883
 51
104.5799471677768
  0
ARC
  5
2D32
102
{ACAD_REACTORS
330
2D78
102
}
330
2
100
AcDbEntity
  8
KIJUN
100
AcDbCircle
 10
95.0404645536364
 20
96.52200336558133
 30
0.0
 40
14.43402821676813
100
AcDbArc
 50
12.325167816905
 51
123.1767848686718
  0
SPLINE
  5
2D33
102
{ACAD_REACTORS
330
2D78
102
}
330
2
100
AcDbEntity
  8
KIJUN
100
AcDbSpline
210
0.0
220
0.0
230
1.0
 70
     8
 71
     3
 72
     9
 73
     5
 74
     3
 42
0.0000000001
 43
0.0000000001
 44
0.0000000001
 40
0.0
 40
0.0
 40
0.0
 40
0.0
 40
1.295417260302715
 40
2.788808725917935
 40
2.788808725917935
 40
2.788808725917935
 40
2.788808725917935
 10
120.5767015566464
 20
84.78581540048992
 30
0.0
 10
120.7931546648921
 20
85.22636940456511
 30
0.0
 10
121.2591406722782
 20
86.17480577981908
 30
0.0
 10
120.3606829959072
 20
86.77181842954011
 30
0.0
 10
119.8795639382826
 20
87.09151536238165
 30
0.0
 11
120.5767015566464
 21
84.78581540048992
 31
0.0
 11
120.9316610772835
 21
86.03165231477658
 31
0.0
 11
119.8795639382826
 21
87.09151536238165
 31
0.0
  0
ARC
  5
2D34
102
{ACAD_REACTORS
330
2D78
102
}
330
2
100
AcDbEntity
  8
KIJUN
100
AcDbCircle
 10
120.5734558878198
 20
94.42351871284939
 30
0.0
 40
7.364764705603477
100
AcDbArc
 50
185.4315694675842
 51
264.5936987103336
  0
SPLINE
  5
2D35
102
{ACAD_REACTORS
330
2D78
102
}
330
2
100
AcDbEntity
  8
KIJUN
100
AcDbSpline
210
0.0
220
0.0
230
1.0
 70
     8
 71
     3
 72
     9
 73
     5
 74
     3
 42
0.0000000001
 43
0.0000000001
 44
0.0000000001
 40
0.0
 40
0.0
 40
0.0
 40
0.0
 40
1.405413976970796
 40
4.355255145102425
 40
4.355255145102425
 40
4.355255145102425
 40
4.355255145102425
 10
81.03227931218384
 20
107.0745393550072
 30
0.0
 10
81.5625535993866
 20
107.1096410343269
 30
0.0
 10
83.20582729347155
 20
107.2184180722417
 30
0.0
 10
83.03300923269034
 20
105.3368079703518
 30
0.0
 10
82.91595849437431
 20
104.0623818446704
 30
0.0
 11
81.03227931218384
 21
107.0745393550072
 31
0.0
 11
82.43399016040303
 21
106.9725827728287
 31
0.0
 11
82.91595849437431
 21
104.0623818446704
 31
0.0
  0
SPLINE
  5
2D36
102
{ACAD_REACTORS
330
2D78
102
}
330
2
100
AcDbEntity
  8
KIJUN
100
AcDbSpline
210
0.0
220
0.0
230
1.0
 70
     8
 71
     3
 72
     9
 73
     5
 74
     3
 42
0.0000000001
 43
0.0000000001
 44
0.0000000001
 40
0.0
 40
0.0
 40
0.0
 40
0.0
 40
1.475059109319302
 40
4.061455835849801
 40
4.061455835849801
 40
4.061455835849801
 40
4.061455835849801
 10
92.09926233857459
 20
104.148031470871
 30
0.0
 10
91.78862510006513
 20
104.6362235849181
 30
0.0
 10
90.93331061320453
 20
105.9804210466236
 30
0.0
 10
89.7627456483279
 20
104.6228202853147
 30
0.0
 10
89.01731211027868
 20
103.7582795130155
 30
0.0
 11
92.09926233857459
 21
104.148031470871
 31
0.0
 11
91.12576807179653
 21
105.2562319439516
 31
0.0
 11
89.01731211027868
 21
103.7582795130155
 31
0.0
  0
SPLINE
  5
2D37
102
{ACAD_REACTORS
330
2D78
102
}
330
2
100
AcDbEntity
  8
KIJUN
100
AcDbSpline
210
0.0
220
0.0
230
1.0
 70
     8
 71
     3
 72
     9
 73
     5
 74
     3
 42
0.0000000001
 43
0.0000000001
 44
0.0000000001
 40
0.0
 40
0.0
 40
0.0
 40
0.0
 40
1.475059109319189
 40
3.917200924870097
 40
3.917200924870097
 40
3.917200924870097
 40
3.917200924870097
 10
101.4780753273955
 20
99.1607027412706
 30
0.0
 10
102.0664475479656
 20
99.178588471303
 30
0.0
 10
103.6289423605621
 20
99.22608622768597
 30
0.0
 10
103.0614764438681
 20
97.57291043122648
 30
0.0
 10
102.7076951927558
 20
96.54225363867908
 30
0.0
 11
101.4780753273955
 21
99.1607027412706
 31
0.0
 11
102.9411698720885
 21
98.97320946332355
 31
0.0
 11
102.7076951927558
 21
96.54225363867908
 31
0.0
  0
ARC
  5
2D38
102
{ACAD_REACTORS
330
2D78
102
}
330
2
100
AcDbEntity
  8
KIJUN
100
AcDbCircle
 10
99.31456829821854
 20
106.4043926202071
 30
0.0
 40
7.559881330252836
100
AcDbArc
 50
197.3654400497439
 51
286.6295554667273
  0
ARC
  5
2D39
102
{ACAD_REACTORS
330
2D78
102
}
330
2
100
AcDbEntity
  8
KIJUN
100
AcDbCircle
 10
73.3112224207191
 20
98.48912511873528
 30
0.0
 40
17.13410311087369
100
AcDbArc
 50
36.177049984031
 51
87.22143848396042
  0
ARC
  5
2D3A
102
{ACAD_REACTORS
330
2D78
102
}
330
2
100
AcDbEntity
  8
KIJUN
100
AcDbCircle
 10
74.14181590498765
 20
115.630872927542
 30
0.0
 40
10.98586956824075
100
AcDbArc
 50
231.1553117747775
 51
308.8446882252225
  0
ARC
  5
2D3E
102
{ACAD_REACTORS
330
2D78
102
}
330
2
100
AcDbEntity
  8
KIJUN
100
AcDbCircle
 10
22.00153167817051
 20
42.36994167714444
 30
0.0
 40
24.82375156252144
100
AcDbArc
 50
121.2009228251544
 51
146.6854569352868
  0
ARC
  5
2D3F
102
{ACAD_REACTORS
330
2D78
102
}
330
2
100
AcDbEntity
  8
KIJUN
100
AcDbCircle
 10
11.56458141739519
 20
51.08103105896094
 30
0.0
 40
11.42276551240669
100
AcDbArc
 50
154.4702357859562
 51
208.0014098903191
  0
ARC
  5
2D41
102
{ACAD_REACTORS
330
2D78
102
}
330
2
100
AcDbEntity
  8
KIJUN
100
AcDbCircle
 10
26.88995670094508
 20
-62.0748077999884
 30
0.0
 40
112.1474575449397
100
AcDbArc
 50
84.75503539769146
 51
96.7409066636597
  0
ARC
  5
2D42
102
{ACAD_REACTORS
330
2D78
102
}
330
2
100
AcDbEntity
  8
KIJUN
100
AcDbCircle
 10
14.8943259250615
 20
42.3647723633032
 30
0.0
 40
7.030351899139778
100
AcDbArc
 50
99.5650466901942
 51
133.6439208794167
  0
ARC
  5
2D43
102
{ACAD_REACTORS
330
2D78
102
}
330
2
100
AcDbEntity
  8
KIJUN
100
AcDbCircle
 10
2.616250379557043
 20
55.29098838125193
 30
0.0
 40
10.7976895624554
100
AcDbArc
 50
283.5451603413789
 51
313.4507676606447
  0
ARC
  5
2D45
102
{ACAD_REACTORS
330
2D78
102
}
330
2
100
AcDbEntity
  8
KIJUN
100
AcDbCircle
 10
4.118485952973326
 20
48.45369379323283
 30
0.0
 40
3.801341965749651
100
AcDbArc
 50
226.0242616450114
 51
285.6697055880431
  0
ARC
  5
2D46
102
{ACAD_REACTORS
330
2D78
102
}
330
2
100
AcDbEntity
  8
KIJUN
100
AcDbCircle
 10
126.2821001318065
 20
42.36994167714444
 30
0.0
 40
24.82375156252144
100
AcDbArc
 50
33.31454306471317
 51
58.79907717484515
  0
ARC
  5
2D47
102
{ACAD_REACTORS
330
2D78
102
}
330
2
100
AcDbEntity
  8
KIJUN
100
AcDbCircle
 10
136.7190503925818
 20
51.08103105896094
 30
0.0
 40
11.42276551240669
100
AcDbArc
 50
331.9985901096812
 51
25.52976421404401
  0
ARC
  5
2D48
102
{ACAD_REACTORS
330
2D78
102
}
330
2
100
AcDbEntity
  8
KIJUN
100
AcDbCircle
 10
121.3936751090319
 20
-62.0748077999884
 30
0.0
 40
112.1474575449397
100
AcDbArc
 50
83.25909333633978
 51
95.24496460230816
  0
ARC
  5
2D49
102
{ACAD_REACTORS
330
2D78
102
}
330
2
100
AcDbEntity
  8
KIJUN
100
AcDbCircle
 10
133.3893058849155
 20
42.3647723633032
 30
0.0
 40
7.030351899139778
100
AcDbArc
 50
46.35607912058282
 51
80.43495330980569
  0
ARC
  5
2D4A
102
{ACAD_REACTORS
330
2D78
102
}
330
2
100
AcDbEntity
  8
KIJUN
100
AcDbCircle
 10
145.6673814304199
 20
55.29098838125193
 30
0.0
 40
10.7976895624554
100
AcDbArc
 50
226.5492323393549
 51
256.4548396586211
  0
ARC
  5
2D4B
102
{ACAD_REACTORS
330
2D78
102
}
330
2
100
AcDbEntity
  8
KIJUN
100
AcDbCircle
 10
144.1651458570037
 20
48.45369379323283
 30
0.0
 40
3.801341965749651
100
AcDbArc
 50
254.3302944119564
 51
313.9757383549885
  0
DIMENSION
  5
2D4C
330
2
100
AcDbEntity
  8
SUNPOU
100
AcDbDimension
  2
*D32
 10
148.1418159049885
 20
145.3652734674748
 30
0.0
 11
74.1418159049885
 21
150.8652734674748
 31
0.0
 70
    32
 71
     5
 42
148.0
  3
STANDARD
100
AcDbAlignedDimension
 13
0.1418159049885048
 23
115.6030844466623
 33
0.0
 14
148.1418159049885
 24
114.931205663816
 34
0.0
100
AcDbRotatedDimension
1001
ACAD
1000
DSTYLE
1002
{
1070
    41
1040
2.0
1070
    42
1040
10.0
1070
    44
1040
0.0
1070
    73
1070
     0
1070
    74
1070
     0
1070
    77
1070
     1
1070
   140
1040
5.0
1070
   141
1040
0.0
1070
   146
1040
0.064286
1070
   147
1040
3.0
1070
   176
1070
    60
1070
   177
1070
    70
1070
   178
1070
    60
1070
   271
1070
     0
1070
   272
1070
     0
1070
   340
1005
1C
1070
   342
1005
109
1002
}
  0
DIMENSION
  5
2D59
330
2
100
AcDbEntity
  8
SUNPOU
100
AcDbDimension
  2
*D33
 10
-29.12859584432522
 20
35.60308444666254
 30
0.0
 11
-34.62859584432523
 21
75.60308444666244
 31
0.0
 70
    32
 71
     5
 42
79.9999999999998
  3
STANDARD
100
AcDbAlignedDimension
 13
0.1418159049885048
 23
115.6030844466623
 33
0.0
 14
-0.1700223789962365
 24
35.60308444666254
 34
0.0
 50
90.0
100
AcDbRotatedDimension
1001
ACAD
1000
DSTYLE
1002
{
1070
    41
1040
2.0
1070
    42
1040
10.0
1070
    44
1040
0.0
1070
    73
1070
     0
1070
    74
1070
     0
1070
    77
1070
     1
1070
   140
1040
5.0
1070
   141
1040
0.0
1070
   146
1040
0.064286
1070
   147
1040
3.0
1070
   176
1070
    60
1070
   177
1070
    70
1070
   178
1070
    60
1070
   271
1070
     0
1070
   272
1070
     0
1070
   340
1005
1C
1070
   342
1005
109
1002
}
  0
ENDSEC
  0
SECTION
  2
OBJECTS
  0
DICTIONARY
  5
1A
330
0
100
AcDbDictionary
281
     1
  3
ACAD_COLOR
350
144
  3
ACAD_GROUP
350
18
  3
ACAD_LAYOUT
350
58
  3
ACAD_MATERIAL
350
143
  3
ACAD_MLINESTYLE
350
19
  3
ACAD_PLOTSETTINGS
350
59
  3
ACAD_PLOTSTYLENAME
350
56
  3
ACAD_TABLESTYLE
350
145
  3
ACDBHEADERROUNDTRIPXREC
350
2D9E
  3
AcDbVariableDictionary
350
1D1
  0
DICTIONARY
  5
1B4
330
A
100
AcDbDictionary
280
     1
281
     1
  3
ACAD_LAYERFILTERS
360
1A2A
  3
ACLYDICTIONARY
360
1A29
  0
DICTIONARY
  5
D13
330
2
100
AcDbDictionary
280
     1
281
     1
  3
ACAD_SORTENTS
360
D14
  0
DICTIONARY
  5
144
102
{ACAD_REACTORS
330
1A
102
}
330
1A
100
AcDbDictionary
281
     1
  0
DICTIONARY
  5
18
102
{ACAD_REACTORS
330
1A
102
}
330
1A
100
AcDbDictionary
281
     1
  3
*A1
350
E0D
  3
*A10
350
1EFE
  3
*A11
350
2037
  3
*A12
350
FF8
  3
*A13
350
136A
  3
*A14
350
1555
  3
*A15
350
17BC
  3
*A16
350
1A98
  3
*A17
350
1CBC
  3
*A18
350
2905
  3
*A19
350
2A17
  3
*A2
350
213E
  3
*A21
350
2B84
  3
*A22
350
2C6B
  3
*A23
350
2D78
  3
*A3
350
22C8
  3
*A4
350
241A
  3
*A5
350
24D6
  3
*A6
350
2573
  3
*A7
350
265A
  3
*A8
350
26DD
  3
*A9
350
275E
  0
DICTIONARY
  5
58
102
{ACAD_REACTORS
330
1A
102
}
330
1A
100
AcDbDictionary
281
     1
  3
Model
350
5A
  3
ﾚｲｱｳﾄ1
350
5B
  0
DICTIONARY
  5
143
102
{ACAD_REACTORS
330
1A
102
}
330
1A
100
AcDbDictionary
281
     1
  0
DICTIONARY
  5
19
102
{ACAD_REACTORS
330
1A
102
}
330
1A
100
AcDbDictionary
281
     1
  3
STANDARD
350
1D
  0
DICTIONARY
  5
59
102
{ACAD_REACTORS
330
1A
102
}
330
1A
100
AcDbDictionary
281
     1
  0
ACDBDICTIONARYWDFLT
  5
56
102
{ACAD_REACTORS
330
1A
102
}
330
1A
100
AcDbDictionary
281
     1
  3
Normal
350
57
100
AcDbDictionaryWithDefault
340
57
  0
DICTIONARY
  5
145
102
{ACAD_REACTORS
330
1A
102
}
330
1A
100
AcDbDictionary
281
     1
  3
Standard
350
146
  0
DICTIONARY
  5
2D9E
102
{ACAD_REACTORS
330
1A
102
}
330
1A
100
AcDbDictionary
281
     1
  0
DICTIONARY
  5
1D1
102
{ACAD_REACTORS
330
1A
102
}
330
1A
100
AcDbDictionary
281
     1
  3
CTABLESTYLE
350
1D2
  3
DIMASSOC
350
D03
  3
PROJECTNAME
350
D04
  0
DICTIONARY
  5
1A2A
102
{ACAD_REACTORS
330
1B4
102
}
330
1B4
100
AcDbDictionary
281
     1
  0
DICTIONARY
  5
1A29
102
{ACAD_REACTORS
330
1B4
102
}
330
1B4
100
AcDbDictionary
281
     1
1001
ACAD
1000
<All
  0
SORTENTSTABLE
  5
D14
102
{ACAD_REACTORS
330
D13
102
}
330
D13
100
AcDbSortentsTable
330
2
331
23
  5
23
331
21
  5
21
331
1F
  5
1F
331
20
  5
20
  0
GROUP
  5
E0D
102
{ACAD_REACTORS
330
18
102
}
330
18
100
AcDbGroup
300

 70
     1
 71
     1
  0
GROUP
  5
1EFE
102
{ACAD_REACTORS
330
18
102
}
330
18
100
AcDbGroup
300

 70
     1
 71
     1
  0
GROUP
  5
2037
102
{ACAD_REACTORS
330
18
102
}
330
18
100
AcDbGroup
300

 70
     1
 71
     1
  0
GROUP
  5
FF8
102
{ACAD_REACTORS
330
18
102
}
330
18
100
AcDbGroup
300

 70
     1
 71
     1
  0
GROUP
  5
136A
102
{ACAD_REACTORS
330
18
102
}
330
18
100
AcDbGroup
300

 70
     1
 71
     1
  0
GROUP
  5
1555
102
{ACAD_REACTORS
330
18
102
}
330
18
100
AcDbGroup
300

 70
     1
 71
     1
  0
GROUP
  5
17BC
102
{ACAD_REACTORS
330
18
102
}
330
18
100
AcDbGroup
300

 70
     1
 71
     1
  0
GROUP
  5
1A98
102
{ACAD_REACTORS
330
18
102
}
330
18
100
AcDbGroup
300

 70
     1
 71
     1
  0
GROUP
  5
1CBC
102
{ACAD_REACTORS
330
18
102
}
330
18
100
AcDbGroup
300

 70
     1
 71
     1
  0
GROUP
  5
2905
102
{ACAD_REACTORS
330
18
102
}
330
18
100
AcDbGroup
300

 70
     1
 71
     1
  0
GROUP
  5
2A17
102
{ACAD_REACTORS
330
18
102
}
330
18
100
AcDbGroup
300

 70
     1
 71
     1
  0
GROUP
  5
213E
102
{ACAD_REACTORS
330
18
102
}
330
18
100
AcDbGroup
300

 70
     1
 71
     1
  0
GROUP
  5
2B84
102
{ACAD_REACTORS
330
18
102
}
330
18
100
AcDbGroup
300

 70
     1
 71
     1
  0
GROUP
  5
2C6B
102
{ACAD_REACTORS
330
18
102
}
330
18
100
AcDbGroup
300

 70
     1
 71
     1
  0
GROUP
  5
2D78
102
{ACAD_REACTORS
330
18
102
}
330
18
100
AcDbGroup
300

 70
     1
 71
     1
340
2D4B
340
2D4A
340
2D49
340
2D48
340
2D47
340
2D46
340
2D45
340
2D43
340
2D42
340
2D41
340
2D3F
340
2D3E
340
2D3A
340
2D39
340
2D38
340
2D37
340
2D36
340
2D35
340
2D34
340
2D33
340
2D32
340
2D31
340
2D30
340
2D2F
340
2D2E
340
2D2D
340
2D2C
340
2D2B
340
2D2A
340
2D29
340
2D28
340
2D27
340
2D26
340
2D25
340
2D22
340
2D21
340
2D20
340
2D1F
340
2D1E
340
2D1D
340
2D1C
340
2D1B
340
2D1A
340
2D19
340
2D18
340
2D17
340
2D16
340
2D15
340
2D14
340
2D13
340
2D12
340
2D11
340
2D10
340
2D0F
340
2D0E
340
2D0D
340
2D0C
340
2D0B
340
2D0A
340
2D09
340
2D08
340
2D07
340
2D06
340
2D05
340
2D04
340
2D03
340
2D02
340
2D01
340
2D00
340
2CFF
340
2CFE
340
2CFD
340
2CFC
340
2CFB
340
2CFA
340
2CF9
340
2CF8
340
2CF7
340
2CF6
340
2CF5
340
2CF4
340
2CF1
340
2CF0
340
2CEF
340
2CEE
  0
GROUP
  5
22C8
102
{ACAD_REACTORS
330
18
102
}
330
18
100
AcDbGroup
300

 70
     1
 71
     1
  0
GROUP
  5
241A
102
{ACAD_REACTORS
330
18
102
}
330
18
100
AcDbGroup
300

 70
     1
 71
     1
  0
GROUP
  5
24D6
102
{ACAD_REACTORS
330
18
102
}
330
18
100
AcDbGroup
300

 70
     1
 71
     1
  0
GROUP
  5
2573
102
{ACAD_REACTORS
330
18
102
}
330
18
100
AcDbGroup
300

 70
     1
 71
     1
  0
GROUP
  5
265A
102
{ACAD_REACTORS
330
18
102
}
330
18
100
AcDbGroup
300

 70
     1
 71
     1
  0
GROUP
  5
26DD
102
{ACAD_REACTORS
330
18
102
}
330
18
100
AcDbGroup
300

 70
     1
 71
     1
  0
GROUP
  5
275E
102
{ACAD_REACTORS
330
18
102
}
330
18
100
AcDbGroup
300

 70
     1
 71
     1
  0
LAYOUT
  5
5A
102
{ACAD_XDICTIONARY
360
2D9F
102
}
102
{ACAD_REACTORS
330
58
102
}
330
58
100
AcDbPlotSettings
  1

  2
なし
  4

  6

 40
0.0
 41
0.0
 42
0.0
 43
0.0
 44
0.0
 45
0.0
 46
0.0
 47
0.0
 48
0.0
 49
0.0
140
0.0
141
0.0
142
1.0
143
1.0
 70
  1712
 72
     0
 73
     0
 74
     0
  7
monochrome.ctb
 75
     0
147
1.0
148
0.0
149
0.0
100
AcDbLayout
  1
Model
 70
     1
 71
     0
 10
0.0
 20
0.0
 11
12.0
 21
9.0
 12
0.0
 22
0.0
 32
0.0
 14
0.0
 24
0.0
 34
0.0
 15
0.0
 25
0.0
 35
0.0
146
0.0
 13
0.0
 23
0.0
 33
0.0
 16
1.0
 26
0.0
 36
0.0
 17
0.0
 27
1.0
 37
0.0
 76
     0
330
2
  0
LAYOUT
  5
5B
102
{ACAD_XDICTIONARY
360
2DA1
102
}
102
{ACAD_REACTORS
330
58
102
}
330
58
100
AcDbPlotSettings
  1

  2
なし
  4

  6

 40
0.0
 41
0.0
 42
0.0
 43
0.0
 44
0.0
 45
0.0
 46
0.0
 47
0.0
 48
0.0
 49
0.0
140
0.0
141
0.0
142
1.0
143
1.0
 70
   688
 72
     0
 73
     0
 74
     5
  7
monochrome.ctb
 75
    16
147
1.0
148
0.0
149
0.0
100
AcDbLayout
  1
ﾚｲｱｳﾄ1
 70
     1
 71
     1
 10
0.0
 20
0.0
 11
12.0
 21
9.0
 12
0.0
 22
0.0
 32
0.0
 14
1.000000000000000E+20
 24
1.000000000000000E+20
 34
1.000000000000000E+20
 15
-1.000000000000000E+20
 25
-1.000000000000000E+20
 35
-1.000000000000000E+20
146
0.0
 13
0.0
 23
0.0
 33
0.0
 16
1.0
 26
0.0
 36
0.0
 17
0.0
 27
1.0
 37
0.0
 76
     0
330
7
  0
MLINESTYLE
  5
1D
102
{ACAD_REACTORS
330
19
102
}
330
19
100
AcDbMlineStyle
  2
STANDARD
 70
     0
  3

 62
   256
 51
90.0
 52
90.0
 71
     2
 49
0.5
 62
   256
  6
BYLAYER
 49
-0.5
 62
   256
  6
BYLAYER
  0
ACDBPLACEHOLDER
  5
57
102
{ACAD_REACTORS
330
56
102
}
330
56
  0
TABLESTYLE
  5
146
102
{ACAD_REACTORS
330
145
102
}
330
145
100
AcDbTableStyle
  3
Standard
 70
     0
 71
     0
 40
0.06
 41
0.06
280
     0
281
     0
  7
STANDARD
140
0.18
170
     2
 62
     0
 63
     7
283
     0
274
    -2
284
     1
 64
     0
275
    -2
285
     1
 65
     0
276
    -2
286
     1
 66
     0
277
    -2
287
     1
 67
     0
278
    -2
288
     1
 68
     0
279
    -2
289
     1
 69
     0
  7
STANDARD
140
0.25
170
     5
 62
     0
 63
     7
283
     0
274
    -2
284
     1
 64
     0
275
    -2
285
     1
 65
     0
276
    -2
286
     1
 66
     0
277
    -2
287
     1
 67
     0
278
    -2
288
     1
 68
     0
279
    -2
289
     1
 69
     0
  7
STANDARD
140
0.18
170
     5
 62
     0
 63
     7
283
     0
274
    -2
284
     1
 64
     0
275
    -2
285
     1
 65
     0
276
    -2
286
     1
 66
     0
277
    -2
287
     1
 67
     0
278
    -2
288
     1
 68
     0
279
    -2
289
     1
 69
     0
  0
DICTIONARYVAR
  5
1D2
102
{ACAD_REACTORS
330
1D1
102
}
330
1D1
100
DictionaryVariables
280
     0
  1
STANDARD
  0
DICTIONARYVAR
  5
D03
102
{ACAD_REACTORS
330
1D1
102
}
330
1D1
100
DictionaryVariables
280
     0
  1
1
  0
DICTIONARYVAR
  5
D04
102
{ACAD_REACTORS
330
1D1
102
}
330
1D1
100
DictionaryVariables
280
     0
  1

  0
DICTIONARY
  5
2D9F
330
5A
100
AcDbDictionary
280
     1
281
     1
  3
ACAD_XREC_ROUNDTRIP
360
2DA0
  0
DICTIONARY
  5
2DA1
330
5B
100
AcDbDictionary
280
     1
281
     1
  3
ACAD_XREC_ROUNDTRIP
360
2DA2
  0
XRECORD
  5
2DA0
102
{ACAD_REACTORS
330
2D9F
102
}
330
2D9F
100
AcDbXrecord
280
     1
102
SHADEPLOT
 70
     0
102
SHADEPLOTRESLEVEL
 70
     2
102
SHADEPLOTCUSTOMDPI
 70
   300
  0
XRECORD
  5
2DA2
102
{ACAD_REACTORS
330
2DA1
102
}
330
2DA1
100
AcDbXrecord
280
     1
102
SHADEPLOT
 70
     0
102
SHADEPLOTRESLEVEL
 70
     2
102
SHADEPLOTCUSTOMDPI
 70
   300
  0
ENDSEC
  0
EOF
