  0
SECTION
  2
HEADER
  9
$ACADVER
  1
AC1015
  9
$ACADMAINTVER
 70
    20
  9
$DWGCODEPAGE
  3
ANSI_932
  9
$INSBASE
 10
922.019522
 20
-675.4306699999999
 30
0.0
  9
$EXTMIN
 10
-0.034931729103846
 20
-0.0211609326183862
 30
-0.000000000000013
  9
$EXTMAX
 10
148.7152796348989
 20
147.5875427614128
 30
0.0000000000000023
  9
$LIMMIN
 10
0.0
 20
0.0
  9
$LIMMAX
 10
420.0
 20
297.0
  9
$ORTHOMODE
 70
     0
  9
$REGENMODE
 70
     1
  9
$FILLMODE
 70
     1
  9
$QTEXTMODE
 70
     0
  9
$MIRRTEXT
 70
     1
  9
$LTSCALE
 40
1.0
  9
$ATTMODE
 70
     1
  9
$TEXTSIZE
 40
30.0
  9
$TRACEWID
 40
0.05
  9
$TEXTSTYLE
  7
SUNPOU
  9
$CLAYER
  8
0
  9
$CELTYPE
  6
BYLAYER
  9
$CECOLOR
 62
   256
  9
$CELTSCALE
 40
1.0
  9
$DISPSILH
 70
     0
  9
$DIMSCALE
 40
1.0
  9
$DIMASZ
 40
2.0
  9
$DIMEXO
 40
10.0
  9
$DIMDLI
 40
0.38
  9
$DIMRND
 40
0.0
  9
$DIMDLE
 40
0.0
  9
$DIMEXE
 40
0.0
  9
$DIMTP
 40
0.0
  9
$DIMTM
 40
0.0
  9
$DIMTXT
 40
5.0
  9
$DIMCEN
 40
0.0
  9
$DIMTSZ
 40
0.0
  9
$DIMTOL
 70
     0
  9
$DIMLIM
 70
     0
  9
$DIMTIH
 70
     0
  9
$DIMTOH
 70
     0
  9
$DIMSE1
 70
     0
  9
$DIMSE2
 70
     0
  9
$DIMTAD
 70
     1
  9
$DIMZIN
 70
     0
  9
$DIMBLK
  1
Dot
  9
$DIMASO
 70
     1
  9
$DIMSHO
 70
     1
  9
$DIMPOST
  1

  9
$DIMAPOST
  1

  9
$DIMALT
 70
     0
  9
$DIMALTD
 70
     2
  9
$DIMALTF
 40
25.4
  9
$DIMLFAC
 40
1.0
  9
$DIMTOFL
 70
     0
  9
$DIMTVP
 40
0.0
  9
$DIMTIX
 70
     0
  9
$DIMSOXD
 70
     0
  9
$DIMSAH
 70
     0
  9
$DIMBLK1
  1

  9
$DIMBLK2
  1

  9
$DIMSTYLE
  2
STANDARD
  9
$DIMCLRD
 70
    60
  9
$DIMCLRE
 70
    70
  9
$DIMCLRT
 70
    60
  9
$DIMTFAC
 40
0.064286
  9
$DIMGAP
 40
3.0
  9
$DIMJUST
 70
     0
  9
$DIMSD1
 70
     0
  9
$DIMSD2
 70
     0
  9
$DIMTOLJ
 70
     1
  9
$DIMTZIN
 70
     0
  9
$DIMALTZ
 70
     0
  9
$DIMALTTZ
 70
     0
  9
$DIMUPT
 70
     0
  9
$DIMDEC
 70
     0
  9
$DIMTDEC
 70
     0
  9
$DIMALTU
 70
     2
  9
$DIMALTTD
 70
     2
  9
$DIMTXSTY
  7
SUNPOU
  9
$DIMAUNIT
 70
     0
  9
$DIMADEC
 70
     0
  9
$DIMALTRND
 40
0.0
  9
$DIMAZIN
 70
     0
  9
$DIMDSEP
 70
    46
  9
$DIMATFIT
 70
     3
  9
$DIMFRAC
 70
     0
  9
$DIMLDRBLK
  1

  9
$DIMLUNIT
 70
     2
  9
$DIMLWD
 70
    -2
  9
$DIMLWE
 70
    -2
  9
$DIMTMOVE
 70
     0
  9
$LUNITS
 70
     2
  9
$LUPREC
 70
     5
  9
$SKETCHINC
 40
0.1
  9
$FILLETRAD
 40
0.0
  9
$AUNITS
 70
     0
  9
$AUPREC
 70
     0
  9
$MENU
  1
acad
  9
$ELEVATION
 40
0.0
  9
$PELEVATION
 40
0.0
  9
$THICKNESS
 40
0.0
  9
$LIMCHECK
 70
     0
  9
$CHAMFERA
 40
0.0
  9
$CHAMFERB
 40
0.0
  9
$CHAMFERC
 40
0.0
  9
$CHAMFERD
 40
0.0
  9
$SKPOLY
 70
     0
  9
$TDCREATE
 40
2450623.654673033
  9
$TDUCREATE
 40
2450623.279673032
  9
$TDUPDATE
 40
2453866.755271123
  9
$TDUUPDATE
 40
2453866.380271123
  9
$TDINDWG
 40
0.3050653588
  9
$TDUSRTIMER
 40
0.3050651852
  9
$USRTIMER
 70
     1
  9
$ANGBASE
 50
0.0
  9
$ANGDIR
 70
     0
  9
$PDMODE
 70
     0
  9
$PDSIZE
 40
0.0
  9
$PLINEWID
 40
0.0
  9
$SPLFRAME
 70
     0
  9
$SPLINETYPE
 70
     6
  9
$SPLINESEGS
 70
     8
  9
$HANDSEED
  5
2BD3
  9
$SURFTAB1
 70
     6
  9
$SURFTAB2
 70
     6
  9
$SURFTYPE
 70
     6
  9
$SURFU
 70
     6
  9
$SURFV
 70
     6
  9
$UCSBASE
  2

  9
$UCSNAME
  2

  9
$UCSORG
 10
0.0
 20
0.0
 30
0.0
  9
$UCSXDIR
 10
1.0
 20
0.0
 30
0.0
  9
$UCSYDIR
 10
0.0
 20
1.0
 30
0.0
  9
$UCSORTHOREF
  2

  9
$UCSORTHOVIEW
 70
     0
  9
$UCSORGTOP
 10
0.0
 20
0.0
 30
0.0
  9
$UCSORGBOTTOM
 10
0.0
 20
0.0
 30
0.0
  9
$UCSORGLEFT
 10
0.0
 20
0.0
 30
0.0
  9
$UCSORGRIGHT
 10
0.0
 20
0.0
 30
0.0
  9
$UCSORGFRONT
 10
0.0
 20
0.0
 30
0.0
  9
$UCSORGBACK
 10
0.0
 20
0.0
 30
0.0
  9
$PUCSBASE
  2

  9
$PUCSNAME
  2

  9
$PUCSORG
 10
0.0
 20
0.0
 30
0.0
  9
$PUCSXDIR
 10
1.0
 20
0.0
 30
0.0
  9
$PUCSYDIR
 10
0.0
 20
1.0
 30
0.0
  9
$PUCSORTHOREF
  2

  9
$PUCSORTHOVIEW
 70
     0
  9
$PUCSORGTOP
 10
0.0
 20
0.0
 30
0.0
  9
$PUCSORGBOTTOM
 10
0.0
 20
0.0
 30
0.0
  9
$PUCSORGLEFT
 10
0.0
 20
0.0
 30
0.0
  9
$PUCSORGRIGHT
 10
0.0
 20
0.0
 30
0.0
  9
$PUCSORGFRONT
 10
0.0
 20
0.0
 30
0.0
  9
$PUCSORGBACK
 10
0.0
 20
0.0
 30
0.0
  9
$USERI1
 70
     0
  9
$USERI2
 70
     0
  9
$USERI3
 70
     0
  9
$USERI4
 70
     0
  9
$USERI5
 70
     0
  9
$USERR1
 40
0.0
  9
$USERR2
 40
0.0
  9
$USERR3
 40
0.0
  9
$USERR4
 40
0.0
  9
$USERR5
 40
0.0
  9
$WORLDVIEW
 70
     1
  9
$SHADEDGE
 70
     3
  9
$SHADEDIF
 70
    70
  9
$TILEMODE
 70
     1
  9
$MAXACTVP
 70
    16
  9
$PINSBASE
 10
0.0
 20
0.0
 30
0.0
  9
$PLIMCHECK
 70
     0
  9
$PEXTMIN
 10
1.000000000000000E+20
 20
1.000000000000000E+20
 30
1.000000000000000E+20
  9
$PEXTMAX
 10
-1.000000000000000E+20
 20
-1.000000000000000E+20
 30
-1.000000000000000E+20
  9
$PLIMMIN
 10
0.0
 20
0.0
  9
$PLIMMAX
 10
12.0
 20
9.0
  9
$UNITMODE
 70
     0
  9
$VISRETAIN
 70
     0
  9
$PLINEGEN
 70
     0
  9
$PSLTSCALE
 70
     1
  9
$TREEDEPTH
 70
  3020
  9
$CMLSTYLE
  2
STANDARD
  9
$CMLJUST
 70
     0
  9
$CMLSCALE
 40
1.0
  9
$PROXYGRAPHICS
 70
     1
  9
$MEASUREMENT
 70
     0
  9
$CELWEIGHT
370
    -1
  9
$ENDCAPS
280
     0
  9
$JOINSTYLE
280
     0
  9
$LWDISPLAY
290
     0
  9
$INSUNITS
 70
     0
  9
$HYPERLINKBASE
  1

  9
$STYLESHEET
  1

  9
$XEDIT
290
     1
  9
$CEPSNTYPE
380
     0
  9
$PSTYLEMODE
290
     1
  9
$FINGERPRINTGUID
  2
{FB88A696-E29C-4009-92AF-A3599A8169D5}
  9
$VERSIONGUID
  2
{689C78E6-A279-4B28-A563-A30BBE7BB181}
  9
$EXTNAMES
290
     1
  9
$PSVPSCALE
 40
0.0
  9
$OLESTARTUP
290
     0
  0
ENDSEC
  0
SECTION
  2
CLASSES
  0
CLASS
  1
DICTIONARYVAR
  2
AcDbDictionaryVar
  3
ObjectDBX Classes
 90
        0
280
     0
281
     0
  0
CLASS
  1
ACDBDICTIONARYWDFLT
  2
AcDbDictionaryWithDefault
  3
ObjectDBX Classes
 90
        0
280
     0
281
     0
  0
CLASS
  1
ACDBPLACEHOLDER
  2
AcDbPlaceHolder
  3
ObjectDBX Classes
 90
        0
280
     0
281
     0
  0
CLASS
  1
LAYOUT
  2
AcDbLayout
  3
ObjectDBX Classes
 90
        0
280
     0
281
     0
  0
CLASS
  1
TABLESTYLE
  2
AcDbTableStyle
  3
ObjectDBX Classes
 90
     2047
280
     0
281
     0
  0
CLASS
  1
SORTENTSTABLE
  2
AcDbSortentsTable
  3
ObjectDBX Classes
 90
        0
280
     0
281
     0
  0
ENDSEC
  0
SECTION
  2
TABLES
  0
TABLE
  2
VPORT
  5
12
330
0
100
AcDbSymbolTable
 70
    11
  0
VPORT
  5
2BCD
330
12
100
AcDbSymbolTableRecord
100
AcDbViewportTableRecord
  2
*Active
 70
     0
 10
0.0
 20
0.0
 11
1.0
 21
1.0
 12
74.34017395289754
 22
73.7831909143972
 13
0.0
 23
0.0
 14
1.0
 24
1.0
 15
0.0
 25
0.0
 16
0.0
 26
0.0
 36
1.0
 17
0.0
 27
0.0
 37
0.0
 40
148.7427014176729
 41
1.565384615384615
 42
50.0
 43
0.0
 44
0.0
 50
0.0
 51
0.0
 71
     0
 72
 20000
 73
     1
 74
     1
 75
     0
 76
     0
 77
     0
 78
     0
281
     0
 65
     1
110
0.0
120
0.0
130
0.0
111
1.0
121
0.0
131
0.0
112
0.0
122
1.0
132
0.0
 79
     0
146
0.0
  0
ENDTAB
  0
TABLE
  2
LTYPE
  5
D
330
0
100
AcDbSymbolTable
 70
     2
  0
LTYPE
  5
E
330
D
100
AcDbSymbolTableRecord
100
AcDbLinetypeTableRecord
  2
BYBLOCK
 70
     0
  3

 72
    65
 73
     0
 40
0.0
  0
LTYPE
  5
F
330
D
100
AcDbSymbolTableRecord
100
AcDbLinetypeTableRecord
  2
BYLAYER
 70
     0
  3

 72
    65
 73
     0
 40
0.0
  0
LTYPE
  5
5
330
D
100
AcDbSymbolTableRecord
100
AcDbLinetypeTableRecord
  2
CONTINUOUS
 70
     0
  3
Solid line
 72
    65
 73
     0
 40
0.0
  0
ENDTAB
  0
TABLE
  2
LAYER
  5
A
102
{ACAD_XDICTIONARY
360
1B4
102
}
330
0
100
AcDbSymbolTable
 70
     6
  0
LAYER
  5
4
330
A
100
AcDbSymbolTableRecord
100
AcDbLayerTableRecord
  2
0
 70
     0
 62
     7
  6
CONTINUOUS
370
    -3
390
57
  0
LAYER
  5
25
330
A
100
AcDbSymbolTableRecord
100
AcDbLayerTableRecord
  2
KIJUN
 70
     0
 62
     7
  6
CONTINUOUS
370
    -3
390
57
  0
LAYER
  5
22
330
A
100
AcDbSymbolTableRecord
100
AcDbLayerTableRecord
  2
HOJO
 70
     0
 62
     3
  6
CONTINUOUS
370
    -3
390
57
  0
LAYER
  5
1B
330
A
100
AcDbSymbolTableRecord
100
AcDbLayerTableRecord
  2
WAKU
 70
     0
 62
     1
  6
CONTINUOUS
370
    -3
390
57
  0
LAYER
  5
31
330
A
100
AcDbSymbolTableRecord
100
AcDbLayerTableRecord
  2
DEFPOINTS
 70
     0
 62
     7
  6
CONTINUOUS
290
     0
370
    -3
390
57
  0
LAYER
  5
28
330
A
100
AcDbSymbolTableRecord
100
AcDbLayerTableRecord
  2
SUNPOU
 70
     0
 62
    70
  6
CONTINUOUS
370
    -3
390
57
  0
ENDTAB
  0
TABLE
  2
STYLE
  5
B
330
0
100
AcDbSymbolTable
 70
     3
  0
STYLE
  5
C
330
B
100
AcDbSymbolTableRecord
100
AcDbTextStyleTableRecord
  2
STANDARD
 70
     0
 40
0.0
 41
1.0
 50
0.0
 71
     0
 42
0.2
  3
txt
  4

  0
STYLE
  5
1C
330
B
100
AcDbSymbolTableRecord
100
AcDbTextStyleTableRecord
  2
SUNPOU
 70
     0
 40
0.0
 41
1.0
 50
0.0
 71
     0
 42
30.0
  3
txt
  4
bigfont
  0
STYLE
  5
14A
330
B
100
AcDbSymbolTableRecord
100
AcDbTextStyleTableRecord
  2
LIFE
 70
     0
 40
0.0
 41
0.7
 50
0.0
 71
     0
 42
10.0
  3
romans
  4
extfont
  0
ENDTAB
  0
TABLE
  2
VIEW
  5
10
330
0
100
AcDbSymbolTable
 70
     0
  0
ENDTAB
  0
TABLE
  2
UCS
  5
11
330
0
100
AcDbSymbolTable
 70
     0
  0
ENDTAB
  0
TABLE
  2
APPID
  5
14
330
0
100
AcDbSymbolTable
 70
    10
  0
APPID
  5
15
330
14
100
AcDbSymbolTableRecord
100
AcDbRegAppTableRecord
  2
ACAD
 70
     0
  0
APPID
  5
1D3
330
14
100
AcDbSymbolTableRecord
100
AcDbRegAppTableRecord
  2
ACAD_DSTYLE_DIMTEXT_FILL
 70
     0
  0
APPID
  5
1D4
330
14
100
AcDbSymbolTableRecord
100
AcDbRegAppTableRecord
  2
ACAD_DSTYLE_DIMEXT_LENGTH
 70
     0
  0
APPID
  5
1D5
330
14
100
AcDbSymbolTableRecord
100
AcDbRegAppTableRecord
  2
ACAD_DSTYLE_DIMEXT_ENABLED
 70
     0
  0
APPID
  5
1D6
330
14
100
AcDbSymbolTableRecord
100
AcDbRegAppTableRecord
  2
ACAD_DSTYLE_DIM_LINETYPE
 70
     0
  0
APPID
  5
1D7
330
14
100
AcDbSymbolTableRecord
100
AcDbRegAppTableRecord
  2
ACAD_DSTYLE_DIM_EXT1_LINETYPE
 70
     0
  0
APPID
  5
1D8
330
14
100
AcDbSymbolTableRecord
100
AcDbRegAppTableRecord
  2
ACAD_DSTYLE_DIM_EXT2_LINETYPE
 70
     0
  0
APPID
  5
294
330
14
100
AcDbSymbolTableRecord
100
AcDbRegAppTableRecord
  2
ACAD_DSTYLE_DIMJOGGED_JOGANGLE_SYMBOL
 70
     0
  0
APPID
  5
478
330
14
100
AcDbSymbolTableRecord
100
AcDbRegAppTableRecord
  2
ACAD_DSTYLE_DIMARC_LENGTH_SYMBOL
 70
     0
  0
APPID
  5
F55
330
14
100
AcDbSymbolTableRecord
100
AcDbRegAppTableRecord
  2
ACAD_EXEMPT_FROM_CAD_STANDARDS
 70
     0
  0
ENDTAB
  0
TABLE
  2
DIMSTYLE
  5
16
330
0
100
AcDbSymbolTable
 70
     3
100
AcDbDimStyleTable
 71
     1
340
1E
  0
DIMSTYLE
105
1E
102
{ACAD_REACTORS
330
2A83
330
2A90
102
}
330
16
100
AcDbSymbolTableRecord
100
AcDbDimStyleTableRecord
  2
STANDARD
 70
     0
340
C
  0
DIMSTYLE
105
1005
330
16
100
AcDbSymbolTableRecord
100
AcDbDimStyleTableRecord
  2
1-100
 70
     0
 40
100.0
 41
0.7
 42
2.5
 43
5.0
 44
1.0
 77
     1
147
1.0
172
     1
176
     3
177
     3
271
     2
272
     2
279
     2
340
C
342
109
  0
ENDTAB
  0
TABLE
  2
BLOCK_RECORD
  5
1
330
0
100
AcDbSymbolTable
 70
    28
  0
BLOCK_RECORD
  5
2
102
{ACAD_XDICTIONARY
360
D13
102
}
330
1
100
AcDbSymbolTableRecord
100
AcDbBlockTableRecord
  2
*MODEL_SPACE
340
5A
  0
BLOCK_RECORD
  5
7
330
1
100
AcDbSymbolTableRecord
100
AcDbBlockTableRecord
  2
*PAPER_SPACE
340
5B
  0
BLOCK_RECORD
  5
109
330
1
100
AcDbSymbolTableRecord
100
AcDbBlockTableRecord
  2
_Dot
340
0
102
{BLKREFS
331
2010
331
2011
331
201D
331
201E
331
2117
331
2118
331
2124
331
2125
331
2295
331
2296
331
22B9
331
22BA
331
22D5
331
22D6
331
241E
331
241F
331
24E3
331
24E4
331
24F5
331
24F6
331
2580
331
2581
331
259B
331
259C
331
2645
331
2646
331
2652
331
2653
331
26B6
331
26B7
331
26C3
331
26C4
331
276B
331
276C
331
277D
331
277E
331
28F6
331
28F7
331
28FF
331
2900
331
29FF
331
2A00
331
2A11
331
2A12
331
2BBE
331
2BBF
331
2BC7
331
2BC8
102
}
  0
BLOCK_RECORD
  5
28A5
330
1
100
AcDbSymbolTableRecord
100
AcDbBlockTableRecord
  2
*D19
340
0
  0
BLOCK_RECORD
  5
28B2
330
1
100
AcDbSymbolTableRecord
100
AcDbBlockTableRecord
  2
*D20
340
0
  0
BLOCK_RECORD
  5
29C7
330
1
100
AcDbSymbolTableRecord
100
AcDbBlockTableRecord
  2
*D23
340
0
  0
BLOCK_RECORD
  5
29D4
330
1
100
AcDbSymbolTableRecord
100
AcDbBlockTableRecord
  2
*D24
340
0
  0
BLOCK_RECORD
  5
2A84
330
1
100
AcDbSymbolTableRecord
100
AcDbBlockTableRecord
  2
*D26
340
0
  0
BLOCK_RECORD
  5
2A91
330
1
100
AcDbSymbolTableRecord
100
AcDbBlockTableRecord
  2
*D27
340
0
  0
ENDTAB
  0
ENDSEC
  0
SECTION
  2
BLOCKS
  0
BLOCK
  5
3
330
2
100
AcDbEntity
  8
0
100
AcDbBlockBegin
  2
*MODEL_SPACE
 70
     0
 10
0.0
 20
0.0
 30
0.0
  3
*MODEL_SPACE
  1

  0
ENDBLK
  5
6
330
2
100
AcDbEntity
  8
0
100
AcDbBlockEnd
  0
BLOCK
  5
8
330
7
100
AcDbEntity
 67
     1
  8
0
100
AcDbBlockBegin
  2
*PAPER_SPACE
 70
     0
 10
0.0
 20
0.0
 30
0.0
  3
*PAPER_SPACE
  1

  0
ENDBLK
  5
9
330
7
100
AcDbEntity
 67
     1
  8
0
100
AcDbBlockEnd
  0
BLOCK
  5
10C
330
109
100
AcDbEntity
  8
0
100
AcDbBlockBegin
  2
_Dot
 70
     0
 10
0.0
 20
0.0
 30
0.0
  3
_Dot
  1

  0
LWPOLYLINE
  5
10A
330
109
100
AcDbEntity
  8
0
  6
ByBlock
 62
     0
100
AcDbPolyline
 90
        2
 70
     1
 43
0.5
 10
-0.25
 20
0.0
 42
1.0
 10
0.25
 20
0.0
 42
1.0
  0
LINE
  5
10B
330
109
100
AcDbEntity
  8
0
  6
ByBlock
 62
     0
370
    -2
100
AcDbLine
 10
-0.5
 20
0.0
 30
0.0
 11
-1.0
 21
0.0
 31
0.0
  0
ENDBLK
  5
10D
330
109
100
AcDbEntity
  8
0
100
AcDbBlockEnd
  0
BLOCK
  5
28AF
330
28A5
100
AcDbEntity
  8
0
100
AcDbBlockBegin
  2
*D19
 70
     1
 10
0.0
 20
0.0
 30
0.0
  3
*D19
  1

  0
LINE
  5
28F3
330
28A5
100
AcDbEntity
  8
SUNPOU
 62
    70
370
    -2
100
AcDbLine
 10
-24.8306364237521
 20
115.557185286975
 30
0.0
 11
-24.83063642375209
 21
183.8979766120355
 31
0.0
  0
LINE
  5
28F4
330
28A5
100
AcDbEntity
  8
SUNPOU
 62
    70
370
    -2
100
AcDbLine
 10
170.1693635762479
 20
115.557185286975
 30
0.0
 11
170.1693635762479
 21
183.8979766120355
 31
0.0
  0
LINE
  5
28F5
330
28A5
100
AcDbEntity
  8
SUNPOU
 62
    60
370
    -2
100
AcDbLine
 10
-22.83063642375209
 20
183.8979766120355
 30
0.0
 11
168.1693635762479
 21
183.8979766120355
 31
0.0
  0
INSERT
  5
28F6
330
28A5
100
AcDbEntity
  8
SUNPOU
 62
    60
370
    -2
100
AcDbBlockReference
  2
_Dot
 10
-24.83063642375209
 20
183.8979766120355
 30
0.0
 41
2.0
 42
2.0
 43
2.0
 50
180.0
  0
INSERT
  5
28F7
330
28A5
100
AcDbEntity
  8
SUNPOU
 62
    60
370
    -2
100
AcDbBlockReference
  2
_Dot
 10
170.1693635762479
 20
183.8979766120355
 30
0.0
 41
2.0
 42
2.0
 43
2.0
  0
MTEXT
  5
28F8
330
28A5
100
AcDbEntity
  8
SUNPOU
 62
    60
100
AcDbMText
 10
72.66936357624792
 20
189.3979766120355
 30
0.0
 40
5.0
 41
0.0
 71
     5
 72
     1
  1
\A1;195
  7
SUNPOU
 73
     1
 44
1.0
1001
ACAD
1000
MTEXTBEGIN
1070
    73
1070
     1
1070
    44
1040
1.0
1070
    74
1070
     0
1000
MTEXTEND
  0
POINT
  5
28F9
330
28A5
100
AcDbEntity
  8
DEFPOINTS
 62
     0
100
AcDbPoint
 10
-24.8306364237521
 20
105.557185286975
 30
0.0
  0
POINT
  5
28FA
330
28A5
100
AcDbEntity
  8
DEFPOINTS
 62
     0
100
AcDbPoint
 10
170.1693635762479
 20
105.557185286975
 30
0.0
  0
POINT
  5
28FB
330
28A5
100
AcDbEntity
  8
DEFPOINTS
 62
     0
100
AcDbPoint
 10
170.1693635762479
 20
183.8979766120355
 30
0.0
  0
ENDBLK
  5
28B0
330
28A5
100
AcDbEntity
  8
0
100
AcDbBlockEnd
  0
BLOCK
  5
28BC
330
28B2
100
AcDbEntity
  8
0
100
AcDbBlockBegin
  2
*D20
 70
     1
 10
0.0
 20
0.0
 30
0.0
  3
*D20
  1

  0
LINE
  5
28FC
330
28B2
100
AcDbEntity
  8
SUNPOU
 62
    70
370
    -2
100
AcDbLine
 10
-21.33063642375351
 20
154.1914492309566
 30
0.0
 11
-53.00898335138707
 21
154.1914492309566
 31
0.0
  0
LINE
  5
28FD
330
28B2
100
AcDbEntity
  8
SUNPOU
 62
    70
370
    -2
100
AcDbLine
 10
62.66936357624789
 20
32.19144923095685
 30
0.0
 11
-53.00898335138709
 21
32.19144923095689
 31
0.0
  0
LINE
  5
28FE
330
28B2
100
AcDbEntity
  8
SUNPOU
 62
    60
370
    -2
100
AcDbLine
 10
-53.00898335138707
 20
152.1914492309566
 30
0.0
 11
-53.00898335138709
 21
34.19144923095688
 31
0.0
  0
INSERT
  5
28FF
330
28B2
100
AcDbEntity
  8
SUNPOU
 62
    60
370
    -2
100
AcDbBlockReference
  2
_Dot
 10
-53.00898335138707
 20
154.1914492309566
 30
0.0
 41
2.0
 42
2.0
 43
2.0
 50
90.0
  0
INSERT
  5
2900
330
28B2
100
AcDbEntity
  8
SUNPOU
 62
    60
370
    -2
100
AcDbBlockReference
  2
_Dot
 10
-53.00898335138709
 20
32.19144923095689
 30
0.0
 41
2.0
 42
2.0
 43
2.0
 50
270.0
  0
MTEXT
  5
2901
330
28B2
100
AcDbEntity
  8
SUNPOU
 62
    60
100
AcDbMText
 10
-58.50898335138709
 20
93.19144923095675
 30
0.0
 40
5.0
 41
0.0
 71
     5
 72
     1
  1
\A1;122
  7
SUNPOU
 11
0.0000000000000001
 21
1.0
 31
0.0
 73
     1
 44
1.0
1001
ACAD
1000
MTEXTBEGIN
1070
    73
1070
     1
1070
    44
1040
1.0
1070
    74
1070
     0
1000
MTEXTEND
  0
POINT
  5
2902
330
28B2
100
AcDbEntity
  8
DEFPOINTS
 62
     0
100
AcDbPoint
 10
-11.3306364237535
 20
154.1914492309566
 30
0.0
  0
POINT
  5
2903
330
28B2
100
AcDbEntity
  8
DEFPOINTS
 62
     0
100
AcDbPoint
 10
72.6693635762479
 20
32.19144923095685
 30
0.0
  0
POINT
  5
2904
330
28B2
100
AcDbEntity
  8
DEFPOINTS
 62
     0
100
AcDbPoint
 10
-53.00898335138709
 20
32.19144923095689
 30
0.0
  0
ENDBLK
  5
28BD
330
28B2
100
AcDbEntity
  8
0
100
AcDbBlockEnd
  0
BLOCK
  5
29D1
330
29C7
100
AcDbEntity
  8
0
100
AcDbBlockBegin
  2
*D23
 70
     1
 10
0.0
 20
0.0
 30
0.0
  3
*D23
  1

  0
LINE
  5
2A0E
330
29C7
100
AcDbEntity
  8
SUNPOU
 62
    70
370
    -2
100
AcDbLine
 10
-14.35123912425035
 20
80.61368459387081
 30
0.0
 11
-14.35123912425035
 21
92.46364794139401
 31
0.0
  0
LINE
  5
2A0F
330
29C7
100
AcDbEntity
  8
SUNPOU
 62
    70
370
    -2
100
AcDbLine
 10
175.6487608757496
 20
81.7793531233416
 30
0.0
 11
175.6487608757496
 21
92.46364794139401
 31
0.0
  0
LINE
  5
2A10
330
29C7
100
AcDbEntity
  8
SUNPOU
 62
    60
370
    -2
100
AcDbLine
 10
-12.35123912425035
 20
92.46364794139401
 30
0.0
 11
173.6487608757496
 21
92.46364794139401
 31
0.0
  0
INSERT
  5
2A11
330
29C7
100
AcDbEntity
  8
SUNPOU
 62
    60
370
    -2
100
AcDbBlockReference
  2
_Dot
 10
-14.35123912425035
 20
92.46364794139401
 30
0.0
 41
2.0
 42
2.0
 43
2.0
 50
180.0
  0
INSERT
  5
2A12
330
29C7
100
AcDbEntity
  8
SUNPOU
 62
    60
370
    -2
100
AcDbBlockReference
  2
_Dot
 10
175.6487608757496
 20
92.46364794139401
 30
0.0
 41
2.0
 42
2.0
 43
2.0
  0
MTEXT
  5
2A13
330
29C7
100
AcDbEntity
  8
SUNPOU
 62
    60
100
AcDbMText
 10
80.64876087574964
 20
97.96364794139401
 30
0.0
 40
5.0
 41
0.0
 71
     5
 72
     1
  1
\A1;190
  7
SUNPOU
 73
     1
 44
1.0
1001
ACAD
1000
MTEXTBEGIN
1070
    73
1070
     1
1070
    44
1040
1.0
1070
    74
1070
     0
1000
MTEXTEND
  0
POINT
  5
2A14
330
29C7
100
AcDbEntity
  8
DEFPOINTS
 62
     0
100
AcDbPoint
 10
-14.35123912425035
 20
70.6136845938708
 30
0.0
  0
POINT
  5
2A15
330
29C7
100
AcDbEntity
  8
DEFPOINTS
 62
     0
100
AcDbPoint
 10
175.6487608757496
 20
71.7793531233416
 30
0.0
  0
POINT
  5
2A16
330
29C7
100
AcDbEntity
  8
DEFPOINTS
 62
     0
100
AcDbPoint
 10
175.6487608757496
 20
92.46364794139401
 30
0.0
  0
ENDBLK
  5
29D2
330
29C7
100
AcDbEntity
  8
0
100
AcDbBlockEnd
  0
BLOCK
  5
29DE
330
29D4
100
AcDbEntity
  8
0
100
AcDbBlockBegin
  2
*D24
 70
     1
 10
0.0
 20
0.0
 30
0.0
  3
*D24
  1

  0
LINE
  5
29FC
330
29D4
100
AcDbEntity
  8
SUNPOU
 62
    70
370
    -2
100
AcDbLine
 10
-24.35123912425036
 20
70.6136845938708
 30
0.0
 11
-36.30120157972692
 21
70.61368459387082
 31
0.0
  0
LINE
  5
29FD
330
29D4
100
AcDbEntity
  8
SUNPOU
 62
    70
370
    -2
100
AcDbLine
 10
-24.24874540162227
 20
35.61368459387081
 30
0.0
 11
-36.30120157972692
 21
35.61368459387081
 31
0.0
  0
LINE
  5
29FE
330
29D4
100
AcDbEntity
  8
SUNPOU
 62
    60
370
    -2
100
AcDbLine
 10
-36.30120157972692
 20
68.61368459387081
 30
0.0
 11
-36.30120157972692
 21
37.61368459387081
 31
0.0
  0
INSERT
  5
29FF
330
29D4
100
AcDbEntity
  8
SUNPOU
 62
    60
370
    -2
100
AcDbBlockReference
  2
_Dot
 10
-36.30120157972692
 20
70.61368459387082
 30
0.0
 41
2.0
 42
2.0
 43
2.0
 50
90.0
  0
INSERT
  5
2A00
330
29D4
100
AcDbEntity
  8
SUNPOU
 62
    60
370
    -2
100
AcDbBlockReference
  2
_Dot
 10
-36.30120157972692
 20
35.61368459387081
 30
0.0
 41
2.0
 42
2.0
 43
2.0
 50
270.0
  0
MTEXT
  5
2A01
330
29D4
100
AcDbEntity
  8
SUNPOU
 62
    60
100
AcDbMText
 10
-41.80120157972693
 20
53.1136845938708
 30
0.0
 40
5.0
 41
0.0
 71
     5
 72
     1
  1
\A1;35
  7
SUNPOU
 11
0.0000000000000001
 21
1.0
 31
0.0
 73
     1
 44
1.0
1001
ACAD
1000
MTEXTBEGIN
1070
    73
1070
     1
1070
    44
1040
1.0
1070
    74
1070
     0
1000
MTEXTEND
  0
POINT
  5
2A02
330
29D4
100
AcDbEntity
  8
DEFPOINTS
 62
     0
100
AcDbPoint
 10
-14.35123912425035
 20
70.6136845938708
 30
0.0
  0
POINT
  5
2A03
330
29D4
100
AcDbEntity
  8
DEFPOINTS
 62
     0
100
AcDbPoint
 10
-14.24874540162227
 20
35.6136845938708
 30
0.0
  0
POINT
  5
2A04
330
29D4
100
AcDbEntity
  8
DEFPOINTS
 62
     0
100
AcDbPoint
 10
-36.30120157972692
 20
35.61368459387081
 30
0.0
  0
ENDBLK
  5
29DF
330
29D4
100
AcDbEntity
  8
0
100
AcDbBlockEnd
  0
BLOCK
  5
2A8E
330
2A84
100
AcDbEntity
  8
0
100
AcDbBlockBegin
  2
*D26
 70
     1
 10
0.0
 20
0.0
 30
0.0
  3
*D26
  1

  0
LINE
  5
2BBB
330
2A84
100
AcDbEntity
  8
SUNPOU
 62
    70
370
    -2
100
AcDbLine
 10
31.21615968861807
 20
127.8401345178345
 30
0.0
 11
31.21615968861807
 21
139.586281537088
 31
0.0
  0
LINE
  5
2BBC
330
2A84
100
AcDbEntity
  8
SUNPOU
 62
    70
370
    -2
100
AcDbLine
 10
128.2161596886165
 20
129.6474070552491
 30
0.0
 11
128.2161596886165
 21
139.586281537088
 31
0.0
  0
LINE
  5
2BBD
330
2A84
100
AcDbEntity
  8
SUNPOU
 62
    60
370
    -2
100
AcDbLine
 10
33.21615968861806
 20
139.586281537088
 30
0.0
 11
126.2161596886165
 21
139.586281537088
 31
0.0
  0
INSERT
  5
2BBE
330
2A84
100
AcDbEntity
  8
SUNPOU
 62
    60
370
    -2
100
AcDbBlockReference
  2
_Dot
 10
31.21615968861807
 20
139.586281537088
 30
0.0
 41
2.0
 42
2.0
 43
2.0
 50
180.0
  0
INSERT
  5
2BBF
330
2A84
100
AcDbEntity
  8
SUNPOU
 62
    60
370
    -2
100
AcDbBlockReference
  2
_Dot
 10
128.2161596886165
 20
139.586281537088
 30
0.0
 41
2.0
 42
2.0
 43
2.0
  0
MTEXT
  5
2BC0
330
2A84
100
AcDbEntity
  8
SUNPOU
 62
    60
100
AcDbMText
 10
79.71615968861728
 20
145.086281537088
 30
0.0
 40
5.0
 41
0.0
 71
     5
 72
     1
  1
\A1;97
  7
SUNPOU
 73
     1
 44
1.0
1001
ACAD
1000
MTEXTBEGIN
1070
    73
1070
     1
1070
    44
1040
1.0
1070
    74
1070
     0
1000
MTEXTEND
  0
POINT
  5
2BC1
330
2A84
100
AcDbEntity
  8
DEFPOINTS
 62
     0
100
AcDbPoint
 10
31.21615968861807
 20
117.8401345178345
 30
0.0
  0
POINT
  5
2BC2
330
2A84
100
AcDbEntity
  8
DEFPOINTS
 62
     0
100
AcDbPoint
 10
128.2161596886165
 20
119.6474070552491
 30
0.0
  0
POINT
  5
2BC3
330
2A84
100
AcDbEntity
  8
DEFPOINTS
 62
     0
100
AcDbPoint
 10
128.2161596886165
 20
139.586281537088
 30
0.0
  0
ENDBLK
  5
2A8F
330
2A84
100
AcDbEntity
  8
0
100
AcDbBlockEnd
  0
BLOCK
  5
2A9B
330
2A91
100
AcDbEntity
  8
0
100
AcDbBlockBegin
  2
*D27
 70
     1
 10
0.0
 20
0.0
 30
0.0
  3
*D27
  1

  0
LINE
  5
2BC4
330
2A91
100
AcDbEntity
  8
SUNPOU
 62
    70
370
    -2
100
AcDbLine
 10
21.21615968861807
 20
117.8401345178345
 30
0.0
 11
7.977641516827156
 21
117.8401345178345
 31
0.0
  0
LINE
  5
2BC5
330
2A91
100
AcDbEntity
  8
SUNPOU
 62
    70
370
    -2
100
AcDbLine
 10
22.25074273696964
 20
40.8401345178345
 30
0.0
 11
7.977641516827135
 21
40.84013451783451
 31
0.0
  0
LINE
  5
2BC6
330
2A91
100
AcDbEntity
  8
SUNPOU
 62
    60
370
    -2
100
AcDbLine
 10
7.977641516827154
 20
115.8401345178345
 30
0.0
 11
7.977641516827138
 21
42.8401345178345
 31
0.0
  0
INSERT
  5
2BC7
330
2A91
100
AcDbEntity
  8
SUNPOU
 62
    60
370
    -2
100
AcDbBlockReference
  2
_Dot
 10
7.977641516827154
 20
117.8401345178345
 30
0.0
 41
2.0
 42
2.0
 43
2.0
 50
90.0
  0
INSERT
  5
2BC8
330
2A91
100
AcDbEntity
  8
SUNPOU
 62
    60
370
    -2
100
AcDbBlockReference
  2
_Dot
 10
7.977641516827137
 20
40.84013451783451
 30
0.0
 41
2.0
 42
2.0
 43
2.0
 50
270.0
  0
MTEXT
  5
2BC9
330
2A91
100
AcDbEntity
  8
SUNPOU
 62
    60
100
AcDbMText
 10
2.477641516827133
 20
79.34013451783449
 30
0.0
 40
5.0
 41
0.0
 71
     5
 72
     1
  1
\A1;77
  7
SUNPOU
 11
0.0000000000000001
 21
1.0
 31
0.0
 73
     1
 44
1.0
1001
ACAD
1000
MTEXTBEGIN
1070
    73
1070
     1
1070
    44
1040
1.0
1070
    74
1070
     0
1000
MTEXTEND
  0
POINT
  5
2BCA
330
2A91
100
AcDbEntity
  8
DEFPOINTS
 62
     0
100
AcDbPoint
 10
31.21615968861807
 20
117.8401345178345
 30
0.0
  0
POINT
  5
2BCB
330
2A91
100
AcDbEntity
  8
DEFPOINTS
 62
     0
100
AcDbPoint
 10
32.25074273696964
 20
40.8401345178345
 30
0.0
  0
POINT
  5
2BCC
330
2A91
100
AcDbEntity
  8
DEFPOINTS
 62
     0
100
AcDbPoint
 10
7.977641516827137
 20
40.84013451783451
 30
0.0
  0
ENDBLK
  5
2A9C
330
2A91
100
AcDbEntity
  8
0
100
AcDbBlockEnd
  0
ENDSEC
  0
SECTION
  2
ENTITIES
  0
LINE
  5
1F
330
2
100
AcDbEntity
  8
WAKU
100
AcDbLine
 10
0.0
 20
14.0
 30
0.0
 11
148.6829221395387
 21
14.0
 31
0.0
  0
LINE
  5
20
330
2
100
AcDbEntity
  8
WAKU
100
AcDbLine
 10
0.0
 20
0.0
 30
0.0
 11
148.6829221395387
 21
0.0
 31
0.0
  0
TEXT
  5
21
330
2
100
AcDbEntity
  8
HOJO
100
AcDbText
 10
9.653966000000025
 20
2.366626000000024
 30
0.0
 40
9.0
  1
TWM260
  7
SUNPOU
100
AcDbText
  0
TEXT
  5
23
330
2
100
AcDbEntity
  8
HOJO
100
AcDbText
 10
85.84696046283864
 20
5.044386000000031
 30
0.0
 40
6.0
  1
97×77×5
  7
SUNPOU
100
AcDbText
  0
ARC
  5
2A56
102
{ACAD_REACTORS
330
2B84
102
}
330
2
100
AcDbEntity
  8
KIJUN
100
AcDbCircle
 10
53.11300783987457
 20
83.69032422692646
 30
0.0
 40
10.3941426471238
100
AcDbArc
 50
109.0749003600276
 51
197.7949972858004
  0
ARC
  5
2A57
102
{ACAD_REACTORS
330
2B84
102
}
330
2
100
AcDbEntity
  8
KIJUN
100
AcDbCircle
 10
-8.066256115611892
 20
75.18932709332969
 30
0.0
 40
88.50985832019484
100
AcDbArc
 50
7.350875107582001
 51
25.6578476559298
  0
ARC
  5
2A58
102
{ACAD_REACTORS
330
2B84
102
}
330
2
100
AcDbEntity
  8
KIJUN
100
AcDbCircle
 10
26.34112451721487
 20
63.2262161466278
 30
0.0
 40
52.65575105817838
100
AcDbArc
 50
16.21383516213239
 51
53.42660443572881
  0
SPLINE
  5
2A59
102
{ACAD_REACTORS
330
2B84
102
}
330
2
100
AcDbEntity
  8
KIJUN
100
AcDbSpline
210
0.0
220
0.0
230
1.0
 70
     8
 71
     3
 72
    14
 73
    10
 74
     8
 42
0.0000000001
 43
0.0000000001
 44
0.0000000001
 40
0.0
 40
0.0
 40
0.0
 40
0.0
 40
9.596372587819002
 40
24.66760946718034
 40
35.94832253397721
 40
48.60222605772455
 40
62.33816876159266
 40
74.95988109055471
 40
85.42088267484118
 40
85.42088267484118
 40
85.42088267484118
 40
85.42088267484118
 10
49.71616135529218
 20
93.51374701783468
 30
0.0
 10
51.80350266544583
 20
92.96973278447078
 30
0.0
 10
57.16904259132792
 20
91.57133661650183
 30
0.0
 10
64.33750251993664
 20
87.45393990042057
 30
0.0
 10
70.19905455276106
 20
80.78487136608716
 30
0.0
 10
73.45690091494742
 20
72.7668429248601
 30
0.0
 10
74.34044889930877
 20
64.143652958127
 30
0.0
 10
72.68720470899467
 20
55.19175831382177
 30
0.0
 10
67.8901624749478
 20
52.66077963730811
 30
0.0
 10
65.71616046639497
 20
51.51374935116797
 30
0.0
 11
49.71616135529218
 21
93.51374701783468
 31
0.0
 11
55.91060061585665
 21
91.66574705944551
 31
0.0
 11
64.66983656802236
 21
86.53330238301673
 31
0.0
 11
69.65353861128169
 21
80.79704201324824
 31
0.0
 11
72.97600728690615
 21
72.94742170210577
 31
0.0
 11
73.88213581311496
 21
63.73921420044196
 31
0.0
 11
71.46579372334366
 21
55.58768478895841
 31
0.0
 11
65.71616046639497
 21
51.51374935116797
 31
0.0
  0
SPLINE
  5
2A5A
102
{ACAD_REACTORS
330
2B84
102
}
330
2
100
AcDbEntity
  8
KIJUN
100
AcDbSpline
210
0.0
220
0.0
230
1.0
 70
     8
 71
     3
 72
    14
 73
    10
 74
     8
 42
0.0000000001
 43
0.0000000001
 44
0.0000000001
 40
0.0
 40
0.0
 40
0.0
 40
0.0
 40
9.596372587819002
 40
24.66760946718034
 40
35.94832253397721
 40
48.60222605772473
 40
62.33816876159278
 40
74.95988109055483
 40
85.4208826748413
 40
85.4208826748413
 40
85.4208826748413
 40
85.4208826748413
 10
109.7161580219423
 20
93.51374701783468
 30
0.0
 10
107.6288167117887
 20
92.96973278447078
 30
0.0
 10
102.2632767859066
 20
91.57133661650183
 30
0.0
 10
95.09481685729785
 20
87.45393990042058
 30
0.0
 10
89.23326482447357
 20
80.78487136608707
 30
0.0
 10
85.97541846228661
 20
72.76684292486018
 30
0.0
 10
85.09187047792588
 20
64.14365295812697
 30
0.0
 10
86.74511466823984
 20
55.19175831382177
 30
0.0
 10
91.54215690228667
 20
52.66077963730811
 30
0.0
 10
93.71615891083957
 20
51.51374935116797
 30
0.0
 11
109.7161580219423
 21
93.51374701783468
 31
0.0
 11
103.5217187613779
 21
91.66574705944551
 31
0.0
 11
94.76248280921216
 21
86.53330238301673
 31
0.0
 11
89.77878076595283
 21
80.79704201324824
 31
0.0
 11
86.45631209032806
 21
72.94742170210577
 31
0.0
 11
85.55018356411956
 21
63.73921420044196
 31
0.0
 11
87.96652565389086
 21
55.58768478895841
 31
0.0
 11
93.71615891083957
 21
51.51374935116797
 31
0.0
  0
ARC
  5
2A5B
102
{ACAD_REACTORS
330
2B84
102
}
330
2
100
AcDbEntity
  8
KIJUN
100
AcDbCircle
 10
133.0911948600195
 20
63.2262161466278
 30
0.0
 40
52.65575105817838
100
AcDbArc
 50
126.5733955642711
 51
163.7861648378676
  0
ARC
  5
2A5C
102
{ACAD_REACTORS
330
2B84
102
}
330
2
100
AcDbEntity
  8
KIJUN
100
AcDbCircle
 10
167.4985754928463
 20
75.18932709332969
 30
0.0
 40
88.50985832019484
100
AcDbArc
 50
154.3421523440702
 51
172.649124892418
  0
ARC
  5
2A5D
102
{ACAD_REACTORS
330
2B84
102
}
330
2
100
AcDbEntity
  8
KIJUN
100
AcDbCircle
 10
106.3193115373598
 20
83.69032422692646
 30
0.0
 40
10.3941426471238
100
AcDbArc
 50
342.2050027141996
 51
70.92509963997233
  0
SPLINE
  5
2A5E
102
{ACAD_REACTORS
330
2B84
102
}
330
2
100
AcDbEntity
  8
KIJUN
100
AcDbSpline
210
0.0
220
0.0
230
1.0
 70
     8
 71
     3
 72
     9
 73
     5
 74
     3
 42
0.0000000001
 43
0.0000000001
 44
0.0000000001
 40
0.0
 40
0.0
 40
0.0
 40
0.0
 40
9.472790881764975
 40
31.03293151639638
 40
31.03293151639638
 40
31.03293151639638
 40
31.03293151639638
 10
84.71615941083948
 20
47.51374957339026
 30
0.0
 10
83.74144445508276
 20
49.42828401119175
 30
0.0
 10
80.54827120260087
 20
55.70031269161432
 30
0.0
 10
80.78716934067603
 20
62.84921337862471
 30
0.0
 10
80.95314391035307
 20
67.81591477174064
 30
0.0
 11
84.71615941083948
 21
47.51374957339026
 31
0.0
 11
82.11180581606816
 21
53.33905748524124
 31
0.0
 11
80.95314391035307
 21
67.81591477174064
 31
0.0
  0
ARC
  5
2A5F
102
{ACAD_REACTORS
330
2B84
102
}
330
2
100
AcDbEntity
  8
KIJUN
100
AcDbCircle
 10
42.73955914881208
 20
71.2988443609039
 30
0.0
 40
3.72697185411922
100
AcDbArc
 50
160.9072456102127
 51
311.6445883433204
  0
SPLINE
  5
2A60
102
{ACAD_REACTORS
330
2B84
102
}
330
2
100
AcDbEntity
  8
KIJUN
100
AcDbSpline
210
0.0
220
0.0
230
1.0
 70
    24
 71
     3
 72
     8
 73
     4
 74
     2
 42
0.0000000001
 43
0.0000000001
 44
0.0000000001
 40
0.0
 40
0.0
 40
0.0
 40
0.0
 40
9.600847716272927
 40
9.600847716272927
 40
9.600847716272927
 40
9.600847716272927
 10
39.21760695607654
 20
72.51793088510234
 30
0.0
 10
40.83567145285172
 20
73.94239838786726
 30
0.0
 10
42.45373594962692
 20
75.36686589063219
 30
0.0
 10
44.0718004464021
 20
76.79133339339715
 30
0.0
 11
39.21760695607654
 21
72.51793088510234
 31
0.0
 11
44.0718004464021
 21
76.79133339339715
 31
0.0
  0
SPLINE
  5
2A61
102
{ACAD_REACTORS
330
2B84
102
}
330
2
100
AcDbEntity
  8
KIJUN
100
AcDbSpline
210
0.0
220
0.0
230
1.0
 70
     8
 71
     3
 72
    10
 73
     6
 74
     4
 42
0.0000000001
 43
0.0000000001
 44
0.0000000001
 40
0.0
 40
0.0
 40
0.0
 40
0.0
 40
3.407395485333583
 40
8.264777193754783
 40
21.29314705233608
 40
21.29314705233608
 40
21.29314705233608
 40
21.29314705233608
 10
36.13505293643547
 20
83.81849367954407
 30
0.0
 10
35.63632860460697
 20
83.21488763924575
 30
0.0
 10
34.42665232798792
 20
81.75081648655957
 30
0.0
 10
35.63525826891571
 20
75.87064056512001
 30
0.0
 10
40.59466646001971
 20
77.90147617294493
 30
0.0
 10
44.20720708775523
 20
79.38078093246833
 30
0.0
 11
36.13505293643547
 21
83.81849367954407
 31
0.0
 11
34.92423039584434
 21
81.86858989762793
 31
0.0
 11
35.46237439400329
 21
78.64116130550811
 31
0.0
 11
44.20720708775523
 21
79.38078093246833
 31
0.0
  0
ARC
  5
2A63
102
{ACAD_REACTORS
330
2B84
102
}
330
2
100
AcDbEntity
  8
KIJUN
100
AcDbCircle
 10
38.00452394580789
 20
79.19702654982296
 30
0.0
 40
6.788364257189831
100
AcDbArc
 50
119.0383347202275
 51
280.2940675188794
  0
SPLINE
  5
2A64
102
{ACAD_REACTORS
330
2B84
102
}
330
2
100
AcDbEntity
  8
KIJUN
100
AcDbSpline
210
0.0
220
0.0
230
1.0
 70
     8
 71
     3
 72
     9
 73
     5
 74
     3
 42
0.0000000001
 43
0.0000000001
 44
0.0000000001
 40
0.0
 40
0.0
 40
0.0
 40
0.0
 40
9.472790881764975
 40
31.03293151639638
 40
31.03293151639638
 40
31.03293151639638
 40
31.03293151639638
 10
74.71615996639504
 20
47.51374957339026
 30
0.0
 10
75.69087492215176
 20
49.42828401119175
 30
0.0
 10
78.88404817463364
 20
55.70031269161432
 30
0.0
 10
78.6451500365585
 20
62.84921337862471
 30
0.0
 10
78.47917546688144
 20
67.81591477174064
 30
0.0
 11
74.71615996639504
 21
47.51374957339026
 31
0.0
 11
77.32051356116634
 21
53.33905748524124
 31
0.0
 11
78.47917546688144
 21
67.81591477174064
 31
0.0
  0
ARC
  5
2A65
102
{ACAD_REACTORS
330
2B84
102
}
330
2
100
AcDbEntity
  8
KIJUN
100
AcDbCircle
 10
51.14338622464484
 20
72.71322260857846
 30
0.0
 40
7.264129353226088
100
AcDbArc
 50
215.3178006315068
 51
314.2933415530159
  0
ARC
  5
2A66
102
{ACAD_REACTORS
330
2B84
102
}
330
2
100
AcDbEntity
  8
KIJUN
100
AcDbCircle
 10
70.96350474867036
 20
51.19527465989887
 30
0.0
 40
5.256999918747209
100
AcDbArc
 50
176.526833576724
 51
315.5481884741257
  0
ARC
  5
2A67
102
{ACAD_REACTORS
330
2B84
102
}
330
2
100
AcDbEntity
  8
KIJUN
100
AcDbCircle
 10
62.44075282461285
 20
55.8944213574855
 30
0.0
 40
5.469788153738504
100
AcDbArc
 50
162.7795235988581
 51
306.7852904647602
  0
ARC
  5
2A68
102
{ACAD_REACTORS
330
2B84
102
}
330
2
100
AcDbEntity
  8
KIJUN
100
AcDbCircle
 10
63.57315943663902
 20
57.18058370995795
 30
0.0
 40
6.365722977495643
100
AcDbArc
 50
84.20267138667952
 51
176.9999179033243
  0
SPLINE
  5
2A69
102
{ACAD_REACTORS
330
2B84
102
}
330
2
100
AcDbEntity
  8
KIJUN
100
AcDbSpline
210
0.0
220
0.0
230
1.0
 70
     8
 71
     3
 72
    13
 73
     9
 74
     7
 42
0.0000000001
 43
0.0000000001
 44
0.0000000001
 40
0.0
 40
0.0
 40
0.0
 40
0.0
 40
8.307135769054921
 40
16.41232253126887
 40
20.00235718046642
 40
22.0085113833178
 40
24.62734807210355
 40
26.40804086961557
 40
26.40804086961557
 40
26.40804086961557
 40
26.40804086961557
 10
64.2161605497287
 20
63.51374868450119
 30
0.0
 10
64.23850084957198
 20
65.37838983426667
 30
0.0
 10
64.28263834974846
 20
69.06234213814347
 30
0.0
 10
60.33040813915975
 20
73.30435337526322
 30
0.0
 10
57.08141672960643
 20
71.94598011740911
 30
0.0
 10
56.15776125052953
 20
70.32219618562544
 30
0.0
 10
55.80493078174022
 20
68.85688357250234
 30
0.0
 10
56.09767420781311
 20
67.90074279792371
 30
0.0
 10
56.21616099417302
 20
67.51374846227887
 30
0.0
 11
64.2161605497287
 21
63.51374868450119
 31
0.0
 11
63.44107932212063
 21
69.05558874082877
 31
0.0
 11
59.21616082750647
 21
72.51374818450094
 31
0.0
 11
56.99301043358083
 21
71.56205734825018
 31
0.0
 11
56.27655747247377
 21
70.41624323517218
 31
0.0
 11
55.94835605196357
 21
68.68296506232188
 31
0.0
 11
56.21616099417302
 21
67.51374846227887
 31
0.0
  0
SPLINE
  5
2A6A
102
{ACAD_REACTORS
330
2B84
102
}
330
2
100
AcDbEntity
  8
KIJUN
100
AcDbSpline
210
0.0
220
0.0
230
1.0
 70
     8
 71
     3
 72
     9
 73
     5
 74
     3
 42
0.0000000001
 43
0.0000000001
 44
0.0000000001
 40
0.0
 40
0.0
 40
0.0
 40
0.0
 40
5.316493356155121
 40
8.364657978764498
 40
8.364657978764498
 40
8.364657978764498
 40
8.364657978764498
 10
64.2161605497287
 20
63.51374868450119
 30
0.0
 10
65.16623140324256
 20
62.71549576380866
 30
0.0
 10
66.6610170096302
 20
61.45957156437138
 30
0.0
 10
67.08331050791676
 20
59.58997736064481
 30
0.0
 10
67.23719846186572
 20
58.90867862435425
 30
0.0
 11
64.2161605497287
 21
63.51374868450119
 31
0.0
 11
66.63311342451173
 21
60.8710827618865
 31
0.0
 11
67.23719846186572
 21
58.90867862435425
 31
0.0
  0
SPLINE
  5
2A6B
102
{ACAD_REACTORS
330
2B84
102
}
330
2
100
AcDbEntity
  8
KIJUN
100
AcDbSpline
210
0.0
220
0.0
230
1.0
 70
     8
 71
     3
 72
    13
 73
     9
 74
     0
 42
0.0000000001
 43
0.0000000001
 40
0.0
 40
0.0
 40
0.0
 40
0.0
 40
6.083991929524176
 40
15.01468403086692
 40
22.76298042095127
 40
32.26389358848043
 40
38.1820203598307
 40
39.13098269802689
 40
39.13098269802689
 40
39.13098269802689
 40
39.13098269802689
 10
43.21616171639571
 20
80.51374774005648
 30
0.0
 10
45.16373037491821
 20
81.10187706902673
 30
0.0
 10
49.97013517868374
 20
82.55332147363237
 30
0.0
 10
57.7718827475863
 20
82.22877954950677
 30
0.0
 10
65.91128055349194
 20
77.41512316846939
 30
0.0
 10
67.47236626169606
 20
69.40633040147978
 30
0.0
 10
67.66504318803377
 20
63.60571292890814
 30
0.0
 10
66.48105698228377
 20
61.6904265952376
 30
0.0
 10
66.30145012872509
 20
61.43230687306694
 30
0.0
  0
SPLINE
  5
2A6C
102
{ACAD_REACTORS
330
2B84
102
}
330
2
100
AcDbEntity
  8
KIJUN
100
AcDbSpline
210
0.0
220
0.0
230
1.0
 70
     8
 71
     3
 72
    13
 73
     9
 74
     7
 42
0.0000000001
 43
0.0000000001
 44
0.0000000001
 40
0.0
 40
0.0
 40
0.0
 40
0.0
 40
10.26931042419
 40
18.53771622282667
 40
28.39433571381705
 40
34.54974759479637
 40
40.80058339852648
 40
48.32391670571373
 40
48.32391670571373
 40
48.32391670571373
 40
48.32391670571373
 10
65.30392853398487
 20
62.56330397597898
 30
0.0
 10
65.71640505055147
 20
64.9211580540219
 30
0.0
 10
66.46098986655632
 20
69.17745453237495
 30
0.0
 10
62.78299140429933
 20
74.89131172491044
 30
0.0
 10
56.84945138981135
 20
77.09525370395403
 30
0.0
 10
52.39111496198752
 20
74.29563838739657
 30
0.0
 10
50.54651981403156
 20
68.82359034371074
 30
0.0
 10
54.21336275553549
 20
67.97644952742095
 30
0.0
 10
56.21616099417302
 20
67.51374846227872
 30
0.0
 11
65.30392853398487
 21
62.56330397597898
 31
0.0
 11
65.57596315387582
 21
69.47547457021059
 31
0.0
 11
62.55553796710588
 21
74.15505559612762
 31
0.0
 11
56.21264410471146
 21
76.11746098733092
 31
0.0
 11
52.73915368465959
 21
73.85314774945776
 31
0.0
 11
51.68200535437872
 21
69.7773824168803
 31
0.0
 11
56.21616099417302
 21
67.51374846227872
 31
0.0
  0
SPLINE
  5
2A6D
102
{ACAD_REACTORS
330
2B84
102
}
330
2
100
AcDbEntity
  8
KIJUN
100
AcDbSpline
210
0.0
220
0.0
230
1.0
 70
     8
 71
     3
 72
    11
 73
     7
 74
     5
 42
0.0000000001
 43
0.0000000001
 44
0.0000000001
 40
0.0
 40
0.0
 40
0.0
 40
0.0
 40
3.820469712275036
 40
11.03225239179404
 40
16.77869811404415
 40
19.86584640509639
 40
19.86584640509639
 40
19.86584640509639
 40
19.86584640509639
 10
45.21616160528417
 20
68.5137484067231
 30
0.0
 10
44.87194760380059
 20
69.300185691774
 30
0.0
 10
43.87797146286811
 20
71.57115635046619
 30
0.0
 10
43.51975977164074
 20
75.47804523574199
 30
0.0
 10
44.70589193652773
 20
78.93704981533651
 30
0.0
 10
45.6234420852559
 20
80.69411552714687
 30
0.0
 10
45.94410583427306
 20
81.3081716408095
 30
0.0
 11
45.21616160528417
 21
68.5137484067231
 31
0.0
 11
44.27447533006937
 21
70.90878181840725
 31
0.0
 11
43.87086781653898
 21
75.74992345291583
 31
0.0
 11
45.01442405517163
 21
79.44801908037362
 31
0.0
 11
45.94410583427306
 21
81.3081716408095
 31
0.0
  0
SPLINE
  5
2A70
102
{ACAD_REACTORS
330
2B84
102
}
330
2
100
AcDbEntity
  8
KIJUN
100
AcDbSpline
210
0.0
220
0.0
230
1.0
 70
     8
 71
     3
 72
    10
 73
     6
 74
     4
 42
0.0000000001
 43
0.0000000001
 44
0.0000000001
 40
0.0
 40
0.0
 40
0.0
 40
0.0
 40
3.407395485333583
 40
8.264777193754783
 40
21.29314705233608
 40
21.29314705233608
 40
21.29314705233608
 40
21.29314705233608
 10
123.297266440799
 20
83.81849367954407
 30
0.0
 10
123.7959907726276
 20
83.21488763924575
 30
0.0
 10
125.0056670492466
 20
81.75081648655957
 30
0.0
 10
123.7970611083188
 20
75.87064056512001
 30
0.0
 10
118.8376529172148
 20
77.90147617294493
 30
0.0
 10
115.2251122894793
 20
79.38078093246833
 30
0.0
 11
123.297266440799
 21
83.81849367954407
 31
0.0
 11
124.5080889813902
 21
81.86858989762793
 31
0.0
 11
123.9699449832312
 21
78.64116130550811
 31
0.0
 11
115.2251122894793
 21
79.38078093246833
 31
0.0
  0
SPLINE
  5
2A71
102
{ACAD_REACTORS
330
2B84
102
}
330
2
100
AcDbEntity
  8
KIJUN
100
AcDbSpline
210
0.0
220
0.0
230
1.0
 70
    24
 71
     3
 72
     8
 73
     4
 74
     2
 42
0.0000000001
 43
0.0000000001
 44
0.0000000001
 40
0.0
 40
0.0
 40
0.0
 40
0.0
 40
9.606561407471794
 40
9.606561407471794
 40
9.606561407471794
 40
9.606561407471794
 10
120.2161574386166
 20
72.51374818450094
 30
0.0
 10
118.5976112693552
 20
73.93960992079968
 30
0.0
 10
116.9790651000938
 20
75.36547165709842
 30
0.0
 10
115.3605189308324
 20
76.79133339339715
 30
0.0
 11
120.2161574386166
 21
72.51374818450094
 31
0.0
 11
115.3605189308324
 21
76.79133339339715
 31
0.0
  0
SPLINE
  5
2A72
102
{ACAD_REACTORS
330
2B84
102
}
330
2
100
AcDbEntity
  8
KIJUN
100
AcDbSpline
210
0.0
220
0.0
230
1.0
 70
     8
 71
     3
 72
    11
 73
     7
 74
     5
 42
0.0000000001
 43
0.0000000001
 44
0.0000000001
 40
0.0
 40
0.0
 40
0.0
 40
0.0
 40
3.820469712275036
 40
11.03225239179404
 40
16.77869811404415
 40
19.86584640509639
 40
19.86584640509639
 40
19.86584640509639
 40
19.86584640509639
 10
114.2161577719503
 20
68.5137484067231
 30
0.0
 10
114.5603717734339
 20
69.300185691774
 30
0.0
 10
115.5543479143664
 20
71.57115635046619
 30
0.0
 10
115.9125596055937
 20
75.47804523574199
 30
0.0
 10
114.7264274407068
 20
78.93704981533651
 30
0.0
 10
113.8088772919786
 20
80.69411552714687
 30
0.0
 10
113.4882135429615
 20
81.3081716408095
 30
0.0
 11
114.2161577719503
 21
68.5137484067231
 31
0.0
 11
115.1578440471652
 21
70.90878181840725
 31
0.0
 11
115.5614515606955
 21
75.74992345291583
 31
0.0
 11
114.4178953220629
 21
79.44801908037362
 31
0.0
 11
113.4882135429615
 21
81.3081716408095
 31
0.0
  0
SPLINE
  5
2A73
102
{ACAD_REACTORS
330
2B84
102
}
330
2
100
AcDbEntity
  8
KIJUN
100
AcDbSpline
210
0.0
220
0.0
230
1.0
 70
     8
 71
     3
 72
    13
 73
     9
 74
     7
 42
0.0000000001
 43
0.0000000001
 44
0.0000000001
 40
0.0
 40
0.0
 40
0.0
 40
0.0
 40
10.26931042419
 40
18.53771622282667
 40
28.39433571381705
 40
34.54974759479637
 40
40.80058339852648
 40
48.32391670571414
 40
48.32391670571414
 40
48.32391670571414
 40
48.32391670571414
 10
94.12839084324966
 20
62.56330397597898
 30
0.0
 10
93.71591432668305
 20
64.9211580540219
 30
0.0
 10
92.97132951067821
 20
69.17745453237495
 30
0.0
 10
96.64932797293522
 20
74.89131172491044
 30
0.0
 10
102.5828679874231
 20
77.09525370395403
 30
0.0
 10
107.041204415247
 20
74.29563838739655
 30
0.0
 10
108.885799563203
 20
68.82359034371063
 30
0.0
 10
105.2189566216989
 20
67.97644952742093
 30
0.0
 10
103.2161583830612
 20
67.51374846227872
 30
0.0
 11
94.12839084324966
 21
62.56330397597898
 31
0.0
 11
93.8563562233587
 21
69.47547457021059
 31
0.0
 11
96.87678141012867
 21
74.15505559612762
 31
0.0
 11
103.219675272523
 21
76.11746098733092
 31
0.0
 11
106.6931656925749
 21
73.85314774945776
 31
0.0
 11
107.7503140228558
 21
69.7773824168803
 31
0.0
 11
103.2161583830612
 21
67.51374846227872
 31
0.0
  0
SPLINE
  5
2A74
102
{ACAD_REACTORS
330
2B84
102
}
330
2
100
AcDbEntity
  8
KIJUN
100
AcDbSpline
210
0.0
220
0.0
230
1.0
 70
     8
 71
     3
 72
    13
 73
     9
 74
     0
 42
0.0000000001
 43
0.0000000001
 40
0.0
 40
0.0
 40
0.0
 40
0.0
 40
6.083991929524176
 40
15.01468403086692
 40
22.76298042095127
 40
32.26389358848043
 40
38.1820203598307
 40
39.13098269802689
 40
39.13098269802689
 40
39.13098269802689
 40
39.13098269802689
 10
116.2161576608388
 20
80.51374774005648
 30
0.0
 10
114.2685890023163
 20
81.10187706902673
 30
0.0
 10
109.4621841985508
 20
82.55332147363237
 30
0.0
 10
101.6604366296482
 20
82.22877954950677
 30
0.0
 10
93.52103882374256
 20
77.41512316846939
 30
0.0
 10
91.95995311553847
 20
69.40633040147978
 30
0.0
 10
91.76727618920045
 20
63.60571292890814
 30
0.0
 10
92.95126239495074
 20
61.6904265952376
 30
0.0
 10
93.1308692485094
 20
61.43230687306694
 30
0.0
  0
SPLINE
  5
2A75
102
{ACAD_REACTORS
330
2B84
102
}
330
2
100
AcDbEntity
  8
KIJUN
100
AcDbSpline
210
0.0
220
0.0
230
1.0
 70
     8
 71
     3
 72
     9
 73
     5
 74
     3
 42
0.0000000001
 43
0.0000000001
 44
0.0000000001
 40
0.0
 40
0.0
 40
0.0
 40
0.0
 40
5.316493356155429
 40
8.364657978764672
 40
8.364657978764672
 40
8.364657978764672
 40
8.364657978764672
 10
95.21615882750584
 20
63.51374868450119
 30
0.0
 10
94.26608797399177
 20
62.7154957638087
 30
0.0
 10
92.77130236760385
 20
61.45957156437154
 30
0.0
 10
92.34900886931765
 20
59.58997736064481
 30
0.0
 10
92.19512091536879
 20
58.90867862435425
 30
0.0
 11
95.21615882750584
 21
63.51374868450119
 31
0.0
 11
92.79920595272248
 21
60.8710827618865
 31
0.0
 11
92.19512091536879
 21
58.90867862435425
 31
0.0
  0
SPLINE
  5
2A76
102
{ACAD_REACTORS
330
2B84
102
}
330
2
100
AcDbEntity
  8
KIJUN
100
AcDbSpline
210
0.0
220
0.0
230
1.0
 70
     8
 71
     3
 72
    13
 73
     9
 74
     7
 42
0.0000000001
 43
0.0000000001
 44
0.0000000001
 40
0.0
 40
0.0
 40
0.0
 40
0.0
 40
8.307135769054921
 40
16.41232253126887
 40
20.00235718046642
 40
22.0085113833178
 40
24.62734807210355
 40
26.40804086961568
 40
26.40804086961568
 40
26.40804086961568
 40
26.40804086961568
 10
95.21615882750584
 20
63.51374868450119
 30
0.0
 10
95.19381852766256
 20
65.37838983426667
 30
0.0
 10
95.14968102748605
 20
69.06234213814347
 30
0.0
 10
99.10191123807479
 20
73.30435337526322
 30
0.0
 10
102.3509026476281
 20
71.94598011740911
 30
0.0
 10
103.274558126705
 20
70.32219618562544
 30
0.0
 10
103.6273885954944
 20
68.85688357250228
 30
0.0
 10
103.3346451694212
 20
67.90074279792371
 30
0.0
 10
103.2161583830612
 20
67.51374846227887
 30
0.0
 11
95.21615882750584
 21
63.51374868450119
 31
0.0
 11
95.9912400551139
 21
69.05558874082877
 31
0.0
 11
100.216158549728
 21
72.51374818450094
 31
0.0
 11
102.4393089436537
 21
71.56205734825018
 31
0.0
 11
103.1557619047607
 21
70.41624323517218
 31
0.0
 11
103.4839633252709
 21
68.68296506232188
 31
0.0
 11
103.2161583830612
 21
67.51374846227887
 31
0.0
  0
ARC
  5
2A77
102
{ACAD_REACTORS
330
2B84
102
}
330
2
100
AcDbEntity
  8
KIJUN
100
AcDbCircle
 10
95.85915994059536
 20
57.18058370995795
 30
0.0
 40
6.365722977495643
100
AcDbArc
 50
3.000082096675639
 51
95.79732861332045
  0
ARC
  5
2A78
102
{ACAD_REACTORS
330
2B84
102
}
330
2
100
AcDbEntity
  8
KIJUN
100
AcDbCircle
 10
96.99156655262152
 20
55.8944213574855
 30
0.0
 40
5.469788153738504
100
AcDbArc
 50
233.2147095352397
 51
17.22047640114144
  0
ARC
  5
2A79
102
{ACAD_REACTORS
330
2B84
102
}
330
2
100
AcDbEntity
  8
KIJUN
100
AcDbCircle
 10
88.46881462856401
 20
51.19527465989887
 30
0.0
 40
5.256999918747209
100
AcDbArc
 50
224.4518115258743
 51
3.473166423275918
  0
ARC
  5
2A7A
102
{ACAD_REACTORS
330
2B84
102
}
330
2
100
AcDbEntity
  8
KIJUN
100
AcDbCircle
 10
116.6927602284223
 20
71.2988443609039
 30
0.0
 40
3.72697185411922
100
AcDbArc
 50
228.3554116566796
 51
19.02472339528402
  0
ARC
  5
2A7B
102
{ACAD_REACTORS
330
2B84
102
}
330
2
100
AcDbEntity
  8
KIJUN
100
AcDbCircle
 10
108.2889331525895
 20
72.71322260857846
 30
0.0
 40
7.264129353226088
100
AcDbArc
 50
225.706658446984
 51
324.682199368493
  0
ARC
  5
2A7C
102
{ACAD_REACTORS
330
2B84
102
}
330
2
100
AcDbEntity
  8
KIJUN
100
AcDbCircle
 10
79.65237569684084
 20
108.1625277836757
 30
0.0
 40
9.677816928349137
100
AcDbArc
 50
33.56870262784615
 51
89.62237558177667
  0
ARC
  5
2A7D
102
{ACAD_REACTORS
330
2B84
102
}
330
2
100
AcDbEntity
  8
KIJUN
100
AcDbCircle
 10
69.2624770429404
 20
101.5576922172129
 30
0.0
 40
12.20523578359641
100
AcDbArc
 50
78.40249362353988
 51
161.0872689703419
  0
ARC
  5
2A7E
102
{ACAD_REACTORS
330
2B84
102
}
330
2
100
AcDbEntity
  8
KIJUN
100
AcDbCircle
 10
60.99056720487508
 20
94.66414263662512
 30
0.0
 40
11.33294477799227
100
AcDbArc
 50
106.7937943023066
 51
185.8260706457376
  0
ARC
  5
2A7F
102
{ACAD_REACTORS
330
2B84
102
}
330
2
100
AcDbEntity
  8
KIJUN
100
AcDbCircle
 10
98.44175217235946
 20
94.66414263662512
 30
0.0
 40
11.33294477799227
100
AcDbArc
 50
354.1739293542624
 51
73.20620569769319
  0
ARC
  5
2A80
102
{ACAD_REACTORS
330
2B84
102
}
330
2
100
AcDbEntity
  8
KIJUN
100
AcDbCircle
 10
90.16984233429397
 20
101.5576922172129
 30
0.0
 40
12.20523578359641
100
AcDbArc
 50
18.91273102965804
 51
101.5975063764601
  0
ARC
  5
2A81
102
{ACAD_REACTORS
330
2B84
102
}
330
2
100
AcDbEntity
  8
KIJUN
100
AcDbCircle
 10
79.71615968861732
 20
46.04998963781716
 30
0.0
 40
5.209855119982664
100
AcDbArc
 50
163.6825021331623
 51
16.31749786684366
  0
ARC
  5
2A82
102
{ACAD_REACTORS
330
2B84
102
}
330
2
100
AcDbEntity
  8
KIJUN
100
AcDbCircle
 10
79.77994368038389
 20
108.1625277836757
 30
0.0
 40
9.677816928349137
100
AcDbArc
 50
90.37762441822335
 51
146.4312973721538
  0
DIMENSION
  5
2A83
330
2
100
AcDbEntity
  8
SUNPOU
100
AcDbDimension
  2
*D26
 10
128.2161596886165
 20
139.586281537088
 30
0.0
 11
79.71615968861728
 21
145.086281537088
 31
0.0
 70
    32
 71
     5
 42
96.99999999999844
  3
STANDARD
100
AcDbAlignedDimension
 13
31.21615968861807
 23
117.8401345178345
 33
0.0
 14
128.2161596886165
 24
119.6474070552491
 34
0.0
100
AcDbRotatedDimension
1001
ACAD
1000
DSTYLE
1002
{
1070
    41
1040
2.0
1070
    42
1040
10.0
1070
    44
1040
0.0
1070
    73
1070
     0
1070
    74
1070
     0
1070
    77
1070
     1
1070
   140
1040
5.0
1070
   141
1040
0.0
1070
   146
1040
0.064286
1070
   147
1040
3.0
1070
   176
1070
    60
1070
   177
1070
    70
1070
   178
1070
    60
1070
   271
1070
     0
1070
   272
1070
     0
1070
   340
1005
1C
1070
   342
1005
109
1002
}
  0
DIMENSION
  5
2A90
330
2
100
AcDbEntity
  8
SUNPOU
100
AcDbDimension
  2
*D27
 10
7.977641516827137
 20
40.84013451783451
 30
0.0
 11
2.477641516827133
 21
79.34013451783449
 31
0.0
 70
    32
 71
     5
 42
76.99999999999997
  3
STANDARD
100
AcDbAlignedDimension
 13
31.21615968861807
 23
117.8401345178345
 33
0.0
 14
32.25074273696964
 24
40.8401345178345
 34
0.0
 50
90.0
100
AcDbRotatedDimension
1001
ACAD
1000
DSTYLE
1002
{
1070
    41
1040
2.0
1070
    42
1040
10.0
1070
    44
1040
0.0
1070
    73
1070
     0
1070
    74
1070
     0
1070
    77
1070
     1
1070
   140
1040
5.0
1070
   141
1040
0.0
1070
   146
1040
0.064286
1070
   147
1040
3.0
1070
   176
1070
    60
1070
   177
1070
    70
1070
   178
1070
    60
1070
   271
1070
     0
1070
   272
1070
     0
1070
   340
1005
1C
1070
   342
1005
109
1002
}
  0
ARC
  5
2ABD
102
{ACAD_REACTORS
330
2B84
102
}
330
2
100
AcDbEntity
  8
KIJUN
100
AcDbCircle
 10
38.7913414195868
 20
67.75349114797916
 30
0.0
 40
13.50567225112119
100
AcDbArc
 50
70.87520442846731
 51
83.34825428258374
  0
ARC
  5
2ABE
102
{ACAD_REACTORS
330
2B84
102
}
330
2
100
AcDbEntity
  8
KIJUN
100
AcDbCircle
 10
40.51594522249541
 20
83.37751421923512
 30
0.0
 40
2.215063017833005
100
AcDbArc
 50
180.2828735466934
 51
265.8529818289076
  0
ARC
  5
2ABF
102
{ACAD_REACTORS
330
2B84
102
}
330
2
100
AcDbEntity
  8
KIJUN
100
AcDbCircle
 10
36.46633296704803
 20
81.32693471353196
 30
0.0
 40
4.191119909515742
100
AcDbArc
 50
75.86331525272502
 51
114.7829991605635
  0
ARC
  5
2AC0
102
{ACAD_REACTORS
330
2B84
102
}
330
2
100
AcDbEntity
  8
KIJUN
100
AcDbCircle
 10
37.07979337281398
 20
83.90890162862961
 30
0.0
 40
1.537931652538614
100
AcDbArc
 50
48.12040978231128
 51
74.53218858801438
  0
ARC
  5
2AC1
102
{ACAD_REACTORS
330
2B84
102
}
330
2
100
AcDbEntity
  8
KIJUN
100
AcDbCircle
 10
37.48049833942204
 20
84.44658510727057
 30
0.0
 40
0.8722096068771657
100
AcDbArc
 50
3.10240626591946
 51
44.1366719478756
  0
ARC
  5
2AC2
102
{ACAD_REACTORS
330
2B84
102
}
330
2
100
AcDbEntity
  8
KIJUN
100
AcDbCircle
 10
22.58857592526238
 20
84.63552648341998
 30
0.0
 40
15.76349093186441
100
AcDbArc
 50
355.3827406048656
 51
359.4848205629441
  0
ARC
  5
2AC4
102
{ACAD_REACTORS
330
2B84
102
}
330
2
100
AcDbEntity
  8
KIJUN
100
AcDbCircle
 10
121.4277954314266
 20
79.19702654982296
 30
0.0
 40
6.788364257189835
100
AcDbArc
 50
259.7059324811207
 51
60.96166527977242
  0
ARC
  5
2AC5
102
{ACAD_REACTORS
330
2B84
102
}
330
2
100
AcDbEntity
  8
KIJUN
100
AcDbCircle
 10
120.6409779576477
 20
67.75349114797916
 30
0.0
 40
13.5056722511212
100
AcDbArc
 50
96.65174571741646
 51
109.1247955715333
  0
ARC
  5
2AC6
102
{ACAD_REACTORS
330
2B84
102
}
330
2
100
AcDbEntity
  8
KIJUN
100
AcDbCircle
 10
118.9163741547391
 20
83.37751421923512
 30
0.0
 40
2.215063017833006
100
AcDbArc
 50
274.1470181710921
 51
359.7171264533066
  0
ARC
  5
2AC7
102
{ACAD_REACTORS
330
2B84
102
}
330
2
100
AcDbEntity
  8
KIJUN
100
AcDbCircle
 10
122.9659864101865
 20
81.32693471353196
 30
0.0
 40
4.191119909515744
100
AcDbArc
 50
65.21700083943717
 51
104.1366847472745
  0
ARC
  5
2AC8
102
{ACAD_REACTORS
330
2B84
102
}
330
2
100
AcDbEntity
  8
KIJUN
100
AcDbCircle
 10
122.3525260044206
 20
83.90890162862961
 30
0.0
 40
1.537931652538614
100
AcDbArc
 50
105.4678114119862
 51
131.8795902176886
  0
ARC
  5
2AC9
102
{ACAD_REACTORS
330
2B84
102
}
330
2
100
AcDbEntity
  8
KIJUN
100
AcDbCircle
 10
121.9518210378125
 20
84.44658510727057
 30
0.0
 40
0.8722096068771662
100
AcDbArc
 50
135.8633280521242
 51
176.8975937340805
  0
ARC
  5
2ACA
102
{ACAD_REACTORS
330
2B84
102
}
330
2
100
AcDbEntity
  8
KIJUN
100
AcDbCircle
 10
136.8437434519721
 20
84.63552648341998
 30
0.0
 40
15.76349093186442
100
AcDbArc
 50
180.5151794370559
 51
184.6172593951339
  0
ENDSEC
  0
SECTION
  2
OBJECTS
  0
DICTIONARY
  5
1A
330
0
100
AcDbDictionary
281
     1
  3
ACAD_COLOR
350
144
  3
ACAD_GROUP
350
18
  3
ACAD_LAYOUT
350
58
  3
ACAD_MATERIAL
350
143
  3
ACAD_MLINESTYLE
350
19
  3
ACAD_PLOTSETTINGS
350
59
  3
ACAD_PLOTSTYLENAME
350
56
  3
ACAD_TABLESTYLE
350
145
  3
ACDBHEADERROUNDTRIPXREC
350
2BCE
  3
AcDbVariableDictionary
350
1D1
  0
DICTIONARY
  5
1B4
330
A
100
AcDbDictionary
280
     1
281
     1
  3
ACAD_LAYERFILTERS
360
1A2A
  3
ACLYDICTIONARY
360
1A29
  0
DICTIONARY
  5
D13
330
2
100
AcDbDictionary
280
     1
281
     1
  3
ACAD_SORTENTS
360
D14
  0
DICTIONARY
  5
144
102
{ACAD_REACTORS
330
1A
102
}
330
1A
100
AcDbDictionary
281
     1
  0
DICTIONARY
  5
18
102
{ACAD_REACTORS
330
1A
102
}
330
1A
100
AcDbDictionary
281
     1
  3
*A1
350
E0D
  3
*A10
350
1EFE
  3
*A11
350
2037
  3
*A12
350
FF8
  3
*A13
350
136A
  3
*A14
350
1555
  3
*A15
350
17BC
  3
*A16
350
1A98
  3
*A17
350
1CBC
  3
*A18
350
2905
  3
*A19
350
2A17
  3
*A2
350
213E
  3
*A21
350
2B84
  3
*A3
350
22C8
  3
*A4
350
241A
  3
*A5
350
24D6
  3
*A6
350
2573
  3
*A7
350
265A
  3
*A8
350
26DD
  3
*A9
350
275E
  0
DICTIONARY
  5
58
102
{ACAD_REACTORS
330
1A
102
}
330
1A
100
AcDbDictionary
281
     1
  3
Model
350
5A
  3
ﾚｲｱｳﾄ1
350
5B
  0
DICTIONARY
  5
143
102
{ACAD_REACTORS
330
1A
102
}
330
1A
100
AcDbDictionary
281
     1
  0
DICTIONARY
  5
19
102
{ACAD_REACTORS
330
1A
102
}
330
1A
100
AcDbDictionary
281
     1
  3
STANDARD
350
1D
  0
DICTIONARY
  5
59
102
{ACAD_REACTORS
330
1A
102
}
330
1A
100
AcDbDictionary
281
     1
  0
ACDBDICTIONARYWDFLT
  5
56
102
{ACAD_REACTORS
330
1A
102
}
330
1A
100
AcDbDictionary
281
     1
  3
Normal
350
57
100
AcDbDictionaryWithDefault
340
57
  0
DICTIONARY
  5
145
102
{ACAD_REACTORS
330
1A
102
}
330
1A
100
AcDbDictionary
281
     1
  3
Standard
350
146
  0
DICTIONARY
  5
2BCE
102
{ACAD_REACTORS
330
1A
102
}
330
1A
100
AcDbDictionary
281
     1
  0
DICTIONARY
  5
1D1
102
{ACAD_REACTORS
330
1A
102
}
330
1A
100
AcDbDictionary
281
     1
  3
CTABLESTYLE
350
1D2
  3
DIMASSOC
350
D03
  3
PROJECTNAME
350
D04
  0
DICTIONARY
  5
1A2A
102
{ACAD_REACTORS
330
1B4
102
}
330
1B4
100
AcDbDictionary
281
     1
  0
DICTIONARY
  5
1A29
102
{ACAD_REACTORS
330
1B4
102
}
330
1B4
100
AcDbDictionary
281
     1
1001
ACAD
1000
<All
  0
SORTENTSTABLE
  5
D14
102
{ACAD_REACTORS
330
D13
102
}
330
D13
100
AcDbSortentsTable
330
2
331
23
  5
23
331
21
  5
21
331
1F
  5
1F
331
20
  5
20
  0
GROUP
  5
E0D
102
{ACAD_REACTORS
330
18
102
}
330
18
100
AcDbGroup
300

 70
     1
 71
     1
  0
GROUP
  5
1EFE
102
{ACAD_REACTORS
330
18
102
}
330
18
100
AcDbGroup
300

 70
     1
 71
     1
  0
GROUP
  5
2037
102
{ACAD_REACTORS
330
18
102
}
330
18
100
AcDbGroup
300

 70
     1
 71
     1
  0
GROUP
  5
FF8
102
{ACAD_REACTORS
330
18
102
}
330
18
100
AcDbGroup
300

 70
     1
 71
     1
  0
GROUP
  5
136A
102
{ACAD_REACTORS
330
18
102
}
330
18
100
AcDbGroup
300

 70
     1
 71
     1
  0
GROUP
  5
1555
102
{ACAD_REACTORS
330
18
102
}
330
18
100
AcDbGroup
300

 70
     1
 71
     1
  0
GROUP
  5
17BC
102
{ACAD_REACTORS
330
18
102
}
330
18
100
AcDbGroup
300

 70
     1
 71
     1
  0
GROUP
  5
1A98
102
{ACAD_REACTORS
330
18
102
}
330
18
100
AcDbGroup
300

 70
     1
 71
     1
  0
GROUP
  5
1CBC
102
{ACAD_REACTORS
330
18
102
}
330
18
100
AcDbGroup
300

 70
     1
 71
     1
  0
GROUP
  5
2905
102
{ACAD_REACTORS
330
18
102
}
330
18
100
AcDbGroup
300

 70
     1
 71
     1
  0
GROUP
  5
2A17
102
{ACAD_REACTORS
330
18
102
}
330
18
100
AcDbGroup
300

 70
     1
 71
     1
  0
GROUP
  5
213E
102
{ACAD_REACTORS
330
18
102
}
330
18
100
AcDbGroup
300

 70
     1
 71
     1
  0
GROUP
  5
2B84
102
{ACAD_REACTORS
330
18
102
}
330
18
100
AcDbGroup
300

 70
     1
 71
     1
340
2ACA
340
2AC9
340
2AC8
340
2AC7
340
2AC6
340
2AC5
340
2AC4
340
2AC2
340
2AC1
340
2AC0
340
2ABF
340
2ABE
340
2ABD
340
2A82
340
2A81
340
2A80
340
2A7F
340
2A7E
340
2A7D
340
2A7C
340
2A7B
340
2A7A
340
2A79
340
2A78
340
2A77
340
2A76
340
2A75
340
2A74
340
2A73
340
2A72
340
2A71
340
2A70
340
2A6D
340
2A6C
340
2A6B
340
2A6A
340
2A69
340
2A68
340
2A67
340
2A66
340
2A65
340
2A64
340
2A63
340
2A61
340
2A60
340
2A5F
340
2A5E
340
2A5D
340
2A5C
340
2A5B
340
2A5A
340
2A59
340
2A58
340
2A57
340
2A56
  0
GROUP
  5
22C8
102
{ACAD_REACTORS
330
18
102
}
330
18
100
AcDbGroup
300

 70
     1
 71
     1
  0
GROUP
  5
241A
102
{ACAD_REACTORS
330
18
102
}
330
18
100
AcDbGroup
300

 70
     1
 71
     1
  0
GROUP
  5
24D6
102
{ACAD_REACTORS
330
18
102
}
330
18
100
AcDbGroup
300

 70
     1
 71
     1
  0
GROUP
  5
2573
102
{ACAD_REACTORS
330
18
102
}
330
18
100
AcDbGroup
300

 70
     1
 71
     1
  0
GROUP
  5
265A
102
{ACAD_REACTORS
330
18
102
}
330
18
100
AcDbGroup
300

 70
     1
 71
     1
  0
GROUP
  5
26DD
102
{ACAD_REACTORS
330
18
102
}
330
18
100
AcDbGroup
300

 70
     1
 71
     1
  0
GROUP
  5
275E
102
{ACAD_REACTORS
330
18
102
}
330
18
100
AcDbGroup
300

 70
     1
 71
     1
  0
LAYOUT
  5
5A
102
{ACAD_XDICTIONARY
360
2BCF
102
}
102
{ACAD_REACTORS
330
58
102
}
330
58
100
AcDbPlotSettings
  1

  2
なし
  4

  6

 40
0.0
 41
0.0
 42
0.0
 43
0.0
 44
0.0
 45
0.0
 46
0.0
 47
0.0
 48
0.0
 49
0.0
140
0.0
141
0.0
142
1.0
143
1.0
 70
  1712
 72
     0
 73
     0
 74
     0
  7
monochrome.ctb
 75
     0
147
1.0
148
0.0
149
0.0
100
AcDbLayout
  1
Model
 70
     1
 71
     0
 10
0.0
 20
0.0
 11
12.0
 21
9.0
 12
0.0
 22
0.0
 32
0.0
 14
0.0
 24
0.0
 34
0.0
 15
0.0
 25
0.0
 35
0.0
146
0.0
 13
0.0
 23
0.0
 33
0.0
 16
1.0
 26
0.0
 36
0.0
 17
0.0
 27
1.0
 37
0.0
 76
     0
330
2
  0
LAYOUT
  5
5B
102
{ACAD_XDICTIONARY
360
2BD1
102
}
102
{ACAD_REACTORS
330
58
102
}
330
58
100
AcDbPlotSettings
  1

  2
なし
  4

  6

 40
0.0
 41
0.0
 42
0.0
 43
0.0
 44
0.0
 45
0.0
 46
0.0
 47
0.0
 48
0.0
 49
0.0
140
0.0
141
0.0
142
1.0
143
1.0
 70
   688
 72
     0
 73
     0
 74
     5
  7
monochrome.ctb
 75
    16
147
1.0
148
0.0
149
0.0
100
AcDbLayout
  1
ﾚｲｱｳﾄ1
 70
     1
 71
     1
 10
0.0
 20
0.0
 11
12.0
 21
9.0
 12
0.0
 22
0.0
 32
0.0
 14
1.000000000000000E+20
 24
1.000000000000000E+20
 34
1.000000000000000E+20
 15
-1.000000000000000E+20
 25
-1.000000000000000E+20
 35
-1.000000000000000E+20
146
0.0
 13
0.0
 23
0.0
 33
0.0
 16
1.0
 26
0.0
 36
0.0
 17
0.0
 27
1.0
 37
0.0
 76
     0
330
7
  0
MLINESTYLE
  5
1D
102
{ACAD_REACTORS
330
19
102
}
330
19
100
AcDbMlineStyle
  2
STANDARD
 70
     0
  3

 62
   256
 51
90.0
 52
90.0
 71
     2
 49
0.5
 62
   256
  6
BYLAYER
 49
-0.5
 62
   256
  6
BYLAYER
  0
ACDBPLACEHOLDER
  5
57
102
{ACAD_REACTORS
330
56
102
}
330
56
  0
TABLESTYLE
  5
146
102
{ACAD_REACTORS
330
145
102
}
330
145
100
AcDbTableStyle
  3
Standard
 70
     0
 71
     0
 40
0.06
 41
0.06
280
     0
281
     0
  7
STANDARD
140
0.18
170
     2
 62
     0
 63
     7
283
     0
274
    -2
284
     1
 64
     0
275
    -2
285
     1
 65
     0
276
    -2
286
     1
 66
     0
277
    -2
287
     1
 67
     0
278
    -2
288
     1
 68
     0
279
    -2
289
     1
 69
     0
  7
STANDARD
140
0.25
170
     5
 62
     0
 63
     7
283
     0
274
    -2
284
     1
 64
     0
275
    -2
285
     1
 65
     0
276
    -2
286
     1
 66
     0
277
    -2
287
     1
 67
     0
278
    -2
288
     1
 68
     0
279
    -2
289
     1
 69
     0
  7
STANDARD
140
0.18
170
     5
 62
     0
 63
     7
283
     0
274
    -2
284
     1
 64
     0
275
    -2
285
     1
 65
     0
276
    -2
286
     1
 66
     0
277
    -2
287
     1
 67
     0
278
    -2
288
     1
 68
     0
279
    -2
289
     1
 69
     0
  0
DICTIONARYVAR
  5
1D2
102
{ACAD_REACTORS
330
1D1
102
}
330
1D1
100
DictionaryVariables
280
     0
  1
STANDARD
  0
DICTIONARYVAR
  5
D03
102
{ACAD_REACTORS
330
1D1
102
}
330
1D1
100
DictionaryVariables
280
     0
  1
1
  0
DICTIONARYVAR
  5
D04
102
{ACAD_REACTORS
330
1D1
102
}
330
1D1
100
DictionaryVariables
280
     0
  1

  0
DICTIONARY
  5
2BCF
330
5A
100
AcDbDictionary
280
     1
281
     1
  3
ACAD_XREC_ROUNDTRIP
360
2BD0
  0
DICTIONARY
  5
2BD1
330
5B
100
AcDbDictionary
280
     1
281
     1
  3
ACAD_XREC_ROUNDTRIP
360
2BD2
  0
XRECORD
  5
2BD0
102
{ACAD_REACTORS
330
2BCF
102
}
330
2BCF
100
AcDbXrecord
280
     1
102
SHADEPLOT
 70
     0
102
SHADEPLOTRESLEVEL
 70
     2
102
SHADEPLOTCUSTOMDPI
 70
   300
  0
XRECORD
  5
2BD2
102
{ACAD_REACTORS
330
2BD1
102
}
330
2BD1
100
AcDbXrecord
280
     1
102
SHADEPLOT
 70
     0
102
SHADEPLOTRESLEVEL
 70
     2
102
SHADEPLOTCUSTOMDPI
 70
   300
  0
ENDSEC
  0
EOF
