  0
SECTION
  2
HEADER
  9
$ACADVER
  1
AC1015
  9
$ACADMAINTVER
 70
    20
  9
$DWGCODEPAGE
  3
ANSI_932
  9
$INSBASE
 10
922.019522
 20
-675.4306699999999
 30
0.0
  9
$EXTMIN
 10
-40.62310311193312
 20
-0.0075636913210246
 30
-0.0000000000000053
  9
$EXTMAX
 10
148.699578445598
 20
188.9618164484774
 30
0.0000000000000099
  9
$LIMMIN
 10
0.0
 20
0.0
  9
$LIMMAX
 10
420.0
 20
297.0
  9
$ORTHOMODE
 70
     1
  9
$REGENMODE
 70
     1
  9
$FILLMODE
 70
     1
  9
$QTEXTMODE
 70
     0
  9
$MIRRTEXT
 70
     1
  9
$LTSCALE
 40
1.0
  9
$ATTMODE
 70
     1
  9
$TEXTSIZE
 40
30.0
  9
$TRACEWID
 40
0.05
  9
$TEXTSTYLE
  7
SUNPOU
  9
$CLAYER
  8
0
  9
$CELTYPE
  6
BYLAYER
  9
$CECOLOR
 62
   256
  9
$CELTSCALE
 40
1.0
  9
$DISPSILH
 70
     0
  9
$DIMSCALE
 40
1.0
  9
$DIMASZ
 40
2.0
  9
$DIMEXO
 40
10.0
  9
$DIMDLI
 40
0.38
  9
$DIMRND
 40
0.0
  9
$DIMDLE
 40
0.0
  9
$DIMEXE
 40
0.0
  9
$DIMTP
 40
0.0
  9
$DIMTM
 40
0.0
  9
$DIMTXT
 40
5.0
  9
$DIMCEN
 40
0.0
  9
$DIMTSZ
 40
0.0
  9
$DIMTOL
 70
     0
  9
$DIMLIM
 70
     0
  9
$DIMTIH
 70
     0
  9
$DIMTOH
 70
     0
  9
$DIMSE1
 70
     0
  9
$DIMSE2
 70
     0
  9
$DIMTAD
 70
     1
  9
$DIMZIN
 70
     0
  9
$DIMBLK
  1
Dot
  9
$DIMASO
 70
     1
  9
$DIMSHO
 70
     1
  9
$DIMPOST
  1

  9
$DIMAPOST
  1

  9
$DIMALT
 70
     0
  9
$DIMALTD
 70
     2
  9
$DIMALTF
 40
25.4
  9
$DIMLFAC
 40
1.0
  9
$DIMTOFL
 70
     0
  9
$DIMTVP
 40
0.0
  9
$DIMTIX
 70
     0
  9
$DIMSOXD
 70
     0
  9
$DIMSAH
 70
     0
  9
$DIMBLK1
  1

  9
$DIMBLK2
  1

  9
$DIMSTYLE
  2
STANDARD
  9
$DIMCLRD
 70
    60
  9
$DIMCLRE
 70
    70
  9
$DIMCLRT
 70
    60
  9
$DIMTFAC
 40
0.064286
  9
$DIMGAP
 40
3.0
  9
$DIMJUST
 70
     0
  9
$DIMSD1
 70
     0
  9
$DIMSD2
 70
     0
  9
$DIMTOLJ
 70
     1
  9
$DIMTZIN
 70
     0
  9
$DIMALTZ
 70
     0
  9
$DIMALTTZ
 70
     0
  9
$DIMUPT
 70
     0
  9
$DIMDEC
 70
     0
  9
$DIMTDEC
 70
     0
  9
$DIMALTU
 70
     2
  9
$DIMALTTD
 70
     2
  9
$DIMTXSTY
  7
SUNPOU
  9
$DIMAUNIT
 70
     0
  9
$DIMADEC
 70
     0
  9
$DIMALTRND
 40
0.0
  9
$DIMAZIN
 70
     0
  9
$DIMDSEP
 70
    46
  9
$DIMATFIT
 70
     3
  9
$DIMFRAC
 70
     0
  9
$DIMLDRBLK
  1

  9
$DIMLUNIT
 70
     2
  9
$DIMLWD
 70
    -2
  9
$DIMLWE
 70
    -2
  9
$DIMTMOVE
 70
     0
  9
$LUNITS
 70
     2
  9
$LUPREC
 70
     5
  9
$SKETCHINC
 40
0.1
  9
$FILLETRAD
 40
0.0
  9
$AUNITS
 70
     0
  9
$AUPREC
 70
     0
  9
$MENU
  1
acad
  9
$ELEVATION
 40
0.0
  9
$PELEVATION
 40
0.0
  9
$THICKNESS
 40
0.0
  9
$LIMCHECK
 70
     0
  9
$CHAMFERA
 40
0.0
  9
$CHAMFERB
 40
0.0
  9
$CHAMFERC
 40
0.0
  9
$CHAMFERD
 40
0.0
  9
$SKPOLY
 70
     0
  9
$TDCREATE
 40
2450623.654673033
  9
$TDUCREATE
 40
2450623.279673032
  9
$TDUPDATE
 40
2453867.624584444
  9
$TDUUPDATE
 40
2453867.249584444
  9
$TDINDWG
 40
0.3026442245
  9
$TDUSRTIMER
 40
0.3026440509
  9
$USRTIMER
 70
     1
  9
$ANGBASE
 50
0.0
  9
$ANGDIR
 70
     0
  9
$PDMODE
 70
     0
  9
$PDSIZE
 40
0.0
  9
$PLINEWID
 40
0.0
  9
$SPLFRAME
 70
     0
  9
$SPLINETYPE
 70
     6
  9
$SPLINESEGS
 70
     8
  9
$HANDSEED
  5
2B2C
  9
$SURFTAB1
 70
     6
  9
$SURFTAB2
 70
     6
  9
$SURFTYPE
 70
     6
  9
$SURFU
 70
     6
  9
$SURFV
 70
     6
  9
$UCSBASE
  2

  9
$UCSNAME
  2

  9
$UCSORG
 10
0.0
 20
0.0
 30
0.0
  9
$UCSXDIR
 10
1.0
 20
0.0
 30
0.0
  9
$UCSYDIR
 10
0.0
 20
1.0
 30
0.0
  9
$UCSORTHOREF
  2

  9
$UCSORTHOVIEW
 70
     0
  9
$UCSORGTOP
 10
0.0
 20
0.0
 30
0.0
  9
$UCSORGBOTTOM
 10
0.0
 20
0.0
 30
0.0
  9
$UCSORGLEFT
 10
0.0
 20
0.0
 30
0.0
  9
$UCSORGRIGHT
 10
0.0
 20
0.0
 30
0.0
  9
$UCSORGFRONT
 10
0.0
 20
0.0
 30
0.0
  9
$UCSORGBACK
 10
0.0
 20
0.0
 30
0.0
  9
$PUCSBASE
  2

  9
$PUCSNAME
  2

  9
$PUCSORG
 10
0.0
 20
0.0
 30
0.0
  9
$PUCSXDIR
 10
1.0
 20
0.0
 30
0.0
  9
$PUCSYDIR
 10
0.0
 20
1.0
 30
0.0
  9
$PUCSORTHOREF
  2

  9
$PUCSORTHOVIEW
 70
     0
  9
$PUCSORGTOP
 10
0.0
 20
0.0
 30
0.0
  9
$PUCSORGBOTTOM
 10
0.0
 20
0.0
 30
0.0
  9
$PUCSORGLEFT
 10
0.0
 20
0.0
 30
0.0
  9
$PUCSORGRIGHT
 10
0.0
 20
0.0
 30
0.0
  9
$PUCSORGFRONT
 10
0.0
 20
0.0
 30
0.0
  9
$PUCSORGBACK
 10
0.0
 20
0.0
 30
0.0
  9
$USERI1
 70
     0
  9
$USERI2
 70
     0
  9
$USERI3
 70
     0
  9
$USERI4
 70
     0
  9
$USERI5
 70
     0
  9
$USERR1
 40
0.0
  9
$USERR2
 40
0.0
  9
$USERR3
 40
0.0
  9
$USERR4
 40
0.0
  9
$USERR5
 40
0.0
  9
$WORLDVIEW
 70
     1
  9
$SHADEDGE
 70
     3
  9
$SHADEDIF
 70
    70
  9
$TILEMODE
 70
     1
  9
$MAXACTVP
 70
    16
  9
$PINSBASE
 10
0.0
 20
0.0
 30
0.0
  9
$PLIMCHECK
 70
     0
  9
$PEXTMIN
 10
1.000000000000000E+20
 20
1.000000000000000E+20
 30
1.000000000000000E+20
  9
$PEXTMAX
 10
-1.000000000000000E+20
 20
-1.000000000000000E+20
 30
-1.000000000000000E+20
  9
$PLIMMIN
 10
0.0
 20
0.0
  9
$PLIMMAX
 10
12.0
 20
9.0
  9
$UNITMODE
 70
     0
  9
$VISRETAIN
 70
     0
  9
$PLINEGEN
 70
     0
  9
$PSLTSCALE
 70
     1
  9
$TREEDEPTH
 70
  3020
  9
$CMLSTYLE
  2
STANDARD
  9
$CMLJUST
 70
     0
  9
$CMLSCALE
 40
1.0
  9
$PROXYGRAPHICS
 70
     1
  9
$MEASUREMENT
 70
     0
  9
$CELWEIGHT
370
    -1
  9
$ENDCAPS
280
     0
  9
$JOINSTYLE
280
     0
  9
$LWDISPLAY
290
     0
  9
$INSUNITS
 70
     0
  9
$HYPERLINKBASE
  1

  9
$STYLESHEET
  1

  9
$XEDIT
290
     1
  9
$CEPSNTYPE
380
     0
  9
$PSTYLEMODE
290
     1
  9
$FINGERPRINTGUID
  2
{FB88A696-E29C-4009-92AF-A3599A8169D5}
  9
$VERSIONGUID
  2
{4F053B49-D199-40DE-908C-8EADA31F3DC9}
  9
$EXTNAMES
290
     1
  9
$PSVPSCALE
 40
0.0
  9
$OLESTARTUP
290
     0
  0
ENDSEC
  0
SECTION
  2
CLASSES
  0
CLASS
  1
DICTIONARYVAR
  2
AcDbDictionaryVar
  3
ObjectDBX Classes
 90
        0
280
     0
281
     0
  0
CLASS
  1
ACDBDICTIONARYWDFLT
  2
AcDbDictionaryWithDefault
  3
ObjectDBX Classes
 90
        0
280
     0
281
     0
  0
CLASS
  1
ACDBPLACEHOLDER
  2
AcDbPlaceHolder
  3
ObjectDBX Classes
 90
        0
280
     0
281
     0
  0
CLASS
  1
LAYOUT
  2
AcDbLayout
  3
ObjectDBX Classes
 90
        0
280
     0
281
     0
  0
CLASS
  1
TABLESTYLE
  2
AcDbTableStyle
  3
ObjectDBX Classes
 90
     2047
280
     0
281
     0
  0
CLASS
  1
SORTENTSTABLE
  2
AcDbSortentsTable
  3
ObjectDBX Classes
 90
        0
280
     0
281
     0
  0
ENDSEC
  0
SECTION
  2
TABLES
  0
TABLE
  2
VPORT
  5
12
330
0
100
AcDbSymbolTable
 70
     3
  0
VPORT
  5
2B26
330
12
100
AcDbSymbolTableRecord
100
AcDbViewportTableRecord
  2
*Active
 70
     0
 10
0.0
 20
0.0
 11
1.0
 21
1.0
 12
54.03823766683245
 22
94.47712637857819
 13
0.0
 23
0.0
 14
1.0
 24
1.0
 15
0.0
 25
0.0
 16
0.0
 26
0.0
 36
1.0
 17
0.0
 27
0.0
 37
0.0
 40
190.4211295390798
 41
1.565384615384615
 42
50.0
 43
0.0
 44
0.0
 50
0.0
 51
0.0
 71
     0
 72
 20000
 73
     1
 74
     1
 75
     0
 76
     0
 77
     0
 78
     0
281
     0
 65
     1
110
0.0
120
0.0
130
0.0
111
1.0
121
0.0
131
0.0
112
0.0
122
1.0
132
0.0
 79
     0
146
0.0
  0
ENDTAB
  0
TABLE
  2
LTYPE
  5
D
330
0
100
AcDbSymbolTable
 70
     1
  0
LTYPE
  5
E
330
D
100
AcDbSymbolTableRecord
100
AcDbLinetypeTableRecord
  2
BYBLOCK
 70
     0
  3

 72
    65
 73
     0
 40
0.0
  0
LTYPE
  5
F
330
D
100
AcDbSymbolTableRecord
100
AcDbLinetypeTableRecord
  2
BYLAYER
 70
     0
  3

 72
    65
 73
     0
 40
0.0
  0
LTYPE
  5
5
330
D
100
AcDbSymbolTableRecord
100
AcDbLinetypeTableRecord
  2
CONTINUOUS
 70
     0
  3
Solid line
 72
    65
 73
     0
 40
0.0
  0
ENDTAB
  0
TABLE
  2
LAYER
  5
A
102
{ACAD_XDICTIONARY
360
1B4
102
}
330
0
100
AcDbSymbolTable
 70
     6
  0
LAYER
  5
4
330
A
100
AcDbSymbolTableRecord
100
AcDbLayerTableRecord
  2
0
 70
     0
 62
     7
  6
CONTINUOUS
370
    -3
390
57
  0
LAYER
  5
25
330
A
100
AcDbSymbolTableRecord
100
AcDbLayerTableRecord
  2
KIJUN
 70
     0
 62
     7
  6
CONTINUOUS
370
    -3
390
57
  0
LAYER
  5
22
330
A
100
AcDbSymbolTableRecord
100
AcDbLayerTableRecord
  2
HOJO
 70
     0
 62
     3
  6
CONTINUOUS
370
    -3
390
57
  0
LAYER
  5
1B
330
A
100
AcDbSymbolTableRecord
100
AcDbLayerTableRecord
  2
WAKU
 70
     0
 62
     1
  6
CONTINUOUS
370
    -3
390
57
  0
LAYER
  5
31
330
A
100
AcDbSymbolTableRecord
100
AcDbLayerTableRecord
  2
DEFPOINTS
 70
     0
 62
     7
  6
CONTINUOUS
290
     0
370
    -3
390
57
  0
LAYER
  5
28
330
A
100
AcDbSymbolTableRecord
100
AcDbLayerTableRecord
  2
SUNPOU
 70
     0
 62
    70
  6
CONTINUOUS
370
    -3
390
57
  0
ENDTAB
  0
TABLE
  2
STYLE
  5
B
330
0
100
AcDbSymbolTable
 70
     3
  0
STYLE
  5
C
330
B
100
AcDbSymbolTableRecord
100
AcDbTextStyleTableRecord
  2
STANDARD
 70
     0
 40
0.0
 41
1.0
 50
0.0
 71
     0
 42
0.2
  3
txt
  4

  0
STYLE
  5
1C
330
B
100
AcDbSymbolTableRecord
100
AcDbTextStyleTableRecord
  2
SUNPOU
 70
     0
 40
0.0
 41
1.0
 50
0.0
 71
     0
 42
30.0
  3
txt
  4
bigfont
  0
STYLE
  5
14A
330
B
100
AcDbSymbolTableRecord
100
AcDbTextStyleTableRecord
  2
LIFE
 70
     0
 40
0.0
 41
0.7
 50
0.0
 71
     0
 42
10.0
  3
romans
  4
extfont
  0
ENDTAB
  0
TABLE
  2
VIEW
  5
10
330
0
100
AcDbSymbolTable
 70
     0
  0
ENDTAB
  0
TABLE
  2
UCS
  5
11
330
0
100
AcDbSymbolTable
 70
     0
  0
ENDTAB
  0
TABLE
  2
APPID
  5
14
330
0
100
AcDbSymbolTable
 70
    10
  0
APPID
  5
15
330
14
100
AcDbSymbolTableRecord
100
AcDbRegAppTableRecord
  2
ACAD
 70
     0
  0
APPID
  5
1D3
330
14
100
AcDbSymbolTableRecord
100
AcDbRegAppTableRecord
  2
ACAD_DSTYLE_DIMTEXT_FILL
 70
     0
  0
APPID
  5
1D4
330
14
100
AcDbSymbolTableRecord
100
AcDbRegAppTableRecord
  2
ACAD_DSTYLE_DIMEXT_LENGTH
 70
     0
  0
APPID
  5
1D5
330
14
100
AcDbSymbolTableRecord
100
AcDbRegAppTableRecord
  2
ACAD_DSTYLE_DIMEXT_ENABLED
 70
     0
  0
APPID
  5
1D6
330
14
100
AcDbSymbolTableRecord
100
AcDbRegAppTableRecord
  2
ACAD_DSTYLE_DIM_LINETYPE
 70
     0
  0
APPID
  5
1D7
330
14
100
AcDbSymbolTableRecord
100
AcDbRegAppTableRecord
  2
ACAD_DSTYLE_DIM_EXT1_LINETYPE
 70
     0
  0
APPID
  5
1D8
330
14
100
AcDbSymbolTableRecord
100
AcDbRegAppTableRecord
  2
ACAD_DSTYLE_DIM_EXT2_LINETYPE
 70
     0
  0
APPID
  5
294
330
14
100
AcDbSymbolTableRecord
100
AcDbRegAppTableRecord
  2
ACAD_DSTYLE_DIMJOGGED_JOGANGLE_SYMBOL
 70
     0
  0
APPID
  5
478
330
14
100
AcDbSymbolTableRecord
100
AcDbRegAppTableRecord
  2
ACAD_DSTYLE_DIMARC_LENGTH_SYMBOL
 70
     0
  0
APPID
  5
F55
330
14
100
AcDbSymbolTableRecord
100
AcDbRegAppTableRecord
  2
ACAD_EXEMPT_FROM_CAD_STANDARDS
 70
     0
  0
ENDTAB
  0
TABLE
  2
DIMSTYLE
  5
16
330
0
100
AcDbSymbolTable
 70
     2
100
AcDbDimStyleTable
 71
     1
340
1E
  0
DIMSTYLE
105
1E
102
{ACAD_REACTORS
330
2A83
330
2A90
102
}
330
16
100
AcDbSymbolTableRecord
100
AcDbDimStyleTableRecord
  2
STANDARD
 70
     0
340
C
  0
DIMSTYLE
105
1005
330
16
100
AcDbSymbolTableRecord
100
AcDbDimStyleTableRecord
  2
1-100
 70
     0
 40
100.0
 41
0.7
 42
2.5
 43
5.0
 44
1.0
 77
     1
147
1.0
172
     1
176
     3
177
     3
271
     2
272
     2
279
     2
340
C
342
109
  0
ENDTAB
  0
TABLE
  2
BLOCK_RECORD
  5
1
330
0
100
AcDbSymbolTable
 70
     7
  0
BLOCK_RECORD
  5
2
102
{ACAD_XDICTIONARY
360
D13
102
}
330
1
100
AcDbSymbolTableRecord
100
AcDbBlockTableRecord
  2
*MODEL_SPACE
340
5A
  0
BLOCK_RECORD
  5
7
330
1
100
AcDbSymbolTableRecord
100
AcDbBlockTableRecord
  2
*PAPER_SPACE
340
5B
  0
BLOCK_RECORD
  5
109
330
1
100
AcDbSymbolTableRecord
100
AcDbBlockTableRecord
  2
_Dot
340
0
102
{BLKREFS
331
28F6
331
28F7
331
28FF
331
2900
331
29FF
331
2A00
331
2A11
331
2A12
331
2AFB
331
2AFC
331
2B0D
331
2B0E
102
}
  0
BLOCK_RECORD
  5
2A84
330
1
100
AcDbSymbolTableRecord
100
AcDbBlockTableRecord
  2
*D5
340
0
  0
BLOCK_RECORD
  5
2A91
330
1
100
AcDbSymbolTableRecord
100
AcDbBlockTableRecord
  2
*D6
340
0
  0
ENDTAB
  0
ENDSEC
  0
SECTION
  2
BLOCKS
  0
BLOCK
  5
3
330
2
100
AcDbEntity
  8
0
100
AcDbBlockBegin
  2
*MODEL_SPACE
 70
     0
 10
0.0
 20
0.0
 30
0.0
  3
*MODEL_SPACE
  1

  0
ENDBLK
  5
6
330
2
100
AcDbEntity
  8
0
100
AcDbBlockEnd
  0
BLOCK
  5
8
330
7
100
AcDbEntity
 67
     1
  8
0
100
AcDbBlockBegin
  2
*PAPER_SPACE
 70
     0
 10
0.0
 20
0.0
 30
0.0
  3
*PAPER_SPACE
  1

  0
ENDBLK
  5
9
330
7
100
AcDbEntity
 67
     1
  8
0
100
AcDbBlockEnd
  0
BLOCK
  5
10C
330
109
100
AcDbEntity
  8
0
100
AcDbBlockBegin
  2
_Dot
 70
     0
 10
0.0
 20
0.0
 30
0.0
  3
_Dot
  1

  0
LWPOLYLINE
  5
10A
330
109
100
AcDbEntity
  8
0
  6
ByBlock
 62
     0
100
AcDbPolyline
 90
        2
 70
     1
 43
0.5
 10
-0.25
 20
0.0
 42
1.0
 10
0.25
 20
0.0
 42
1.0
  0
LINE
  5
10B
330
109
100
AcDbEntity
  8
0
  6
ByBlock
 62
     0
370
    -2
100
AcDbLine
 10
-0.5
 20
0.0
 30
0.0
 11
-1.0
 21
0.0
 31
0.0
  0
ENDBLK
  5
10D
330
109
100
AcDbEntity
  8
0
100
AcDbBlockEnd
  0
BLOCK
  5
2A8E
330
2A84
100
AcDbEntity
  8
0
100
AcDbBlockBegin
  2
*D5
 70
     1
 10
0.0
 20
0.0
 30
0.0
  3
*D5
  1

  0
LINE
  5
2AF8
330
2A84
100
AcDbEntity
  8
SUNPOU
 62
    70
370
    -2
100
AcDbLine
 10
-1.198736310665487
 20
160.6124521602648
 30
0.0
 11
-1.198736310665486
 21
180.9506930349034
 31
0.0
  0
LINE
  5
2AF9
330
2A84
100
AcDbEntity
  8
SUNPOU
 62
    70
370
    -2
100
AcDbLine
 10
142.8012636893345
 20
159.6333451317562
 30
0.0
 11
142.8012636893345
 21
180.9506930349034
 31
0.0
  0
LINE
  5
2AFA
330
2A84
100
AcDbEntity
  8
SUNPOU
 62
    60
370
    -2
100
AcDbLine
 10
0.8012636893345135
 20
180.9506930349034
 30
0.0
 11
140.8012636893345
 21
180.9506930349034
 31
0.0
  0
INSERT
  5
2AFB
330
2A84
100
AcDbEntity
  8
SUNPOU
 62
    60
370
    -2
100
AcDbBlockReference
  2
_Dot
 10
-1.198736310665486
 20
180.9506930349034
 30
0.0
 41
2.0
 42
2.0
 43
2.0
 50
180.0
  0
INSERT
  5
2AFC
330
2A84
100
AcDbEntity
  8
SUNPOU
 62
    60
370
    -2
100
AcDbBlockReference
  2
_Dot
 10
142.8012636893345
 20
180.9506930349034
 30
0.0
 41
2.0
 42
2.0
 43
2.0
  0
MTEXT
  5
2AFD
330
2A84
100
AcDbEntity
  8
SUNPOU
 62
    60
100
AcDbMText
 10
70.80126368933453
 20
186.4506930349034
 30
0.0
 40
5.0
 41
0.0
 71
     5
 72
     1
  1
\A1;144
  7
SUNPOU
 73
     1
 44
1.0
1001
ACAD
1000
MTEXTBEGIN
1070
    73
1070
     1
1070
    44
1040
1.0
1070
    74
1070
     0
1000
MTEXTEND
  0
POINT
  5
2AFE
330
2A84
100
AcDbEntity
  8
DEFPOINTS
 62
     0
100
AcDbPoint
 10
-1.198736310665488
 20
150.6124521602647
 30
0.0
  0
POINT
  5
2AFF
330
2A84
100
AcDbEntity
  8
DEFPOINTS
 62
     0
100
AcDbPoint
 10
142.8012636893345
 20
149.6333451317562
 30
0.0
  0
POINT
  5
2B00
330
2A84
100
AcDbEntity
  8
DEFPOINTS
 62
     0
100
AcDbPoint
 10
142.8012636893345
 20
180.9506930349034
 30
0.0
  0
ENDBLK
  5
2A8F
330
2A84
100
AcDbEntity
  8
0
100
AcDbBlockEnd
  0
BLOCK
  5
2A9B
330
2A91
100
AcDbEntity
  8
0
100
AcDbBlockBegin
  2
*D6
 70
     1
 10
0.0
 20
0.0
 30
0.0
  3
*D6
  1

  0
LINE
  5
2B0A
330
2A91
100
AcDbEntity
  8
SUNPOU
 62
    70
370
    -2
100
AcDbLine
 10
-11.19873631066549
 20
150.6124521602647
 30
0.0
 11
-32.6163913062769
 21
150.6124521602647
 31
0.0
  0
LINE
  5
2B0B
330
2A91
100
AcDbEntity
  8
SUNPOU
 62
    70
370
    -2
100
AcDbLine
 10
-8.05509290929217
 20
38.61245216026475
 30
0.0
 11
-32.61639130627692
 21
38.61245216026476
 31
0.0
  0
LINE
  5
2B0C
330
2A91
100
AcDbEntity
  8
SUNPOU
 62
    60
370
    -2
100
AcDbLine
 10
-32.6163913062769
 20
148.6124521602647
 30
0.0
 11
-32.61639130627692
 21
40.61245216026476
 31
0.0
  0
INSERT
  5
2B0D
330
2A91
100
AcDbEntity
  8
SUNPOU
 62
    60
370
    -2
100
AcDbBlockReference
  2
_Dot
 10
-32.6163913062769
 20
150.6124521602647
 30
0.0
 41
2.0
 42
2.0
 43
2.0
 50
90.0
  0
INSERT
  5
2B0E
330
2A91
100
AcDbEntity
  8
SUNPOU
 62
    60
370
    -2
100
AcDbBlockReference
  2
_Dot
 10
-32.61639130627692
 20
38.61245216026476
 30
0.0
 41
2.0
 42
2.0
 43
2.0
 50
270.0
  0
MTEXT
  5
2B0F
330
2A91
100
AcDbEntity
  8
SUNPOU
 62
    60
100
AcDbMText
 10
-38.11639130627693
 20
94.61245216026476
 30
0.0
 40
5.0
 41
0.0
 71
     5
 72
     1
  1
\A1;112
  7
SUNPOU
 11
0.0000000000000001
 21
1.0
 31
0.0
 73
     1
 44
1.0
1001
ACAD
1000
MTEXTBEGIN
1070
    73
1070
     1
1070
    44
1040
1.0
1070
    74
1070
     0
1000
MTEXTEND
  0
POINT
  5
2B10
330
2A91
100
AcDbEntity
  8
DEFPOINTS
 62
     0
100
AcDbPoint
 10
-1.198736310665495
 20
150.6124521602647
 30
0.0
  0
POINT
  5
2B11
330
2A91
100
AcDbEntity
  8
DEFPOINTS
 62
     0
100
AcDbPoint
 10
1.944907090707829
 20
38.61245216026475
 30
0.0
  0
POINT
  5
2B12
330
2A91
100
AcDbEntity
  8
DEFPOINTS
 62
     0
100
AcDbPoint
 10
-32.61639130627692
 20
38.61245216026476
 30
0.0
  0
ENDBLK
  5
2A9C
330
2A91
100
AcDbEntity
  8
0
100
AcDbBlockEnd
  0
ENDSEC
  0
SECTION
  2
ENTITIES
  0
LINE
  5
1F
330
2
100
AcDbEntity
  8
WAKU
100
AcDbLine
 10
0.0
 20
14.0
 30
0.0
 11
148.6829221395387
 21
14.0
 31
0.0
  0
LINE
  5
20
330
2
100
AcDbEntity
  8
WAKU
100
AcDbLine
 10
0.0
 20
0.0
 30
0.0
 11
148.6829221395387
 21
0.0
 31
0.0
  0
TEXT
  5
21
330
2
100
AcDbEntity
  8
HOJO
100
AcDbText
 10
9.653966000000025
 20
2.366626000000024
 30
0.0
 40
9.0
  1
TWM259
  7
SUNPOU
100
AcDbText
  0
TEXT
  5
23
330
2
100
AcDbEntity
  8
HOJO
100
AcDbText
 10
85.84696046283864
 20
5.044386000000031
 30
0.0
 40
6.0
  1
144×112×5
  7
SUNPOU
100
AcDbText
  0
ARC
  5
2A56
102
{ACAD_REACTORS
330
2B13
102
}
330
2
100
AcDbEntity
  8
KIJUN
100
AcDbCircle
 10
31.30792486233441
 20
99.91582657376126
 30
0.0
 40
15.43047980603972
100
AcDbArc
 50
109.0749003600276
 51
197.7949972858006
  0
ARC
  5
2A57
102
{ACAD_REACTORS
330
2B13
102
}
330
2
100
AcDbEntity
  8
KIJUN
100
AcDbCircle
 10
-59.51489997880162
 20
87.29578959192668
 30
0.0
 40
131.396078331013
100
AcDbArc
 50
7.350875107582028
 51
25.65784765592962
  0
ARC
  5
2A58
102
{ACAD_REACTORS
330
2B13
102
}
330
2
100
AcDbEntity
  8
KIJUN
100
AcDbCircle
 10
-8.435901925944563
 20
69.53611973290503
 30
0.0
 40
78.16936239564753
100
AcDbArc
 50
16.21383516213234
 51
53.42660443572894
  0
SPLINE
  5
2A59
102
{ACAD_REACTORS
330
2B13
102
}
330
2
100
AcDbEntity
  8
KIJUN
100
AcDbSpline
210
0.0
220
0.0
230
1.0
 70
     8
 71
     3
 72
    14
 73
    10
 74
     8
 42
0.0000000001
 43
0.0000000001
 44
0.0000000001
 40
0.0
 40
0.0
 40
0.0
 40
0.0
 40
9.596372587819002
 40
24.66760946718034
 40
35.94832253397721
 40
48.60222605772455
 40
62.33816876159266
 40
74.95988109055471
 40
85.42088267484118
 40
85.42088267484118
 40
85.42088267484118
 40
85.42088267484118
 10
26.26518368934603
 20
114.4990521602644
 30
0.0
 10
29.36391718070822
 20
113.6914434014562
 30
0.0
 10
37.32925480263638
 20
111.6154738325125
 30
0.0
 10
47.97109222242681
 20
105.5030498416289
 30
0.0
 10
56.67277771445497
 20
95.6025769659173
 30
0.0
 10
61.5091681902781
 20
83.69952443461093
 30
0.0
 10
62.82082705365991
 20
70.89808778296573
 30
0.0
 10
60.36652639999772
 20
57.6086771769866
 30
0.0
 10
53.24514411440226
 20
53.85134800772915
 30
0.0
 10
50.01775968933407
 20
52.14854016026333
 30
0.0
 11
26.26518368934603
 21
114.4990521602644
 31
0.0
 11
35.4610522823491
 21
111.7556295416248
 31
0.0
 11
48.46445410824481
 21
104.1363302281634
 31
0.0
 11
55.86293961576394
 21
95.62064473077498
 31
0.0
 11
60.79526424761889
 21
83.96760014516122
 31
0.0
 11
62.14044474013508
 21
70.29768385403122
 31
0.0
 11
58.55329772026834
 21
58.19644431533379
 31
0.0
 11
50.01775968933407
 21
52.14854016026333
 31
0.0
  0
SPLINE
  5
2A5A
102
{ACAD_REACTORS
330
2B13
102
}
330
2
100
AcDbEntity
  8
KIJUN
100
AcDbSpline
210
0.0
220
0.0
230
1.0
 70
     8
 71
     3
 72
    14
 73
    10
 74
     8
 42
0.0000000001
 43
0.0000000001
 44
0.0000000001
 40
0.0
 40
0.0
 40
0.0
 40
0.0
 40
9.596372587819002
 40
24.66760946718034
 40
35.94832253397721
 40
48.60222605772473
 40
62.33816876159278
 40
74.95988109055483
 40
85.4208826748413
 40
85.4208826748413
 40
85.4208826748413
 40
85.4208826748413
 10
115.337343689323
 20
114.4990521602644
 30
0.0
 10
112.2386101979608
 20
113.6914434014562
 30
0.0
 10
104.2732725760327
 20
111.6154738325125
 30
0.0
 10
93.63143515624219
 20
105.5030498416289
 30
0.0
 10
84.92974966421419
 20
95.60257696591717
 30
0.0
 10
80.0933591883902
 20
83.69952443461109
 30
0.0
 10
78.78170032500932
 20
70.89808778296569
 30
0.0
 10
81.2360009786713
 20
57.6086771769866
 30
0.0
 10
88.35738326426675
 20
53.85134800772914
 30
0.0
 10
91.58476768933496
 20
52.14854016026333
 30
0.0
 11
115.337343689323
 21
114.4990521602644
 31
0.0
 11
106.1414750963199
 21
111.7556295416248
 31
0.0
 11
93.13807327042423
 21
104.1363302281634
 31
0.0
 11
85.7395877629051
 21
95.62064473077498
 31
0.0
 11
80.80726313104969
 21
83.96760014516122
 31
0.0
 11
79.46208263853396
 21
70.29768385403122
 31
0.0
 11
83.04922965840068
 21
58.19644431533379
 31
0.0
 11
91.58476768933496
 21
52.14854016026333
 31
0.0
  0
ARC
  5
2A5B
102
{ACAD_REACTORS
330
2B13
102
}
330
2
100
AcDbEntity
  8
KIJUN
100
AcDbCircle
 10
150.0384293046133
 20
69.53611973290503
 30
0.0
 40
78.16936239564753
100
AcDbArc
 50
126.573395564271
 51
163.7861648378676
  0
ARC
  5
2A5C
102
{ACAD_REACTORS
330
2B13
102
}
330
2
100
AcDbEntity
  8
KIJUN
100
AcDbCircle
 10
201.1174273574704
 20
87.29578959192668
 30
0.0
 40
131.396078331013
100
AcDbArc
 50
154.3421523440704
 51
172.6491248924179
  0
ARC
  5
2A5D
102
{ACAD_REACTORS
330
2B13
102
}
330
2
100
AcDbEntity
  8
KIJUN
100
AcDbCircle
 10
110.2946025163344
 20
99.91582657376126
 30
0.0
 40
15.43047980603972
100
AcDbArc
 50
342.2050027141994
 51
70.92509963997231
  0
SPLINE
  5
2A5E
102
{ACAD_REACTORS
330
2B13
102
}
330
2
100
AcDbEntity
  8
KIJUN
100
AcDbSpline
210
0.0
220
0.0
230
1.0
 70
     8
 71
     3
 72
     9
 73
     5
 74
     3
 42
0.0000000001
 43
0.0000000001
 44
0.0000000001
 40
0.0
 40
0.0
 40
0.0
 40
0.0
 40
9.472790881764975
 40
31.03293151639638
 40
31.03293151639638
 40
31.03293151639638
 40
31.03293151639638
 10
78.22394368933465
 20
46.21039616026337
 30
0.0
 10
76.77694416738649
 20
49.05259161431921
 30
0.0
 10
72.03656325648549
 20
58.36364450071991
 30
0.0
 10
72.39121616249396
 20
68.97644552061179
 30
0.0
 10
72.63761139995267
 20
76.3496929495675
 30
0.0
 11
78.22394368933465
 21
46.21039616026337
 31
0.0
 11
74.35768680637512
 21
54.85827594692887
 31
0.0
 11
72.63761139995267
 21
76.3496929495675
 31
0.0
  0
ARC
  5
2A5F
102
{ACAD_REACTORS
330
2B13
102
}
330
2
100
AcDbEntity
  8
KIJUN
100
AcDbCircle
 10
15.90816598075685
 20
81.52022759739759
 30
0.0
 40
5.532824195805943
100
AcDbArc
 50
160.9072456102129
 51
311.6445883433204
  0
SPLINE
  5
2A60
102
{ACAD_REACTORS
330
2B13
102
}
330
2
100
AcDbEntity
  8
KIJUN
100
AcDbSpline
210
0.0
220
0.0
230
1.0
 70
    24
 71
     3
 72
     8
 73
     4
 74
     2
 42
0.0000000001
 43
0.0000000001
 44
0.0000000001
 40
0.0
 40
0.0
 40
0.0
 40
0.0
 40
9.600847716272927
 40
9.600847716272927
 40
9.600847716272927
 40
9.600847716272927
 10
10.67970086989163
 20
83.33000553022827
 30
0.0
 10
13.08177599912494
 20
85.44467893639481
 30
0.0
 10
15.48385112835825
 20
87.55935234256133
 30
0.0
 10
17.88592625759156
 20
89.67402574872791
 30
0.0
 11
10.67970086989163
 21
83.33000553022827
 31
0.0
 11
17.88592625759156
 21
89.67402574872791
 31
0.0
  0
SPLINE
  5
2A61
102
{ACAD_REACTORS
330
2B13
102
}
330
2
100
AcDbEntity
  8
KIJUN
100
AcDbSpline
210
0.0
220
0.0
230
1.0
 70
     8
 71
     3
 72
    10
 73
     6
 74
     4
 42
0.0000000001
 43
0.0000000001
 44
0.0000000001
 40
0.0
 40
0.0
 40
0.0
 40
0.0
 40
3.407395485333583
 40
8.264777193754783
 40
21.29314705233608
 40
21.29314705233608
 40
21.29314705233608
 40
21.29314705233608
 10
6.103538201558421
 20
100.1060987508431
 30
0.0
 10
5.363163935751139
 20
99.21002380442084
 30
0.0
 10
3.567355854997074
 20
97.03655735094853
 30
0.0
 10
5.361574983797101
 20
88.3072240242752
 30
0.0
 10
12.72399539120937
 20
91.32207276166484
 30
0.0
 10
18.08694230248693
 20
93.51815405415322
 30
0.0
 11
6.103538201558421
 21
100.1060987508431
 31
0.0
 11
4.306028450577741
 21
97.21139622923557
 31
0.0
 11
5.104922633411661
 21
92.42016203062462
 31
0.0
 11
18.08694230248693
 21
93.51815405415322
 31
0.0
  0
ARC
  5
2A63
102
{ACAD_REACTORS
330
2B13
102
}
330
2
100
AcDbEntity
  8
KIJUN
100
AcDbCircle
 10
8.878835370111341
 20
93.2453640428034
 30
0.0
 40
10.07757168077682
100
AcDbArc
 50
119.0383347202276
 51
280.2940675188795
  0
SPLINE
  5
2A64
102
{ACAD_REACTORS
330
2B13
102
}
330
2
100
AcDbEntity
  8
KIJUN
100
AcDbSpline
210
0.0
220
0.0
230
1.0
 70
     8
 71
     3
 72
     9
 73
     5
 74
     3
 42
0.0000000001
 43
0.0000000001
 44
0.0000000001
 40
0.0
 40
0.0
 40
0.0
 40
0.0
 40
9.472790881764975
 40
31.03293151639638
 40
31.03293151639638
 40
31.03293151639638
 40
31.03293151639638
 10
63.37858368933439
 20
46.21039616026337
 30
0.0
 10
64.82558321128256
 20
49.05259161431921
 30
0.0
 10
69.56596412218356
 20
58.36364450071991
 30
0.0
 10
69.2113112161751
 20
68.97644552061179
 30
0.0
 10
68.96491597871636
 20
76.3496929495675
 30
0.0
 11
63.37858368933439
 21
46.21039616026337
 31
0.0
 11
67.24484057229393
 21
54.85827594692887
 31
0.0
 11
68.96491597871636
 21
76.3496929495675
 31
0.0
  0
ARC
  5
2A65
102
{ACAD_REACTORS
330
2B13
102
}
330
2
100
AcDbEntity
  8
KIJUN
100
AcDbCircle
 10
28.38395050570466
 20
83.61992314033717
 30
0.0
 40
10.78386213262447
100
AcDbArc
 50
215.3178006315071
 51
314.2933415530157
  0
ARC
  5
2A66
102
{ACAD_REACTORS
330
2B13
102
}
330
2
100
AcDbEntity
  8
KIJUN
100
AcDbCircle
 10
57.80763161353684
 20
51.67575298971951
 30
0.0
 40
7.804206064944438
100
AcDbArc
 50
176.5268335767243
 51
315.5481884741255
  0
ARC
  5
2A67
102
{ACAD_REACTORS
330
2B13
102
}
330
2
100
AcDbEntity
  8
KIJUN
100
AcDbCircle
 10
45.15529886029662
 20
58.65180581912659
 30
0.0
 40
8.120097877715027
100
AcDbArc
 50
162.7795235988586
 51
306.7852904647604
  0
ARC
  5
2A68
102
{ACAD_REACTORS
330
2B13
102
}
330
2
100
AcDbEntity
  8
KIJUN
100
AcDbCircle
 10
46.83639733588188
 20
60.56116023929189
 30
0.0
 40
9.450145451127708
100
AcDbArc
 50
84.2026713866795
 51
176.9999179033244
  0
SPLINE
  5
2A69
102
{ACAD_REACTORS
330
2B13
102
}
330
2
100
AcDbEntity
  8
KIJUN
100
AcDbSpline
210
0.0
220
0.0
230
1.0
 70
     8
 71
     3
 72
    13
 73
     9
 74
     7
 42
0.0000000001
 43
0.0000000001
 44
0.0000000001
 40
0.0
 40
0.0
 40
0.0
 40
0.0
 40
8.307135769054921
 40
16.41232253126887
 40
20.00235718046642
 40
22.0085113833178
 40
24.62734807210355
 40
26.40804086961557
 40
26.40804086961557
 40
26.40804086961557
 40
26.40804086961557
 10
47.79095568933462
 20
69.96297216026346
 30
0.0
 10
47.82412067054524
 20
72.73109922795661
 30
0.0
 10
47.88964438214747
 20
78.20005934917586
 30
0.0
 10
42.02241602828372
 20
84.49747809294134
 30
0.0
 10
37.19917104915295
 20
82.48092397818883
 30
0.0
 10
35.82797116268825
 20
80.07035814131407
 30
0.0
 10
35.3041816007742
 20
77.89504869502819
 30
0.0
 10
35.73876977968656
 20
76.47562321524135
 30
0.0
 10
35.91466768933424
 20
75.90111616026343
 30
0.0
 11
47.79095568933462
 21
69.96297216026346
 31
0.0
 11
46.64031964010201
 21
78.1900336871829
 31
0.0
 11
40.36827568933449
 21
83.32379616026333
 31
0.0
 11
37.06792871278504
 21
81.91097677448897
 31
0.0
 11
36.00432844062607
 21
80.20997437981646
 31
0.0
 11
35.51710158955939
 21
77.63686039125514
 31
0.0
 11
35.91466768933424
 21
75.90111616026343
 31
0.0
  0
SPLINE
  5
2A6A
102
{ACAD_REACTORS
330
2B13
102
}
330
2
100
AcDbEntity
  8
KIJUN
100
AcDbSpline
210
0.0
220
0.0
230
1.0
 70
     8
 71
     3
 72
     9
 73
     5
 74
     3
 42
0.0000000001
 43
0.0000000001
 44
0.0000000001
 40
0.0
 40
0.0
 40
0.0
 40
0.0
 40
5.316493356155121
 40
8.364657978764498
 40
8.364657978764498
 40
8.364657978764498
 40
8.364657978764498
 10
47.79095568933462
 20
69.96297216026346
 30
0.0
 10
49.20137015228306
 20
68.77793689655496
 30
0.0
 10
51.4204333205287
 20
66.91347210563773
 30
0.0
 10
52.04734325612933
 20
64.1379920506209
 30
0.0
 10
52.27579547642472
 20
63.12657949365348
 30
0.0
 11
47.79095568933462
 21
69.96297216026346
 31
0.0
 11
51.37900944158992
 21
66.03983924421687
 31
0.0
 11
52.27579547642472
 21
63.12657949365348
 31
0.0
  0
SPLINE
  5
2A6B
102
{ACAD_REACTORS
330
2B13
102
}
330
2
100
AcDbEntity
  8
KIJUN
100
AcDbSpline
210
0.0
220
0.0
230
1.0
 70
     8
 71
     3
 72
    13
 73
     9
 74
     0
 42
0.0000000001
 43
0.0000000001
 40
0.0
 40
0.0
 40
0.0
 40
0.0
 40
6.083991929524176
 40
15.01468403086692
 40
22.76298042095127
 40
32.26389358848043
 40
38.1820203598307
 40
39.13098269802689
 40
39.13098269802689
 40
39.13098269802689
 40
39.13098269802689
 10
16.61569968933463
 20
95.20008416026348
 30
0.0
 10
19.50693563600725
 20
96.07318337028118
 30
0.0
 10
26.64221699417476
 20
98.22790496062362
 30
0.0
 10
38.22419276656638
 20
97.74611076398356
 30
0.0
 10
50.30742249904506
 20
90.60006417770114
 30
0.0
 10
52.62491056070894
 20
78.71072233804625
 30
0.0
 10
52.9109464101175
 20
70.09949639938304
 30
0.0
 10
51.15327616652985
 20
67.25618472877932
 30
0.0
 10
50.88664331176232
 20
66.87299668761875
 30
0.0
  0
SPLINE
  5
2A6C
102
{ACAD_REACTORS
330
2B13
102
}
330
2
100
AcDbEntity
  8
KIJUN
100
AcDbSpline
210
0.0
220
0.0
230
1.0
 70
     8
 71
     3
 72
    13
 73
     9
 74
     7
 42
0.0000000001
 43
0.0000000001
 44
0.0000000001
 40
0.0
 40
0.0
 40
0.0
 40
0.0
 40
10.26931042419
 40
18.53771622282667
 40
28.39433571381705
 40
34.54974759479637
 40
40.80058339852648
 40
48.32391670571373
 40
48.32391670571373
 40
48.32391670571373
 40
48.32391670571373
 10
49.40578651132319
 20
68.55200269606553
 30
0.0
 10
50.01812278333961
 20
72.05232215212929
 30
0.0
 10
51.12348580916123
 20
78.37094785195247
 30
0.0
 10
45.66336438065592
 20
86.85337502437645
 30
0.0
 10
36.85481013234372
 20
90.12520641594635
 30
0.0
 10
30.23624883742989
 20
85.96907646146924
 30
0.0
 10
27.49788078273235
 20
77.845623695585
 30
0.0
 10
32.94144143816094
 20
76.58801258686612
 30
0.0
 10
35.91466768933424
 20
75.9011161602632
 30
0.0
 11
49.40578651132319
 21
68.55200269606553
 31
0.0
 11
49.80963172023348
 21
78.81336935141985
 31
0.0
 11
45.32570154605946
 21
85.76037623525554
 31
0.0
 11
35.90944674003049
 21
88.67363784693884
 31
0.0
 11
30.75292487933484
 21
85.31218314329203
 31
0.0
 11
29.18355003850548
 21
79.26156244338312
 31
0.0
 11
35.91466768933424
 21
75.9011161602632
 31
0.0
  0
SPLINE
  5
2A6D
102
{ACAD_REACTORS
330
2B13
102
}
330
2
100
AcDbEntity
  8
KIJUN
100
AcDbSpline
210
0.0
220
0.0
230
1.0
 70
     8
 71
     3
 72
    11
 73
     7
 74
     5
 42
0.0000000001
 43
0.0000000001
 44
0.0000000001
 40
0.0
 40
0.0
 40
0.0
 40
0.0
 40
3.820469712275036
 40
11.03225239179404
 40
16.77869811404415
 40
19.86584640509639
 40
19.86584640509639
 40
19.86584640509639
 40
19.86584640509639
 10
19.58477168933405
 20
77.38565216026313
 30
0.0
 10
19.07377358403878
 20
78.55314668652429
 30
0.0
 10
17.59818013770603
 20
81.92448457159315
 30
0.0
 10
17.06640195691488
 20
87.72440209200267
 30
0.0
 10
18.8272579542729
 20
92.85941919985438
 30
0.0
 10
20.18939425753952
 20
95.46784664831521
 30
0.0
 10
20.66543116329695
 20
96.37943510571131
 30
0.0
 11
19.58477168933405
 21
77.38565216026313
 31
0.0
 11
18.18680443540688
 21
80.94116567863967
 31
0.0
 11
17.58763451841332
 21
88.12801511543602
 31
0.0
 11
19.28528501700202
 21
93.61797151083738
 31
0.0
 11
20.66543116329695
 21
96.37943510571131
 31
0.0
  0
SPLINE
  5
2A70
102
{ACAD_REACTORS
330
2B13
102
}
330
2
100
AcDbEntity
  8
KIJUN
100
AcDbSpline
210
0.0
220
0.0
230
1.0
 70
     8
 71
     3
 72
    10
 73
     6
 74
     4
 42
0.0000000001
 43
0.0000000001
 44
0.0000000001
 40
0.0
 40
0.0
 40
0.0
 40
0.0
 40
3.407395485333583
 40
8.264777193754783
 40
21.29314705233608
 40
21.29314705233608
 40
21.29314705233608
 40
21.29314705233608
 10
135.4989891771106
 20
100.1060987508431
 30
0.0
 10
136.2393634429179
 20
99.21002380442084
 30
0.0
 10
138.035171523672
 20
97.03655735094853
 30
0.0
 10
136.2409523948719
 20
88.3072240242752
 30
0.0
 10
128.8785319874597
 20
91.32207276166484
 30
0.0
 10
123.5155850761821
 20
93.51815405415322
 30
0.0
 11
135.4989891771106
 21
100.1060987508431
 31
0.0
 11
137.2964989280913
 21
97.21139622923557
 31
0.0
 11
136.4976047452574
 21
92.42016203062462
 31
0.0
 11
123.5155850761821
 21
93.51815405415322
 31
0.0
  0
SPLINE
  5
2A71
102
{ACAD_REACTORS
330
2B13
102
}
330
2
100
AcDbEntity
  8
KIJUN
100
AcDbSpline
210
0.0
220
0.0
230
1.0
 70
    24
 71
     3
 72
     8
 73
     4
 74
     2
 42
0.0000000001
 43
0.0000000001
 44
0.0000000001
 40
0.0
 40
0.0
 40
0.0
 40
0.0
 40
9.606561407471794
 40
9.606561407471794
 40
9.606561407471794
 40
9.606561407471794
 10
130.9249716893346
 20
83.32379616026333
 30
0.0
 10
128.5221814999155
 20
85.44053935641818
 30
0.0
 10
126.1193913104965
 20
87.55728255257304
 30
0.0
 10
123.7166011210774
 20
89.67402574872791
 30
0.0
 11
130.9249716893346
 21
83.32379616026333
 31
0.0
 11
123.7166011210774
 21
89.67402574872791
 31
0.0
  0
SPLINE
  5
2A72
102
{ACAD_REACTORS
330
2B13
102
}
330
2
100
AcDbEntity
  8
KIJUN
100
AcDbSpline
210
0.0
220
0.0
230
1.0
 70
     8
 71
     3
 72
    11
 73
     7
 74
     5
 42
0.0000000001
 43
0.0000000001
 44
0.0000000001
 40
0.0
 40
0.0
 40
0.0
 40
0.0
 40
3.820469712275036
 40
11.03225239179404
 40
16.77869811404415
 40
19.86584640509639
 40
19.86584640509639
 40
19.86584640509639
 40
19.86584640509639
 10
122.017755689335
 20
77.38565216026313
 30
0.0
 10
122.5287537946302
 20
78.55314668652429
 30
0.0
 10
124.004347240963
 20
81.92448457159315
 30
0.0
 10
124.5361254217541
 20
87.72440209200267
 30
0.0
 10
122.7752694243962
 20
92.85941919985438
 30
0.0
 10
121.4131331211295
 20
95.46784664831521
 30
0.0
 10
120.9370962153721
 20
96.37943510571131
 30
0.0
 11
122.017755689335
 21
77.38565216026313
 31
0.0
 11
123.4157229432621
 21
80.94116567863967
 31
0.0
 11
124.0148928602557
 21
88.12801511543602
 31
0.0
 11
122.317242361667
 21
93.61797151083738
 31
0.0
 11
120.9370962153721
 21
96.37943510571131
 31
0.0
  0
SPLINE
  5
2A73
102
{ACAD_REACTORS
330
2B13
102
}
330
2
100
AcDbEntity
  8
KIJUN
100
AcDbSpline
210
0.0
220
0.0
230
1.0
 70
     8
 71
     3
 72
    13
 73
     9
 74
     7
 42
0.0000000001
 43
0.0000000001
 44
0.0000000001
 40
0.0
 40
0.0
 40
0.0
 40
0.0
 40
10.26931042419
 40
18.53771622282667
 40
28.39433571381705
 40
34.54974759479637
 40
40.80058339852648
 40
48.32391670571414
 40
48.32391670571414
 40
48.32391670571414
 40
48.32391670571414
 10
92.19674086734585
 20
68.55200269606553
 30
0.0
 10
91.58440459532943
 20
72.05232215212929
 30
0.0
 10
90.4790415695078
 20
78.37094785195247
 30
0.0
 10
95.93916299801314
 20
86.85337502437645
 30
0.0
 10
104.7477172463253
 20
90.12520641594637
 30
0.0
 10
111.3662785412391
 20
85.96907646146922
 30
0.0
 10
114.1046465959367
 20
77.84562369558483
 30
0.0
 10
108.6610859405078
 20
76.58801258686608
 30
0.0
 10
105.6878596893343
 20
75.9011161602632
 30
0.0
 11
92.19674086734585
 21
68.55200269606553
 31
0.0
 11
91.79289565843555
 21
78.81336935141985
 31
0.0
 11
96.27682583260957
 21
85.76037623525554
 31
0.0
 11
105.6930806386385
 21
88.67363784693884
 31
0.0
 11
110.8496024993342
 21
85.31218314329203
 31
0.0
 11
112.4189773401635
 21
79.26156244338312
 31
0.0
 11
105.6878596893343
 21
75.9011161602632
 31
0.0
  0
SPLINE
  5
2A74
102
{ACAD_REACTORS
330
2B13
102
}
330
2
100
AcDbEntity
  8
KIJUN
100
AcDbSpline
210
0.0
220
0.0
230
1.0
 70
     8
 71
     3
 72
    13
 73
     9
 74
     0
 42
0.0000000001
 43
0.0000000001
 40
0.0
 40
0.0
 40
0.0
 40
0.0
 40
6.083991929524176
 40
15.01468403086692
 40
22.76298042095127
 40
32.26389358848043
 40
38.1820203598307
 40
39.13098269802689
 40
39.13098269802689
 40
39.13098269802689
 40
39.13098269802689
 10
124.9868276893344
 20
95.20008416026348
 30
0.0
 10
122.0955917426618
 20
96.07318337028118
 30
0.0
 10
114.9603103844943
 20
98.22790496062362
 30
0.0
 10
103.3783346121026
 20
97.74611076398356
 30
0.0
 10
91.29510487962397
 20
90.60006417770114
 30
0.0
 10
88.9776168179601
 20
78.71072233804625
 30
0.0
 10
88.69158096855107
 20
70.09949639938304
 30
0.0
 10
90.44925121213919
 20
67.25618472877932
 30
0.0
 10
90.7158840669067
 20
66.87299668761875
 30
0.0
  0
SPLINE
  5
2A75
102
{ACAD_REACTORS
330
2B13
102
}
330
2
100
AcDbEntity
  8
KIJUN
100
AcDbSpline
210
0.0
220
0.0
230
1.0
 70
     8
 71
     3
 72
     9
 73
     5
 74
     3
 42
0.0000000001
 43
0.0000000001
 44
0.0000000001
 40
0.0
 40
0.0
 40
0.0
 40
0.0
 40
5.316493356155429
 40
8.364657978764672
 40
8.364657978764672
 40
8.364657978764672
 40
8.364657978764672
 10
93.81157168933441
 20
69.96297216026346
 30
0.0
 10
92.40115722638568
 20
68.77793689655501
 30
0.0
 10
90.18209405813971
 20
66.91347210563794
 30
0.0
 10
89.55518412253953
 20
64.13799205062092
 30
0.0
 10
89.32673190224432
 20
63.12657949365348
 30
0.0
 11
93.81157168933441
 21
69.96297216026346
 31
0.0
 11
90.22351793707867
 21
66.03983924421687
 31
0.0
 11
89.32673190224432
 21
63.12657949365348
 31
0.0
  0
SPLINE
  5
2A76
102
{ACAD_REACTORS
330
2B13
102
}
330
2
100
AcDbEntity
  8
KIJUN
100
AcDbSpline
210
0.0
220
0.0
230
1.0
 70
     8
 71
     3
 72
    13
 73
     9
 74
     7
 42
0.0000000001
 43
0.0000000001
 44
0.0000000001
 40
0.0
 40
0.0
 40
0.0
 40
0.0
 40
8.307135769054921
 40
16.41232253126887
 40
20.00235718046642
 40
22.0085113833178
 40
24.62734807210355
 40
26.40804086961568
 40
26.40804086961568
 40
26.40804086961568
 40
26.40804086961568
 10
93.81157168933441
 20
69.96297216026346
 30
0.0
 10
93.7784067081238
 20
72.73109922795661
 30
0.0
 10
93.71288299652158
 20
78.20005934917586
 30
0.0
 10
99.58011135038532
 20
84.49747809294136
 30
0.0
 10
104.4033563295161
 20
82.48092397818881
 30
0.0
 10
105.7745562159808
 20
80.07035814131409
 30
0.0
 10
106.298345777895
 20
77.89504869502812
 30
0.0
 10
105.8637575989822
 20
76.47562321524134
 30
0.0
 10
105.6878596893343
 20
75.90111616026343
 30
0.0
 11
93.81157168933441
 21
69.96297216026346
 31
0.0
 11
94.96220773856704
 21
78.1900336871829
 31
0.0
 11
101.2342516893345
 21
83.32379616026333
 31
0.0
 11
104.534598665884
 21
81.91097677448897
 31
0.0
 11
105.5981989380429
 21
80.20997437981646
 31
0.0
 11
106.0854257891096
 21
77.63686039125514
 31
0.0
 11
105.6878596893343
 21
75.90111616026343
 31
0.0
  0
ARC
  5
2A77
102
{ACAD_REACTORS
330
2B13
102
}
330
2
100
AcDbEntity
  8
KIJUN
100
AcDbCircle
 10
94.76613004278693
 20
60.56116023929189
 30
0.0
 40
9.450145451127708
100
AcDbArc
 50
3.000082096675597
 51
95.79732861332049
  0
ARC
  5
2A78
102
{ACAD_REACTORS
330
2B13
102
}
330
2
100
AcDbEntity
  8
KIJUN
100
AcDbCircle
 10
96.44722851837219
 20
58.65180581912659
 30
0.0
 40
8.120097877715027
100
AcDbArc
 50
233.2147095352396
 51
17.22047640114137
  0
ARC
  5
2A79
102
{ACAD_REACTORS
330
2B13
102
}
330
2
100
AcDbEntity
  8
KIJUN
100
AcDbCircle
 10
83.79489576513197
 20
51.67575298971951
 30
0.0
 40
7.804206064944438
100
AcDbArc
 50
224.4518115258745
 51
3.473166423275678
  0
ARC
  5
2A7A
102
{ACAD_REACTORS
330
2B13
102
}
330
2
100
AcDbEntity
  8
KIJUN
100
AcDbCircle
 10
125.6943613979119
 20
81.52022759739759
 30
0.0
 40
5.532824195805943
100
AcDbArc
 50
228.3554116566795
 51
19.02472339528376
  0
ARC
  5
2A7B
102
{ACAD_REACTORS
330
2B13
102
}
330
2
100
AcDbEntity
  8
KIJUN
100
AcDbCircle
 10
113.2185768729641
 20
83.61992314033717
 30
0.0
 40
10.78386213262447
100
AcDbArc
 50
225.7066584469843
 51
324.682199368493
  0
ARC
  5
2A7C
102
{ACAD_REACTORS
330
2B13
102
}
330
2
100
AcDbEntity
  8
KIJUN
100
AcDbCircle
 10
70.70657405205816
 20
136.2456957714103
 30
0.0
 40
14.36706842971442
100
AcDbArc
 50
33.56870262784595
 51
89.62237558177667
  0
ARC
  5
2A7D
102
{ACAD_REACTORS
330
2B13
102
}
330
2
100
AcDbEntity
  8
KIJUN
100
AcDbCircle
 10
55.28239460709233
 20
126.4405790541869
 30
0.0
 40
18.11911291585477
100
AcDbArc
 50
78.40249362353988
 51
161.0872689703418
  0
ARC
  5
2A7E
102
{ACAD_REACTORS
330
2B13
102
}
330
2
100
AcDbEntity
  8
KIJUN
100
AcDbCircle
 10
43.00244598151062
 20
116.2068559654791
 30
0.0
 40
16.82416544361767
100
AcDbArc
 50
106.7937943023068
 51
185.8260706457379
  0
ARC
  5
2A7F
102
{ACAD_REACTORS
330
2B13
102
}
330
2
100
AcDbEntity
  8
KIJUN
100
AcDbCircle
 10
98.60008139715843
 20
116.2068559654791
 30
0.0
 40
16.82416544361767
100
AcDbArc
 50
354.1739293542621
 51
73.20620569769321
  0
ARC
  5
2A80
102
{ACAD_REACTORS
330
2B13
102
}
330
2
100
AcDbEntity
  8
KIJUN
100
AcDbCircle
 10
86.32013277157648
 20
126.4405790541869
 30
0.0
 40
18.11911291585477
100
AcDbArc
 50
18.91273102965816
 51
101.5975063764601
  0
ARC
  5
2A81
102
{ACAD_REACTORS
330
2B13
102
}
330
2
100
AcDbEntity
  8
KIJUN
100
AcDbCircle
 10
70.80126368933449
 20
46.03715359327965
 30
0.0
 40
7.424701433014889
100
AcDbArc
 50
178.6629807374265
 51
1.337019262579972
  0
ARC
  5
2A82
102
{ACAD_REACTORS
330
2B13
102
}
330
2
100
AcDbEntity
  8
KIJUN
100
AcDbCircle
 10
70.89595332659633
 20
136.2456957714103
 30
0.0
 40
14.36706842971442
100
AcDbArc
 50
90.37762441822335
 51
146.431297372154
  0
DIMENSION
  5
2A83
330
2
100
AcDbEntity
  8
SUNPOU
100
AcDbDimension
  2
*D5
 10
142.8012636893345
 20
180.9506930349034
 30
0.0
 11
70.80126368933453
 21
186.4506930349034
 31
0.0
 70
    32
 71
     5
 42
144.0
  3
STANDARD
100
AcDbAlignedDimension
 13
-1.198736310665488
 23
150.6124521602647
 33
0.0
 14
142.8012636893345
 24
149.6333451317562
 34
0.0
100
AcDbRotatedDimension
1001
ACAD
1000
DSTYLE
1002
{
1070
    41
1040
2.0
1070
    42
1040
10.0
1070
    44
1040
0.0
1070
    73
1070
     0
1070
    74
1070
     0
1070
    77
1070
     1
1070
   140
1040
5.0
1070
   141
1040
0.0
1070
   146
1040
0.064286
1070
   147
1040
3.0
1070
   176
1070
    60
1070
   177
1070
    70
1070
   178
1070
    60
1070
   271
1070
     0
1070
   272
1070
     0
1070
   340
1005
1C
1070
   342
1005
109
1002
}
  0
DIMENSION
  5
2A90
330
2
100
AcDbEntity
  8
SUNPOU
100
AcDbDimension
  2
*D6
 10
-32.61639130627692
 20
38.61245216026476
 30
0.0
 11
-38.11639130627693
 21
94.61245216026476
 31
0.0
 70
    32
 71
     5
 42
112.0
  3
STANDARD
100
AcDbAlignedDimension
 13
-1.198736310665495
 23
150.6124521602647
 33
0.0
 14
1.944907090707829
 24
38.61245216026475
 34
0.0
 50
90.0
100
AcDbRotatedDimension
1001
ACAD
1000
DSTYLE
1002
{
1070
    41
1040
2.0
1070
    42
1040
10.0
1070
    44
1040
0.0
1070
    73
1070
     0
1070
    74
1070
     0
1070
    77
1070
     1
1070
   140
1040
5.0
1070
   141
1040
0.0
1070
   146
1040
0.064286
1070
   147
1040
3.0
1070
   176
1070
    60
1070
   177
1070
    70
1070
   178
1070
    60
1070
   271
1070
     0
1070
   272
1070
     0
1070
   340
1005
1C
1070
   342
1005
109
1002
}
  0
ARC
  5
2ABD
102
{ACAD_REACTORS
330
2B13
102
}
330
2
100
AcDbEntity
  8
KIJUN
100
AcDbCircle
 10
10.04689430025735
 20
76.25702282769478
 30
0.0
 40
20.04965777486065
100
AcDbArc
 50
70.8752044284673
 51
83.34825428258362
  0
ARC
  5
2ABE
102
{ACAD_REACTORS
330
2B13
102
}
330
2
100
AcDbEntity
  8
KIJUN
100
AcDbCircle
 10
12.60713087364751
 20
99.45144883038441
 30
0.0
 40
3.288340974927403
100
AcDbArc
 50
180.2828735466933
 51
265.8529818289076
  0
ARC
  5
2ABF
102
{ACAD_REACTORS
330
2B13
102
}
330
2
100
AcDbEntity
  8
KIJUN
100
AcDbCircle
 10
6.595335360405948
 20
96.40728956418588
 30
0.0
 40
6.221868731652337
100
AcDbArc
 50
75.86331525272504
 51
114.7829991605635
  0
ARC
  5
2AC0
102
{ACAD_REACTORS
330
2B13
102
}
330
2
100
AcDbEntity
  8
KIJUN
100
AcDbCircle
 10
7.506039467934793
 20
100.240312613403
 30
0.0
 40
2.283115030572825
100
AcDbArc
 50
48.12040978231117
 51
74.53218858801434
  0
ARC
  5
2AC1
102
{ACAD_REACTORS
330
2B13
102
}
330
2
100
AcDbEntity
  8
KIJUN
100
AcDbCircle
 10
8.100900449291083
 20
101.0385231383958
 30
0.0
 40
1.294826632889834
100
AcDbArc
 50
3.102406265919192
 51
44.13667194787566
  0
ARC
  5
2AC2
102
{ACAD_REACTORS
330
2B13
102
}
330
2
100
AcDbEntity
  8
KIJUN
100
AcDbCircle
 10
-14.00669571193598
 20
101.3190134287619
 30
0.0
 40
23.40147107410838
100
AcDbArc
 50
355.382740604866
 51
359.484820562944
  0
ARC
  5
2AC4
102
{ACAD_REACTORS
330
2B13
102
}
330
2
100
AcDbEntity
  8
KIJUN
100
AcDbCircle
 10
132.7236920085577
 20
93.2453640428034
 30
0.0
 40
10.07757168077683
100
AcDbArc
 50
259.7059324811207
 51
60.96166527977239
  0
ARC
  5
2AC5
102
{ACAD_REACTORS
330
2B13
102
}
330
2
100
AcDbEntity
  8
KIJUN
100
AcDbCircle
 10
131.5556330784117
 20
76.25702282769478
 30
0.0
 40
20.04965777486066
100
AcDbArc
 50
96.65174571741646
 51
109.1247955715333
  0
ARC
  5
2AC6
102
{ACAD_REACTORS
330
2B13
102
}
330
2
100
AcDbEntity
  8
KIJUN
100
AcDbCircle
 10
128.9953965050215
 20
99.45144883038441
 30
0.0
 40
3.288340974927404
100
AcDbArc
 50
274.1470181710921
 51
359.7171264533067
  0
ARC
  5
2AC7
102
{ACAD_REACTORS
330
2B13
102
}
330
2
100
AcDbEntity
  8
KIJUN
100
AcDbCircle
 10
135.0071920182631
 20
96.40728956418588
 30
0.0
 40
6.22186873165234
100
AcDbArc
 50
65.21700083943706
 51
104.1366847472745
  0
ARC
  5
2AC8
102
{ACAD_REACTORS
330
2B13
102
}
330
2
100
AcDbEntity
  8
KIJUN
100
AcDbCircle
 10
134.0964879107342
 20
100.240312613403
 30
0.0
 40
2.283115030572826
100
AcDbArc
 50
105.4678114119862
 51
131.8795902176889
  0
ARC
  5
2AC9
102
{ACAD_REACTORS
330
2B13
102
}
330
2
100
AcDbEntity
  8
KIJUN
100
AcDbCircle
 10
133.5016269293779
 20
101.0385231383958
 30
0.0
 40
1.294826632889835
100
AcDbArc
 50
135.863328052124
 51
176.8975937340808
  0
ARC
  5
2ACA
102
{ACAD_REACTORS
330
2B13
102
}
330
2
100
AcDbEntity
  8
KIJUN
100
AcDbCircle
 10
155.609223090605
 20
101.3190134287619
 30
0.0
 40
23.40147107410839
100
AcDbArc
 50
180.515179437056
 51
184.6172593951339
  0
ENDSEC
  0
SECTION
  2
OBJECTS
  0
DICTIONARY
  5
1A
330
0
100
AcDbDictionary
281
     1
  3
ACAD_COLOR
350
144
  3
ACAD_GROUP
350
18
  3
ACAD_LAYOUT
350
58
  3
ACAD_MATERIAL
350
143
  3
ACAD_MLINESTYLE
350
19
  3
ACAD_PLOTSETTINGS
350
59
  3
ACAD_PLOTSTYLENAME
350
56
  3
ACAD_TABLESTYLE
350
145
  3
ACDBHEADERROUNDTRIPXREC
350
2B27
  3
AcDbVariableDictionary
350
1D1
  0
DICTIONARY
  5
1B4
330
A
100
AcDbDictionary
280
     1
281
     1
  3
ACAD_LAYERFILTERS
360
1A2A
  3
ACLYDICTIONARY
360
1A29
  0
DICTIONARY
  5
D13
330
2
100
AcDbDictionary
280
     1
281
     1
  3
ACAD_SORTENTS
360
D14
  0
DICTIONARY
  5
144
102
{ACAD_REACTORS
330
1A
102
}
330
1A
100
AcDbDictionary
281
     1
  0
DICTIONARY
  5
18
102
{ACAD_REACTORS
330
1A
102
}
330
1A
100
AcDbDictionary
281
     1
  3
*A1
350
E0D
  3
*A10
350
2905
  3
*A11
350
2A17
  3
*A12
350
213E
  3
*A13
350
2B13
  3
*A14
350
22C8
  3
*A15
350
241A
  3
*A16
350
24D6
  3
*A17
350
2573
  3
*A18
350
265A
  3
*A19
350
26DD
  3
*A2
350
1EFE
  3
*A20
350
275E
  3
*A3
350
2037
  3
*A4
350
FF8
  3
*A5
350
136A
  3
*A6
350
1555
  3
*A7
350
17BC
  3
*A8
350
1A98
  3
*A9
350
1CBC
  0
DICTIONARY
  5
58
102
{ACAD_REACTORS
330
1A
102
}
330
1A
100
AcDbDictionary
281
     1
  3
Model
350
5A
  3
ﾚｲｱｳﾄ1
350
5B
  0
DICTIONARY
  5
143
102
{ACAD_REACTORS
330
1A
102
}
330
1A
100
AcDbDictionary
281
     1
  0
DICTIONARY
  5
19
102
{ACAD_REACTORS
330
1A
102
}
330
1A
100
AcDbDictionary
281
     1
  3
STANDARD
350
1D
  0
DICTIONARY
  5
59
102
{ACAD_REACTORS
330
1A
102
}
330
1A
100
AcDbDictionary
281
     1
  0
ACDBDICTIONARYWDFLT
  5
56
102
{ACAD_REACTORS
330
1A
102
}
330
1A
100
AcDbDictionary
281
     1
  3
Normal
350
57
100
AcDbDictionaryWithDefault
340
57
  0
DICTIONARY
  5
145
102
{ACAD_REACTORS
330
1A
102
}
330
1A
100
AcDbDictionary
281
     1
  3
Standard
350
146
  0
DICTIONARY
  5
2B27
102
{ACAD_REACTORS
330
1A
102
}
330
1A
100
AcDbDictionary
281
     1
  0
DICTIONARY
  5
1D1
102
{ACAD_REACTORS
330
1A
102
}
330
1A
100
AcDbDictionary
281
     1
  3
CTABLESTYLE
350
1D2
  3
DIMASSOC
350
D03
  3
PROJECTNAME
350
D04
  0
DICTIONARY
  5
1A2A
102
{ACAD_REACTORS
330
1B4
102
}
330
1B4
100
AcDbDictionary
281
     1
  0
DICTIONARY
  5
1A29
102
{ACAD_REACTORS
330
1B4
102
}
330
1B4
100
AcDbDictionary
281
     1
1001
ACAD
1000
<All
  0
SORTENTSTABLE
  5
D14
102
{ACAD_REACTORS
330
D13
102
}
330
D13
100
AcDbSortentsTable
330
2
331
23
  5
23
331
21
  5
21
331
1F
  5
1F
331
20
  5
20
  0
GROUP
  5
E0D
102
{ACAD_REACTORS
330
18
102
}
330
18
100
AcDbGroup
300

 70
     1
 71
     1
  0
GROUP
  5
2905
102
{ACAD_REACTORS
330
18
102
}
330
18
100
AcDbGroup
300

 70
     1
 71
     1
  0
GROUP
  5
2A17
102
{ACAD_REACTORS
330
18
102
}
330
18
100
AcDbGroup
300

 70
     1
 71
     1
  0
GROUP
  5
213E
102
{ACAD_REACTORS
330
18
102
}
330
18
100
AcDbGroup
300

 70
     1
 71
     1
  0
GROUP
  5
2B13
102
{ACAD_REACTORS
330
18
102
}
330
18
100
AcDbGroup
300

 70
     1
 71
     1
340
2ACA
340
2AC9
340
2AC8
340
2AC7
340
2AC6
340
2AC5
340
2AC4
340
2AC2
340
2AC1
340
2AC0
340
2ABF
340
2ABE
340
2ABD
340
2A82
340
2A81
340
2A80
340
2A7F
340
2A7E
340
2A7D
340
2A7C
340
2A7B
340
2A7A
340
2A79
340
2A78
340
2A77
340
2A76
340
2A75
340
2A74
340
2A73
340
2A72
340
2A71
340
2A70
340
2A6D
340
2A6C
340
2A6B
340
2A6A
340
2A69
340
2A68
340
2A67
340
2A66
340
2A65
340
2A64
340
2A63
340
2A61
340
2A60
340
2A5F
340
2A5E
340
2A5D
340
2A5C
340
2A5B
340
2A5A
340
2A59
340
2A58
340
2A57
340
2A56
  0
GROUP
  5
22C8
102
{ACAD_REACTORS
330
18
102
}
330
18
100
AcDbGroup
300

 70
     1
 71
     1
  0
GROUP
  5
241A
102
{ACAD_REACTORS
330
18
102
}
330
18
100
AcDbGroup
300

 70
     1
 71
     1
  0
GROUP
  5
24D6
102
{ACAD_REACTORS
330
18
102
}
330
18
100
AcDbGroup
300

 70
     1
 71
     1
  0
GROUP
  5
2573
102
{ACAD_REACTORS
330
18
102
}
330
18
100
AcDbGroup
300

 70
     1
 71
     1
  0
GROUP
  5
265A
102
{ACAD_REACTORS
330
18
102
}
330
18
100
AcDbGroup
300

 70
     1
 71
     1
  0
GROUP
  5
26DD
102
{ACAD_REACTORS
330
18
102
}
330
18
100
AcDbGroup
300

 70
     1
 71
     1
  0
GROUP
  5
1EFE
102
{ACAD_REACTORS
330
18
102
}
330
18
100
AcDbGroup
300

 70
     1
 71
     1
  0
GROUP
  5
275E
102
{ACAD_REACTORS
330
18
102
}
330
18
100
AcDbGroup
300

 70
     1
 71
     1
  0
GROUP
  5
2037
102
{ACAD_REACTORS
330
18
102
}
330
18
100
AcDbGroup
300

 70
     1
 71
     1
  0
GROUP
  5
FF8
102
{ACAD_REACTORS
330
18
102
}
330
18
100
AcDbGroup
300

 70
     1
 71
     1
  0
GROUP
  5
136A
102
{ACAD_REACTORS
330
18
102
}
330
18
100
AcDbGroup
300

 70
     1
 71
     1
  0
GROUP
  5
1555
102
{ACAD_REACTORS
330
18
102
}
330
18
100
AcDbGroup
300

 70
     1
 71
     1
  0
GROUP
  5
17BC
102
{ACAD_REACTORS
330
18
102
}
330
18
100
AcDbGroup
300

 70
     1
 71
     1
  0
GROUP
  5
1A98
102
{ACAD_REACTORS
330
18
102
}
330
18
100
AcDbGroup
300

 70
     1
 71
     1
  0
GROUP
  5
1CBC
102
{ACAD_REACTORS
330
18
102
}
330
18
100
AcDbGroup
300

 70
     1
 71
     1
  0
LAYOUT
  5
5A
102
{ACAD_XDICTIONARY
360
2B28
102
}
102
{ACAD_REACTORS
330
58
102
}
330
58
100
AcDbPlotSettings
  1

  2
なし
  4

  6

 40
0.0
 41
0.0
 42
0.0
 43
0.0
 44
0.0
 45
0.0
 46
0.0
 47
0.0
 48
0.0
 49
0.0
140
0.0
141
0.0
142
1.0
143
1.0
 70
  1712
 72
     0
 73
     0
 74
     0
  7
monochrome.ctb
 75
     0
147
1.0
148
0.0
149
0.0
100
AcDbLayout
  1
Model
 70
     1
 71
     0
 10
0.0
 20
0.0
 11
12.0
 21
9.0
 12
0.0
 22
0.0
 32
0.0
 14
0.0
 24
0.0
 34
0.0
 15
0.0
 25
0.0
 35
0.0
146
0.0
 13
0.0
 23
0.0
 33
0.0
 16
1.0
 26
0.0
 36
0.0
 17
0.0
 27
1.0
 37
0.0
 76
     0
330
2
  0
LAYOUT
  5
5B
102
{ACAD_XDICTIONARY
360
2B2A
102
}
102
{ACAD_REACTORS
330
58
102
}
330
58
100
AcDbPlotSettings
  1

  2
なし
  4

  6

 40
0.0
 41
0.0
 42
0.0
 43
0.0
 44
0.0
 45
0.0
 46
0.0
 47
0.0
 48
0.0
 49
0.0
140
0.0
141
0.0
142
1.0
143
1.0
 70
   688
 72
     0
 73
     0
 74
     5
  7
monochrome.ctb
 75
    16
147
1.0
148
0.0
149
0.0
100
AcDbLayout
  1
ﾚｲｱｳﾄ1
 70
     1
 71
     1
 10
0.0
 20
0.0
 11
12.0
 21
9.0
 12
0.0
 22
0.0
 32
0.0
 14
1.000000000000000E+20
 24
1.000000000000000E+20
 34
1.000000000000000E+20
 15
-1.000000000000000E+20
 25
-1.000000000000000E+20
 35
-1.000000000000000E+20
146
0.0
 13
0.0
 23
0.0
 33
0.0
 16
1.0
 26
0.0
 36
0.0
 17
0.0
 27
1.0
 37
0.0
 76
     0
330
7
  0
MLINESTYLE
  5
1D
102
{ACAD_REACTORS
330
19
102
}
330
19
100
AcDbMlineStyle
  2
STANDARD
 70
     0
  3

 62
   256
 51
90.0
 52
90.0
 71
     2
 49
0.5
 62
   256
  6
BYLAYER
 49
-0.5
 62
   256
  6
BYLAYER
  0
ACDBPLACEHOLDER
  5
57
102
{ACAD_REACTORS
330
56
102
}
330
56
  0
TABLESTYLE
  5
146
102
{ACAD_REACTORS
330
145
102
}
330
145
100
AcDbTableStyle
  3
Standard
 70
     0
 71
     0
 40
0.06
 41
0.06
280
     0
281
     0
  7
STANDARD
140
0.18
170
     2
 62
     0
 63
     7
283
     0
274
    -2
284
     1
 64
     0
275
    -2
285
     1
 65
     0
276
    -2
286
     1
 66
     0
277
    -2
287
     1
 67
     0
278
    -2
288
     1
 68
     0
279
    -2
289
     1
 69
     0
  7
STANDARD
140
0.25
170
     5
 62
     0
 63
     7
283
     0
274
    -2
284
     1
 64
     0
275
    -2
285
     1
 65
     0
276
    -2
286
     1
 66
     0
277
    -2
287
     1
 67
     0
278
    -2
288
     1
 68
     0
279
    -2
289
     1
 69
     0
  7
STANDARD
140
0.18
170
     5
 62
     0
 63
     7
283
     0
274
    -2
284
     1
 64
     0
275
    -2
285
     1
 65
     0
276
    -2
286
     1
 66
     0
277
    -2
287
     1
 67
     0
278
    -2
288
     1
 68
     0
279
    -2
289
     1
 69
     0
  0
DICTIONARYVAR
  5
1D2
102
{ACAD_REACTORS
330
1D1
102
}
330
1D1
100
DictionaryVariables
280
     0
  1
STANDARD
  0
DICTIONARYVAR
  5
D03
102
{ACAD_REACTORS
330
1D1
102
}
330
1D1
100
DictionaryVariables
280
     0
  1
1
  0
DICTIONARYVAR
  5
D04
102
{ACAD_REACTORS
330
1D1
102
}
330
1D1
100
DictionaryVariables
280
     0
  1

  0
DICTIONARY
  5
2B28
330
5A
100
AcDbDictionary
280
     1
281
     1
  3
ACAD_XREC_ROUNDTRIP
360
2B29
  0
DICTIONARY
  5
2B2A
330
5B
100
AcDbDictionary
280
     1
281
     1
  3
ACAD_XREC_ROUNDTRIP
360
2B2B
  0
XRECORD
  5
2B29
102
{ACAD_REACTORS
330
2B28
102
}
330
2B28
100
AcDbXrecord
280
     1
102
SHADEPLOT
 70
     0
102
SHADEPLOTRESLEVEL
 70
     2
102
SHADEPLOTCUSTOMDPI
 70
   300
  0
XRECORD
  5
2B2B
102
{ACAD_REACTORS
330
2B2A
102
}
330
2B2A
100
AcDbXrecord
280
     1
102
SHADEPLOT
 70
     0
102
SHADEPLOTRESLEVEL
 70
     2
102
SHADEPLOTCUSTOMDPI
 70
   300
  0
ENDSEC
  0
EOF
