  0
SECTION
  2
HEADER
  9
$ACADVER
  1
AC1015
  9
$ACADMAINTVER
 70
    20
  9
$DWGCODEPAGE
  3
ANSI_932
  9
$INSBASE
 10
922.019522
 20
-675.4306699999999
 30
0.0
  9
$EXTMIN
 10
-61.02402267021398
 20
-0.0211609326183862
 30
-0.000000000000013
  9
$EXTMAX
 10
171.2007767882799
 20
191.9109423779074
 30
0.0000000000000023
  9
$LIMMIN
 10
0.0
 20
0.0
  9
$LIMMAX
 10
420.0
 20
297.0
  9
$ORTHOMODE
 70
     1
  9
$REGENMODE
 70
     1
  9
$FILLMODE
 70
     1
  9
$QTEXTMODE
 70
     0
  9
$MIRRTEXT
 70
     1
  9
$LTSCALE
 40
1.0
  9
$ATTMODE
 70
     1
  9
$TEXTSIZE
 40
30.0
  9
$TRACEWID
 40
0.05
  9
$TEXTSTYLE
  7
SUNPOU
  9
$CLAYER
  8
0
  9
$CELTYPE
  6
BYLAYER
  9
$CECOLOR
 62
   256
  9
$CELTSCALE
 40
1.0
  9
$DISPSILH
 70
     0
  9
$DIMSCALE
 40
1.0
  9
$DIMASZ
 40
2.0
  9
$DIMEXO
 40
10.0
  9
$DIMDLI
 40
0.38
  9
$DIMRND
 40
0.0
  9
$DIMDLE
 40
0.0
  9
$DIMEXE
 40
0.0
  9
$DIMTP
 40
0.0
  9
$DIMTM
 40
0.0
  9
$DIMTXT
 40
5.0
  9
$DIMCEN
 40
0.0
  9
$DIMTSZ
 40
0.0
  9
$DIMTOL
 70
     0
  9
$DIMLIM
 70
     0
  9
$DIMTIH
 70
     0
  9
$DIMTOH
 70
     0
  9
$DIMSE1
 70
     0
  9
$DIMSE2
 70
     0
  9
$DIMTAD
 70
     1
  9
$DIMZIN
 70
     0
  9
$DIMBLK
  1
Dot
  9
$DIMASO
 70
     1
  9
$DIMSHO
 70
     1
  9
$DIMPOST
  1

  9
$DIMAPOST
  1

  9
$DIMALT
 70
     0
  9
$DIMALTD
 70
     2
  9
$DIMALTF
 40
25.4
  9
$DIMLFAC
 40
1.0
  9
$DIMTOFL
 70
     0
  9
$DIMTVP
 40
0.0
  9
$DIMTIX
 70
     0
  9
$DIMSOXD
 70
     0
  9
$DIMSAH
 70
     0
  9
$DIMBLK1
  1

  9
$DIMBLK2
  1

  9
$DIMSTYLE
  2
STANDARD
  9
$DIMCLRD
 70
    60
  9
$DIMCLRE
 70
    70
  9
$DIMCLRT
 70
    60
  9
$DIMTFAC
 40
0.064286
  9
$DIMGAP
 40
3.0
  9
$DIMJUST
 70
     0
  9
$DIMSD1
 70
     0
  9
$DIMSD2
 70
     0
  9
$DIMTOLJ
 70
     1
  9
$DIMTZIN
 70
     0
  9
$DIMALTZ
 70
     0
  9
$DIMALTTZ
 70
     0
  9
$DIMUPT
 70
     0
  9
$DIMDEC
 70
     0
  9
$DIMTDEC
 70
     0
  9
$DIMALTU
 70
     2
  9
$DIMALTTD
 70
     2
  9
$DIMTXSTY
  7
SUNPOU
  9
$DIMAUNIT
 70
     0
  9
$DIMADEC
 70
     0
  9
$DIMALTRND
 40
0.0
  9
$DIMAZIN
 70
     0
  9
$DIMDSEP
 70
    46
  9
$DIMATFIT
 70
     3
  9
$DIMFRAC
 70
     0
  9
$DIMLDRBLK
  1

  9
$DIMLUNIT
 70
     2
  9
$DIMLWD
 70
    -2
  9
$DIMLWE
 70
    -2
  9
$DIMTMOVE
 70
     0
  9
$LUNITS
 70
     2
  9
$LUPREC
 70
     5
  9
$SKETCHINC
 40
0.1
  9
$FILLETRAD
 40
0.0
  9
$AUNITS
 70
     0
  9
$AUPREC
 70
     0
  9
$MENU
  1
acad
  9
$ELEVATION
 40
0.0
  9
$PELEVATION
 40
0.0
  9
$THICKNESS
 40
0.0
  9
$LIMCHECK
 70
     0
  9
$CHAMFERA
 40
0.0
  9
$CHAMFERB
 40
0.0
  9
$CHAMFERC
 40
0.0
  9
$CHAMFERD
 40
0.0
  9
$SKPOLY
 70
     0
  9
$TDCREATE
 40
2450623.654673033
  9
$TDUCREATE
 40
2450623.279673032
  9
$TDUPDATE
 40
2453866.723251227
  9
$TDUUPDATE
 40
2453866.348251227
  9
$TDINDWG
 40
0.2730434606
  9
$TDUSRTIMER
 40
0.2730432870
  9
$USRTIMER
 70
     1
  9
$ANGBASE
 50
0.0
  9
$ANGDIR
 70
     0
  9
$PDMODE
 70
     0
  9
$PDSIZE
 40
0.0
  9
$PLINEWID
 40
0.0
  9
$SPLFRAME
 70
     0
  9
$SPLINETYPE
 70
     6
  9
$SPLINESEGS
 70
     8
  9
$HANDSEED
  5
2912
  9
$SURFTAB1
 70
     6
  9
$SURFTAB2
 70
     6
  9
$SURFTYPE
 70
     6
  9
$SURFU
 70
     6
  9
$SURFV
 70
     6
  9
$UCSBASE
  2

  9
$UCSNAME
  2

  9
$UCSORG
 10
0.0
 20
0.0
 30
0.0
  9
$UCSXDIR
 10
1.0
 20
0.0
 30
0.0
  9
$UCSYDIR
 10
0.0
 20
1.0
 30
0.0
  9
$UCSORTHOREF
  2

  9
$UCSORTHOVIEW
 70
     0
  9
$UCSORGTOP
 10
0.0
 20
0.0
 30
0.0
  9
$UCSORGBOTTOM
 10
0.0
 20
0.0
 30
0.0
  9
$UCSORGLEFT
 10
0.0
 20
0.0
 30
0.0
  9
$UCSORGRIGHT
 10
0.0
 20
0.0
 30
0.0
  9
$UCSORGFRONT
 10
0.0
 20
0.0
 30
0.0
  9
$UCSORGBACK
 10
0.0
 20
0.0
 30
0.0
  9
$PUCSBASE
  2

  9
$PUCSNAME
  2

  9
$PUCSORG
 10
0.0
 20
0.0
 30
0.0
  9
$PUCSXDIR
 10
1.0
 20
0.0
 30
0.0
  9
$PUCSYDIR
 10
0.0
 20
1.0
 30
0.0
  9
$PUCSORTHOREF
  2

  9
$PUCSORTHOVIEW
 70
     0
  9
$PUCSORGTOP
 10
0.0
 20
0.0
 30
0.0
  9
$PUCSORGBOTTOM
 10
0.0
 20
0.0
 30
0.0
  9
$PUCSORGLEFT
 10
0.0
 20
0.0
 30
0.0
  9
$PUCSORGRIGHT
 10
0.0
 20
0.0
 30
0.0
  9
$PUCSORGFRONT
 10
0.0
 20
0.0
 30
0.0
  9
$PUCSORGBACK
 10
0.0
 20
0.0
 30
0.0
  9
$USERI1
 70
     0
  9
$USERI2
 70
     0
  9
$USERI3
 70
     0
  9
$USERI4
 70
     0
  9
$USERI5
 70
     0
  9
$USERR1
 40
0.0
  9
$USERR2
 40
0.0
  9
$USERR3
 40
0.0
  9
$USERR4
 40
0.0
  9
$USERR5
 40
0.0
  9
$WORLDVIEW
 70
     1
  9
$SHADEDGE
 70
     3
  9
$SHADEDIF
 70
    70
  9
$TILEMODE
 70
     1
  9
$MAXACTVP
 70
    16
  9
$PINSBASE
 10
0.0
 20
0.0
 30
0.0
  9
$PLIMCHECK
 70
     0
  9
$PEXTMIN
 10
1.000000000000000E+20
 20
1.000000000000000E+20
 30
1.000000000000000E+20
  9
$PEXTMAX
 10
-1.000000000000000E+20
 20
-1.000000000000000E+20
 30
-1.000000000000000E+20
  9
$PLIMMIN
 10
0.0
 20
0.0
  9
$PLIMMAX
 10
12.0
 20
9.0
  9
$UNITMODE
 70
     0
  9
$VISRETAIN
 70
     0
  9
$PLINEGEN
 70
     0
  9
$PSLTSCALE
 70
     1
  9
$TREEDEPTH
 70
  3020
  9
$CMLSTYLE
  2
STANDARD
  9
$CMLJUST
 70
     0
  9
$CMLSCALE
 40
1.0
  9
$PROXYGRAPHICS
 70
     1
  9
$MEASUREMENT
 70
     0
  9
$CELWEIGHT
370
    -1
  9
$ENDCAPS
280
     0
  9
$JOINSTYLE
280
     0
  9
$LWDISPLAY
290
     0
  9
$INSUNITS
 70
     0
  9
$HYPERLINKBASE
  1

  9
$STYLESHEET
  1

  9
$XEDIT
290
     1
  9
$CEPSNTYPE
380
     0
  9
$PSTYLEMODE
290
     1
  9
$FINGERPRINTGUID
  2
{FB88A696-E29C-4009-92AF-A3599A8169D5}
  9
$VERSIONGUID
  2
{09A1B9CD-7BB5-42D4-B613-85EC50953B19}
  9
$EXTNAMES
290
     1
  9
$PSVPSCALE
 40
0.0
  9
$OLESTARTUP
290
     0
  0
ENDSEC
  0
SECTION
  2
CLASSES
  0
CLASS
  1
DICTIONARYVAR
  2
AcDbDictionaryVar
  3
ObjectDBX Classes
 90
        0
280
     0
281
     0
  0
CLASS
  1
ACDBDICTIONARYWDFLT
  2
AcDbDictionaryWithDefault
  3
ObjectDBX Classes
 90
        0
280
     0
281
     0
  0
CLASS
  1
ACDBPLACEHOLDER
  2
AcDbPlaceHolder
  3
ObjectDBX Classes
 90
        0
280
     0
281
     0
  0
CLASS
  1
LAYOUT
  2
AcDbLayout
  3
ObjectDBX Classes
 90
        0
280
     0
281
     0
  0
CLASS
  1
TABLESTYLE
  2
AcDbTableStyle
  3
ObjectDBX Classes
 90
     2047
280
     0
281
     0
  0
CLASS
  1
SORTENTSTABLE
  2
AcDbSortentsTable
  3
ObjectDBX Classes
 90
        0
280
     0
281
     0
  0
ENDSEC
  0
SECTION
  2
TABLES
  0
TABLE
  2
VPORT
  5
12
330
0
100
AcDbSymbolTable
 70
     3
  0
VPORT
  5
290C
330
12
100
AcDbSymbolTableRecord
100
AcDbViewportTableRecord
  2
*Active
 70
     0
 10
0.0
 20
0.0
 11
1.0
 21
1.0
 12
55.08837705903293
 22
95.94489072264449
 13
0.0
 23
0.0
 14
1.0
 24
1.0
 15
0.0
 25
0.0
 16
0.0
 26
0.0
 36
1.0
 17
0.0
 27
0.0
 37
0.0
 40
193.4066137072776
 41
1.565384615384615
 42
50.0
 43
0.0
 44
0.0
 50
0.0
 51
0.0
 71
     0
 72
 20000
 73
     1
 74
     1
 75
     0
 76
     0
 77
     0
 78
     0
281
     0
 65
     1
110
0.0
120
0.0
130
0.0
111
1.0
121
0.0
131
0.0
112
0.0
122
1.0
132
0.0
 79
     0
146
0.0
  0
ENDTAB
  0
TABLE
  2
LTYPE
  5
D
330
0
100
AcDbSymbolTable
 70
     1
  0
LTYPE
  5
E
330
D
100
AcDbSymbolTableRecord
100
AcDbLinetypeTableRecord
  2
BYBLOCK
 70
     0
  3

 72
    65
 73
     0
 40
0.0
  0
LTYPE
  5
F
330
D
100
AcDbSymbolTableRecord
100
AcDbLinetypeTableRecord
  2
BYLAYER
 70
     0
  3

 72
    65
 73
     0
 40
0.0
  0
LTYPE
  5
5
330
D
100
AcDbSymbolTableRecord
100
AcDbLinetypeTableRecord
  2
CONTINUOUS
 70
     0
  3
Solid line
 72
    65
 73
     0
 40
0.0
  0
ENDTAB
  0
TABLE
  2
LAYER
  5
A
102
{ACAD_XDICTIONARY
360
1B4
102
}
330
0
100
AcDbSymbolTable
 70
     6
  0
LAYER
  5
4
330
A
100
AcDbSymbolTableRecord
100
AcDbLayerTableRecord
  2
0
 70
     0
 62
     7
  6
CONTINUOUS
370
    -3
390
57
  0
LAYER
  5
25
330
A
100
AcDbSymbolTableRecord
100
AcDbLayerTableRecord
  2
KIJUN
 70
     0
 62
     7
  6
CONTINUOUS
370
    -3
390
57
  0
LAYER
  5
22
330
A
100
AcDbSymbolTableRecord
100
AcDbLayerTableRecord
  2
HOJO
 70
     0
 62
     3
  6
CONTINUOUS
370
    -3
390
57
  0
LAYER
  5
1B
330
A
100
AcDbSymbolTableRecord
100
AcDbLayerTableRecord
  2
WAKU
 70
     0
 62
     1
  6
CONTINUOUS
370
    -3
390
57
  0
LAYER
  5
31
330
A
100
AcDbSymbolTableRecord
100
AcDbLayerTableRecord
  2
DEFPOINTS
 70
     0
 62
     7
  6
CONTINUOUS
290
     0
370
    -3
390
57
  0
LAYER
  5
28
330
A
100
AcDbSymbolTableRecord
100
AcDbLayerTableRecord
  2
SUNPOU
 70
     0
 62
    70
  6
CONTINUOUS
370
    -3
390
57
  0
ENDTAB
  0
TABLE
  2
STYLE
  5
B
330
0
100
AcDbSymbolTable
 70
     3
  0
STYLE
  5
C
330
B
100
AcDbSymbolTableRecord
100
AcDbTextStyleTableRecord
  2
STANDARD
 70
     0
 40
0.0
 41
1.0
 50
0.0
 71
     0
 42
0.2
  3
txt
  4

  0
STYLE
  5
1C
330
B
100
AcDbSymbolTableRecord
100
AcDbTextStyleTableRecord
  2
SUNPOU
 70
     0
 40
0.0
 41
1.0
 50
0.0
 71
     0
 42
30.0
  3
txt
  4
bigfont
  0
STYLE
  5
14A
330
B
100
AcDbSymbolTableRecord
100
AcDbTextStyleTableRecord
  2
LIFE
 70
     0
 40
0.0
 41
0.7
 50
0.0
 71
     0
 42
10.0
  3
romans
  4
extfont
  0
ENDTAB
  0
TABLE
  2
VIEW
  5
10
330
0
100
AcDbSymbolTable
 70
     0
  0
ENDTAB
  0
TABLE
  2
UCS
  5
11
330
0
100
AcDbSymbolTable
 70
     0
  0
ENDTAB
  0
TABLE
  2
APPID
  5
14
330
0
100
AcDbSymbolTable
 70
    10
  0
APPID
  5
15
330
14
100
AcDbSymbolTableRecord
100
AcDbRegAppTableRecord
  2
ACAD
 70
     0
  0
APPID
  5
1D3
330
14
100
AcDbSymbolTableRecord
100
AcDbRegAppTableRecord
  2
ACAD_DSTYLE_DIMTEXT_FILL
 70
     0
  0
APPID
  5
1D4
330
14
100
AcDbSymbolTableRecord
100
AcDbRegAppTableRecord
  2
ACAD_DSTYLE_DIMEXT_LENGTH
 70
     0
  0
APPID
  5
1D5
330
14
100
AcDbSymbolTableRecord
100
AcDbRegAppTableRecord
  2
ACAD_DSTYLE_DIMEXT_ENABLED
 70
     0
  0
APPID
  5
1D6
330
14
100
AcDbSymbolTableRecord
100
AcDbRegAppTableRecord
  2
ACAD_DSTYLE_DIM_LINETYPE
 70
     0
  0
APPID
  5
1D7
330
14
100
AcDbSymbolTableRecord
100
AcDbRegAppTableRecord
  2
ACAD_DSTYLE_DIM_EXT1_LINETYPE
 70
     0
  0
APPID
  5
1D8
330
14
100
AcDbSymbolTableRecord
100
AcDbRegAppTableRecord
  2
ACAD_DSTYLE_DIM_EXT2_LINETYPE
 70
     0
  0
APPID
  5
294
330
14
100
AcDbSymbolTableRecord
100
AcDbRegAppTableRecord
  2
ACAD_DSTYLE_DIMJOGGED_JOGANGLE_SYMBOL
 70
     0
  0
APPID
  5
478
330
14
100
AcDbSymbolTableRecord
100
AcDbRegAppTableRecord
  2
ACAD_DSTYLE_DIMARC_LENGTH_SYMBOL
 70
     0
  0
APPID
  5
F55
330
14
100
AcDbSymbolTableRecord
100
AcDbRegAppTableRecord
  2
ACAD_EXEMPT_FROM_CAD_STANDARDS
 70
     0
  0
ENDTAB
  0
TABLE
  2
DIMSTYLE
  5
16
330
0
100
AcDbSymbolTable
 70
     2
100
AcDbDimStyleTable
 71
     1
340
1E
  0
DIMSTYLE
105
1E
102
{ACAD_REACTORS
330
28A4
330
28B1
102
}
330
16
100
AcDbSymbolTableRecord
100
AcDbDimStyleTableRecord
  2
STANDARD
 70
     0
340
C
  0
DIMSTYLE
105
1005
330
16
100
AcDbSymbolTableRecord
100
AcDbDimStyleTableRecord
  2
1-100
 70
     0
 40
100.0
 41
0.7
 42
2.5
 43
5.0
 44
1.0
 77
     1
147
1.0
172
     1
176
     3
177
     3
271
     2
272
     2
279
     2
340
C
342
109
  0
ENDTAB
  0
TABLE
  2
BLOCK_RECORD
  5
1
330
0
100
AcDbSymbolTable
 70
    21
  0
BLOCK_RECORD
  5
2
102
{ACAD_XDICTIONARY
360
D13
102
}
330
1
100
AcDbSymbolTableRecord
100
AcDbBlockTableRecord
  2
*MODEL_SPACE
340
5A
  0
BLOCK_RECORD
  5
7
330
1
100
AcDbSymbolTableRecord
100
AcDbBlockTableRecord
  2
*PAPER_SPACE
340
5B
  0
BLOCK_RECORD
  5
109
330
1
100
AcDbSymbolTableRecord
100
AcDbBlockTableRecord
  2
_Dot
340
0
102
{BLKREFS
331
2010
331
2011
331
201D
331
201E
331
2117
331
2118
331
2124
331
2125
331
2295
331
2296
331
22B9
331
22BA
331
22D5
331
22D6
331
241E
331
241F
331
24E3
331
24E4
331
24F5
331
24F6
331
2580
331
2581
331
259B
331
259C
331
2645
331
2646
331
2652
331
2653
331
26B6
331
26B7
331
26C3
331
26C4
331
276B
331
276C
331
277D
331
277E
331
28F6
331
28F7
331
28FF
331
2900
102
}
  0
BLOCK_RECORD
  5
28A5
330
1
100
AcDbSymbolTableRecord
100
AcDbBlockTableRecord
  2
*D19
340
0
  0
BLOCK_RECORD
  5
28B2
330
1
100
AcDbSymbolTableRecord
100
AcDbBlockTableRecord
  2
*D20
340
0
  0
ENDTAB
  0
ENDSEC
  0
SECTION
  2
BLOCKS
  0
BLOCK
  5
3
330
2
100
AcDbEntity
  8
0
100
AcDbBlockBegin
  2
*MODEL_SPACE
 70
     0
 10
0.0
 20
0.0
 30
0.0
  3
*MODEL_SPACE
  1

  0
ENDBLK
  5
6
330
2
100
AcDbEntity
  8
0
100
AcDbBlockEnd
  0
BLOCK
  5
8
330
7
100
AcDbEntity
 67
     1
  8
0
100
AcDbBlockBegin
  2
*PAPER_SPACE
 70
     0
 10
0.0
 20
0.0
 30
0.0
  3
*PAPER_SPACE
  1

  0
ENDBLK
  5
9
330
7
100
AcDbEntity
 67
     1
  8
0
100
AcDbBlockEnd
  0
BLOCK
  5
10C
330
109
100
AcDbEntity
  8
0
100
AcDbBlockBegin
  2
_Dot
 70
     0
 10
0.0
 20
0.0
 30
0.0
  3
_Dot
  1

  0
LWPOLYLINE
  5
10A
330
109
100
AcDbEntity
  8
0
  6
ByBlock
 62
     0
100
AcDbPolyline
 90
        2
 70
     1
 43
0.5
 10
-0.25
 20
0.0
 42
1.0
 10
0.25
 20
0.0
 42
1.0
  0
LINE
  5
10B
330
109
100
AcDbEntity
  8
0
  6
ByBlock
 62
     0
370
    -2
100
AcDbLine
 10
-0.5
 20
0.0
 30
0.0
 11
-1.0
 21
0.0
 31
0.0
  0
ENDBLK
  5
10D
330
109
100
AcDbEntity
  8
0
100
AcDbBlockEnd
  0
BLOCK
  5
28AF
330
28A5
100
AcDbEntity
  8
0
100
AcDbBlockBegin
  2
*D19
 70
     1
 10
0.0
 20
0.0
 30
0.0
  3
*D19
  1

  0
LINE
  5
28F3
330
28A5
100
AcDbEntity
  8
SUNPOU
 62
    70
370
    -2
100
AcDbLine
 10
-24.8306364237521
 20
115.557185286975
 30
0.0
 11
-24.83063642375209
 21
183.8979766120355
 31
0.0
  0
LINE
  5
28F4
330
28A5
100
AcDbEntity
  8
SUNPOU
 62
    70
370
    -2
100
AcDbLine
 10
170.1693635762479
 20
115.557185286975
 30
0.0
 11
170.1693635762479
 21
183.8979766120355
 31
0.0
  0
LINE
  5
28F5
330
28A5
100
AcDbEntity
  8
SUNPOU
 62
    60
370
    -2
100
AcDbLine
 10
-22.83063642375209
 20
183.8979766120355
 30
0.0
 11
168.1693635762479
 21
183.8979766120355
 31
0.0
  0
INSERT
  5
28F6
330
28A5
100
AcDbEntity
  8
SUNPOU
 62
    60
370
    -2
100
AcDbBlockReference
  2
_Dot
 10
-24.83063642375209
 20
183.8979766120355
 30
0.0
 41
2.0
 42
2.0
 43
2.0
 50
180.0
  0
INSERT
  5
28F7
330
28A5
100
AcDbEntity
  8
SUNPOU
 62
    60
370
    -2
100
AcDbBlockReference
  2
_Dot
 10
170.1693635762479
 20
183.8979766120355
 30
0.0
 41
2.0
 42
2.0
 43
2.0
  0
MTEXT
  5
28F8
330
28A5
100
AcDbEntity
  8
SUNPOU
 62
    60
100
AcDbMText
 10
72.66936357624792
 20
189.3979766120355
 30
0.0
 40
5.0
 41
0.0
 71
     5
 72
     1
  1
\A1;195
  7
SUNPOU
 73
     1
 44
1.0
1001
ACAD
1000
MTEXTBEGIN
1070
    73
1070
     1
1070
    44
1040
1.0
1070
    74
1070
     0
1000
MTEXTEND
  0
POINT
  5
28F9
330
28A5
100
AcDbEntity
  8
DEFPOINTS
 62
     0
100
AcDbPoint
 10
-24.8306364237521
 20
105.557185286975
 30
0.0
  0
POINT
  5
28FA
330
28A5
100
AcDbEntity
  8
DEFPOINTS
 62
     0
100
AcDbPoint
 10
170.1693635762479
 20
105.557185286975
 30
0.0
  0
POINT
  5
28FB
330
28A5
100
AcDbEntity
  8
DEFPOINTS
 62
     0
100
AcDbPoint
 10
170.1693635762479
 20
183.8979766120355
 30
0.0
  0
ENDBLK
  5
28B0
330
28A5
100
AcDbEntity
  8
0
100
AcDbBlockEnd
  0
BLOCK
  5
28BC
330
28B2
100
AcDbEntity
  8
0
100
AcDbBlockBegin
  2
*D20
 70
     1
 10
0.0
 20
0.0
 30
0.0
  3
*D20
  1

  0
LINE
  5
28FC
330
28B2
100
AcDbEntity
  8
SUNPOU
 62
    70
370
    -2
100
AcDbLine
 10
-21.33063642375351
 20
154.1914492309566
 30
0.0
 11
-53.00898335138707
 21
154.1914492309566
 31
0.0
  0
LINE
  5
28FD
330
28B2
100
AcDbEntity
  8
SUNPOU
 62
    70
370
    -2
100
AcDbLine
 10
62.66936357624789
 20
32.19144923095685
 30
0.0
 11
-53.00898335138709
 21
32.19144923095689
 31
0.0
  0
LINE
  5
28FE
330
28B2
100
AcDbEntity
  8
SUNPOU
 62
    60
370
    -2
100
AcDbLine
 10
-53.00898335138707
 20
152.1914492309566
 30
0.0
 11
-53.00898335138709
 21
34.19144923095688
 31
0.0
  0
INSERT
  5
28FF
330
28B2
100
AcDbEntity
  8
SUNPOU
 62
    60
370
    -2
100
AcDbBlockReference
  2
_Dot
 10
-53.00898335138707
 20
154.1914492309566
 30
0.0
 41
2.0
 42
2.0
 43
2.0
 50
90.0
  0
INSERT
  5
2900
330
28B2
100
AcDbEntity
  8
SUNPOU
 62
    60
370
    -2
100
AcDbBlockReference
  2
_Dot
 10
-53.00898335138709
 20
32.19144923095689
 30
0.0
 41
2.0
 42
2.0
 43
2.0
 50
270.0
  0
MTEXT
  5
2901
330
28B2
100
AcDbEntity
  8
SUNPOU
 62
    60
100
AcDbMText
 10
-58.50898335138709
 20
93.19144923095675
 30
0.0
 40
5.0
 41
0.0
 71
     5
 72
     1
  1
\A1;122
  7
SUNPOU
 11
0.0000000000000001
 21
1.0
 31
0.0
 73
     1
 44
1.0
1001
ACAD
1000
MTEXTBEGIN
1070
    73
1070
     1
1070
    44
1040
1.0
1070
    74
1070
     0
1000
MTEXTEND
  0
POINT
  5
2902
330
28B2
100
AcDbEntity
  8
DEFPOINTS
 62
     0
100
AcDbPoint
 10
-11.3306364237535
 20
154.1914492309566
 30
0.0
  0
POINT
  5
2903
330
28B2
100
AcDbEntity
  8
DEFPOINTS
 62
     0
100
AcDbPoint
 10
72.6693635762479
 20
32.19144923095685
 30
0.0
  0
POINT
  5
2904
330
28B2
100
AcDbEntity
  8
DEFPOINTS
 62
     0
100
AcDbPoint
 10
-53.00898335138709
 20
32.19144923095689
 30
0.0
  0
ENDBLK
  5
28BD
330
28B2
100
AcDbEntity
  8
0
100
AcDbBlockEnd
  0
ENDSEC
  0
SECTION
  2
ENTITIES
  0
LINE
  5
1F
330
2
100
AcDbEntity
  8
WAKU
100
AcDbLine
 10
0.0
 20
14.0
 30
0.0
 11
148.6829221395387
 21
14.0
 31
0.0
  0
LINE
  5
20
330
2
100
AcDbEntity
  8
WAKU
100
AcDbLine
 10
0.0
 20
0.0
 30
0.0
 11
148.6829221395387
 21
0.0
 31
0.0
  0
TEXT
  5
21
330
2
100
AcDbEntity
  8
HOJO
100
AcDbText
 10
9.653966000000025
 20
2.366626000000024
 30
0.0
 40
9.0
  1
TWM253
  7
SUNPOU
100
AcDbText
  0
TEXT
  5
23
330
2
100
AcDbEntity
  8
HOJO
100
AcDbText
 10
85.84696046283864
 20
5.044386000000031
 30
0.0
 40
6.0
  1
195×122×7
  7
SUNPOU
100
AcDbText
  0
ARC
  5
281C
102
{ACAD_REACTORS
330
2905
102
}
330
2
100
AcDbEntity
  8
KIJUN
100
AcDbCircle
 10
70.90020561379901
 20
138.4607964910402
 30
0.0
 40
11.863310398055
100
AcDbArc
 50
34.56566018724748
 51
81.42357339658575
  0
ARC
  5
281D
102
{ACAD_REACTORS
330
2905
102
}
330
2
100
AcDbEntity
  8
KIJUN
100
AcDbCircle
 10
81.46266827552267
 20
138.4547324546899
 30
0.0
 40
6.783265089138589
100
AcDbArc
 50
23.79411081962729
 51
96.71612658647882
  0
ARC
  5
281E
102
{ACAD_REACTORS
330
2905
102
}
330
2
100
AcDbEntity
  8
KIJUN
100
AcDbCircle
 10
89.45507786196094
 20
131.5485920880997
 30
0.0
 40
9.80680729838976
100
AcDbArc
 50
339.9812396062167
 51
100.4914770123275
  0
ARC
  5
281F
102
{ACAD_REACTORS
330
2905
102
}
330
2
100
AcDbEntity
  8
KIJUN
100
AcDbCircle
 10
93.33196958760437
 20
120.4986526660183
 30
0.0
 40
9.36306005425153
100
AcDbArc
 50
4.243338065221773
 51
55.24642452866562
  0
ARC
  5
2820
102
{ACAD_REACTORS
330
2905
102
}
330
2
100
AcDbEntity
  8
KIJUN
100
AcDbCircle
 10
101.8243853966082
 20
112.0014928716798
 30
0.0
 40
9.228720713591753
100
AcDbArc
 50
42.12323499882234
 51
84.74666264701939
  0
ARC
  5
2821
102
{ACAD_REACTORS
330
2905
102
}
330
2
100
AcDbEntity
  8
KIJUN
100
AcDbCircle
 10
124.1970401711341
 20
101.1222577437382
 30
0.0
 40
23.07522564272655
100
AcDbArc
 50
91.31033507266336
 51
132.2924839000393
  0
ARC
  5
2822
102
{ACAD_REACTORS
330
2905
102
}
330
2
100
AcDbEntity
  8
KIJUN
100
AcDbCircle
 10
129.4981901761757
 20
123.6292360561247
 30
0.0
 40
5.855877661460949
100
AcDbArc
 50
51.17666789056169
 51
174.4906404652726
  0
SPLINE
  5
2823
102
{ACAD_REACTORS
330
2905
102
}
330
2
100
AcDbEntity
  8
KIJUN
100
AcDbSpline
210
0.0
220
0.0
230
1.0
 70
     8
 71
     3
 72
    13
 73
     9
 74
     7
 42
0.0000000001
 43
0.0000000001
 44
0.0000000001
 40
0.0
 40
0.0
 40
0.0
 40
0.0
 40
3.682761955505752
 40
6.829345560858049
 40
9.956473127176108
 40
12.6108629397938
 40
13.97877369337034
 40
15.51503466852438
 40
15.51503466852438
 40
15.51503466852438
 40
15.51503466852438
 10
133.1693635762465
 20
128.1914492309566
 30
0.0
 10
133.4422016374992
 20
129.4172277550181
 30
0.0
 10
133.9481548934959
 20
131.6903220312797
 30
0.0
 10
136.4100800402497
 20
134.0875603640931
 30
0.0
 10
137.3957817928513
 20
136.9526972762104
 30
0.0
 10
137.0074513530137
 20
139.6149651816485
 30
0.0
 10
135.2078954903515
 20
140.5958693173747
 30
0.0
 10
135.1826945013804
 20
141.6394248411193
 30
0.0
 10
135.1693635762465
 20
142.1914492309566
 30
0.0
 11
133.1693635762465
 21
128.1914492309566
 31
0.0
 11
134.3318116973748
 21
131.6859377466919
 31
0.0
 11
136.1988955225104
 21
134.2187200854232
 31
0.0
 11
137.1693635762465
 21
137.1914492309566
 31
0.0
 11
136.4656217832439
 21
139.7508500917266
 31
0.0
 11
135.4653983054927
 21
140.6839807494084
 31
0.0
 11
135.1693635762465
 21
142.1914492309566
 31
0.0
  0
ARC
  5
2824
102
{ACAD_REACTORS
330
2905
102
}
330
2
100
AcDbEntity
  8
KIJUN
100
AcDbCircle
 10
138.0800778619607
 20
147.8454670880995
 30
0.0
 40
6.359259043469728
100
AcDbArc
 50
93.70303923349315
 51
242.7603829024583
  0
ARC
  5
2825
102
{ACAD_REACTORS
330
2905
102
}
330
2
100
AcDbEntity
  8
KIJUN
100
AcDbCircle
 10
156.2586492905323
 20
147.8454670880995
 30
0.0
 40
6.359259043469728
100
AcDbArc
 50
297.2396170975417
 51
86.29696076650686
  0
SPLINE
  5
2826
102
{ACAD_REACTORS
330
2905
102
}
330
2
100
AcDbEntity
  8
KIJUN
100
AcDbSpline
210
0.0
220
0.0
230
1.0
 70
     8
 71
     3
 72
    10
 73
     6
 74
     0
 42
0.0000000001
 43
0.0000000001
 40
9.956473127175993
 40
9.956473127175993
 40
9.956473127175993
 40
9.956473127176108
 40
12.6108629397938
 40
13.97877369337034
 40
15.51503466852438
 40
15.51503466852438
 40
15.51503466852438
 40
15.51503466852438
 10
157.1693635762465
 20
137.1914492309566
 30
0.0
 10
157.1127993396733
 20
138.1171612307693
 30
0.0
 10
157.3312757994797
 20
139.6149651816488
 30
0.0
 10
159.1308316621412
 20
140.5958693173745
 30
0.0
 10
159.1560326511123
 20
141.6394248411192
 30
0.0
 10
159.1693635762465
 20
142.1914492309566
 30
0.0
  0
ARC
  5
2827
102
{ACAD_REACTORS
330
2905
102
}
330
2
100
AcDbEntity
  8
KIJUN
100
AcDbCircle
 10
70.68206867605931
 20
47.45719835982209
 30
0.0
 40
15.39455869733736
100
AcDbArc
 50
277.4170525519721
 51
327.5253320297283
  0
ARC
  5
2828
102
{ACAD_REACTORS
330
2905
102
}
330
2
100
AcDbEntity
  8
KIJUN
100
AcDbCircle
 10
84.94010479723987
 20
54.07354719596788
 30
0.0
 40
14.93625197601201
100
AcDbArc
 50
265.1195099267661
 51
336.808003137385
  0
ARC
  5
2829
102
{ACAD_REACTORS
330
2905
102
}
330
2
100
AcDbEntity
  8
KIJUN
100
AcDbCircle
 10
96.90634276084507
 20
62.79715470300368
 30
0.0
 40
14.71172575640682
100
AcDbArc
 50
276.8827415213467
 51
345.8128129180451
  0
ARC
  5
282A
102
{ACAD_REACTORS
330
2905
102
}
330
2
100
AcDbEntity
  8
KIJUN
100
AcDbCircle
 10
108.7374885765216
 20
70.04216351635671
 30
0.0
 40
11.11989282851543
100
AcDbArc
 50
282.6324486326897
 51
339.7042576052008
  0
ARC
  5
282B
102
{ACAD_REACTORS
330
2905
102
}
330
2
100
AcDbEntity
  8
KIJUN
100
AcDbCircle
 10
129.4711905427206
 20
105.557185286975
 30
0.0
 40
40.69817303352724
100
AcDbArc
 50
255.3339007052258
 51
45.90450795984736
  0
SPLINE
  5
282C
102
{ACAD_REACTORS
330
2905
102
}
330
2
100
AcDbEntity
  8
KIJUN
100
AcDbSpline
210
0.0
220
0.0
230
1.0
 70
     8
 71
     3
 72
    11
 73
     7
 74
     0
 42
0.0000000001
 43
0.0000000001
 40
7.483145209941052
 40
7.483145209941052
 40
7.483145209941052
 40
7.483145209941052
 40
9.956473127176108
 40
12.6108629397938
 40
13.97877369337034
 40
15.51503466852438
 40
15.51503466852438
 40
15.51503466852438
 40
15.51503466852438
 10
157.7912703684098
 20
134.7858418919837
 30
0.0
 10
157.4490642153725
 20
135.5207670626982
 30
0.0
 10
156.9784573335491
 20
137.1961558843785
 30
0.0
 10
157.3312757994788
 20
139.6149651816488
 30
0.0
 10
159.1308316621419
 20
140.5958693173745
 30
0.0
 10
159.1560326511126
 20
141.6394248411192
 30
0.0
 10
159.1693635762465
 20
142.1914492309566
 30
0.0
  0
ARC
  5
282D
102
{ACAD_REACTORS
330
2905
102
}
330
2
100
AcDbEntity
  8
KIJUN
100
AcDbCircle
 10
94.29309603713932
 20
109.3117413126267
 30
0.0
 40
21.98095095543128
100
AcDbArc
 50
297.2696019857054
 51
346.5296438097445
  0
ARC
  5
282E
102
{ACAD_REACTORS
330
2905
102
}
330
2
100
AcDbEntity
  8
KIJUN
100
AcDbCircle
 10
115.2810126078632
 20
109.9681511677236
 30
0.0
 40
5.789741077189117
100
AcDbArc
 50
273.8460425147313
 51
319.2840598394275
  0
ARC
  5
282F
102
{ACAD_REACTORS
330
2905
102
}
330
2
100
AcDbEntity
  8
KIJUN
100
AcDbCircle
 10
115.2459764794723
 20
96.15717503740837
 30
0.0
 40
10.96599343421376
100
AcDbArc
 50
269.5997050565937
 51
66.21078078937937
  0
ARC
  5
2830
102
{ACAD_REACTORS
330
2905
102
}
330
2
100
AcDbEntity
  8
KIJUN
100
AcDbCircle
 10
115.6083761697673
 20
101.257012144884
 30
0.0
 40
16.07156009224428
100
AcDbArc
 50
225.6029452466951
 51
268.434707159181
  0
LINE
  5
2831
102
{ACAD_REACTORS
330
2905
102
}
330
2
100
AcDbEntity
  8
KIJUN
100
AcDbLine
 10
137.6693635762465
 20
154.1914492309566
 30
0.0
 11
156.6693635762465
 21
154.1914492309566
 31
0.0
  0
LINE
  5
2832
102
{ACAD_REACTORS
330
2905
102
}
330
2
100
AcDbEntity
  8
KIJUN
100
AcDbLine
 10
135.1693635762465
 20
142.1914492309566
 30
0.0
 11
159.1693635762467
 21
142.1914492309566
 31
0.0
  0
ARC
  5
2833
102
{ACAD_REACTORS
330
2905
102
}
330
2
100
AcDbEntity
  8
KIJUN
100
AcDbCircle
 10
135.8145690971419
 20
123.014051991404
 30
0.0
 40
27.57026804651546
100
AcDbArc
 50
190.0740268551293
 51
223.0560754990238
  0
SPLINE
  5
2834
102
{ACAD_REACTORS
330
2905
102
}
330
2
100
AcDbEntity
  8
KIJUN
100
AcDbSpline
210
0.0
220
0.0
230
1.0
 70
     8
 71
     3
 72
    12
 73
     8
 74
     6
 42
0.0000000001
 43
0.0000000001
 44
0.0000000001
 40
0.0
 40
0.0
 40
0.0
 40
0.0
 40
13.34037241125381
 40
32.52901200535368
 40
50.49464047231746
 40
70.3041557706011
 40
86.50227611800282
 40
86.50227611800282
 40
86.50227611800282
 40
86.50227611800282
 10
102.6693635762469
 20
121.1914492309506
 30
0.0
 10
98.33715877919628
 20
119.838812443492
 30
0.0
 10
87.77355998985274
 20
116.5405583212154
 30
0.0
 10
78.75030393080731
 20
99.01316070010865
 30
0.0
 10
86.60610264252545
 20
80.10252474476471
 30
0.0
 10
101.8148762916379
 20
68.87353557047771
 30
0.0
 10
113.7830764282695
 20
67.01921966253912
 30
0.0
 10
119.16699966229
 20
66.18505125074867
 30
0.0
 11
102.6693635762469
 21
121.1914492309506
 31
0.0
 11
90.47176712207351
 21
115.7892111010569
 31
0.0
 11
81.66936357624649
 21
98.73865154165628
 31
0.0
 11
87.58113054451541
 21
81.77354566147199
 31
0.0
 11
103.3839112748262
 21
69.82829482515001
 31
0.0
 11
119.16699966229
 21
66.18505125074867
 31
0.0
  0
ARC
  5
2835
102
{ACAD_REACTORS
330
2905
102
}
330
2
100
AcDbEntity
  8
KIJUN
100
AcDbCircle
 10
97.56513224899117
 20
61.32546402434752
 30
0.0
 40
6.190151048107713
100
AcDbArc
 50
272.4569764400087
 51
345.9835560686816
  0
ARC
  5
2836
102
{ACAD_REACTORS
330
2905
102
}
330
2
100
AcDbEntity
  8
KIJUN
100
AcDbCircle
 10
74.60029685973427
 20
89.1545103527468
 30
0.0
 40
10.22099043098082
100
AcDbArc
 50
46.08524692890722
 51
100.8896707060096
  0
ARC
  5
2837
102
{ACAD_REACTORS
330
2905
102
}
330
2
100
AcDbEntity
  8
KIJUN
100
AcDbCircle
 10
74.60029685973427
 20
89.1545103527468
 30
0.0
 40
19.22099043098082
100
AcDbArc
 50
62.89026040564053
 51
95.76563771280509
  0
SPLINE
  5
2838
102
{ACAD_REACTORS
330
2905
102
}
330
2
100
AcDbEntity
  8
KIJUN
100
AcDbSpline
210
0.0
220
0.0
230
1.0
 70
     8
 71
     3
 72
    14
 73
    10
 74
     8
 42
0.0000000001
 43
0.0000000001
 44
0.0000000001
 40
0.0
 40
0.0
 40
0.0
 40
0.0
 40
2.981709361043556
 40
5.463223084877526
 40
8.995364228139273
 40
17.31598830936258
 40
27.19764608845689
 40
34.77364680717145
 40
39.9034290691981
 40
39.9034290691981
 40
39.9034290691981
 40
39.9034290691981
 10
119.6693635762419
 20
106.1914492309587
 30
0.0
 10
119.2730095395037
 20
107.1523750485407
 30
0.0
 10
118.5467917023183
 20
108.9130269008165
 30
0.0
 10
120.3309007398067
 20
111.9624889824657
 30
0.0
 10
125.8513234758297
 20
111.3947472143835
 30
0.0
 10
130.8515939555347
 20
105.4098123269999
 30
0.0
 10
132.3959716538501
 20
96.50281650507274
 30
0.0
 10
129.0685394514886
 20
89.11885727988039
 30
0.0
 10
125.4304643073487
 20
86.84726430762452
 30
0.0
 10
123.9616423252153
 20
85.93014040008688
 30
0.0
 11
119.6693635762419
 21
106.1914492309587
 31
0.0
 11
119.0193863837494
 21
109.1014527297494
 31
0.0
 11
120.3137874133988
 21
111.2186292306626
 31
0.0
 11
123.843969631107
 21
111.336249661282
 31
0.0
 11
129.8452812140056
 21
105.5728266865212
 31
0.0
 11
131.3750262374139
 21
95.81029419610194
 31
0.0
 11
128.0801894079227
 21
88.9882829708846
 31
0.0
 11
123.9616423252153
 21
85.93014040008688
 31
0.0
  0
SPLINE
  5
2839
102
{ACAD_REACTORS
330
2905
102
}
330
2
100
AcDbEntity
  8
KIJUN
100
AcDbSpline
210
0.0
220
0.0
230
1.0
 70
     8
 71
     3
 72
    13
 73
     9
 74
     7
 42
0.0000000001
 43
0.0000000001
 44
0.0000000001
 40
0.0
 40
0.0
 40
0.0
 40
0.0
 40
9.955845570355805
 40
26.48454731325553
 40
41.86135630439209
 40
54.3115725728878
 40
65.97067291592168
 40
68.97732330135281
 40
68.97732330135281
 40
68.97732330135281
 40
68.97732330135281
 10
123.6693635762467
 20
124.1914492309588
 30
0.0
 10
126.7000231077885
 20
122.5424061675936
 30
0.0
 10
134.7621857022429
 20
118.1556206630722
 30
0.0
 10
137.2636165130711
 20
103.020822905756
 30
0.0
 10
135.2649969741597
 20
87.1289466225693
 30
0.0
 10
122.5836485993074
 20
80.48237417076345
 30
0.0
 10
112.8177869639049
 20
80.10904685019983
 30
0.0
 10
108.6872775859949
 20
82.7923681784684
 30
0.0
 10
107.8404748656257
 20
83.34248042674323
 30
0.0
 11
123.6693635762467
 21
124.1914492309588
 31
0.0
 11
131.8457170138474
 21
118.5111230533341
 31
0.0
 11
136.4349548729883
 21
102.632304546343
 31
0.0
 11
132.7870999611718
 21
87.69445298421283
 31
0.0
 11
122.0788792194817
 21
81.34292610640216
 31
0.0
 11
110.429275530467
 21
81.81340957883254
 31
0.0
 11
107.8404748656257
 21
83.34248042674323
 31
0.0
  0
SPLINE
  5
283A
102
{ACAD_REACTORS
330
2905
102
}
330
2
100
AcDbEntity
  8
KIJUN
100
AcDbSpline
210
0.0
220
0.0
230
1.0
 70
     8
 71
     3
 72
    11
 73
     7
 74
     5
 42
0.0000000001
 43
0.0000000001
 44
0.0000000001
 40
0.0
 40
0.0
 40
0.0
 40
0.0
 40
7.741952708482847
 40
20.3163362683856
 40
32.54947339679882
 40
41.91356141451863
 40
41.91356141451863
 40
41.91356141451863
 40
41.91356141451863
 10
133.1693635762465
 20
128.1914492309566
 30
0.0
 10
135.1532771358305
 20
126.4521774497866
 30
0.0
 10
140.359438490931
 20
121.8880020151257
 30
0.0
 10
142.4332981254482
 20
110.7606413561662
 30
0.0
 10
143.8789707676287
 20
99.00658211837132
 30
0.0
 10
139.917607711763
 20
92.75668853794021
 30
0.0
 10
138.2000466790712
 20
90.04687034636493
 30
0.0
 11
133.1693635762465
 21
128.1914492309566
 31
0.0
 11
138.5530647613961
 21
122.6278538745883
 31
0.0
 11
142.3185937617784
 21
110.6305244526364
 31
0.0
 11
142.4362664558868
 21
98.39795329446928
 31
0.0
 11
138.2000466790712
 21
90.04687034636493
 31
0.0
  0
ARC
  5
283B
102
{ACAD_REACTORS
330
2905
102
}
330
2
100
AcDbEntity
  8
KIJUN
100
AcDbCircle
 10
127.4184426534787
 20
104.8129543569757
 30
0.0
 40
36.23721529501132
100
AcDbArc
 50
292.2511484770939
 51
41.74854301344436
  0
SPLINE
  5
283C
102
{ACAD_REACTORS
330
2905
102
}
330
2
100
AcDbEntity
  8
KIJUN
100
AcDbSpline
210
0.0
220
0.0
230
1.0
 70
     8
 71
     3
 72
    20
 73
    16
 74
    14
 42
0.0000000001
 43
0.0000000001
 44
0.0000000001
 40
0.0
 40
0.0
 40
0.0
 40
0.0
 40
5.90956649452069
 40
9.882067793100292
 40
13.31589257631752
 40
16.45930527973306
 40
21.84158981511529
 40
35.23809508733856
 40
46.23365989522135
 40
55.75940463119433
 40
75.09720359419188
 40
83.68631144994017
 40
96.88798152456378
 40
105.8103570745184
 40
110.1452863379449
 40
110.1452863379449
 40
110.1452863379449
 40
110.1452863379449
 10
154.45409796648
 20
128.9419641612255
 30
0.0
 10
152.8545695152583
 20
130.1084503806286
 30
0.0
 10
150.1798134893093
 20
132.0590665401299
 30
0.0
 10
145.2942279417977
 20
132.4981074116348
 30
0.0
 10
142.6517533137793
 20
129.0224185956029
 30
0.0
 10
144.8612879492892
 20
125.1838277302266
 30
0.0
 10
150.4148146088585
 20
120.4387368708441
 30
0.0
 10
151.1286268319406
 20
109.4459571207414
 30
0.0
 10
150.8551125235534
 20
98.32386285125609
 30
0.0
 10
146.5182329893864
 20
85.57972010118822
 30
0.0
 10
136.6131364308165
 20
75.80275443719131
 30
0.0
 10
122.9036857164614
 20
73.75892429181212
 30
0.0
 10
112.651788613331
 20
73.02874713343078
 30
0.0
 10
103.8844815154982
 20
75.08225720165258
 30
0.0
 10
100.012414065545
 20
77.22691895110457
 30
0.0
 10
98.74630917205104
 20
77.92818946639568
 30
0.0
 11
154.45409796648
 21
128.9419641612255
 31
0.0
 11
149.3154340191322
 21
131.8603728011163
 31
0.0
 11
145.3446483033021
 21
131.7436364906702
 31
0.0
 11
143.3592554453871
 21
128.9419641612254
 31
0.0
 11
144.5271336769049
 21
126.0235564000753
 31
0.0
 11
148.0307683714584
 21
121.9377846557245
 31
0.0
 11
150.9504646285791
 21
108.8633161282905
 31
0.0
 11
150.2497374183378
 21
97.89010206762544
 31
0.0
 11
147.0964649722527
 21
88.90140440580159
 31
0.0
 11
132.848351361727
 21
75.82693587836764
 31
0.0
 11
124.4396289087901
 21
74.07589034293687
 31
0.0
 11
111.2426047569738
 21
73.72568141159888
 31
0.0
 11
102.600307471725
 21
75.94367218881359
 31
0.0
 11
98.74630917205104
 21
77.92818946639568
 31
0.0
  0
SPLINE
  5
283D
102
{ACAD_REACTORS
330
2905
102
}
330
2
100
AcDbEntity
  8
KIJUN
100
AcDbSpline
210
0.0
220
0.0
230
1.0
 70
     8
 71
     3
 72
     9
 73
     5
 74
     3
 42
0.0000000001
 43
0.0000000001
 44
0.0000000001
 40
0.0
 40
0.0
 40
0.0
 40
0.0
 40
3.265148496504272
 40
8.006823369976501
 40
8.006823369976501
 40
8.006823369976501
 40
8.006823369976501
 10
144.3934059213759
 20
126.210487224092
 30
0.0
 10
143.2030440736084
 20
126.5125857803042
 30
0.0
 10
140.2840291890979
 20
127.2533942864119
 30
0.0
 10
139.2770470808438
 20
124.2281705693868
 30
0.0
 10
138.6807079910309
 20
122.4366202100471
 30
0.0
 11
144.3934059213759
 21
126.210487224092
 31
0.0
 11
141.1402863985076
 21
126.4905016418594
 31
0.0
 11
138.6807079910309
 21
122.4366202100471
 31
0.0
  0
SPLINE
  5
283E
102
{ACAD_REACTORS
330
2905
102
}
330
2
100
AcDbEntity
  8
KIJUN
100
AcDbSpline
210
0.0
220
0.0
230
1.0
 70
     8
 71
     3
 72
    13
 73
     9
 74
     7
 42
0.0000000001
 43
0.0000000001
 44
0.0000000001
 40
0.0
 40
0.0
 40
0.0
 40
0.0
 40
4.193730533309526
 40
8.879518488719474
 40
14.51736413524208
 40
20.83691220139993
 40
24.78854844604859
 40
28.21922461752075
 40
28.21922461752075
 40
28.21922461752075
 40
28.21922461752075
 10
97.66936357624651
 20
109.7338491911381
 30
0.0
 10
99.00011658210061
 20
110.2999312928258
 30
0.0
 10
101.8177620711338
 20
111.4985148565873
 30
0.0
 10
106.847161874821
 20
108.9908117315945
 30
0.0
 10
107.705807333649
 20
102.4531829068353
 30
0.0
 10
102.1330183417876
 20
98.43961372783383
 30
0.0
 10
97.36446135125047
 20
101.3082956684043
 30
0.0
 10
97.49001683009478
 20
103.9162620928834
 30
0.0
 10
97.5483644270521
 20
105.1282249256838
 30
0.0
 11
97.66936357624651
 21
109.7338491911381
 31
0.0
 11
101.7193009476621
 21
110.8226021813172
 31
0.0
 11
105.8902374682723
 21
108.6872105769259
 31
0.0
 11
106.6023482798643
 21
103.0945187629577
 31
0.0
 11
101.3123801304953
 21
99.63721855338087
 31
0.0
 11
97.95528524421866
 21
101.7217671698819
 31
0.0
 11
97.5483644270521
 21
105.1282249256838
 31
0.0
  0
SPLINE
  5
283F
102
{ACAD_REACTORS
330
2905
102
}
330
2
100
AcDbEntity
  8
KIJUN
100
AcDbSpline
210
0.0
220
0.0
230
1.0
 70
     8
 71
     3
 72
    12
 73
     8
 74
     6
 42
0.0000000001
 43
0.0000000001
 44
0.0000000001
 40
0.0
 40
0.0
 40
0.0
 40
0.0
 40
6.38903239964275
 40
13.6800094336894
 40
20.92046129660901
 40
26.51888645716768
 40
30.48636298149414
 40
30.48636298149414
 40
30.48636298149414
 40
30.48636298149414
 10
97.66936357624651
 20
109.7338491911381
 30
0.0
 10
95.77343709328129
 20
108.5580545371633
 30
0.0
 10
91.71393472262556
 20
106.0404773905273
 30
0.0
 10
91.01282567954227
 20
98.19538367003097
 30
0.0
 10
94.40259372386938
 20
91.97048784028579
 30
0.0
 10
99.83067578346307
 20
89.44785161458677
 30
0.0
 10
103.0352016295913
 20
89.67820430114993
 30
0.0
 10
104.3642850223466
 20
89.77374353062987
 30
0.0
 11
97.66936357624651
 21
109.7338491911381
 31
0.0
 11
92.76704709299179
 21
105.6366515998943
 31
0.0
 11
91.74974546237468
 21
98.41699485574508
 31
0.0
 11
95.31030116953434
 21
92.11250548423619
 31
0.0
 11
100.3968084980201
 21
89.77374353062987
 31
0.0
 11
104.3642850223466
 21
89.77374353062987
 31
0.0
  0
ARC
  5
2840
102
{ACAD_REACTORS
330
2905
102
}
330
2
100
AcDbEntity
  8
KIJUN
100
AcDbCircle
 10
119.3444997829251
 20
91.58855600143864
 30
0.0
 40
42.03847107039231
100
AcDbArc
 50
119.4599236136132
 51
157.799811400873
  0
ARC
  5
2841
102
{ACAD_REACTORS
330
2905
102
}
330
2
100
AcDbEntity
  8
KIJUN
100
AcDbCircle
 10
148.5984112979724
 20
105.7739274962427
 30
0.0
 40
70.47517081997944
100
AcDbArc
 50
149.8309382249168
 51
178.1549097844801
  0
ARC
  5
2842
102
{ACAD_REACTORS
330
2905
102
}
330
2
100
AcDbEntity
  8
KIJUN
100
AcDbCircle
 10
215.3263408627963
 20
104.0851879973382
 30
0.0
 40
140.7914281643481
100
AcDbArc
 50
163.0243265044096
 51
178.2537653141838
  0
SPLINE
  5
2843
102
{ACAD_REACTORS
330
2905
102
}
330
2
100
AcDbEntity
  8
KIJUN
100
AcDbSpline
210
0.0
220
0.0
230
1.0
 70
     8
 71
     3
 72
    11
 73
     7
 74
     5
 42
0.0000000001
 43
0.0000000001
 44
0.0000000001
 40
0.0
 40
0.0
 40
0.0
 40
0.0
 40
8.531689749899282
 40
13.56037911578455
 40
17.93959063459913
 40
20.82204808406524
 40
20.82204808406524
 40
20.82204808406524
 40
20.82204808406524
 10
77.14818850216715
 20
58.02445662232663
 30
0.0
 10
77.4066849395771
 20
55.23399936696444
 30
0.0
 10
77.81754255326376
 20
50.7988101607993
 30
0.0
 10
78.33338621109167
 20
44.51103907249857
 30
0.0
 10
75.42299960958539
 20
41.22243447479052
 30
0.0
 10
73.45181032134324
 20
39.84716492085716
 30
0.0
 10
72.6693635762465
 20
39.30126342244478
 30
0.0
 11
77.14818850216715
 21
58.02445662232663
 31
0.0
 11
77.91539041069473
 21
49.52733174269304
 31
0.0
 11
77.63826500107938
 21
44.50628421793157
 31
0.0
 11
74.97705974242762
 21
41.02842854268533
 31
0.0
 11
72.6693635762465
 21
39.30126342244478
 31
0.0
  0
SPLINE
  5
2844
102
{ACAD_REACTORS
330
2905
102
}
330
2
100
AcDbEntity
  8
KIJUN
100
AcDbSpline
210
0.0
220
0.0
230
1.0
 70
     8
 71
     3
 72
    10
 73
     6
 74
     4
 42
0.0000000001
 43
0.0000000001
 44
0.0000000001
 40
0.0
 40
0.0
 40
0.0
 40
0.0
 40
1.776054279387295
 40
4.654467381223925
 40
12.30314389503907
 40
12.30314389503907
 40
12.30314389503907
 40
12.30314389503907
 10
80.45054848384825
 20
48.52764513766214
 30
0.0
 10
79.88249965620884
 20
48.27438689931743
 30
0.0
 10
78.3938262694347
 20
47.61067846254127
 30
0.0
 10
77.74100373879686
 20
43.07261277663644
 30
0.0
 10
74.80359740834511
 20
40.88831240983409
 30
0.0
 10
72.6693635762465
 20
39.30126342244455
 30
0.0
 11
80.45054848384825
 21
48.52764513766214
 31
0.0
 11
78.92719824066194
 21
47.61453351255044
 31
0.0
 11
77.81627159898858
 21
44.9591420194472
 31
0.0
 11
72.6693635762465
 21
39.30126342244455
 31
0.0
  0
ELLIPSE
  5
2845
102
{ACAD_REACTORS
330
2905
102
}
330
2
100
AcDbEntity
  8
KIJUN
100
AcDbEllipse
 10
79.93096457317915
 20
49.77994642420014
 30
0.0
 11
-1.47820660800619
 21
-0.2547650369402947
 31
0.0
210
0.0
220
0.0
230
1.0
 40
0.8074274606412606
 41
0.0
 42
6.283185307179586
  0
ELLIPSE
  5
2846
102
{ACAD_REACTORS
330
2905
102
}
330
2
100
AcDbEntity
  8
KIJUN
100
AcDbEllipse
 10
79.51955600012479
 20
52.1670356399253
 30
0.0
 11
-1.47820660800619
 21
-0.2547650369402947
 31
0.0
210
0.0
220
0.0
230
1.0
 40
0.8074274606412606
 41
0.0
 42
6.283185307179586
  0
CIRCLE
  5
2847
102
{ACAD_REACTORS
330
2905
102
}
330
2
100
AcDbEntity
  8
KIJUN
100
AcDbCircle
 10
79.05908667285666
 20
54.83878685513537
 30
0.0
 40
1.499999999999897
  0
LINE
  5
2848
102
{ACAD_REACTORS
330
2905
102
}
330
2
100
AcDbEntity
  8
KIJUN
100
AcDbLine
 10
74.68962172297165
 20
80.19144923095666
 30
0.0
 11
77.14819731181046
 21
58.02969266158925
 31
0.0
  0
ARC
  5
2849
102
{ACAD_REACTORS
330
2905
102
}
330
2
100
AcDbEntity
  8
KIJUN
100
AcDbCircle
 10
78.70422111873541
 20
58.02445662232663
 30
0.0
 40
1.556032616568193
100
AcDbArc
 50
179.8071997244155
 51
272.7148079500551
  0
ARC
  5
284A
102
{ACAD_REACTORS
330
2905
102
}
330
2
100
AcDbEntity
  8
KIJUN
100
AcDbCircle
 10
78.32707126862101
 20
57.95945583354887
 30
0.0
 40
1.556032616568193
100
AcDbArc
 50
286.8426154212712
 51
19.75022364690663
  0
LINE
  5
284B
102
{ACAD_REACTORS
330
2905
102
}
330
2
100
AcDbEntity
  8
KIJUN
100
AcDbLine
 10
75.59453851672628
 20
80.15075231316428
 30
0.0
 11
79.79156979384902
 21
58.48527098493616
 31
0.0
  0
ARC
  5
284C
102
{ACAD_REACTORS
330
2905
102
}
330
2
100
AcDbEntity
  8
KIJUN
100
AcDbCircle
 10
74.74217708224546
 20
101.0628352522584
 30
0.0
 40
20.97406279862922
100
AcDbArc
 50
264.3283451600958
 51
303.4794281034309
  0
ARC
  5
284D
102
{ACAD_REACTORS
330
2905
102
}
330
2
100
AcDbEntity
  8
KIJUN
100
AcDbCircle
 10
84.94010479723987
 20
54.07354719596788
 30
0.0
 40
6.936251976012009
100
AcDbArc
 50
265.1195099267661
 51
336.808003137385
  0
SPLINE
  5
284E
102
{ACAD_REACTORS
330
2905
102
}
330
2
100
AcDbEntity
  8
KIJUN
100
AcDbSpline
210
0.0
220
0.0
230
1.0
 70
     8
 71
     3
 72
    10
 73
     6
 74
     4
 42
0.0000000001
 43
0.0000000001
 44
0.0000000001
 40
0.0
 40
0.0
 40
0.0
 40
0.0
 40
1.121741743170409
 40
2.975534078887588
 40
4.316624356842425
 40
4.316624356842425
 40
4.316624356842425
 40
4.316624356842425
 10
80.45054848384802
 20
48.52764513766214
 30
0.0
 10
80.84592332166369
 20
48.5775433953356
 30
0.0
 10
81.89469529704739
 20
48.70990359953447
 30
0.0
 10
82.75655793664613
 20
47.13929145397608
 30
0.0
 10
83.87887763142259
 20
47.15559867223394
 30
0.0
 10
84.34998477788894
 20
47.16244382259174
 30
0.0
 11
80.45054848384802
 21
48.52764513766214
 31
0.0
 11
81.57205475046657
 21
48.50466183271476
 31
0.0
 11
83.02201915892487
 21
47.34960805121022
 31
0.0
 11
84.34998477788894
 21
47.16244382259174
 31
0.0
  0
SPLINE
  5
284F
102
{ACAD_REACTORS
330
2905
102
}
330
2
100
AcDbEntity
  8
KIJUN
100
AcDbSpline
210
0.0
220
0.0
230
1.0
 70
     8
 71
     3
 72
    13
 73
     9
 74
     7
 42
0.0000000001
 43
0.0000000001
 44
0.0000000001
 40
0.0
 40
0.0
 40
0.0
 40
0.0
 40
2.849886195321986
 40
4.413403868290035
 40
5.959246609884198
 40
7.052435119802476
 40
9.203895946920246
 40
10.51914848696227
 40
10.51914848696227
 40
10.51914848696227
 40
10.51914848696227
 10
91.31584072403098
 20
51.34195739027688
 30
0.0
 10
91.57214268890305
 20
52.23478762610163
 30
0.0
 10
91.9690582166436
 20
53.61744649261472
 30
0.0
 10
92.19833704156764
 20
55.77745082353714
 30
0.0
 10
93.57413465398472
 20
56.38428138881398
 30
0.0
 10
95.20660731888046
 20
57.0027632897343
 30
0.0
 10
96.19727884585509
 20
55.26194089825997
 30
0.0
 10
97.38129107484045
 20
55.17426673109833
 30
0.0
 10
97.83049899216235
 20
55.14100362023725
 30
0.0
 11
91.31584072403098
 21
51.34195739027688
 31
0.0
 11
91.99004702629805
 21
54.11094586773038
 31
0.0
 11
92.42614923677479
 21
55.61241260918712
 31
0.0
 11
93.7344558682048
 21
56.43579802313104
 31
0.0
 11
94.80048297018857
 21
56.67797014384984
 31
0.0
 11
96.54489102665662
 21
55.41867501436207
 31
0.0
 11
97.83049899216235
 21
55.14100362023725
 31
0.0
  0
SPLINE
  5
2850
102
{ACAD_REACTORS
330
2905
102
}
330
2
100
AcDbEntity
  8
KIJUN
100
AcDbSpline
210
0.0
220
0.0
230
1.0
 70
     8
 71
     3
 72
    11
 73
     7
 74
     5
 42
0.0000000001
 43
0.0000000001
 44
0.0000000001
 40
0.0
 40
0.0
 40
0.0
 40
0.0
 40
3.220089869480895
 40
6.088833724895371
 40
9.38951789214761
 40
12.92641579314867
 40
12.92641579314867
 40
12.92641579314867
 40
12.92641579314867
 10
103.5709793155058
 20
59.82620720444447
 30
0.0
 10
103.5567812283041
 20
60.83088647179041
 30
0.0
 10
103.5299342160509
 20
62.73062382499209
 30
0.0
 10
101.586028663626
 20
66.66717008126027
 30
0.0
 10
106.3174632413875
 20
65.97774434697136
 30
0.0
 10
108.3396500657292
 20
65.62636078568321
 30
0.0
 10
109.3856730988791
 20
65.44459948937106
 30
0.0
 11
103.5709793155058
 21
59.82620720444447
 31
0.0
 11
103.1833331680061
 21
63.02287879093285
 31
0.0
 11
102.6018635540372
 21
65.83207518777112
 31
0.0
 11
105.8968569859428
 21
66.02581278259617
 31
0.0
 11
109.3856730988791
 21
65.44459948937106
 31
0.0
  0
ARC
  5
2851
102
{ACAD_REACTORS
330
2905
102
}
330
2
100
AcDbEntity
  8
KIJUN
100
AcDbCircle
 10
110.9888035259516
 20
72.00251064484189
 30
0.0
 40
6.751016655975198
100
AcDbArc
 50
256.2630269928044
 51
309.6667087237232
  0
LINE
  5
2852
102
{ACAD_REACTORS
330
2905
102
}
330
2
100
AcDbEntity
  8
KIJUN
100
AcDbLine
 10
82.38878996287189
 20
47.86775200090755
 30
0.0
 11
79.88310388518925
 21
57.95945583354887
 31
0.0
  0
ARC
  5
2853
102
{ACAD_REACTORS
330
2905
102
}
330
2
100
AcDbEntity
  8
KIJUN
100
AcDbCircle
 10
117.8364017240044
 20
101.4088796870954
 30
0.0
 40
39.5565519647471
100
AcDbArc
 50
209.4569973829888
 51
247.5000160682303
  0
ARC
  5
2854
102
{ACAD_REACTORS
330
2905
102
}
330
2
100
AcDbEntity
  8
KIJUN
100
AcDbCircle
 10
132.5538608921208
 20
93.86964333611842
 30
0.0
 40
52.85954842609616
100
AcDbArc
 50
193.9515480157063
 51
224.8465597532017
  0
ARC
  5
2855
102
{ACAD_REACTORS
330
2905
102
}
330
2
100
AcDbEntity
  8
KIJUN
100
AcDbCircle
 10
188.8880097908438
 20
113.3169156007824
 30
0.0
 40
113.8902601966766
100
AcDbArc
 50
196.6419541429426
 51
211.6144251341256
  0
CIRCLE
  5
2856
102
{ACAD_REACTORS
330
2905
102
}
330
2
100
AcDbEntity
  8
KIJUN
100
AcDbCircle
 10
89.18704231694482
 20
61.30895016943714
 30
0.0
 40
1.499999999999897
  0
ELLIPSE
  5
2857
102
{ACAD_REACTORS
330
2905
102
}
330
2
100
AcDbEntity
  8
KIJUN
100
AcDbEllipse
 10
90.72631183944031
 20
59.07714912668109
 30
0.0
 11
-1.234794255021099
 21
-0.8516355721593875
 31
0.0
210
0.0
220
0.0
230
1.0
 40
0.8074274606412604
 41
0.0
 42
6.283185307179586
  0
ELLIPSE
  5
2858
102
{ACAD_REACTORS
330
2905
102
}
330
2
100
AcDbEntity
  8
KIJUN
100
AcDbEllipse
 10
92.10157973376704
 20
57.08313554682558
 30
0.0
 11
-1.234794255021099
 21
-0.8516355721593875
 31
0.0
210
0.0
220
0.0
230
1.0
 40
0.8074274606412604
 41
0.0
 42
6.283185307179586
  0
ELLIPSE
  5
2859
102
{ACAD_REACTORS
330
2905
102
}
330
2
100
AcDbEntity
  8
KIJUN
100
AcDbEllipse
 10
101.8689125525354
 20
66.71483530794955
 30
0.0
 11
-0.7776521487744456
 21
-1.282675771778217
 31
0.0
210
0.0
220
0.0
230
1.0
 40
0.8074274606412606
 41
0.0
 42
6.283185307179586
  0
ELLIPSE
  5
285A
102
{ACAD_REACTORS
330
2905
102
}
330
2
100
AcDbEntity
  8
KIJUN
100
AcDbEllipse
 10
99.79757727038986
 20
67.97063070798606
 30
0.0
 11
-0.7776521487744456
 21
-1.282675771778217
 31
0.0
210
0.0
220
0.0
230
1.0
 40
0.8074274606412606
 41
0.0
 42
6.283185307179586
  0
ARC
  5
285B
102
{ACAD_REACTORS
330
2905
102
}
330
2
100
AcDbEntity
  8
KIJUN
100
AcDbCircle
 10
94.64394707700922
 20
70.87136291972843
 30
0.0
 40
1.556032616568193
100
AcDbArc
 50
335.8365866023918
 51
68.74419482802828
  0
ARC
  5
285C
102
{ACAD_REACTORS
330
2905
102
}
330
2
100
AcDbEntity
  8
KIJUN
100
AcDbCircle
 10
94.84235735995776
 20
71.19862500369698
 30
0.0
 40
1.556032616568193
100
AcDbArc
 50
228.8011709055457
 51
321.7087791311791
  0
CIRCLE
  5
285D
102
{ACAD_REACTORS
330
2905
102
}
330
2
100
AcDbEntity
  8
KIJUN
100
AcDbCircle
 10
97.47923385554258
 20
69.37618055347844
 30
0.0
 40
1.499999999999897
  0
ARC
  5
285E
102
{ACAD_REACTORS
330
2905
102
}
330
2
100
AcDbEntity
  8
KIJUN
100
AcDbCircle
 10
112.7987687984948
 20
100.2102432767265
 30
0.0
 40
32.97291014966841
100
AcDbArc
 50
212.0912361435852
 51
237.7584526007915
  0
ARC
  5
285F
102
{ACAD_REACTORS
330
2905
102
}
330
2
100
AcDbEntity
  8
KIJUN
100
AcDbCircle
 10
87.81448563636946
 20
63.59666550388465
 30
0.0
 40
1.185435248382448
100
AcDbArc
 50
195.857552002919
 51
45.94442208042162
  0
ARC
  5
2860
102
{ACAD_REACTORS
330
2905
102
}
330
2
100
AcDbEntity
  8
KIJUN
100
AcDbCircle
 10
-43.54928263835086
 20
113.3169156007824
 30
0.0
 40
113.8902601966766
100
AcDbArc
 50
328.3855748658743
 51
343.358045857057
  0
LINE
  5
2861
102
{ACAD_REACTORS
330
2905
102
}
330
2
100
AcDbEntity
  8
KIJUN
100
AcDbLine
 10
62.9499371896211
 20
47.86775200090755
 30
0.0
 11
65.45562326730373
 21
57.95945583354887
 31
0.0
  0
SPLINE
  5
2862
102
{ACAD_REACTORS
330
2905
102
}
330
2
100
AcDbEntity
  8
KIJUN
100
AcDbSpline
210
0.0
220
0.0
230
1.0
 70
     8
 71
     3
 72
    13
 73
     9
 74
     7
 42
0.0000000001
 43
0.0000000001
 44
0.0000000001
 40
0.0
 40
0.0
 40
0.0
 40
0.0
 40
2.849886195321986
 40
4.413403868290035
 40
5.959246609884198
 40
7.052435119802476
 40
9.203895946920246
 40
10.51914848696227
 40
10.51914848696227
 40
10.51914848696227
 40
10.51914848696227
 10
54.02288642846201
 20
51.34195739027688
 30
0.0
 10
53.76658446358995
 20
52.23478762610163
 30
0.0
 10
53.36966893584939
 20
53.61744649261472
 30
0.0
 10
53.14039011092535
 20
55.77745082353714
 30
0.0
 10
51.76459249850825
 20
56.38428138881398
 30
0.0
 10
50.13211983361253
 20
57.0027632897343
 30
0.0
 10
49.14144830663789
 20
55.26194089825997
 30
0.0
 10
47.95743607765253
 20
55.17426673109833
 30
0.0
 10
47.50822816033064
 20
55.14100362023725
 30
0.0
 11
54.02288642846201
 21
51.34195739027688
 31
0.0
 11
53.34868012619494
 21
54.11094586773038
 31
0.0
 11
52.9125779157182
 21
55.61241260918712
 31
0.0
 11
51.60427128428819
 21
56.43579802313104
 31
0.0
 11
50.53824418230442
 21
56.67797014384984
 31
0.0
 11
48.79383612583637
 21
55.41867501436207
 31
0.0
 11
47.50822816033064
 21
55.14100362023725
 31
0.0
  0
SPLINE
  5
2863
102
{ACAD_REACTORS
330
2905
102
}
330
2
100
AcDbEntity
  8
KIJUN
100
AcDbSpline
210
0.0
220
0.0
230
1.0
 70
     8
 71
     3
 72
    11
 73
     7
 74
     5
 42
0.0000000001
 43
0.0000000001
 44
0.0000000001
 40
0.0
 40
0.0
 40
0.0
 40
0.0
 40
8.531689749899282
 40
13.56037911578455
 40
17.93959063459913
 40
20.82204808406524
 40
20.82204808406524
 40
20.82204808406524
 40
20.82204808406524
 10
68.19053865032583
 20
58.02445662232663
 30
0.0
 10
67.93204221291588
 20
55.23399936696444
 30
0.0
 10
67.52118459922923
 20
50.7988101607993
 30
0.0
 10
67.0053409414013
 20
44.51103907249857
 30
0.0
 10
69.91572754290763
 20
41.22243447479052
 30
0.0
 10
71.88691683114973
 20
39.84716492085716
 30
0.0
 10
72.6693635762465
 20
39.30126342244478
 30
0.0
 11
68.19053865032583
 21
58.02445662232663
 31
0.0
 11
67.42333674179826
 21
49.52733174269304
 31
0.0
 11
67.7004621514136
 21
44.50628421793157
 31
0.0
 11
70.36166741006536
 21
41.02842854268533
 31
0.0
 11
72.6693635762465
 21
39.30126342244478
 31
0.0
  0
CIRCLE
  5
2864
102
{ACAD_REACTORS
330
2905
102
}
330
2
100
AcDbEntity
  8
KIJUN
100
AcDbCircle
 10
66.27964047963633
 20
54.83878685513537
 30
0.0
 40
1.499999999999897
  0
ARC
  5
2865
102
{ACAD_REACTORS
330
2905
102
}
330
2
100
AcDbEntity
  8
KIJUN
100
AcDbCircle
 10
48.43238439164792
 20
62.79715470300368
 30
0.0
 40
14.71172575640682
100
AcDbArc
 50
194.1871870819549
 51
263.1172584786532
  0
SPLINE
  5
2866
102
{ACAD_REACTORS
330
2905
102
}
330
2
100
AcDbEntity
  8
KIJUN
100
AcDbSpline
210
0.0
220
0.0
230
1.0
 70
     8
 71
     3
 72
    10
 73
     6
 74
     4
 42
0.0000000001
 43
0.0000000001
 44
0.0000000001
 40
0.0
 40
0.0
 40
0.0
 40
0.0
 40
1.121741743170409
 40
2.975534078887588
 40
4.316624356842425
 40
4.316624356842425
 40
4.316624356842425
 40
4.316624356842425
 10
64.88817866864497
 20
48.52764513766214
 30
0.0
 10
64.4928038308293
 20
48.5775433953356
 30
0.0
 10
63.44403185544559
 20
48.70990359953447
 30
0.0
 10
62.58216921584685
 20
47.13929145397608
 30
0.0
 10
61.45984952107038
 20
47.15559867223394
 30
0.0
 10
60.98874237460404
 20
47.16244382259174
 30
0.0
 11
64.88817866864497
 21
48.52764513766214
 31
0.0
 11
63.76667240202642
 21
48.50466183271476
 31
0.0
 11
62.31670799356812
 21
47.34960805121022
 31
0.0
 11
60.98874237460404
 21
47.16244382259174
 31
0.0
  0
ARC
  5
2867
102
{ACAD_REACTORS
330
2905
102
}
330
2
100
AcDbEntity
  8
KIJUN
100
AcDbCircle
 10
60.39862235525311
 20
54.07354719596788
 30
0.0
 40
6.936251976012009
100
AcDbArc
 50
203.1919968626149
 51
274.880490073234
  0
SPLINE
  5
2868
102
{ACAD_REACTORS
330
2905
102
}
330
2
100
AcDbEntity
  8
KIJUN
100
AcDbSpline
210
0.0
220
0.0
230
1.0
 70
     8
 71
     3
 72
    10
 73
     6
 74
     4
 42
0.0000000001
 43
0.0000000001
 44
0.0000000001
 40
0.0
 40
0.0
 40
0.0
 40
0.0
 40
1.776054279387295
 40
4.654467381223925
 40
12.30314389503907
 40
12.30314389503907
 40
12.30314389503907
 40
12.30314389503907
 10
64.88817866864474
 20
48.52764513766214
 30
0.0
 10
65.45622749628417
 20
48.27438689931743
 30
0.0
 10
66.94490088305831
 20
47.61067846254127
 30
0.0
 10
67.59772341369613
 20
43.07261277663644
 30
0.0
 10
70.53512974414785
 20
40.88831240983409
 30
0.0
 10
72.6693635762465
 20
39.30126342244455
 30
0.0
 11
64.88817866864474
 21
48.52764513766214
 31
0.0
 11
66.41152891183105
 21
47.61453351255044
 31
0.0
 11
67.52245555350441
 21
44.9591420194472
 31
0.0
 11
72.6693635762465
 21
39.30126342244455
 31
0.0
  0
ELLIPSE
  5
2869
102
{ACAD_REACTORS
330
2905
102
}
330
2
100
AcDbEntity
  8
KIJUN
100
AcDbEllipse
 10
65.40776257931383
 20
49.77994642420014
 30
0.0
 11
1.47820660800619
 21
-0.2547650369402947
 31
0.0
210
0.0
220
0.0
230
-1.0
 40
0.8074274606412606
 41
0.0
 42
6.283185307179586
  0
ELLIPSE
  5
286A
102
{ACAD_REACTORS
330
2905
102
}
330
2
100
AcDbEntity
  8
KIJUN
100
AcDbEllipse
 10
65.81917115236819
 20
52.1670356399253
 30
0.0
 11
1.47820660800619
 21
-0.2547650369402947
 31
0.0
210
0.0
220
0.0
230
-1.0
 40
0.8074274606412606
 41
0.0
 42
6.283185307179586
  0
ARC
  5
286B
102
{ACAD_REACTORS
330
2905
102
}
330
2
100
AcDbEntity
  8
KIJUN
100
AcDbCircle
 10
60.39862235525311
 20
54.07354719596788
 30
0.0
 40
14.93625197601201
100
AcDbArc
 50
203.1919968626149
 51
274.880490073234
  0
ARC
  5
286C
102
{ACAD_REACTORS
330
2905
102
}
330
2
100
AcDbEntity
  8
KIJUN
100
AcDbCircle
 10
74.65665847643368
 20
47.45719835982209
 30
0.0
 40
15.39455869733736
100
AcDbArc
 50
212.4746679702717
 51
262.5829474480279
  0
SPLINE
  5
286D
102
{ACAD_REACTORS
330
2905
102
}
330
2
100
AcDbEntity
  8
KIJUN
100
AcDbSpline
210
0.0
220
0.0
230
1.0
 70
     8
 71
     3
 72
    20
 73
    16
 74
    14
 42
0.0000000001
 43
0.0000000001
 44
0.0000000001
 40
0.0
 40
0.0
 40
0.0
 40
0.0
 40
5.90956649452069
 40
9.882067793100292
 40
13.31589257631752
 40
16.45930527973306
 40
21.84158981511529
 40
35.23809508733856
 40
46.23365989522135
 40
55.75940463119433
 40
75.09720359419188
 40
83.68631144994017
 40
96.88798152456378
 40
105.8103570745184
 40
110.1452863379449
 40
110.1452863379449
 40
110.1452863379449
 40
110.1452863379449
 10
-9.115370813987055
 20
128.9419641612255
 30
0.0
 10
-7.515842362765337
 20
130.1084503806286
 30
0.0
 10
-4.841086336816303
 20
132.0590665401299
 30
0.0
 10
0.0444992106952835
 20
132.4981074116348
 30
0.0
 10
2.686973838713661
 20
129.0224185956029
 30
0.0
 10
0.4774392032038041
 20
125.1838277302266
 30
0.0
 10
-5.076087456365563
 20
120.4387368708441
 30
0.0
 10
-5.789899679447654
 20
109.4459571207414
 30
0.0
 10
-5.516385371060431
 20
98.32386285125609
 30
0.0
 10
-1.179505836893425
 20
85.57972010118822
 30
0.0
 10
8.725590721676415
 20
75.80275443719131
 30
0.0
 10
22.43504143603157
 20
73.75892429181212
 30
0.0
 10
32.68693853916202
 20
73.02874713343078
 30
0.0
 10
41.45424563699473
 20
75.08225720165258
 30
0.0
 10
45.32631308694795
 20
77.22691895110457
 30
0.0
 10
46.59241798044194
 20
77.92818946639568
 30
0.0
 11
-9.115370813987055
 21
128.9419641612255
 31
0.0
 11
-3.976706866639233
 21
131.8603728011163
 31
0.0
 11
-0.0059211508091721
 21
131.7436364906702
 31
0.0
 11
1.979471707105858
 21
128.9419641612254
 31
0.0
 11
0.8115934755880971
 21
126.0235564000753
 31
0.0
 11
-2.692041218965414
 21
121.9377846557245
 31
0.0
 11
-5.611737476086091
 21
108.8633161282905
 31
0.0
 11
-4.911010265844879
 21
97.89010206762544
 31
0.0
 11
-1.757737819759768
 21
88.90140440580159
 31
0.0
 11
12.49037579076594
 21
75.82693587836764
 31
0.0
 11
20.89909824370284
 21
74.07589034293687
 31
0.0
 11
34.09612239551916
 21
73.72568141159888
 31
0.0
 11
42.73841968076794
 21
75.94367218881359
 31
0.0
 11
46.59241798044194
 21
77.92818946639568
 31
0.0
  0
ARC
  5
286E
102
{ACAD_REACTORS
330
2905
102
}
330
2
100
AcDbEntity
  8
KIJUN
100
AcDbCircle
 10
17.92028449901431
 20
104.8129543569757
 30
0.0
 40
36.23721529501132
100
AcDbArc
 50
138.2514569865556
 51
247.7488515229062
  0
LINE
  5
286F
102
{ACAD_REACTORS
330
2905
102
}
330
2
100
AcDbEntity
  8
KIJUN
100
AcDbLine
 10
10.16936357624649
 20
142.1914492309566
 30
0.0
 11
-13.83063642375373
 21
142.1914492309566
 31
0.0
  0
LINE
  5
2870
102
{ACAD_REACTORS
330
2905
102
}
330
2
100
AcDbEntity
  8
KIJUN
100
AcDbLine
 10
7.669363576246496
 20
154.1914492309566
 30
0.0
 11
-11.3306364237535
 21
154.1914492309566
 31
0.0
  0
ARC
  5
2871
102
{ACAD_REACTORS
330
2905
102
}
330
2
100
AcDbEntity
  8
KIJUN
100
AcDbCircle
 10
15.86753660977515
 20
105.557185286975
 30
0.0
 40
40.69817303352724
100
AcDbArc
 50
134.0954920401526
 51
284.6660992947704
  0
ARC
  5
2872
102
{ACAD_REACTORS
330
2905
102
}
330
2
100
AcDbEntity
  8
KIJUN
100
AcDbCircle
 10
25.99422736956785
 20
91.58855600143864
 30
0.0
 40
42.03847107039231
100
AcDbArc
 50
22.20018859912697
 51
60.54007638638674
  0
ARC
  5
2873
102
{ACAD_REACTORS
330
2905
102
}
330
2
100
AcDbEntity
  8
KIJUN
100
AcDbCircle
 10
-3.259684145479468
 20
105.7739274962427
 30
0.0
 40
70.47517081997944
100
AcDbArc
 50
1.845090215519857
 51
30.16906177508319
  0
ARC
  5
2874
102
{ACAD_REACTORS
330
2905
102
}
330
2
100
AcDbEntity
  8
KIJUN
100
AcDbCircle
 10
-69.98761371030332
 20
104.0851879973382
 30
0.0
 40
140.7914281643481
100
AcDbArc
 50
1.746234685816195
 51
16.9756734955904
  0
SPLINE
  5
2875
102
{ACAD_REACTORS
330
2905
102
}
330
2
100
AcDbEntity
  8
KIJUN
100
AcDbSpline
210
0.0
220
0.0
230
1.0
 70
     8
 71
     3
 72
    11
 73
     7
 74
     5
 42
0.0000000001
 43
0.0000000001
 44
0.0000000001
 40
0.0
 40
0.0
 40
0.0
 40
0.0
 40
7.741952708482847
 40
20.3163362683856
 40
32.54947339679882
 40
41.91356141451863
 40
41.91356141451863
 40
41.91356141451863
 40
41.91356141451863
 10
12.16936357624649
 20
128.1914492309566
 30
0.0
 10
10.18545001666246
 20
126.4521774497866
 30
0.0
 10
4.979288661561949
 20
121.8880020151257
 30
0.0
 10
2.905429027044762
 20
110.7606413561662
 30
0.0
 10
1.459756384864306
 20
99.00658211837132
 30
0.0
 10
5.421119440729989
 20
92.75668853794021
 30
0.0
 10
7.1386804734218
 20
90.04687034636493
 30
0.0
 11
12.16936357624649
 21
128.1914492309566
 31
0.0
 11
6.785662391096821
 21
122.6278538745883
 31
0.0
 11
3.02013339071459
 21
110.6305244526364
 31
0.0
 11
2.902460696606112
 21
98.39795329446928
 31
0.0
 11
7.1386804734218
 21
90.04687034636493
 31
0.0
  0
ARC
  5
2876
102
{ACAD_REACTORS
330
2905
102
}
330
2
100
AcDbEntity
  8
KIJUN
100
AcDbCircle
 10
15.84053697631725
 20
123.6292360561247
 30
0.0
 40
5.855877661460949
100
AcDbArc
 50
5.509359534727356
 51
128.8233321094383
  0
ARC
  5
2877
102
{ACAD_REACTORS
330
2905
102
}
330
2
100
AcDbEntity
  8
KIJUN
100
AcDbCircle
 10
52.00675756488863
 20
120.4986526660183
 30
0.0
 40
9.36306005425153
100
AcDbArc
 50
124.7535754713343
 51
175.7566619347782
  0
SPLINE
  5
2878
102
{ACAD_REACTORS
330
2905
102
}
330
2
100
AcDbEntity
  8
KIJUN
100
AcDbSpline
210
0.0
220
0.0
230
1.0
 70
     8
 71
     3
 72
    11
 73
     7
 74
     5
 42
0.0000000001
 43
0.0000000001
 44
0.0000000001
 40
0.0
 40
0.0
 40
0.0
 40
0.0
 40
3.220089869480895
 40
6.088833724895371
 40
9.38951789214761
 40
12.92641579314867
 40
12.92641579314867
 40
12.92641579314867
 40
12.92641579314867
 10
41.76774783698715
 20
59.82620720444447
 30
0.0
 10
41.7819459241888
 20
60.83088647179041
 30
0.0
 10
41.80879293644204
 20
62.73062382499209
 30
0.0
 10
43.75269848886692
 20
66.66717008126027
 30
0.0
 10
39.02126391110549
 20
65.97774434697136
 30
0.0
 10
36.99907708676383
 20
65.62636078568321
 30
0.0
 10
35.95305405361387
 20
65.44459948937106
 30
0.0
 11
41.76774783698715
 21
59.82620720444447
 31
0.0
 11
42.15539398448686
 21
63.02287879093285
 31
0.0
 11
42.73686359845578
 21
65.83207518777112
 31
0.0
 11
39.44187016655019
 21
66.02581278259617
 31
0.0
 11
35.95305405361387
 21
65.44459948937106
 31
0.0
  0
SPLINE
  5
2879
102
{ACAD_REACTORS
330
2905
102
}
330
2
100
AcDbEntity
  8
KIJUN
100
AcDbSpline
210
0.0
220
0.0
230
1.0
 70
     8
 71
     3
 72
    13
 73
     9
 74
     7
 42
0.0000000001
 43
0.0000000001
 44
0.0000000001
 40
0.0
 40
0.0
 40
0.0
 40
0.0
 40
4.193730533309526
 40
8.879518488719474
 40
14.51736413524208
 40
20.83691220139993
 40
24.78854844604859
 40
28.21922461752075
 40
28.21922461752075
 40
28.21922461752075
 40
28.21922461752075
 10
47.6693635762465
 20
109.7338491911381
 30
0.0
 10
46.33861057039238
 20
110.2999312928258
 30
0.0
 10
43.52096508135913
 20
111.4985148565873
 30
0.0
 10
38.49156527767192
 20
108.9908117315945
 30
0.0
 10
37.63291981884393
 20
102.4531829068353
 30
0.0
 10
43.2057088107054
 20
98.43961372783383
 30
0.0
 10
47.97426580124253
 20
101.3082956684043
 30
0.0
 10
47.84871032239823
 20
103.9162620928834
 30
0.0
 10
47.7903627254409
 20
105.1282249256838
 30
0.0
 11
47.6693635762465
 21
109.7338491911381
 31
0.0
 11
43.61942620483091
 21
110.8226021813172
 31
0.0
 11
39.4484896842207
 21
108.6872105769259
 31
0.0
 11
38.73637887262862
 21
103.0945187629577
 31
0.0
 11
44.02634702199771
 21
99.63721855338087
 31
0.0
 11
47.38344190827433
 21
101.7217671698819
 31
0.0
 11
47.7903627254409
 21
105.1282249256838
 31
0.0
  0
ARC
  5
287A
102
{ACAD_REACTORS
330
2905
102
}
330
2
100
AcDbEntity
  8
KIJUN
100
AcDbCircle
 10
51.04563111535367
 20
109.3117413126267
 30
0.0
 40
21.98095095543128
100
AcDbArc
 50
193.4703561902551
 51
242.7303980142946
  0
ARC
  5
287B
102
{ACAD_REACTORS
330
2905
102
}
330
2
100
AcDbEntity
  8
KIJUN
100
AcDbCircle
 10
29.73035098272567
 20
101.257012144884
 30
0.0
 40
16.07156009224428
100
AcDbArc
 50
271.565292840819
 51
314.3970547533049
  0
SPLINE
  5
287C
102
{ACAD_REACTORS
330
2905
102
}
330
2
100
AcDbEntity
  8
KIJUN
100
AcDbSpline
210
0.0
220
0.0
230
1.0
 70
     8
 71
     3
 72
    12
 73
     8
 74
     6
 42
0.0000000001
 43
0.0000000001
 44
0.0000000001
 40
0.0
 40
0.0
 40
0.0
 40
0.0
 40
13.34037241125381
 40
32.52901200535368
 40
50.49464047231746
 40
70.3041557706011
 40
86.50227611800273
 40
86.50227611800273
 40
86.50227611800273
 40
86.50227611800273
 10
42.66936357624603
 20
121.1914492309506
 30
0.0
 10
47.00156837329673
 20
119.838812443492
 30
0.0
 10
57.56516716264029
 20
116.5405583212154
 30
0.0
 10
66.58842322168561
 20
99.01316070010867
 30
0.0
 10
58.73262450996762
 20
80.10252474476466
 30
0.0
 10
43.523850860855
 20
68.87353557047795
 30
0.0
 10
31.55565072422361
 20
67.01921966253874
 30
0.0
 10
26.17172749020326
 20
66.18505125074801
 30
0.0
 11
42.66936357624603
 21
121.1914492309506
 31
0.0
 11
54.86696003041948
 21
115.7892111010569
 31
0.0
 11
63.66936357624649
 21
98.73865154165628
 31
0.0
 11
57.75759660797757
 21
81.77354566147199
 31
0.0
 11
41.95481587766676
 21
69.82829482515001
 31
0.0
 11
26.17172749020326
 21
66.18505125074801
 31
0.0
  0
ARC
  5
287D
102
{ACAD_REACTORS
330
2905
102
}
330
2
100
AcDbEntity
  8
KIJUN
100
AcDbCircle
 10
43.51434175588474
 20
112.0014928716798
 30
0.0
 40
9.228720713591753
100
AcDbArc
 50
95.2533373529806
 51
137.8767650011776
  0
ARC
  5
287E
102
{ACAD_REACTORS
330
2905
102
}
330
2
100
AcDbEntity
  8
KIJUN
100
AcDbCircle
 10
57.52424151612354
 20
63.59666550388465
 30
0.0
 40
1.185435248382448
100
AcDbArc
 50
134.0555779195784
 51
344.1424479970809
  0
ELLIPSE
  5
287F
102
{ACAD_REACTORS
330
2905
102
}
330
2
100
AcDbEntity
  8
KIJUN
100
AcDbEllipse
 10
53.23714741872596
 20
57.08313554682558
 30
0.0
 11
1.234794255021099
 21
-0.8516355721593875
 31
0.0
210
0.0
220
0.0
230
-1.0
 40
0.8074274606412604
 41
0.0
 42
6.283185307179586
  0
ELLIPSE
  5
2880
102
{ACAD_REACTORS
330
2905
102
}
330
2
100
AcDbEntity
  8
KIJUN
100
AcDbEllipse
 10
54.61241531305268
 20
59.07714912668109
 30
0.0
 11
1.234794255021099
 21
-0.8516355721593875
 31
0.0
210
0.0
220
0.0
230
-1.0
 40
0.8074274606412604
 41
0.0
 42
6.283185307179586
  0
CIRCLE
  5
2881
102
{ACAD_REACTORS
330
2905
102
}
330
2
100
AcDbEntity
  8
KIJUN
100
AcDbCircle
 10
56.15168483554817
 20
61.30895016943714
 30
0.0
 40
1.499999999999897
  0
ARC
  5
2882
102
{ACAD_REACTORS
330
2905
102
}
330
2
100
AcDbEntity
  8
KIJUN
100
AcDbCircle
 10
32.53995835399815
 20
100.2102432767265
 30
0.0
 40
32.97291014966841
100
AcDbArc
 50
302.2415473992085
 51
327.9087638564148
  0
CIRCLE
  5
2883
102
{ACAD_REACTORS
330
2905
102
}
330
2
100
AcDbEntity
  8
KIJUN
100
AcDbCircle
 10
47.8594932969504
 20
69.37618055347844
 30
0.0
 40
1.499999999999897
  0
ARC
  5
2884
102
{ACAD_REACTORS
330
2905
102
}
330
2
100
AcDbEntity
  8
KIJUN
100
AcDbCircle
 10
50.49636979253524
 20
71.19862500369698
 30
0.0
 40
1.556032616568193
100
AcDbArc
 50
218.2912208688209
 51
311.1988290944543
  0
ARC
  5
2885
102
{ACAD_REACTORS
330
2905
102
}
330
2
100
AcDbEntity
  8
KIJUN
100
AcDbCircle
 10
50.69478007548378
 20
70.87136291972843
 30
0.0
 40
1.556032616568193
100
AcDbArc
 50
111.2558051719717
 51
204.1634133976081
  0
ELLIPSE
  5
2886
102
{ACAD_REACTORS
330
2905
102
}
330
2
100
AcDbEntity
  8
KIJUN
100
AcDbEllipse
 10
45.54114988210312
 20
67.97063070798606
 30
0.0
 11
0.7776521487744456
 21
-1.282675771778217
 31
0.0
210
0.0
220
0.0
230
-1.0
 40
0.8074274606412606
 41
0.0
 42
6.283185307179586
  0
ELLIPSE
  5
2887
102
{ACAD_REACTORS
330
2905
102
}
330
2
100
AcDbEntity
  8
KIJUN
100
AcDbEllipse
 10
43.46981459995754
 20
66.71483530794955
 30
0.0
 11
0.7776521487744456
 21
-1.282675771778217
 31
0.0
210
0.0
220
0.0
230
-1.0
 40
0.8074274606412606
 41
0.0
 42
6.283185307179586
  0
ARC
  5
2888
102
{ACAD_REACTORS
330
2905
102
}
330
2
100
AcDbEntity
  8
KIJUN
100
AcDbCircle
 10
12.78486626037215
 20
93.86964333611842
 30
0.0
 40
52.85954842609616
100
AcDbArc
 50
315.1534402467984
 51
346.0484519842936
  0
ARC
  5
2889
102
{ACAD_REACTORS
330
2905
102
}
330
2
100
AcDbEntity
  8
KIJUN
100
AcDbCircle
 10
27.50232542848858
 20
101.4088796870954
 30
0.0
 40
39.5565519647471
100
AcDbArc
 50
292.4999839317698
 51
330.5430026170112
  0
ARC
  5
288A
102
{ACAD_REACTORS
330
2905
102
}
330
2
100
AcDbEntity
  8
KIJUN
100
AcDbCircle
 10
47.77359490350181
 20
61.32546402434752
 30
0.0
 40
6.190151048107713
100
AcDbArc
 50
194.0164439313183
 51
267.5430235599914
  0
ARC
  5
288B
102
{ACAD_REACTORS
330
2905
102
}
330
2
100
AcDbEntity
  8
KIJUN
100
AcDbCircle
 10
70.59655007024753
 20
101.0628352522584
 30
0.0
 40
20.97406279862922
100
AcDbArc
 50
236.5205718965691
 51
275.6716548399042
  0
LINE
  5
288C
102
{ACAD_REACTORS
330
2905
102
}
330
2
100
AcDbEntity
  8
KIJUN
100
AcDbLine
 10
70.64910542952134
 20
80.19144923095666
 30
0.0
 11
68.19052984068253
 21
58.02969266158925
 31
0.0
  0
ARC
  5
288D
102
{ACAD_REACTORS
330
2905
102
}
330
2
100
AcDbEntity
  8
KIJUN
100
AcDbCircle
 10
66.63450603375759
 20
58.02445662232663
 30
0.0
 40
1.556032616568193
100
AcDbArc
 50
267.2851920499449
 51
0.1928002755844205
  0
ARC
  5
288E
102
{ACAD_REACTORS
330
2905
102
}
330
2
100
AcDbEntity
  8
KIJUN
100
AcDbCircle
 10
67.01165588387198
 20
57.95945583354887
 30
0.0
 40
1.556032616568193
100
AcDbArc
 50
160.249776353093
 51
253.1573845787288
  0
LINE
  5
288F
102
{ACAD_REACTORS
330
2905
102
}
330
2
100
AcDbEntity
  8
KIJUN
100
AcDbLine
 10
69.7441886357667
 20
80.15075231316428
 30
0.0
 11
65.54715735864397
 21
58.48527098493616
 31
0.0
  0
SPLINE
  5
2890
102
{ACAD_REACTORS
330
2905
102
}
330
2
100
AcDbEntity
  8
KIJUN
100
AcDbSpline
210
0.0
220
0.0
230
1.0
 70
     8
 71
     3
 72
    12
 73
     8
 74
     6
 42
0.0000000001
 43
0.0000000001
 44
0.0000000001
 40
0.0
 40
0.0
 40
0.0
 40
0.0
 40
6.38903239964275
 40
13.6800094336894
 40
20.92046129660901
 40
26.51888645716768
 40
30.48636298149414
 40
30.48636298149414
 40
30.48636298149414
 40
30.48636298149414
 10
47.6693635762465
 20
109.7338491911381
 30
0.0
 10
49.56529005921172
 20
108.5580545371633
 30
0.0
 10
53.62479242986741
 20
106.0404773905273
 30
0.0
 10
54.32590147295075
 20
98.19538367003097
 30
0.0
 10
50.93613342862359
 20
91.97048784028579
 30
0.0
 10
45.50805136902993
 20
89.44785161458677
 30
0.0
 10
42.3035255229017
 20
89.67820430114993
 30
0.0
 10
40.97444213014637
 20
89.77374353062987
 30
0.0
 11
47.6693635762465
 21
109.7338491911381
 31
0.0
 11
52.5716800595012
 21
105.6366515998943
 31
0.0
 11
53.58898169011832
 21
98.41699485574508
 31
0.0
 11
50.02842598295865
 21
92.11250548423619
 31
0.0
 11
44.94191865447283
 21
89.77374353062987
 31
0.0
 11
40.97444213014637
 21
89.77374353062987
 31
0.0
  0
ARC
  5
2891
102
{ACAD_REACTORS
330
2905
102
}
330
2
100
AcDbEntity
  8
KIJUN
100
AcDbCircle
 10
70.73843029275872
 20
89.1545103527468
 30
0.0
 40
19.22099043098082
100
AcDbArc
 50
84.2343622871949
 51
117.1097395943594
  0
ARC
  5
2892
102
{ACAD_REACTORS
330
2905
102
}
330
2
100
AcDbEntity
  8
KIJUN
100
AcDbCircle
 10
70.73843029275872
 20
89.1545103527468
 30
0.0
 40
10.22099043098082
100
AcDbArc
 50
79.11032929399034
 51
133.9147530710927
  0
ARC
  5
2893
102
{ACAD_REACTORS
330
2905
102
}
330
2
100
AcDbEntity
  8
KIJUN
100
AcDbCircle
 10
34.34992362654134
 20
72.00251064484189
 30
0.0
 40
6.751016655975198
100
AcDbArc
 50
230.3332912762768
 51
283.7369730071956
  0
SPLINE
  5
2894
102
{ACAD_REACTORS
330
2905
102
}
330
2
100
AcDbEntity
  8
KIJUN
100
AcDbSpline
210
0.0
220
0.0
230
1.0
 70
     8
 71
     3
 72
     9
 73
     5
 74
     3
 42
0.0000000001
 43
0.0000000001
 44
0.0000000001
 40
0.0
 40
0.0
 40
0.0
 40
0.0
 40
3.265148496504272
 40
8.006823369976501
 40
8.006823369976501
 40
8.006823369976501
 40
8.006823369976501
 10
0.9453212311170773
 20
126.210487224092
 30
0.0
 10
2.135683078884549
 20
126.5125857803042
 30
0.0
 10
5.054697963395035
 20
127.2533942864119
 30
0.0
 10
6.06168007164917
 20
124.2281705693868
 30
0.0
 10
6.658019161462107
 20
122.4366202100471
 30
0.0
 11
0.9453212311170773
 21
126.210487224092
 31
0.0
 11
4.198440753985323
 21
126.4905016418594
 31
0.0
 11
6.658019161462107
 21
122.4366202100471
 31
0.0
  0
SPLINE
  5
2895
102
{ACAD_REACTORS
330
2905
102
}
330
2
100
AcDbEntity
  8
KIJUN
100
AcDbSpline
210
0.0
220
0.0
230
1.0
 70
     8
 71
     3
 72
    13
 73
     9
 74
     7
 42
0.0000000001
 43
0.0000000001
 44
0.0000000001
 40
0.0
 40
0.0
 40
0.0
 40
0.0
 40
9.955845570355805
 40
26.48454731325553
 40
41.86135630439209
 40
54.3115725728878
 40
65.97067291592168
 40
68.97732330135281
 40
68.97732330135281
 40
68.97732330135281
 40
68.97732330135281
 10
21.66936357624627
 20
124.1914492309588
 30
0.0
 10
18.63870404470447
 20
122.5424061675936
 30
0.0
 10
10.57654145025004
 20
118.1556206630722
 30
0.0
 10
8.075110639421886
 20
103.020822905756
 30
0.0
 10
10.07373017833324
 20
87.1289466225693
 30
0.0
 10
22.7550785531856
 20
80.48237417076345
 30
0.0
 10
32.52094018858809
 20
80.10904685019983
 30
0.0
 10
36.65144956649807
 20
82.7923681784684
 30
0.0
 10
37.49825228686723
 20
83.34248042674323
 30
0.0
 11
21.66936357624627
 21
124.1914492309588
 31
0.0
 11
13.49301013864556
 21
118.5111230533341
 31
0.0
 11
8.903772279504664
 21
102.632304546343
 31
0.0
 11
12.55162719132113
 21
87.69445298421283
 31
0.0
 11
23.25984793301131
 21
81.34292610640216
 31
0.0
 11
34.90945162202593
 21
81.81340957883254
 31
0.0
 11
37.49825228686723
 21
83.34248042674323
 31
0.0
  0
SPLINE
  5
2896
102
{ACAD_REACTORS
330
2905
102
}
330
2
100
AcDbEntity
  8
KIJUN
100
AcDbSpline
210
0.0
220
0.0
230
1.0
 70
     8
 71
     3
 72
    14
 73
    10
 74
     8
 42
0.0000000001
 43
0.0000000001
 44
0.0000000001
 40
0.0
 40
0.0
 40
0.0
 40
0.0
 40
2.981709361043556
 40
5.463223084877526
 40
8.995364228139273
 40
17.31598830936258
 40
27.19764608845689
 40
34.77364680717145
 40
39.9034290691981
 40
39.9034290691981
 40
39.9034290691981
 40
39.9034290691981
 10
25.66936357625105
 20
106.1914492309587
 30
0.0
 10
26.06571761298924
 20
107.1523750485407
 30
0.0
 10
26.79193545017463
 20
108.9130269008165
 30
0.0
 10
25.00782641268626
 20
111.9624889824657
 30
0.0
 10
19.48740367666323
 20
111.3947472143835
 30
0.0
 10
14.48713319695827
 20
105.4098123269999
 30
0.0
 10
12.94275549864278
 20
96.50281650507274
 30
0.0
 10
16.27018770100436
 20
89.11885727988039
 30
0.0
 10
19.90826284514431
 20
86.84726430762452
 30
0.0
 10
21.37708482727771
 20
85.93014040008688
 30
0.0
 11
25.66936357625105
 21
106.1914492309587
 31
0.0
 11
26.31934076874359
 21
109.1014527297494
 31
0.0
 11
25.02493973909418
 21
111.2186292306626
 31
0.0
 11
21.49475752138596
 21
111.336249661282
 31
0.0
 11
15.49344593848741
 21
105.5728266865212
 31
0.0
 11
13.96370091507902
 21
95.81029419610194
 31
0.0
 11
17.25853774457027
 21
88.9882829708846
 31
0.0
 11
21.37708482727771
 21
85.93014040008688
 31
0.0
  0
ARC
  5
2897
102
{ACAD_REACTORS
330
2905
102
}
330
2
100
AcDbEntity
  8
KIJUN
100
AcDbCircle
 10
9.524158055351108
 20
123.014051991404
 30
0.0
 40
27.57026804651546
100
AcDbArc
 50
316.9439245009761
 51
349.9259731448706
  0
ARC
  5
2898
102
{ACAD_REACTORS
330
2905
102
}
330
2
100
AcDbEntity
  8
KIJUN
100
AcDbCircle
 10
30.09275067302065
 20
96.15717503740837
 30
0.0
 40
10.96599343421376
100
AcDbArc
 50
113.7892192106206
 51
270.4002949434063
  0
ARC
  5
2899
102
{ACAD_REACTORS
330
2905
102
}
330
2
100
AcDbEntity
  8
KIJUN
100
AcDbCircle
 10
30.05771454462979
 20
109.9681511677236
 30
0.0
 40
5.789741077189117
100
AcDbArc
 50
220.7159401605724
 51
266.1539574852687
  0
ARC
  5
289A
102
{ACAD_REACTORS
330
2905
102
}
330
2
100
AcDbEntity
  8
KIJUN
100
AcDbCircle
 10
36.60123857597137
 20
70.04216351635671
 30
0.0
 40
11.11989282851543
100
AcDbArc
 50
200.2957423948029
 51
257.3675513673103
  0
ARC
  5
289B
102
{ACAD_REACTORS
330
2905
102
}
330
2
100
AcDbEntity
  8
KIJUN
100
AcDbCircle
 10
21.14168698135882
 20
101.1222577437382
 30
0.0
 40
23.07522564272655
100
AcDbArc
 50
47.70751609996069
 51
88.68966492733665
  0
ARC
  5
289C
102
{ACAD_REACTORS
330
2905
102
}
330
2
100
AcDbEntity
  8
KIJUN
100
AcDbCircle
 10
55.88364929053205
 20
131.5485920880997
 30
0.0
 40
9.80680729838976
100
AcDbArc
 50
79.50852298767244
 51
200.0187603937833
  0
ARC
  5
289D
102
{ACAD_REACTORS
330
2905
102
}
330
2
100
AcDbEntity
  8
KIJUN
100
AcDbCircle
 10
63.87605887697032
 20
138.4547324546899
 30
0.0
 40
6.783265089138589
100
AcDbArc
 50
83.28387341352117
 51
156.2058891803724
  0
ARC
  5
289E
102
{ACAD_REACTORS
330
2905
102
}
330
2
100
AcDbEntity
  8
KIJUN
100
AcDbCircle
 10
74.43852153869397
 20
138.4607964910402
 30
0.0
 40
11.863310398055
100
AcDbArc
 50
98.57642660341426
 51
145.4343398127525
  0
ARC
  5
289F
102
{ACAD_REACTORS
330
2905
102
}
330
2
100
AcDbEntity
  8
KIJUN
100
AcDbCircle
 10
7.258649290532275
 20
147.8454670880995
 30
0.0
 40
6.359259043469728
100
AcDbArc
 50
297.2396170975417
 51
86.29696076650686
  0
SPLINE
  5
28A0
102
{ACAD_REACTORS
330
2905
102
}
330
2
100
AcDbEntity
  8
KIJUN
100
AcDbSpline
210
0.0
220
0.0
230
1.0
 70
     8
 71
     3
 72
    13
 73
     9
 74
     7
 42
0.0000000001
 43
0.0000000001
 44
0.0000000001
 40
0.0
 40
0.0
 40
0.0
 40
0.0
 40
3.682761955505752
 40
6.829345560858049
 40
9.956473127176108
 40
12.6108629397938
 40
13.97877369337034
 40
15.51503466852438
 40
15.51503466852438
 40
15.51503466852438
 40
15.51503466852438
 10
12.16936357624649
 20
128.1914492309566
 30
0.0
 10
11.89652551499382
 20
129.4172277550181
 30
0.0
 10
11.39057225899709
 20
131.6903220312797
 30
0.0
 10
8.928647112243234
 20
134.0875603640931
 30
0.0
 10
7.942945359641688
 20
136.9526972762104
 30
0.0
 10
8.331275799479275
 20
139.6149651816485
 30
0.0
 10
10.1308316621415
 20
140.5958693173747
 30
0.0
 10
10.15603265111262
 20
141.6394248411193
 30
0.0
 10
10.16936357624649
 20
142.1914492309566
 30
0.0
 11
12.16936357624649
 21
128.1914492309566
 31
0.0
 11
11.00691545511813
 21
131.6859377466919
 31
0.0
 11
9.139831629982609
 21
134.2187200854232
 31
0.0
 11
8.169363576246496
 21
137.1914492309566
 31
0.0
 11
8.87310536924906
 21
139.7508500917266
 31
0.0
 11
9.873328847000266
 21
140.6839807494084
 31
0.0
 11
10.16936357624649
 21
142.1914492309566
 31
0.0
  0
SPLINE
  5
28A1
102
{ACAD_REACTORS
330
2905
102
}
330
2
100
AcDbEntity
  8
KIJUN
100
AcDbSpline
210
0.0
220
0.0
230
1.0
 70
     8
 71
     3
 72
    11
 73
     7
 74
     0
 42
0.0000000001
 43
0.0000000001
 40
7.483145209941052
 40
7.483145209941052
 40
7.483145209941052
 40
7.483145209941052
 40
9.956473127176108
 40
12.6108629397938
 40
13.97877369337034
 40
15.51503466852438
 40
15.51503466852438
 40
15.51503466852438
 40
15.51503466852438
 10
-12.45254321591395
 20
134.7858418919837
 30
0.0
 10
-12.11033706287958
 20
135.5207670626982
 30
0.0
 10
-11.63973018105616
 20
137.1961558843785
 30
0.0
 10
-11.99254864698582
 20
139.6149651816488
 30
0.0
 10
-13.79210450964888
 20
140.5958693173745
 30
0.0
 10
-13.81730549861959
 20
141.6394248411192
 30
0.0
 10
-13.8306364237535
 20
142.1914492309566
 30
0.0
  0
SPLINE
  5
28A2
102
{ACAD_REACTORS
330
2905
102
}
330
2
100
AcDbEntity
  8
KIJUN
100
AcDbSpline
210
0.0
220
0.0
230
1.0
 70
     8
 71
     3
 72
    10
 73
     6
 74
     0
 42
0.0000000001
 43
0.0000000001
 40
9.956473127175993
 40
9.956473127175993
 40
9.956473127175993
 40
9.956473127176108
 40
12.6108629397938
 40
13.97877369337034
 40
15.51503466852438
 40
15.51503466852438
 40
15.51503466852438
 40
15.51503466852438
 10
-11.8306364237535
 20
137.1914492309566
 30
0.0
 10
-11.77407218718031
 20
138.1171612307693
 30
0.0
 10
-11.99254864698673
 20
139.6149651816488
 30
0.0
 10
-13.79210450964819
 20
140.5958693173745
 30
0.0
 10
-13.81730549861936
 20
141.6394248411192
 30
0.0
 10
-13.8306364237535
 20
142.1914492309566
 30
0.0
  0
ARC
  5
28A3
102
{ACAD_REACTORS
330
2905
102
}
330
2
100
AcDbEntity
  8
KIJUN
100
AcDbCircle
 10
-10.91992213803928
 20
147.8454670880995
 30
0.0
 40
6.359259043469728
100
AcDbArc
 50
93.70303923349315
 51
242.7603829024583
  0
DIMENSION
  5
28A4
330
2
100
AcDbEntity
  8
SUNPOU
100
AcDbDimension
  2
*D19
 10
170.1693635762479
 20
183.8979766120355
 30
0.0
 11
72.66936357624792
 21
189.3979766120355
 31
0.0
 70
    32
 71
     5
 42
195.0
  3
STANDARD
100
AcDbAlignedDimension
 13
-24.8306364237521
 23
105.557185286975
 33
0.0
 14
170.1693635762479
 24
105.557185286975
 34
0.0
100
AcDbRotatedDimension
1001
ACAD
1000
DSTYLE
1002
{
1070
    41
1040
2.0
1070
    42
1040
10.0
1070
    44
1040
0.0
1070
    73
1070
     0
1070
    74
1070
     0
1070
    77
1070
     1
1070
   140
1040
5.0
1070
   141
1040
0.0
1070
   146
1040
0.064286
1070
   147
1040
3.0
1070
   176
1070
    60
1070
   177
1070
    70
1070
   178
1070
    60
1070
   271
1070
     0
1070
   272
1070
     0
1070
   340
1005
1C
1070
   342
1005
109
1002
}
  0
DIMENSION
  5
28B1
330
2
100
AcDbEntity
  8
SUNPOU
100
AcDbDimension
  2
*D20
 10
-53.00898335138709
 20
32.19144923095689
 30
0.0
 11
-58.50898335138709
 21
93.19144923095675
 31
0.0
 70
    32
 71
     5
 42
121.9999999999998
  3
STANDARD
100
AcDbAlignedDimension
 13
-11.3306364237535
 23
154.1914492309566
 33
0.0
 14
72.6693635762479
 24
32.19144923095685
 34
0.0
 50
90.0
100
AcDbRotatedDimension
1001
ACAD
1000
DSTYLE
1002
{
1070
    41
1040
2.0
1070
    42
1040
10.0
1070
    44
1040
0.0
1070
    73
1070
     0
1070
    74
1070
     0
1070
    77
1070
     1
1070
   140
1040
5.0
1070
   141
1040
0.0
1070
   146
1040
0.064286
1070
   147
1040
3.0
1070
   176
1070
    60
1070
   177
1070
    70
1070
   178
1070
    60
1070
   271
1070
     0
1070
   272
1070
     0
1070
   340
1005
1C
1070
   342
1005
109
1002
}
  0
ENDSEC
  0
SECTION
  2
OBJECTS
  0
DICTIONARY
  5
1A
330
0
100
AcDbDictionary
281
     1
  3
ACAD_COLOR
350
144
  3
ACAD_GROUP
350
18
  3
ACAD_LAYOUT
350
58
  3
ACAD_MATERIAL
350
143
  3
ACAD_MLINESTYLE
350
19
  3
ACAD_PLOTSETTINGS
350
59
  3
ACAD_PLOTSTYLENAME
350
56
  3
ACAD_TABLESTYLE
350
145
  3
ACDBHEADERROUNDTRIPXREC
350
290D
  3
AcDbVariableDictionary
350
1D1
  0
DICTIONARY
  5
1B4
330
A
100
AcDbDictionary
280
     1
281
     1
  3
ACAD_LAYERFILTERS
360
1A2A
  3
ACLYDICTIONARY
360
1A29
  0
DICTIONARY
  5
D13
330
2
100
AcDbDictionary
280
     1
281
     1
  3
ACAD_SORTENTS
360
D14
  0
DICTIONARY
  5
144
102
{ACAD_REACTORS
330
1A
102
}
330
1A
100
AcDbDictionary
281
     1
  0
DICTIONARY
  5
18
102
{ACAD_REACTORS
330
1A
102
}
330
1A
100
AcDbDictionary
281
     1
  3
*A1
350
E0D
  3
*A10
350
1EFE
  3
*A11
350
2037
  3
*A12
350
FF8
  3
*A13
350
136A
  3
*A14
350
1555
  3
*A15
350
17BC
  3
*A16
350
1A98
  3
*A17
350
1CBC
  3
*A18
350
2905
  3
*A2
350
213E
  3
*A3
350
22C8
  3
*A4
350
241A
  3
*A5
350
24D6
  3
*A6
350
2573
  3
*A7
350
265A
  3
*A8
350
26DD
  3
*A9
350
275E
  0
DICTIONARY
  5
58
102
{ACAD_REACTORS
330
1A
102
}
330
1A
100
AcDbDictionary
281
     1
  3
Model
350
5A
  3
ﾚｲｱｳﾄ1
350
5B
  0
DICTIONARY
  5
143
102
{ACAD_REACTORS
330
1A
102
}
330
1A
100
AcDbDictionary
281
     1
  0
DICTIONARY
  5
19
102
{ACAD_REACTORS
330
1A
102
}
330
1A
100
AcDbDictionary
281
     1
  3
STANDARD
350
1D
  0
DICTIONARY
  5
59
102
{ACAD_REACTORS
330
1A
102
}
330
1A
100
AcDbDictionary
281
     1
  0
ACDBDICTIONARYWDFLT
  5
56
102
{ACAD_REACTORS
330
1A
102
}
330
1A
100
AcDbDictionary
281
     1
  3
Normal
350
57
100
AcDbDictionaryWithDefault
340
57
  0
DICTIONARY
  5
145
102
{ACAD_REACTORS
330
1A
102
}
330
1A
100
AcDbDictionary
281
     1
  3
Standard
350
146
  0
DICTIONARY
  5
290D
102
{ACAD_REACTORS
330
1A
102
}
330
1A
100
AcDbDictionary
281
     1
  0
DICTIONARY
  5
1D1
102
{ACAD_REACTORS
330
1A
102
}
330
1A
100
AcDbDictionary
281
     1
  3
CTABLESTYLE
350
1D2
  3
DIMASSOC
350
D03
  3
PROJECTNAME
350
D04
  0
DICTIONARY
  5
1A2A
102
{ACAD_REACTORS
330
1B4
102
}
330
1B4
100
AcDbDictionary
281
     1
  0
DICTIONARY
  5
1A29
102
{ACAD_REACTORS
330
1B4
102
}
330
1B4
100
AcDbDictionary
281
     1
1001
ACAD
1000
<All
  0
SORTENTSTABLE
  5
D14
102
{ACAD_REACTORS
330
D13
102
}
330
D13
100
AcDbSortentsTable
330
2
331
23
  5
23
331
21
  5
21
331
1F
  5
1F
331
20
  5
20
  0
GROUP
  5
E0D
102
{ACAD_REACTORS
330
18
102
}
330
18
100
AcDbGroup
300

 70
     1
 71
     1
  0
GROUP
  5
1EFE
102
{ACAD_REACTORS
330
18
102
}
330
18
100
AcDbGroup
300

 70
     1
 71
     1
  0
GROUP
  5
2037
102
{ACAD_REACTORS
330
18
102
}
330
18
100
AcDbGroup
300

 70
     1
 71
     1
  0
GROUP
  5
FF8
102
{ACAD_REACTORS
330
18
102
}
330
18
100
AcDbGroup
300

 70
     1
 71
     1
  0
GROUP
  5
136A
102
{ACAD_REACTORS
330
18
102
}
330
18
100
AcDbGroup
300

 70
     1
 71
     1
  0
GROUP
  5
1555
102
{ACAD_REACTORS
330
18
102
}
330
18
100
AcDbGroup
300

 70
     1
 71
     1
  0
GROUP
  5
17BC
102
{ACAD_REACTORS
330
18
102
}
330
18
100
AcDbGroup
300

 70
     1
 71
     1
  0
GROUP
  5
1A98
102
{ACAD_REACTORS
330
18
102
}
330
18
100
AcDbGroup
300

 70
     1
 71
     1
  0
GROUP
  5
1CBC
102
{ACAD_REACTORS
330
18
102
}
330
18
100
AcDbGroup
300

 70
     1
 71
     1
  0
GROUP
  5
2905
102
{ACAD_REACTORS
330
18
102
}
330
18
100
AcDbGroup
300

 70
     1
 71
     1
340
28A3
340
28A2
340
28A1
340
28A0
340
289F
340
289E
340
289D
340
289C
340
289B
340
289A
340
2899
340
2898
340
2897
340
2896
340
2895
340
2894
340
2893
340
2892
340
2891
340
2890
340
288F
340
288E
340
288D
340
288C
340
288B
340
288A
340
2889
340
2888
340
2887
340
2886
340
2885
340
2884
340
2883
340
2882
340
2881
340
2880
340
287F
340
287E
340
287D
340
287C
340
287B
340
287A
340
2879
340
2878
340
2877
340
2876
340
2875
340
2874
340
2873
340
2872
340
2871
340
2870
340
286F
340
286E
340
286D
340
286C
340
286B
340
286A
340
2869
340
2868
340
2867
340
2866
340
2865
340
2864
340
2863
340
2862
340
2861
340
2860
340
285F
340
285E
340
285D
340
285C
340
285B
340
285A
340
2859
340
2858
340
2857
340
2856
340
2855
340
2854
340
2853
340
2852
340
2851
340
2850
340
284F
340
284E
340
284D
340
284C
340
284B
340
284A
340
2849
340
2848
340
2847
340
2846
340
2845
340
2844
340
2843
340
2842
340
2841
340
2840
340
283F
340
283E
340
283D
340
283C
340
283B
340
283A
340
2839
340
2838
340
2837
340
2836
340
2835
340
2834
340
2833
340
2832
340
2831
340
2830
340
282F
340
282E
340
282D
340
282C
340
282B
340
282A
340
2829
340
2828
340
2827
340
2826
340
2825
340
2824
340
2823
340
2822
340
2821
340
2820
340
281F
340
281E
340
281D
340
281C
  0
GROUP
  5
213E
102
{ACAD_REACTORS
330
18
102
}
330
18
100
AcDbGroup
300

 70
     1
 71
     1
  0
GROUP
  5
22C8
102
{ACAD_REACTORS
330
18
102
}
330
18
100
AcDbGroup
300

 70
     1
 71
     1
  0
GROUP
  5
241A
102
{ACAD_REACTORS
330
18
102
}
330
18
100
AcDbGroup
300

 70
     1
 71
     1
  0
GROUP
  5
24D6
102
{ACAD_REACTORS
330
18
102
}
330
18
100
AcDbGroup
300

 70
     1
 71
     1
  0
GROUP
  5
2573
102
{ACAD_REACTORS
330
18
102
}
330
18
100
AcDbGroup
300

 70
     1
 71
     1
  0
GROUP
  5
265A
102
{ACAD_REACTORS
330
18
102
}
330
18
100
AcDbGroup
300

 70
     1
 71
     1
  0
GROUP
  5
26DD
102
{ACAD_REACTORS
330
18
102
}
330
18
100
AcDbGroup
300

 70
     1
 71
     1
  0
GROUP
  5
275E
102
{ACAD_REACTORS
330
18
102
}
330
18
100
AcDbGroup
300

 70
     1
 71
     1
  0
LAYOUT
  5
5A
102
{ACAD_XDICTIONARY
360
290E
102
}
102
{ACAD_REACTORS
330
58
102
}
330
58
100
AcDbPlotSettings
  1

  2
なし
  4

  6

 40
0.0
 41
0.0
 42
0.0
 43
0.0
 44
0.0
 45
0.0
 46
0.0
 47
0.0
 48
0.0
 49
0.0
140
0.0
141
0.0
142
1.0
143
1.0
 70
  1712
 72
     0
 73
     0
 74
     0
  7
monochrome.ctb
 75
     0
147
1.0
148
0.0
149
0.0
100
AcDbLayout
  1
Model
 70
     1
 71
     0
 10
0.0
 20
0.0
 11
12.0
 21
9.0
 12
0.0
 22
0.0
 32
0.0
 14
0.0
 24
0.0
 34
0.0
 15
0.0
 25
0.0
 35
0.0
146
0.0
 13
0.0
 23
0.0
 33
0.0
 16
1.0
 26
0.0
 36
0.0
 17
0.0
 27
1.0
 37
0.0
 76
     0
330
2
  0
LAYOUT
  5
5B
102
{ACAD_XDICTIONARY
360
2910
102
}
102
{ACAD_REACTORS
330
58
102
}
330
58
100
AcDbPlotSettings
  1

  2
なし
  4

  6

 40
0.0
 41
0.0
 42
0.0
 43
0.0
 44
0.0
 45
0.0
 46
0.0
 47
0.0
 48
0.0
 49
0.0
140
0.0
141
0.0
142
1.0
143
1.0
 70
   688
 72
     0
 73
     0
 74
     5
  7
monochrome.ctb
 75
    16
147
1.0
148
0.0
149
0.0
100
AcDbLayout
  1
ﾚｲｱｳﾄ1
 70
     1
 71
     1
 10
0.0
 20
0.0
 11
12.0
 21
9.0
 12
0.0
 22
0.0
 32
0.0
 14
1.000000000000000E+20
 24
1.000000000000000E+20
 34
1.000000000000000E+20
 15
-1.000000000000000E+20
 25
-1.000000000000000E+20
 35
-1.000000000000000E+20
146
0.0
 13
0.0
 23
0.0
 33
0.0
 16
1.0
 26
0.0
 36
0.0
 17
0.0
 27
1.0
 37
0.0
 76
     0
330
7
  0
MLINESTYLE
  5
1D
102
{ACAD_REACTORS
330
19
102
}
330
19
100
AcDbMlineStyle
  2
STANDARD
 70
     0
  3

 62
   256
 51
90.0
 52
90.0
 71
     2
 49
0.5
 62
   256
  6
BYLAYER
 49
-0.5
 62
   256
  6
BYLAYER
  0
ACDBPLACEHOLDER
  5
57
102
{ACAD_REACTORS
330
56
102
}
330
56
  0
TABLESTYLE
  5
146
102
{ACAD_REACTORS
330
145
102
}
330
145
100
AcDbTableStyle
  3
Standard
 70
     0
 71
     0
 40
0.06
 41
0.06
280
     0
281
     0
  7
STANDARD
140
0.18
170
     2
 62
     0
 63
     7
283
     0
274
    -2
284
     1
 64
     0
275
    -2
285
     1
 65
     0
276
    -2
286
     1
 66
     0
277
    -2
287
     1
 67
     0
278
    -2
288
     1
 68
     0
279
    -2
289
     1
 69
     0
  7
STANDARD
140
0.25
170
     5
 62
     0
 63
     7
283
     0
274
    -2
284
     1
 64
     0
275
    -2
285
     1
 65
     0
276
    -2
286
     1
 66
     0
277
    -2
287
     1
 67
     0
278
    -2
288
     1
 68
     0
279
    -2
289
     1
 69
     0
  7
STANDARD
140
0.18
170
     5
 62
     0
 63
     7
283
     0
274
    -2
284
     1
 64
     0
275
    -2
285
     1
 65
     0
276
    -2
286
     1
 66
     0
277
    -2
287
     1
 67
     0
278
    -2
288
     1
 68
     0
279
    -2
289
     1
 69
     0
  0
DICTIONARYVAR
  5
1D2
102
{ACAD_REACTORS
330
1D1
102
}
330
1D1
100
DictionaryVariables
280
     0
  1
STANDARD
  0
DICTIONARYVAR
  5
D03
102
{ACAD_REACTORS
330
1D1
102
}
330
1D1
100
DictionaryVariables
280
     0
  1
1
  0
DICTIONARYVAR
  5
D04
102
{ACAD_REACTORS
330
1D1
102
}
330
1D1
100
DictionaryVariables
280
     0
  1

  0
DICTIONARY
  5
290E
330
5A
100
AcDbDictionary
280
     1
281
     1
  3
ACAD_XREC_ROUNDTRIP
360
290F
  0
DICTIONARY
  5
2910
330
5B
100
AcDbDictionary
280
     1
281
     1
  3
ACAD_XREC_ROUNDTRIP
360
2911
  0
XRECORD
  5
290F
102
{ACAD_REACTORS
330
290E
102
}
330
290E
100
AcDbXrecord
280
     1
102
SHADEPLOT
 70
     0
102
SHADEPLOTRESLEVEL
 70
     2
102
SHADEPLOTCUSTOMDPI
 70
   300
  0
XRECORD
  5
2911
102
{ACAD_REACTORS
330
2910
102
}
330
2910
100
AcDbXrecord
280
     1
102
SHADEPLOT
 70
     0
102
SHADEPLOTRESLEVEL
 70
     2
102
SHADEPLOTCUSTOMDPI
 70
   300
  0
ENDSEC
  0
EOF
