  0
SECTION
  2
HEADER
  9
$ACADVER
  1
AC1015
  9
$ACADMAINTVER
 70
    20
  9
$DWGCODEPAGE
  3
ANSI_932
  9
$INSBASE
 10
922.019522
 20
-675.4306699999999
 30
0.0
  9
$EXTMIN
 10
-21.33382823693739
 20
-0.0211609326183862
 30
-0.000000000000013
  9
$EXTMAX
 10
148.7000325496175
 20
128.2357108225137
 30
0.0000000000000023
  9
$LIMMIN
 10
0.0
 20
0.0
  9
$LIMMAX
 10
420.0
 20
297.0
  9
$ORTHOMODE
 70
     1
  9
$REGENMODE
 70
     1
  9
$FILLMODE
 70
     1
  9
$QTEXTMODE
 70
     0
  9
$MIRRTEXT
 70
     1
  9
$LTSCALE
 40
1.0
  9
$ATTMODE
 70
     1
  9
$TEXTSIZE
 40
30.0
  9
$TRACEWID
 40
0.05
  9
$TEXTSTYLE
  7
SUNPOU
  9
$CLAYER
  8
0
  9
$CELTYPE
  6
BYLAYER
  9
$CECOLOR
 62
   256
  9
$CELTSCALE
 40
1.0
  9
$DISPSILH
 70
     0
  9
$DIMSCALE
 40
1.0
  9
$DIMASZ
 40
2.0
  9
$DIMEXO
 40
10.0
  9
$DIMDLI
 40
0.38
  9
$DIMRND
 40
0.0
  9
$DIMDLE
 40
0.0
  9
$DIMEXE
 40
0.0
  9
$DIMTP
 40
0.0
  9
$DIMTM
 40
0.0
  9
$DIMTXT
 40
5.0
  9
$DIMCEN
 40
0.0
  9
$DIMTSZ
 40
0.0
  9
$DIMTOL
 70
     0
  9
$DIMLIM
 70
     0
  9
$DIMTIH
 70
     0
  9
$DIMTOH
 70
     0
  9
$DIMSE1
 70
     0
  9
$DIMSE2
 70
     0
  9
$DIMTAD
 70
     1
  9
$DIMZIN
 70
     0
  9
$DIMBLK
  1
Dot
  9
$DIMASO
 70
     1
  9
$DIMSHO
 70
     1
  9
$DIMPOST
  1

  9
$DIMAPOST
  1

  9
$DIMALT
 70
     0
  9
$DIMALTD
 70
     2
  9
$DIMALTF
 40
25.4
  9
$DIMLFAC
 40
1.0
  9
$DIMTOFL
 70
     0
  9
$DIMTVP
 40
0.0
  9
$DIMTIX
 70
     0
  9
$DIMSOXD
 70
     0
  9
$DIMSAH
 70
     0
  9
$DIMBLK1
  1

  9
$DIMBLK2
  1

  9
$DIMSTYLE
  2
STANDARD
  9
$DIMCLRD
 70
    60
  9
$DIMCLRE
 70
    70
  9
$DIMCLRT
 70
    60
  9
$DIMTFAC
 40
0.064286
  9
$DIMGAP
 40
3.0
  9
$DIMJUST
 70
     0
  9
$DIMSD1
 70
     0
  9
$DIMSD2
 70
     0
  9
$DIMTOLJ
 70
     1
  9
$DIMTZIN
 70
     0
  9
$DIMALTZ
 70
     0
  9
$DIMALTTZ
 70
     0
  9
$DIMUPT
 70
     0
  9
$DIMDEC
 70
     0
  9
$DIMTDEC
 70
     0
  9
$DIMALTU
 70
     2
  9
$DIMALTTD
 70
     2
  9
$DIMTXSTY
  7
SUNPOU
  9
$DIMAUNIT
 70
     0
  9
$DIMADEC
 70
     0
  9
$DIMALTRND
 40
0.0
  9
$DIMAZIN
 70
     0
  9
$DIMDSEP
 70
    46
  9
$DIMATFIT
 70
     3
  9
$DIMFRAC
 70
     0
  9
$DIMLDRBLK
  1

  9
$DIMLUNIT
 70
     2
  9
$DIMLWD
 70
    -2
  9
$DIMLWE
 70
    -2
  9
$DIMTMOVE
 70
     0
  9
$LUNITS
 70
     2
  9
$LUPREC
 70
     5
  9
$SKETCHINC
 40
0.1
  9
$FILLETRAD
 40
0.0
  9
$AUNITS
 70
     0
  9
$AUPREC
 70
     0
  9
$MENU
  1
acad
  9
$ELEVATION
 40
0.0
  9
$PELEVATION
 40
0.0
  9
$THICKNESS
 40
0.0
  9
$LIMCHECK
 70
     0
  9
$CHAMFERA
 40
0.0
  9
$CHAMFERB
 40
0.0
  9
$CHAMFERC
 40
0.0
  9
$CHAMFERD
 40
0.0
  9
$SKPOLY
 70
     0
  9
$TDCREATE
 40
2450623.654673033
  9
$TDUCREATE
 40
2450623.279673032
  9
$TDUPDATE
 40
2453867.623494873
  9
$TDUUPDATE
 40
2453867.248494873
  9
$TDINDWG
 40
0.2665228356
  9
$TDUSRTIMER
 40
0.2665226620
  9
$USRTIMER
 70
     1
  9
$ANGBASE
 50
0.0
  9
$ANGDIR
 70
     0
  9
$PDMODE
 70
     0
  9
$PDSIZE
 40
0.0
  9
$PLINEWID
 40
0.0
  9
$SPLFRAME
 70
     0
  9
$SPLINETYPE
 70
     6
  9
$SPLINESEGS
 70
     8
  9
$HANDSEED
  5
27A1
  9
$SURFTAB1
 70
     6
  9
$SURFTAB2
 70
     6
  9
$SURFTYPE
 70
     6
  9
$SURFU
 70
     6
  9
$SURFV
 70
     6
  9
$UCSBASE
  2

  9
$UCSNAME
  2

  9
$UCSORG
 10
0.0
 20
0.0
 30
0.0
  9
$UCSXDIR
 10
1.0
 20
0.0
 30
0.0
  9
$UCSYDIR
 10
0.0
 20
1.0
 30
0.0
  9
$UCSORTHOREF
  2

  9
$UCSORTHOVIEW
 70
     0
  9
$UCSORGTOP
 10
0.0
 20
0.0
 30
0.0
  9
$UCSORGBOTTOM
 10
0.0
 20
0.0
 30
0.0
  9
$UCSORGLEFT
 10
0.0
 20
0.0
 30
0.0
  9
$UCSORGRIGHT
 10
0.0
 20
0.0
 30
0.0
  9
$UCSORGFRONT
 10
0.0
 20
0.0
 30
0.0
  9
$UCSORGBACK
 10
0.0
 20
0.0
 30
0.0
  9
$PUCSBASE
  2

  9
$PUCSNAME
  2

  9
$PUCSORG
 10
0.0
 20
0.0
 30
0.0
  9
$PUCSXDIR
 10
1.0
 20
0.0
 30
0.0
  9
$PUCSYDIR
 10
0.0
 20
1.0
 30
0.0
  9
$PUCSORTHOREF
  2

  9
$PUCSORTHOVIEW
 70
     0
  9
$PUCSORGTOP
 10
0.0
 20
0.0
 30
0.0
  9
$PUCSORGBOTTOM
 10
0.0
 20
0.0
 30
0.0
  9
$PUCSORGLEFT
 10
0.0
 20
0.0
 30
0.0
  9
$PUCSORGRIGHT
 10
0.0
 20
0.0
 30
0.0
  9
$PUCSORGFRONT
 10
0.0
 20
0.0
 30
0.0
  9
$PUCSORGBACK
 10
0.0
 20
0.0
 30
0.0
  9
$USERI1
 70
     0
  9
$USERI2
 70
     0
  9
$USERI3
 70
     0
  9
$USERI4
 70
     0
  9
$USERI5
 70
     0
  9
$USERR1
 40
0.0
  9
$USERR2
 40
0.0
  9
$USERR3
 40
0.0
  9
$USERR4
 40
0.0
  9
$USERR5
 40
0.0
  9
$WORLDVIEW
 70
     1
  9
$SHADEDGE
 70
     3
  9
$SHADEDIF
 70
    70
  9
$TILEMODE
 70
     1
  9
$MAXACTVP
 70
    16
  9
$PINSBASE
 10
0.0
 20
0.0
 30
0.0
  9
$PLIMCHECK
 70
     0
  9
$PEXTMIN
 10
1.000000000000000E+20
 20
1.000000000000000E+20
 30
1.000000000000000E+20
  9
$PEXTMAX
 10
-1.000000000000000E+20
 20
-1.000000000000000E+20
 30
-1.000000000000000E+20
  9
$PLIMMIN
 10
0.0
 20
0.0
  9
$PLIMMAX
 10
12.0
 20
9.0
  9
$UNITMODE
 70
     0
  9
$VISRETAIN
 70
     0
  9
$PLINEGEN
 70
     0
  9
$PSLTSCALE
 70
     1
  9
$TREEDEPTH
 70
  3020
  9
$CMLSTYLE
  2
STANDARD
  9
$CMLJUST
 70
     0
  9
$CMLSCALE
 40
1.0
  9
$PROXYGRAPHICS
 70
     1
  9
$MEASUREMENT
 70
     0
  9
$CELWEIGHT
370
    -1
  9
$ENDCAPS
280
     0
  9
$JOINSTYLE
280
     0
  9
$LWDISPLAY
290
     0
  9
$INSUNITS
 70
     0
  9
$HYPERLINKBASE
  1

  9
$STYLESHEET
  1

  9
$XEDIT
290
     1
  9
$CEPSNTYPE
380
     0
  9
$PSTYLEMODE
290
     1
  9
$FINGERPRINTGUID
  2
{FB88A696-E29C-4009-92AF-A3599A8169D5}
  9
$VERSIONGUID
  2
{E2ACDD96-E35B-4CCC-B76B-E0C8EBCC95D7}
  9
$EXTNAMES
290
     1
  9
$PSVPSCALE
 40
0.0
  9
$OLESTARTUP
290
     0
  0
ENDSEC
  0
SECTION
  2
CLASSES
  0
CLASS
  1
DICTIONARYVAR
  2
AcDbDictionaryVar
  3
ObjectDBX Classes
 90
        0
280
     0
281
     0
  0
CLASS
  1
ACDBDICTIONARYWDFLT
  2
AcDbDictionaryWithDefault
  3
ObjectDBX Classes
 90
        0
280
     0
281
     0
  0
CLASS
  1
ACDBPLACEHOLDER
  2
AcDbPlaceHolder
  3
ObjectDBX Classes
 90
        0
280
     0
281
     0
  0
CLASS
  1
LAYOUT
  2
AcDbLayout
  3
ObjectDBX Classes
 90
        0
280
     0
281
     0
  0
CLASS
  1
TABLESTYLE
  2
AcDbTableStyle
  3
ObjectDBX Classes
 90
     2047
280
     0
281
     0
  0
CLASS
  1
SORTENTSTABLE
  2
AcDbSortentsTable
  3
ObjectDBX Classes
 90
        0
280
     0
281
     0
  0
ENDSEC
  0
SECTION
  2
TABLES
  0
TABLE
  2
VPORT
  5
12
330
0
100
AcDbSymbolTable
 70
     3
  0
VPORT
  5
279B
330
12
100
AcDbSymbolTableRecord
100
AcDbViewportTableRecord
  2
*Active
 70
     0
 10
0.0
 20
0.0
 11
1.0
 21
1.0
 12
63.68310215634004
 22
64.10727494494766
 13
0.0
 23
0.0
 14
1.0
 24
1.0
 15
0.0
 25
0.0
 16
0.0
 26
0.0
 36
1.0
 17
0.0
 27
0.0
 37
0.0
 40
129.2421998351971
 41
1.565384615384615
 42
50.0
 43
0.0
 44
0.0
 50
0.0
 51
0.0
 71
     0
 72
 20000
 73
     1
 74
     1
 75
     0
 76
     0
 77
     0
 78
     0
281
     0
 65
     1
110
0.0
120
0.0
130
0.0
111
1.0
121
0.0
131
0.0
112
0.0
122
1.0
132
0.0
 79
     0
146
0.0
  0
ENDTAB
  0
TABLE
  2
LTYPE
  5
D
330
0
100
AcDbSymbolTable
 70
     1
  0
LTYPE
  5
E
330
D
100
AcDbSymbolTableRecord
100
AcDbLinetypeTableRecord
  2
BYBLOCK
 70
     0
  3

 72
    65
 73
     0
 40
0.0
  0
LTYPE
  5
F
330
D
100
AcDbSymbolTableRecord
100
AcDbLinetypeTableRecord
  2
BYLAYER
 70
     0
  3

 72
    65
 73
     0
 40
0.0
  0
LTYPE
  5
5
330
D
100
AcDbSymbolTableRecord
100
AcDbLinetypeTableRecord
  2
CONTINUOUS
 70
     0
  3
Solid line
 72
    65
 73
     0
 40
0.0
  0
ENDTAB
  0
TABLE
  2
LAYER
  5
A
102
{ACAD_XDICTIONARY
360
1B4
102
}
330
0
100
AcDbSymbolTable
 70
     6
  0
LAYER
  5
4
330
A
100
AcDbSymbolTableRecord
100
AcDbLayerTableRecord
  2
0
 70
     0
 62
     7
  6
CONTINUOUS
370
    -3
390
57
  0
LAYER
  5
25
330
A
100
AcDbSymbolTableRecord
100
AcDbLayerTableRecord
  2
KIJUN
 70
     0
 62
     7
  6
CONTINUOUS
370
    -3
390
57
  0
LAYER
  5
22
330
A
100
AcDbSymbolTableRecord
100
AcDbLayerTableRecord
  2
HOJO
 70
     0
 62
     3
  6
CONTINUOUS
370
    -3
390
57
  0
LAYER
  5
1B
330
A
100
AcDbSymbolTableRecord
100
AcDbLayerTableRecord
  2
WAKU
 70
     0
 62
     1
  6
CONTINUOUS
370
    -3
390
57
  0
LAYER
  5
31
330
A
100
AcDbSymbolTableRecord
100
AcDbLayerTableRecord
  2
DEFPOINTS
 70
     0
 62
     7
  6
CONTINUOUS
290
     0
370
    -3
390
57
  0
LAYER
  5
28
330
A
100
AcDbSymbolTableRecord
100
AcDbLayerTableRecord
  2
SUNPOU
 70
     0
 62
    70
  6
CONTINUOUS
370
    -3
390
57
  0
ENDTAB
  0
TABLE
  2
STYLE
  5
B
330
0
100
AcDbSymbolTable
 70
     3
  0
STYLE
  5
C
330
B
100
AcDbSymbolTableRecord
100
AcDbTextStyleTableRecord
  2
STANDARD
 70
     0
 40
0.0
 41
1.0
 50
0.0
 71
     0
 42
0.2
  3
txt
  4

  0
STYLE
  5
1C
330
B
100
AcDbSymbolTableRecord
100
AcDbTextStyleTableRecord
  2
SUNPOU
 70
     0
 40
0.0
 41
1.0
 50
0.0
 71
     0
 42
30.0
  3
txt
  4
bigfont
  0
STYLE
  5
14A
330
B
100
AcDbSymbolTableRecord
100
AcDbTextStyleTableRecord
  2
LIFE
 70
     0
 40
0.0
 41
0.7
 50
0.0
 71
     0
 42
10.0
  3
romans
  4
extfont
  0
ENDTAB
  0
TABLE
  2
VIEW
  5
10
330
0
100
AcDbSymbolTable
 70
     0
  0
ENDTAB
  0
TABLE
  2
UCS
  5
11
330
0
100
AcDbSymbolTable
 70
     0
  0
ENDTAB
  0
TABLE
  2
APPID
  5
14
330
0
100
AcDbSymbolTable
 70
    10
  0
APPID
  5
15
330
14
100
AcDbSymbolTableRecord
100
AcDbRegAppTableRecord
  2
ACAD
 70
     0
  0
APPID
  5
1D3
330
14
100
AcDbSymbolTableRecord
100
AcDbRegAppTableRecord
  2
ACAD_DSTYLE_DIMTEXT_FILL
 70
     0
  0
APPID
  5
1D4
330
14
100
AcDbSymbolTableRecord
100
AcDbRegAppTableRecord
  2
ACAD_DSTYLE_DIMEXT_LENGTH
 70
     0
  0
APPID
  5
1D5
330
14
100
AcDbSymbolTableRecord
100
AcDbRegAppTableRecord
  2
ACAD_DSTYLE_DIMEXT_ENABLED
 70
     0
  0
APPID
  5
1D6
330
14
100
AcDbSymbolTableRecord
100
AcDbRegAppTableRecord
  2
ACAD_DSTYLE_DIM_LINETYPE
 70
     0
  0
APPID
  5
1D7
330
14
100
AcDbSymbolTableRecord
100
AcDbRegAppTableRecord
  2
ACAD_DSTYLE_DIM_EXT1_LINETYPE
 70
     0
  0
APPID
  5
1D8
330
14
100
AcDbSymbolTableRecord
100
AcDbRegAppTableRecord
  2
ACAD_DSTYLE_DIM_EXT2_LINETYPE
 70
     0
  0
APPID
  5
294
330
14
100
AcDbSymbolTableRecord
100
AcDbRegAppTableRecord
  2
ACAD_DSTYLE_DIMJOGGED_JOGANGLE_SYMBOL
 70
     0
  0
APPID
  5
478
330
14
100
AcDbSymbolTableRecord
100
AcDbRegAppTableRecord
  2
ACAD_DSTYLE_DIMARC_LENGTH_SYMBOL
 70
     0
  0
APPID
  5
F55
330
14
100
AcDbSymbolTableRecord
100
AcDbRegAppTableRecord
  2
ACAD_EXEMPT_FROM_CAD_STANDARDS
 70
     0
  0
ENDTAB
  0
TABLE
  2
DIMSTYLE
  5
16
330
0
100
AcDbSymbolTable
 70
     2
100
AcDbDimStyleTable
 71
     1
340
1E
  0
DIMSTYLE
105
1E
102
{ACAD_REACTORS
330
2732
330
273F
102
}
330
16
100
AcDbSymbolTableRecord
100
AcDbDimStyleTableRecord
  2
STANDARD
 70
     0
340
C
  0
DIMSTYLE
105
1005
330
16
100
AcDbSymbolTableRecord
100
AcDbDimStyleTableRecord
  2
1-100
 70
     0
 40
100.0
 41
0.7
 42
2.5
 43
5.0
 44
1.0
 77
     1
147
1.0
172
     1
176
     3
177
     3
271
     2
272
     2
279
     2
340
C
342
109
  0
ENDTAB
  0
TABLE
  2
BLOCK_RECORD
  5
1
330
0
100
AcDbSymbolTable
 70
    19
  0
BLOCK_RECORD
  5
2
102
{ACAD_XDICTIONARY
360
D13
102
}
330
1
100
AcDbSymbolTableRecord
100
AcDbBlockTableRecord
  2
*MODEL_SPACE
340
5A
  0
BLOCK_RECORD
  5
7
330
1
100
AcDbSymbolTableRecord
100
AcDbBlockTableRecord
  2
*PAPER_SPACE
340
5B
  0
BLOCK_RECORD
  5
109
330
1
100
AcDbSymbolTableRecord
100
AcDbBlockTableRecord
  2
_Dot
340
0
102
{BLKREFS
331
2010
331
2011
331
201D
331
201E
331
2117
331
2118
331
2124
331
2125
331
2295
331
2296
331
22B9
331
22BA
331
22D5
331
22D6
331
241E
331
241F
331
24E3
331
24E4
331
24F5
331
24F6
331
2580
331
2581
331
259B
331
259C
331
2645
331
2646
331
2652
331
2653
331
26B6
331
26B7
331
26C3
331
26C4
331
276B
331
276C
331
277D
331
277E
102
}
  0
BLOCK_RECORD
  5
2733
330
1
100
AcDbSymbolTableRecord
100
AcDbBlockTableRecord
  2
*D17
340
0
  0
BLOCK_RECORD
  5
2740
330
1
100
AcDbSymbolTableRecord
100
AcDbBlockTableRecord
  2
*D18
340
0
  0
ENDTAB
  0
ENDSEC
  0
SECTION
  2
BLOCKS
  0
BLOCK
  5
3
330
2
100
AcDbEntity
  8
0
100
AcDbBlockBegin
  2
*MODEL_SPACE
 70
     0
 10
0.0
 20
0.0
 30
0.0
  3
*MODEL_SPACE
  1

  0
ENDBLK
  5
6
330
2
100
AcDbEntity
  8
0
100
AcDbBlockEnd
  0
BLOCK
  5
8
330
7
100
AcDbEntity
 67
     1
  8
0
100
AcDbBlockBegin
  2
*PAPER_SPACE
 70
     0
 10
0.0
 20
0.0
 30
0.0
  3
*PAPER_SPACE
  1

  0
ENDBLK
  5
9
330
7
100
AcDbEntity
 67
     1
  8
0
100
AcDbBlockEnd
  0
BLOCK
  5
10C
330
109
100
AcDbEntity
  8
0
100
AcDbBlockBegin
  2
_Dot
 70
     0
 10
0.0
 20
0.0
 30
0.0
  3
_Dot
  1

  0
LWPOLYLINE
  5
10A
330
109
100
AcDbEntity
  8
0
  6
ByBlock
 62
     0
100
AcDbPolyline
 90
        2
 70
     1
 43
0.5
 10
-0.25
 20
0.0
 42
1.0
 10
0.25
 20
0.0
 42
1.0
  0
LINE
  5
10B
330
109
100
AcDbEntity
  8
0
  6
ByBlock
 62
     0
370
    -2
100
AcDbLine
 10
-0.5
 20
0.0
 30
0.0
 11
-1.0
 21
0.0
 31
0.0
  0
ENDBLK
  5
10D
330
109
100
AcDbEntity
  8
0
100
AcDbBlockEnd
  0
BLOCK
  5
273D
330
2733
100
AcDbEntity
  8
0
100
AcDbBlockBegin
  2
*D17
 70
     1
 10
0.0
 20
0.0
 30
0.0
  3
*D17
  1

  0
LINE
  5
277A
330
2733
100
AcDbEntity
  8
SUNPOU
 62
    70
370
    -2
100
AcDbLine
 10
12.52320902269775
 20
108.7633122319417
 30
0.0
 11
12.52320902269776
 21
120.229640538656
 31
0.0
  0
LINE
  5
277B
330
2733
100
AcDbEntity
  8
SUNPOU
 62
    70
370
    -2
100
AcDbLine
 10
132.5232090226977
 20
106.908046385266
 30
0.0
 11
132.5232090226977
 21
120.229640538656
 31
0.0
  0
LINE
  5
277C
330
2733
100
AcDbEntity
  8
SUNPOU
 62
    60
370
    -2
100
AcDbLine
 10
14.52320902269776
 20
120.229640538656
 30
0.0
 11
130.5232090226977
 21
120.229640538656
 31
0.0
  0
INSERT
  5
277D
330
2733
100
AcDbEntity
  8
SUNPOU
 62
    60
370
    -2
100
AcDbBlockReference
  2
_Dot
 10
12.52320902269776
 20
120.229640538656
 30
0.0
 41
2.0
 42
2.0
 43
2.0
 50
180.0
  0
INSERT
  5
277E
330
2733
100
AcDbEntity
  8
SUNPOU
 62
    60
370
    -2
100
AcDbBlockReference
  2
_Dot
 10
132.5232090226977
 20
120.229640538656
 30
0.0
 41
2.0
 42
2.0
 43
2.0
  0
MTEXT
  5
277F
330
2733
100
AcDbEntity
  8
SUNPOU
 62
    60
100
AcDbMText
 10
72.52320902269776
 20
125.729640538656
 30
0.0
 40
5.0
 41
0.0
 71
     5
 72
     1
  1
\A1;120
  7
SUNPOU
 73
     1
 44
1.0
1001
ACAD
1000
MTEXTBEGIN
1070
    73
1070
     1
1070
    44
1040
1.0
1070
    74
1070
     0
1000
MTEXTEND
  0
POINT
  5
2780
330
2733
100
AcDbEntity
  8
DEFPOINTS
 62
     0
100
AcDbPoint
 10
12.52320902269775
 20
98.76331223194169
 30
0.0
  0
POINT
  5
2781
330
2733
100
AcDbEntity
  8
DEFPOINTS
 62
     0
100
AcDbPoint
 10
132.5232090226977
 20
96.90804638526607
 30
0.0
  0
POINT
  5
2782
330
2733
100
AcDbEntity
  8
DEFPOINTS
 62
     0
100
AcDbPoint
 10
132.5232090226977
 20
120.229640538656
 30
0.0
  0
ENDBLK
  5
273E
330
2733
100
AcDbEntity
  8
0
100
AcDbBlockEnd
  0
BLOCK
  5
274A
330
2740
100
AcDbEntity
  8
0
100
AcDbBlockBegin
  2
*D18
 70
     1
 10
0.0
 20
0.0
 30
0.0
  3
*D18
  1

  0
LINE
  5
2768
330
2740
100
AcDbEntity
  8
SUNPOU
 62
    70
370
    -2
100
AcDbLine
 10
2.523209022697756
 20
98.76331223194169
 30
0.0
 11
-13.31131334235169
 21
98.76331223194169
 31
0.0
  0
LINE
  5
2769
330
2740
100
AcDbEntity
  8
SUNPOU
 62
    70
370
    -2
100
AcDbLine
 10
3.495265472656228
 20
32.76331223194166
 30
0.0
 11
-13.3113133423517
 21
32.76331223194166
 31
0.0
  0
LINE
  5
276A
330
2740
100
AcDbEntity
  8
SUNPOU
 62
    60
370
    -2
100
AcDbLine
 10
-13.31131334235168
 20
96.76331223194168
 30
0.0
 11
-13.3113133423517
 21
34.76331223194165
 31
0.0
  0
INSERT
  5
276B
330
2740
100
AcDbEntity
  8
SUNPOU
 62
    60
370
    -2
100
AcDbBlockReference
  2
_Dot
 10
-13.31131334235168
 20
98.76331223194169
 30
0.0
 41
2.0
 42
2.0
 43
2.0
 50
90.0
  0
INSERT
  5
276C
330
2740
100
AcDbEntity
  8
SUNPOU
 62
    60
370
    -2
100
AcDbBlockReference
  2
_Dot
 10
-13.3113133423517
 20
32.76331223194166
 30
0.0
 41
2.0
 42
2.0
 43
2.0
 50
270.0
  0
MTEXT
  5
276D
330
2740
100
AcDbEntity
  8
SUNPOU
 62
    60
100
AcDbMText
 10
-18.8113133423517
 20
65.76331223194166
 30
0.0
 40
5.0
 41
0.0
 71
     5
 72
     1
  1
\A1;66
  7
SUNPOU
 11
0.0000000000000001
 21
1.0
 31
0.0
 73
     1
 44
1.0
1001
ACAD
1000
MTEXTBEGIN
1070
    73
1070
     1
1070
    44
1040
1.0
1070
    74
1070
     0
1000
MTEXTEND
  0
POINT
  5
276E
330
2740
100
AcDbEntity
  8
DEFPOINTS
 62
     0
100
AcDbPoint
 10
12.52320902269775
 20
98.76331223194169
 30
0.0
  0
POINT
  5
276F
330
2740
100
AcDbEntity
  8
DEFPOINTS
 62
     0
100
AcDbPoint
 10
13.49526547265623
 20
32.76331223194166
 30
0.0
  0
POINT
  5
2770
330
2740
100
AcDbEntity
  8
DEFPOINTS
 62
     0
100
AcDbPoint
 10
-13.3113133423517
 20
32.76331223194166
 30
0.0
  0
ENDBLK
  5
274B
330
2740
100
AcDbEntity
  8
0
100
AcDbBlockEnd
  0
ENDSEC
  0
SECTION
  2
ENTITIES
  0
LINE
  5
1F
330
2
100
AcDbEntity
  8
WAKU
100
AcDbLine
 10
0.0
 20
14.0
 30
0.0
 11
148.6829221395387
 21
14.0
 31
0.0
  0
LINE
  5
20
330
2
100
AcDbEntity
  8
WAKU
100
AcDbLine
 10
0.0
 20
0.0
 30
0.0
 11
148.6829221395387
 21
0.0
 31
0.0
  0
TEXT
  5
21
330
2
100
AcDbEntity
  8
HOJO
100
AcDbText
 10
9.653966000000025
 20
2.366626000000024
 30
0.0
 40
9.0
  1
TWM237
  7
SUNPOU
100
AcDbText
  0
TEXT
  5
23
330
2
100
AcDbEntity
  8
HOJO
100
AcDbText
 10
85.84696046283864
 20
5.044386000000031
 30
0.0
 40
6.0
  1
120×66×5
  7
SUNPOU
100
AcDbText
  0
ARC
  5
2708
102
{ACAD_REACTORS
330
275E
102
}
330
2
100
AcDbEntity
  8
KIJUN
100
AcDbCircle
 10
87.42917124133418
 20
81.80802887174525
 30
0.0
 40
14.23796883937639
100
AcDbArc
 50
50.30375783430166
 51
114.5069554285093
  0
ARC
  5
2709
102
{ACAD_REACTORS
330
275E
102
}
330
2
100
AcDbEntity
  8
KIJUN
100
AcDbCircle
 10
100.8777511781352
 20
83.59057726130698
 30
0.0
 40
10.1538713910047
100
AcDbArc
 50
18.2078787440896
 51
115.3949402286141
  0
ARC
  5
270A
102
{ACAD_REACTORS
330
275E
102
}
330
2
100
AcDbEntity
  8
KIJUN
100
AcDbCircle
 10
112.4145137510672
 20
75.60630795070494
 30
0.0
 40
11.31617329785777
100
AcDbArc
 50
10.98853217187921
 51
99.62116076564841
  0
ARC
  5
270B
102
{ACAD_REACTORS
330
275E
102
}
330
2
100
AcDbEntity
  8
KIJUN
100
AcDbCircle
 10
121.7279052372389
 20
69.36566033921633
 30
0.0
 40
8.587413638197443
100
AcDbArc
 50
335.1759323440213
 51
77.93259821016047
  0
ARC
  5
270E
102
{ACAD_REACTORS
330
275E
102
}
330
2
100
AcDbEntity
  8
KIJUN
100
AcDbCircle
 10
330.4415806351979
 20
28.15332436611004
 30
0.0
 40
257.6766310896462
100
AcDbArc
 50
165.0187907359468
 51
175.660825298382
  0
ARC
  5
270F
102
{ACAD_REACTORS
330
275E
102
}
330
2
100
AcDbEntity
  8
KIJUN
100
AcDbCircle
 10
243.0306107968299
 20
3.369634768291462
 30
0.0
 40
171.6264791490023
100
AcDbArc
 50
148.6099226554479
 51
165.3373435607898
  0
ARC
  5
2710
102
{ACAD_REACTORS
330
275E
102
}
330
2
100
AcDbEntity
  8
KIJUN
100
AcDbCircle
 10
179.0857156727857
 20
4.894939920716524
 30
0.0
 40
106.7859902001831
100
AcDbArc
 50
129.9452463049309
 51
157.7554594214714
  0
ARC
  5
2711
102
{ACAD_REACTORS
330
275E
102
}
330
2
100
AcDbEntity
  8
KIJUN
100
AcDbCircle
 10
148.2267469012533
 20
6.860866584968448
 30
0.0
 40
75.08276488275945
100
AcDbArc
 50
109.209147977015
 51
150.7198179907753
  0
ARC
  5
2712
102
{ACAD_REACTORS
330
275E
102
}
330
2
100
AcDbEntity
  8
KIJUN
100
AcDbCircle
 10
126.990125956757
 20
15.95691155513481
 30
0.0
 40
49.86777380425238
100
AcDbArc
 50
87.08991192525679
 51
148.553135456879
  0
SPLINE
  5
2713
102
{ACAD_REACTORS
330
275E
102
}
330
2
100
AcDbEntity
  8
KIJUN
100
AcDbSpline
210
0.0
220
0.0
230
1.0
 70
     8
 71
     3
 72
    12
 73
     8
 74
     6
 42
0.0000000001
 43
0.0000000001
 44
0.0000000001
 40
0.0
 40
0.0
 40
0.0
 40
0.0
 40
4.242035873509954
 40
10.67770421838414
 40
14.80835962714076
 40
18.01765815771794
 40
20.92449135962214
 40
20.92449135962214
 40
20.92449135962214
 40
20.92449135962214
 10
117.5184951428096
 20
54.76299721125897
 30
0.0
 10
117.475363094632
 20
56.25090865149413
 30
0.0
 10
117.3667946462485
 20
59.99615709722103
 30
0.0
 10
123.3700294558533
 20
62.90305294689265
 30
0.0
 10
127.544043733963
 20
59.88294012801683
 30
0.0
 10
127.4636075992087
 20
55.12729010983545
 30
0.0
 10
125.0501530825501
 20
55.66164265845952
 30
0.0
 10
123.90310294904
 20
55.915606078118
 30
0.0
 11
117.5184951428096
 21
54.76299721125897
 31
0.0
 11
118.0894365452313
 21
58.96643559752636
 31
0.0
 11
123.90310294904
 21
61.72670913296497
 31
0.0
 11
127.1006191922431
 21
59.11171315202307
 31
0.0
 11
126.8099361509442
 21
55.915606078118
 31
0.0
 11
123.90310294904
 21
55.915606078118
 31
0.0
  0
ARC
  5
2714
102
{ACAD_REACTORS
330
275E
102
}
330
2
100
AcDbEntity
  8
KIJUN
100
AcDbCircle
 10
18.05629208864271
 20
15.95691155514749
 30
0.0
 40
49.86777380423563
100
AcDbArc
 50
31.44686454311564
 51
92.9100880747554
  0
ARC
  5
2715
102
{ACAD_REACTORS
330
275E
102
}
330
2
100
AcDbEntity
  8
KIJUN
100
AcDbCircle
 10
-3.180328855865582
 20
6.860866584968448
 30
0.0
 40
75.08276488275945
100
AcDbArc
 50
29.28018200922326
 51
70.79085202298502
  0
ARC
  5
2716
102
{ACAD_REACTORS
330
275E
102
}
330
2
100
AcDbEntity
  8
KIJUN
100
AcDbCircle
 10
-34.0392976273979
 20
4.894939920716524
 30
0.0
 40
106.7859902001831
100
AcDbArc
 50
22.24454057852859
 51
50.05475369506907
  0
ARC
  5
2717
102
{ACAD_REACTORS
330
275E
102
}
330
2
100
AcDbEntity
  8
KIJUN
100
AcDbCircle
 10
-97.98419275144215
 20
3.369634768291462
 30
0.0
 40
171.6264791490023
100
AcDbArc
 50
14.66265643921014
 51
31.39007734455204
  0
ARC
  5
2718
102
{ACAD_REACTORS
330
275E
102
}
330
2
100
AcDbEntity
  8
KIJUN
100
AcDbCircle
 10
23.31851280814885
 20
69.36566033921633
 30
0.0
 40
8.587413638197443
100
AcDbArc
 50
102.0674017898395
 51
204.8240676560126
  0
SPLINE
  5
271A
102
{ACAD_REACTORS
330
275E
102
}
330
2
100
AcDbEntity
  8
KIJUN
100
AcDbSpline
210
0.0
220
0.0
230
1.0
 70
     8
 71
     3
 72
    12
 73
     8
 74
     6
 42
0.0000000001
 43
0.0000000001
 44
0.0000000001
 40
0.0
 40
0.0
 40
0.0
 40
0.0
 40
4.241091797353833
 40
10.67676014222803
 40
14.80741555098464
 40
18.01671408156182
 40
20.92354728346601
 40
20.92354728346601
 40
20.92354728346601
 40
20.92354728346601
 10
27.52320902269389
 20
54.76331223194415
 30
0.0
 10
27.56816779151292
 20
56.25113406055906
 30
0.0
 10
27.68134949422213
 20
59.99665940108666
 30
0.0
 10
21.6759780107475
 20
62.90299123197527
 30
0.0
 10
17.50244109948927
 20
59.88295016706418
 30
0.0
 10
17.58279717527797
 20
55.12728811505982
 30
0.0
 10
19.99626068749174
 20
55.66164201582376
 30
0.0
 10
21.14331509634781
 20
55.915606078118
 30
0.0
 11
27.52320902269389
 21
54.76331223194415
 31
0.0
 11
26.95698150015642
 21
58.96643559752636
 31
0.0
 11
21.14331509634781
 21
61.72670913296497
 31
0.0
 11
17.94579885314465
 21
59.11171315202307
 31
0.0
 11
18.23648189444361
 21
55.915606078118
 31
0.0
 11
21.14331509634781
 21
55.915606078118
 31
0.0
  0
ARC
  5
271B
102
{ACAD_REACTORS
330
275E
102
}
330
2
100
AcDbEntity
  8
KIJUN
100
AcDbCircle
 10
20.74476573870926
 20
59.40872360491835
 30
0.0
 40
8.221556716011496
100
AcDbArc
 50
129.415576575947
 51
325.5957505739396
  0
ARC
  5
271C
102
{ACAD_REACTORS
330
275E
102
}
330
2
100
AcDbEntity
  8
KIJUN
100
AcDbCircle
 10
57.61724680405359
 20
81.80802887174525
 30
0.0
 40
14.23796883937639
100
AcDbArc
 50
65.49304457149069
 51
129.6962421656983
  0
ARC
  5
271D
102
{ACAD_REACTORS
330
275E
102
}
330
2
100
AcDbEntity
  8
KIJUN
100
AcDbCircle
 10
32.63190429432052
 20
75.60630795070494
 30
0.0
 40
11.31617329785777
100
AcDbArc
 50
80.37883923435158
 51
169.0114678281207
  0
ARC
  5
271E
102
{ACAD_REACTORS
330
275E
102
}
330
2
100
AcDbEntity
  8
KIJUN
100
AcDbCircle
 10
44.16866686725256
 20
83.59057726130698
 30
0.0
 40
10.1538713910047
100
AcDbArc
 50
64.60505977138588
 51
161.7921212559104
  0
ARC
  5
271F
102
{ACAD_REACTORS
330
275E
102
}
330
2
100
AcDbEntity
  8
KIJUN
100
AcDbCircle
 10
-185.39516258981
 20
28.15332436611004
 30
0.0
 40
257.6766310896462
100
AcDbArc
 50
4.33917470161796
 51
14.9812092640532
  0
ARC
  5
2720
102
{ACAD_REACTORS
330
275E
102
}
330
2
100
AcDbEntity
  8
KIJUN
100
AcDbCircle
 10
72.52320902269776
 20
86.63831223194506
 30
0.0
 40
12.12499999999661
100
AcDbArc
 50
42.07502205085611
 51
137.9249779491614
  0
ARC
  5
2727
102
{ACAD_REACTORS
330
275E
102
}
330
2
100
AcDbEntity
  8
KIJUN
100
AcDbCircle
 10
124.3016523066862
 20
59.40872360491835
 30
0.0
 40
8.221556716011496
100
AcDbArc
 50
214.4069102915363
 51
50.58442342410351
  0
ARC
  5
2728
102
{ACAD_REACTORS
330
275E
102
}
330
2
100
AcDbEntity
  8
KIJUN
100
AcDbCircle
 10
20.43845119309521
 20
-51.28641401449314
 30
0.0
 40
106.2861149466305
100
AcDbArc
 50
79.07343505150317
 51
86.17797744916556
  0
ARC
  5
2729
102
{ACAD_REACTORS
330
275E
102
}
330
2
100
AcDbEntity
  8
KIJUN
100
AcDbCircle
 10
36.13542796261973
 20
27.33090023792606
 30
0.0
 40
26.12367346651061
100
AcDbArc
 50
44.38427702764752
 51
80.19302508107925
  0
ARC
  5
272A
102
{ACAD_REACTORS
330
275E
102
}
330
2
100
AcDbEntity
  8
KIJUN
100
AcDbCircle
 10
72.85782640560005
 20
54.86728235991816
 30
0.0
 40
22.10650275849735
100
AcDbArc
 50
257.5022644013838
 51
269.1327033411611
  0
ARC
  5
272B
102
{ACAD_REACTORS
330
275E
102
}
330
2
100
AcDbEntity
  8
KIJUN
100
AcDbCircle
 10
70.6424633610179
 20
42.34610669194561
 30
0.0
 40
9.418496622640029
100
AcDbArc
 50
228.4072522888379
 51
254.1744800080481
  0
ARC
  5
272C
102
{ACAD_REACTORS
330
275E
102
}
330
2
100
AcDbEntity
  8
KIJUN
100
AcDbCircle
 10
223.0061293731154
 20
192.4988713386925
 30
0.0
 40
223.3155222488044
100
AcDbArc
 50
221.1317469060404
 51
224.7425128094416
  0
ARC
  5
272D
102
{ACAD_REACTORS
330
275E
102
}
330
2
100
AcDbEntity
  8
KIJUN
100
AcDbCircle
 10
124.6079668523003
 20
-51.28641401449314
 30
0.0
 40
106.2861149466305
100
AcDbArc
 50
93.82456933557035
 51
100.926564948496
  0
ARC
  5
272E
102
{ACAD_REACTORS
330
275E
102
}
330
2
100
AcDbEntity
  8
KIJUN
100
AcDbCircle
 10
108.9109900827758
 20
27.33090023792606
 30
0.0
 40
26.12367346651061
100
AcDbArc
 50
99.80697491892094
 51
135.615722972352
  0
ARC
  5
272F
102
{ACAD_REACTORS
330
275E
102
}
330
2
100
AcDbEntity
  8
KIJUN
100
AcDbCircle
 10
72.18859163979546
 20
54.86728235991816
 30
0.0
 40
22.10650275849735
100
AcDbArc
 50
270.8672966588383
 51
282.4977355986169
  0
ARC
  5
2730
102
{ACAD_REACTORS
330
275E
102
}
330
2
100
AcDbEntity
  8
KIJUN
100
AcDbCircle
 10
74.40395468437761
 20
42.34610669194561
 30
0.0
 40
9.418496622640029
100
AcDbArc
 50
285.8255199919517
 51
311.5927477111626
  0
ARC
  5
2731
102
{ACAD_REACTORS
330
275E
102
}
330
2
100
AcDbEntity
  8
KIJUN
100
AcDbCircle
 10
-77.95971132771985
 20
192.4988713386925
 30
0.0
 40
223.3155222488044
100
AcDbArc
 50
315.2574871905583
 51
318.8682530939597
  0
DIMENSION
  5
2732
330
2
100
AcDbEntity
  8
SUNPOU
100
AcDbDimension
  2
*D17
 10
132.5232090226977
 20
120.229640538656
 30
0.0
 11
72.52320902269776
 21
125.729640538656
 31
0.0
 70
    32
 71
     5
 42
120.0
  3
STANDARD
100
AcDbAlignedDimension
 13
12.52320902269775
 23
98.76331223194169
 33
0.0
 14
132.5232090226977
 24
96.90804638526607
 34
0.0
100
AcDbRotatedDimension
1001
ACAD
1000
DSTYLE
1002
{
1070
    41
1040
2.0
1070
    42
1040
10.0
1070
    44
1040
0.0
1070
    73
1070
     0
1070
    74
1070
     0
1070
    77
1070
     1
1070
   140
1040
5.0
1070
   141
1040
0.0
1070
   146
1040
0.064286
1070
   147
1040
3.0
1070
   176
1070
    60
1070
   177
1070
    70
1070
   178
1070
    60
1070
   271
1070
     0
1070
   272
1070
     0
1070
   340
1005
1C
1070
   342
1005
109
1002
}
  0
DIMENSION
  5
273F
330
2
100
AcDbEntity
  8
SUNPOU
100
AcDbDimension
  2
*D18
 10
-13.3113133423517
 20
32.76331223194166
 30
0.0
 11
-18.8113133423517
 21
65.76331223194166
 31
0.0
 70
    32
 71
     5
 42
66.00000000000003
  3
STANDARD
100
AcDbAlignedDimension
 13
12.52320902269775
 23
98.76331223194169
 33
0.0
 14
13.49526547265623
 24
32.76331223194166
 34
0.0
 50
90.0
100
AcDbRotatedDimension
1001
ACAD
1000
DSTYLE
1002
{
1070
    41
1040
2.0
1070
    42
1040
10.0
1070
    44
1040
0.0
1070
    73
1070
     0
1070
    74
1070
     0
1070
    77
1070
     1
1070
   140
1040
5.0
1070
   141
1040
0.0
1070
   146
1040
0.064286
1070
   147
1040
3.0
1070
   176
1070
    60
1070
   177
1070
    70
1070
   178
1070
    60
1070
   271
1070
     0
1070
   272
1070
     0
1070
   340
1005
1C
1070
   342
1005
109
1002
}
  0
ENDSEC
  0
SECTION
  2
OBJECTS
  0
DICTIONARY
  5
1A
330
0
100
AcDbDictionary
281
     1
  3
ACAD_COLOR
350
144
  3
ACAD_GROUP
350
18
  3
ACAD_LAYOUT
350
58
  3
ACAD_MATERIAL
350
143
  3
ACAD_MLINESTYLE
350
19
  3
ACAD_PLOTSETTINGS
350
59
  3
ACAD_PLOTSTYLENAME
350
56
  3
ACAD_TABLESTYLE
350
145
  3
ACDBHEADERROUNDTRIPXREC
350
279C
  3
AcDbVariableDictionary
350
1D1
  0
DICTIONARY
  5
1B4
330
A
100
AcDbDictionary
280
     1
281
     1
  3
ACAD_LAYERFILTERS
360
1A2A
  3
ACLYDICTIONARY
360
1A29
  0
DICTIONARY
  5
D13
330
2
100
AcDbDictionary
280
     1
281
     1
  3
ACAD_SORTENTS
360
D14
  0
DICTIONARY
  5
144
102
{ACAD_REACTORS
330
1A
102
}
330
1A
100
AcDbDictionary
281
     1
  0
DICTIONARY
  5
18
102
{ACAD_REACTORS
330
1A
102
}
330
1A
100
AcDbDictionary
281
     1
  3
*A1
350
E0D
  3
*A10
350
1EFE
  3
*A11
350
2037
  3
*A12
350
FF8
  3
*A13
350
136A
  3
*A14
350
1555
  3
*A15
350
17BC
  3
*A16
350
1A98
  3
*A17
350
1CBC
  3
*A2
350
213E
  3
*A3
350
22C8
  3
*A4
350
241A
  3
*A5
350
24D6
  3
*A6
350
2573
  3
*A7
350
265A
  3
*A8
350
26DD
  3
*A9
350
275E
  0
DICTIONARY
  5
58
102
{ACAD_REACTORS
330
1A
102
}
330
1A
100
AcDbDictionary
281
     1
  3
Model
350
5A
  3
ﾚｲｱｳﾄ1
350
5B
  0
DICTIONARY
  5
143
102
{ACAD_REACTORS
330
1A
102
}
330
1A
100
AcDbDictionary
281
     1
  0
DICTIONARY
  5
19
102
{ACAD_REACTORS
330
1A
102
}
330
1A
100
AcDbDictionary
281
     1
  3
STANDARD
350
1D
  0
DICTIONARY
  5
59
102
{ACAD_REACTORS
330
1A
102
}
330
1A
100
AcDbDictionary
281
     1
  0
ACDBDICTIONARYWDFLT
  5
56
102
{ACAD_REACTORS
330
1A
102
}
330
1A
100
AcDbDictionary
281
     1
  3
Normal
350
57
100
AcDbDictionaryWithDefault
340
57
  0
DICTIONARY
  5
145
102
{ACAD_REACTORS
330
1A
102
}
330
1A
100
AcDbDictionary
281
     1
  3
Standard
350
146
  0
DICTIONARY
  5
279C
102
{ACAD_REACTORS
330
1A
102
}
330
1A
100
AcDbDictionary
281
     1
  0
DICTIONARY
  5
1D1
102
{ACAD_REACTORS
330
1A
102
}
330
1A
100
AcDbDictionary
281
     1
  3
CTABLESTYLE
350
1D2
  3
DIMASSOC
350
D03
  3
PROJECTNAME
350
D04
  0
DICTIONARY
  5
1A2A
102
{ACAD_REACTORS
330
1B4
102
}
330
1B4
100
AcDbDictionary
281
     1
  0
DICTIONARY
  5
1A29
102
{ACAD_REACTORS
330
1B4
102
}
330
1B4
100
AcDbDictionary
281
     1
1001
ACAD
1000
<All
  0
SORTENTSTABLE
  5
D14
102
{ACAD_REACTORS
330
D13
102
}
330
D13
100
AcDbSortentsTable
330
2
331
23
  5
23
331
21
  5
21
331
1F
  5
1F
331
20
  5
20
  0
GROUP
  5
E0D
102
{ACAD_REACTORS
330
18
102
}
330
18
100
AcDbGroup
300

 70
     1
 71
     1
  0
GROUP
  5
1EFE
102
{ACAD_REACTORS
330
18
102
}
330
18
100
AcDbGroup
300

 70
     1
 71
     1
  0
GROUP
  5
2037
102
{ACAD_REACTORS
330
18
102
}
330
18
100
AcDbGroup
300

 70
     1
 71
     1
  0
GROUP
  5
FF8
102
{ACAD_REACTORS
330
18
102
}
330
18
100
AcDbGroup
300

 70
     1
 71
     1
  0
GROUP
  5
136A
102
{ACAD_REACTORS
330
18
102
}
330
18
100
AcDbGroup
300

 70
     1
 71
     1
  0
GROUP
  5
1555
102
{ACAD_REACTORS
330
18
102
}
330
18
100
AcDbGroup
300

 70
     1
 71
     1
  0
GROUP
  5
17BC
102
{ACAD_REACTORS
330
18
102
}
330
18
100
AcDbGroup
300

 70
     1
 71
     1
  0
GROUP
  5
1A98
102
{ACAD_REACTORS
330
18
102
}
330
18
100
AcDbGroup
300

 70
     1
 71
     1
  0
GROUP
  5
1CBC
102
{ACAD_REACTORS
330
18
102
}
330
18
100
AcDbGroup
300

 70
     1
 71
     1
  0
GROUP
  5
213E
102
{ACAD_REACTORS
330
18
102
}
330
18
100
AcDbGroup
300

 70
     1
 71
     1
  0
GROUP
  5
22C8
102
{ACAD_REACTORS
330
18
102
}
330
18
100
AcDbGroup
300

 70
     1
 71
     1
  0
GROUP
  5
241A
102
{ACAD_REACTORS
330
18
102
}
330
18
100
AcDbGroup
300

 70
     1
 71
     1
  0
GROUP
  5
24D6
102
{ACAD_REACTORS
330
18
102
}
330
18
100
AcDbGroup
300

 70
     1
 71
     1
  0
GROUP
  5
2573
102
{ACAD_REACTORS
330
18
102
}
330
18
100
AcDbGroup
300

 70
     1
 71
     1
  0
GROUP
  5
265A
102
{ACAD_REACTORS
330
18
102
}
330
18
100
AcDbGroup
300

 70
     1
 71
     1
  0
GROUP
  5
26DD
102
{ACAD_REACTORS
330
18
102
}
330
18
100
AcDbGroup
300

 70
     1
 71
     1
  0
GROUP
  5
275E
102
{ACAD_REACTORS
330
18
102
}
330
18
100
AcDbGroup
300

 70
     1
 71
     1
340
2731
340
2730
340
272F
340
272E
340
272D
340
272C
340
272B
340
272A
340
2729
340
2728
340
2727
340
2720
340
271F
340
271E
340
271D
340
271C
340
271B
340
271A
340
2718
340
2717
340
2716
340
2715
340
2714
340
2713
340
2712
340
2711
340
2710
340
270F
340
270E
340
270B
340
270A
340
2709
340
2708
  0
LAYOUT
  5
5A
102
{ACAD_XDICTIONARY
360
279D
102
}
102
{ACAD_REACTORS
330
58
102
}
330
58
100
AcDbPlotSettings
  1

  2
なし
  4

  6

 40
0.0
 41
0.0
 42
0.0
 43
0.0
 44
0.0
 45
0.0
 46
0.0
 47
0.0
 48
0.0
 49
0.0
140
0.0
141
0.0
142
1.0
143
1.0
 70
  1712
 72
     0
 73
     0
 74
     0
  7
monochrome.ctb
 75
     0
147
1.0
148
0.0
149
0.0
100
AcDbLayout
  1
Model
 70
     1
 71
     0
 10
0.0
 20
0.0
 11
12.0
 21
9.0
 12
0.0
 22
0.0
 32
0.0
 14
0.0
 24
0.0
 34
0.0
 15
0.0
 25
0.0
 35
0.0
146
0.0
 13
0.0
 23
0.0
 33
0.0
 16
1.0
 26
0.0
 36
0.0
 17
0.0
 27
1.0
 37
0.0
 76
     0
330
2
  0
LAYOUT
  5
5B
102
{ACAD_XDICTIONARY
360
279F
102
}
102
{ACAD_REACTORS
330
58
102
}
330
58
100
AcDbPlotSettings
  1

  2
なし
  4

  6

 40
0.0
 41
0.0
 42
0.0
 43
0.0
 44
0.0
 45
0.0
 46
0.0
 47
0.0
 48
0.0
 49
0.0
140
0.0
141
0.0
142
1.0
143
1.0
 70
   688
 72
     0
 73
     0
 74
     5
  7
monochrome.ctb
 75
    16
147
1.0
148
0.0
149
0.0
100
AcDbLayout
  1
ﾚｲｱｳﾄ1
 70
     1
 71
     1
 10
0.0
 20
0.0
 11
12.0
 21
9.0
 12
0.0
 22
0.0
 32
0.0
 14
1.000000000000000E+20
 24
1.000000000000000E+20
 34
1.000000000000000E+20
 15
-1.000000000000000E+20
 25
-1.000000000000000E+20
 35
-1.000000000000000E+20
146
0.0
 13
0.0
 23
0.0
 33
0.0
 16
1.0
 26
0.0
 36
0.0
 17
0.0
 27
1.0
 37
0.0
 76
     0
330
7
  0
MLINESTYLE
  5
1D
102
{ACAD_REACTORS
330
19
102
}
330
19
100
AcDbMlineStyle
  2
STANDARD
 70
     0
  3

 62
   256
 51
90.0
 52
90.0
 71
     2
 49
0.5
 62
   256
  6
BYLAYER
 49
-0.5
 62
   256
  6
BYLAYER
  0
ACDBPLACEHOLDER
  5
57
102
{ACAD_REACTORS
330
56
102
}
330
56
  0
TABLESTYLE
  5
146
102
{ACAD_REACTORS
330
145
102
}
330
145
100
AcDbTableStyle
  3
Standard
 70
     0
 71
     0
 40
0.06
 41
0.06
280
     0
281
     0
  7
STANDARD
140
0.18
170
     2
 62
     0
 63
     7
283
     0
274
    -2
284
     1
 64
     0
275
    -2
285
     1
 65
     0
276
    -2
286
     1
 66
     0
277
    -2
287
     1
 67
     0
278
    -2
288
     1
 68
     0
279
    -2
289
     1
 69
     0
  7
STANDARD
140
0.25
170
     5
 62
     0
 63
     7
283
     0
274
    -2
284
     1
 64
     0
275
    -2
285
     1
 65
     0
276
    -2
286
     1
 66
     0
277
    -2
287
     1
 67
     0
278
    -2
288
     1
 68
     0
279
    -2
289
     1
 69
     0
  7
STANDARD
140
0.18
170
     5
 62
     0
 63
     7
283
     0
274
    -2
284
     1
 64
     0
275
    -2
285
     1
 65
     0
276
    -2
286
     1
 66
     0
277
    -2
287
     1
 67
     0
278
    -2
288
     1
 68
     0
279
    -2
289
     1
 69
     0
  0
DICTIONARYVAR
  5
1D2
102
{ACAD_REACTORS
330
1D1
102
}
330
1D1
100
DictionaryVariables
280
     0
  1
STANDARD
  0
DICTIONARYVAR
  5
D03
102
{ACAD_REACTORS
330
1D1
102
}
330
1D1
100
DictionaryVariables
280
     0
  1
1
  0
DICTIONARYVAR
  5
D04
102
{ACAD_REACTORS
330
1D1
102
}
330
1D1
100
DictionaryVariables
280
     0
  1

  0
DICTIONARY
  5
279D
330
5A
100
AcDbDictionary
280
     1
281
     1
  3
ACAD_XREC_ROUNDTRIP
360
279E
  0
DICTIONARY
  5
279F
330
5B
100
AcDbDictionary
280
     1
281
     1
  3
ACAD_XREC_ROUNDTRIP
360
27A0
  0
XRECORD
  5
279E
102
{ACAD_REACTORS
330
279D
102
}
330
279D
100
AcDbXrecord
280
     1
102
SHADEPLOT
 70
     0
102
SHADEPLOTRESLEVEL
 70
     2
102
SHADEPLOTCUSTOMDPI
 70
   300
  0
XRECORD
  5
27A0
102
{ACAD_REACTORS
330
279F
102
}
330
279F
100
AcDbXrecord
280
     1
102
SHADEPLOT
 70
     0
102
SHADEPLOTRESLEVEL
 70
     2
102
SHADEPLOTCUSTOMDPI
 70
   300
  0
ENDSEC
  0
EOF
