  0
SECTION
  2
HEADER
  9
$ACADVER
  1
AC1015
  9
$ACADMAINTVER
 70
    20
  9
$DWGCODEPAGE
  3
ANSI_932
  9
$INSBASE
 10
922.019522
 20
-675.4306699999999
 30
0.0
  9
$EXTMIN
 10
-0.0003787385578562
 20
-0.0120975342524616
 30
-0.0000000000000058
  9
$EXTMAX
 10
148.7155048173243
 20
124.524697090015
 30
0.0000000000000104
  9
$LIMMIN
 10
0.0
 20
0.0
  9
$LIMMAX
 10
420.0
 20
297.0
  9
$ORTHOMODE
 70
     1
  9
$REGENMODE
 70
     1
  9
$FILLMODE
 70
     1
  9
$QTEXTMODE
 70
     0
  9
$MIRRTEXT
 70
     1
  9
$LTSCALE
 40
1.0
  9
$ATTMODE
 70
     1
  9
$TEXTSIZE
 40
30.0
  9
$TRACEWID
 40
0.05
  9
$TEXTSTYLE
  7
SUNPOU
  9
$CLAYER
  8
0
  9
$CELTYPE
  6
BYLAYER
  9
$CECOLOR
 62
   256
  9
$CELTSCALE
 40
1.0
  9
$DISPSILH
 70
     0
  9
$DIMSCALE
 40
1.0
  9
$DIMASZ
 40
2.0
  9
$DIMEXO
 40
10.0
  9
$DIMDLI
 40
0.38
  9
$DIMRND
 40
0.0
  9
$DIMDLE
 40
0.0
  9
$DIMEXE
 40
0.0
  9
$DIMTP
 40
0.0
  9
$DIMTM
 40
0.0
  9
$DIMTXT
 40
5.0
  9
$DIMCEN
 40
0.0
  9
$DIMTSZ
 40
0.0
  9
$DIMTOL
 70
     0
  9
$DIMLIM
 70
     0
  9
$DIMTIH
 70
     0
  9
$DIMTOH
 70
     0
  9
$DIMSE1
 70
     0
  9
$DIMSE2
 70
     0
  9
$DIMTAD
 70
     1
  9
$DIMZIN
 70
     0
  9
$DIMBLK
  1
Dot
  9
$DIMASO
 70
     1
  9
$DIMSHO
 70
     1
  9
$DIMPOST
  1

  9
$DIMAPOST
  1

  9
$DIMALT
 70
     0
  9
$DIMALTD
 70
     2
  9
$DIMALTF
 40
25.4
  9
$DIMLFAC
 40
1.0
  9
$DIMTOFL
 70
     0
  9
$DIMTVP
 40
0.0
  9
$DIMTIX
 70
     0
  9
$DIMSOXD
 70
     0
  9
$DIMSAH
 70
     0
  9
$DIMBLK1
  1

  9
$DIMBLK2
  1

  9
$DIMSTYLE
  2
STANDARD
  9
$DIMCLRD
 70
    60
  9
$DIMCLRE
 70
    70
  9
$DIMCLRT
 70
    60
  9
$DIMTFAC
 40
0.064286
  9
$DIMGAP
 40
3.0
  9
$DIMJUST
 70
     0
  9
$DIMSD1
 70
     0
  9
$DIMSD2
 70
     0
  9
$DIMTOLJ
 70
     1
  9
$DIMTZIN
 70
     0
  9
$DIMALTZ
 70
     0
  9
$DIMALTTZ
 70
     0
  9
$DIMUPT
 70
     0
  9
$DIMDEC
 70
     0
  9
$DIMTDEC
 70
     0
  9
$DIMALTU
 70
     2
  9
$DIMALTTD
 70
     2
  9
$DIMTXSTY
  7
SUNPOU
  9
$DIMAUNIT
 70
     0
  9
$DIMADEC
 70
     0
  9
$DIMALTRND
 40
0.0
  9
$DIMAZIN
 70
     0
  9
$DIMDSEP
 70
    46
  9
$DIMATFIT
 70
     3
  9
$DIMFRAC
 70
     0
  9
$DIMLDRBLK
  1

  9
$DIMLUNIT
 70
     2
  9
$DIMLWD
 70
    -2
  9
$DIMLWE
 70
    -2
  9
$DIMTMOVE
 70
     0
  9
$LUNITS
 70
     2
  9
$LUPREC
 70
     5
  9
$SKETCHINC
 40
0.1
  9
$FILLETRAD
 40
0.0
  9
$AUNITS
 70
     0
  9
$AUPREC
 70
     0
  9
$MENU
  1
acad
  9
$ELEVATION
 40
0.0
  9
$PELEVATION
 40
0.0
  9
$THICKNESS
 40
0.0
  9
$LIMCHECK
 70
     0
  9
$CHAMFERA
 40
0.0
  9
$CHAMFERB
 40
0.0
  9
$CHAMFERC
 40
0.0
  9
$CHAMFERD
 40
0.0
  9
$SKPOLY
 70
     0
  9
$TDCREATE
 40
2450623.654673033
  9
$TDUCREATE
 40
2450623.279673032
  9
$TDUPDATE
 40
2453866.681161273
  9
$TDUUPDATE
 40
2453866.306161273
  9
$TDINDWG
 40
0.2584859838
  9
$TDUSRTIMER
 40
0.2584858102
  9
$USRTIMER
 70
     1
  9
$ANGBASE
 50
0.0
  9
$ANGDIR
 70
     0
  9
$PDMODE
 70
     0
  9
$PDSIZE
 40
0.0
  9
$PLINEWID
 40
0.0
  9
$SPLFRAME
 70
     0
  9
$SPLINETYPE
 70
     6
  9
$SPLINESEGS
 70
     8
  9
$HANDSEED
  5
26EA
  9
$SURFTAB1
 70
     6
  9
$SURFTAB2
 70
     6
  9
$SURFTYPE
 70
     6
  9
$SURFU
 70
     6
  9
$SURFV
 70
     6
  9
$UCSBASE
  2

  9
$UCSNAME
  2

  9
$UCSORG
 10
0.0
 20
0.0
 30
0.0
  9
$UCSXDIR
 10
1.0
 20
0.0
 30
0.0
  9
$UCSYDIR
 10
0.0
 20
1.0
 30
0.0
  9
$UCSORTHOREF
  2

  9
$UCSORTHOVIEW
 70
     0
  9
$UCSORGTOP
 10
0.0
 20
0.0
 30
0.0
  9
$UCSORGBOTTOM
 10
0.0
 20
0.0
 30
0.0
  9
$UCSORGLEFT
 10
0.0
 20
0.0
 30
0.0
  9
$UCSORGRIGHT
 10
0.0
 20
0.0
 30
0.0
  9
$UCSORGFRONT
 10
0.0
 20
0.0
 30
0.0
  9
$UCSORGBACK
 10
0.0
 20
0.0
 30
0.0
  9
$PUCSBASE
  2

  9
$PUCSNAME
  2

  9
$PUCSORG
 10
0.0
 20
0.0
 30
0.0
  9
$PUCSXDIR
 10
1.0
 20
0.0
 30
0.0
  9
$PUCSYDIR
 10
0.0
 20
1.0
 30
0.0
  9
$PUCSORTHOREF
  2

  9
$PUCSORTHOVIEW
 70
     0
  9
$PUCSORGTOP
 10
0.0
 20
0.0
 30
0.0
  9
$PUCSORGBOTTOM
 10
0.0
 20
0.0
 30
0.0
  9
$PUCSORGLEFT
 10
0.0
 20
0.0
 30
0.0
  9
$PUCSORGRIGHT
 10
0.0
 20
0.0
 30
0.0
  9
$PUCSORGFRONT
 10
0.0
 20
0.0
 30
0.0
  9
$PUCSORGBACK
 10
0.0
 20
0.0
 30
0.0
  9
$USERI1
 70
     0
  9
$USERI2
 70
     0
  9
$USERI3
 70
     0
  9
$USERI4
 70
     0
  9
$USERI5
 70
     0
  9
$USERR1
 40
0.0
  9
$USERR2
 40
0.0
  9
$USERR3
 40
0.0
  9
$USERR4
 40
0.0
  9
$USERR5
 40
0.0
  9
$WORLDVIEW
 70
     1
  9
$SHADEDGE
 70
     3
  9
$SHADEDIF
 70
    70
  9
$TILEMODE
 70
     1
  9
$MAXACTVP
 70
    16
  9
$PINSBASE
 10
0.0
 20
0.0
 30
0.0
  9
$PLIMCHECK
 70
     0
  9
$PEXTMIN
 10
1.000000000000000E+20
 20
1.000000000000000E+20
 30
1.000000000000000E+20
  9
$PEXTMAX
 10
-1.000000000000000E+20
 20
-1.000000000000000E+20
 30
-1.000000000000000E+20
  9
$PLIMMIN
 10
0.0
 20
0.0
  9
$PLIMMAX
 10
12.0
 20
9.0
  9
$UNITMODE
 70
     0
  9
$VISRETAIN
 70
     0
  9
$PLINEGEN
 70
     0
  9
$PSLTSCALE
 70
     1
  9
$TREEDEPTH
 70
  3020
  9
$CMLSTYLE
  2
STANDARD
  9
$CMLJUST
 70
     0
  9
$CMLSCALE
 40
1.0
  9
$PROXYGRAPHICS
 70
     1
  9
$MEASUREMENT
 70
     0
  9
$CELWEIGHT
370
    -1
  9
$ENDCAPS
280
     0
  9
$JOINSTYLE
280
     0
  9
$LWDISPLAY
290
     0
  9
$INSUNITS
 70
     0
  9
$HYPERLINKBASE
  1

  9
$STYLESHEET
  1

  9
$XEDIT
290
     1
  9
$CEPSNTYPE
380
     0
  9
$PSTYLEMODE
290
     1
  9
$FINGERPRINTGUID
  2
{FB88A696-E29C-4009-92AF-A3599A8169D5}
  9
$VERSIONGUID
  2
{88C5E3F0-42A6-4799-A06E-4C3696EECB84}
  9
$EXTNAMES
290
     1
  9
$PSVPSCALE
 40
0.0
  9
$OLESTARTUP
290
     0
  0
ENDSEC
  0
SECTION
  2
CLASSES
  0
CLASS
  1
DICTIONARYVAR
  2
AcDbDictionaryVar
  3
ObjectDBX Classes
 90
        0
280
     0
281
     0
  0
CLASS
  1
ACDBDICTIONARYWDFLT
  2
AcDbDictionaryWithDefault
  3
ObjectDBX Classes
 90
        0
280
     0
281
     0
  0
CLASS
  1
ACDBPLACEHOLDER
  2
AcDbPlaceHolder
  3
ObjectDBX Classes
 90
        0
280
     0
281
     0
  0
CLASS
  1
LAYOUT
  2
AcDbLayout
  3
ObjectDBX Classes
 90
        0
280
     0
281
     0
  0
CLASS
  1
TABLESTYLE
  2
AcDbTableStyle
  3
ObjectDBX Classes
 90
     2047
280
     0
281
     0
  0
CLASS
  1
SORTENTSTABLE
  2
AcDbSortentsTable
  3
ObjectDBX Classes
 90
        0
280
     0
281
     0
  0
ENDSEC
  0
SECTION
  2
TABLES
  0
TABLE
  2
VPORT
  5
12
330
0
100
AcDbSymbolTable
 70
    20
  0
VPORT
  5
26E4
330
12
100
AcDbSymbolTableRecord
100
AcDbViewportTableRecord
  2
*Active
 70
     0
 10
0.0
 20
0.0
 11
1.0
 21
1.0
 12
74.35756303938325
 22
62.25629977788127
 13
0.0
 23
0.0
 14
1.0
 24
1.0
 15
0.0
 25
0.0
 16
0.0
 26
0.0
 36
1.0
 17
0.0
 27
0.0
 37
0.0
 40
125.4935433665794
 41
1.565384615384615
 42
50.0
 43
0.0
 44
0.0
 50
0.0
 51
0.0
 71
     0
 72
 20000
 73
     1
 74
     1
 75
     0
 76
     0
 77
     0
 78
     0
281
     0
 65
     1
110
0.0
120
0.0
130
0.0
111
1.0
121
0.0
131
0.0
112
0.0
122
1.0
132
0.0
 79
     0
146
0.0
  0
ENDTAB
  0
TABLE
  2
LTYPE
  5
D
330
0
100
AcDbSymbolTable
 70
     2
  0
LTYPE
  5
E
330
D
100
AcDbSymbolTableRecord
100
AcDbLinetypeTableRecord
  2
BYBLOCK
 70
     0
  3

 72
    65
 73
     0
 40
0.0
  0
LTYPE
  5
F
330
D
100
AcDbSymbolTableRecord
100
AcDbLinetypeTableRecord
  2
BYLAYER
 70
     0
  3

 72
    65
 73
     0
 40
0.0
  0
LTYPE
  5
5
330
D
100
AcDbSymbolTableRecord
100
AcDbLinetypeTableRecord
  2
CONTINUOUS
 70
     0
  3
Solid line
 72
    65
 73
     0
 40
0.0
  0
ENDTAB
  0
TABLE
  2
LAYER
  5
A
102
{ACAD_XDICTIONARY
360
1B4
102
}
330
0
100
AcDbSymbolTable
 70
     6
  0
LAYER
  5
4
330
A
100
AcDbSymbolTableRecord
100
AcDbLayerTableRecord
  2
0
 70
     0
 62
     7
  6
CONTINUOUS
370
    -3
390
57
  0
LAYER
  5
25
330
A
100
AcDbSymbolTableRecord
100
AcDbLayerTableRecord
  2
KIJUN
 70
     0
 62
     7
  6
CONTINUOUS
370
    -3
390
57
  0
LAYER
  5
22
330
A
100
AcDbSymbolTableRecord
100
AcDbLayerTableRecord
  2
HOJO
 70
     0
 62
     3
  6
CONTINUOUS
370
    -3
390
57
  0
LAYER
  5
1B
330
A
100
AcDbSymbolTableRecord
100
AcDbLayerTableRecord
  2
WAKU
 70
     0
 62
     1
  6
CONTINUOUS
370
    -3
390
57
  0
LAYER
  5
31
330
A
100
AcDbSymbolTableRecord
100
AcDbLayerTableRecord
  2
DEFPOINTS
 70
     0
 62
     7
  6
CONTINUOUS
290
     0
370
    -3
390
57
  0
LAYER
  5
28
330
A
100
AcDbSymbolTableRecord
100
AcDbLayerTableRecord
  2
SUNPOU
 70
     0
 62
    70
  6
CONTINUOUS
370
    -3
390
57
  0
ENDTAB
  0
TABLE
  2
STYLE
  5
B
330
0
100
AcDbSymbolTable
 70
     3
  0
STYLE
  5
C
330
B
100
AcDbSymbolTableRecord
100
AcDbTextStyleTableRecord
  2
STANDARD
 70
     0
 40
0.0
 41
1.0
 50
0.0
 71
     0
 42
0.2
  3
txt
  4

  0
STYLE
  5
1C
330
B
100
AcDbSymbolTableRecord
100
AcDbTextStyleTableRecord
  2
SUNPOU
 70
     0
 40
0.0
 41
1.0
 50
0.0
 71
     0
 42
30.0
  3
txt
  4
bigfont
  0
STYLE
  5
14A
330
B
100
AcDbSymbolTableRecord
100
AcDbTextStyleTableRecord
  2
LIFE
 70
     0
 40
0.0
 41
0.7
 50
0.0
 71
     0
 42
10.0
  3
romans
  4
extfont
  0
ENDTAB
  0
TABLE
  2
VIEW
  5
10
330
0
100
AcDbSymbolTable
 70
     0
  0
ENDTAB
  0
TABLE
  2
UCS
  5
11
330
0
100
AcDbSymbolTable
 70
     0
  0
ENDTAB
  0
TABLE
  2
APPID
  5
14
330
0
100
AcDbSymbolTable
 70
    10
  0
APPID
  5
15
330
14
100
AcDbSymbolTableRecord
100
AcDbRegAppTableRecord
  2
ACAD
 70
     0
  0
APPID
  5
1D3
330
14
100
AcDbSymbolTableRecord
100
AcDbRegAppTableRecord
  2
ACAD_DSTYLE_DIMTEXT_FILL
 70
     0
  0
APPID
  5
1D4
330
14
100
AcDbSymbolTableRecord
100
AcDbRegAppTableRecord
  2
ACAD_DSTYLE_DIMEXT_LENGTH
 70
     0
  0
APPID
  5
1D5
330
14
100
AcDbSymbolTableRecord
100
AcDbRegAppTableRecord
  2
ACAD_DSTYLE_DIMEXT_ENABLED
 70
     0
  0
APPID
  5
1D6
330
14
100
AcDbSymbolTableRecord
100
AcDbRegAppTableRecord
  2
ACAD_DSTYLE_DIM_LINETYPE
 70
     0
  0
APPID
  5
1D7
330
14
100
AcDbSymbolTableRecord
100
AcDbRegAppTableRecord
  2
ACAD_DSTYLE_DIM_EXT1_LINETYPE
 70
     0
  0
APPID
  5
1D8
330
14
100
AcDbSymbolTableRecord
100
AcDbRegAppTableRecord
  2
ACAD_DSTYLE_DIM_EXT2_LINETYPE
 70
     0
  0
APPID
  5
294
330
14
100
AcDbSymbolTableRecord
100
AcDbRegAppTableRecord
  2
ACAD_DSTYLE_DIMJOGGED_JOGANGLE_SYMBOL
 70
     0
  0
APPID
  5
478
330
14
100
AcDbSymbolTableRecord
100
AcDbRegAppTableRecord
  2
ACAD_DSTYLE_DIMARC_LENGTH_SYMBOL
 70
     0
  0
APPID
  5
F55
330
14
100
AcDbSymbolTableRecord
100
AcDbRegAppTableRecord
  2
ACAD_EXEMPT_FROM_CAD_STANDARDS
 70
     0
  0
ENDTAB
  0
TABLE
  2
DIMSTYLE
  5
16
330
0
100
AcDbSymbolTable
 70
     3
100
AcDbDimStyleTable
 71
     1
340
1E
  0
DIMSTYLE
105
1E
102
{ACAD_REACTORS
330
26B1
330
26BE
102
}
330
16
100
AcDbSymbolTableRecord
100
AcDbDimStyleTableRecord
  2
STANDARD
 70
     0
340
C
  0
DIMSTYLE
105
1005
330
16
100
AcDbSymbolTableRecord
100
AcDbDimStyleTableRecord
  2
1-100
 70
     0
 40
100.0
 41
0.7
 42
2.5
 43
5.0
 44
1.0
 77
     1
147
1.0
172
     1
176
     3
177
     3
271
     2
272
     2
279
     2
340
C
342
109
  0
ENDTAB
  0
TABLE
  2
BLOCK_RECORD
  5
1
330
0
100
AcDbSymbolTable
 70
    32
  0
BLOCK_RECORD
  5
2
102
{ACAD_XDICTIONARY
360
D13
102
}
330
1
100
AcDbSymbolTableRecord
100
AcDbBlockTableRecord
  2
*MODEL_SPACE
340
5A
  0
BLOCK_RECORD
  5
7
330
1
100
AcDbSymbolTableRecord
100
AcDbBlockTableRecord
  2
*PAPER_SPACE
340
5B
  0
BLOCK_RECORD
  5
109
330
1
100
AcDbSymbolTableRecord
100
AcDbBlockTableRecord
  2
_Dot
340
0
102
{BLKREFS
331
1795
331
1796
331
17B6
331
17B7
331
1AD5
331
1AD6
331
1AF0
331
1AF1
331
1D52
331
1D53
331
1D5B
331
1D5C
331
1EF8
331
1EF9
331
2010
331
2011
331
201D
331
201E
331
2117
331
2118
331
2124
331
2125
331
2295
331
2296
331
22B9
331
22BA
331
22D5
331
22D6
331
241E
331
241F
331
24E3
331
24E4
331
24F5
331
24F6
331
2580
331
2581
331
259B
331
259C
331
2645
331
2646
331
2652
331
2653
331
26B6
331
26B7
331
26C3
331
26C4
102
}
  0
BLOCK_RECORD
  5
200C
330
1
100
AcDbSymbolTableRecord
100
AcDbBlockTableRecord
  2
*D8
340
0
  0
BLOCK_RECORD
  5
2019
330
1
100
AcDbSymbolTableRecord
100
AcDbBlockTableRecord
  2
*D9
340
0
  0
BLOCK_RECORD
  5
2113
330
1
100
AcDbSymbolTableRecord
100
AcDbBlockTableRecord
  2
*D12
340
0
  0
BLOCK_RECORD
  5
2120
330
1
100
AcDbSymbolTableRecord
100
AcDbBlockTableRecord
  2
*D13
340
0
  0
BLOCK_RECORD
  5
2262
330
1
100
AcDbSymbolTableRecord
100
AcDbBlockTableRecord
  2
*D15
340
0
  0
BLOCK_RECORD
  5
226F
330
1
100
AcDbSymbolTableRecord
100
AcDbBlockTableRecord
  2
*D16
340
0
  0
BLOCK_RECORD
  5
22A1
330
1
100
AcDbSymbolTableRecord
100
AcDbBlockTableRecord
  2
*D17
340
0
  0
BLOCK_RECORD
  5
2405
330
1
100
AcDbSymbolTableRecord
100
AcDbBlockTableRecord
  2
*D19
340
0
  0
BLOCK_RECORD
  5
2481
330
1
100
AcDbSymbolTableRecord
100
AcDbBlockTableRecord
  2
*D21
340
0
  0
BLOCK_RECORD
  5
248E
330
1
100
AcDbSymbolTableRecord
100
AcDbBlockTableRecord
  2
*D22
340
0
  0
BLOCK_RECORD
  5
2547
330
1
100
AcDbSymbolTableRecord
100
AcDbBlockTableRecord
  2
*D24
340
0
  0
BLOCK_RECORD
  5
2554
330
1
100
AcDbSymbolTableRecord
100
AcDbBlockTableRecord
  2
*D25
340
0
  0
BLOCK_RECORD
  5
2641
330
1
100
AcDbSymbolTableRecord
100
AcDbBlockTableRecord
  2
*D27
340
0
  0
BLOCK_RECORD
  5
264E
330
1
100
AcDbSymbolTableRecord
100
AcDbBlockTableRecord
  2
*D28
340
0
  0
BLOCK_RECORD
  5
26B2
330
1
100
AcDbSymbolTableRecord
100
AcDbBlockTableRecord
  2
*D30
340
0
  0
BLOCK_RECORD
  5
26BF
330
1
100
AcDbSymbolTableRecord
100
AcDbBlockTableRecord
  2
*D31
340
0
  0
ENDTAB
  0
ENDSEC
  0
SECTION
  2
BLOCKS
  0
BLOCK
  5
3
330
2
100
AcDbEntity
  8
0
100
AcDbBlockBegin
  2
*MODEL_SPACE
 70
     0
 10
0.0
 20
0.0
 30
0.0
  3
*MODEL_SPACE
  1

  0
ENDBLK
  5
6
330
2
100
AcDbEntity
  8
0
100
AcDbBlockEnd
  0
BLOCK
  5
8
330
7
100
AcDbEntity
 67
     1
  8
0
100
AcDbBlockBegin
  2
*PAPER_SPACE
 70
     0
 10
0.0
 20
0.0
 30
0.0
  3
*PAPER_SPACE
  1

  0
ENDBLK
  5
9
330
7
100
AcDbEntity
 67
     1
  8
0
100
AcDbBlockEnd
  0
BLOCK
  5
10C
330
109
100
AcDbEntity
  8
0
100
AcDbBlockBegin
  2
_Dot
 70
     0
 10
0.0
 20
0.0
 30
0.0
  3
_Dot
  1

  0
LWPOLYLINE
  5
10A
330
109
100
AcDbEntity
  8
0
  6
ByBlock
 62
     0
100
AcDbPolyline
 90
        2
 70
     1
 43
0.5
 10
-0.25
 20
0.0
 42
1.0
 10
0.25
 20
0.0
 42
1.0
  0
LINE
  5
10B
330
109
100
AcDbEntity
  8
0
  6
ByBlock
 62
     0
370
    -2
100
AcDbLine
 10
-0.5
 20
0.0
 30
0.0
 11
-1.0
 21
0.0
 31
0.0
  0
ENDBLK
  5
10D
330
109
100
AcDbEntity
  8
0
100
AcDbBlockEnd
  0
BLOCK
  5
2016
330
200C
100
AcDbEntity
  8
0
100
AcDbBlockBegin
  2
*D8
 70
     1
 10
0.0
 20
0.0
 30
0.0
  3
*D8
  1

  0
LINE
  5
200D
330
200C
100
AcDbEntity
  8
SUNPOU
 62
    70
370
    -2
100
AcDbLine
 10
22.51437757324076
 20
144.7541953297892
 30
0.0
 11
22.51437757324076
 21
183.0787779421861
 31
0.0
  0
LINE
  5
200E
330
200C
100
AcDbEntity
  8
SUNPOU
 62
    70
370
    -2
100
AcDbLine
 10
131.5143775732407
 20
144.7541953297892
 30
0.0
 11
131.5143775732407
 21
183.0787779421861
 31
0.0
  0
LINE
  5
200F
330
200C
100
AcDbEntity
  8
SUNPOU
 62
    60
370
    -2
100
AcDbLine
 10
24.51437757324076
 20
183.0787779421861
 30
0.0
 11
129.5143775732407
 21
183.0787779421861
 31
0.0
  0
INSERT
  5
2010
330
200C
100
AcDbEntity
  8
SUNPOU
 62
    60
370
    -2
100
AcDbBlockReference
  2
_Dot
 10
22.51437757324076
 20
183.0787779421861
 30
0.0
 41
2.0
 42
2.0
 43
2.0
 50
180.0
  0
INSERT
  5
2011
330
200C
100
AcDbEntity
  8
SUNPOU
 62
    60
370
    -2
100
AcDbBlockReference
  2
_Dot
 10
131.5143775732407
 20
183.0787779421861
 30
0.0
 41
2.0
 42
2.0
 43
2.0
  0
MTEXT
  5
2012
330
200C
100
AcDbEntity
  8
SUNPOU
 62
    60
100
AcDbMText
 10
77.01437757324075
 20
188.5787779421861
 30
0.0
 40
5.0
 41
0.0
 71
     5
 72
     1
  1
\A1;109
  7
SUNPOU
 73
     1
 44
1.0
1001
ACAD
1000
MTEXTBEGIN
1070
    73
1070
     1
1070
    44
1040
1.0
1070
    74
1070
     0
1000
MTEXTEND
  0
POINT
  5
2013
330
200C
100
AcDbEntity
  8
DEFPOINTS
 62
     0
100
AcDbPoint
 10
22.51437757324076
 20
134.7541953297892
 30
0.0
  0
POINT
  5
2014
330
200C
100
AcDbEntity
  8
DEFPOINTS
 62
     0
100
AcDbPoint
 10
131.5143775732407
 20
134.7541953297892
 30
0.0
  0
POINT
  5
2015
330
200C
100
AcDbEntity
  8
DEFPOINTS
 62
     0
100
AcDbPoint
 10
131.5143775732407
 20
183.0787779421861
 30
0.0
  0
ENDBLK
  5
2017
330
200C
100
AcDbEntity
  8
0
100
AcDbBlockEnd
  0
BLOCK
  5
2023
330
2019
100
AcDbEntity
  8
0
100
AcDbBlockBegin
  2
*D9
 70
     1
 10
0.0
 20
0.0
 30
0.0
  3
*D9
  1

  0
LINE
  5
201A
330
2019
100
AcDbEntity
  8
SUNPOU
 62
    70
370
    -2
100
AcDbLine
 10
67.01437757324367
 20
166.9747915768655
 30
0.0
 11
-1.227023507856392
 21
166.9747915768656
 31
0.0
  0
LINE
  5
201B
330
2019
100
AcDbEntity
  8
SUNPOU
 62
    70
370
    -2
100
AcDbLine
 10
67.01437757324156
 20
34.97479157686509
 30
0.0
 11
-1.227023507856422
 21
34.97479157686511
 31
0.0
  0
LINE
  5
201C
330
2019
100
AcDbEntity
  8
SUNPOU
 62
    60
370
    -2
100
AcDbLine
 10
-1.227023507856399
 20
164.9747915768656
 30
0.0
 11
-1.227023507856428
 21
36.97479157686511
 31
0.0
  0
INSERT
  5
201D
330
2019
100
AcDbEntity
  8
SUNPOU
 62
    60
370
    -2
100
AcDbBlockReference
  2
_Dot
 10
-1.227023507856399
 20
166.9747915768656
 30
0.0
 41
2.0
 42
2.0
 43
2.0
 50
90.0
  0
INSERT
  5
201E
330
2019
100
AcDbEntity
  8
SUNPOU
 62
    60
370
    -2
100
AcDbBlockReference
  2
_Dot
 10
-1.227023507856428
 20
34.97479157686511
 30
0.0
 41
2.0
 42
2.0
 43
2.0
 50
270.0
  0
MTEXT
  5
201F
330
2019
100
AcDbEntity
  8
SUNPOU
 62
    60
100
AcDbMText
 10
-6.72702350785643
 20
100.9747915768653
 30
0.0
 40
5.0
 41
0.0
 71
     5
 72
     1
  1
\A1;132
  7
SUNPOU
 11
0.0000000000000001
 21
1.0
 31
0.0
 73
     1
 44
1.0
1001
ACAD
1000
MTEXTBEGIN
1070
    73
1070
     1
1070
    44
1040
1.0
1070
    74
1070
     0
1000
MTEXTEND
  0
POINT
  5
2020
330
2019
100
AcDbEntity
  8
DEFPOINTS
 62
     0
100
AcDbPoint
 10
77.01437757324367
 20
166.9747915768655
 30
0.0
  0
POINT
  5
2021
330
2019
100
AcDbEntity
  8
DEFPOINTS
 62
     0
100
AcDbPoint
 10
77.01437757324156
 20
34.97479157686509
 30
0.0
  0
POINT
  5
2022
330
2019
100
AcDbEntity
  8
DEFPOINTS
 62
     0
100
AcDbPoint
 10
-1.227023507856428
 20
34.97479157686511
 30
0.0
  0
ENDBLK
  5
2024
330
2019
100
AcDbEntity
  8
0
100
AcDbBlockEnd
  0
BLOCK
  5
211D
330
2113
100
AcDbEntity
  8
0
100
AcDbBlockBegin
  2
*D12
 70
     1
 10
0.0
 20
0.0
 30
0.0
  3
*D12
  1

  0
LINE
  5
2114
330
2113
100
AcDbEntity
  8
SUNPOU
 62
    70
370
    -2
100
AcDbLine
 10
2.779070082985527
 20
120.8652279046092
 30
0.0
 11
2.779070082985528
 21
141.7579726964636
 31
0.0
  0
LINE
  5
2115
330
2113
100
AcDbEntity
  8
SUNPOU
 62
    70
370
    -2
100
AcDbLine
 10
144.7790700829855
 20
120.8652279046092
 30
0.0
 11
144.7790700829855
 21
141.7579726964636
 31
0.0
  0
LINE
  5
2116
330
2113
100
AcDbEntity
  8
SUNPOU
 62
    60
370
    -2
100
AcDbLine
 10
4.779070082985528
 20
141.7579726964636
 30
0.0
 11
142.7790700829855
 21
141.7579726964636
 31
0.0
  0
INSERT
  5
2117
330
2113
100
AcDbEntity
  8
SUNPOU
 62
    60
370
    -2
100
AcDbBlockReference
  2
_Dot
 10
2.779070082985528
 20
141.7579726964636
 30
0.0
 41
2.0
 42
2.0
 43
2.0
 50
180.0
  0
INSERT
  5
2118
330
2113
100
AcDbEntity
  8
SUNPOU
 62
    60
370
    -2
100
AcDbBlockReference
  2
_Dot
 10
144.7790700829855
 20
141.7579726964636
 30
0.0
 41
2.0
 42
2.0
 43
2.0
  0
MTEXT
  5
2119
330
2113
100
AcDbEntity
  8
SUNPOU
 62
    60
100
AcDbMText
 10
73.77907008298554
 20
147.2579726964636
 30
0.0
 40
5.0
 41
0.0
 71
     5
 72
     1
  1
\A1;142
  7
SUNPOU
 73
     1
 44
1.0
1001
ACAD
1000
MTEXTBEGIN
1070
    73
1070
     1
1070
    44
1040
1.0
1070
    74
1070
     0
1000
MTEXTEND
  0
POINT
  5
211A
330
2113
100
AcDbEntity
  8
DEFPOINTS
 62
     0
100
AcDbPoint
 10
2.779070082985526
 20
110.8652279046092
 30
0.0
  0
POINT
  5
211B
330
2113
100
AcDbEntity
  8
DEFPOINTS
 62
     0
100
AcDbPoint
 10
144.7790700829855
 20
110.8652279046092
 30
0.0
  0
POINT
  5
211C
330
2113
100
AcDbEntity
  8
DEFPOINTS
 62
     0
100
AcDbPoint
 10
144.7790700829855
 20
141.7579726964636
 30
0.0
  0
ENDBLK
  5
211E
330
2113
100
AcDbEntity
  8
0
100
AcDbBlockEnd
  0
BLOCK
  5
212A
330
2120
100
AcDbEntity
  8
0
100
AcDbBlockBegin
  2
*D13
 70
     1
 10
0.0
 20
0.0
 30
0.0
  3
*D13
  1

  0
LINE
  5
2121
330
2120
100
AcDbEntity
  8
SUNPOU
 62
    70
370
    -2
100
AcDbLine
 10
0.5022286815299496
 20
120.5525004428493
 30
0.0
 11
-16.88829499430675
 21
120.5525004428493
 31
0.0
  0
LINE
  5
2122
330
2120
100
AcDbEntity
  8
SUNPOU
 62
    70
370
    -2
100
AcDbLine
 10
63.77907008298552
 20
40.55250044284929
 30
0.0
 11
-16.88829499430676
 21
40.55250044284932
 31
0.0
  0
LINE
  5
2123
330
2120
100
AcDbEntity
  8
SUNPOU
 62
    60
370
    -2
100
AcDbLine
 10
-16.88829499430675
 20
118.5525004428493
 30
0.0
 11
-16.88829499430677
 21
42.55250044284932
 31
0.0
  0
INSERT
  5
2124
330
2120
100
AcDbEntity
  8
SUNPOU
 62
    60
370
    -2
100
AcDbBlockReference
  2
_Dot
 10
-16.88829499430675
 20
120.5525004428493
 30
0.0
 41
2.0
 42
2.0
 43
2.0
 50
90.0
  0
INSERT
  5
2125
330
2120
100
AcDbEntity
  8
SUNPOU
 62
    60
370
    -2
100
AcDbBlockReference
  2
_Dot
 10
-16.88829499430677
 20
40.55250044284932
 30
0.0
 41
2.0
 42
2.0
 43
2.0
 50
270.0
  0
MTEXT
  5
2126
330
2120
100
AcDbEntity
  8
SUNPOU
 62
    60
100
AcDbMText
 10
-22.38829499430678
 20
80.5525004428493
 30
0.0
 40
5.0
 41
0.0
 71
     5
 72
     1
  1
\A1;80
  7
SUNPOU
 11
0.0000000000000001
 21
1.0
 31
0.0
 73
     1
 44
1.0
1001
ACAD
1000
MTEXTBEGIN
1070
    73
1070
     1
1070
    44
1040
1.0
1070
    74
1070
     0
1000
MTEXTEND
  0
POINT
  5
2127
330
2120
100
AcDbEntity
  8
DEFPOINTS
 62
     0
100
AcDbPoint
 10
10.50222868152995
 20
120.5525004428493
 30
0.0
  0
POINT
  5
2128
330
2120
100
AcDbEntity
  8
DEFPOINTS
 62
     0
100
AcDbPoint
 10
73.77907008298553
 20
40.55250044284929
 30
0.0
  0
POINT
  5
2129
330
2120
100
AcDbEntity
  8
DEFPOINTS
 62
     0
100
AcDbPoint
 10
-16.88829499430677
 20
40.55250044284932
 30
0.0
  0
ENDBLK
  5
212B
330
2120
100
AcDbEntity
  8
0
100
AcDbBlockEnd
  0
BLOCK
  5
226C
330
2262
100
AcDbEntity
  8
0
100
AcDbBlockBegin
  2
*D15
 70
     1
 10
0.0
 20
0.0
 30
0.0
  3
*D15
  1

  0
LINE
  5
22B6
330
2262
100
AcDbEntity
  8
SUNPOU
 62
    70
370
    -2
100
AcDbLine
 10
-12.35953431951998
 20
79.89014174287508
 30
0.0
 11
-12.35953431951998
 21
107.0807606510202
 31
0.0
  0
LINE
  5
22B7
330
2262
100
AcDbEntity
  8
SUNPOU
 62
    70
370
    -2
100
AcDbLine
 10
172.64046568048
 20
79.89014174287508
 30
0.0
 11
172.64046568048
 21
107.0807606510202
 31
0.0
  0
LINE
  5
22B8
330
2262
100
AcDbEntity
  8
SUNPOU
 62
    60
370
    -2
100
AcDbLine
 10
-10.35953431951998
 20
107.0807606510202
 30
0.0
 11
170.64046568048
 21
107.0807606510202
 31
0.0
  0
INSERT
  5
22B9
330
2262
100
AcDbEntity
  8
SUNPOU
 62
    60
370
    -2
100
AcDbBlockReference
  2
_Dot
 10
-12.35953431951998
 20
107.0807606510202
 30
0.0
 41
2.0
 42
2.0
 43
2.0
 50
180.0
  0
INSERT
  5
22BA
330
2262
100
AcDbEntity
  8
SUNPOU
 62
    60
370
    -2
100
AcDbBlockReference
  2
_Dot
 10
172.64046568048
 20
107.0807606510202
 30
0.0
 41
2.0
 42
2.0
 43
2.0
  0
MTEXT
  5
22BB
330
2262
100
AcDbEntity
  8
SUNPOU
 62
    60
100
AcDbMText
 10
80.14046568048001
 20
112.5807606510202
 30
0.0
 40
5.0
 41
0.0
 71
     5
 72
     1
  1
\A1;185
  7
SUNPOU
 73
     1
 44
1.0
1001
ACAD
1000
MTEXTBEGIN
1070
    73
1070
     1
1070
    44
1040
1.0
1070
    74
1070
     0
1000
MTEXTEND
  0
POINT
  5
22BC
330
2262
100
AcDbEntity
  8
DEFPOINTS
 62
     0
100
AcDbPoint
 10
-12.35953431951998
 20
69.89014174287508
 30
0.0
  0
POINT
  5
22BD
330
2262
100
AcDbEntity
  8
DEFPOINTS
 62
     0
100
AcDbPoint
 10
172.64046568048
 20
69.89014174287508
 30
0.0
  0
POINT
  5
22BE
330
2262
100
AcDbEntity
  8
DEFPOINTS
 62
     0
100
AcDbPoint
 10
172.64046568048
 20
107.0807606510202
 30
0.0
  0
ENDBLK
  5
226D
330
2262
100
AcDbEntity
  8
0
100
AcDbBlockEnd
  0
BLOCK
  5
2279
330
226F
100
AcDbEntity
  8
0
100
AcDbBlockBegin
  2
*D16
 70
     1
 10
0.0
 20
0.0
 30
0.0
  3
*D16
  1

  0
LINE
  5
2291
330
226F
100
AcDbEntity
  8
SUNPOU
 62
    70
370
    -2
100
AcDbLine
 10
46.56116634836663
 20
82.23301491498432
 30
0.0
 11
-28.38907316638914
 21
82.23301491498434
 31
0.0
  0
LINE
  5
2292
330
226F
100
AcDbEntity
  8
SUNPOU
 62
    70
370
    -2
100
AcDbLine
 10
70.13931669693898
 20
38.23332696735998
 30
0.0
 11
-28.38907316638916
 21
38.23332696736001
 31
0.0
  0
LINE
  5
2293
330
226F
100
AcDbEntity
  8
SUNPOU
 62
    60
370
    -2
100
AcDbLine
 10
-28.38907316638915
 20
80.23301491498434
 30
0.0
 11
-28.38907316638916
 21
40.23332696736001
 31
0.0
  0
LINE
  5
2294
330
226F
100
AcDbEntity
  8
SUNPOU
 62
    60
370
    -2
100
AcDbLine
 10
-28.38907316638916
 20
38.23332696736001
 30
0.0
 11
-28.38907316638917
 21
-9.766673032639999
 31
0.0
  0
INSERT
  5
2295
330
226F
100
AcDbEntity
  8
SUNPOU
 62
    60
370
    -2
100
AcDbBlockReference
  2
_Dot
 10
-28.38907316638915
 20
82.23301491498434
 30
0.0
 41
2.0
 42
2.0
 43
2.0
 50
90.0
  0
INSERT
  5
2296
330
226F
100
AcDbEntity
  8
SUNPOU
 62
    60
370
    -2
100
AcDbBlockReference
  2
_Dot
 10
-28.38907316638916
 20
38.23332696736001
 30
0.0
 41
2.0
 42
2.0
 43
2.0
 50
270.0
  0
MTEXT
  5
2297
330
226F
100
AcDbEntity
  8
SUNPOU
 62
    60
100
AcDbMText
 10
-33.88907316638917
 20
13.23332696736
 30
0.0
 40
5.0
 41
0.0
 71
     5
 72
     1
  1
\A1;43.999688
  7
SUNPOU
 11
0.0000000000000001
 21
1.0
 31
0.0
 73
     1
 44
1.0
1001
ACAD
1000
MTEXTBEGIN
1070
    73
1070
     1
1070
    44
1040
1.0
1070
    74
1070
     0
1000
MTEXTEND
  0
POINT
  5
2298
330
226F
100
AcDbEntity
  8
DEFPOINTS
 62
     0
100
AcDbPoint
 10
56.56116634836663
 20
82.23301491498432
 30
0.0
  0
POINT
  5
2299
330
226F
100
AcDbEntity
  8
DEFPOINTS
 62
     0
100
AcDbPoint
 10
80.13931669693898
 20
38.23332696735997
 30
0.0
  0
POINT
  5
229A
330
226F
100
AcDbEntity
  8
DEFPOINTS
 62
     0
100
AcDbPoint
 10
-28.38907316638916
 20
38.23332696736001
 30
0.0
  0
ENDBLK
  5
227A
330
226F
100
AcDbEntity
  8
0
100
AcDbBlockEnd
  0
BLOCK
  5
22AB
330
22A1
100
AcDbEntity
  8
0
100
AcDbBlockBegin
  2
*D17
 70
     1
 10
0.0
 20
0.0
 30
0.0
  3
*D17
  1

  0
LINE
  5
22D2
330
22A1
100
AcDbEntity
  8
SUNPOU
 62
    70
370
    -2
100
AcDbLine
 10
-22.35953431951997
 20
82.23301491498434
 30
0.0
 11
-26.76614305780549
 21
82.23301491498434
 31
0.0
  0
LINE
  5
22D3
330
22A1
100
AcDbEntity
  8
SUNPOU
 62
    70
370
    -2
100
AcDbLine
 10
-21.46122218202436
 20
38.23301491498433
 30
0.0
 11
-26.7661430578055
 21
38.23301491498433
 31
0.0
  0
LINE
  5
22D4
330
22A1
100
AcDbEntity
  8
SUNPOU
 62
    60
370
    -2
100
AcDbLine
 10
-26.76614305780549
 20
80.23301491498434
 30
0.0
 11
-26.7661430578055
 21
40.23301491498433
 31
0.0
  0
INSERT
  5
22D5
330
22A1
100
AcDbEntity
  8
SUNPOU
 62
    60
370
    -2
100
AcDbBlockReference
  2
_Dot
 10
-26.76614305780549
 20
82.23301491498434
 30
0.0
 41
2.0
 42
2.0
 43
2.0
 50
90.0
  0
INSERT
  5
22D6
330
22A1
100
AcDbEntity
  8
SUNPOU
 62
    60
370
    -2
100
AcDbBlockReference
  2
_Dot
 10
-26.7661430578055
 20
38.23301491498433
 30
0.0
 41
2.0
 42
2.0
 43
2.0
 50
270.0
  0
MTEXT
  5
22D7
330
22A1
100
AcDbEntity
  8
SUNPOU
 62
    60
100
AcDbMText
 10
-32.2661430578055
 20
60.23301491498433
 30
0.0
 40
5.0
 41
0.0
 71
     5
 72
     1
  1
\A1;44
  7
SUNPOU
 11
0.0000000000000001
 21
1.0
 31
0.0
 73
     1
 44
1.0
1001
ACAD
1000
MTEXTBEGIN
1070
    73
1070
     1
1070
    44
1040
1.0
1070
    74
1070
     0
1000
MTEXTEND
  0
POINT
  5
22D8
330
22A1
100
AcDbEntity
  8
DEFPOINTS
 62
     0
100
AcDbPoint
 10
-12.35953431951996
 20
82.23301491498434
 30
0.0
  0
POINT
  5
22D9
330
22A1
100
AcDbEntity
  8
DEFPOINTS
 62
     0
100
AcDbPoint
 10
-11.46122218202435
 20
38.23301491498432
 30
0.0
  0
POINT
  5
22DA
330
22A1
100
AcDbEntity
  8
DEFPOINTS
 62
     0
100
AcDbPoint
 10
-26.7661430578055
 20
38.23301491498433
 30
0.0
  0
ENDBLK
  5
22AC
330
22A1
100
AcDbEntity
  8
0
100
AcDbBlockEnd
  0
BLOCK
  5
240F
330
2405
100
AcDbEntity
  8
0
100
AcDbBlockBegin
  2
*D19
 70
     1
 10
0.0
 20
0.0
 30
0.0
  3
*D19
  1

  0
LINE
  5
241B
330
2405
100
AcDbEntity
  8
SUNPOU
 62
    70
370
    -2
100
AcDbLine
 10
39.50517483125035
 20
76.0468950891833
 30
0.0
 11
39.50517483125035
 21
106.9328283315822
 31
0.0
  0
LINE
  5
241C
330
2405
100
AcDbEntity
  8
SUNPOU
 62
    70
370
    -2
100
AcDbLine
 10
94.50517483125073
 20
76.0468950891833
 30
0.0
 11
94.50517483125073
 21
106.9328283315822
 31
0.0
  0
LINE
  5
241D
330
2405
100
AcDbEntity
  8
SUNPOU
 62
    60
370
    -2
100
AcDbLine
 10
41.50517483125034
 20
106.9328283315822
 30
0.0
 11
92.50517483125074
 21
106.9328283315822
 31
0.0
  0
INSERT
  5
241E
330
2405
100
AcDbEntity
  8
SUNPOU
 62
    60
370
    -2
100
AcDbBlockReference
  2
_Dot
 10
39.50517483125035
 20
106.9328283315822
 30
0.0
 41
2.0
 42
2.0
 43
2.0
 50
180.0
  0
INSERT
  5
241F
330
2405
100
AcDbEntity
  8
SUNPOU
 62
    60
370
    -2
100
AcDbBlockReference
  2
_Dot
 10
94.50517483125073
 20
106.9328283315822
 30
0.0
 41
2.0
 42
2.0
 43
2.0
  0
MTEXT
  5
2420
330
2405
100
AcDbEntity
  8
SUNPOU
 62
    60
100
AcDbMText
 10
67.00517483125054
 20
112.4328283315822
 30
0.0
 40
5.0
 41
0.0
 71
     5
 72
     1
  1
\A1;55φ
  7
SUNPOU
 73
     1
 44
1.0
1001
ACAD
1000
MTEXTBEGIN
1070
    73
1070
     1
1070
    44
1040
1.0
1070
    74
1070
     0
1000
MTEXTEND
  0
POINT
  5
2421
330
2405
100
AcDbEntity
  8
DEFPOINTS
 62
     0
100
AcDbPoint
 10
39.50517483125035
 20
66.0468950891833
 30
0.0
  0
POINT
  5
2422
330
2405
100
AcDbEntity
  8
DEFPOINTS
 62
     0
100
AcDbPoint
 10
94.50517483125073
 20
66.0468950891833
 30
0.0
  0
POINT
  5
2423
330
2405
100
AcDbEntity
  8
DEFPOINTS
 62
     0
100
AcDbPoint
 10
94.50517483125073
 20
106.9328283315822
 30
0.0
  0
ENDBLK
  5
2410
330
2405
100
AcDbEntity
  8
0
100
AcDbBlockEnd
  0
BLOCK
  5
248B
330
2481
100
AcDbEntity
  8
0
100
AcDbBlockBegin
  2
*D21
 70
     1
 10
0.0
 20
0.0
 30
0.0
  3
*D21
  1

  0
LINE
  5
24F2
330
2481
100
AcDbEntity
  8
SUNPOU
 62
    70
370
    -2
100
AcDbLine
 10
19.82905292859301
 20
111.7454582953507
 30
0.0
 11
19.82905292859301
 21
127.866146503015
 31
0.0
  0
LINE
  5
24F3
330
2481
100
AcDbEntity
  8
SUNPOU
 62
    70
370
    -2
100
AcDbLine
 10
131.829052928593
 20
112.5255168160438
 30
0.0
 11
131.829052928593
 21
127.866146503015
 31
0.0
  0
LINE
  5
24F4
330
2481
100
AcDbEntity
  8
SUNPOU
 62
    60
370
    -2
100
AcDbLine
 10
21.82905292859301
 20
127.866146503015
 30
0.0
 11
129.829052928593
 21
127.866146503015
 31
0.0
  0
INSERT
  5
24F5
330
2481
100
AcDbEntity
  8
SUNPOU
 62
    60
370
    -2
100
AcDbBlockReference
  2
_Dot
 10
19.82905292859301
 20
127.866146503015
 30
0.0
 41
2.0
 42
2.0
 43
2.0
 50
180.0
  0
INSERT
  5
24F6
330
2481
100
AcDbEntity
  8
SUNPOU
 62
    60
370
    -2
100
AcDbBlockReference
  2
_Dot
 10
131.829052928593
 20
127.866146503015
 30
0.0
 41
2.0
 42
2.0
 43
2.0
  0
MTEXT
  5
24F7
330
2481
100
AcDbEntity
  8
SUNPOU
 62
    60
100
AcDbMText
 10
75.829052928593
 20
133.366146503015
 30
0.0
 40
5.0
 41
0.0
 71
     5
 72
     1
  1
\A1;112
  7
SUNPOU
 73
     1
 44
1.0
1001
ACAD
1000
MTEXTBEGIN
1070
    73
1070
     1
1070
    44
1040
1.0
1070
    74
1070
     0
1000
MTEXTEND
  0
POINT
  5
24F8
330
2481
100
AcDbEntity
  8
DEFPOINTS
 62
     0
100
AcDbPoint
 10
19.82905292859301
 20
101.7454582953507
 30
0.0
  0
POINT
  5
24F9
330
2481
100
AcDbEntity
  8
DEFPOINTS
 62
     0
100
AcDbPoint
 10
131.829052928593
 20
102.5255168160438
 30
0.0
  0
POINT
  5
24FA
330
2481
100
AcDbEntity
  8
DEFPOINTS
 62
     0
100
AcDbPoint
 10
131.829052928593
 20
127.866146503015
 30
0.0
  0
ENDBLK
  5
248C
330
2481
100
AcDbEntity
  8
0
100
AcDbBlockEnd
  0
BLOCK
  5
2498
330
248E
100
AcDbEntity
  8
0
100
AcDbBlockBegin
  2
*D22
 70
     1
 10
0.0
 20
0.0
 30
0.0
  3
*D22
  1

  0
LINE
  5
24E0
330
248E
100
AcDbEntity
  8
SUNPOU
 62
    70
370
    -2
100
AcDbLine
 10
9.829052928593009
 20
101.7454582953507
 30
0.0
 11
-5.594365603138149
 21
101.7454582953507
 31
0.0
  0
LINE
  5
24E1
330
248E
100
AcDbEntity
  8
SUNPOU
 62
    70
370
    -2
100
AcDbLine
 10
11.34221913818464
 20
40.74545829535106
 30
0.0
 11
-5.594365603138163
 21
40.74545829535106
 31
0.0
  0
LINE
  5
24E2
330
248E
100
AcDbEntity
  8
SUNPOU
 62
    60
370
    -2
100
AcDbLine
 10
-5.594365603138149
 20
99.74545829535074
 30
0.0
 11
-5.594365603138161
 21
42.74545829535106
 31
0.0
  0
INSERT
  5
24E3
330
248E
100
AcDbEntity
  8
SUNPOU
 62
    60
370
    -2
100
AcDbBlockReference
  2
_Dot
 10
-5.594365603138149
 20
101.7454582953507
 30
0.0
 41
2.0
 42
2.0
 43
2.0
 50
90.0
  0
INSERT
  5
24E4
330
248E
100
AcDbEntity
  8
SUNPOU
 62
    60
370
    -2
100
AcDbBlockReference
  2
_Dot
 10
-5.594365603138162
 20
40.74545829535106
 30
0.0
 41
2.0
 42
2.0
 43
2.0
 50
270.0
  0
MTEXT
  5
24E5
330
248E
100
AcDbEntity
  8
SUNPOU
 62
    60
100
AcDbMText
 10
-11.09436560313817
 20
71.2454582953509
 30
0.0
 40
5.0
 41
0.0
 71
     5
 72
     1
  1
\A1;61
  7
SUNPOU
 11
0.0000000000000001
 21
1.0
 31
0.0
 73
     1
 44
1.0
1001
ACAD
1000
MTEXTBEGIN
1070
    73
1070
     1
1070
    44
1040
1.0
1070
    74
1070
     0
1000
MTEXTEND
  0
POINT
  5
24E6
330
248E
100
AcDbEntity
  8
DEFPOINTS
 62
     0
100
AcDbPoint
 10
19.82905292859301
 20
101.7454582953507
 30
0.0
  0
POINT
  5
24E7
330
248E
100
AcDbEntity
  8
DEFPOINTS
 62
     0
100
AcDbPoint
 10
21.34221913818465
 20
40.74545829535106
 30
0.0
  0
POINT
  5
24E8
330
248E
100
AcDbEntity
  8
DEFPOINTS
 62
     0
100
AcDbPoint
 10
-5.594365603138162
 20
40.74545829535106
 30
0.0
  0
ENDBLK
  5
2499
330
248E
100
AcDbEntity
  8
0
100
AcDbBlockEnd
  0
BLOCK
  5
2551
330
2547
100
AcDbEntity
  8
0
100
AcDbBlockBegin
  2
*D24
 70
     1
 10
0.0
 20
0.0
 30
0.0
  3
*D24
  1

  0
LINE
  5
2598
330
2547
100
AcDbEntity
  8
SUNPOU
 62
    70
370
    -2
100
AcDbLine
 10
39.94088828399156
 20
87.0618894106235
 30
0.0
 11
39.94088828399156
 21
95.11146426004826
 31
0.0
  0
LINE
  5
2599
330
2547
100
AcDbEntity
  8
SUNPOU
 62
    70
370
    -2
100
AcDbLine
 10
105.9408882839917
 20
85.91537440275079
 30
0.0
 11
105.9408882839917
 21
95.11146426004826
 31
0.0
  0
LINE
  5
259A
330
2547
100
AcDbEntity
  8
SUNPOU
 62
    60
370
    -2
100
AcDbLine
 10
41.94088828399156
 20
95.11146426004826
 30
0.0
 11
103.9408882839917
 21
95.11146426004826
 31
0.0
  0
INSERT
  5
259B
330
2547
100
AcDbEntity
  8
SUNPOU
 62
    60
370
    -2
100
AcDbBlockReference
  2
_Dot
 10
39.94088828399156
 20
95.11146426004826
 30
0.0
 41
2.0
 42
2.0
 43
2.0
 50
180.0
  0
INSERT
  5
259C
330
2547
100
AcDbEntity
  8
SUNPOU
 62
    60
370
    -2
100
AcDbBlockReference
  2
_Dot
 10
105.9408882839917
 20
95.11146426004826
 30
0.0
 41
2.0
 42
2.0
 43
2.0
  0
MTEXT
  5
259D
330
2547
100
AcDbEntity
  8
SUNPOU
 62
    60
100
AcDbMText
 10
72.94088828399162
 20
100.6114642600482
 30
0.0
 40
5.0
 41
0.0
 71
     5
 72
     1
  1
\A1;66
  7
SUNPOU
 73
     1
 44
1.0
1001
ACAD
1000
MTEXTBEGIN
1070
    73
1070
     1
1070
    44
1040
1.0
1070
    74
1070
     0
1000
MTEXTEND
  0
POINT
  5
259E
330
2547
100
AcDbEntity
  8
DEFPOINTS
 62
     0
100
AcDbPoint
 10
39.94088828399156
 20
77.0618894106235
 30
0.0
  0
POINT
  5
259F
330
2547
100
AcDbEntity
  8
DEFPOINTS
 62
     0
100
AcDbPoint
 10
105.9408882839917
 20
75.91537440275079
 30
0.0
  0
POINT
  5
25A0
330
2547
100
AcDbEntity
  8
DEFPOINTS
 62
     0
100
AcDbPoint
 10
105.9408882839917
 20
95.11146426004826
 30
0.0
  0
ENDBLK
  5
2552
330
2547
100
AcDbEntity
  8
0
100
AcDbBlockEnd
  0
BLOCK
  5
255E
330
2554
100
AcDbEntity
  8
0
100
AcDbBlockBegin
  2
*D25
 70
     1
 10
0.0
 20
0.0
 30
0.0
  3
*D25
  1

  0
LINE
  5
257D
330
2554
100
AcDbEntity
  8
SUNPOU
 62
    70
370
    -2
100
AcDbLine
 10
29.94088828399157
 20
77.06188941062352
 30
0.0
 11
18.07803167101293
 21
77.06188941062352
 31
0.0
  0
LINE
  5
257E
330
2554
100
AcDbEntity
  8
SUNPOU
 62
    70
370
    -2
100
AcDbLine
 10
30.07257253407443
 20
40.06188941062351
 30
0.0
 11
18.07803167101292
 21
40.06188941062351
 31
0.0
  0
LINE
  5
257F
330
2554
100
AcDbEntity
  8
SUNPOU
 62
    60
370
    -2
100
AcDbLine
 10
18.07803167101293
 20
75.06188941062352
 30
0.0
 11
18.07803167101292
 21
42.06188941062351
 31
0.0
  0
INSERT
  5
2580
330
2554
100
AcDbEntity
  8
SUNPOU
 62
    60
370
    -2
100
AcDbBlockReference
  2
_Dot
 10
18.07803167101293
 20
77.06188941062352
 30
0.0
 41
2.0
 42
2.0
 43
2.0
 50
90.0
  0
INSERT
  5
2581
330
2554
100
AcDbEntity
  8
SUNPOU
 62
    60
370
    -2
100
AcDbBlockReference
  2
_Dot
 10
18.07803167101292
 20
40.06188941062351
 30
0.0
 41
2.0
 42
2.0
 43
2.0
 50
270.0
  0
MTEXT
  5
2582
330
2554
100
AcDbEntity
  8
SUNPOU
 62
    60
100
AcDbMText
 10
12.57803167101291
 20
58.56188941062352
 30
0.0
 40
5.0
 41
0.0
 71
     5
 72
     1
  1
\A1;37
  7
SUNPOU
 11
0.0000000000000001
 21
1.0
 31
0.0
 73
     1
 44
1.0
1001
ACAD
1000
MTEXTBEGIN
1070
    73
1070
     1
1070
    44
1040
1.0
1070
    74
1070
     0
1000
MTEXTEND
  0
POINT
  5
2583
330
2554
100
AcDbEntity
  8
DEFPOINTS
 62
     0
100
AcDbPoint
 10
39.94088828399156
 20
77.0618894106235
 30
0.0
  0
POINT
  5
2584
330
2554
100
AcDbEntity
  8
DEFPOINTS
 62
     0
100
AcDbPoint
 10
40.07257253407442
 20
40.06188941062351
 30
0.0
  0
POINT
  5
2585
330
2554
100
AcDbEntity
  8
DEFPOINTS
 62
     0
100
AcDbPoint
 10
18.07803167101292
 20
40.06188941062351
 30
0.0
  0
ENDBLK
  5
255F
330
2554
100
AcDbEntity
  8
0
100
AcDbBlockEnd
  0
BLOCK
  5
264B
330
2641
100
AcDbEntity
  8
0
100
AcDbBlockBegin
  2
*D27
 70
     1
 10
0.0
 20
0.0
 30
0.0
  3
*D27
  1

  0
LINE
  5
2642
330
2641
100
AcDbEntity
  8
SUNPOU
 62
    70
370
    -2
100
AcDbLine
 10
30.85073960643172
 20
71.2961262219286
 30
0.0
 11
30.85073960643173
 21
99.78732845190188
 31
0.0
  0
LINE
  5
2643
330
2641
100
AcDbEntity
  8
SUNPOU
 62
    70
370
    -2
100
AcDbLine
 10
122.8507396064317
 20
71.29612622192903
 30
0.0
 11
122.8507396064317
 21
99.78732845190188
 31
0.0
  0
LINE
  5
2644
330
2641
100
AcDbEntity
  8
SUNPOU
 62
    60
370
    -2
100
AcDbLine
 10
32.85073960643173
 20
99.78732845190188
 30
0.0
 11
120.8507396064317
 21
99.78732845190188
 31
0.0
  0
INSERT
  5
2645
330
2641
100
AcDbEntity
  8
SUNPOU
 62
    60
370
    -2
100
AcDbBlockReference
  2
_Dot
 10
30.85073960643173
 20
99.78732845190188
 30
0.0
 41
2.0
 42
2.0
 43
2.0
 50
180.0
  0
INSERT
  5
2646
330
2641
100
AcDbEntity
  8
SUNPOU
 62
    60
370
    -2
100
AcDbBlockReference
  2
_Dot
 10
122.8507396064317
 20
99.78732845190188
 30
0.0
 41
2.0
 42
2.0
 43
2.0
  0
MTEXT
  5
2647
330
2641
100
AcDbEntity
  8
SUNPOU
 62
    60
100
AcDbMText
 10
76.85073960643172
 20
105.2873284519019
 30
0.0
 40
5.0
 41
0.0
 71
     5
 72
     1
  1
\A1;92
  7
SUNPOU
 73
     1
 44
1.0
1001
ACAD
1000
MTEXTBEGIN
1070
    73
1070
     1
1070
    44
1040
1.0
1070
    74
1070
     0
1000
MTEXTEND
  0
POINT
  5
2648
330
2641
100
AcDbEntity
  8
DEFPOINTS
 62
     0
100
AcDbPoint
 10
30.85073960643172
 20
61.29612622192859
 30
0.0
  0
POINT
  5
2649
330
2641
100
AcDbEntity
  8
DEFPOINTS
 62
     0
100
AcDbPoint
 10
122.8507396064317
 20
61.29612622192904
 30
0.0
  0
POINT
  5
264A
330
2641
100
AcDbEntity
  8
DEFPOINTS
 62
     0
100
AcDbPoint
 10
122.8507396064317
 20
99.78732845190188
 30
0.0
  0
ENDBLK
  5
264C
330
2641
100
AcDbEntity
  8
0
100
AcDbBlockEnd
  0
BLOCK
  5
2658
330
264E
100
AcDbEntity
  8
0
100
AcDbBlockBegin
  2
*D28
 70
     1
 10
0.0
 20
0.0
 30
0.0
  3
*D28
  1

  0
LINE
  5
264F
330
264E
100
AcDbEntity
  8
SUNPOU
 62
    70
370
    -2
100
AcDbLine
 10
27.98682558868752
 20
81.29612622192885
 30
0.0
 11
10.16993788546052
 21
81.29612622192885
 31
0.0
  0
LINE
  5
2650
330
264E
100
AcDbEntity
  8
SUNPOU
 62
    70
370
    -2
100
AcDbLine
 10
27.98682558868753
 20
41.29612622192882
 30
0.0
 11
10.16993788546051
 21
41.29612622192883
 31
0.0
  0
LINE
  5
2651
330
264E
100
AcDbEntity
  8
SUNPOU
 62
    60
370
    -2
100
AcDbLine
 10
10.16993788546052
 20
79.29612622192884
 30
0.0
 11
10.16993788546051
 21
43.29612622192883
 31
0.0
  0
INSERT
  5
2652
330
264E
100
AcDbEntity
  8
SUNPOU
 62
    60
370
    -2
100
AcDbBlockReference
  2
_Dot
 10
10.16993788546052
 20
81.29612622192885
 30
0.0
 41
2.0
 42
2.0
 43
2.0
 50
90.0
  0
INSERT
  5
2653
330
264E
100
AcDbEntity
  8
SUNPOU
 62
    60
370
    -2
100
AcDbBlockReference
  2
_Dot
 10
10.16993788546051
 20
41.29612622192883
 30
0.0
 41
2.0
 42
2.0
 43
2.0
 50
270.0
  0
MTEXT
  5
2654
330
264E
100
AcDbEntity
  8
SUNPOU
 62
    60
100
AcDbMText
 10
4.669937885460507
 20
61.29612622192884
 30
0.0
 40
5.0
 41
0.0
 71
     5
 72
     1
  1
\A1;40
  7
SUNPOU
 11
0.0000000000000001
 21
1.0
 31
0.0
 73
     1
 44
1.0
1001
ACAD
1000
MTEXTBEGIN
1070
    73
1070
     1
1070
    44
1040
1.0
1070
    74
1070
     0
1000
MTEXTEND
  0
POINT
  5
2655
330
264E
100
AcDbEntity
  8
DEFPOINTS
 62
     0
100
AcDbPoint
 10
37.98682558868752
 20
81.29612622192883
 30
0.0
  0
POINT
  5
2656
330
264E
100
AcDbEntity
  8
DEFPOINTS
 62
     0
100
AcDbPoint
 10
37.98682558868752
 20
41.29612622192882
 30
0.0
  0
POINT
  5
2657
330
264E
100
AcDbEntity
  8
DEFPOINTS
 62
     0
100
AcDbPoint
 10
10.16993788546051
 20
41.29612622192883
 30
0.0
  0
ENDBLK
  5
2659
330
264E
100
AcDbEntity
  8
0
100
AcDbBlockEnd
  0
BLOCK
  5
26BC
330
26B2
100
AcDbEntity
  8
0
100
AcDbBlockBegin
  2
*D30
 70
     1
 10
0.0
 20
0.0
 30
0.0
  3
*D30
  1

  0
LINE
  5
26B3
330
26B2
100
AcDbEntity
  8
SUNPOU
 62
    70
370
    -2
100
AcDbLine
 10
34.62035458319565
 20
86.25671773642633
 30
0.0
 11
34.62035458319565
 21
116.5057585811873
 31
0.0
  0
LINE
  5
26B4
330
26B2
100
AcDbEntity
  8
SUNPOU
 62
    70
370
    -2
100
AcDbLine
 10
110.6203545831956
 20
86.25671773642633
 30
0.0
 11
110.6203545831956
 21
116.5057585811873
 31
0.0
  0
LINE
  5
26B5
330
26B2
100
AcDbEntity
  8
SUNPOU
 62
    60
370
    -2
100
AcDbLine
 10
36.62035458319565
 20
116.5057585811873
 30
0.0
 11
108.6203545831956
 21
116.5057585811873
 31
0.0
  0
INSERT
  5
26B6
330
26B2
100
AcDbEntity
  8
SUNPOU
 62
    60
370
    -2
100
AcDbBlockReference
  2
_Dot
 10
34.62035458319565
 20
116.5057585811873
 30
0.0
 41
2.0
 42
2.0
 43
2.0
 50
180.0
  0
INSERT
  5
26B7
330
26B2
100
AcDbEntity
  8
SUNPOU
 62
    60
370
    -2
100
AcDbBlockReference
  2
_Dot
 10
110.6203545831956
 20
116.5057585811873
 30
0.0
 41
2.0
 42
2.0
 43
2.0
  0
MTEXT
  5
26B8
330
26B2
100
AcDbEntity
  8
SUNPOU
 62
    60
100
AcDbMText
 10
72.62035458319565
 20
122.0057585811873
 30
0.0
 40
5.0
 41
0.0
 71
     5
 72
     1
  1
\A1;76
  7
SUNPOU
 73
     1
 44
1.0
1001
ACAD
1000
MTEXTBEGIN
1070
    73
1070
     1
1070
    44
1040
1.0
1070
    74
1070
     0
1000
MTEXTEND
  0
POINT
  5
26B9
330
26B2
100
AcDbEntity
  8
DEFPOINTS
 62
     0
100
AcDbPoint
 10
34.62035458319565
 20
76.25671773642633
 30
0.0
  0
POINT
  5
26BA
330
26B2
100
AcDbEntity
  8
DEFPOINTS
 62
     0
100
AcDbPoint
 10
110.6203545831956
 20
76.25671773642633
 30
0.0
  0
POINT
  5
26BB
330
26B2
100
AcDbEntity
  8
DEFPOINTS
 62
     0
100
AcDbPoint
 10
110.6203545831956
 20
116.5057585811873
 30
0.0
  0
ENDBLK
  5
26BD
330
26B2
100
AcDbEntity
  8
0
100
AcDbBlockEnd
  0
BLOCK
  5
26C9
330
26BF
100
AcDbEntity
  8
0
100
AcDbBlockBegin
  2
*D31
 70
     1
 10
0.0
 20
0.0
 30
0.0
  3
*D31
  1

  0
LINE
  5
26C0
330
26BF
100
AcDbEntity
  8
SUNPOU
 62
    70
370
    -2
100
AcDbLine
 10
62.62035458319564
 20
97.11309134331528
 30
0.0
 11
18.01750147358872
 21
97.11309134331528
 31
0.0
  0
LINE
  5
26C1
330
26BF
100
AcDbEntity
  8
SUNPOU
 62
    70
370
    -2
100
AcDbLine
 10
62.62035458319541
 20
36.1130913433152
 30
0.0
 11
18.01750147358871
 21
36.11309134331521
 31
0.0
  0
LINE
  5
26C2
330
26BF
100
AcDbEntity
  8
SUNPOU
 62
    60
370
    -2
100
AcDbLine
 10
18.01750147358872
 20
95.11309134331529
 30
0.0
 11
18.01750147358871
 21
38.11309134331521
 31
0.0
  0
INSERT
  5
26C3
330
26BF
100
AcDbEntity
  8
SUNPOU
 62
    60
370
    -2
100
AcDbBlockReference
  2
_Dot
 10
18.01750147358872
 20
97.11309134331528
 30
0.0
 41
2.0
 42
2.0
 43
2.0
 50
90.0
  0
INSERT
  5
26C4
330
26BF
100
AcDbEntity
  8
SUNPOU
 62
    60
370
    -2
100
AcDbBlockReference
  2
_Dot
 10
18.01750147358871
 20
36.11309134331521
 30
0.0
 41
2.0
 42
2.0
 43
2.0
 50
270.0
  0
MTEXT
  5
26C5
330
26BF
100
AcDbEntity
  8
SUNPOU
 62
    60
100
AcDbMText
 10
12.5175014735887
 20
66.61309134331526
 30
0.0
 40
5.0
 41
0.0
 71
     5
 72
     1
  1
\A1;61
  7
SUNPOU
 11
0.0000000000000001
 21
1.0
 31
0.0
 73
     1
 44
1.0
1001
ACAD
1000
MTEXTBEGIN
1070
    73
1070
     1
1070
    44
1040
1.0
1070
    74
1070
     0
1000
MTEXTEND
  0
POINT
  5
26C6
330
26BF
100
AcDbEntity
  8
DEFPOINTS
 62
     0
100
AcDbPoint
 10
72.62035458319565
 20
97.11309134331528
 30
0.0
  0
POINT
  5
26C7
330
26BF
100
AcDbEntity
  8
DEFPOINTS
 62
     0
100
AcDbPoint
 10
72.62035458319542
 20
36.1130913433152
 30
0.0
  0
POINT
  5
26C8
330
26BF
100
AcDbEntity
  8
DEFPOINTS
 62
     0
100
AcDbPoint
 10
18.01750147358871
 20
36.11309134331521
 30
0.0
  0
ENDBLK
  5
26CA
330
26BF
100
AcDbEntity
  8
0
100
AcDbBlockEnd
  0
ENDSEC
  0
SECTION
  2
ENTITIES
  0
LINE
  5
1F
330
2
100
AcDbEntity
  8
WAKU
100
AcDbLine
 10
0.0
 20
14.0
 30
0.0
 11
148.6829221395387
 21
14.0
 31
0.0
  0
LINE
  5
20
330
2
100
AcDbEntity
  8
WAKU
100
AcDbLine
 10
0.0
 20
0.0
 30
0.0
 11
148.6829221395387
 21
0.0
 31
0.0
  0
TEXT
  5
21
330
2
100
AcDbEntity
  8
HOJO
100
AcDbText
 10
9.653966000000025
 20
2.366626000000024
 30
0.0
 40
9.0
  1
TWM236
  7
SUNPOU
100
AcDbText
  0
TEXT
  5
23
330
2
100
AcDbEntity
  8
HOJO
100
AcDbText
 10
85.84696046283864
 20
5.044386000000031
 30
0.0
 40
6.0
  1
76×61×6
  7
SUNPOU
100
AcDbText
  0
SPLINE
  5
268C
102
{ACAD_REACTORS
330
26DD
102
}
330
2
100
AcDbEntity
  8
KIJUN
100
AcDbSpline
210
0.0
220
0.0
230
1.0
 70
     8
 71
     3
 72
     9
 73
     5
 74
     3
 42
0.0000000001
 43
0.0000000001
 44
0.0000000001
 40
0.0
 40
0.0
 40
0.0
 40
0.0
 40
19.58878669346759
 40
49.84792453284757
 40
49.84792453284757
 40
49.84792453284757
 40
49.84792453284757
 10
53.6203545831961
 20
91.1130913433152
 30
0.0
 10
56.76913215583801
 20
85.35024407511183
 30
0.0
 10
64.78188094257729
 20
70.68542689092527
 30
0.0
 10
67.61340994823791
 20
54.15035822389619
 30
0.0
 10
69.33223028592374
 20
44.11309134331531
 30
0.0
 11
53.6203545831961
 21
91.1130913433152
 31
0.0
 11
62.26657135165146
 21
73.53573375706083
 31
0.0
 11
69.33223028592374
 21
44.11309134331531
 31
0.0
  0
SPLINE
  5
268D
102
{ACAD_REACTORS
330
26DD
102
}
330
2
100
AcDbEntity
  8
KIJUN
100
AcDbSpline
210
0.0
220
0.0
230
1.0
 70
     8
 71
     3
 72
     9
 73
     5
 74
     3
 42
0.0000000001
 43
0.0000000001
 44
0.0000000001
 40
0.0
 40
0.0
 40
0.0
 40
0.0
 40
22.48252016254479
 40
50.89826883622439
 40
50.89826883622439
 40
50.89826883622439
 40
50.89826883622439
 10
65.62035458319565
 20
94.61309134331532
 30
0.0
 10
66.87360470735768
 20
87.2208381039637
 30
0.0
 10
69.71084276062981
 20
70.48548592984241
 30
0.0
 10
71.04853728527797
 20
53.56150109510082
 30
0.0
 10
71.79535230047759
 20
44.11309134331531
 30
0.0
 11
65.62035458319565
 21
94.61309134331532
 31
0.0
 11
69.08752603225526
 21
72.39952713128355
 31
0.0
 11
71.79535230047759
 21
44.11309134331531
 31
0.0
  0
SPLINE
  5
268E
102
{ACAD_REACTORS
330
26DD
102
}
330
2
100
AcDbEntity
  8
KIJUN
100
AcDbSpline
210
0.0
220
0.0
230
1.0
 70
     8
 71
     3
 72
     9
 73
     5
 74
     3
 42
0.0000000001
 43
0.0000000001
 44
0.0000000001
 40
0.0
 40
0.0
 40
0.0
 40
0.0
 40
22.29387185533211
 40
48.19473308957855
 40
48.19473308957855
 40
48.19473308957855
 40
48.19473308957855
 10
42.62035458319565
 20
85.11309134331531
 30
0.0
 10
47.84886552575275
 20
79.69551294312667
 30
0.0
 10
59.15182317113869
 20
67.98383061700308
 30
0.0
 10
64.17145354155374
 20
52.45734866561419
 30
0.0
 10
66.8691082713699
 20
44.11309134331531
 30
0.0
 11
42.62035458319565
 21
85.11309134331531
 31
0.0
 11
56.96138519224451
 21
68.04406783954414
 31
0.0
 11
66.8691082713699
 21
44.11309134331531
 31
0.0
  0
ARC
  5
2690
102
{ACAD_REACTORS
330
26DD
102
}
330
2
100
AcDbEntity
  8
KIJUN
100
AcDbCircle
 10
61.10759825584683
 20
87.76397017994169
 30
0.0
 40
8.202160104545601
100
AcDbArc
 50
56.61986878317857
 51
155.9005406334551
  0
ARC
  5
2691
102
{ACAD_REACTORS
330
26DD
102
}
330
2
100
AcDbEntity
  8
KIJUN
100
AcDbCircle
 10
51.07408797204834
 20
82.69791346375223
 30
0.0
 40
8.79196749310012
100
AcDbArc
 50
73.16522169194896
 51
164.05569763997
  0
ARC
  5
2692
102
{ACAD_REACTORS
330
26DD
102
}
330
2
100
AcDbEntity
  8
KIJUN
100
AcDbCircle
 10
72.62035458319565
 20
86.06309134331514
 30
0.0
 40
11.05000000000014
100
AcDbArc
 50
50.69235188389463
 51
129.3076481161054
  0
SPLINE
  5
2693
102
{ACAD_REACTORS
330
26DD
102
}
330
2
100
AcDbEntity
  8
KIJUN
100
AcDbSpline
210
0.0
220
0.0
230
1.0
 70
     8
 71
     3
 72
     9
 73
     5
 74
     3
 42
0.0000000001
 43
0.0000000001
 44
0.0000000001
 40
0.0
 40
0.0
 40
0.0
 40
0.0
 40
22.29387185533211
 40
48.19473308957855
 40
48.19473308957855
 40
48.19473308957855
 40
48.19473308957855
 10
102.6203545831961
 20
85.11309134331531
 30
0.0
 10
97.39184364063897
 20
79.69551294312667
 30
0.0
 10
86.08888599525306
 20
67.98383061700308
 30
0.0
 10
81.069255624838
 20
52.45734866561419
 30
0.0
 10
78.37160089502186
 20
44.11309134331531
 30
0.0
 11
102.6203545831961
 21
85.11309134331531
 31
0.0
 11
88.27932397414725
 21
68.04406783954414
 31
0.0
 11
78.37160089502186
 21
44.11309134331531
 31
0.0
  0
SPLINE
  5
2694
102
{ACAD_REACTORS
330
26DD
102
}
330
2
100
AcDbEntity
  8
KIJUN
100
AcDbSpline
210
0.0
220
0.0
230
1.0
 70
     8
 71
     3
 72
     9
 73
     5
 74
     3
 42
0.0000000001
 43
0.0000000001
 44
0.0000000001
 40
0.0
 40
0.0
 40
0.0
 40
0.0
 40
19.58878669346759
 40
49.84792453284757
 40
49.84792453284757
 40
49.84792453284757
 40
49.84792453284757
 10
91.62035458319564
 20
91.1130913433152
 30
0.0
 10
88.47157701055374
 20
85.35024407511183
 30
0.0
 10
80.45882822381447
 20
70.68542689092527
 30
0.0
 10
77.62729921815384
 20
54.15035822389619
 30
0.0
 10
75.90847888046801
 20
44.11309134331531
 30
0.0
 11
91.62035458319564
 21
91.1130913433152
 31
0.0
 11
82.97413781474029
 21
73.53573375706083
 31
0.0
 11
75.90847888046801
 21
44.11309134331531
 31
0.0
  0
SPLINE
  5
2695
102
{ACAD_REACTORS
330
26DD
102
}
330
2
100
AcDbEntity
  8
KIJUN
100
AcDbSpline
210
0.0
220
0.0
230
1.0
 70
     8
 71
     3
 72
     9
 73
     5
 74
     3
 42
0.0000000001
 43
0.0000000001
 44
0.0000000001
 40
0.0
 40
0.0
 40
0.0
 40
0.0
 40
22.48252016254479
 40
50.89826883622439
 40
50.89826883622439
 40
50.89826883622439
 40
50.89826883622439
 10
79.6203545831961
 20
94.61309134331532
 30
0.0
 10
78.36710445903406
 20
87.2208381039637
 30
0.0
 10
75.52986640576193
 20
70.48548592984241
 30
0.0
 10
74.19217188111378
 20
53.56150109510082
 30
0.0
 10
73.44535686591417
 20
44.11309134331531
 30
0.0
 11
79.6203545831961
 21
94.61309134331532
 31
0.0
 11
76.15318313413649
 21
72.39952713128355
 31
0.0
 11
73.44535686591417
 21
44.11309134331531
 31
0.0
  0
ARC
  5
2697
102
{ACAD_REACTORS
330
26DD
102
}
330
2
100
AcDbEntity
  8
KIJUN
100
AcDbCircle
 10
94.1666211943434
 20
82.69791346375223
 30
0.0
 40
8.79196749310012
100
AcDbArc
 50
15.94430236003
 51
106.834778308051
  0
ARC
  5
2698
102
{ACAD_REACTORS
330
26DD
102
}
330
2
100
AcDbEntity
  8
KIJUN
100
AcDbCircle
 10
84.13311091054493
 20
87.76397017994169
 30
0.0
 40
8.202160104545601
100
AcDbArc
 50
24.09945936654482
 51
123.3801312168214
  0
ARC
  5
269E
102
{ACAD_REACTORS
330
26DD
102
}
330
2
100
AcDbEntity
  8
KIJUN
100
AcDbCircle
 10
79.63701121316616
 20
56.96389824431889
 30
0.0
 40
21.99976405977684
100
AcDbArc
 50
243.9218283952718
 51
251.4010247451762
  0
ARC
  5
269F
102
{ACAD_REACTORS
330
26DD
102
}
330
2
100
AcDbEntity
  8
KIJUN
100
AcDbCircle
 10
73.30217711331734
 20
44.36655235289608
 30
0.0
 40
7.901580589350523
100
AcDbArc
 50
210.5825188711757
 51
245.0252467648417
  0
ARC
  5
26A0
102
{ACAD_REACTORS
330
26DD
102
}
330
2
100
AcDbEntity
  8
KIJUN
100
AcDbCircle
 10
87.7429278097456
 20
53.26399252408442
 30
0.0
 40
24.86237826759821
100
AcDbArc
 50
205.6277332324127
 51
211.3030099599375
  0
ARC
  5
26A1
102
{ACAD_REACTORS
330
26DD
102
}
330
2
100
AcDbEntity
  8
KIJUN
100
AcDbCircle
 10
32.23023219907739
 20
27.37731125711145
 30
0.0
 40
36.39190118549533
100
AcDbArc
 50
24.57212617532555
 51
45.91671474149894
  0
ARC
  5
26A2
102
{ACAD_REACTORS
330
26DD
102
}
330
2
100
AcDbEntity
  8
KIJUN
100
AcDbCircle
 10
-45.84560268246913
 20
-49.36224801825856
 30
0.0
 40
145.8587091860152
100
AcDbArc
 50
44.85754271742611
 51
53.00046743372701
  0
ARC
  5
26A3
102
{ACAD_REACTORS
330
26DD
102
}
330
2
100
AcDbEntity
  8
KIJUN
100
AcDbCircle
 10
48.14558399130574
 20
68.97851041475256
 30
0.0
 40
17.05440886552756
100
AcDbArc
 50
108.9035841729017
 51
129.0685404527573
  0
ARC
  5
26A4
102
{ACAD_REACTORS
330
26DD
102
}
330
2
100
AcDbEntity
  8
KIJUN
100
AcDbCircle
 10
42.41089980399912
 20
76.25671773642633
 30
0.0
 40
7.790545220803466
100
AcDbArc
 50
130.059399638238
 51
227.7874318572016
  0
ARC
  5
26A6
102
{ACAD_REACTORS
330
26DD
102
}
330
2
100
AcDbEntity
  8
KIJUN
100
AcDbCircle
 10
55.42610372378555
 20
91.27447046106102
 30
0.0
 40
27.66191411375209
100
AcDbArc
 50
228.7203166418383
 51
240.8057840347197
  0
ARC
  5
26A9
102
{ACAD_REACTORS
330
26DD
102
}
330
2
100
AcDbEntity
  8
KIJUN
100
AcDbCircle
 10
65.60369795322514
 20
56.96389824431889
 30
0.0
 40
21.99976405977684
100
AcDbArc
 50
288.5989752548231
 51
296.0781716047275
  0
ARC
  5
26AA
102
{ACAD_REACTORS
330
26DD
102
}
330
2
100
AcDbEntity
  8
KIJUN
100
AcDbCircle
 10
71.93853205307395
 20
44.36655235289608
 30
0.0
 40
7.901580589350523
100
AcDbArc
 50
294.9747532351578
 51
329.417481128824
  0
ARC
  5
26AB
102
{ACAD_REACTORS
330
26DD
102
}
330
2
100
AcDbEntity
  8
KIJUN
100
AcDbCircle
 10
57.49778135664569
 20
53.26399252408442
 30
0.0
 40
24.86237826759821
100
AcDbArc
 50
328.6969900400628
 51
334.3722667675872
  0
ARC
  5
26AC
102
{ACAD_REACTORS
330
26DD
102
}
330
2
100
AcDbEntity
  8
KIJUN
100
AcDbCircle
 10
113.0104769673139
 20
27.37731125711145
 30
0.0
 40
36.39190118549533
100
AcDbArc
 50
134.083285258501
 51
155.4278738246742
  0
ARC
  5
26AD
102
{ACAD_REACTORS
330
26DD
102
}
330
2
100
AcDbEntity
  8
KIJUN
100
AcDbCircle
 10
191.0863118488604
 20
-49.36224801825856
 30
0.0
 40
145.8587091860152
100
AcDbArc
 50
126.9995325662735
 51
135.1424572825739
  0
ARC
  5
26AE
102
{ACAD_REACTORS
330
26DD
102
}
330
2
100
AcDbEntity
  8
KIJUN
100
AcDbCircle
 10
97.09512517508557
 20
68.97851041475256
 30
0.0
 40
17.05440886552756
100
AcDbArc
 50
50.93145954724331
 51
71.09641582709787
  0
ARC
  5
26AF
102
{ACAD_REACTORS
330
26DD
102
}
330
2
100
AcDbEntity
  8
KIJUN
100
AcDbCircle
 10
102.8298093623922
 20
76.25671773642633
 30
0.0
 40
7.790545220803466
100
AcDbArc
 50
312.2125681427979
 51
49.94060036176239
  0
ARC
  5
26B0
102
{ACAD_REACTORS
330
26DD
102
}
330
2
100
AcDbEntity
  8
KIJUN
100
AcDbCircle
 10
89.81460544260574
 20
91.27447046106102
 30
0.0
 40
27.66191411375209
100
AcDbArc
 50
299.1942159652801
 51
311.2796833581612
  0
DIMENSION
  5
26B1
330
2
100
AcDbEntity
  8
SUNPOU
100
AcDbDimension
  2
*D30
 10
110.6203545831956
 20
116.5057585811873
 30
0.0
 11
72.62035458319565
 21
122.0057585811873
 31
0.0
 70
    32
 71
     5
 42
76.0
  3
STANDARD
100
AcDbAlignedDimension
 13
34.62035458319565
 23
76.25671773642633
 33
0.0
 14
110.6203545831956
 24
76.25671773642633
 34
0.0
100
AcDbRotatedDimension
1001
ACAD
1000
DSTYLE
1002
{
1070
    41
1040
2.0
1070
    42
1040
10.0
1070
    44
1040
0.0
1070
    73
1070
     0
1070
    74
1070
     0
1070
    77
1070
     1
1070
   140
1040
5.0
1070
   141
1040
0.0
1070
   146
1040
0.064286
1070
   147
1040
3.0
1070
   176
1070
    60
1070
   177
1070
    70
1070
   178
1070
    60
1070
   271
1070
     0
1070
   272
1070
     0
1070
   340
1005
1C
1070
   342
1005
109
1002
}
  0
DIMENSION
  5
26BE
330
2
100
AcDbEntity
  8
SUNPOU
100
AcDbDimension
  2
*D31
 10
18.01750147358871
 20
36.11309134331521
 30
0.0
 11
12.5175014735887
 21
66.61309134331526
 31
0.0
 70
    32
 71
     5
 42
61.00000000000007
  3
STANDARD
100
AcDbAlignedDimension
 13
72.62035458319565
 23
97.11309134331528
 33
0.0
 14
72.62035458319542
 24
36.1130913433152
 34
0.0
 50
90.0
100
AcDbRotatedDimension
1001
ACAD
1000
DSTYLE
1002
{
1070
    41
1040
2.0
1070
    42
1040
10.0
1070
    44
1040
0.0
1070
    73
1070
     0
1070
    74
1070
     0
1070
    77
1070
     1
1070
   140
1040
5.0
1070
   141
1040
0.0
1070
   146
1040
0.064286
1070
   147
1040
3.0
1070
   176
1070
    60
1070
   177
1070
    70
1070
   178
1070
    60
1070
   271
1070
     0
1070
   272
1070
     0
1070
   340
1005
1C
1070
   342
1005
109
1002
}
  0
ENDSEC
  0
SECTION
  2
OBJECTS
  0
DICTIONARY
  5
1A
330
0
100
AcDbDictionary
281
     1
  3
ACAD_COLOR
350
144
  3
ACAD_GROUP
350
18
  3
ACAD_LAYOUT
350
58
  3
ACAD_MATERIAL
350
143
  3
ACAD_MLINESTYLE
350
19
  3
ACAD_PLOTSETTINGS
350
59
  3
ACAD_PLOTSTYLENAME
350
56
  3
ACAD_TABLESTYLE
350
145
  3
ACDBHEADERROUNDTRIPXREC
350
26E5
  3
AcDbVariableDictionary
350
1D1
  0
DICTIONARY
  5
1B4
330
A
100
AcDbDictionary
280
     1
281
     1
  3
ACAD_LAYERFILTERS
360
1A2A
  3
ACLYDICTIONARY
360
1A29
  0
DICTIONARY
  5
D13
330
2
100
AcDbDictionary
280
     1
281
     1
  3
ACAD_SORTENTS
360
D14
  0
DICTIONARY
  5
144
102
{ACAD_REACTORS
330
1A
102
}
330
1A
100
AcDbDictionary
281
     1
  0
DICTIONARY
  5
18
102
{ACAD_REACTORS
330
1A
102
}
330
1A
100
AcDbDictionary
281
     1
  3
*A1
350
E0D
  3
*A10
350
213E
  3
*A11
350
22C8
  3
*A12
350
241A
  3
*A14
350
24D6
  3
*A15
350
2573
  3
*A16
350
265A
  3
*A17
350
26DD
  3
*A2
350
1EFE
  3
*A3
350
2037
  3
*A4
350
FF8
  3
*A5
350
136A
  3
*A6
350
1555
  3
*A7
350
17BC
  3
*A8
350
1A98
  3
*A9
350
1CBC
  0
DICTIONARY
  5
58
102
{ACAD_REACTORS
330
1A
102
}
330
1A
100
AcDbDictionary
281
     1
  3
Model
350
5A
  3
ﾚｲｱｳﾄ1
350
5B
  0
DICTIONARY
  5
143
102
{ACAD_REACTORS
330
1A
102
}
330
1A
100
AcDbDictionary
281
     1
  0
DICTIONARY
  5
19
102
{ACAD_REACTORS
330
1A
102
}
330
1A
100
AcDbDictionary
281
     1
  3
STANDARD
350
1D
  0
DICTIONARY
  5
59
102
{ACAD_REACTORS
330
1A
102
}
330
1A
100
AcDbDictionary
281
     1
  0
ACDBDICTIONARYWDFLT
  5
56
102
{ACAD_REACTORS
330
1A
102
}
330
1A
100
AcDbDictionary
281
     1
  3
Normal
350
57
100
AcDbDictionaryWithDefault
340
57
  0
DICTIONARY
  5
145
102
{ACAD_REACTORS
330
1A
102
}
330
1A
100
AcDbDictionary
281
     1
  3
Standard
350
146
  0
DICTIONARY
  5
26E5
102
{ACAD_REACTORS
330
1A
102
}
330
1A
100
AcDbDictionary
281
     1
  0
DICTIONARY
  5
1D1
102
{ACAD_REACTORS
330
1A
102
}
330
1A
100
AcDbDictionary
281
     1
  3
CTABLESTYLE
350
1D2
  3
DIMASSOC
350
D03
  3
PROJECTNAME
350
D04
  0
DICTIONARY
  5
1A2A
102
{ACAD_REACTORS
330
1B4
102
}
330
1B4
100
AcDbDictionary
281
     1
  0
DICTIONARY
  5
1A29
102
{ACAD_REACTORS
330
1B4
102
}
330
1B4
100
AcDbDictionary
281
     1
1001
ACAD
1000
<All
  0
SORTENTSTABLE
  5
D14
102
{ACAD_REACTORS
330
D13
102
}
330
D13
100
AcDbSortentsTable
330
2
331
23
  5
23
331
1F
  5
1F
331
20
  5
20
331
21
  5
21
  0
GROUP
  5
E0D
102
{ACAD_REACTORS
330
18
102
}
330
18
100
AcDbGroup
300

 70
     1
 71
     1
  0
GROUP
  5
213E
102
{ACAD_REACTORS
330
18
102
}
330
18
100
AcDbGroup
300

 70
     1
 71
     1
  0
GROUP
  5
22C8
102
{ACAD_REACTORS
330
18
102
}
330
18
100
AcDbGroup
300

 70
     1
 71
     1
  0
GROUP
  5
241A
102
{ACAD_REACTORS
330
18
102
}
330
18
100
AcDbGroup
300

 70
     1
 71
     1
  0
GROUP
  5
24D6
102
{ACAD_REACTORS
330
18
102
}
330
18
100
AcDbGroup
300

 70
     1
 71
     1
  0
GROUP
  5
2573
102
{ACAD_REACTORS
330
18
102
}
330
18
100
AcDbGroup
300

 70
     1
 71
     1
  0
GROUP
  5
265A
102
{ACAD_REACTORS
330
18
102
}
330
18
100
AcDbGroup
300

 70
     1
 71
     1
  0
GROUP
  5
26DD
102
{ACAD_REACTORS
330
18
102
}
330
18
100
AcDbGroup
300

 70
     1
 71
     1
340
26B0
340
26AF
340
26AE
340
26AD
340
26AC
340
26AB
340
26AA
340
26A9
340
26A6
340
26A4
340
26A3
340
26A2
340
26A1
340
26A0
340
269F
340
269E
340
2698
340
2697
340
2695
340
2694
340
2693
340
2692
340
2691
340
2690
340
268E
340
268D
340
268C
  0
GROUP
  5
1EFE
102
{ACAD_REACTORS
330
18
102
}
330
18
100
AcDbGroup
300

 70
     1
 71
     1
  0
GROUP
  5
2037
102
{ACAD_REACTORS
330
18
102
}
330
18
100
AcDbGroup
300

 70
     1
 71
     1
  0
GROUP
  5
FF8
102
{ACAD_REACTORS
330
18
102
}
330
18
100
AcDbGroup
300

 70
     1
 71
     1
  0
GROUP
  5
136A
102
{ACAD_REACTORS
330
18
102
}
330
18
100
AcDbGroup
300

 70
     1
 71
     1
  0
GROUP
  5
1555
102
{ACAD_REACTORS
330
18
102
}
330
18
100
AcDbGroup
300

 70
     1
 71
     1
  0
GROUP
  5
17BC
102
{ACAD_REACTORS
330
18
102
}
330
18
100
AcDbGroup
300

 70
     1
 71
     1
  0
GROUP
  5
1A98
102
{ACAD_REACTORS
330
18
102
}
330
18
100
AcDbGroup
300

 70
     1
 71
     1
  0
GROUP
  5
1CBC
102
{ACAD_REACTORS
330
18
102
}
330
18
100
AcDbGroup
300

 70
     1
 71
     1
  0
LAYOUT
  5
5A
102
{ACAD_XDICTIONARY
360
26E6
102
}
102
{ACAD_REACTORS
330
58
102
}
330
58
100
AcDbPlotSettings
  1

  2
なし
  4

  6

 40
0.0
 41
0.0
 42
0.0
 43
0.0
 44
0.0
 45
0.0
 46
0.0
 47
0.0
 48
0.0
 49
0.0
140
0.0
141
0.0
142
1.0
143
1.0
 70
  1712
 72
     0
 73
     0
 74
     0
  7
monochrome.ctb
 75
     0
147
1.0
148
0.0
149
0.0
100
AcDbLayout
  1
Model
 70
     1
 71
     0
 10
0.0
 20
0.0
 11
12.0
 21
9.0
 12
0.0
 22
0.0
 32
0.0
 14
0.0
 24
0.0
 34
0.0
 15
0.0
 25
0.0
 35
0.0
146
0.0
 13
0.0
 23
0.0
 33
0.0
 16
1.0
 26
0.0
 36
0.0
 17
0.0
 27
1.0
 37
0.0
 76
     0
330
2
  0
LAYOUT
  5
5B
102
{ACAD_XDICTIONARY
360
26E8
102
}
102
{ACAD_REACTORS
330
58
102
}
330
58
100
AcDbPlotSettings
  1

  2
なし
  4

  6

 40
0.0
 41
0.0
 42
0.0
 43
0.0
 44
0.0
 45
0.0
 46
0.0
 47
0.0
 48
0.0
 49
0.0
140
0.0
141
0.0
142
1.0
143
1.0
 70
   688
 72
     0
 73
     0
 74
     5
  7
monochrome.ctb
 75
    16
147
1.0
148
0.0
149
0.0
100
AcDbLayout
  1
ﾚｲｱｳﾄ1
 70
     1
 71
     1
 10
0.0
 20
0.0
 11
12.0
 21
9.0
 12
0.0
 22
0.0
 32
0.0
 14
1.000000000000000E+20
 24
1.000000000000000E+20
 34
1.000000000000000E+20
 15
-1.000000000000000E+20
 25
-1.000000000000000E+20
 35
-1.000000000000000E+20
146
0.0
 13
0.0
 23
0.0
 33
0.0
 16
1.0
 26
0.0
 36
0.0
 17
0.0
 27
1.0
 37
0.0
 76
     0
330
7
  0
MLINESTYLE
  5
1D
102
{ACAD_REACTORS
330
19
102
}
330
19
100
AcDbMlineStyle
  2
STANDARD
 70
     0
  3

 62
   256
 51
90.0
 52
90.0
 71
     2
 49
0.5
 62
   256
  6
BYLAYER
 49
-0.5
 62
   256
  6
BYLAYER
  0
ACDBPLACEHOLDER
  5
57
102
{ACAD_REACTORS
330
56
102
}
330
56
  0
TABLESTYLE
  5
146
102
{ACAD_REACTORS
330
145
102
}
330
145
100
AcDbTableStyle
  3
Standard
 70
     0
 71
     0
 40
0.06
 41
0.06
280
     0
281
     0
  7
STANDARD
140
0.18
170
     2
 62
     0
 63
     7
283
     0
274
    -2
284
     1
 64
     0
275
    -2
285
     1
 65
     0
276
    -2
286
     1
 66
     0
277
    -2
287
     1
 67
     0
278
    -2
288
     1
 68
     0
279
    -2
289
     1
 69
     0
  7
STANDARD
140
0.25
170
     5
 62
     0
 63
     7
283
     0
274
    -2
284
     1
 64
     0
275
    -2
285
     1
 65
     0
276
    -2
286
     1
 66
     0
277
    -2
287
     1
 67
     0
278
    -2
288
     1
 68
     0
279
    -2
289
     1
 69
     0
  7
STANDARD
140
0.18
170
     5
 62
     0
 63
     7
283
     0
274
    -2
284
     1
 64
     0
275
    -2
285
     1
 65
     0
276
    -2
286
     1
 66
     0
277
    -2
287
     1
 67
     0
278
    -2
288
     1
 68
     0
279
    -2
289
     1
 69
     0
  0
DICTIONARYVAR
  5
1D2
102
{ACAD_REACTORS
330
1D1
102
}
330
1D1
100
DictionaryVariables
280
     0
  1
STANDARD
  0
DICTIONARYVAR
  5
D03
102
{ACAD_REACTORS
330
1D1
102
}
330
1D1
100
DictionaryVariables
280
     0
  1
1
  0
DICTIONARYVAR
  5
D04
102
{ACAD_REACTORS
330
1D1
102
}
330
1D1
100
DictionaryVariables
280
     0
  1

  0
DICTIONARY
  5
26E6
330
5A
100
AcDbDictionary
280
     1
281
     1
  3
ACAD_XREC_ROUNDTRIP
360
26E7
  0
DICTIONARY
  5
26E8
330
5B
100
AcDbDictionary
280
     1
281
     1
  3
ACAD_XREC_ROUNDTRIP
360
26E9
  0
XRECORD
  5
26E7
102
{ACAD_REACTORS
330
26E6
102
}
330
26E6
100
AcDbXrecord
280
     1
102
SHADEPLOT
 70
     0
102
SHADEPLOTRESLEVEL
 70
     2
102
SHADEPLOTCUSTOMDPI
 70
   300
  0
XRECORD
  5
26E9
102
{ACAD_REACTORS
330
26E8
102
}
330
26E8
100
AcDbXrecord
280
     1
102
SHADEPLOT
 70
     0
102
SHADEPLOTRESLEVEL
 70
     2
102
SHADEPLOTCUSTOMDPI
 70
   300
  0
ENDSEC
  0
EOF
