  0
SECTION
  2
HEADER
  9
$ACADVER
  1
AC1015
  9
$ACADMAINTVER
 70
    20
  9
$DWGCODEPAGE
  3
ANSI_932
  9
$INSBASE
 10
922.019522
 20
-675.4306699999999
 30
0.0
  9
$EXTMIN
 10
-12.11456707824254
 20
-0.005978024701335
 30
-0.0000000000112498
  9
$EXTMAX
 10
138.8449194640317
 20
202.1736368761489
 30
0.0000000000002956
  9
$LIMMIN
 10
0.0
 20
0.0
  9
$LIMMAX
 10
420.0
 20
297.0
  9
$ORTHOMODE
 70
     1
  9
$REGENMODE
 70
     1
  9
$FILLMODE
 70
     1
  9
$QTEXTMODE
 70
     0
  9
$MIRRTEXT
 70
     1
  9
$LTSCALE
 40
1.0
  9
$ATTMODE
 70
     1
  9
$TEXTSIZE
 40
30.0
  9
$TRACEWID
 40
0.05
  9
$TEXTSTYLE
  7
SUNPOU
  9
$CLAYER
  8
0
  9
$CELTYPE
  6
BYLAYER
  9
$CECOLOR
 62
   256
  9
$CELTSCALE
 40
1.0
  9
$DISPSILH
 70
     0
  9
$DIMSCALE
 40
1.0
  9
$DIMASZ
 40
2.0
  9
$DIMEXO
 40
10.0
  9
$DIMDLI
 40
0.38
  9
$DIMRND
 40
0.0
  9
$DIMDLE
 40
0.0
  9
$DIMEXE
 40
0.0
  9
$DIMTP
 40
0.0
  9
$DIMTM
 40
0.0
  9
$DIMTXT
 40
10.0
  9
$DIMCEN
 40
0.0
  9
$DIMTSZ
 40
0.0
  9
$DIMTOL
 70
     0
  9
$DIMLIM
 70
     0
  9
$DIMTIH
 70
     0
  9
$DIMTOH
 70
     0
  9
$DIMSE1
 70
     0
  9
$DIMSE2
 70
     0
  9
$DIMTAD
 70
     1
  9
$DIMZIN
 70
     0
  9
$DIMBLK
  1
Dot
  9
$DIMASO
 70
     1
  9
$DIMSHO
 70
     1
  9
$DIMPOST
  1

  9
$DIMAPOST
  1

  9
$DIMALT
 70
     0
  9
$DIMALTD
 70
     2
  9
$DIMALTF
 40
25.4
  9
$DIMLFAC
 40
1.0
  9
$DIMTOFL
 70
     0
  9
$DIMTVP
 40
0.0
  9
$DIMTIX
 70
     0
  9
$DIMSOXD
 70
     0
  9
$DIMSAH
 70
     0
  9
$DIMBLK1
  1

  9
$DIMBLK2
  1

  9
$DIMSTYLE
  2
STANDARD
  9
$DIMCLRD
 70
    60
  9
$DIMCLRE
 70
    70
  9
$DIMCLRT
 70
    60
  9
$DIMTFAC
 40
0.064286
  9
$DIMGAP
 40
3.0
  9
$DIMJUST
 70
     0
  9
$DIMSD1
 70
     0
  9
$DIMSD2
 70
     0
  9
$DIMTOLJ
 70
     1
  9
$DIMTZIN
 70
     0
  9
$DIMALTZ
 70
     0
  9
$DIMALTTZ
 70
     0
  9
$DIMUPT
 70
     0
  9
$DIMDEC
 70
     0
  9
$DIMTDEC
 70
     0
  9
$DIMALTU
 70
     2
  9
$DIMALTTD
 70
     2
  9
$DIMTXSTY
  7
SUNPOU
  9
$DIMAUNIT
 70
     0
  9
$DIMADEC
 70
     0
  9
$DIMALTRND
 40
0.0
  9
$DIMAZIN
 70
     0
  9
$DIMDSEP
 70
    46
  9
$DIMATFIT
 70
     3
  9
$DIMFRAC
 70
     0
  9
$DIMLDRBLK
  1

  9
$DIMLUNIT
 70
     2
  9
$DIMLWD
 70
    -2
  9
$DIMLWE
 70
    -2
  9
$DIMTMOVE
 70
     0
  9
$LUNITS
 70
     2
  9
$LUPREC
 70
     5
  9
$SKETCHINC
 40
0.1
  9
$FILLETRAD
 40
0.0
  9
$AUNITS
 70
     0
  9
$AUPREC
 70
     0
  9
$MENU
  1
acad
  9
$ELEVATION
 40
0.0
  9
$PELEVATION
 40
0.0
  9
$THICKNESS
 40
0.0
  9
$LIMCHECK
 70
     0
  9
$CHAMFERA
 40
0.0
  9
$CHAMFERB
 40
0.0
  9
$CHAMFERC
 40
0.0
  9
$CHAMFERD
 40
0.0
  9
$SKPOLY
 70
     0
  9
$TDCREATE
 40
2450623.654673033
  9
$TDUCREATE
 40
2450623.279673032
  9
$TDUPDATE
 40
2453858.394814676
  9
$TDUUPDATE
 40
2453858.019814676
  9
$TDINDWG
 40
0.0496172338
  9
$TDUSRTIMER
 40
0.0496170602
  9
$USRTIMER
 70
     1
  9
$ANGBASE
 50
0.0
  9
$ANGDIR
 70
     0
  9
$PDMODE
 70
     0
  9
$PDSIZE
 40
0.0
  9
$PLINEWID
 40
0.0
  9
$SPLFRAME
 70
     0
  9
$SPLINETYPE
 70
     6
  9
$SPLINESEGS
 70
     8
  9
$HANDSEED
  5
18F4
  9
$SURFTAB1
 70
     6
  9
$SURFTAB2
 70
     6
  9
$SURFTYPE
 70
     6
  9
$SURFU
 70
     6
  9
$SURFV
 70
     6
  9
$UCSBASE
  2

  9
$UCSNAME
  2

  9
$UCSORG
 10
0.0
 20
0.0
 30
0.0
  9
$UCSXDIR
 10
1.0
 20
0.0
 30
0.0
  9
$UCSYDIR
 10
0.0
 20
1.0
 30
0.0
  9
$UCSORTHOREF
  2

  9
$UCSORTHOVIEW
 70
     0
  9
$UCSORGTOP
 10
0.0
 20
0.0
 30
0.0
  9
$UCSORGBOTTOM
 10
0.0
 20
0.0
 30
0.0
  9
$UCSORGLEFT
 10
0.0
 20
0.0
 30
0.0
  9
$UCSORGRIGHT
 10
0.0
 20
0.0
 30
0.0
  9
$UCSORGFRONT
 10
0.0
 20
0.0
 30
0.0
  9
$UCSORGBACK
 10
0.0
 20
0.0
 30
0.0
  9
$PUCSBASE
  2

  9
$PUCSNAME
  2

  9
$PUCSORG
 10
0.0
 20
0.0
 30
0.0
  9
$PUCSXDIR
 10
1.0
 20
0.0
 30
0.0
  9
$PUCSYDIR
 10
0.0
 20
1.0
 30
0.0
  9
$PUCSORTHOREF
  2

  9
$PUCSORTHOVIEW
 70
     0
  9
$PUCSORGTOP
 10
0.0
 20
0.0
 30
0.0
  9
$PUCSORGBOTTOM
 10
0.0
 20
0.0
 30
0.0
  9
$PUCSORGLEFT
 10
0.0
 20
0.0
 30
0.0
  9
$PUCSORGRIGHT
 10
0.0
 20
0.0
 30
0.0
  9
$PUCSORGFRONT
 10
0.0
 20
0.0
 30
0.0
  9
$PUCSORGBACK
 10
0.0
 20
0.0
 30
0.0
  9
$USERI1
 70
     0
  9
$USERI2
 70
     0
  9
$USERI3
 70
     0
  9
$USERI4
 70
     0
  9
$USERI5
 70
     0
  9
$USERR1
 40
0.0
  9
$USERR2
 40
0.0
  9
$USERR3
 40
0.0
  9
$USERR4
 40
0.0
  9
$USERR5
 40
0.0
  9
$WORLDVIEW
 70
     1
  9
$SHADEDGE
 70
     3
  9
$SHADEDIF
 70
    70
  9
$TILEMODE
 70
     1
  9
$MAXACTVP
 70
    16
  9
$PINSBASE
 10
0.0
 20
0.0
 30
0.0
  9
$PLIMCHECK
 70
     0
  9
$PEXTMIN
 10
1.000000000000000E+20
 20
1.000000000000000E+20
 30
1.000000000000000E+20
  9
$PEXTMAX
 10
-1.000000000000000E+20
 20
-1.000000000000000E+20
 30
-1.000000000000000E+20
  9
$PLIMMIN
 10
0.0
 20
0.0
  9
$PLIMMAX
 10
12.0
 20
9.0
  9
$UNITMODE
 70
     0
  9
$VISRETAIN
 70
     0
  9
$PLINEGEN
 70
     0
  9
$PSLTSCALE
 70
     1
  9
$TREEDEPTH
 70
  3020
  9
$CMLSTYLE
  2
STANDARD
  9
$CMLJUST
 70
     0
  9
$CMLSCALE
 40
1.0
  9
$PROXYGRAPHICS
 70
     1
  9
$MEASUREMENT
 70
     0
  9
$CELWEIGHT
370
    -1
  9
$ENDCAPS
280
     0
  9
$JOINSTYLE
280
     0
  9
$LWDISPLAY
290
     0
  9
$INSUNITS
 70
     0
  9
$HYPERLINKBASE
  1

  9
$STYLESHEET
  1

  9
$XEDIT
290
     1
  9
$CEPSNTYPE
380
     0
  9
$PSTYLEMODE
290
     1
  9
$FINGERPRINTGUID
  2
{FB88A696-E29C-4009-92AF-A3599A8169D5}
  9
$VERSIONGUID
  2
{9C5DDE56-C20E-4FD2-B469-7DBF5A2E330D}
  9
$EXTNAMES
290
     1
  9
$PSVPSCALE
 40
0.0
  9
$OLESTARTUP
290
     0
  0
ENDSEC
  0
SECTION
  2
CLASSES
  0
CLASS
  1
DICTIONARYVAR
  2
AcDbDictionaryVar
  3
ObjectDBX Classes
 90
        0
280
     0
281
     0
  0
CLASS
  1
ACDBDICTIONARYWDFLT
  2
AcDbDictionaryWithDefault
  3
ObjectDBX Classes
 90
        0
280
     0
281
     0
  0
CLASS
  1
ACDBPLACEHOLDER
  2
AcDbPlaceHolder
  3
ObjectDBX Classes
 90
        0
280
     0
281
     0
  0
CLASS
  1
LAYOUT
  2
AcDbLayout
  3
ObjectDBX Classes
 90
        0
280
     0
281
     0
  0
CLASS
  1
TABLESTYLE
  2
AcDbTableStyle
  3
ObjectDBX Classes
 90
     2047
280
     0
281
     0
  0
CLASS
  1
SORTENTSTABLE
  2
AcDbSortentsTable
  3
ObjectDBX Classes
 90
        0
280
     0
281
     0
  0
ENDSEC
  0
SECTION
  2
TABLES
  0
TABLE
  2
VPORT
  5
12
330
0
100
AcDbSymbolTable
 70
     9
  0
VPORT
  5
18EE
330
12
100
AcDbSymbolTableRecord
100
AcDbViewportTableRecord
  2
*Active
 70
     0
 10
0.0
 20
0.0
 11
1.0
 21
1.0
 12
63.36517619289459
 22
101.0838294257238
 13
0.0
 23
0.0
 14
1.0
 24
1.0
 15
0.0
 25
0.0
 16
0.0
 26
0.0
 36
1.0
 17
0.0
 27
0.0
 37
0.0
 40
203.7288839805502
 41
1.557544757033248
 42
50.0
 43
0.0
 44
0.0
 50
0.0
 51
0.0
 71
     0
 72
 20000
 73
     1
 74
     1
 75
     0
 76
     0
 77
     0
 78
     0
281
     0
 65
     1
110
0.0
120
0.0
130
0.0
111
1.0
121
0.0
131
0.0
112
0.0
122
1.0
132
0.0
 79
     0
146
0.0
  0
ENDTAB
  0
TABLE
  2
LTYPE
  5
D
330
0
100
AcDbSymbolTable
 70
     2
  0
LTYPE
  5
E
330
D
100
AcDbSymbolTableRecord
100
AcDbLinetypeTableRecord
  2
BYBLOCK
 70
     0
  3

 72
    65
 73
     0
 40
0.0
  0
LTYPE
  5
F
330
D
100
AcDbSymbolTableRecord
100
AcDbLinetypeTableRecord
  2
BYLAYER
 70
     0
  3

 72
    65
 73
     0
 40
0.0
  0
LTYPE
  5
5
330
D
100
AcDbSymbolTableRecord
100
AcDbLinetypeTableRecord
  2
CONTINUOUS
 70
     0
  3
Solid line
 72
    65
 73
     0
 40
0.0
  0
ENDTAB
  0
TABLE
  2
LAYER
  5
A
102
{ACAD_XDICTIONARY
360
1B4
102
}
330
0
100
AcDbSymbolTable
 70
     6
  0
LAYER
  5
4
330
A
100
AcDbSymbolTableRecord
100
AcDbLayerTableRecord
  2
0
 70
     0
 62
     7
  6
CONTINUOUS
370
    -3
390
57
  0
LAYER
  5
25
330
A
100
AcDbSymbolTableRecord
100
AcDbLayerTableRecord
  2
KIJUN
 70
     0
 62
     7
  6
CONTINUOUS
370
    -3
390
57
  0
LAYER
  5
22
330
A
100
AcDbSymbolTableRecord
100
AcDbLayerTableRecord
  2
HOJO
 70
     0
 62
     3
  6
CONTINUOUS
370
    -3
390
57
  0
LAYER
  5
1B
330
A
100
AcDbSymbolTableRecord
100
AcDbLayerTableRecord
  2
WAKU
 70
     0
 62
     1
  6
CONTINUOUS
370
    -3
390
57
  0
LAYER
  5
31
330
A
100
AcDbSymbolTableRecord
100
AcDbLayerTableRecord
  2
DEFPOINTS
 70
     0
 62
     7
  6
CONTINUOUS
290
     0
370
    -3
390
57
  0
LAYER
  5
28
330
A
100
AcDbSymbolTableRecord
100
AcDbLayerTableRecord
  2
SUNPOU
 70
     0
 62
    70
  6
CONTINUOUS
370
    -3
390
57
  0
ENDTAB
  0
TABLE
  2
STYLE
  5
B
330
0
100
AcDbSymbolTable
 70
     3
  0
STYLE
  5
C
330
B
100
AcDbSymbolTableRecord
100
AcDbTextStyleTableRecord
  2
STANDARD
 70
     0
 40
0.0
 41
1.0
 50
0.0
 71
     0
 42
0.2
  3
txt
  4

  0
STYLE
  5
1C
330
B
100
AcDbSymbolTableRecord
100
AcDbTextStyleTableRecord
  2
SUNPOU
 70
     0
 40
0.0
 41
1.0
 50
0.0
 71
     0
 42
30.0
  3
txt
  4
bigfont
  0
STYLE
  5
14A
330
B
100
AcDbSymbolTableRecord
100
AcDbTextStyleTableRecord
  2
LIFE
 70
     0
 40
0.0
 41
0.7
 50
0.0
 71
     0
 42
10.0
  3
romans
  4
extfont
  0
ENDTAB
  0
TABLE
  2
VIEW
  5
10
330
0
100
AcDbSymbolTable
 70
     0
  0
ENDTAB
  0
TABLE
  2
UCS
  5
11
330
0
100
AcDbSymbolTable
 70
     0
  0
ENDTAB
  0
TABLE
  2
APPID
  5
14
330
0
100
AcDbSymbolTable
 70
    10
  0
APPID
  5
15
330
14
100
AcDbSymbolTableRecord
100
AcDbRegAppTableRecord
  2
ACAD
 70
     0
  0
APPID
  5
1D3
330
14
100
AcDbSymbolTableRecord
100
AcDbRegAppTableRecord
  2
ACAD_DSTYLE_DIMTEXT_FILL
 70
     0
  0
APPID
  5
1D4
330
14
100
AcDbSymbolTableRecord
100
AcDbRegAppTableRecord
  2
ACAD_DSTYLE_DIMEXT_LENGTH
 70
     0
  0
APPID
  5
1D5
330
14
100
AcDbSymbolTableRecord
100
AcDbRegAppTableRecord
  2
ACAD_DSTYLE_DIMEXT_ENABLED
 70
     0
  0
APPID
  5
1D6
330
14
100
AcDbSymbolTableRecord
100
AcDbRegAppTableRecord
  2
ACAD_DSTYLE_DIM_LINETYPE
 70
     0
  0
APPID
  5
1D7
330
14
100
AcDbSymbolTableRecord
100
AcDbRegAppTableRecord
  2
ACAD_DSTYLE_DIM_EXT1_LINETYPE
 70
     0
  0
APPID
  5
1D8
330
14
100
AcDbSymbolTableRecord
100
AcDbRegAppTableRecord
  2
ACAD_DSTYLE_DIM_EXT2_LINETYPE
 70
     0
  0
APPID
  5
294
330
14
100
AcDbSymbolTableRecord
100
AcDbRegAppTableRecord
  2
ACAD_DSTYLE_DIMJOGGED_JOGANGLE_SYMBOL
 70
     0
  0
APPID
  5
478
330
14
100
AcDbSymbolTableRecord
100
AcDbRegAppTableRecord
  2
ACAD_DSTYLE_DIMARC_LENGTH_SYMBOL
 70
     0
  0
APPID
  5
157B
330
14
100
AcDbSymbolTableRecord
100
AcDbRegAppTableRecord
  2
ACAD_EXEMPT_FROM_CAD_STANDARDS
 70
     0
  0
ENDTAB
  0
TABLE
  2
DIMSTYLE
  5
16
330
0
100
AcDbSymbolTable
 70
     2
100
AcDbDimStyleTable
 71
     1
340
1E
  0
DIMSTYLE
105
1E
102
{ACAD_REACTORS
330
1897
330
18A4
102
}
330
16
100
AcDbSymbolTableRecord
100
AcDbDimStyleTableRecord
  2
STANDARD
 70
     0
340
C
  0
ENDTAB
  0
TABLE
  2
BLOCK_RECORD
  5
1
330
0
100
AcDbSymbolTable
 70
    21
  0
BLOCK_RECORD
  5
2
102
{ACAD_XDICTIONARY
360
1578
102
}
330
1
100
AcDbSymbolTableRecord
100
AcDbBlockTableRecord
  2
*MODEL_SPACE
340
5A
  0
BLOCK_RECORD
  5
7
330
1
100
AcDbSymbolTableRecord
100
AcDbBlockTableRecord
  2
*PAPER_SPACE
340
5B
  0
BLOCK_RECORD
  5
109
330
1
100
AcDbSymbolTableRecord
100
AcDbBlockTableRecord
  2
_Dot
340
0
102
{BLKREFS
331
993
331
994
331
CF6
331
CF7
331
15B9
331
15BA
331
15CB
331
15CC
331
1664
331
1665
331
1686
331
1687
331
1818
331
1819
331
1821
331
1822
331
18DE
331
18DF
331
18E7
331
18E8
102
}
  0
BLOCK_RECORD
  5
CDE
330
1
100
AcDbSymbolTableRecord
100
AcDbBlockTableRecord
  2
*D4
340
0
  0
BLOCK_RECORD
  5
D0B
330
1
100
AcDbSymbolTableRecord
100
AcDbBlockTableRecord
  2
*X5
340
0
102
{BLKREFS
331
EFD
102
}
  0
BLOCK_RECORD
  5
1582
330
1
100
AcDbSymbolTableRecord
100
AcDbBlockTableRecord
  2
*D8
340
0
  0
BLOCK_RECORD
  5
158F
330
1
100
AcDbSymbolTableRecord
100
AcDbBlockTableRecord
  2
*D9
340
0
  0
BLOCK_RECORD
  5
1660
330
1
100
AcDbSymbolTableRecord
100
AcDbBlockTableRecord
  2
*D11
340
0
  0
BLOCK_RECORD
  5
1676
330
1
100
AcDbSymbolTableRecord
100
AcDbBlockTableRecord
  2
*D12
340
0
  0
BLOCK_RECORD
  5
1698
330
1
100
AcDbSymbolTableRecord
100
AcDbBlockTableRecord
  2
*X13
340
0
102
{BLKREFS
331
1728
102
}
  0
BLOCK_RECORD
  5
169E
330
1
100
AcDbSymbolTableRecord
100
AcDbBlockTableRecord
  2
*X14
340
0
102
{BLKREFS
331
1712
102
}
  0
BLOCK_RECORD
  5
17BD
330
1
100
AcDbSymbolTableRecord
100
AcDbBlockTableRecord
  2
*D16
340
0
  0
BLOCK_RECORD
  5
17CA
330
1
100
AcDbSymbolTableRecord
100
AcDbBlockTableRecord
  2
*D17
340
0
  0
BLOCK_RECORD
  5
1898
330
1
100
AcDbSymbolTableRecord
100
AcDbBlockTableRecord
  2
*D19
340
0
  0
BLOCK_RECORD
  5
18A5
330
1
100
AcDbSymbolTableRecord
100
AcDbBlockTableRecord
  2
*D20
340
0
  0
ENDTAB
  0
ENDSEC
  0
SECTION
  2
BLOCKS
  0
BLOCK
  5
3
330
2
100
AcDbEntity
  8
0
100
AcDbBlockBegin
  2
*MODEL_SPACE
 70
     0
 10
0.0
 20
0.0
 30
0.0
  3
*MODEL_SPACE
  1

  0
ENDBLK
  5
6
330
2
100
AcDbEntity
  8
0
100
AcDbBlockEnd
  0
BLOCK
  5
8
330
7
100
AcDbEntity
 67
     1
  8
0
100
AcDbBlockBegin
  2
*PAPER_SPACE
 70
     0
 10
0.0
 20
0.0
 30
0.0
  3
*PAPER_SPACE
  1

  0
ENDBLK
  5
9
330
7
100
AcDbEntity
 67
     1
  8
0
100
AcDbBlockEnd
  0
BLOCK
  5
10C
330
109
100
AcDbEntity
  8
0
100
AcDbBlockBegin
  2
_Dot
 70
     0
 10
0.0
 20
0.0
 30
0.0
  3
_Dot
  1

  0
LWPOLYLINE
  5
10A
330
109
100
AcDbEntity
  8
0
  6
ByBlock
 62
     0
100
AcDbPolyline
 90
        2
 70
     1
 43
0.5
 10
-0.25
 20
0.0
 42
1.0
 10
0.25
 20
0.0
 42
1.0
  0
LINE
  5
10B
330
109
100
AcDbEntity
  8
0
  6
ByBlock
 62
     0
370
    -2
100
AcDbLine
 10
-0.5
 20
0.0
 30
0.0
 11
-1.0
 21
0.0
 31
0.0
  0
ENDBLK
  5
10D
330
109
100
AcDbEntity
  8
0
100
AcDbBlockEnd
  0
BLOCK
  5
CE8
330
CDE
100
AcDbEntity
  8
0
100
AcDbBlockBegin
  2
*D4
 70
     1
 10
0.0
 20
0.0
 30
0.0
  3
*D4
  1

  0
LINE
  5
CF3
330
CDE
100
AcDbEntity
  8
SUNPOU
 62
    70
370
    -2
100
AcDbLine
 10
30.13153620038668
 20
94.24654640442486
 30
0.0
 11
30.13153620038668
 21
134.3577586605915
 31
0.0
  0
LINE
  5
CF4
330
CDE
100
AcDbEntity
  8
SUNPOU
 62
    70
370
    -2
100
AcDbLine
 10
100.1315362003867
 20
94.24654640442486
 30
0.0
 11
100.1315362003867
 21
134.3577586605915
 31
0.0
  0
LINE
  5
CF5
330
CDE
100
AcDbEntity
  8
SUNPOU
 62
    60
370
    -2
100
AcDbLine
 10
32.13153620038668
 20
134.3577586605915
 30
0.0
 11
98.13153620038669
 21
134.3577586605915
 31
0.0
  0
INSERT
  5
CF6
330
CDE
100
AcDbEntity
  8
SUNPOU
 62
    60
370
    -2
100
AcDbBlockReference
  2
_Dot
 10
30.13153620038668
 20
134.3577586605915
 30
0.0
 41
2.0
 42
2.0
 43
2.0
 50
180.0
  0
INSERT
  5
CF7
330
CDE
100
AcDbEntity
  8
SUNPOU
 62
    60
370
    -2
100
AcDbBlockReference
  2
_Dot
 10
100.1315362003867
 20
134.3577586605915
 30
0.0
 41
2.0
 42
2.0
 43
2.0
  0
MTEXT
  5
CF8
330
CDE
100
AcDbEntity
  8
SUNPOU
 62
    60
100
AcDbMText
 10
65.13153620038668
 20
139.8577586605915
 30
0.0
 40
5.0
 41
0.0
 71
     5
 72
     1
  1
\A1;70φ
  7
SUNPOU
 73
     1
 44
1.0
1001
ACAD
1000
MTEXTBEGIN
1070
    73
1070
     1
1070
    44
1040
1.0
1070
    74
1070
     0
1000
MTEXTEND
  0
POINT
  5
CF9
330
CDE
100
AcDbEntity
  8
DEFPOINTS
 62
     0
100
AcDbPoint
 10
30.13153620038668
 20
84.24654640442486
 30
0.0
  0
POINT
  5
CFA
330
CDE
100
AcDbEntity
  8
DEFPOINTS
 62
     0
100
AcDbPoint
 10
100.1315362003867
 20
84.24654640442486
 30
0.0
  0
POINT
  5
CFB
330
CDE
100
AcDbEntity
  8
DEFPOINTS
 62
     0
100
AcDbPoint
 10
100.1315362003867
 20
134.3577586605915
 30
0.0
  0
ENDBLK
  5
CE9
330
CDE
100
AcDbEntity
  8
0
100
AcDbBlockEnd
  0
BLOCK
  5
D0C
330
D0B
100
AcDbEntity
  8
0
100
AcDbBlockBegin
  2
*X5
 70
     1
 10
0.0
 20
0.0
 30
0.0
  3
*X5
  1

  0
LINE
  5
D0D
330
D0B
100
AcDbEntity
  8
0
 62
     0
100
AcDbLine
 10
956.3529484292958
 20
3026.170224609318
 30
0.0
 11
956.3529484292958
 21
3026.170224609318
 31
0.0
  0
LINE
  5
D0E
330
D0B
100
AcDbEntity
  8
0
 62
     0
100
AcDbLine
 10
951.3529484292957
 20
3026.170224609318
 30
0.0
 11
951.3529484292957
 21
3026.170224609318
 31
0.0
  0
LINE
  5
D0F
330
D0B
100
AcDbEntity
  8
0
 62
     0
100
AcDbLine
 10
946.3529484292958
 20
3026.170224609318
 30
0.0
 11
946.3529484292958
 21
3026.170224609318
 31
0.0
  0
LINE
  5
D10
330
D0B
100
AcDbEntity
  8
0
 62
     0
100
AcDbLine
 10
886.3529484292957
 20
3026.170224609318
 30
0.0
 11
886.3529484292957
 21
3026.170224609318
 31
0.0
  0
LINE
  5
D11
330
D0B
100
AcDbEntity
  8
0
 62
     0
100
AcDbLine
 10
881.3529484292958
 20
3026.170224609318
 30
0.0
 11
881.3529484292958
 21
3026.170224609318
 31
0.0
  0
LINE
  5
D12
330
D0B
100
AcDbEntity
  8
0
 62
     0
100
AcDbLine
 10
876.3529484292957
 20
3026.170224609318
 30
0.0
 11
876.3529484292957
 21
3026.170224609318
 31
0.0
  0
LINE
  5
D13
330
D0B
100
AcDbEntity
  8
0
 62
     0
100
AcDbLine
 10
918.8529484292958
 20
3031.170224609319
 30
0.0
 11
918.8529484292958
 21
3031.170224609319
 31
0.0
  0
LINE
  5
D14
330
D0B
100
AcDbEntity
  8
0
 62
     0
100
AcDbLine
 10
913.8529484292957
 20
3031.170224609319
 30
0.0
 11
913.8529484292957
 21
3031.170224609319
 31
0.0
  0
LINE
  5
D15
330
D0B
100
AcDbEntity
  8
0
 62
     0
100
AcDbLine
 10
963.8529484292957
 20
3031.170224609319
 30
0.0
 11
963.8529484292957
 21
3031.170224609319
 31
0.0
  0
LINE
  5
D16
330
D0B
100
AcDbEntity
  8
0
 62
     0
100
AcDbLine
 10
958.8529484292958
 20
3031.170224609319
 30
0.0
 11
958.8529484292958
 21
3031.170224609319
 31
0.0
  0
LINE
  5
D17
330
D0B
100
AcDbEntity
  8
0
 62
     0
100
AcDbLine
 10
953.8529484292958
 20
3031.170224609319
 30
0.0
 11
953.8529484292958
 21
3031.170224609319
 31
0.0
  0
LINE
  5
D18
330
D0B
100
AcDbEntity
  8
0
 62
     0
100
AcDbLine
 10
948.8529484292957
 20
3031.170224609319
 30
0.0
 11
948.8529484292957
 21
3031.170224609319
 31
0.0
  0
LINE
  5
D19
330
D0B
100
AcDbEntity
  8
0
 62
     0
100
AcDbLine
 10
943.8529484292958
 20
3031.170224609319
 30
0.0
 11
943.8529484292958
 21
3031.170224609319
 31
0.0
  0
LINE
  5
D1A
330
D0B
100
AcDbEntity
  8
0
 62
     0
100
AcDbLine
 10
938.8529484292957
 20
3031.170224609319
 30
0.0
 11
938.8529484292957
 21
3031.170224609319
 31
0.0
  0
LINE
  5
D1B
330
D0B
100
AcDbEntity
  8
0
 62
     0
100
AcDbLine
 10
933.8529484292958
 20
3031.170224609319
 30
0.0
 11
933.8529484292958
 21
3031.170224609319
 31
0.0
  0
LINE
  5
D1C
330
D0B
100
AcDbEntity
  8
0
 62
     0
100
AcDbLine
 10
893.8529484292958
 20
3031.170224609319
 30
0.0
 11
893.8529484292958
 21
3031.170224609319
 31
0.0
  0
LINE
  5
D1D
330
D0B
100
AcDbEntity
  8
0
 62
     0
100
AcDbLine
 10
888.8529484292957
 20
3031.170224609319
 30
0.0
 11
888.8529484292957
 21
3031.170224609319
 31
0.0
  0
LINE
  5
D1E
330
D0B
100
AcDbEntity
  8
0
 62
     0
100
AcDbLine
 10
883.8529484292958
 20
3031.170224609319
 30
0.0
 11
883.8529484292958
 21
3031.170224609319
 31
0.0
  0
LINE
  5
D1F
330
D0B
100
AcDbEntity
  8
0
 62
     0
100
AcDbLine
 10
878.8529484292958
 20
3031.170224609319
 30
0.0
 11
878.8529484292958
 21
3031.170224609319
 31
0.0
  0
LINE
  5
D20
330
D0B
100
AcDbEntity
  8
0
 62
     0
100
AcDbLine
 10
873.8529484292957
 20
3031.170224609319
 30
0.0
 11
873.8529484292957
 21
3031.170224609319
 31
0.0
  0
LINE
  5
D21
330
D0B
100
AcDbEntity
  8
0
 62
     0
100
AcDbLine
 10
868.8529484292958
 20
3031.170224609319
 30
0.0
 11
868.8529484292958
 21
3031.170224609319
 31
0.0
  0
LINE
  5
D22
330
D0B
100
AcDbEntity
  8
0
 62
     0
100
AcDbLine
 10
863.8529484292957
 20
3031.170224609319
 30
0.0
 11
863.8529484292957
 21
3031.170224609319
 31
0.0
  0
LINE
  5
D23
330
D0B
100
AcDbEntity
  8
0
 62
     0
100
AcDbLine
 10
921.3529484292958
 20
3036.170224609318
 30
0.0
 11
921.3529484292958
 21
3036.170224609318
 31
0.0
  0
LINE
  5
D24
330
D0B
100
AcDbEntity
  8
0
 62
     0
100
AcDbLine
 10
916.3529484292958
 20
3036.170224609318
 30
0.0
 11
916.3529484292958
 21
3036.170224609318
 31
0.0
  0
LINE
  5
D25
330
D0B
100
AcDbEntity
  8
0
 62
     0
100
AcDbLine
 10
911.3529484292957
 20
3036.170224609318
 30
0.0
 11
911.3529484292957
 21
3036.170224609318
 31
0.0
  0
LINE
  5
D26
330
D0B
100
AcDbEntity
  8
0
 62
     0
100
AcDbLine
 10
906.3529484292958
 20
3036.170224609318
 30
0.0
 11
906.3529484292958
 21
3036.170224609318
 31
0.0
  0
LINE
  5
D27
330
D0B
100
AcDbEntity
  8
0
 62
     0
100
AcDbLine
 10
971.3529484292958
 20
3036.170224609318
 30
0.0
 11
971.3529484292958
 21
3036.170224609318
 31
0.0
  0
LINE
  5
D28
330
D0B
100
AcDbEntity
  8
0
 62
     0
100
AcDbLine
 10
966.3529484292958
 20
3036.170224609318
 30
0.0
 11
966.3529484292958
 21
3036.170224609318
 31
0.0
  0
LINE
  5
D29
330
D0B
100
AcDbEntity
  8
0
 62
     0
100
AcDbLine
 10
961.3529484292957
 20
3036.170224609318
 30
0.0
 11
961.3529484292957
 21
3036.170224609318
 31
0.0
  0
LINE
  5
D2A
330
D0B
100
AcDbEntity
  8
0
 62
     0
100
AcDbLine
 10
956.3529484292958
 20
3036.170224609318
 30
0.0
 11
956.3529484292958
 21
3036.170224609318
 31
0.0
  0
LINE
  5
D2B
330
D0B
100
AcDbEntity
  8
0
 62
     0
100
AcDbLine
 10
951.3529484292957
 20
3036.170224609318
 30
0.0
 11
951.3529484292957
 21
3036.170224609318
 31
0.0
  0
LINE
  5
D2C
330
D0B
100
AcDbEntity
  8
0
 62
     0
100
AcDbLine
 10
946.3529484292958
 20
3036.170224609318
 30
0.0
 11
946.3529484292958
 21
3036.170224609318
 31
0.0
  0
LINE
  5
D2D
330
D0B
100
AcDbEntity
  8
0
 62
     0
100
AcDbLine
 10
941.3529484292958
 20
3036.170224609318
 30
0.0
 11
941.3529484292958
 21
3036.170224609318
 31
0.0
  0
LINE
  5
D2E
330
D0B
100
AcDbEntity
  8
0
 62
     0
100
AcDbLine
 10
936.3529484292957
 20
3036.170224609318
 30
0.0
 11
936.3529484292957
 21
3036.170224609318
 31
0.0
  0
LINE
  5
D2F
330
D0B
100
AcDbEntity
  8
0
 62
     0
100
AcDbLine
 10
931.3529484292958
 20
3036.170224609318
 30
0.0
 11
931.3529484292958
 21
3036.170224609318
 31
0.0
  0
LINE
  5
D30
330
D0B
100
AcDbEntity
  8
0
 62
     0
100
AcDbLine
 10
926.3529484292957
 20
3036.170224609318
 30
0.0
 11
926.3529484292957
 21
3036.170224609318
 31
0.0
  0
LINE
  5
D31
330
D0B
100
AcDbEntity
  8
0
 62
     0
100
AcDbLine
 10
901.3529484292957
 20
3036.170224609318
 30
0.0
 11
901.3529484292957
 21
3036.170224609318
 31
0.0
  0
LINE
  5
D32
330
D0B
100
AcDbEntity
  8
0
 62
     0
100
AcDbLine
 10
896.3529484292958
 20
3036.170224609318
 30
0.0
 11
896.3529484292958
 21
3036.170224609318
 31
0.0
  0
LINE
  5
D33
330
D0B
100
AcDbEntity
  8
0
 62
     0
100
AcDbLine
 10
891.3529484292958
 20
3036.170224609318
 30
0.0
 11
891.3529484292958
 21
3036.170224609318
 31
0.0
  0
LINE
  5
D34
330
D0B
100
AcDbEntity
  8
0
 62
     0
100
AcDbLine
 10
886.3529484292957
 20
3036.170224609318
 30
0.0
 11
886.3529484292957
 21
3036.170224609318
 31
0.0
  0
LINE
  5
D35
330
D0B
100
AcDbEntity
  8
0
 62
     0
100
AcDbLine
 10
881.3529484292958
 20
3036.170224609318
 30
0.0
 11
881.3529484292958
 21
3036.170224609318
 31
0.0
  0
LINE
  5
D36
330
D0B
100
AcDbEntity
  8
0
 62
     0
100
AcDbLine
 10
876.3529484292957
 20
3036.170224609318
 30
0.0
 11
876.3529484292957
 21
3036.170224609318
 31
0.0
  0
LINE
  5
D37
330
D0B
100
AcDbEntity
  8
0
 62
     0
100
AcDbLine
 10
871.3529484292958
 20
3036.170224609318
 30
0.0
 11
871.3529484292958
 21
3036.170224609318
 31
0.0
  0
LINE
  5
D38
330
D0B
100
AcDbEntity
  8
0
 62
     0
100
AcDbLine
 10
866.3529484292958
 20
3036.170224609318
 30
0.0
 11
866.3529484292958
 21
3036.170224609318
 31
0.0
  0
LINE
  5
D39
330
D0B
100
AcDbEntity
  8
0
 62
     0
100
AcDbLine
 10
861.3529484292957
 20
3036.170224609318
 30
0.0
 11
861.3529484292957
 21
3036.170224609318
 31
0.0
  0
LINE
  5
D3A
330
D0B
100
AcDbEntity
  8
0
 62
     0
100
AcDbLine
 10
856.3529484292958
 20
3036.170224609318
 30
0.0
 11
856.3529484292958
 21
3036.170224609318
 31
0.0
  0
LINE
  5
D3B
330
D0B
100
AcDbEntity
  8
0
 62
     0
100
AcDbLine
 10
973.8529484292957
 20
3041.170224609318
 30
0.0
 11
973.8529484292957
 21
3041.170224609318
 31
0.0
  0
LINE
  5
D3C
330
D0B
100
AcDbEntity
  8
0
 62
     0
100
AcDbLine
 10
968.8529484292958
 20
3041.170224609318
 30
0.0
 11
968.8529484292958
 21
3041.170224609318
 31
0.0
  0
LINE
  5
D3D
330
D0B
100
AcDbEntity
  8
0
 62
     0
100
AcDbLine
 10
963.8529484292957
 20
3041.170224609318
 30
0.0
 11
963.8529484292957
 21
3041.170224609318
 31
0.0
  0
LINE
  5
D3E
330
D0B
100
AcDbEntity
  8
0
 62
     0
100
AcDbLine
 10
958.8529484292958
 20
3041.170224609318
 30
0.0
 11
958.8529484292958
 21
3041.170224609318
 31
0.0
  0
LINE
  5
D3F
330
D0B
100
AcDbEntity
  8
0
 62
     0
100
AcDbLine
 10
953.8529484292958
 20
3041.170224609318
 30
0.0
 11
953.8529484292958
 21
3041.170224609318
 31
0.0
  0
LINE
  5
D40
330
D0B
100
AcDbEntity
  8
0
 62
     0
100
AcDbLine
 10
948.8529484292957
 20
3041.170224609318
 30
0.0
 11
948.8529484292957
 21
3041.170224609318
 31
0.0
  0
LINE
  5
D41
330
D0B
100
AcDbEntity
  8
0
 62
     0
100
AcDbLine
 10
943.8529484292958
 20
3041.170224609318
 30
0.0
 11
943.8529484292958
 21
3041.170224609318
 31
0.0
  0
LINE
  5
D42
330
D0B
100
AcDbEntity
  8
0
 62
     0
100
AcDbLine
 10
938.8529484292957
 20
3041.170224609318
 30
0.0
 11
938.8529484292957
 21
3041.170224609318
 31
0.0
  0
LINE
  5
D43
330
D0B
100
AcDbEntity
  8
0
 62
     0
100
AcDbLine
 10
933.8529484292958
 20
3041.170224609318
 30
0.0
 11
933.8529484292958
 21
3041.170224609318
 31
0.0
  0
LINE
  5
D44
330
D0B
100
AcDbEntity
  8
0
 62
     0
100
AcDbLine
 10
928.8529484292958
 20
3041.170224609318
 30
0.0
 11
928.8529484292958
 21
3041.170224609318
 31
0.0
  0
LINE
  5
D45
330
D0B
100
AcDbEntity
  8
0
 62
     0
100
AcDbLine
 10
923.8529484292957
 20
3041.170224609318
 30
0.0
 11
923.8529484292957
 21
3041.170224609318
 31
0.0
  0
LINE
  5
D46
330
D0B
100
AcDbEntity
  8
0
 62
     0
100
AcDbLine
 10
918.8529484292958
 20
3041.170224609318
 30
0.0
 11
918.8529484292958
 21
3041.170224609318
 31
0.0
  0
LINE
  5
D47
330
D0B
100
AcDbEntity
  8
0
 62
     0
100
AcDbLine
 10
913.8529484292957
 20
3041.170224609318
 30
0.0
 11
913.8529484292957
 21
3041.170224609318
 31
0.0
  0
LINE
  5
D48
330
D0B
100
AcDbEntity
  8
0
 62
     0
100
AcDbLine
 10
908.8529484292958
 20
3041.170224609318
 30
0.0
 11
908.8529484292958
 21
3041.170224609318
 31
0.0
  0
LINE
  5
D49
330
D0B
100
AcDbEntity
  8
0
 62
     0
100
AcDbLine
 10
903.8529484292958
 20
3041.170224609318
 30
0.0
 11
903.8529484292958
 21
3041.170224609318
 31
0.0
  0
LINE
  5
D4A
330
D0B
100
AcDbEntity
  8
0
 62
     0
100
AcDbLine
 10
898.8529484292957
 20
3041.170224609318
 30
0.0
 11
898.8529484292957
 21
3041.170224609318
 31
0.0
  0
LINE
  5
D4B
330
D0B
100
AcDbEntity
  8
0
 62
     0
100
AcDbLine
 10
893.8529484292958
 20
3041.170224609318
 30
0.0
 11
893.8529484292958
 21
3041.170224609318
 31
0.0
  0
LINE
  5
D4C
330
D0B
100
AcDbEntity
  8
0
 62
     0
100
AcDbLine
 10
888.8529484292957
 20
3041.170224609318
 30
0.0
 11
888.8529484292957
 21
3041.170224609318
 31
0.0
  0
LINE
  5
D4D
330
D0B
100
AcDbEntity
  8
0
 62
     0
100
AcDbLine
 10
883.8529484292958
 20
3041.170224609318
 30
0.0
 11
883.8529484292958
 21
3041.170224609318
 31
0.0
  0
LINE
  5
D4E
330
D0B
100
AcDbEntity
  8
0
 62
     0
100
AcDbLine
 10
878.8529484292958
 20
3041.170224609318
 30
0.0
 11
878.8529484292958
 21
3041.170224609318
 31
0.0
  0
LINE
  5
D4F
330
D0B
100
AcDbEntity
  8
0
 62
     0
100
AcDbLine
 10
873.8529484292957
 20
3041.170224609318
 30
0.0
 11
873.8529484292957
 21
3041.170224609318
 31
0.0
  0
LINE
  5
D50
330
D0B
100
AcDbEntity
  8
0
 62
     0
100
AcDbLine
 10
868.8529484292958
 20
3041.170224609318
 30
0.0
 11
868.8529484292958
 21
3041.170224609318
 31
0.0
  0
LINE
  5
D51
330
D0B
100
AcDbEntity
  8
0
 62
     0
100
AcDbLine
 10
863.8529484292957
 20
3041.170224609318
 30
0.0
 11
863.8529484292957
 21
3041.170224609318
 31
0.0
  0
LINE
  5
D52
330
D0B
100
AcDbEntity
  8
0
 62
     0
100
AcDbLine
 10
858.8529484292958
 20
3041.170224609318
 30
0.0
 11
858.8529484292958
 21
3041.170224609318
 31
0.0
  0
LINE
  5
D53
330
D0B
100
AcDbEntity
  8
0
 62
     0
100
AcDbLine
 10
853.8529484292958
 20
3041.170224609318
 30
0.0
 11
853.8529484292958
 21
3041.170224609318
 31
0.0
  0
LINE
  5
D54
330
D0B
100
AcDbEntity
  8
0
 62
     0
100
AcDbLine
 10
976.3529484292957
 20
3046.170224609318
 30
0.0
 11
976.3529484292957
 21
3046.170224609318
 31
0.0
  0
LINE
  5
D55
330
D0B
100
AcDbEntity
  8
0
 62
     0
100
AcDbLine
 10
971.3529484292958
 20
3046.170224609318
 30
0.0
 11
971.3529484292958
 21
3046.170224609318
 31
0.0
  0
LINE
  5
D56
330
D0B
100
AcDbEntity
  8
0
 62
     0
100
AcDbLine
 10
966.3529484292958
 20
3046.170224609318
 30
0.0
 11
966.3529484292958
 21
3046.170224609318
 31
0.0
  0
LINE
  5
D57
330
D0B
100
AcDbEntity
  8
0
 62
     0
100
AcDbLine
 10
961.3529484292957
 20
3046.170224609318
 30
0.0
 11
961.3529484292957
 21
3046.170224609318
 31
0.0
  0
LINE
  5
D58
330
D0B
100
AcDbEntity
  8
0
 62
     0
100
AcDbLine
 10
956.3529484292958
 20
3046.170224609318
 30
0.0
 11
956.3529484292958
 21
3046.170224609318
 31
0.0
  0
LINE
  5
D59
330
D0B
100
AcDbEntity
  8
0
 62
     0
100
AcDbLine
 10
951.3529484292957
 20
3046.170224609318
 30
0.0
 11
951.3529484292957
 21
3046.170224609318
 31
0.0
  0
LINE
  5
D5A
330
D0B
100
AcDbEntity
  8
0
 62
     0
100
AcDbLine
 10
946.3529484292958
 20
3046.170224609318
 30
0.0
 11
946.3529484292958
 21
3046.170224609318
 31
0.0
  0
LINE
  5
D5B
330
D0B
100
AcDbEntity
  8
0
 62
     0
100
AcDbLine
 10
941.3529484292958
 20
3046.170224609318
 30
0.0
 11
941.3529484292958
 21
3046.170224609318
 31
0.0
  0
LINE
  5
D5C
330
D0B
100
AcDbEntity
  8
0
 62
     0
100
AcDbLine
 10
936.3529484292957
 20
3046.170224609318
 30
0.0
 11
936.3529484292957
 21
3046.170224609318
 31
0.0
  0
LINE
  5
D5D
330
D0B
100
AcDbEntity
  8
0
 62
     0
100
AcDbLine
 10
931.3529484292958
 20
3046.170224609318
 30
0.0
 11
931.3529484292958
 21
3046.170224609318
 31
0.0
  0
LINE
  5
D5E
330
D0B
100
AcDbEntity
  8
0
 62
     0
100
AcDbLine
 10
926.3529484292957
 20
3046.170224609318
 30
0.0
 11
926.3529484292957
 21
3046.170224609318
 31
0.0
  0
LINE
  5
D5F
330
D0B
100
AcDbEntity
  8
0
 62
     0
100
AcDbLine
 10
921.3529484292958
 20
3046.170224609318
 30
0.0
 11
921.3529484292958
 21
3046.170224609318
 31
0.0
  0
LINE
  5
D60
330
D0B
100
AcDbEntity
  8
0
 62
     0
100
AcDbLine
 10
916.3529484292958
 20
3046.170224609318
 30
0.0
 11
916.3529484292958
 21
3046.170224609318
 31
0.0
  0
LINE
  5
D61
330
D0B
100
AcDbEntity
  8
0
 62
     0
100
AcDbLine
 10
911.3529484292957
 20
3046.170224609318
 30
0.0
 11
911.3529484292957
 21
3046.170224609318
 31
0.0
  0
LINE
  5
D62
330
D0B
100
AcDbEntity
  8
0
 62
     0
100
AcDbLine
 10
906.3529484292958
 20
3046.170224609318
 30
0.0
 11
906.3529484292958
 21
3046.170224609318
 31
0.0
  0
LINE
  5
D63
330
D0B
100
AcDbEntity
  8
0
 62
     0
100
AcDbLine
 10
901.3529484292957
 20
3046.170224609318
 30
0.0
 11
901.3529484292957
 21
3046.170224609318
 31
0.0
  0
LINE
  5
D64
330
D0B
100
AcDbEntity
  8
0
 62
     0
100
AcDbLine
 10
896.3529484292958
 20
3046.170224609318
 30
0.0
 11
896.3529484292958
 21
3046.170224609318
 31
0.0
  0
LINE
  5
D65
330
D0B
100
AcDbEntity
  8
0
 62
     0
100
AcDbLine
 10
891.3529484292958
 20
3046.170224609318
 30
0.0
 11
891.3529484292958
 21
3046.170224609318
 31
0.0
  0
LINE
  5
D66
330
D0B
100
AcDbEntity
  8
0
 62
     0
100
AcDbLine
 10
886.3529484292957
 20
3046.170224609318
 30
0.0
 11
886.3529484292957
 21
3046.170224609318
 31
0.0
  0
LINE
  5
D67
330
D0B
100
AcDbEntity
  8
0
 62
     0
100
AcDbLine
 10
881.3529484292958
 20
3046.170224609318
 30
0.0
 11
881.3529484292958
 21
3046.170224609318
 31
0.0
  0
LINE
  5
D68
330
D0B
100
AcDbEntity
  8
0
 62
     0
100
AcDbLine
 10
876.3529484292957
 20
3046.170224609318
 30
0.0
 11
876.3529484292957
 21
3046.170224609318
 31
0.0
  0
LINE
  5
D69
330
D0B
100
AcDbEntity
  8
0
 62
     0
100
AcDbLine
 10
871.3529484292958
 20
3046.170224609318
 30
0.0
 11
871.3529484292958
 21
3046.170224609318
 31
0.0
  0
LINE
  5
D6A
330
D0B
100
AcDbEntity
  8
0
 62
     0
100
AcDbLine
 10
866.3529484292958
 20
3046.170224609318
 30
0.0
 11
866.3529484292958
 21
3046.170224609318
 31
0.0
  0
LINE
  5
D6B
330
D0B
100
AcDbEntity
  8
0
 62
     0
100
AcDbLine
 10
861.3529484292957
 20
3046.170224609318
 30
0.0
 11
861.3529484292957
 21
3046.170224609318
 31
0.0
  0
LINE
  5
D6C
330
D0B
100
AcDbEntity
  8
0
 62
     0
100
AcDbLine
 10
856.3529484292958
 20
3046.170224609318
 30
0.0
 11
856.3529484292958
 21
3046.170224609318
 31
0.0
  0
LINE
  5
D6D
330
D0B
100
AcDbEntity
  8
0
 62
     0
100
AcDbLine
 10
851.3529484292957
 20
3046.170224609318
 30
0.0
 11
851.3529484292957
 21
3046.170224609318
 31
0.0
  0
LINE
  5
D6E
330
D0B
100
AcDbEntity
  8
0
 62
     0
100
AcDbLine
 10
978.8529484292958
 20
3051.170224609319
 30
0.0
 11
978.8529484292958
 21
3051.170224609319
 31
0.0
  0
LINE
  5
D6F
330
D0B
100
AcDbEntity
  8
0
 62
     0
100
AcDbLine
 10
973.8529484292957
 20
3051.170224609319
 30
0.0
 11
973.8529484292957
 21
3051.170224609319
 31
0.0
  0
LINE
  5
D70
330
D0B
100
AcDbEntity
  8
0
 62
     0
100
AcDbLine
 10
968.8529484292958
 20
3051.170224609319
 30
0.0
 11
968.8529484292958
 21
3051.170224609319
 31
0.0
  0
LINE
  5
D71
330
D0B
100
AcDbEntity
  8
0
 62
     0
100
AcDbLine
 10
963.8529484292957
 20
3051.170224609319
 30
0.0
 11
963.8529484292957
 21
3051.170224609319
 31
0.0
  0
LINE
  5
D72
330
D0B
100
AcDbEntity
  8
0
 62
     0
100
AcDbLine
 10
958.8529484292958
 20
3051.170224609319
 30
0.0
 11
958.8529484292958
 21
3051.170224609319
 31
0.0
  0
LINE
  5
D73
330
D0B
100
AcDbEntity
  8
0
 62
     0
100
AcDbLine
 10
953.8529484292958
 20
3051.170224609319
 30
0.0
 11
953.8529484292958
 21
3051.170224609319
 31
0.0
  0
LINE
  5
D74
330
D0B
100
AcDbEntity
  8
0
 62
     0
100
AcDbLine
 10
948.8529484292957
 20
3051.170224609319
 30
0.0
 11
948.8529484292957
 21
3051.170224609319
 31
0.0
  0
LINE
  5
D75
330
D0B
100
AcDbEntity
  8
0
 62
     0
100
AcDbLine
 10
943.8529484292958
 20
3051.170224609319
 30
0.0
 11
943.8529484292958
 21
3051.170224609319
 31
0.0
  0
LINE
  5
D76
330
D0B
100
AcDbEntity
  8
0
 62
     0
100
AcDbLine
 10
938.8529484292957
 20
3051.170224609319
 30
0.0
 11
938.8529484292957
 21
3051.170224609319
 31
0.0
  0
LINE
  5
D77
330
D0B
100
AcDbEntity
  8
0
 62
     0
100
AcDbLine
 10
933.8529484292958
 20
3051.170224609319
 30
0.0
 11
933.8529484292958
 21
3051.170224609319
 31
0.0
  0
LINE
  5
D78
330
D0B
100
AcDbEntity
  8
0
 62
     0
100
AcDbLine
 10
928.8529484292958
 20
3051.170224609319
 30
0.0
 11
928.8529484292958
 21
3051.170224609319
 31
0.0
  0
LINE
  5
D79
330
D0B
100
AcDbEntity
  8
0
 62
     0
100
AcDbLine
 10
923.8529484292957
 20
3051.170224609319
 30
0.0
 11
923.8529484292957
 21
3051.170224609319
 31
0.0
  0
LINE
  5
D7A
330
D0B
100
AcDbEntity
  8
0
 62
     0
100
AcDbLine
 10
918.8529484292958
 20
3051.170224609319
 30
0.0
 11
918.8529484292958
 21
3051.170224609319
 31
0.0
  0
LINE
  5
D7B
330
D0B
100
AcDbEntity
  8
0
 62
     0
100
AcDbLine
 10
913.8529484292957
 20
3051.170224609319
 30
0.0
 11
913.8529484292957
 21
3051.170224609319
 31
0.0
  0
LINE
  5
D7C
330
D0B
100
AcDbEntity
  8
0
 62
     0
100
AcDbLine
 10
908.8529484292958
 20
3051.170224609319
 30
0.0
 11
908.8529484292958
 21
3051.170224609319
 31
0.0
  0
LINE
  5
D7D
330
D0B
100
AcDbEntity
  8
0
 62
     0
100
AcDbLine
 10
903.8529484292958
 20
3051.170224609319
 30
0.0
 11
903.8529484292958
 21
3051.170224609319
 31
0.0
  0
LINE
  5
D7E
330
D0B
100
AcDbEntity
  8
0
 62
     0
100
AcDbLine
 10
898.8529484292957
 20
3051.170224609319
 30
0.0
 11
898.8529484292957
 21
3051.170224609319
 31
0.0
  0
LINE
  5
D7F
330
D0B
100
AcDbEntity
  8
0
 62
     0
100
AcDbLine
 10
893.8529484292958
 20
3051.170224609319
 30
0.0
 11
893.8529484292958
 21
3051.170224609319
 31
0.0
  0
LINE
  5
D80
330
D0B
100
AcDbEntity
  8
0
 62
     0
100
AcDbLine
 10
888.8529484292957
 20
3051.170224609319
 30
0.0
 11
888.8529484292957
 21
3051.170224609319
 31
0.0
  0
LINE
  5
D81
330
D0B
100
AcDbEntity
  8
0
 62
     0
100
AcDbLine
 10
883.8529484292958
 20
3051.170224609319
 30
0.0
 11
883.8529484292958
 21
3051.170224609319
 31
0.0
  0
LINE
  5
D82
330
D0B
100
AcDbEntity
  8
0
 62
     0
100
AcDbLine
 10
878.8529484292958
 20
3051.170224609319
 30
0.0
 11
878.8529484292958
 21
3051.170224609319
 31
0.0
  0
LINE
  5
D83
330
D0B
100
AcDbEntity
  8
0
 62
     0
100
AcDbLine
 10
873.8529484292957
 20
3051.170224609319
 30
0.0
 11
873.8529484292957
 21
3051.170224609319
 31
0.0
  0
LINE
  5
D84
330
D0B
100
AcDbEntity
  8
0
 62
     0
100
AcDbLine
 10
868.8529484292958
 20
3051.170224609319
 30
0.0
 11
868.8529484292958
 21
3051.170224609319
 31
0.0
  0
LINE
  5
D85
330
D0B
100
AcDbEntity
  8
0
 62
     0
100
AcDbLine
 10
863.8529484292957
 20
3051.170224609319
 30
0.0
 11
863.8529484292957
 21
3051.170224609319
 31
0.0
  0
LINE
  5
D86
330
D0B
100
AcDbEntity
  8
0
 62
     0
100
AcDbLine
 10
858.8529484292958
 20
3051.170224609319
 30
0.0
 11
858.8529484292958
 21
3051.170224609319
 31
0.0
  0
LINE
  5
D87
330
D0B
100
AcDbEntity
  8
0
 62
     0
100
AcDbLine
 10
853.8529484292958
 20
3051.170224609319
 30
0.0
 11
853.8529484292958
 21
3051.170224609319
 31
0.0
  0
LINE
  5
D88
330
D0B
100
AcDbEntity
  8
0
 62
     0
100
AcDbLine
 10
848.8529484292957
 20
3051.170224609319
 30
0.0
 11
848.8529484292957
 21
3051.170224609319
 31
0.0
  0
LINE
  5
D89
330
D0B
100
AcDbEntity
  8
0
 62
     0
100
AcDbLine
 10
981.3529484292958
 20
3056.170224609318
 30
0.0
 11
981.3529484292958
 21
3056.170224609318
 31
0.0
  0
LINE
  5
D8A
330
D0B
100
AcDbEntity
  8
0
 62
     0
100
AcDbLine
 10
976.3529484292957
 20
3056.170224609318
 30
0.0
 11
976.3529484292957
 21
3056.170224609318
 31
0.0
  0
LINE
  5
D8B
330
D0B
100
AcDbEntity
  8
0
 62
     0
100
AcDbLine
 10
971.3529484292958
 20
3056.170224609318
 30
0.0
 11
971.3529484292958
 21
3056.170224609318
 31
0.0
  0
LINE
  5
D8C
330
D0B
100
AcDbEntity
  8
0
 62
     0
100
AcDbLine
 10
966.3529484292958
 20
3056.170224609318
 30
0.0
 11
966.3529484292958
 21
3056.170224609318
 31
0.0
  0
LINE
  5
D8D
330
D0B
100
AcDbEntity
  8
0
 62
     0
100
AcDbLine
 10
961.3529484292957
 20
3056.170224609318
 30
0.0
 11
961.3529484292957
 21
3056.170224609318
 31
0.0
  0
LINE
  5
D8E
330
D0B
100
AcDbEntity
  8
0
 62
     0
100
AcDbLine
 10
956.3529484292958
 20
3056.170224609318
 30
0.0
 11
956.3529484292958
 21
3056.170224609318
 31
0.0
  0
LINE
  5
D8F
330
D0B
100
AcDbEntity
  8
0
 62
     0
100
AcDbLine
 10
951.3529484292957
 20
3056.170224609318
 30
0.0
 11
951.3529484292957
 21
3056.170224609318
 31
0.0
  0
LINE
  5
D90
330
D0B
100
AcDbEntity
  8
0
 62
     0
100
AcDbLine
 10
946.3529484292958
 20
3056.170224609318
 30
0.0
 11
946.3529484292958
 21
3056.170224609318
 31
0.0
  0
LINE
  5
D91
330
D0B
100
AcDbEntity
  8
0
 62
     0
100
AcDbLine
 10
941.3529484292958
 20
3056.170224609318
 30
0.0
 11
941.3529484292958
 21
3056.170224609318
 31
0.0
  0
LINE
  5
D92
330
D0B
100
AcDbEntity
  8
0
 62
     0
100
AcDbLine
 10
936.3529484292957
 20
3056.170224609318
 30
0.0
 11
936.3529484292957
 21
3056.170224609318
 31
0.0
  0
LINE
  5
D93
330
D0B
100
AcDbEntity
  8
0
 62
     0
100
AcDbLine
 10
931.3529484292958
 20
3056.170224609318
 30
0.0
 11
931.3529484292958
 21
3056.170224609318
 31
0.0
  0
LINE
  5
D94
330
D0B
100
AcDbEntity
  8
0
 62
     0
100
AcDbLine
 10
926.3529484292957
 20
3056.170224609318
 30
0.0
 11
926.3529484292957
 21
3056.170224609318
 31
0.0
  0
LINE
  5
D95
330
D0B
100
AcDbEntity
  8
0
 62
     0
100
AcDbLine
 10
921.3529484292958
 20
3056.170224609318
 30
0.0
 11
921.3529484292958
 21
3056.170224609318
 31
0.0
  0
LINE
  5
D96
330
D0B
100
AcDbEntity
  8
0
 62
     0
100
AcDbLine
 10
916.3529484292958
 20
3056.170224609318
 30
0.0
 11
916.3529484292958
 21
3056.170224609318
 31
0.0
  0
LINE
  5
D97
330
D0B
100
AcDbEntity
  8
0
 62
     0
100
AcDbLine
 10
911.3529484292957
 20
3056.170224609318
 30
0.0
 11
911.3529484292957
 21
3056.170224609318
 31
0.0
  0
LINE
  5
D98
330
D0B
100
AcDbEntity
  8
0
 62
     0
100
AcDbLine
 10
906.3529484292958
 20
3056.170224609318
 30
0.0
 11
906.3529484292958
 21
3056.170224609318
 31
0.0
  0
LINE
  5
D99
330
D0B
100
AcDbEntity
  8
0
 62
     0
100
AcDbLine
 10
901.3529484292957
 20
3056.170224609318
 30
0.0
 11
901.3529484292957
 21
3056.170224609318
 31
0.0
  0
LINE
  5
D9A
330
D0B
100
AcDbEntity
  8
0
 62
     0
100
AcDbLine
 10
896.3529484292958
 20
3056.170224609318
 30
0.0
 11
896.3529484292958
 21
3056.170224609318
 31
0.0
  0
LINE
  5
D9B
330
D0B
100
AcDbEntity
  8
0
 62
     0
100
AcDbLine
 10
891.3529484292958
 20
3056.170224609318
 30
0.0
 11
891.3529484292958
 21
3056.170224609318
 31
0.0
  0
LINE
  5
D9C
330
D0B
100
AcDbEntity
  8
0
 62
     0
100
AcDbLine
 10
886.3529484292957
 20
3056.170224609318
 30
0.0
 11
886.3529484292957
 21
3056.170224609318
 31
0.0
  0
LINE
  5
D9D
330
D0B
100
AcDbEntity
  8
0
 62
     0
100
AcDbLine
 10
881.3529484292958
 20
3056.170224609318
 30
0.0
 11
881.3529484292958
 21
3056.170224609318
 31
0.0
  0
LINE
  5
D9E
330
D0B
100
AcDbEntity
  8
0
 62
     0
100
AcDbLine
 10
876.3529484292957
 20
3056.170224609318
 30
0.0
 11
876.3529484292957
 21
3056.170224609318
 31
0.0
  0
LINE
  5
D9F
330
D0B
100
AcDbEntity
  8
0
 62
     0
100
AcDbLine
 10
871.3529484292958
 20
3056.170224609318
 30
0.0
 11
871.3529484292958
 21
3056.170224609318
 31
0.0
  0
LINE
  5
DA0
330
D0B
100
AcDbEntity
  8
0
 62
     0
100
AcDbLine
 10
866.3529484292958
 20
3056.170224609318
 30
0.0
 11
866.3529484292958
 21
3056.170224609318
 31
0.0
  0
LINE
  5
DA1
330
D0B
100
AcDbEntity
  8
0
 62
     0
100
AcDbLine
 10
861.3529484292957
 20
3056.170224609318
 30
0.0
 11
861.3529484292957
 21
3056.170224609318
 31
0.0
  0
LINE
  5
DA2
330
D0B
100
AcDbEntity
  8
0
 62
     0
100
AcDbLine
 10
856.3529484292958
 20
3056.170224609318
 30
0.0
 11
856.3529484292958
 21
3056.170224609318
 31
0.0
  0
LINE
  5
DA3
330
D0B
100
AcDbEntity
  8
0
 62
     0
100
AcDbLine
 10
851.3529484292957
 20
3056.170224609318
 30
0.0
 11
851.3529484292957
 21
3056.170224609318
 31
0.0
  0
LINE
  5
DA4
330
D0B
100
AcDbEntity
  8
0
 62
     0
100
AcDbLine
 10
978.8529484292958
 20
3061.170224609318
 30
0.0
 11
978.8529484292958
 21
3061.170224609318
 31
0.0
  0
LINE
  5
DA5
330
D0B
100
AcDbEntity
  8
0
 62
     0
100
AcDbLine
 10
973.8529484292957
 20
3061.170224609318
 30
0.0
 11
973.8529484292957
 21
3061.170224609318
 31
0.0
  0
LINE
  5
DA6
330
D0B
100
AcDbEntity
  8
0
 62
     0
100
AcDbLine
 10
968.8529484292958
 20
3061.170224609318
 30
0.0
 11
968.8529484292958
 21
3061.170224609318
 31
0.0
  0
LINE
  5
DA7
330
D0B
100
AcDbEntity
  8
0
 62
     0
100
AcDbLine
 10
963.8529484292957
 20
3061.170224609318
 30
0.0
 11
963.8529484292957
 21
3061.170224609318
 31
0.0
  0
LINE
  5
DA8
330
D0B
100
AcDbEntity
  8
0
 62
     0
100
AcDbLine
 10
958.8529484292958
 20
3061.170224609318
 30
0.0
 11
958.8529484292958
 21
3061.170224609318
 31
0.0
  0
LINE
  5
DA9
330
D0B
100
AcDbEntity
  8
0
 62
     0
100
AcDbLine
 10
953.8529484292958
 20
3061.170224609318
 30
0.0
 11
953.8529484292958
 21
3061.170224609318
 31
0.0
  0
LINE
  5
DAA
330
D0B
100
AcDbEntity
  8
0
 62
     0
100
AcDbLine
 10
948.8529484292957
 20
3061.170224609318
 30
0.0
 11
948.8529484292957
 21
3061.170224609318
 31
0.0
  0
LINE
  5
DAB
330
D0B
100
AcDbEntity
  8
0
 62
     0
100
AcDbLine
 10
943.8529484292958
 20
3061.170224609318
 30
0.0
 11
943.8529484292958
 21
3061.170224609318
 31
0.0
  0
LINE
  5
DAC
330
D0B
100
AcDbEntity
  8
0
 62
     0
100
AcDbLine
 10
938.8529484292957
 20
3061.170224609318
 30
0.0
 11
938.8529484292957
 21
3061.170224609318
 31
0.0
  0
LINE
  5
DAD
330
D0B
100
AcDbEntity
  8
0
 62
     0
100
AcDbLine
 10
933.8529484292958
 20
3061.170224609318
 30
0.0
 11
933.8529484292958
 21
3061.170224609318
 31
0.0
  0
LINE
  5
DAE
330
D0B
100
AcDbEntity
  8
0
 62
     0
100
AcDbLine
 10
893.8529484292958
 20
3061.170224609318
 30
0.0
 11
893.8529484292958
 21
3061.170224609318
 31
0.0
  0
LINE
  5
DAF
330
D0B
100
AcDbEntity
  8
0
 62
     0
100
AcDbLine
 10
888.8529484292957
 20
3061.170224609318
 30
0.0
 11
888.8529484292957
 21
3061.170224609318
 31
0.0
  0
LINE
  5
DB0
330
D0B
100
AcDbEntity
  8
0
 62
     0
100
AcDbLine
 10
883.8529484292958
 20
3061.170224609318
 30
0.0
 11
883.8529484292958
 21
3061.170224609318
 31
0.0
  0
LINE
  5
DB1
330
D0B
100
AcDbEntity
  8
0
 62
     0
100
AcDbLine
 10
878.8529484292958
 20
3061.170224609318
 30
0.0
 11
878.8529484292958
 21
3061.170224609318
 31
0.0
  0
LINE
  5
DB2
330
D0B
100
AcDbEntity
  8
0
 62
     0
100
AcDbLine
 10
873.8529484292957
 20
3061.170224609318
 30
0.0
 11
873.8529484292957
 21
3061.170224609318
 31
0.0
  0
LINE
  5
DB3
330
D0B
100
AcDbEntity
  8
0
 62
     0
100
AcDbLine
 10
868.8529484292958
 20
3061.170224609318
 30
0.0
 11
868.8529484292958
 21
3061.170224609318
 31
0.0
  0
LINE
  5
DB4
330
D0B
100
AcDbEntity
  8
0
 62
     0
100
AcDbLine
 10
863.8529484292957
 20
3061.170224609318
 30
0.0
 11
863.8529484292957
 21
3061.170224609318
 31
0.0
  0
LINE
  5
DB5
330
D0B
100
AcDbEntity
  8
0
 62
     0
100
AcDbLine
 10
858.8529484292958
 20
3061.170224609318
 30
0.0
 11
858.8529484292958
 21
3061.170224609318
 31
0.0
  0
LINE
  5
DB6
330
D0B
100
AcDbEntity
  8
0
 62
     0
100
AcDbLine
 10
853.8529484292958
 20
3061.170224609318
 30
0.0
 11
853.8529484292958
 21
3061.170224609318
 31
0.0
  0
LINE
  5
DB7
330
D0B
100
AcDbEntity
  8
0
 62
     0
100
AcDbLine
 10
848.8529484292957
 20
3061.170224609318
 30
0.0
 11
848.8529484292957
 21
3061.170224609318
 31
0.0
  0
LINE
  5
DB8
330
D0B
100
AcDbEntity
  8
0
 62
     0
100
AcDbLine
 10
976.3529484292957
 20
3066.170224609319
 30
0.0
 11
976.3529484292957
 21
3066.170224609319
 31
0.0
  0
LINE
  5
DB9
330
D0B
100
AcDbEntity
  8
0
 62
     0
100
AcDbLine
 10
971.3529484292958
 20
3066.170224609319
 30
0.0
 11
971.3529484292958
 21
3066.170224609319
 31
0.0
  0
LINE
  5
DBA
330
D0B
100
AcDbEntity
  8
0
 62
     0
100
AcDbLine
 10
966.3529484292958
 20
3066.170224609319
 30
0.0
 11
966.3529484292958
 21
3066.170224609319
 31
0.0
  0
LINE
  5
DBB
330
D0B
100
AcDbEntity
  8
0
 62
     0
100
AcDbLine
 10
961.3529484292957
 20
3066.170224609319
 30
0.0
 11
961.3529484292957
 21
3066.170224609319
 31
0.0
  0
LINE
  5
DBC
330
D0B
100
AcDbEntity
  8
0
 62
     0
100
AcDbLine
 10
956.3529484292958
 20
3066.170224609319
 30
0.0
 11
956.3529484292958
 21
3066.170224609319
 31
0.0
  0
LINE
  5
DBD
330
D0B
100
AcDbEntity
  8
0
 62
     0
100
AcDbLine
 10
951.3529484292957
 20
3066.170224609319
 30
0.0
 11
951.3529484292957
 21
3066.170224609319
 31
0.0
  0
LINE
  5
DBE
330
D0B
100
AcDbEntity
  8
0
 62
     0
100
AcDbLine
 10
946.3529484292958
 20
3066.170224609319
 30
0.0
 11
946.3529484292958
 21
3066.170224609319
 31
0.0
  0
LINE
  5
DBF
330
D0B
100
AcDbEntity
  8
0
 62
     0
100
AcDbLine
 10
941.3529484292958
 20
3066.170224609319
 30
0.0
 11
941.3529484292958
 21
3066.170224609319
 31
0.0
  0
LINE
  5
DC0
330
D0B
100
AcDbEntity
  8
0
 62
     0
100
AcDbLine
 10
886.3529484292957
 20
3066.170224609319
 30
0.0
 11
886.3529484292957
 21
3066.170224609319
 31
0.0
  0
LINE
  5
DC1
330
D0B
100
AcDbEntity
  8
0
 62
     0
100
AcDbLine
 10
881.3529484292958
 20
3066.170224609319
 30
0.0
 11
881.3529484292958
 21
3066.170224609319
 31
0.0
  0
LINE
  5
DC2
330
D0B
100
AcDbEntity
  8
0
 62
     0
100
AcDbLine
 10
876.3529484292957
 20
3066.170224609319
 30
0.0
 11
876.3529484292957
 21
3066.170224609319
 31
0.0
  0
LINE
  5
DC3
330
D0B
100
AcDbEntity
  8
0
 62
     0
100
AcDbLine
 10
871.3529484292958
 20
3066.170224609319
 30
0.0
 11
871.3529484292958
 21
3066.170224609319
 31
0.0
  0
LINE
  5
DC4
330
D0B
100
AcDbEntity
  8
0
 62
     0
100
AcDbLine
 10
866.3529484292958
 20
3066.170224609319
 30
0.0
 11
866.3529484292958
 21
3066.170224609319
 31
0.0
  0
LINE
  5
DC5
330
D0B
100
AcDbEntity
  8
0
 62
     0
100
AcDbLine
 10
861.3529484292957
 20
3066.170224609319
 30
0.0
 11
861.3529484292957
 21
3066.170224609319
 31
0.0
  0
LINE
  5
DC6
330
D0B
100
AcDbEntity
  8
0
 62
     0
100
AcDbLine
 10
856.3529484292958
 20
3066.170224609319
 30
0.0
 11
856.3529484292958
 21
3066.170224609319
 31
0.0
  0
LINE
  5
DC7
330
D0B
100
AcDbEntity
  8
0
 62
     0
100
AcDbLine
 10
851.3529484292957
 20
3066.170224609319
 30
0.0
 11
851.3529484292957
 21
3066.170224609319
 31
0.0
  0
LINE
  5
DC8
330
D0B
100
AcDbEntity
  8
0
 62
     0
100
AcDbLine
 10
973.8529484292957
 20
3071.170224609318
 30
0.0
 11
973.8529484292957
 21
3071.170224609318
 31
0.0
  0
LINE
  5
DC9
330
D0B
100
AcDbEntity
  8
0
 62
     0
100
AcDbLine
 10
968.8529484292958
 20
3071.170224609318
 30
0.0
 11
968.8529484292958
 21
3071.170224609318
 31
0.0
  0
LINE
  5
DCA
330
D0B
100
AcDbEntity
  8
0
 62
     0
100
AcDbLine
 10
963.8529484292957
 20
3071.170224609318
 30
0.0
 11
963.8529484292957
 21
3071.170224609318
 31
0.0
  0
LINE
  5
DCB
330
D0B
100
AcDbEntity
  8
0
 62
     0
100
AcDbLine
 10
958.8529484292958
 20
3071.170224609318
 30
0.0
 11
958.8529484292958
 21
3071.170224609318
 31
0.0
  0
LINE
  5
DCC
330
D0B
100
AcDbEntity
  8
0
 62
     0
100
AcDbLine
 10
953.8529484292958
 20
3071.170224609318
 30
0.0
 11
953.8529484292958
 21
3071.170224609318
 31
0.0
  0
LINE
  5
DCD
330
D0B
100
AcDbEntity
  8
0
 62
     0
100
AcDbLine
 10
948.8529484292957
 20
3071.170224609318
 30
0.0
 11
948.8529484292957
 21
3071.170224609318
 31
0.0
  0
LINE
  5
DCE
330
D0B
100
AcDbEntity
  8
0
 62
     0
100
AcDbLine
 10
943.8529484292958
 20
3071.170224609318
 30
0.0
 11
943.8529484292958
 21
3071.170224609318
 31
0.0
  0
LINE
  5
DCF
330
D0B
100
AcDbEntity
  8
0
 62
     0
100
AcDbLine
 10
883.8529484292958
 20
3071.170224609318
 30
0.0
 11
883.8529484292958
 21
3071.170224609318
 31
0.0
  0
LINE
  5
DD0
330
D0B
100
AcDbEntity
  8
0
 62
     0
100
AcDbLine
 10
878.8529484292958
 20
3071.170224609318
 30
0.0
 11
878.8529484292958
 21
3071.170224609318
 31
0.0
  0
LINE
  5
DD1
330
D0B
100
AcDbEntity
  8
0
 62
     0
100
AcDbLine
 10
873.8529484292957
 20
3071.170224609318
 30
0.0
 11
873.8529484292957
 21
3071.170224609318
 31
0.0
  0
LINE
  5
DD2
330
D0B
100
AcDbEntity
  8
0
 62
     0
100
AcDbLine
 10
868.8529484292958
 20
3071.170224609318
 30
0.0
 11
868.8529484292958
 21
3071.170224609318
 31
0.0
  0
LINE
  5
DD3
330
D0B
100
AcDbEntity
  8
0
 62
     0
100
AcDbLine
 10
863.8529484292957
 20
3071.170224609318
 30
0.0
 11
863.8529484292957
 21
3071.170224609318
 31
0.0
  0
LINE
  5
DD4
330
D0B
100
AcDbEntity
  8
0
 62
     0
100
AcDbLine
 10
858.8529484292958
 20
3071.170224609318
 30
0.0
 11
858.8529484292958
 21
3071.170224609318
 31
0.0
  0
LINE
  5
DD5
330
D0B
100
AcDbEntity
  8
0
 62
     0
100
AcDbLine
 10
853.8529484292958
 20
3071.170224609318
 30
0.0
 11
853.8529484292958
 21
3071.170224609318
 31
0.0
  0
LINE
  5
DD6
330
D0B
100
AcDbEntity
  8
0
 62
     0
100
AcDbLine
 10
971.3529484292958
 20
3076.170224609318
 30
0.0
 11
971.3529484292958
 21
3076.170224609318
 31
0.0
  0
LINE
  5
DD7
330
D0B
100
AcDbEntity
  8
0
 62
     0
100
AcDbLine
 10
966.3529484292958
 20
3076.170224609318
 30
0.0
 11
966.3529484292958
 21
3076.170224609318
 31
0.0
  0
LINE
  5
DD8
330
D0B
100
AcDbEntity
  8
0
 62
     0
100
AcDbLine
 10
961.3529484292957
 20
3076.170224609318
 30
0.0
 11
961.3529484292957
 21
3076.170224609318
 31
0.0
  0
LINE
  5
DD9
330
D0B
100
AcDbEntity
  8
0
 62
     0
100
AcDbLine
 10
956.3529484292958
 20
3076.170224609318
 30
0.0
 11
956.3529484292958
 21
3076.170224609318
 31
0.0
  0
LINE
  5
DDA
330
D0B
100
AcDbEntity
  8
0
 62
     0
100
AcDbLine
 10
951.3529484292957
 20
3076.170224609318
 30
0.0
 11
951.3529484292957
 21
3076.170224609318
 31
0.0
  0
LINE
  5
DDB
330
D0B
100
AcDbEntity
  8
0
 62
     0
100
AcDbLine
 10
946.3529484292958
 20
3076.170224609318
 30
0.0
 11
946.3529484292958
 21
3076.170224609318
 31
0.0
  0
LINE
  5
DDC
330
D0B
100
AcDbEntity
  8
0
 62
     0
100
AcDbLine
 10
881.3529484292958
 20
3076.170224609318
 30
0.0
 11
881.3529484292958
 21
3076.170224609318
 31
0.0
  0
LINE
  5
DDD
330
D0B
100
AcDbEntity
  8
0
 62
     0
100
AcDbLine
 10
876.3529484292957
 20
3076.170224609318
 30
0.0
 11
876.3529484292957
 21
3076.170224609318
 31
0.0
  0
LINE
  5
DDE
330
D0B
100
AcDbEntity
  8
0
 62
     0
100
AcDbLine
 10
871.3529484292958
 20
3076.170224609318
 30
0.0
 11
871.3529484292958
 21
3076.170224609318
 31
0.0
  0
LINE
  5
DDF
330
D0B
100
AcDbEntity
  8
0
 62
     0
100
AcDbLine
 10
866.3529484292958
 20
3076.170224609318
 30
0.0
 11
866.3529484292958
 21
3076.170224609318
 31
0.0
  0
LINE
  5
DE0
330
D0B
100
AcDbEntity
  8
0
 62
     0
100
AcDbLine
 10
861.3529484292957
 20
3076.170224609318
 30
0.0
 11
861.3529484292957
 21
3076.170224609318
 31
0.0
  0
LINE
  5
DE1
330
D0B
100
AcDbEntity
  8
0
 62
     0
100
AcDbLine
 10
856.3529484292958
 20
3076.170224609318
 30
0.0
 11
856.3529484292958
 21
3076.170224609318
 31
0.0
  0
LINE
  5
DE2
330
D0B
100
AcDbEntity
  8
0
 62
     0
100
AcDbLine
 10
968.8529484292958
 20
3081.170224609318
 30
0.0
 11
968.8529484292958
 21
3081.170224609318
 31
0.0
  0
LINE
  5
DE3
330
D0B
100
AcDbEntity
  8
0
 62
     0
100
AcDbLine
 10
963.8529484292957
 20
3081.170224609318
 30
0.0
 11
963.8529484292957
 21
3081.170224609318
 31
0.0
  0
LINE
  5
DE4
330
D0B
100
AcDbEntity
  8
0
 62
     0
100
AcDbLine
 10
958.8529484292958
 20
3081.170224609318
 30
0.0
 11
958.8529484292958
 21
3081.170224609318
 31
0.0
  0
LINE
  5
DE5
330
D0B
100
AcDbEntity
  8
0
 62
     0
100
AcDbLine
 10
953.8529484292958
 20
3081.170224609318
 30
0.0
 11
953.8529484292958
 21
3081.170224609318
 31
0.0
  0
LINE
  5
DE6
330
D0B
100
AcDbEntity
  8
0
 62
     0
100
AcDbLine
 10
948.8529484292957
 20
3081.170224609318
 30
0.0
 11
948.8529484292957
 21
3081.170224609318
 31
0.0
  0
LINE
  5
DE7
330
D0B
100
AcDbEntity
  8
0
 62
     0
100
AcDbLine
 10
878.8529484292958
 20
3081.170224609318
 30
0.0
 11
878.8529484292958
 21
3081.170224609318
 31
0.0
  0
LINE
  5
DE8
330
D0B
100
AcDbEntity
  8
0
 62
     0
100
AcDbLine
 10
873.8529484292957
 20
3081.170224609318
 30
0.0
 11
873.8529484292957
 21
3081.170224609318
 31
0.0
  0
LINE
  5
DE9
330
D0B
100
AcDbEntity
  8
0
 62
     0
100
AcDbLine
 10
868.8529484292958
 20
3081.170224609318
 30
0.0
 11
868.8529484292958
 21
3081.170224609318
 31
0.0
  0
LINE
  5
DEA
330
D0B
100
AcDbEntity
  8
0
 62
     0
100
AcDbLine
 10
863.8529484292957
 20
3081.170224609318
 30
0.0
 11
863.8529484292957
 21
3081.170224609318
 31
0.0
  0
LINE
  5
DEB
330
D0B
100
AcDbEntity
  8
0
 62
     0
100
AcDbLine
 10
858.8529484292958
 20
3081.170224609318
 30
0.0
 11
858.8529484292958
 21
3081.170224609318
 31
0.0
  0
LINE
  5
DEC
330
D0B
100
AcDbEntity
  8
0
 62
     0
100
AcDbLine
 10
971.3529484292958
 20
3086.170224609319
 30
0.0
 11
971.3529484292958
 21
3086.170224609319
 31
0.0
  0
LINE
  5
DED
330
D0B
100
AcDbEntity
  8
0
 62
     0
100
AcDbLine
 10
966.3529484292958
 20
3086.170224609319
 30
0.0
 11
966.3529484292958
 21
3086.170224609319
 31
0.0
  0
LINE
  5
DEE
330
D0B
100
AcDbEntity
  8
0
 62
     0
100
AcDbLine
 10
961.3529484292957
 20
3086.170224609319
 30
0.0
 11
961.3529484292957
 21
3086.170224609319
 31
0.0
  0
LINE
  5
DEF
330
D0B
100
AcDbEntity
  8
0
 62
     0
100
AcDbLine
 10
956.3529484292958
 20
3086.170224609319
 30
0.0
 11
956.3529484292958
 21
3086.170224609319
 31
0.0
  0
LINE
  5
DF0
330
D0B
100
AcDbEntity
  8
0
 62
     0
100
AcDbLine
 10
951.3529484292957
 20
3086.170224609319
 30
0.0
 11
951.3529484292957
 21
3086.170224609319
 31
0.0
  0
LINE
  5
DF1
330
D0B
100
AcDbEntity
  8
0
 62
     0
100
AcDbLine
 10
876.3529484292957
 20
3086.170224609319
 30
0.0
 11
876.3529484292957
 21
3086.170224609319
 31
0.0
  0
LINE
  5
DF2
330
D0B
100
AcDbEntity
  8
0
 62
     0
100
AcDbLine
 10
871.3529484292958
 20
3086.170224609319
 30
0.0
 11
871.3529484292958
 21
3086.170224609319
 31
0.0
  0
LINE
  5
DF3
330
D0B
100
AcDbEntity
  8
0
 62
     0
100
AcDbLine
 10
866.3529484292958
 20
3086.170224609319
 30
0.0
 11
866.3529484292958
 21
3086.170224609319
 31
0.0
  0
LINE
  5
DF4
330
D0B
100
AcDbEntity
  8
0
 62
     0
100
AcDbLine
 10
861.3529484292957
 20
3086.170224609319
 30
0.0
 11
861.3529484292957
 21
3086.170224609319
 31
0.0
  0
LINE
  5
DF5
330
D0B
100
AcDbEntity
  8
0
 62
     0
100
AcDbLine
 10
856.3529484292958
 20
3086.170224609319
 30
0.0
 11
856.3529484292958
 21
3086.170224609319
 31
0.0
  0
LINE
  5
DF6
330
D0B
100
AcDbEntity
  8
0
 62
     0
100
AcDbLine
 10
978.8529484292958
 20
3091.170224609319
 30
0.0
 11
978.8529484292958
 21
3091.170224609319
 31
0.0
  0
LINE
  5
DF7
330
D0B
100
AcDbEntity
  8
0
 62
     0
100
AcDbLine
 10
973.8529484292957
 20
3091.170224609319
 30
0.0
 11
973.8529484292957
 21
3091.170224609319
 31
0.0
  0
LINE
  5
DF8
330
D0B
100
AcDbEntity
  8
0
 62
     0
100
AcDbLine
 10
968.8529484292958
 20
3091.170224609319
 30
0.0
 11
968.8529484292958
 21
3091.170224609319
 31
0.0
  0
LINE
  5
DF9
330
D0B
100
AcDbEntity
  8
0
 62
     0
100
AcDbLine
 10
963.8529484292957
 20
3091.170224609319
 30
0.0
 11
963.8529484292957
 21
3091.170224609319
 31
0.0
  0
LINE
  5
DFA
330
D0B
100
AcDbEntity
  8
0
 62
     0
100
AcDbLine
 10
958.8529484292958
 20
3091.170224609319
 30
0.0
 11
958.8529484292958
 21
3091.170224609319
 31
0.0
  0
LINE
  5
DFB
330
D0B
100
AcDbEntity
  8
0
 62
     0
100
AcDbLine
 10
953.8529484292958
 20
3091.170224609319
 30
0.0
 11
953.8529484292958
 21
3091.170224609319
 31
0.0
  0
LINE
  5
DFC
330
D0B
100
AcDbEntity
  8
0
 62
     0
100
AcDbLine
 10
878.8529484292958
 20
3091.170224609319
 30
0.0
 11
878.8529484292958
 21
3091.170224609319
 31
0.0
  0
LINE
  5
DFD
330
D0B
100
AcDbEntity
  8
0
 62
     0
100
AcDbLine
 10
873.8529484292957
 20
3091.170224609319
 30
0.0
 11
873.8529484292957
 21
3091.170224609319
 31
0.0
  0
LINE
  5
DFE
330
D0B
100
AcDbEntity
  8
0
 62
     0
100
AcDbLine
 10
868.8529484292958
 20
3091.170224609319
 30
0.0
 11
868.8529484292958
 21
3091.170224609319
 31
0.0
  0
LINE
  5
DFF
330
D0B
100
AcDbEntity
  8
0
 62
     0
100
AcDbLine
 10
863.8529484292957
 20
3091.170224609319
 30
0.0
 11
863.8529484292957
 21
3091.170224609319
 31
0.0
  0
LINE
  5
E00
330
D0B
100
AcDbEntity
  8
0
 62
     0
100
AcDbLine
 10
858.8529484292958
 20
3091.170224609319
 30
0.0
 11
858.8529484292958
 21
3091.170224609319
 31
0.0
  0
LINE
  5
E01
330
D0B
100
AcDbEntity
  8
0
 62
     0
100
AcDbLine
 10
853.8529484292958
 20
3091.170224609319
 30
0.0
 11
853.8529484292958
 21
3091.170224609319
 31
0.0
  0
LINE
  5
E02
330
D0B
100
AcDbEntity
  8
0
 62
     0
100
AcDbLine
 10
976.3529484292957
 20
3096.170224609319
 30
0.0
 11
976.3529484292957
 21
3096.170224609319
 31
0.0
  0
LINE
  5
E03
330
D0B
100
AcDbEntity
  8
0
 62
     0
100
AcDbLine
 10
971.3529484292958
 20
3096.170224609319
 30
0.0
 11
971.3529484292958
 21
3096.170224609319
 31
0.0
  0
LINE
  5
E04
330
D0B
100
AcDbEntity
  8
0
 62
     0
100
AcDbLine
 10
966.3529484292958
 20
3096.170224609319
 30
0.0
 11
966.3529484292958
 21
3096.170224609319
 31
0.0
  0
LINE
  5
E05
330
D0B
100
AcDbEntity
  8
0
 62
     0
100
AcDbLine
 10
961.3529484292957
 20
3096.170224609319
 30
0.0
 11
961.3529484292957
 21
3096.170224609319
 31
0.0
  0
LINE
  5
E06
330
D0B
100
AcDbEntity
  8
0
 62
     0
100
AcDbLine
 10
956.3529484292958
 20
3096.170224609319
 30
0.0
 11
956.3529484292958
 21
3096.170224609319
 31
0.0
  0
LINE
  5
E07
330
D0B
100
AcDbEntity
  8
0
 62
     0
100
AcDbLine
 10
951.3529484292957
 20
3096.170224609319
 30
0.0
 11
951.3529484292957
 21
3096.170224609319
 31
0.0
  0
LINE
  5
E08
330
D0B
100
AcDbEntity
  8
0
 62
     0
100
AcDbLine
 10
876.3529484292957
 20
3096.170224609319
 30
0.0
 11
876.3529484292957
 21
3096.170224609319
 31
0.0
  0
LINE
  5
E09
330
D0B
100
AcDbEntity
  8
0
 62
     0
100
AcDbLine
 10
871.3529484292958
 20
3096.170224609319
 30
0.0
 11
871.3529484292958
 21
3096.170224609319
 31
0.0
  0
LINE
  5
E0A
330
D0B
100
AcDbEntity
  8
0
 62
     0
100
AcDbLine
 10
866.3529484292958
 20
3096.170224609319
 30
0.0
 11
866.3529484292958
 21
3096.170224609319
 31
0.0
  0
LINE
  5
E0B
330
D0B
100
AcDbEntity
  8
0
 62
     0
100
AcDbLine
 10
861.3529484292957
 20
3096.170224609319
 30
0.0
 11
861.3529484292957
 21
3096.170224609319
 31
0.0
  0
LINE
  5
E0C
330
D0B
100
AcDbEntity
  8
0
 62
     0
100
AcDbLine
 10
856.3529484292958
 20
3096.170224609319
 30
0.0
 11
856.3529484292958
 21
3096.170224609319
 31
0.0
  0
LINE
  5
E0D
330
D0B
100
AcDbEntity
  8
0
 62
     0
100
AcDbLine
 10
968.8529484292958
 20
3101.170224609318
 30
0.0
 11
968.8529484292958
 21
3101.170224609318
 31
0.0
  0
LINE
  5
E0E
330
D0B
100
AcDbEntity
  8
0
 62
     0
100
AcDbLine
 10
963.8529484292957
 20
3101.170224609318
 30
0.0
 11
963.8529484292957
 21
3101.170224609318
 31
0.0
  0
LINE
  5
E0F
330
D0B
100
AcDbEntity
  8
0
 62
     0
100
AcDbLine
 10
958.8529484292958
 20
3101.170224609318
 30
0.0
 11
958.8529484292958
 21
3101.170224609318
 31
0.0
  0
LINE
  5
E10
330
D0B
100
AcDbEntity
  8
0
 62
     0
100
AcDbLine
 10
953.8529484292958
 20
3101.170224609318
 30
0.0
 11
953.8529484292958
 21
3101.170224609318
 31
0.0
  0
LINE
  5
E11
330
D0B
100
AcDbEntity
  8
0
 62
     0
100
AcDbLine
 10
948.8529484292957
 20
3101.170224609318
 30
0.0
 11
948.8529484292957
 21
3101.170224609318
 31
0.0
  0
LINE
  5
E12
330
D0B
100
AcDbEntity
  8
0
 62
     0
100
AcDbLine
 10
878.8529484292958
 20
3101.170224609318
 30
0.0
 11
878.8529484292958
 21
3101.170224609318
 31
0.0
  0
LINE
  5
E13
330
D0B
100
AcDbEntity
  8
0
 62
     0
100
AcDbLine
 10
873.8529484292957
 20
3101.170224609318
 30
0.0
 11
873.8529484292957
 21
3101.170224609318
 31
0.0
  0
LINE
  5
E14
330
D0B
100
AcDbEntity
  8
0
 62
     0
100
AcDbLine
 10
868.8529484292958
 20
3101.170224609318
 30
0.0
 11
868.8529484292958
 21
3101.170224609318
 31
0.0
  0
LINE
  5
E15
330
D0B
100
AcDbEntity
  8
0
 62
     0
100
AcDbLine
 10
863.8529484292957
 20
3101.170224609318
 30
0.0
 11
863.8529484292957
 21
3101.170224609318
 31
0.0
  0
LINE
  5
E16
330
D0B
100
AcDbEntity
  8
0
 62
     0
100
AcDbLine
 10
858.8529484292958
 20
3101.170224609318
 30
0.0
 11
858.8529484292958
 21
3101.170224609318
 31
0.0
  0
LINE
  5
E17
330
D0B
100
AcDbEntity
  8
0
 62
     0
100
AcDbLine
 10
971.3529484292958
 20
3106.170224609318
 30
0.0
 11
971.3529484292958
 21
3106.170224609318
 31
0.0
  0
LINE
  5
E18
330
D0B
100
AcDbEntity
  8
0
 62
     0
100
AcDbLine
 10
966.3529484292958
 20
3106.170224609318
 30
0.0
 11
966.3529484292958
 21
3106.170224609318
 31
0.0
  0
LINE
  5
E19
330
D0B
100
AcDbEntity
  8
0
 62
     0
100
AcDbLine
 10
961.3529484292957
 20
3106.170224609318
 30
0.0
 11
961.3529484292957
 21
3106.170224609318
 31
0.0
  0
LINE
  5
E1A
330
D0B
100
AcDbEntity
  8
0
 62
     0
100
AcDbLine
 10
956.3529484292958
 20
3106.170224609318
 30
0.0
 11
956.3529484292958
 21
3106.170224609318
 31
0.0
  0
LINE
  5
E1B
330
D0B
100
AcDbEntity
  8
0
 62
     0
100
AcDbLine
 10
951.3529484292957
 20
3106.170224609318
 30
0.0
 11
951.3529484292957
 21
3106.170224609318
 31
0.0
  0
LINE
  5
E1C
330
D0B
100
AcDbEntity
  8
0
 62
     0
100
AcDbLine
 10
881.3529484292958
 20
3106.170224609318
 30
0.0
 11
881.3529484292958
 21
3106.170224609318
 31
0.0
  0
LINE
  5
E1D
330
D0B
100
AcDbEntity
  8
0
 62
     0
100
AcDbLine
 10
876.3529484292957
 20
3106.170224609318
 30
0.0
 11
876.3529484292957
 21
3106.170224609318
 31
0.0
  0
LINE
  5
E1E
330
D0B
100
AcDbEntity
  8
0
 62
     0
100
AcDbLine
 10
871.3529484292958
 20
3106.170224609318
 30
0.0
 11
871.3529484292958
 21
3106.170224609318
 31
0.0
  0
LINE
  5
E1F
330
D0B
100
AcDbEntity
  8
0
 62
     0
100
AcDbLine
 10
866.3529484292958
 20
3106.170224609318
 30
0.0
 11
866.3529484292958
 21
3106.170224609318
 31
0.0
  0
LINE
  5
E20
330
D0B
100
AcDbEntity
  8
0
 62
     0
100
AcDbLine
 10
861.3529484292957
 20
3106.170224609318
 30
0.0
 11
861.3529484292957
 21
3106.170224609318
 31
0.0
  0
LINE
  5
E21
330
D0B
100
AcDbEntity
  8
0
 62
     0
100
AcDbLine
 10
856.3529484292958
 20
3106.170224609318
 30
0.0
 11
856.3529484292958
 21
3106.170224609318
 31
0.0
  0
LINE
  5
E22
330
D0B
100
AcDbEntity
  8
0
 62
     0
100
AcDbLine
 10
973.8529484292957
 20
3111.170224609319
 30
0.0
 11
973.8529484292957
 21
3111.170224609319
 31
0.0
  0
LINE
  5
E23
330
D0B
100
AcDbEntity
  8
0
 62
     0
100
AcDbLine
 10
968.8529484292958
 20
3111.170224609319
 30
0.0
 11
968.8529484292958
 21
3111.170224609319
 31
0.0
  0
LINE
  5
E24
330
D0B
100
AcDbEntity
  8
0
 62
     0
100
AcDbLine
 10
963.8529484292957
 20
3111.170224609319
 30
0.0
 11
963.8529484292957
 21
3111.170224609319
 31
0.0
  0
LINE
  5
E25
330
D0B
100
AcDbEntity
  8
0
 62
     0
100
AcDbLine
 10
958.8529484292958
 20
3111.170224609319
 30
0.0
 11
958.8529484292958
 21
3111.170224609319
 31
0.0
  0
LINE
  5
E26
330
D0B
100
AcDbEntity
  8
0
 62
     0
100
AcDbLine
 10
953.8529484292958
 20
3111.170224609319
 30
0.0
 11
953.8529484292958
 21
3111.170224609319
 31
0.0
  0
LINE
  5
E27
330
D0B
100
AcDbEntity
  8
0
 62
     0
100
AcDbLine
 10
948.8529484292957
 20
3111.170224609319
 30
0.0
 11
948.8529484292957
 21
3111.170224609319
 31
0.0
  0
LINE
  5
E28
330
D0B
100
AcDbEntity
  8
0
 62
     0
100
AcDbLine
 10
883.8529484292958
 20
3111.170224609319
 30
0.0
 11
883.8529484292958
 21
3111.170224609319
 31
0.0
  0
LINE
  5
E29
330
D0B
100
AcDbEntity
  8
0
 62
     0
100
AcDbLine
 10
878.8529484292958
 20
3111.170224609319
 30
0.0
 11
878.8529484292958
 21
3111.170224609319
 31
0.0
  0
LINE
  5
E2A
330
D0B
100
AcDbEntity
  8
0
 62
     0
100
AcDbLine
 10
873.8529484292957
 20
3111.170224609319
 30
0.0
 11
873.8529484292957
 21
3111.170224609319
 31
0.0
  0
LINE
  5
E2B
330
D0B
100
AcDbEntity
  8
0
 62
     0
100
AcDbLine
 10
868.8529484292958
 20
3111.170224609319
 30
0.0
 11
868.8529484292958
 21
3111.170224609319
 31
0.0
  0
LINE
  5
E2C
330
D0B
100
AcDbEntity
  8
0
 62
     0
100
AcDbLine
 10
863.8529484292957
 20
3111.170224609319
 30
0.0
 11
863.8529484292957
 21
3111.170224609319
 31
0.0
  0
LINE
  5
E2D
330
D0B
100
AcDbEntity
  8
0
 62
     0
100
AcDbLine
 10
858.8529484292958
 20
3111.170224609319
 30
0.0
 11
858.8529484292958
 21
3111.170224609319
 31
0.0
  0
LINE
  5
E2E
330
D0B
100
AcDbEntity
  8
0
 62
     0
100
AcDbLine
 10
853.8529484292958
 20
3111.170224609319
 30
0.0
 11
853.8529484292958
 21
3111.170224609319
 31
0.0
  0
LINE
  5
E2F
330
D0B
100
AcDbEntity
  8
0
 62
     0
100
AcDbLine
 10
976.3529484292957
 20
3116.170224609319
 30
0.0
 11
976.3529484292957
 21
3116.170224609319
 31
0.0
  0
LINE
  5
E30
330
D0B
100
AcDbEntity
  8
0
 62
     0
100
AcDbLine
 10
971.3529484292958
 20
3116.170224609319
 30
0.0
 11
971.3529484292958
 21
3116.170224609319
 31
0.0
  0
LINE
  5
E31
330
D0B
100
AcDbEntity
  8
0
 62
     0
100
AcDbLine
 10
966.3529484292958
 20
3116.170224609319
 30
0.0
 11
966.3529484292958
 21
3116.170224609319
 31
0.0
  0
LINE
  5
E32
330
D0B
100
AcDbEntity
  8
0
 62
     0
100
AcDbLine
 10
961.3529484292957
 20
3116.170224609319
 30
0.0
 11
961.3529484292957
 21
3116.170224609319
 31
0.0
  0
LINE
  5
E33
330
D0B
100
AcDbEntity
  8
0
 62
     0
100
AcDbLine
 10
956.3529484292958
 20
3116.170224609319
 30
0.0
 11
956.3529484292958
 21
3116.170224609319
 31
0.0
  0
LINE
  5
E34
330
D0B
100
AcDbEntity
  8
0
 62
     0
100
AcDbLine
 10
951.3529484292957
 20
3116.170224609319
 30
0.0
 11
951.3529484292957
 21
3116.170224609319
 31
0.0
  0
LINE
  5
E35
330
D0B
100
AcDbEntity
  8
0
 62
     0
100
AcDbLine
 10
946.3529484292958
 20
3116.170224609319
 30
0.0
 11
946.3529484292958
 21
3116.170224609319
 31
0.0
  0
LINE
  5
E36
330
D0B
100
AcDbEntity
  8
0
 62
     0
100
AcDbLine
 10
941.3529484292958
 20
3116.170224609319
 30
0.0
 11
941.3529484292958
 21
3116.170224609319
 31
0.0
  0
LINE
  5
E37
330
D0B
100
AcDbEntity
  8
0
 62
     0
100
AcDbLine
 10
886.3529484292957
 20
3116.170224609319
 30
0.0
 11
886.3529484292957
 21
3116.170224609319
 31
0.0
  0
LINE
  5
E38
330
D0B
100
AcDbEntity
  8
0
 62
     0
100
AcDbLine
 10
881.3529484292958
 20
3116.170224609319
 30
0.0
 11
881.3529484292958
 21
3116.170224609319
 31
0.0
  0
LINE
  5
E39
330
D0B
100
AcDbEntity
  8
0
 62
     0
100
AcDbLine
 10
876.3529484292957
 20
3116.170224609319
 30
0.0
 11
876.3529484292957
 21
3116.170224609319
 31
0.0
  0
LINE
  5
E3A
330
D0B
100
AcDbEntity
  8
0
 62
     0
100
AcDbLine
 10
871.3529484292958
 20
3116.170224609319
 30
0.0
 11
871.3529484292958
 21
3116.170224609319
 31
0.0
  0
LINE
  5
E3B
330
D0B
100
AcDbEntity
  8
0
 62
     0
100
AcDbLine
 10
866.3529484292958
 20
3116.170224609319
 30
0.0
 11
866.3529484292958
 21
3116.170224609319
 31
0.0
  0
LINE
  5
E3C
330
D0B
100
AcDbEntity
  8
0
 62
     0
100
AcDbLine
 10
861.3529484292957
 20
3116.170224609319
 30
0.0
 11
861.3529484292957
 21
3116.170224609319
 31
0.0
  0
LINE
  5
E3D
330
D0B
100
AcDbEntity
  8
0
 62
     0
100
AcDbLine
 10
856.3529484292958
 20
3116.170224609319
 30
0.0
 11
856.3529484292958
 21
3116.170224609319
 31
0.0
  0
LINE
  5
E3E
330
D0B
100
AcDbEntity
  8
0
 62
     0
100
AcDbLine
 10
851.3529484292957
 20
3116.170224609319
 30
0.0
 11
851.3529484292957
 21
3116.170224609319
 31
0.0
  0
LINE
  5
E3F
330
D0B
100
AcDbEntity
  8
0
 62
     0
100
AcDbLine
 10
978.8529484292958
 20
3121.170224609318
 30
0.0
 11
978.8529484292958
 21
3121.170224609318
 31
0.0
  0
LINE
  5
E40
330
D0B
100
AcDbEntity
  8
0
 62
     0
100
AcDbLine
 10
973.8529484292957
 20
3121.170224609318
 30
0.0
 11
973.8529484292957
 21
3121.170224609318
 31
0.0
  0
LINE
  5
E41
330
D0B
100
AcDbEntity
  8
0
 62
     0
100
AcDbLine
 10
968.8529484292958
 20
3121.170224609318
 30
0.0
 11
968.8529484292958
 21
3121.170224609318
 31
0.0
  0
LINE
  5
E42
330
D0B
100
AcDbEntity
  8
0
 62
     0
100
AcDbLine
 10
963.8529484292957
 20
3121.170224609318
 30
0.0
 11
963.8529484292957
 21
3121.170224609318
 31
0.0
  0
LINE
  5
E43
330
D0B
100
AcDbEntity
  8
0
 62
     0
100
AcDbLine
 10
958.8529484292958
 20
3121.170224609318
 30
0.0
 11
958.8529484292958
 21
3121.170224609318
 31
0.0
  0
LINE
  5
E44
330
D0B
100
AcDbEntity
  8
0
 62
     0
100
AcDbLine
 10
953.8529484292958
 20
3121.170224609318
 30
0.0
 11
953.8529484292958
 21
3121.170224609318
 31
0.0
  0
LINE
  5
E45
330
D0B
100
AcDbEntity
  8
0
 62
     0
100
AcDbLine
 10
948.8529484292957
 20
3121.170224609318
 30
0.0
 11
948.8529484292957
 21
3121.170224609318
 31
0.0
  0
LINE
  5
E46
330
D0B
100
AcDbEntity
  8
0
 62
     0
100
AcDbLine
 10
943.8529484292958
 20
3121.170224609318
 30
0.0
 11
943.8529484292958
 21
3121.170224609318
 31
0.0
  0
LINE
  5
E47
330
D0B
100
AcDbEntity
  8
0
 62
     0
100
AcDbLine
 10
938.8529484292957
 20
3121.170224609318
 30
0.0
 11
938.8529484292957
 21
3121.170224609318
 31
0.0
  0
LINE
  5
E48
330
D0B
100
AcDbEntity
  8
0
 62
     0
100
AcDbLine
 10
893.8529484292958
 20
3121.170224609318
 30
0.0
 11
893.8529484292958
 21
3121.170224609318
 31
0.0
  0
LINE
  5
E49
330
D0B
100
AcDbEntity
  8
0
 62
     0
100
AcDbLine
 10
888.8529484292957
 20
3121.170224609318
 30
0.0
 11
888.8529484292957
 21
3121.170224609318
 31
0.0
  0
LINE
  5
E4A
330
D0B
100
AcDbEntity
  8
0
 62
     0
100
AcDbLine
 10
883.8529484292958
 20
3121.170224609318
 30
0.0
 11
883.8529484292958
 21
3121.170224609318
 31
0.0
  0
LINE
  5
E4B
330
D0B
100
AcDbEntity
  8
0
 62
     0
100
AcDbLine
 10
878.8529484292958
 20
3121.170224609318
 30
0.0
 11
878.8529484292958
 21
3121.170224609318
 31
0.0
  0
LINE
  5
E4C
330
D0B
100
AcDbEntity
  8
0
 62
     0
100
AcDbLine
 10
873.8529484292957
 20
3121.170224609318
 30
0.0
 11
873.8529484292957
 21
3121.170224609318
 31
0.0
  0
LINE
  5
E4D
330
D0B
100
AcDbEntity
  8
0
 62
     0
100
AcDbLine
 10
868.8529484292958
 20
3121.170224609318
 30
0.0
 11
868.8529484292958
 21
3121.170224609318
 31
0.0
  0
LINE
  5
E4E
330
D0B
100
AcDbEntity
  8
0
 62
     0
100
AcDbLine
 10
863.8529484292957
 20
3121.170224609318
 30
0.0
 11
863.8529484292957
 21
3121.170224609318
 31
0.0
  0
LINE
  5
E4F
330
D0B
100
AcDbEntity
  8
0
 62
     0
100
AcDbLine
 10
858.8529484292958
 20
3121.170224609318
 30
0.0
 11
858.8529484292958
 21
3121.170224609318
 31
0.0
  0
LINE
  5
E50
330
D0B
100
AcDbEntity
  8
0
 62
     0
100
AcDbLine
 10
853.8529484292958
 20
3121.170224609318
 30
0.0
 11
853.8529484292958
 21
3121.170224609318
 31
0.0
  0
LINE
  5
E51
330
D0B
100
AcDbEntity
  8
0
 62
     0
100
AcDbLine
 10
848.8529484292957
 20
3121.170224609318
 30
0.0
 11
848.8529484292957
 21
3121.170224609318
 31
0.0
  0
LINE
  5
E52
330
D0B
100
AcDbEntity
  8
0
 62
     0
100
AcDbLine
 10
981.3529484292958
 20
3126.170224609318
 30
0.0
 11
981.3529484292958
 21
3126.170224609318
 31
0.0
  0
LINE
  5
E53
330
D0B
100
AcDbEntity
  8
0
 62
     0
100
AcDbLine
 10
976.3529484292957
 20
3126.170224609318
 30
0.0
 11
976.3529484292957
 21
3126.170224609318
 31
0.0
  0
LINE
  5
E54
330
D0B
100
AcDbEntity
  8
0
 62
     0
100
AcDbLine
 10
971.3529484292958
 20
3126.170224609318
 30
0.0
 11
971.3529484292958
 21
3126.170224609318
 31
0.0
  0
LINE
  5
E55
330
D0B
100
AcDbEntity
  8
0
 62
     0
100
AcDbLine
 10
966.3529484292958
 20
3126.170224609318
 30
0.0
 11
966.3529484292958
 21
3126.170224609318
 31
0.0
  0
LINE
  5
E56
330
D0B
100
AcDbEntity
  8
0
 62
     0
100
AcDbLine
 10
961.3529484292957
 20
3126.170224609318
 30
0.0
 11
961.3529484292957
 21
3126.170224609318
 31
0.0
  0
LINE
  5
E57
330
D0B
100
AcDbEntity
  8
0
 62
     0
100
AcDbLine
 10
956.3529484292958
 20
3126.170224609318
 30
0.0
 11
956.3529484292958
 21
3126.170224609318
 31
0.0
  0
LINE
  5
E58
330
D0B
100
AcDbEntity
  8
0
 62
     0
100
AcDbLine
 10
951.3529484292957
 20
3126.170224609318
 30
0.0
 11
951.3529484292957
 21
3126.170224609318
 31
0.0
  0
LINE
  5
E59
330
D0B
100
AcDbEntity
  8
0
 62
     0
100
AcDbLine
 10
946.3529484292958
 20
3126.170224609318
 30
0.0
 11
946.3529484292958
 21
3126.170224609318
 31
0.0
  0
LINE
  5
E5A
330
D0B
100
AcDbEntity
  8
0
 62
     0
100
AcDbLine
 10
941.3529484292958
 20
3126.170224609318
 30
0.0
 11
941.3529484292958
 21
3126.170224609318
 31
0.0
  0
LINE
  5
E5B
330
D0B
100
AcDbEntity
  8
0
 62
     0
100
AcDbLine
 10
936.3529484292957
 20
3126.170224609318
 30
0.0
 11
936.3529484292957
 21
3126.170224609318
 31
0.0
  0
LINE
  5
E5C
330
D0B
100
AcDbEntity
  8
0
 62
     0
100
AcDbLine
 10
931.3529484292958
 20
3126.170224609318
 30
0.0
 11
931.3529484292958
 21
3126.170224609318
 31
0.0
  0
LINE
  5
E5D
330
D0B
100
AcDbEntity
  8
0
 62
     0
100
AcDbLine
 10
926.3529484292957
 20
3126.170224609318
 30
0.0
 11
926.3529484292957
 21
3126.170224609318
 31
0.0
  0
LINE
  5
E5E
330
D0B
100
AcDbEntity
  8
0
 62
     0
100
AcDbLine
 10
901.3529484292957
 20
3126.170224609318
 30
0.0
 11
901.3529484292957
 21
3126.170224609318
 31
0.0
  0
LINE
  5
E5F
330
D0B
100
AcDbEntity
  8
0
 62
     0
100
AcDbLine
 10
896.3529484292958
 20
3126.170224609318
 30
0.0
 11
896.3529484292958
 21
3126.170224609318
 31
0.0
  0
LINE
  5
E60
330
D0B
100
AcDbEntity
  8
0
 62
     0
100
AcDbLine
 10
891.3529484292958
 20
3126.170224609318
 30
0.0
 11
891.3529484292958
 21
3126.170224609318
 31
0.0
  0
LINE
  5
E61
330
D0B
100
AcDbEntity
  8
0
 62
     0
100
AcDbLine
 10
886.3529484292957
 20
3126.170224609318
 30
0.0
 11
886.3529484292957
 21
3126.170224609318
 31
0.0
  0
LINE
  5
E62
330
D0B
100
AcDbEntity
  8
0
 62
     0
100
AcDbLine
 10
881.3529484292958
 20
3126.170224609318
 30
0.0
 11
881.3529484292958
 21
3126.170224609318
 31
0.0
  0
LINE
  5
E63
330
D0B
100
AcDbEntity
  8
0
 62
     0
100
AcDbLine
 10
876.3529484292957
 20
3126.170224609318
 30
0.0
 11
876.3529484292957
 21
3126.170224609318
 31
0.0
  0
LINE
  5
E64
330
D0B
100
AcDbEntity
  8
0
 62
     0
100
AcDbLine
 10
871.3529484292958
 20
3126.170224609318
 30
0.0
 11
871.3529484292958
 21
3126.170224609318
 31
0.0
  0
LINE
  5
E65
330
D0B
100
AcDbEntity
  8
0
 62
     0
100
AcDbLine
 10
866.3529484292958
 20
3126.170224609318
 30
0.0
 11
866.3529484292958
 21
3126.170224609318
 31
0.0
  0
LINE
  5
E66
330
D0B
100
AcDbEntity
  8
0
 62
     0
100
AcDbLine
 10
861.3529484292957
 20
3126.170224609318
 30
0.0
 11
861.3529484292957
 21
3126.170224609318
 31
0.0
  0
LINE
  5
E67
330
D0B
100
AcDbEntity
  8
0
 62
     0
100
AcDbLine
 10
856.3529484292958
 20
3126.170224609318
 30
0.0
 11
856.3529484292958
 21
3126.170224609318
 31
0.0
  0
LINE
  5
E68
330
D0B
100
AcDbEntity
  8
0
 62
     0
100
AcDbLine
 10
851.3529484292957
 20
3126.170224609318
 30
0.0
 11
851.3529484292957
 21
3126.170224609318
 31
0.0
  0
LINE
  5
E69
330
D0B
100
AcDbEntity
  8
0
 62
     0
100
AcDbLine
 10
978.8529484292958
 20
3131.170224609319
 30
0.0
 11
978.8529484292958
 21
3131.170224609319
 31
0.0
  0
LINE
  5
E6A
330
D0B
100
AcDbEntity
  8
0
 62
     0
100
AcDbLine
 10
973.8529484292957
 20
3131.170224609319
 30
0.0
 11
973.8529484292957
 21
3131.170224609319
 31
0.0
  0
LINE
  5
E6B
330
D0B
100
AcDbEntity
  8
0
 62
     0
100
AcDbLine
 10
968.8529484292958
 20
3131.170224609319
 30
0.0
 11
968.8529484292958
 21
3131.170224609319
 31
0.0
  0
LINE
  5
E6C
330
D0B
100
AcDbEntity
  8
0
 62
     0
100
AcDbLine
 10
963.8529484292957
 20
3131.170224609319
 30
0.0
 11
963.8529484292957
 21
3131.170224609319
 31
0.0
  0
LINE
  5
E6D
330
D0B
100
AcDbEntity
  8
0
 62
     0
100
AcDbLine
 10
958.8529484292958
 20
3131.170224609319
 30
0.0
 11
958.8529484292958
 21
3131.170224609319
 31
0.0
  0
LINE
  5
E6E
330
D0B
100
AcDbEntity
  8
0
 62
     0
100
AcDbLine
 10
953.8529484292958
 20
3131.170224609319
 30
0.0
 11
953.8529484292958
 21
3131.170224609319
 31
0.0
  0
LINE
  5
E6F
330
D0B
100
AcDbEntity
  8
0
 62
     0
100
AcDbLine
 10
948.8529484292957
 20
3131.170224609319
 30
0.0
 11
948.8529484292957
 21
3131.170224609319
 31
0.0
  0
LINE
  5
E70
330
D0B
100
AcDbEntity
  8
0
 62
     0
100
AcDbLine
 10
943.8529484292958
 20
3131.170224609319
 30
0.0
 11
943.8529484292958
 21
3131.170224609319
 31
0.0
  0
LINE
  5
E71
330
D0B
100
AcDbEntity
  8
0
 62
     0
100
AcDbLine
 10
938.8529484292957
 20
3131.170224609319
 30
0.0
 11
938.8529484292957
 21
3131.170224609319
 31
0.0
  0
LINE
  5
E72
330
D0B
100
AcDbEntity
  8
0
 62
     0
100
AcDbLine
 10
933.8529484292958
 20
3131.170224609319
 30
0.0
 11
933.8529484292958
 21
3131.170224609319
 31
0.0
  0
LINE
  5
E73
330
D0B
100
AcDbEntity
  8
0
 62
     0
100
AcDbLine
 10
928.8529484292958
 20
3131.170224609319
 30
0.0
 11
928.8529484292958
 21
3131.170224609319
 31
0.0
  0
LINE
  5
E74
330
D0B
100
AcDbEntity
  8
0
 62
     0
100
AcDbLine
 10
923.8529484292957
 20
3131.170224609319
 30
0.0
 11
923.8529484292957
 21
3131.170224609319
 31
0.0
  0
LINE
  5
E75
330
D0B
100
AcDbEntity
  8
0
 62
     0
100
AcDbLine
 10
918.8529484292958
 20
3131.170224609319
 30
0.0
 11
918.8529484292958
 21
3131.170224609319
 31
0.0
  0
LINE
  5
E76
330
D0B
100
AcDbEntity
  8
0
 62
     0
100
AcDbLine
 10
913.8529484292957
 20
3131.170224609319
 30
0.0
 11
913.8529484292957
 21
3131.170224609319
 31
0.0
  0
LINE
  5
E77
330
D0B
100
AcDbEntity
  8
0
 62
     0
100
AcDbLine
 10
908.8529484292958
 20
3131.170224609319
 30
0.0
 11
908.8529484292958
 21
3131.170224609319
 31
0.0
  0
LINE
  5
E78
330
D0B
100
AcDbEntity
  8
0
 62
     0
100
AcDbLine
 10
903.8529484292958
 20
3131.170224609319
 30
0.0
 11
903.8529484292958
 21
3131.170224609319
 31
0.0
  0
LINE
  5
E79
330
D0B
100
AcDbEntity
  8
0
 62
     0
100
AcDbLine
 10
898.8529484292957
 20
3131.170224609319
 30
0.0
 11
898.8529484292957
 21
3131.170224609319
 31
0.0
  0
LINE
  5
E7A
330
D0B
100
AcDbEntity
  8
0
 62
     0
100
AcDbLine
 10
893.8529484292958
 20
3131.170224609319
 30
0.0
 11
893.8529484292958
 21
3131.170224609319
 31
0.0
  0
LINE
  5
E7B
330
D0B
100
AcDbEntity
  8
0
 62
     0
100
AcDbLine
 10
888.8529484292957
 20
3131.170224609319
 30
0.0
 11
888.8529484292957
 21
3131.170224609319
 31
0.0
  0
LINE
  5
E7C
330
D0B
100
AcDbEntity
  8
0
 62
     0
100
AcDbLine
 10
883.8529484292958
 20
3131.170224609319
 30
0.0
 11
883.8529484292958
 21
3131.170224609319
 31
0.0
  0
LINE
  5
E7D
330
D0B
100
AcDbEntity
  8
0
 62
     0
100
AcDbLine
 10
878.8529484292958
 20
3131.170224609319
 30
0.0
 11
878.8529484292958
 21
3131.170224609319
 31
0.0
  0
LINE
  5
E7E
330
D0B
100
AcDbEntity
  8
0
 62
     0
100
AcDbLine
 10
873.8529484292957
 20
3131.170224609319
 30
0.0
 11
873.8529484292957
 21
3131.170224609319
 31
0.0
  0
LINE
  5
E7F
330
D0B
100
AcDbEntity
  8
0
 62
     0
100
AcDbLine
 10
868.8529484292958
 20
3131.170224609319
 30
0.0
 11
868.8529484292958
 21
3131.170224609319
 31
0.0
  0
LINE
  5
E80
330
D0B
100
AcDbEntity
  8
0
 62
     0
100
AcDbLine
 10
863.8529484292957
 20
3131.170224609319
 30
0.0
 11
863.8529484292957
 21
3131.170224609319
 31
0.0
  0
LINE
  5
E81
330
D0B
100
AcDbEntity
  8
0
 62
     0
100
AcDbLine
 10
858.8529484292958
 20
3131.170224609319
 30
0.0
 11
858.8529484292958
 21
3131.170224609319
 31
0.0
  0
LINE
  5
E82
330
D0B
100
AcDbEntity
  8
0
 62
     0
100
AcDbLine
 10
853.8529484292958
 20
3131.170224609319
 30
0.0
 11
853.8529484292958
 21
3131.170224609319
 31
0.0
  0
LINE
  5
E83
330
D0B
100
AcDbEntity
  8
0
 62
     0
100
AcDbLine
 10
848.8529484292957
 20
3131.170224609319
 30
0.0
 11
848.8529484292957
 21
3131.170224609319
 31
0.0
  0
LINE
  5
E84
330
D0B
100
AcDbEntity
  8
0
 62
     0
100
AcDbLine
 10
976.3529484292957
 20
3136.170224609319
 30
0.0
 11
976.3529484292957
 21
3136.170224609319
 31
0.0
  0
LINE
  5
E85
330
D0B
100
AcDbEntity
  8
0
 62
     0
100
AcDbLine
 10
971.3529484292958
 20
3136.170224609319
 30
0.0
 11
971.3529484292958
 21
3136.170224609319
 31
0.0
  0
LINE
  5
E86
330
D0B
100
AcDbEntity
  8
0
 62
     0
100
AcDbLine
 10
966.3529484292958
 20
3136.170224609319
 30
0.0
 11
966.3529484292958
 21
3136.170224609319
 31
0.0
  0
LINE
  5
E87
330
D0B
100
AcDbEntity
  8
0
 62
     0
100
AcDbLine
 10
961.3529484292957
 20
3136.170224609319
 30
0.0
 11
961.3529484292957
 21
3136.170224609319
 31
0.0
  0
LINE
  5
E88
330
D0B
100
AcDbEntity
  8
0
 62
     0
100
AcDbLine
 10
956.3529484292958
 20
3136.170224609319
 30
0.0
 11
956.3529484292958
 21
3136.170224609319
 31
0.0
  0
LINE
  5
E89
330
D0B
100
AcDbEntity
  8
0
 62
     0
100
AcDbLine
 10
951.3529484292957
 20
3136.170224609319
 30
0.0
 11
951.3529484292957
 21
3136.170224609319
 31
0.0
  0
LINE
  5
E8A
330
D0B
100
AcDbEntity
  8
0
 62
     0
100
AcDbLine
 10
946.3529484292958
 20
3136.170224609319
 30
0.0
 11
946.3529484292958
 21
3136.170224609319
 31
0.0
  0
LINE
  5
E8B
330
D0B
100
AcDbEntity
  8
0
 62
     0
100
AcDbLine
 10
941.3529484292958
 20
3136.170224609319
 30
0.0
 11
941.3529484292958
 21
3136.170224609319
 31
0.0
  0
LINE
  5
E8C
330
D0B
100
AcDbEntity
  8
0
 62
     0
100
AcDbLine
 10
936.3529484292957
 20
3136.170224609319
 30
0.0
 11
936.3529484292957
 21
3136.170224609319
 31
0.0
  0
LINE
  5
E8D
330
D0B
100
AcDbEntity
  8
0
 62
     0
100
AcDbLine
 10
931.3529484292958
 20
3136.170224609319
 30
0.0
 11
931.3529484292958
 21
3136.170224609319
 31
0.0
  0
LINE
  5
E8E
330
D0B
100
AcDbEntity
  8
0
 62
     0
100
AcDbLine
 10
926.3529484292957
 20
3136.170224609319
 30
0.0
 11
926.3529484292957
 21
3136.170224609319
 31
0.0
  0
LINE
  5
E8F
330
D0B
100
AcDbEntity
  8
0
 62
     0
100
AcDbLine
 10
921.3529484292958
 20
3136.170224609319
 30
0.0
 11
921.3529484292958
 21
3136.170224609319
 31
0.0
  0
LINE
  5
E90
330
D0B
100
AcDbEntity
  8
0
 62
     0
100
AcDbLine
 10
916.3529484292958
 20
3136.170224609319
 30
0.0
 11
916.3529484292958
 21
3136.170224609319
 31
0.0
  0
LINE
  5
E91
330
D0B
100
AcDbEntity
  8
0
 62
     0
100
AcDbLine
 10
911.3529484292957
 20
3136.170224609319
 30
0.0
 11
911.3529484292957
 21
3136.170224609319
 31
0.0
  0
LINE
  5
E92
330
D0B
100
AcDbEntity
  8
0
 62
     0
100
AcDbLine
 10
906.3529484292958
 20
3136.170224609319
 30
0.0
 11
906.3529484292958
 21
3136.170224609319
 31
0.0
  0
LINE
  5
E93
330
D0B
100
AcDbEntity
  8
0
 62
     0
100
AcDbLine
 10
901.3529484292957
 20
3136.170224609319
 30
0.0
 11
901.3529484292957
 21
3136.170224609319
 31
0.0
  0
LINE
  5
E94
330
D0B
100
AcDbEntity
  8
0
 62
     0
100
AcDbLine
 10
896.3529484292958
 20
3136.170224609319
 30
0.0
 11
896.3529484292958
 21
3136.170224609319
 31
0.0
  0
LINE
  5
E95
330
D0B
100
AcDbEntity
  8
0
 62
     0
100
AcDbLine
 10
891.3529484292958
 20
3136.170224609319
 30
0.0
 11
891.3529484292958
 21
3136.170224609319
 31
0.0
  0
LINE
  5
E96
330
D0B
100
AcDbEntity
  8
0
 62
     0
100
AcDbLine
 10
886.3529484292957
 20
3136.170224609319
 30
0.0
 11
886.3529484292957
 21
3136.170224609319
 31
0.0
  0
LINE
  5
E97
330
D0B
100
AcDbEntity
  8
0
 62
     0
100
AcDbLine
 10
881.3529484292958
 20
3136.170224609319
 30
0.0
 11
881.3529484292958
 21
3136.170224609319
 31
0.0
  0
LINE
  5
E98
330
D0B
100
AcDbEntity
  8
0
 62
     0
100
AcDbLine
 10
876.3529484292957
 20
3136.170224609319
 30
0.0
 11
876.3529484292957
 21
3136.170224609319
 31
0.0
  0
LINE
  5
E99
330
D0B
100
AcDbEntity
  8
0
 62
     0
100
AcDbLine
 10
871.3529484292958
 20
3136.170224609319
 30
0.0
 11
871.3529484292958
 21
3136.170224609319
 31
0.0
  0
LINE
  5
E9A
330
D0B
100
AcDbEntity
  8
0
 62
     0
100
AcDbLine
 10
866.3529484292958
 20
3136.170224609319
 30
0.0
 11
866.3529484292958
 21
3136.170224609319
 31
0.0
  0
LINE
  5
E9B
330
D0B
100
AcDbEntity
  8
0
 62
     0
100
AcDbLine
 10
861.3529484292957
 20
3136.170224609319
 30
0.0
 11
861.3529484292957
 21
3136.170224609319
 31
0.0
  0
LINE
  5
E9C
330
D0B
100
AcDbEntity
  8
0
 62
     0
100
AcDbLine
 10
856.3529484292958
 20
3136.170224609319
 30
0.0
 11
856.3529484292958
 21
3136.170224609319
 31
0.0
  0
LINE
  5
E9D
330
D0B
100
AcDbEntity
  8
0
 62
     0
100
AcDbLine
 10
851.3529484292957
 20
3136.170224609319
 30
0.0
 11
851.3529484292957
 21
3136.170224609319
 31
0.0
  0
LINE
  5
E9E
330
D0B
100
AcDbEntity
  8
0
 62
     0
100
AcDbLine
 10
973.8529484292957
 20
3141.170224609318
 30
0.0
 11
973.8529484292957
 21
3141.170224609318
 31
0.0
  0
LINE
  5
E9F
330
D0B
100
AcDbEntity
  8
0
 62
     0
100
AcDbLine
 10
968.8529484292958
 20
3141.170224609318
 30
0.0
 11
968.8529484292958
 21
3141.170224609318
 31
0.0
  0
LINE
  5
EA0
330
D0B
100
AcDbEntity
  8
0
 62
     0
100
AcDbLine
 10
963.8529484292957
 20
3141.170224609318
 30
0.0
 11
963.8529484292957
 21
3141.170224609318
 31
0.0
  0
LINE
  5
EA1
330
D0B
100
AcDbEntity
  8
0
 62
     0
100
AcDbLine
 10
958.8529484292958
 20
3141.170224609318
 30
0.0
 11
958.8529484292958
 21
3141.170224609318
 31
0.0
  0
LINE
  5
EA2
330
D0B
100
AcDbEntity
  8
0
 62
     0
100
AcDbLine
 10
953.8529484292958
 20
3141.170224609318
 30
0.0
 11
953.8529484292958
 21
3141.170224609318
 31
0.0
  0
LINE
  5
EA3
330
D0B
100
AcDbEntity
  8
0
 62
     0
100
AcDbLine
 10
948.8529484292957
 20
3141.170224609318
 30
0.0
 11
948.8529484292957
 21
3141.170224609318
 31
0.0
  0
LINE
  5
EA4
330
D0B
100
AcDbEntity
  8
0
 62
     0
100
AcDbLine
 10
943.8529484292958
 20
3141.170224609318
 30
0.0
 11
943.8529484292958
 21
3141.170224609318
 31
0.0
  0
LINE
  5
EA5
330
D0B
100
AcDbEntity
  8
0
 62
     0
100
AcDbLine
 10
938.8529484292957
 20
3141.170224609318
 30
0.0
 11
938.8529484292957
 21
3141.170224609318
 31
0.0
  0
LINE
  5
EA6
330
D0B
100
AcDbEntity
  8
0
 62
     0
100
AcDbLine
 10
933.8529484292958
 20
3141.170224609318
 30
0.0
 11
933.8529484292958
 21
3141.170224609318
 31
0.0
  0
LINE
  5
EA7
330
D0B
100
AcDbEntity
  8
0
 62
     0
100
AcDbLine
 10
928.8529484292958
 20
3141.170224609318
 30
0.0
 11
928.8529484292958
 21
3141.170224609318
 31
0.0
  0
LINE
  5
EA8
330
D0B
100
AcDbEntity
  8
0
 62
     0
100
AcDbLine
 10
923.8529484292957
 20
3141.170224609318
 30
0.0
 11
923.8529484292957
 21
3141.170224609318
 31
0.0
  0
LINE
  5
EA9
330
D0B
100
AcDbEntity
  8
0
 62
     0
100
AcDbLine
 10
918.8529484292958
 20
3141.170224609318
 30
0.0
 11
918.8529484292958
 21
3141.170224609318
 31
0.0
  0
LINE
  5
EAA
330
D0B
100
AcDbEntity
  8
0
 62
     0
100
AcDbLine
 10
913.8529484292957
 20
3141.170224609318
 30
0.0
 11
913.8529484292957
 21
3141.170224609318
 31
0.0
  0
LINE
  5
EAB
330
D0B
100
AcDbEntity
  8
0
 62
     0
100
AcDbLine
 10
908.8529484292958
 20
3141.170224609318
 30
0.0
 11
908.8529484292958
 21
3141.170224609318
 31
0.0
  0
LINE
  5
EAC
330
D0B
100
AcDbEntity
  8
0
 62
     0
100
AcDbLine
 10
903.8529484292958
 20
3141.170224609318
 30
0.0
 11
903.8529484292958
 21
3141.170224609318
 31
0.0
  0
LINE
  5
EAD
330
D0B
100
AcDbEntity
  8
0
 62
     0
100
AcDbLine
 10
898.8529484292957
 20
3141.170224609318
 30
0.0
 11
898.8529484292957
 21
3141.170224609318
 31
0.0
  0
LINE
  5
EAE
330
D0B
100
AcDbEntity
  8
0
 62
     0
100
AcDbLine
 10
893.8529484292958
 20
3141.170224609318
 30
0.0
 11
893.8529484292958
 21
3141.170224609318
 31
0.0
  0
LINE
  5
EAF
330
D0B
100
AcDbEntity
  8
0
 62
     0
100
AcDbLine
 10
888.8529484292957
 20
3141.170224609318
 30
0.0
 11
888.8529484292957
 21
3141.170224609318
 31
0.0
  0
LINE
  5
EB0
330
D0B
100
AcDbEntity
  8
0
 62
     0
100
AcDbLine
 10
883.8529484292958
 20
3141.170224609318
 30
0.0
 11
883.8529484292958
 21
3141.170224609318
 31
0.0
  0
LINE
  5
EB1
330
D0B
100
AcDbEntity
  8
0
 62
     0
100
AcDbLine
 10
878.8529484292958
 20
3141.170224609318
 30
0.0
 11
878.8529484292958
 21
3141.170224609318
 31
0.0
  0
LINE
  5
EB2
330
D0B
100
AcDbEntity
  8
0
 62
     0
100
AcDbLine
 10
873.8529484292957
 20
3141.170224609318
 30
0.0
 11
873.8529484292957
 21
3141.170224609318
 31
0.0
  0
LINE
  5
EB3
330
D0B
100
AcDbEntity
  8
0
 62
     0
100
AcDbLine
 10
868.8529484292958
 20
3141.170224609318
 30
0.0
 11
868.8529484292958
 21
3141.170224609318
 31
0.0
  0
LINE
  5
EB4
330
D0B
100
AcDbEntity
  8
0
 62
     0
100
AcDbLine
 10
863.8529484292957
 20
3141.170224609318
 30
0.0
 11
863.8529484292957
 21
3141.170224609318
 31
0.0
  0
LINE
  5
EB5
330
D0B
100
AcDbEntity
  8
0
 62
     0
100
AcDbLine
 10
858.8529484292958
 20
3141.170224609318
 30
0.0
 11
858.8529484292958
 21
3141.170224609318
 31
0.0
  0
LINE
  5
EB6
330
D0B
100
AcDbEntity
  8
0
 62
     0
100
AcDbLine
 10
853.8529484292958
 20
3141.170224609318
 30
0.0
 11
853.8529484292958
 21
3141.170224609318
 31
0.0
  0
LINE
  5
EB7
330
D0B
100
AcDbEntity
  8
0
 62
     0
100
AcDbLine
 10
971.3529484292958
 20
3146.170224609318
 30
0.0
 11
971.3529484292958
 21
3146.170224609318
 31
0.0
  0
LINE
  5
EB8
330
D0B
100
AcDbEntity
  8
0
 62
     0
100
AcDbLine
 10
966.3529484292958
 20
3146.170224609318
 30
0.0
 11
966.3529484292958
 21
3146.170224609318
 31
0.0
  0
LINE
  5
EB9
330
D0B
100
AcDbEntity
  8
0
 62
     0
100
AcDbLine
 10
961.3529484292957
 20
3146.170224609318
 30
0.0
 11
961.3529484292957
 21
3146.170224609318
 31
0.0
  0
LINE
  5
EBA
330
D0B
100
AcDbEntity
  8
0
 62
     0
100
AcDbLine
 10
956.3529484292958
 20
3146.170224609318
 30
0.0
 11
956.3529484292958
 21
3146.170224609318
 31
0.0
  0
LINE
  5
EBB
330
D0B
100
AcDbEntity
  8
0
 62
     0
100
AcDbLine
 10
951.3529484292957
 20
3146.170224609318
 30
0.0
 11
951.3529484292957
 21
3146.170224609318
 31
0.0
  0
LINE
  5
EBC
330
D0B
100
AcDbEntity
  8
0
 62
     0
100
AcDbLine
 10
946.3529484292958
 20
3146.170224609318
 30
0.0
 11
946.3529484292958
 21
3146.170224609318
 31
0.0
  0
LINE
  5
EBD
330
D0B
100
AcDbEntity
  8
0
 62
     0
100
AcDbLine
 10
941.3529484292958
 20
3146.170224609318
 30
0.0
 11
941.3529484292958
 21
3146.170224609318
 31
0.0
  0
LINE
  5
EBE
330
D0B
100
AcDbEntity
  8
0
 62
     0
100
AcDbLine
 10
936.3529484292957
 20
3146.170224609318
 30
0.0
 11
936.3529484292957
 21
3146.170224609318
 31
0.0
  0
LINE
  5
EBF
330
D0B
100
AcDbEntity
  8
0
 62
     0
100
AcDbLine
 10
931.3529484292958
 20
3146.170224609318
 30
0.0
 11
931.3529484292958
 21
3146.170224609318
 31
0.0
  0
LINE
  5
EC0
330
D0B
100
AcDbEntity
  8
0
 62
     0
100
AcDbLine
 10
926.3529484292957
 20
3146.170224609318
 30
0.0
 11
926.3529484292957
 21
3146.170224609318
 31
0.0
  0
LINE
  5
EC1
330
D0B
100
AcDbEntity
  8
0
 62
     0
100
AcDbLine
 10
921.3529484292958
 20
3146.170224609318
 30
0.0
 11
921.3529484292958
 21
3146.170224609318
 31
0.0
  0
LINE
  5
EC2
330
D0B
100
AcDbEntity
  8
0
 62
     0
100
AcDbLine
 10
916.3529484292958
 20
3146.170224609318
 30
0.0
 11
916.3529484292958
 21
3146.170224609318
 31
0.0
  0
LINE
  5
EC3
330
D0B
100
AcDbEntity
  8
0
 62
     0
100
AcDbLine
 10
911.3529484292957
 20
3146.170224609318
 30
0.0
 11
911.3529484292957
 21
3146.170224609318
 31
0.0
  0
LINE
  5
EC4
330
D0B
100
AcDbEntity
  8
0
 62
     0
100
AcDbLine
 10
906.3529484292958
 20
3146.170224609318
 30
0.0
 11
906.3529484292958
 21
3146.170224609318
 31
0.0
  0
LINE
  5
EC5
330
D0B
100
AcDbEntity
  8
0
 62
     0
100
AcDbLine
 10
901.3529484292957
 20
3146.170224609318
 30
0.0
 11
901.3529484292957
 21
3146.170224609318
 31
0.0
  0
LINE
  5
EC6
330
D0B
100
AcDbEntity
  8
0
 62
     0
100
AcDbLine
 10
896.3529484292958
 20
3146.170224609318
 30
0.0
 11
896.3529484292958
 21
3146.170224609318
 31
0.0
  0
LINE
  5
EC7
330
D0B
100
AcDbEntity
  8
0
 62
     0
100
AcDbLine
 10
891.3529484292958
 20
3146.170224609318
 30
0.0
 11
891.3529484292958
 21
3146.170224609318
 31
0.0
  0
LINE
  5
EC8
330
D0B
100
AcDbEntity
  8
0
 62
     0
100
AcDbLine
 10
886.3529484292957
 20
3146.170224609318
 30
0.0
 11
886.3529484292957
 21
3146.170224609318
 31
0.0
  0
LINE
  5
EC9
330
D0B
100
AcDbEntity
  8
0
 62
     0
100
AcDbLine
 10
881.3529484292958
 20
3146.170224609318
 30
0.0
 11
881.3529484292958
 21
3146.170224609318
 31
0.0
  0
LINE
  5
ECA
330
D0B
100
AcDbEntity
  8
0
 62
     0
100
AcDbLine
 10
876.3529484292957
 20
3146.170224609318
 30
0.0
 11
876.3529484292957
 21
3146.170224609318
 31
0.0
  0
LINE
  5
ECB
330
D0B
100
AcDbEntity
  8
0
 62
     0
100
AcDbLine
 10
871.3529484292958
 20
3146.170224609318
 30
0.0
 11
871.3529484292958
 21
3146.170224609318
 31
0.0
  0
LINE
  5
ECC
330
D0B
100
AcDbEntity
  8
0
 62
     0
100
AcDbLine
 10
866.3529484292958
 20
3146.170224609318
 30
0.0
 11
866.3529484292958
 21
3146.170224609318
 31
0.0
  0
LINE
  5
ECD
330
D0B
100
AcDbEntity
  8
0
 62
     0
100
AcDbLine
 10
861.3529484292957
 20
3146.170224609318
 30
0.0
 11
861.3529484292957
 21
3146.170224609318
 31
0.0
  0
LINE
  5
ECE
330
D0B
100
AcDbEntity
  8
0
 62
     0
100
AcDbLine
 10
856.3529484292958
 20
3146.170224609318
 30
0.0
 11
856.3529484292958
 21
3146.170224609318
 31
0.0
  0
LINE
  5
ECF
330
D0B
100
AcDbEntity
  8
0
 62
     0
100
AcDbLine
 10
918.8529484292958
 20
3151.170224609318
 30
0.0
 11
918.8529484292958
 21
3151.170224609318
 31
0.0
  0
LINE
  5
ED0
330
D0B
100
AcDbEntity
  8
0
 62
     0
100
AcDbLine
 10
913.8529484292957
 20
3151.170224609318
 30
0.0
 11
913.8529484292957
 21
3151.170224609318
 31
0.0
  0
LINE
  5
ED1
330
D0B
100
AcDbEntity
  8
0
 62
     0
100
AcDbLine
 10
908.8529484292958
 20
3151.170224609318
 30
0.0
 11
908.8529484292958
 21
3151.170224609318
 31
0.0
  0
LINE
  5
ED2
330
D0B
100
AcDbEntity
  8
0
 62
     0
100
AcDbLine
 10
968.8529484292958
 20
3151.170224609318
 30
0.0
 11
968.8529484292958
 21
3151.170224609318
 31
0.0
  0
LINE
  5
ED3
330
D0B
100
AcDbEntity
  8
0
 62
     0
100
AcDbLine
 10
963.8529484292957
 20
3151.170224609318
 30
0.0
 11
963.8529484292957
 21
3151.170224609318
 31
0.0
  0
LINE
  5
ED4
330
D0B
100
AcDbEntity
  8
0
 62
     0
100
AcDbLine
 10
958.8529484292958
 20
3151.170224609318
 30
0.0
 11
958.8529484292958
 21
3151.170224609318
 31
0.0
  0
LINE
  5
ED5
330
D0B
100
AcDbEntity
  8
0
 62
     0
100
AcDbLine
 10
953.8529484292958
 20
3151.170224609318
 30
0.0
 11
953.8529484292958
 21
3151.170224609318
 31
0.0
  0
LINE
  5
ED6
330
D0B
100
AcDbEntity
  8
0
 62
     0
100
AcDbLine
 10
948.8529484292957
 20
3151.170224609318
 30
0.0
 11
948.8529484292957
 21
3151.170224609318
 31
0.0
  0
LINE
  5
ED7
330
D0B
100
AcDbEntity
  8
0
 62
     0
100
AcDbLine
 10
943.8529484292958
 20
3151.170224609318
 30
0.0
 11
943.8529484292958
 21
3151.170224609318
 31
0.0
  0
LINE
  5
ED8
330
D0B
100
AcDbEntity
  8
0
 62
     0
100
AcDbLine
 10
938.8529484292957
 20
3151.170224609318
 30
0.0
 11
938.8529484292957
 21
3151.170224609318
 31
0.0
  0
LINE
  5
ED9
330
D0B
100
AcDbEntity
  8
0
 62
     0
100
AcDbLine
 10
933.8529484292958
 20
3151.170224609318
 30
0.0
 11
933.8529484292958
 21
3151.170224609318
 31
0.0
  0
LINE
  5
EDA
330
D0B
100
AcDbEntity
  8
0
 62
     0
100
AcDbLine
 10
928.8529484292958
 20
3151.170224609318
 30
0.0
 11
928.8529484292958
 21
3151.170224609318
 31
0.0
  0
LINE
  5
EDB
330
D0B
100
AcDbEntity
  8
0
 62
     0
100
AcDbLine
 10
898.8529484292957
 20
3151.170224609318
 30
0.0
 11
898.8529484292957
 21
3151.170224609318
 31
0.0
  0
LINE
  5
EDC
330
D0B
100
AcDbEntity
  8
0
 62
     0
100
AcDbLine
 10
893.8529484292958
 20
3151.170224609318
 30
0.0
 11
893.8529484292958
 21
3151.170224609318
 31
0.0
  0
LINE
  5
EDD
330
D0B
100
AcDbEntity
  8
0
 62
     0
100
AcDbLine
 10
888.8529484292957
 20
3151.170224609318
 30
0.0
 11
888.8529484292957
 21
3151.170224609318
 31
0.0
  0
LINE
  5
EDE
330
D0B
100
AcDbEntity
  8
0
 62
     0
100
AcDbLine
 10
883.8529484292958
 20
3151.170224609318
 30
0.0
 11
883.8529484292958
 21
3151.170224609318
 31
0.0
  0
LINE
  5
EDF
330
D0B
100
AcDbEntity
  8
0
 62
     0
100
AcDbLine
 10
878.8529484292958
 20
3151.170224609318
 30
0.0
 11
878.8529484292958
 21
3151.170224609318
 31
0.0
  0
LINE
  5
EE0
330
D0B
100
AcDbEntity
  8
0
 62
     0
100
AcDbLine
 10
873.8529484292957
 20
3151.170224609318
 30
0.0
 11
873.8529484292957
 21
3151.170224609318
 31
0.0
  0
LINE
  5
EE1
330
D0B
100
AcDbEntity
  8
0
 62
     0
100
AcDbLine
 10
868.8529484292958
 20
3151.170224609318
 30
0.0
 11
868.8529484292958
 21
3151.170224609318
 31
0.0
  0
LINE
  5
EE2
330
D0B
100
AcDbEntity
  8
0
 62
     0
100
AcDbLine
 10
863.8529484292957
 20
3151.170224609318
 30
0.0
 11
863.8529484292957
 21
3151.170224609318
 31
0.0
  0
LINE
  5
EE3
330
D0B
100
AcDbEntity
  8
0
 62
     0
100
AcDbLine
 10
858.8529484292958
 20
3151.170224609318
 30
0.0
 11
858.8529484292958
 21
3151.170224609318
 31
0.0
  0
LINE
  5
EE4
330
D0B
100
AcDbEntity
  8
0
 62
     0
100
AcDbLine
 10
916.3529484292958
 20
3156.170224609319
 30
0.0
 11
916.3529484292958
 21
3156.170224609319
 31
0.0
  0
LINE
  5
EE5
330
D0B
100
AcDbEntity
  8
0
 62
     0
100
AcDbLine
 10
961.3529484292957
 20
3156.170224609319
 30
0.0
 11
961.3529484292957
 21
3156.170224609319
 31
0.0
  0
LINE
  5
EE6
330
D0B
100
AcDbEntity
  8
0
 62
     0
100
AcDbLine
 10
956.3529484292958
 20
3156.170224609319
 30
0.0
 11
956.3529484292958
 21
3156.170224609319
 31
0.0
  0
LINE
  5
EE7
330
D0B
100
AcDbEntity
  8
0
 62
     0
100
AcDbLine
 10
951.3529484292957
 20
3156.170224609319
 30
0.0
 11
951.3529484292957
 21
3156.170224609319
 31
0.0
  0
LINE
  5
EE8
330
D0B
100
AcDbEntity
  8
0
 62
     0
100
AcDbLine
 10
946.3529484292958
 20
3156.170224609319
 30
0.0
 11
946.3529484292958
 21
3156.170224609319
 31
0.0
  0
LINE
  5
EE9
330
D0B
100
AcDbEntity
  8
0
 62
     0
100
AcDbLine
 10
941.3529484292958
 20
3156.170224609319
 30
0.0
 11
941.3529484292958
 21
3156.170224609319
 31
0.0
  0
LINE
  5
EEA
330
D0B
100
AcDbEntity
  8
0
 62
     0
100
AcDbLine
 10
936.3529484292957
 20
3156.170224609319
 30
0.0
 11
936.3529484292957
 21
3156.170224609319
 31
0.0
  0
LINE
  5
EEB
330
D0B
100
AcDbEntity
  8
0
 62
     0
100
AcDbLine
 10
891.3529484292958
 20
3156.170224609319
 30
0.0
 11
891.3529484292958
 21
3156.170224609319
 31
0.0
  0
LINE
  5
EEC
330
D0B
100
AcDbEntity
  8
0
 62
     0
100
AcDbLine
 10
886.3529484292957
 20
3156.170224609319
 30
0.0
 11
886.3529484292957
 21
3156.170224609319
 31
0.0
  0
LINE
  5
EED
330
D0B
100
AcDbEntity
  8
0
 62
     0
100
AcDbLine
 10
881.3529484292958
 20
3156.170224609319
 30
0.0
 11
881.3529484292958
 21
3156.170224609319
 31
0.0
  0
LINE
  5
EEE
330
D0B
100
AcDbEntity
  8
0
 62
     0
100
AcDbLine
 10
876.3529484292957
 20
3156.170224609319
 30
0.0
 11
876.3529484292957
 21
3156.170224609319
 31
0.0
  0
LINE
  5
EEF
330
D0B
100
AcDbEntity
  8
0
 62
     0
100
AcDbLine
 10
871.3529484292958
 20
3156.170224609319
 30
0.0
 11
871.3529484292958
 21
3156.170224609319
 31
0.0
  0
LINE
  5
EF0
330
D0B
100
AcDbEntity
  8
0
 62
     0
100
AcDbLine
 10
866.3529484292958
 20
3156.170224609319
 30
0.0
 11
866.3529484292958
 21
3156.170224609319
 31
0.0
  0
ENDBLK
  5
EF1
330
D0B
100
AcDbEntity
  8
0
100
AcDbBlockEnd
  0
BLOCK
  5
158C
330
1582
100
AcDbEntity
  8
0
100
AcDbBlockBegin
  2
*D8
 70
     1
 10
0.0
 20
0.0
 30
0.0
  3
*D8
  1

  0
LINE
  5
15C8
330
1582
100
AcDbEntity
  8
SUNPOU
 62
    70
370
    -2
100
AcDbLine
 10
4.068011182261785
 20
195.5214560529463
 30
0.0
 11
4.068011182261787
 21
226.0873487274362
 31
0.0
  0
LINE
  5
15C9
330
1582
100
AcDbEntity
  8
SUNPOU
 62
    70
370
    -2
100
AcDbLine
 10
144.0680111822619
 20
194.8340775386668
 30
0.0
 11
144.0680111822619
 21
226.0873487274362
 31
0.0
  0
LINE
  5
15CA
330
1582
100
AcDbEntity
  8
SUNPOU
 62
    60
370
    -2
100
AcDbLine
 10
6.068011182261787
 20
226.0873487274362
 30
0.0
 11
142.0680111822619
 21
226.0873487274362
 31
0.0
  0
INSERT
  5
15CB
330
1582
100
AcDbEntity
  8
SUNPOU
 62
    60
370
    -2
100
AcDbBlockReference
  2
_Dot
 10
4.068011182261787
 20
226.0873487274362
 30
0.0
 41
2.0
 42
2.0
 43
2.0
 50
180.0
  0
INSERT
  5
15CC
330
1582
100
AcDbEntity
  8
SUNPOU
 62
    60
370
    -2
100
AcDbBlockReference
  2
_Dot
 10
144.0680111822619
 20
226.0873487274362
 30
0.0
 41
2.0
 42
2.0
 43
2.0
  0
MTEXT
  5
15CD
330
1582
100
AcDbEntity
  8
SUNPOU
 62
    60
100
AcDbMText
 10
74.06801118226184
 20
234.0873487274361
 30
0.0
 40
10.0
 41
0.0
 71
     5
 72
     1
  1
\A1;140
  7
SUNPOU
 73
     1
 44
1.0
1001
ACAD
1000
MTEXTBEGIN
1070
    73
1070
     1
1070
    44
1040
1.0
1070
    74
1070
     0
1000
MTEXTEND
  0
POINT
  5
15CE
330
1582
100
AcDbEntity
  8
DEFPOINTS
 62
     0
100
AcDbPoint
 10
4.068011182261784
 20
185.5214560529463
 30
0.0
  0
POINT
  5
15CF
330
1582
100
AcDbEntity
  8
DEFPOINTS
 62
     0
100
AcDbPoint
 10
144.0680111822619
 20
184.8340775386668
 30
0.0
  0
POINT
  5
15D0
330
1582
100
AcDbEntity
  8
DEFPOINTS
 62
     0
100
AcDbPoint
 10
144.0680111822619
 20
226.0873487274362
 30
0.0
  0
ENDBLK
  5
158D
330
1582
100
AcDbEntity
  8
0
100
AcDbBlockEnd
  0
BLOCK
  5
1599
330
158F
100
AcDbEntity
  8
0
100
AcDbBlockBegin
  2
*D9
 70
     1
 10
0.0
 20
0.0
 30
0.0
  3
*D9
  1

  0
LINE
  5
15B6
330
158F
100
AcDbEntity
  8
SUNPOU
 62
    70
370
    -2
100
AcDbLine
 10
-5.931988817738215
 20
185.5214560529463
 30
0.0
 11
-36.49083976754147
 21
185.5214560529463
 31
0.0
  0
LINE
  5
15B7
330
158F
100
AcDbEntity
  8
SUNPOU
 62
    70
370
    -2
100
AcDbLine
 10
-7.324421575229508
 20
45.52145605294628
 30
0.0
 11
-36.4908397675415
 21
45.52145605294629
 31
0.0
  0
LINE
  5
15B8
330
158F
100
AcDbEntity
  8
SUNPOU
 62
    60
370
    -2
100
AcDbLine
 10
-36.49083976754147
 20
183.5214560529463
 30
0.0
 11
-36.4908397675415
 21
47.5214560529463
 31
0.0
  0
INSERT
  5
15B9
330
158F
100
AcDbEntity
  8
SUNPOU
 62
    60
370
    -2
100
AcDbBlockReference
  2
_Dot
 10
-36.49083976754147
 20
185.5214560529463
 30
0.0
 41
2.0
 42
2.0
 43
2.0
 50
90.0
  0
INSERT
  5
15BA
330
158F
100
AcDbEntity
  8
SUNPOU
 62
    60
370
    -2
100
AcDbBlockReference
  2
_Dot
 10
-36.4908397675415
 20
45.52145605294629
 30
0.0
 41
2.0
 42
2.0
 43
2.0
 50
270.0
  0
MTEXT
  5
15BB
330
158F
100
AcDbEntity
  8
SUNPOU
 62
    60
100
AcDbMText
 10
-44.4908397675415
 20
115.5214560529463
 30
0.0
 40
10.0
 41
0.0
 71
     5
 72
     1
  1
\A1;140
  7
SUNPOU
 11
0.0000000000000001
 21
1.0
 31
0.0
 73
     1
 44
1.0
1001
ACAD
1000
MTEXTBEGIN
1070
    73
1070
     1
1070
    44
1040
1.0
1070
    74
1070
     0
1000
MTEXTEND
  0
POINT
  5
15BC
330
158F
100
AcDbEntity
  8
DEFPOINTS
 62
     0
100
AcDbPoint
 10
4.068011182261784
 20
185.5214560529463
 30
0.0
  0
POINT
  5
15BD
330
158F
100
AcDbEntity
  8
DEFPOINTS
 62
     0
100
AcDbPoint
 10
2.675578424770492
 20
45.52145605294628
 30
0.0
  0
POINT
  5
15BE
330
158F
100
AcDbEntity
  8
DEFPOINTS
 62
     0
100
AcDbPoint
 10
-36.4908397675415
 20
45.52145605294629
 30
0.0
  0
ENDBLK
  5
159A
330
158F
100
AcDbEntity
  8
0
100
AcDbBlockEnd
  0
BLOCK
  5
166A
330
1660
100
AcDbEntity
  8
0
100
AcDbBlockBegin
  2
*D11
 70
     1
 10
0.0
 20
0.0
 30
0.0
  3
*D11
  1

  0
LINE
  5
1661
330
1660
100
AcDbEntity
  8
SUNPOU
 62
    70
370
    -2
100
AcDbLine
 10
-8.907855987643644
 20
122.9787477197707
 30
0.0
 11
-8.907855987643639
 21
206.207810088624
 31
0.0
  0
LINE
  5
1662
330
1660
100
AcDbEntity
  8
SUNPOU
 62
    70
370
    -2
100
AcDbLine
 10
129.092144012425
 20
122.9787477197557
 30
0.0
 11
129.092144012425
 21
206.207810088624
 31
0.0
  0
LINE
  5
1663
330
1660
100
AcDbEntity
  8
SUNPOU
 62
    60
370
    -2
100
AcDbLine
 10
-6.907855987643639
 20
206.207810088624
 30
0.0
 11
127.092144012425
 21
206.207810088624
 31
0.0
  0
INSERT
  5
1664
330
1660
100
AcDbEntity
  8
SUNPOU
 62
    60
370
    -2
100
AcDbBlockReference
  2
_Dot
 10
-8.907855987643639
 20
206.207810088624
 30
0.0
 41
2.0
 42
2.0
 43
2.0
 50
180.0
  0
INSERT
  5
1665
330
1660
100
AcDbEntity
  8
SUNPOU
 62
    60
370
    -2
100
AcDbBlockReference
  2
_Dot
 10
129.092144012425
 20
206.207810088624
 30
0.0
 41
2.0
 42
2.0
 43
2.0
  0
MTEXT
  5
1666
330
1660
100
AcDbEntity
  8
SUNPOU
 62
    60
100
AcDbMText
 10
60.09214401239069
 20
214.207810088624
 30
0.0
 40
10.0
 41
0.0
 71
     5
 72
     1
  1
\A1;138
  7
SUNPOU
 73
     1
 44
1.0
1001
ACAD
1000
MTEXTBEGIN
1070
    73
1070
     1
1070
    44
1040
1.0
1070
    74
1070
     0
1000
MTEXTEND
  0
POINT
  5
1667
330
1660
100
AcDbEntity
  8
DEFPOINTS
 62
     0
100
AcDbPoint
 10
-8.907855987643644
 20
112.9787477197707
 30
0.0
  0
POINT
  5
1668
330
1660
100
AcDbEntity
  8
DEFPOINTS
 62
     0
100
AcDbPoint
 10
129.092144012425
 20
112.9787477197557
 30
0.0
  0
POINT
  5
1669
330
1660
100
AcDbEntity
  8
DEFPOINTS
 62
     0
100
AcDbPoint
 10
129.092144012425
 20
206.207810088624
 30
0.0
  0
ENDBLK
  5
166B
330
1660
100
AcDbEntity
  8
0
100
AcDbBlockEnd
  0
BLOCK
  5
1680
330
1676
100
AcDbEntity
  8
0
100
AcDbBlockBegin
  2
*D12
 70
     1
 10
0.0
 20
0.0
 30
0.0
  3
*D12
  1

  0
LINE
  5
1683
330
1676
100
AcDbEntity
  8
SUNPOU
 62
    70
370
    -2
100
AcDbLine
 10
-8.407855987643642
 20
122.9787477197698
 30
0.0
 11
-8.407855987643637
 21
208.3061810304773
 31
0.0
  0
LINE
  5
1684
330
1676
100
AcDbEntity
  8
SUNPOU
 62
    70
370
    -2
100
AcDbLine
 10
128.5921440123563
 20
122.9787477197698
 30
0.0
 11
128.5921440123563
 21
208.3061810304773
 31
0.0
  0
LINE
  5
1685
330
1676
100
AcDbEntity
  8
SUNPOU
 62
    60
370
    -2
100
AcDbLine
 10
-6.407855987643637
 20
208.3061810304773
 30
0.0
 11
126.5921440123563
 21
208.3061810304773
 31
0.0
  0
INSERT
  5
1686
330
1676
100
AcDbEntity
  8
SUNPOU
 62
    60
370
    -2
100
AcDbBlockReference
  2
_Dot
 10
-8.407855987643637
 20
208.3061810304773
 30
0.0
 41
2.0
 42
2.0
 43
2.0
 50
180.0
  0
INSERT
  5
1687
330
1676
100
AcDbEntity
  8
SUNPOU
 62
    60
370
    -2
100
AcDbBlockReference
  2
_Dot
 10
128.5921440123563
 20
208.3061810304773
 30
0.0
 41
2.0
 42
2.0
 43
2.0
  0
MTEXT
  5
1688
330
1676
100
AcDbEntity
  8
SUNPOU
 62
    60
100
AcDbMText
 10
60.09214401235635
 20
216.3061810304773
 30
0.0
 40
10.0
 41
0.0
 71
     5
 72
     1
  1
\A1;137φ
  7
SUNPOU
 73
     1
 44
1.0
1001
ACAD
1000
MTEXTBEGIN
1070
    73
1070
     1
1070
    44
1040
1.0
1070
    74
1070
     0
1000
MTEXTEND
  0
POINT
  5
1689
330
1676
100
AcDbEntity
  8
DEFPOINTS
 62
     0
100
AcDbPoint
 10
-8.407855987643642
 20
112.9787477197698
 30
0.0
  0
POINT
  5
168A
330
1676
100
AcDbEntity
  8
DEFPOINTS
 62
     0
100
AcDbPoint
 10
128.5921440123563
 20
112.9787477197698
 30
0.0
  0
POINT
  5
168B
330
1676
100
AcDbEntity
  8
DEFPOINTS
 62
     0
100
AcDbPoint
 10
128.5921440123563
 20
208.3061810304773
 30
0.0
  0
ENDBLK
  5
1681
330
1676
100
AcDbEntity
  8
0
100
AcDbBlockEnd
  0
BLOCK
  5
1699
330
1698
100
AcDbEntity
  8
0
100
AcDbBlockBegin
  2
*X13
 70
     1
 10
0.0
 20
0.0
 30
0.0
  3
*X13
  1

  0
LINE
  5
169A
330
1698
100
AcDbEntity
  8
0
 62
     0
100
AcDbLine
 10
1758.994486309966
 20
3112.550177396347
 30
0.0
 11
1763.740693960382
 21
3117.001834135451
 31
0.0
  0
LINE
  5
169B
330
1698
100
AcDbEntity
  8
0
 62
     0
100
AcDbLine
 10
1758.587146133504
 20
3113.881907862102
 30
0.0
 11
1761.023933547388
 21
3116.167467599851
 31
0.0
  0
LINE
  5
169C
330
1698
100
AcDbEntity
  8
0
 62
     0
100
AcDbLine
 10
1757.677943055452
 20
3114.742921171659
 30
0.0
 11
1758.501886845617
 21
3115.515730790692
 31
0.0
  0
ENDBLK
  5
169D
330
1698
100
AcDbEntity
  8
0
100
AcDbBlockEnd
  0
BLOCK
  5
169F
330
169E
100
AcDbEntity
  8
0
100
AcDbBlockBegin
  2
*X14
 70
     1
 10
0.0
 20
0.0
 30
0.0
  3
*X14
  1

  0
LINE
  5
16A0
330
169E
100
AcDbEntity
  8
0
 62
     0
100
AcDbLine
 10
1699.474388720169
 20
3114.742921171659
 30
0.0
 11
1698.650444930003
 21
3115.515730790685
 31
0.0
  0
LINE
  5
16A1
330
169E
100
AcDbEntity
  8
0
 62
     0
100
AcDbLine
 10
1698.565185642117
 20
3113.881907862102
 30
0.0
 11
1696.12839822824
 21
3116.167467599835
 31
0.0
  0
LINE
  5
16A2
330
169E
100
AcDbEntity
  8
0
 62
     0
100
AcDbLine
 10
1698.157845465654
 20
3112.550177396347
 30
0.0
 11
1693.411637815246
 21
3117.001834135437
 31
0.0
  0
ENDBLK
  5
16A3
330
169E
100
AcDbEntity
  8
0
100
AcDbBlockEnd
  0
BLOCK
  5
17C7
330
17BD
100
AcDbEntity
  8
0
100
AcDbBlockBegin
  2
*D16
 70
     1
 10
0.0
 20
0.0
 30
0.0
  3
*D16
  1

  0
LINE
  5
1815
330
17BD
100
AcDbEntity
  8
SUNPOU
 62
    70
370
    -2
100
AcDbLine
 10
4.972188101975008
 20
135.2338290489098
 30
0.0
 11
4.972188101975008
 21
161.0626464155343
 31
0.0
  0
LINE
  5
1816
330
17BD
100
AcDbEntity
  8
SUNPOU
 62
    70
370
    -2
100
AcDbLine
 10
129.972188101975
 20
135.2338290489098
 30
0.0
 11
129.972188101975
 21
161.0626464155343
 31
0.0
  0
LINE
  5
1817
330
17BD
100
AcDbEntity
  8
SUNPOU
 62
    60
370
    -2
100
AcDbLine
 10
6.972188101975008
 20
161.0626464155343
 30
0.0
 11
127.972188101975
 21
161.0626464155343
 31
0.0
  0
INSERT
  5
1818
330
17BD
100
AcDbEntity
  8
SUNPOU
 62
    60
370
    -2
100
AcDbBlockReference
  2
_Dot
 10
4.972188101975008
 20
161.0626464155343
 30
0.0
 41
2.0
 42
2.0
 43
2.0
 50
180.0
  0
INSERT
  5
1819
330
17BD
100
AcDbEntity
  8
SUNPOU
 62
    60
370
    -2
100
AcDbBlockReference
  2
_Dot
 10
129.972188101975
 20
161.0626464155343
 30
0.0
 41
2.0
 42
2.0
 43
2.0
  0
MTEXT
  5
181A
330
17BD
100
AcDbEntity
  8
SUNPOU
 62
    60
100
AcDbMText
 10
67.47218810197501
 20
169.0626464155343
 30
0.0
 40
10.0
 41
0.0
 71
     5
 72
     1
  1
\A1;125
  7
SUNPOU
 73
     1
 44
1.0
1001
ACAD
1000
MTEXTBEGIN
1070
    73
1070
     1
1070
    44
1040
1.0
1070
    74
1070
     0
1000
MTEXTEND
  0
POINT
  5
181B
330
17BD
100
AcDbEntity
  8
DEFPOINTS
 62
     0
100
AcDbPoint
 10
4.972188101975007
 20
125.2338290489098
 30
0.0
  0
POINT
  5
181C
330
17BD
100
AcDbEntity
  8
DEFPOINTS
 62
     0
100
AcDbPoint
 10
129.972188101975
 20
125.2338290489098
 30
0.0
  0
POINT
  5
181D
330
17BD
100
AcDbEntity
  8
DEFPOINTS
 62
     0
100
AcDbPoint
 10
129.972188101975
 20
161.0626464155343
 30
0.0
  0
ENDBLK
  5
17C8
330
17BD
100
AcDbEntity
  8
0
100
AcDbBlockEnd
  0
BLOCK
  5
17D4
330
17CA
100
AcDbEntity
  8
0
100
AcDbBlockBegin
  2
*D17
 70
     1
 10
0.0
 20
0.0
 30
0.0
  3
*D17
  1

  0
LINE
  5
181E
330
17CA
100
AcDbEntity
  8
SUNPOU
 62
    70
370
    -2
100
AcDbLine
 10
3.900616406899144
 20
140.0426194459795
 30
0.0
 11
-23.31822170688019
 21
140.0426194459795
 31
0.0
  0
LINE
  5
181F
330
17CA
100
AcDbEntity
  8
SUNPOU
 62
    70
370
    -2
100
AcDbLine
 10
21.44914802693802
 20
59.04261944601512
 30
0.0
 11
-23.3182217068802
 21
59.04261944601514
 31
0.0
  0
LINE
  5
1820
330
17CA
100
AcDbEntity
  8
SUNPOU
 62
    60
370
    -2
100
AcDbLine
 10
-23.31822170688018
 20
138.0426194459795
 30
0.0
 11
-23.3182217068802
 21
61.04261944601514
 31
0.0
  0
INSERT
  5
1821
330
17CA
100
AcDbEntity
  8
SUNPOU
 62
    60
370
    -2
100
AcDbBlockReference
  2
_Dot
 10
-23.31822170688018
 20
140.0426194459795
 30
0.0
 41
2.0
 42
2.0
 43
2.0
 50
90.0
  0
INSERT
  5
1822
330
17CA
100
AcDbEntity
  8
SUNPOU
 62
    60
370
    -2
100
AcDbBlockReference
  2
_Dot
 10
-23.3182217068802
 20
59.04261944601514
 30
0.0
 41
2.0
 42
2.0
 43
2.0
 50
270.0
  0
MTEXT
  5
1823
330
17CA
100
AcDbEntity
  8
SUNPOU
 62
    60
100
AcDbMText
 10
-31.31822170688021
 20
99.54261944599732
 30
0.0
 40
10.0
 41
0.0
 71
     5
 72
     1
  1
\A1;81
  7
SUNPOU
 11
0.0000000000000001
 21
1.0
 31
0.0
 73
     1
 44
1.0
1001
ACAD
1000
MTEXTBEGIN
1070
    73
1070
     1
1070
    44
1040
1.0
1070
    74
1070
     0
1000
MTEXTEND
  0
POINT
  5
1824
330
17CA
100
AcDbEntity
  8
DEFPOINTS
 62
     0
100
AcDbPoint
 10
13.90061640689914
 20
140.0426194459795
 30
0.0
  0
POINT
  5
1825
330
17CA
100
AcDbEntity
  8
DEFPOINTS
 62
     0
100
AcDbPoint
 10
31.44914802693802
 20
59.04261944601512
 30
0.0
  0
POINT
  5
1826
330
17CA
100
AcDbEntity
  8
DEFPOINTS
 62
     0
100
AcDbPoint
 10
-23.3182217068802
 20
59.04261944601514
 30
0.0
  0
ENDBLK
  5
17D5
330
17CA
100
AcDbEntity
  8
0
100
AcDbBlockEnd
  0
BLOCK
  5
18A2
330
1898
100
AcDbEntity
  8
0
100
AcDbBlockBegin
  2
*D19
 70
     1
 10
0.0
 20
0.0
 30
0.0
  3
*D19
  1

  0
LINE
  5
18DB
330
1898
100
AcDbEntity
  8
SUNPOU
 62
    70
370
    -2
100
AcDbLine
 10
32.93287137400573
 20
149.6705220833005
 30
0.0
 11
32.93287137400573
 21
189.1718151691145
 31
0.0
  0
LINE
  5
18DC
330
1898
100
AcDbEntity
  8
SUNPOU
 62
    70
370
    -2
100
AcDbLine
 10
112.9328713740057
 20
149.6705220832564
 30
0.0
 11
112.9328713740057
 21
189.1718151691145
 31
0.0
  0
LINE
  5
18DD
330
1898
100
AcDbEntity
  8
SUNPOU
 62
    60
370
    -2
100
AcDbLine
 10
34.93287137400573
 20
189.1718151691145
 30
0.0
 11
110.9328713740057
 21
189.1718151691145
 31
0.0
  0
INSERT
  5
18DE
330
1898
100
AcDbEntity
  8
SUNPOU
 62
    60
370
    -2
100
AcDbBlockReference
  2
_Dot
 10
32.93287137400573
 20
189.1718151691145
 30
0.0
 41
2.0
 42
2.0
 43
2.0
 50
180.0
  0
INSERT
  5
18DF
330
1898
100
AcDbEntity
  8
SUNPOU
 62
    60
370
    -2
100
AcDbBlockReference
  2
_Dot
 10
112.9328713740057
 20
189.1718151691145
 30
0.0
 41
2.0
 42
2.0
 43
2.0
  0
MTEXT
  5
18E0
330
1898
100
AcDbEntity
  8
SUNPOU
 62
    60
100
AcDbMText
 10
72.93287137400572
 20
197.1718151691145
 30
0.0
 40
10.0
 41
0.0
 71
     5
 72
     1
  1
\A1;80
  7
SUNPOU
 73
     1
 44
1.0
1001
ACAD
1000
MTEXTBEGIN
1070
    73
1070
     1
1070
    44
1040
1.0
1070
    74
1070
     0
1000
MTEXTEND
  0
POINT
  5
18E1
330
1898
100
AcDbEntity
  8
DEFPOINTS
 62
     0
100
AcDbPoint
 10
32.93287137400573
 20
139.6705220833005
 30
0.0
  0
POINT
  5
18E2
330
1898
100
AcDbEntity
  8
DEFPOINTS
 62
     0
100
AcDbPoint
 10
112.9328713740057
 20
139.6705220832564
 30
0.0
  0
POINT
  5
18E3
330
1898
100
AcDbEntity
  8
DEFPOINTS
 62
     0
100
AcDbPoint
 10
112.9328713740057
 20
189.1718151691145
 30
0.0
  0
ENDBLK
  5
18A3
330
1898
100
AcDbEntity
  8
0
100
AcDbBlockEnd
  0
BLOCK
  5
18AF
330
18A5
100
AcDbEntity
  8
0
100
AcDbBlockBegin
  2
*D20
 70
     1
 10
0.0
 20
0.0
 30
0.0
  3
*D20
  1

  0
LINE
  5
18E4
330
18A5
100
AcDbEntity
  8
SUNPOU
 62
    70
370
    -2
100
AcDbLine
 10
62.93287137520132
 20
163.5427436693481
 30
0.0
 11
0.886677007599723
 21
163.5427436693481
 31
0.0
  0
LINE
  5
18E5
330
18A5
100
AcDbEntity
  8
SUNPOU
 62
    70
370
    -2
100
AcDbLine
 10
62.93287137400572
 20
58.5427436694137
 30
0.0
 11
0.8866770075996997
 21
58.54274366941372
 31
0.0
  0
LINE
  5
18E6
330
18A5
100
AcDbEntity
  8
SUNPOU
 62
    60
370
    -2
100
AcDbLine
 10
0.8866770075997244
 20
161.5427436693481
 30
0.0
 11
0.886677007599702
 21
60.54274366941372
 31
0.0
  0
INSERT
  5
18E7
330
18A5
100
AcDbEntity
  8
SUNPOU
 62
    60
370
    -2
100
AcDbBlockReference
  2
_Dot
 10
0.8866770075997248
 20
163.5427436693481
 30
0.0
 41
2.0
 42
2.0
 43
2.0
 50
90.0
  0
INSERT
  5
18E8
330
18A5
100
AcDbEntity
  8
SUNPOU
 62
    60
370
    -2
100
AcDbBlockReference
  2
_Dot
 10
0.8866770075997015
 20
58.54274366941372
 30
0.0
 41
2.0
 42
2.0
 43
2.0
 50
270.0
  0
MTEXT
  5
18E9
330
18A5
100
AcDbEntity
  8
SUNPOU
 62
    60
100
AcDbMText
 10
-7.113322992400304
 20
111.0427436693809
 30
0.0
 40
10.0
 41
0.0
 71
     5
 72
     1
  1
\A1;105
  7
SUNPOU
 11
0.0000000000000001
 21
1.0
 31
0.0
 73
     1
 44
1.0
1001
ACAD
1000
MTEXTBEGIN
1070
    73
1070
     1
1070
    44
1040
1.0
1070
    74
1070
     0
1000
MTEXTEND
  0
POINT
  5
18EA
330
18A5
100
AcDbEntity
  8
DEFPOINTS
 62
     0
100
AcDbPoint
 10
72.93287137520133
 20
163.542743669348
 30
0.0
  0
POINT
  5
18EB
330
18A5
100
AcDbEntity
  8
DEFPOINTS
 62
     0
100
AcDbPoint
 10
72.93287137400572
 20
58.5427436694137
 30
0.0
  0
POINT
  5
18EC
330
18A5
100
AcDbEntity
  8
DEFPOINTS
 62
     0
100
AcDbPoint
 10
0.8866770075997015
 20
58.54274366941372
 30
0.0
  0
ENDBLK
  5
18B0
330
18A5
100
AcDbEntity
  8
0
100
AcDbBlockEnd
  0
ENDSEC
  0
SECTION
  2
ENTITIES
  0
LINE
  5
1F
330
2
100
AcDbEntity
  8
WAKU
100
AcDbLine
 10
0.0
 20
14.0
 30
0.0
 11
138.8108358471433
 21
14.0
 31
0.0
  0
LINE
  5
20
330
2
100
AcDbEntity
  8
WAKU
100
AcDbLine
 10
0.0
 20
0.0
 30
0.0
 11
138.8108358471433
 21
0.0
 31
0.0
  0
TEXT
  5
21
330
2
100
AcDbEntity
  8
HOJO
100
AcDbText
 10
9.653966000000025
 20
2.366626000000024
 30
0.0
 40
9.0
  1
TWM211
  7
SUNPOU
100
AcDbText
  0
TEXT
  5
23
330
2
100
AcDbEntity
  8
HOJO
100
AcDbText
 10
85.84696046283864
 20
5.044386000000031
 30
0.0
 40
6.0
  1
80×105×5
  7
SUNPOU
100
AcDbText
  0
ELLIPSE
  5
1868
102
{ACAD_REACTORS
330
18ED
102
}
330
2
100
AcDbEntity
  8
KIJUN
100
AcDbEllipse
 10
72.93287137520133
 20
156.3718908428764
 30
0.0
 11
9.753299271062966
 21
0.0
 31
0.0
210
0.0
220
0.0
230
1.0
 40
0.7352232949261439
 41
6.729103861294674
 42
8.978859406654805
  0
ELLIPSE
  5
1869
102
{ACAD_REACTORS
330
18ED
102
}
330
2
100
AcDbEntity
  8
KIJUN
100
AcDbEllipse
 10
59.5759706176002
 20
153.1246918237216
 30
0.0
 11
9.753299271062966
 21
0.0
 31
0.0
210
0.0
220
0.0
230
1.0
 40
0.7352232949261439
 41
7.367792257342159
 42
9.424777960769381
  0
ELLIPSE
  5
186A
102
{ACAD_REACTORS
330
18ED
102
}
330
2
100
AcDbEntity
  8
KIJUN
100
AcDbEllipse
 10
72.93287137520133
 20
156.3718908428764
 30
0.0
 11
-9.753299271062966
 21
0.0
 31
0.0
210
0.0
220
0.0
230
-1.0
 40
0.7352232949261439
 41
0.4459185541145735
 42
2.695674099474704
  0
ELLIPSE
  5
186B
102
{ACAD_REACTORS
330
18ED
102
}
330
2
100
AcDbEntity
  8
KIJUN
100
AcDbEllipse
 10
86.28977213280245
 20
153.1246918237216
 30
0.0
 11
-9.753299271062966
 21
0.0
 31
0.0
210
0.0
220
0.0
230
-1.0
 40
0.7352232949261439
 41
1.08460695016241
 42
3.141592653589792
  0
ELLIPSE
  5
186C
102
{ACAD_REACTORS
330
18ED
102
}
330
2
100
AcDbEntity
  8
KIJUN
100
AcDbEllipse
 10
96.04307140386323
 20
145.9538389972494
 30
0.0
 11
-9.753299271062966
 21
0.0
 31
0.0
210
0.0
220
0.0
230
-1.0
 40
0.7352232949261439
 41
1.570796326794896
 42
2.960037595232837
  0
ELLIPSE
  5
186D
102
{ACAD_REACTORS
330
18ED
102
}
330
2
100
AcDbEntity
  8
KIJUN
100
AcDbEllipse
 10
49.82267134653852
 20
145.9538389972494
 30
0.0
 11
9.753299271062966
 21
0.0
 31
0.0
210
0.0
220
0.0
230
1.0
 40
0.7352232949261439
 41
1.570796326794896
 42
2.960037595239148
  0
ARC
  5
186E
102
{ACAD_REACTORS
330
18ED
102
}
330
2
100
AcDbEntity
  8
KIJUN
100
AcDbCircle
 10
278.3742842973136
 20
40.9247110964111
 30
0.0
 40
214.0876149393156
100
AcDbArc
 50
148.3933735859412
 51
161.782438977936
  0
ARC
  5
186F
102
{ACAD_REACTORS
330
18ED
102
}
330
2
100
AcDbEntity
  8
KIJUN
100
AcDbCircle
 10
-132.5085415469104
 20
40.9247110964111
 30
0.0
 40
214.0876149393166
100
AcDbArc
 50
18.21756102206401
 51
31.60662641405848
  0
LINE
  5
1870
102
{ACAD_REACTORS
330
18ED
102
}
330
2
100
AcDbEntity
  8
KIJUN
100
AcDbLine
 10
64.13329958709415
 20
159.4645849781709
 30
0.0
 11
72.93287137520133
 21
114.1557607283944
 31
0.0
  0
LINE
  5
1871
102
{ACAD_REACTORS
330
18ED
102
}
330
2
100
AcDbEntity
  8
KIJUN
100
AcDbLine
 10
72.93287137520133
 20
114.1557607283944
 30
0.0
 11
81.73244316330761
 21
159.4645849781709
 31
0.0
  0
ARC
  5
1872
102
{ACAD_REACTORS
330
18ED
102
}
330
2
100
AcDbEntity
  8
KIJUN
100
AcDbCircle
 10
165.1008099487642
 20
73.70306014945345
 30
0.0
 40
90.81747097243775
100
AcDbArc
 50
131.1446390095324
 51
151.6276775050216
  0
ARC
  5
1873
102
{ACAD_REACTORS
330
18ED
102
}
330
2
100
AcDbEntity
  8
KIJUN
100
AcDbCircle
 10
148.2884708928156
 20
91.36777385505183
 30
0.0
 40
70.29861081299735
100
AcDbArc
 50
127.3535659508992
 51
163.7471314938846
  0
ARC
  5
1874
102
{ACAD_REACTORS
330
18ED
102
}
330
2
100
AcDbEntity
  8
KIJUN
100
AcDbCircle
 10
-0.2678443242136836
 20
91.17021418166951
 30
0.0
 40
65.2438036411041
100
AcDbArc
 50
21.70499305478994
 51
51.30672181979194
  0
ARC
  5
1875
102
{ACAD_REACTORS
330
18ED
102
}
330
2
100
AcDbEntity
  8
KIJUN
100
AcDbCircle
 10
-2.422728142412552
 20
91.36777385505183
 30
0.0
 40
70.29861081299735
100
AcDbArc
 50
16.25286850611534
 51
52.64643404910074
  0
ARC
  5
1877
102
{ACAD_REACTORS
330
18ED
102
}
330
2
100
AcDbEntity
  8
KIJUN
100
AcDbCircle
 10
72.93287137521634
 20
112.1000637711026
 30
0.0
 40
2.055696957286272
100
AcDbArc
 50
284.2208934860896
 51
255.7791065131075
  0
ARC
  5
1878
102
{ACAD_REACTORS
330
18ED
102
}
330
2
100
AcDbEntity
  8
KIJUN
100
AcDbCircle
 10
72.93287137519451
 20
109.2442451335132
 30
0.0
 40
1.0
100
AcDbArc
 50
34.57359942103205
 51
145.426400578968
  0
ARC
  5
1879
102
{ACAD_REACTORS
330
18ED
102
}
330
2
100
AcDbEntity
  8
KIJUN
100
AcDbCircle
 10
102.9651449450587
 20
88.54678459263823
 30
0.0
 40
37.47358398369907
100
AcDbArc
 50
145.426400578968
 51
216.7335872175422
  0
ARC
  5
187A
102
{ACAD_REACTORS
330
18ED
102
}
330
2
100
AcDbEntity
  8
KIJUN
100
AcDbCircle
 10
42.90059780534443
 20
88.54678459263823
 30
0.0
 40
37.47358398369267
100
AcDbArc
 50
323.2664127824578
 51
34.57359942103205
  0
ARC
  5
187B
102
{ACAD_REACTORS
330
18ED
102
}
330
2
100
AcDbEntity
  8
KIJUN
100
AcDbCircle
 10
89.59188574700034
 20
114.48345605235
 30
0.0
 40
5.0
100
AcDbArc
 50
151.6276775050216
 51
210.3809983426393
  0
ARC
  5
187C
102
{ACAD_REACTORS
330
18ED
102
}
330
2
100
AcDbEntity
  8
KIJUN
100
AcDbCircle
 10
70.6167844721615
 20
103.3592876498783
 30
0.0
 40
16.99549024316348
100
AcDbArc
 50
314.2012493856104
 51
30.38099834263932
  0
ARC
  5
187D
102
{ACAD_REACTORS
330
18ED
102
}
330
2
100
AcDbEntity
  8
KIJUN
100
AcDbCircle
 10
70.37396600681427
 20
103.5790515527665
 30
0.0
 40
13.99549024316348
100
AcDbArc
 50
314.2012493856104
 51
27.28829095825715
  0
ARC
  5
187E
102
{ACAD_REACTORS
330
18ED
102
}
330
2
100
AcDbEntity
  8
KIJUN
100
AcDbCircle
 10
55.70469450318137
 20
113.4500430491512
 30
0.0
 40
5.0
100
AcDbArc
 50
332.6925727750636
 51
21.70499305478994
  0
ARC
  5
187F
102
{ACAD_REACTORS
330
18ED
102
}
330
2
100
AcDbEntity
  8
KIJUN
100
AcDbCircle
 10
75.24895827824161
 20
103.3592876498783
 30
0.0
 40
16.99549024316348
100
AcDbArc
 50
152.6925727750636
 51
225.7987506143896
  0
ARC
  5
1880
102
{ACAD_REACTORS
330
18ED
102
}
330
2
100
AcDbEntity
  8
KIJUN
100
AcDbCircle
 10
75.49177674358839
 20
103.5790515527665
 30
0.0
 40
13.99549024316348
100
AcDbArc
 50
152.7117090417425
 51
225.7987506143896
  0
CIRCLE
  5
1881
102
{ACAD_REACTORS
330
18ED
102
}
330
2
100
AcDbEntity
  8
KIJUN
100
AcDbCircle
 10
80.79928475871952
 20
108.5851091101553
 30
0.0
 40
2.457634559192229
  0
CIRCLE
  5
1882
102
{ACAD_REACTORS
330
18ED
102
}
330
2
100
AcDbEntity
  8
KIJUN
100
AcDbCircle
 10
65.06645799169723
 20
108.5851091101553
 30
0.0
 40
2.457634559192229
  0
ARC
  5
1883
102
{ACAD_REACTORS
330
18ED
102
}
330
2
100
AcDbEntity
  8
KIJUN
100
AcDbCircle
 10
89.41102578298638
 20
80.25556443761615
 30
0.0
 40
27.25758900568729
100
AcDbArc
 50
151.3462746456047
 51
232.8046438447338
  0
ARC
  5
1884
102
{ACAD_REACTORS
330
18ED
102
}
330
2
100
AcDbEntity
  8
KIJUN
100
AcDbCircle
 10
56.45471696741629
 20
80.25556443761615
 30
0.0
 40
27.25758900568729
100
AcDbArc
 50
307.1953561552661
 51
28.65372535439528
  0
ARC
  5
1885
102
{ACAD_REACTORS
330
18ED
102
}
330
2
100
AcDbEntity
  8
KIJUN
100
AcDbCircle
 10
97.55621286547444
 20
76.4342957355002
 30
0.0
 40
30.43709219824232
100
AcDbArc
 50
177.8307383940524
 51
216.0025086937503
  0
ARC
  5
1886
102
{ACAD_REACTORS
330
18ED
102
}
330
2
100
AcDbEntity
  8
KIJUN
100
AcDbCircle
 10
48.30952988491913
 20
76.43429573537014
 30
0.0
 40
30.43709219824232
100
AcDbArc
 50
323.9974913062497
 51
2.169261605947606
  0
CIRCLE
  5
1887
102
{ACAD_REACTORS
330
18ED
102
}
330
2
100
AcDbEntity
  8
KIJUN
100
AcDbCircle
 10
62.34108626477041
 20
69.26387639779204
 30
0.0
 40
2.126825189043301
  0
ARC
  5
1888
102
{ACAD_REACTORS
330
18ED
102
}
330
2
100
AcDbEntity
  8
KIJUN
100
AcDbCircle
 10
63.46969874282263
 20
67.98272416454484
 30
0.0
 40
3.498460439837085
100
AcDbArc
 50
158.5182666191636
 51
322.8574707046048
  0
ARC
  5
1889
102
{ACAD_REACTORS
330
18ED
102
}
330
2
100
AcDbEntity
  8
KIJUN
100
AcDbCircle
 10
63.91740100669017
 20
66.44046610265331
 30
0.0
 40
4.682091144878707
100
AcDbArc
 50
142.2627980616578
 51
294.8720968390355
  0
ARC
  5
188A
102
{ACAD_REACTORS
330
18ED
102
}
330
2
100
AcDbEntity
  8
KIJUN
100
AcDbCircle
 10
73.96798397110046
 20
69.16743165323578
 30
0.0
 40
10.67499193636533
100
AcDbArc
 50
220.7966545912202
 51
264.4355070151777
  0
ARC
  5
188B
102
{ACAD_REACTORS
330
18ED
102
}
330
2
100
AcDbEntity
  8
KIJUN
100
AcDbCircle
 10
74.76547337283022
 20
82.68018518447025
 30
0.0
 40
24.20691043849571
100
AcDbArc
 50
235.6940609153864
 51
265.6582266472656
  0
ARC
  5
188C
102
{ACAD_REACTORS
330
18ED
102
}
330
2
100
AcDbEntity
  8
KIJUN
100
AcDbCircle
 10
81.94834174379252
 20
66.44046610028226
 30
0.0
 40
4.682091144878707
100
AcDbArc
 50
245.1279031456609
 51
37.73720192350573
  0
ARC
  5
188D
102
{ACAD_REACTORS
330
18ED
102
}
330
2
100
AcDbEntity
  8
KIJUN
100
AcDbCircle
 10
82.39604400806753
 20
67.98272416205645
 30
0.0
 40
3.498460439837085
100
AcDbArc
 50
217.1425292805553
 51
21.48173336552238
  0
CIRCLE
  5
188E
102
{ACAD_REACTORS
330
18ED
102
}
330
2
100
AcDbEntity
  8
KIJUN
100
AcDbCircle
 10
83.5246564864558
 20
69.26387639501308
 30
0.0
 40
2.126825189043301
  0
ARC
  5
188F
102
{ACAD_REACTORS
330
18ED
102
}
330
2
100
AcDbEntity
  8
KIJUN
100
AcDbCircle
 10
71.10026938191436
 20
82.68018518495001
 30
0.0
 40
24.20691043849571
100
AcDbArc
 50
274.3417733376311
 51
304.3059390699304
  0
ARC
  5
1890
102
{ACAD_REACTORS
330
18ED
102
}
330
2
100
AcDbEntity
  8
KIJUN
100
AcDbCircle
 10
71.89775878010346
 20
69.16743165351045
 30
0.0
 40
10.67499193636533
100
AcDbArc
 50
275.5644929697435
 51
319.2033453934119
  0
ARC
  5
1891
102
{ACAD_REACTORS
330
18ED
102
}
330
2
100
AcDbEntity
  8
KIJUN
100
AcDbCircle
 10
42.41546239657714
 20
137.5855578161045
 30
0.0
 40
9.907174417003011
100
AcDbArc
 50
102.7458381759869
 51
150.6389199318751
  0
ARC
  5
1892
102
{ACAD_REACTORS
330
18ED
102
}
330
2
100
AcDbEntity
  8
KIJUN
100
AcDbCircle
 10
37.87786456051666
 20
139.6705220833005
 30
0.0
 40
4.944993186510934
100
AcDbArc
 50
145.8960168521345
 51
338.387213401368
  0
ARC
  5
1893
102
{ACAD_REACTORS
330
18ED
102
}
330
2
100
AcDbEntity
  8
KIJUN
100
AcDbCircle
 10
38.9701080536513
 20
138.8085814380233
 30
0.0
 40
3.631709064586653
100
AcDbArc
 50
344.6812117912799
 51
298.8843729316956
  0
ARC
  5
1894
102
{ACAD_REACTORS
330
18ED
102
}
330
2
100
AcDbEntity
  8
KIJUN
100
AcDbCircle
 10
106.8956346967363
 20
138.8085814379792
 30
0.0
 40
3.631709064586653
100
AcDbArc
 50
241.1156270683044
 51
195.3187882087201
  0
ARC
  5
1895
102
{ACAD_REACTORS
330
18ED
102
}
330
2
100
AcDbEntity
  8
KIJUN
100
AcDbCircle
 10
107.9878781874948
 20
139.6705220832564
 30
0.0
 40
4.944993186510934
100
AcDbArc
 50
201.6127865984937
 51
30.34127160545466
  0
ARC
  5
1896
102
{ACAD_REACTORS
330
18ED
102
}
330
2
100
AcDbEntity
  8
KIJUN
100
AcDbCircle
 10
103.4199101342212
 20
137.5039833594251
 30
0.0
 40
9.993445983062306
100
AcDbArc
 50
27.82391554785241
 51
77.18751549119668
  0
DIMENSION
  5
1897
330
2
100
AcDbEntity
  8
SUNPOU
100
AcDbDimension
  2
*D19
 10
112.9328713740057
 20
189.1718151691145
 30
0.0
 11
72.93287137400572
 21
197.1718151691145
 31
0.0
 70
    32
 71
     5
 42
80.0
  3
STANDARD
100
AcDbAlignedDimension
 13
32.93287137400573
 23
139.6705220833005
 33
0.0
 14
112.9328713740057
 24
139.6705220832564
 34
0.0
100
AcDbRotatedDimension
1001
ACAD
1000
DSTYLE
1002
{
1070
    41
1040
2.0
1070
    42
1040
10.0
1070
    44
1040
0.0
1070
    73
1070
     0
1070
    74
1070
     0
1070
    77
1070
     1
1070
   140
1040
10.0
1070
   141
1040
0.0
1070
   146
1040
0.064286
1070
   147
1040
3.0
1070
   176
1070
    60
1070
   177
1070
    70
1070
   178
1070
    60
1070
   271
1070
     0
1070
   272
1070
     0
1070
   340
1005
1C
1070
   342
1005
109
1002
}
  0
DIMENSION
  5
18A4
330
2
100
AcDbEntity
  8
SUNPOU
100
AcDbDimension
  2
*D20
 10
0.8866770075997015
 20
58.54274366941372
 30
0.0
 11
-7.113322992400304
 21
111.0427436693809
 31
0.0
 70
    32
 71
     5
 42
104.9999999999343
  3
STANDARD
100
AcDbAlignedDimension
 13
72.93287137520133
 23
163.542743669348
 33
0.0
 14
72.93287137400572
 24
58.5427436694137
 34
0.0
 50
90.0
100
AcDbRotatedDimension
1001
ACAD
1000
DSTYLE
1002
{
1070
    41
1040
2.0
1070
    42
1040
10.0
1070
    44
1040
0.0
1070
    73
1070
     0
1070
    74
1070
     0
1070
    77
1070
     1
1070
   140
1040
10.0
1070
   141
1040
0.0
1070
   146
1040
0.064286
1070
   147
1040
3.0
1070
   176
1070
    60
1070
   177
1070
    70
1070
   178
1070
    60
1070
   271
1070
     0
1070
   272
1070
     0
1070
   340
1005
1C
1070
   342
1005
109
1002
}
  0
ENDSEC
  0
SECTION
  2
OBJECTS
  0
DICTIONARY
  5
1A
330
0
100
AcDbDictionary
281
     1
  3
ACAD_COLOR
350
144
  3
ACAD_GROUP
350
18
  3
ACAD_LAYOUT
350
58
  3
ACAD_MATERIAL
350
143
  3
ACAD_MLINESTYLE
350
19
  3
ACAD_PLOTSETTINGS
350
59
  3
ACAD_PLOTSTYLENAME
350
56
  3
ACAD_TABLESTYLE
350
145
  3
ACDBHEADERROUNDTRIPXREC
350
18EF
  3
AcDbVariableDictionary
350
1D1
  0
DICTIONARY
  5
1B4
330
A
100
AcDbDictionary
280
     1
281
     1
  3
ACAD_LAYERFILTERS
360
1C2
  3
ACLYDICTIONARY
360
1C1
  0
DICTIONARY
  5
1578
330
2
100
AcDbDictionary
280
     1
281
     1
  3
ACAD_SORTENTS
360
1579
  0
DICTIONARY
  5
144
102
{ACAD_REACTORS
330
1A
102
}
330
1A
100
AcDbDictionary
281
     1
  0
DICTIONARY
  5
18
102
{ACAD_REACTORS
330
1A
102
}
330
1A
100
AcDbDictionary
281
     1
  3
*A1
350
CFC
  3
*A2
350
15D1
  3
*A4
350
1682
  3
*A5
350
1827
  3
*A6
350
18ED
  0
DICTIONARY
  5
58
102
{ACAD_REACTORS
330
1A
102
}
330
1A
100
AcDbDictionary
281
     1
  3
Model
350
5A
  3
ﾚｲｱｳﾄ1
350
5B
  0
DICTIONARY
  5
143
102
{ACAD_REACTORS
330
1A
102
}
330
1A
100
AcDbDictionary
281
     1
  0
DICTIONARY
  5
19
102
{ACAD_REACTORS
330
1A
102
}
330
1A
100
AcDbDictionary
281
     1
  3
STANDARD
350
1D
  0
DICTIONARY
  5
59
102
{ACAD_REACTORS
330
1A
102
}
330
1A
100
AcDbDictionary
281
     1
  0
ACDBDICTIONARYWDFLT
  5
56
102
{ACAD_REACTORS
330
1A
102
}
330
1A
100
AcDbDictionary
281
     1
  3
Normal
350
57
100
AcDbDictionaryWithDefault
340
57
  0
DICTIONARY
  5
145
102
{ACAD_REACTORS
330
1A
102
}
330
1A
100
AcDbDictionary
281
     1
  3
Standard
350
146
  0
DICTIONARY
  5
18EF
102
{ACAD_REACTORS
330
1A
102
}
330
1A
100
AcDbDictionary
281
     1
  0
DICTIONARY
  5
1D1
102
{ACAD_REACTORS
330
1A
102
}
330
1A
100
AcDbDictionary
281
     1
  3
CTABLESTYLE
350
1D2
  3
DIMASSOC
350
D03
  3
PROJECTNAME
350
D04
  0
DICTIONARY
  5
1C2
102
{ACAD_REACTORS
330
1B4
102
}
330
1B4
100
AcDbDictionary
281
     1
  0
DICTIONARY
  5
1C1
102
{ACAD_REACTORS
330
1B4
102
}
330
1B4
100
AcDbDictionary
281
     1
1001
ACAD
1000
<All
  0
SORTENTSTABLE
  5
1579
102
{ACAD_REACTORS
330
1578
102
}
330
1578
100
AcDbSortentsTable
330
2
331
23
  5
23
331
21
  5
21
331
1F
  5
1F
331
20
  5
20
  0
GROUP
  5
CFC
102
{ACAD_REACTORS
330
18
102
}
330
18
100
AcDbGroup
300

 70
     1
 71
     1
  0
GROUP
  5
15D1
102
{ACAD_REACTORS
330
18
102
}
330
18
100
AcDbGroup
300

 70
     1
 71
     1
  0
GROUP
  5
1682
102
{ACAD_REACTORS
330
18
102
}
330
18
100
AcDbGroup
300

 70
     1
 71
     1
  0
GROUP
  5
1827
102
{ACAD_REACTORS
330
18
102
}
330
18
100
AcDbGroup
300

 70
     1
 71
     1
  0
GROUP
  5
18ED
102
{ACAD_REACTORS
330
18
102
}
330
18
100
AcDbGroup
300

 70
     1
 71
     1
340
1896
340
1895
340
1894
340
1893
340
1892
340
1891
340
1890
340
188F
340
188E
340
188D
340
188C
340
188B
340
188A
340
1889
340
1888
340
1887
340
1886
340
1885
340
1884
340
1883
340
1882
340
1881
340
1880
340
187F
340
187E
340
187D
340
187C
340
187B
340
187A
340
1879
340
1878
340
1877
340
1875
340
1874
340
1873
340
1872
340
1871
340
1870
340
186F
340
186E
340
186D
340
186C
340
186B
340
186A
340
1869
340
1868
  0
LAYOUT
  5
5A
102
{ACAD_XDICTIONARY
360
18F0
102
}
102
{ACAD_REACTORS
330
58
102
}
330
58
100
AcDbPlotSettings
  1

  2
なし
  4

  6

 40
0.0
 41
0.0
 42
0.0
 43
0.0
 44
0.0
 45
0.0
 46
0.0
 47
0.0
 48
0.0
 49
0.0
140
0.0
141
0.0
142
1.0
143
1.0
 70
  1712
 72
     0
 73
     0
 74
     0
  7
monochrome.ctb
 75
     0
147
1.0
148
0.0
149
0.0
100
AcDbLayout
  1
Model
 70
     1
 71
     0
 10
0.0
 20
0.0
 11
12.0
 21
9.0
 12
0.0
 22
0.0
 32
0.0
 14
0.0
 24
0.0
 34
0.0
 15
0.0
 25
0.0
 35
0.0
146
0.0
 13
0.0
 23
0.0
 33
0.0
 16
1.0
 26
0.0
 36
0.0
 17
0.0
 27
1.0
 37
0.0
 76
     0
330
2
  0
LAYOUT
  5
5B
102
{ACAD_XDICTIONARY
360
18F2
102
}
102
{ACAD_REACTORS
330
58
102
}
330
58
100
AcDbPlotSettings
  1

  2
なし
  4

  6

 40
0.0
 41
0.0
 42
0.0
 43
0.0
 44
0.0
 45
0.0
 46
0.0
 47
0.0
 48
0.0
 49
0.0
140
0.0
141
0.0
142
1.0
143
1.0
 70
   688
 72
     0
 73
     0
 74
     5
  7
monochrome.ctb
 75
    16
147
1.0
148
0.0
149
0.0
100
AcDbLayout
  1
ﾚｲｱｳﾄ1
 70
     1
 71
     1
 10
0.0
 20
0.0
 11
12.0
 21
9.0
 12
0.0
 22
0.0
 32
0.0
 14
1.000000000000000E+20
 24
1.000000000000000E+20
 34
1.000000000000000E+20
 15
-1.000000000000000E+20
 25
-1.000000000000000E+20
 35
-1.000000000000000E+20
146
0.0
 13
0.0
 23
0.0
 33
0.0
 16
1.0
 26
0.0
 36
0.0
 17
0.0
 27
1.0
 37
0.0
 76
     0
330
7
  0
MLINESTYLE
  5
1D
102
{ACAD_REACTORS
330
19
102
}
330
19
100
AcDbMlineStyle
  2
STANDARD
 70
     0
  3

 62
   256
 51
90.0
 52
90.0
 71
     2
 49
0.5
 62
   256
  6
BYLAYER
 49
-0.5
 62
   256
  6
BYLAYER
  0
ACDBPLACEHOLDER
  5
57
102
{ACAD_REACTORS
330
56
102
}
330
56
  0
TABLESTYLE
  5
146
102
{ACAD_REACTORS
330
145
102
}
330
145
100
AcDbTableStyle
  3
Standard
 70
     0
 71
     0
 40
0.06
 41
0.06
280
     0
281
     0
  7
STANDARD
140
0.18
170
     2
 62
     0
 63
     7
283
     0
274
    -2
284
     1
 64
     0
275
    -2
285
     1
 65
     0
276
    -2
286
     1
 66
     0
277
    -2
287
     1
 67
     0
278
    -2
288
     1
 68
     0
279
    -2
289
     1
 69
     0
  7
STANDARD
140
0.25
170
     5
 62
     0
 63
     7
283
     0
274
    -2
284
     1
 64
     0
275
    -2
285
     1
 65
     0
276
    -2
286
     1
 66
     0
277
    -2
287
     1
 67
     0
278
    -2
288
     1
 68
     0
279
    -2
289
     1
 69
     0
  7
STANDARD
140
0.18
170
     5
 62
     0
 63
     7
283
     0
274
    -2
284
     1
 64
     0
275
    -2
285
     1
 65
     0
276
    -2
286
     1
 66
     0
277
    -2
287
     1
 67
     0
278
    -2
288
     1
 68
     0
279
    -2
289
     1
 69
     0
  0
DICTIONARYVAR
  5
1D2
102
{ACAD_REACTORS
330
1D1
102
}
330
1D1
100
DictionaryVariables
280
     0
  1
STANDARD
  0
DICTIONARYVAR
  5
D03
102
{ACAD_REACTORS
330
1D1
102
}
330
1D1
100
DictionaryVariables
280
     0
  1
1
  0
DICTIONARYVAR
  5
D04
102
{ACAD_REACTORS
330
1D1
102
}
330
1D1
100
DictionaryVariables
280
     0
  1

  0
DICTIONARY
  5
18F0
330
5A
100
AcDbDictionary
280
     1
281
     1
  3
ACAD_XREC_ROUNDTRIP
360
18F1
  0
DICTIONARY
  5
18F2
330
5B
100
AcDbDictionary
280
     1
281
     1
  3
ACAD_XREC_ROUNDTRIP
360
18F3
  0
XRECORD
  5
18F1
102
{ACAD_REACTORS
330
18F0
102
}
330
18F0
100
AcDbXrecord
280
     1
102
SHADEPLOT
 70
     0
102
SHADEPLOTRESLEVEL
 70
     2
102
SHADEPLOTCUSTOMDPI
 70
   300
  0
XRECORD
  5
18F3
102
{ACAD_REACTORS
330
18F2
102
}
330
18F2
100
AcDbXrecord
280
     1
102
SHADEPLOT
 70
     0
102
SHADEPLOTRESLEVEL
 70
     2
102
SHADEPLOTCUSTOMDPI
 70
   300
  0
ENDSEC
  0
EOF
