  0
SECTION
  2
HEADER
  9
$ACADVER
  1
AC1015
  9
$ACADMAINTVER
 70
    20
  9
$DWGCODEPAGE
  3
ANSI_932
  9
$INSBASE
 10
922.019522
 20
-675.4306699999999
 30
0.0
  9
$EXTMIN
 10
-48.63595281045878
 20
-0.0075636913210246
 30
-0.0000000000000053
  9
$EXTMAX
 10
163.5591813351983
 20
162.425883537024
 30
0.0000000000000099
  9
$LIMMIN
 10
0.0
 20
0.0
  9
$LIMMAX
 10
420.0
 20
297.0
  9
$ORTHOMODE
 70
     0
  9
$REGENMODE
 70
     1
  9
$FILLMODE
 70
     1
  9
$QTEXTMODE
 70
     0
  9
$MIRRTEXT
 70
     1
  9
$LTSCALE
 40
1.0
  9
$ATTMODE
 70
     1
  9
$TEXTSIZE
 40
30.0
  9
$TRACEWID
 40
0.05
  9
$TEXTSTYLE
  7
SUNPOU
  9
$CLAYER
  8
0
  9
$CELTYPE
  6
BYLAYER
  9
$CECOLOR
 62
   256
  9
$CELTSCALE
 40
1.0
  9
$DISPSILH
 70
     0
  9
$DIMSCALE
 40
1.0
  9
$DIMASZ
 40
2.0
  9
$DIMEXO
 40
10.0
  9
$DIMDLI
 40
0.38
  9
$DIMRND
 40
0.0
  9
$DIMDLE
 40
0.0
  9
$DIMEXE
 40
0.0
  9
$DIMTP
 40
0.0
  9
$DIMTM
 40
0.0
  9
$DIMTXT
 40
5.0
  9
$DIMCEN
 40
0.0
  9
$DIMTSZ
 40
0.0
  9
$DIMTOL
 70
     0
  9
$DIMLIM
 70
     0
  9
$DIMTIH
 70
     0
  9
$DIMTOH
 70
     0
  9
$DIMSE1
 70
     0
  9
$DIMSE2
 70
     0
  9
$DIMTAD
 70
     1
  9
$DIMZIN
 70
     0
  9
$DIMBLK
  1
Dot
  9
$DIMASO
 70
     1
  9
$DIMSHO
 70
     1
  9
$DIMPOST
  1

  9
$DIMAPOST
  1

  9
$DIMALT
 70
     0
  9
$DIMALTD
 70
     2
  9
$DIMALTF
 40
25.4
  9
$DIMLFAC
 40
1.0
  9
$DIMTOFL
 70
     0
  9
$DIMTVP
 40
0.0
  9
$DIMTIX
 70
     0
  9
$DIMSOXD
 70
     0
  9
$DIMSAH
 70
     0
  9
$DIMBLK1
  1

  9
$DIMBLK2
  1

  9
$DIMSTYLE
  2
STANDARD
  9
$DIMCLRD
 70
    60
  9
$DIMCLRE
 70
    70
  9
$DIMCLRT
 70
    60
  9
$DIMTFAC
 40
0.064286
  9
$DIMGAP
 40
3.0
  9
$DIMJUST
 70
     0
  9
$DIMSD1
 70
     0
  9
$DIMSD2
 70
     0
  9
$DIMTOLJ
 70
     1
  9
$DIMTZIN
 70
     0
  9
$DIMALTZ
 70
     0
  9
$DIMALTTZ
 70
     0
  9
$DIMUPT
 70
     0
  9
$DIMDEC
 70
     0
  9
$DIMTDEC
 70
     0
  9
$DIMALTU
 70
     2
  9
$DIMALTTD
 70
     2
  9
$DIMTXSTY
  7
SUNPOU
  9
$DIMAUNIT
 70
     0
  9
$DIMADEC
 70
     0
  9
$DIMALTRND
 40
0.0
  9
$DIMAZIN
 70
     0
  9
$DIMDSEP
 70
    46
  9
$DIMATFIT
 70
     3
  9
$DIMFRAC
 70
     0
  9
$DIMLDRBLK
  1

  9
$DIMLUNIT
 70
     2
  9
$DIMLWD
 70
    -2
  9
$DIMLWE
 70
    -2
  9
$DIMTMOVE
 70
     0
  9
$LUNITS
 70
     2
  9
$LUPREC
 70
     5
  9
$SKETCHINC
 40
0.1
  9
$FILLETRAD
 40
0.0
  9
$AUNITS
 70
     0
  9
$AUPREC
 70
     0
  9
$MENU
  1
acad
  9
$ELEVATION
 40
0.0
  9
$PELEVATION
 40
0.0
  9
$THICKNESS
 40
0.0
  9
$LIMCHECK
 70
     0
  9
$CHAMFERA
 40
0.0
  9
$CHAMFERB
 40
0.0
  9
$CHAMFERC
 40
0.0
  9
$CHAMFERD
 40
0.0
  9
$SKPOLY
 70
     0
  9
$TDCREATE
 40
2450623.654673033
  9
$TDUCREATE
 40
2450623.279673032
  9
$TDUPDATE
 40
2453867.600132893
  9
$TDUUPDATE
 40
2453867.225132893
  9
$TDINDWG
 40
0.4471543171
  9
$TDUSRTIMER
 40
0.4471541435
  9
$USRTIMER
 70
     1
  9
$ANGBASE
 50
0.0
  9
$ANGDIR
 70
     0
  9
$PDMODE
 70
     0
  9
$PDSIZE
 40
0.0
  9
$PLINEWID
 40
0.0
  9
$SPLFRAME
 70
     0
  9
$SPLINETYPE
 70
     6
  9
$SPLINESEGS
 70
     8
  9
$HANDSEED
  5
34E6
  9
$SURFTAB1
 70
     6
  9
$SURFTAB2
 70
     6
  9
$SURFTYPE
 70
     6
  9
$SURFU
 70
     6
  9
$SURFV
 70
     6
  9
$UCSBASE
  2

  9
$UCSNAME
  2

  9
$UCSORG
 10
0.0
 20
0.0
 30
0.0
  9
$UCSXDIR
 10
1.0
 20
0.0
 30
0.0
  9
$UCSYDIR
 10
0.0
 20
1.0
 30
0.0
  9
$UCSORTHOREF
  2

  9
$UCSORTHOVIEW
 70
     0
  9
$UCSORGTOP
 10
0.0
 20
0.0
 30
0.0
  9
$UCSORGBOTTOM
 10
0.0
 20
0.0
 30
0.0
  9
$UCSORGLEFT
 10
0.0
 20
0.0
 30
0.0
  9
$UCSORGRIGHT
 10
0.0
 20
0.0
 30
0.0
  9
$UCSORGFRONT
 10
0.0
 20
0.0
 30
0.0
  9
$UCSORGBACK
 10
0.0
 20
0.0
 30
0.0
  9
$PUCSBASE
  2

  9
$PUCSNAME
  2

  9
$PUCSORG
 10
0.0
 20
0.0
 30
0.0
  9
$PUCSXDIR
 10
1.0
 20
0.0
 30
0.0
  9
$PUCSYDIR
 10
0.0
 20
1.0
 30
0.0
  9
$PUCSORTHOREF
  2

  9
$PUCSORTHOVIEW
 70
     0
  9
$PUCSORGTOP
 10
0.0
 20
0.0
 30
0.0
  9
$PUCSORGBOTTOM
 10
0.0
 20
0.0
 30
0.0
  9
$PUCSORGLEFT
 10
0.0
 20
0.0
 30
0.0
  9
$PUCSORGRIGHT
 10
0.0
 20
0.0
 30
0.0
  9
$PUCSORGFRONT
 10
0.0
 20
0.0
 30
0.0
  9
$PUCSORGBACK
 10
0.0
 20
0.0
 30
0.0
  9
$USERI1
 70
     0
  9
$USERI2
 70
     0
  9
$USERI3
 70
     0
  9
$USERI4
 70
     0
  9
$USERI5
 70
     0
  9
$USERR1
 40
0.0
  9
$USERR2
 40
0.0
  9
$USERR3
 40
0.0
  9
$USERR4
 40
0.0
  9
$USERR5
 40
0.0
  9
$WORLDVIEW
 70
     1
  9
$SHADEDGE
 70
     3
  9
$SHADEDIF
 70
    70
  9
$TILEMODE
 70
     1
  9
$MAXACTVP
 70
    16
  9
$PINSBASE
 10
0.0
 20
0.0
 30
0.0
  9
$PLIMCHECK
 70
     0
  9
$PEXTMIN
 10
1.000000000000000E+20
 20
1.000000000000000E+20
 30
1.000000000000000E+20
  9
$PEXTMAX
 10
-1.000000000000000E+20
 20
-1.000000000000000E+20
 30
-1.000000000000000E+20
  9
$PLIMMIN
 10
0.0
 20
0.0
  9
$PLIMMAX
 10
12.0
 20
9.0
  9
$UNITMODE
 70
     0
  9
$VISRETAIN
 70
     0
  9
$PLINEGEN
 70
     0
  9
$PSLTSCALE
 70
     1
  9
$TREEDEPTH
 70
  3020
  9
$CMLSTYLE
  2
STANDARD
  9
$CMLJUST
 70
     0
  9
$CMLSCALE
 40
1.0
  9
$PROXYGRAPHICS
 70
     1
  9
$MEASUREMENT
 70
     0
  9
$CELWEIGHT
370
    -1
  9
$ENDCAPS
280
     0
  9
$JOINSTYLE
280
     0
  9
$LWDISPLAY
290
     0
  9
$INSUNITS
 70
     0
  9
$HYPERLINKBASE
  1

  9
$STYLESHEET
  1

  9
$XEDIT
290
     1
  9
$CEPSNTYPE
380
     0
  9
$PSTYLEMODE
290
     1
  9
$FINGERPRINTGUID
  2
{FB88A696-E29C-4009-92AF-A3599A8169D5}
  9
$VERSIONGUID
  2
{470C5A5D-937B-4A18-96F6-801ED7287777}
  9
$EXTNAMES
290
     1
  9
$PSVPSCALE
 40
0.0
  9
$OLESTARTUP
290
     0
  0
ENDSEC
  0
SECTION
  2
CLASSES
  0
CLASS
  1
DICTIONARYVAR
  2
AcDbDictionaryVar
  3
ObjectDBX Classes
 90
        0
280
     0
281
     0
  0
CLASS
  1
ACDBDICTIONARYWDFLT
  2
AcDbDictionaryWithDefault
  3
ObjectDBX Classes
 90
        0
280
     0
281
     0
  0
CLASS
  1
ACDBPLACEHOLDER
  2
AcDbPlaceHolder
  3
ObjectDBX Classes
 90
        0
280
     0
281
     0
  0
CLASS
  1
LAYOUT
  2
AcDbLayout
  3
ObjectDBX Classes
 90
        0
280
     0
281
     0
  0
CLASS
  1
TABLESTYLE
  2
AcDbTableStyle
  3
ObjectDBX Classes
 90
     2047
280
     0
281
     0
  0
CLASS
  1
SORTENTSTABLE
  2
AcDbSortentsTable
  3
ObjectDBX Classes
 90
        0
280
     0
281
     0
  0
ENDSEC
  0
SECTION
  2
TABLES
  0
TABLE
  2
VPORT
  5
12
330
0
100
AcDbSymbolTable
 70
    20
  0
VPORT
  5
34E0
330
12
100
AcDbSymbolTableRecord
100
AcDbViewportTableRecord
  2
*Active
 70
     0
 10
0.0
 20
0.0
 11
1.0
 21
1.0
 12
57.46161426236977
 22
81.20915992285148
 13
0.0
 23
0.0
 14
1.0
 24
1.0
 15
0.0
 25
0.0
 16
0.0
 26
0.0
 36
1.0
 17
0.0
 27
0.0
 37
0.0
 40
163.6813354272823
 41
1.565384615384615
 42
50.0
 43
0.0
 44
0.0
 50
0.0
 51
0.0
 71
     0
 72
 20000
 73
     1
 74
     1
 75
     0
 76
     0
 77
     0
 78
     0
281
     0
 65
     1
110
0.0
120
0.0
130
0.0
111
1.0
121
0.0
131
0.0
112
0.0
122
1.0
132
0.0
 79
     0
146
0.0
  0
ENDTAB
  0
TABLE
  2
LTYPE
  5
D
330
0
100
AcDbSymbolTable
 70
     2
  0
LTYPE
  5
E
330
D
100
AcDbSymbolTableRecord
100
AcDbLinetypeTableRecord
  2
BYBLOCK
 70
     0
  3

 72
    65
 73
     0
 40
0.0
  0
LTYPE
  5
F
330
D
100
AcDbSymbolTableRecord
100
AcDbLinetypeTableRecord
  2
BYLAYER
 70
     0
  3

 72
    65
 73
     0
 40
0.0
  0
LTYPE
  5
5
330
D
100
AcDbSymbolTableRecord
100
AcDbLinetypeTableRecord
  2
CONTINUOUS
 70
     0
  3
Solid line
 72
    65
 73
     0
 40
0.0
  0
ENDTAB
  0
TABLE
  2
LAYER
  5
A
102
{ACAD_XDICTIONARY
360
1B4
102
}
330
0
100
AcDbSymbolTable
 70
     6
  0
LAYER
  5
4
330
A
100
AcDbSymbolTableRecord
100
AcDbLayerTableRecord
  2
0
 70
     0
 62
     7
  6
CONTINUOUS
370
    -3
390
57
  0
LAYER
  5
25
330
A
100
AcDbSymbolTableRecord
100
AcDbLayerTableRecord
  2
KIJUN
 70
     0
 62
     7
  6
CONTINUOUS
370
    -3
390
57
  0
LAYER
  5
22
330
A
100
AcDbSymbolTableRecord
100
AcDbLayerTableRecord
  2
HOJO
 70
     0
 62
     3
  6
CONTINUOUS
370
    -3
390
57
  0
LAYER
  5
1B
330
A
100
AcDbSymbolTableRecord
100
AcDbLayerTableRecord
  2
WAKU
 70
     0
 62
     1
  6
CONTINUOUS
370
    -3
390
57
  0
LAYER
  5
31
330
A
100
AcDbSymbolTableRecord
100
AcDbLayerTableRecord
  2
DEFPOINTS
 70
     0
 62
     7
  6
CONTINUOUS
290
     0
370
    -3
390
57
  0
LAYER
  5
28
330
A
100
AcDbSymbolTableRecord
100
AcDbLayerTableRecord
  2
SUNPOU
 70
     0
 62
    70
  6
CONTINUOUS
370
    -3
390
57
  0
ENDTAB
  0
TABLE
  2
STYLE
  5
B
330
0
100
AcDbSymbolTable
 70
     3
  0
STYLE
  5
C
330
B
100
AcDbSymbolTableRecord
100
AcDbTextStyleTableRecord
  2
STANDARD
 70
     0
 40
0.0
 41
1.0
 50
0.0
 71
     0
 42
0.2
  3
txt
  4

  0
STYLE
  5
1C
330
B
100
AcDbSymbolTableRecord
100
AcDbTextStyleTableRecord
  2
SUNPOU
 70
     0
 40
0.0
 41
1.0
 50
0.0
 71
     0
 42
30.0
  3
txt
  4
bigfont
  0
STYLE
  5
14A
330
B
100
AcDbSymbolTableRecord
100
AcDbTextStyleTableRecord
  2
LIFE
 70
     0
 40
0.0
 41
0.7
 50
0.0
 71
     0
 42
10.0
  3
romans
  4
extfont
  0
ENDTAB
  0
TABLE
  2
VIEW
  5
10
330
0
100
AcDbSymbolTable
 70
     0
  0
ENDTAB
  0
TABLE
  2
UCS
  5
11
330
0
100
AcDbSymbolTable
 70
     0
  0
ENDTAB
  0
TABLE
  2
APPID
  5
14
330
0
100
AcDbSymbolTable
 70
    10
  0
APPID
  5
15
330
14
100
AcDbSymbolTableRecord
100
AcDbRegAppTableRecord
  2
ACAD
 70
     0
  0
APPID
  5
1D3
330
14
100
AcDbSymbolTableRecord
100
AcDbRegAppTableRecord
  2
ACAD_DSTYLE_DIMTEXT_FILL
 70
     0
  0
APPID
  5
1D4
330
14
100
AcDbSymbolTableRecord
100
AcDbRegAppTableRecord
  2
ACAD_DSTYLE_DIMEXT_LENGTH
 70
     0
  0
APPID
  5
1D5
330
14
100
AcDbSymbolTableRecord
100
AcDbRegAppTableRecord
  2
ACAD_DSTYLE_DIMEXT_ENABLED
 70
     0
  0
APPID
  5
1D6
330
14
100
AcDbSymbolTableRecord
100
AcDbRegAppTableRecord
  2
ACAD_DSTYLE_DIM_LINETYPE
 70
     0
  0
APPID
  5
1D7
330
14
100
AcDbSymbolTableRecord
100
AcDbRegAppTableRecord
  2
ACAD_DSTYLE_DIM_EXT1_LINETYPE
 70
     0
  0
APPID
  5
1D8
330
14
100
AcDbSymbolTableRecord
100
AcDbRegAppTableRecord
  2
ACAD_DSTYLE_DIM_EXT2_LINETYPE
 70
     0
  0
APPID
  5
294
330
14
100
AcDbSymbolTableRecord
100
AcDbRegAppTableRecord
  2
ACAD_DSTYLE_DIMJOGGED_JOGANGLE_SYMBOL
 70
     0
  0
APPID
  5
478
330
14
100
AcDbSymbolTableRecord
100
AcDbRegAppTableRecord
  2
ACAD_DSTYLE_DIMARC_LENGTH_SYMBOL
 70
     0
  0
APPID
  5
F55
330
14
100
AcDbSymbolTableRecord
100
AcDbRegAppTableRecord
  2
ACAD_EXEMPT_FROM_CAD_STANDARDS
 70
     0
  0
ENDTAB
  0
TABLE
  2
DIMSTYLE
  5
16
330
0
100
AcDbSymbolTable
 70
     3
100
AcDbDimStyleTable
 71
     1
340
1E
  0
DIMSTYLE
105
1E
102
{ACAD_REACTORS
330
33E6
330
33F3
102
}
330
16
100
AcDbSymbolTableRecord
100
AcDbDimStyleTableRecord
  2
STANDARD
 70
     0
340
C
  0
DIMSTYLE
105
1005
330
16
100
AcDbSymbolTableRecord
100
AcDbDimStyleTableRecord
  2
1-100
 70
     0
 40
100.0
 41
0.7
 42
2.5
 43
5.0
 44
1.0
 77
     1
147
1.0
172
     1
176
     3
177
     3
271
     2
272
     2
279
     2
340
C
342
109
  0
ENDTAB
  0
TABLE
  2
BLOCK_RECORD
  5
1
330
0
100
AcDbSymbolTable
 70
    30
  0
BLOCK_RECORD
  5
2
102
{ACAD_XDICTIONARY
360
D13
102
}
330
1
100
AcDbSymbolTableRecord
100
AcDbBlockTableRecord
  2
*MODEL_SPACE
340
5A
  0
BLOCK_RECORD
  5
7
330
1
100
AcDbSymbolTableRecord
100
AcDbBlockTableRecord
  2
*PAPER_SPACE
340
5B
  0
BLOCK_RECORD
  5
109
330
1
100
AcDbSymbolTableRecord
100
AcDbBlockTableRecord
  2
_Dot
340
0
102
{BLKREFS
331
28F6
331
28F7
331
28FF
331
2900
331
29FF
331
2A00
331
2A11
331
2A12
331
2BBE
331
2BBF
331
2BC7
331
2BC8
331
2C78
331
2C79
331
2C8A
331
2C8B
331
2D85
331
2D86
331
2D97
331
2D98
331
2EBA
331
2EBB
331
2EC7
331
2EC8
331
2FA0
331
2FA1
331
2FB2
331
2FB3
331
308A
331
308B
331
309C
331
309D
331
31E3
331
31E4
331
31EC
331
31ED
331
334D
331
334E
331
3356
331
3357
331
34D1
331
34D2
331
34DA
331
34DB
102
}
  0
BLOCK_RECORD
  5
2D4D
330
1
100
AcDbSymbolTableRecord
100
AcDbBlockTableRecord
  2
*D9
340
0
  0
BLOCK_RECORD
  5
2D5A
330
1
100
AcDbSymbolTableRecord
100
AcDbBlockTableRecord
  2
*D10
340
0
  0
BLOCK_RECORD
  5
2EB6
330
1
100
AcDbSymbolTableRecord
100
AcDbBlockTableRecord
  2
*D13
340
0
  0
BLOCK_RECORD
  5
2EC3
330
1
100
AcDbSymbolTableRecord
100
AcDbBlockTableRecord
  2
*D14
340
0
  0
BLOCK_RECORD
  5
2F55
330
1
100
AcDbSymbolTableRecord
100
AcDbBlockTableRecord
  2
*D16
340
0
  0
BLOCK_RECORD
  5
2F62
330
1
100
AcDbSymbolTableRecord
100
AcDbBlockTableRecord
  2
*D17
340
0
  0
BLOCK_RECORD
  5
3050
330
1
100
AcDbSymbolTableRecord
100
AcDbBlockTableRecord
  2
*D19
340
0
  0
BLOCK_RECORD
  5
305D
330
1
100
AcDbSymbolTableRecord
100
AcDbBlockTableRecord
  2
*D20
340
0
  0
BLOCK_RECORD
  5
30FC
330
1
100
AcDbSymbolTableRecord
100
AcDbBlockTableRecord
  2
*D22
340
0
  0
BLOCK_RECORD
  5
3109
330
1
100
AcDbSymbolTableRecord
100
AcDbBlockTableRecord
  2
*D23
340
0
  0
BLOCK_RECORD
  5
3276
330
1
100
AcDbSymbolTableRecord
100
AcDbBlockTableRecord
  2
*D25
340
0
  0
BLOCK_RECORD
  5
3295
330
1
100
AcDbSymbolTableRecord
100
AcDbBlockTableRecord
  2
*D26
340
0
  0
BLOCK_RECORD
  5
33E7
330
1
100
AcDbSymbolTableRecord
100
AcDbBlockTableRecord
  2
*D28
340
0
  0
BLOCK_RECORD
  5
33F4
330
1
100
AcDbSymbolTableRecord
100
AcDbBlockTableRecord
  2
*D29
340
0
  0
ENDTAB
  0
ENDSEC
  0
SECTION
  2
BLOCKS
  0
BLOCK
  5
3
330
2
100
AcDbEntity
  8
0
100
AcDbBlockBegin
  2
*MODEL_SPACE
 70
     0
 10
0.0
 20
0.0
 30
0.0
  3
*MODEL_SPACE
  1

  0
ENDBLK
  5
6
330
2
100
AcDbEntity
  8
0
100
AcDbBlockEnd
  0
BLOCK
  5
8
330
7
100
AcDbEntity
 67
     1
  8
0
100
AcDbBlockBegin
  2
*PAPER_SPACE
 70
     0
 10
0.0
 20
0.0
 30
0.0
  3
*PAPER_SPACE
  1

  0
ENDBLK
  5
9
330
7
100
AcDbEntity
 67
     1
  8
0
100
AcDbBlockEnd
  0
BLOCK
  5
10C
330
109
100
AcDbEntity
  8
0
100
AcDbBlockBegin
  2
_Dot
 70
     0
 10
0.0
 20
0.0
 30
0.0
  3
_Dot
  1

  0
LWPOLYLINE
  5
10A
330
109
100
AcDbEntity
  8
0
  6
ByBlock
 62
     0
100
AcDbPolyline
 90
        2
 70
     1
 43
0.5
 10
-0.25
 20
0.0
 42
1.0
 10
0.25
 20
0.0
 42
1.0
  0
LINE
  5
10B
330
109
100
AcDbEntity
  8
0
  6
ByBlock
 62
     0
370
    -2
100
AcDbLine
 10
-0.5
 20
0.0
 30
0.0
 11
-1.0
 21
0.0
 31
0.0
  0
ENDBLK
  5
10D
330
109
100
AcDbEntity
  8
0
100
AcDbBlockEnd
  0
BLOCK
  5
2D57
330
2D4D
100
AcDbEntity
  8
0
100
AcDbBlockBegin
  2
*D9
 70
     1
 10
0.0
 20
0.0
 30
0.0
  3
*D9
  1

  0
LINE
  5
2D94
330
2D4D
100
AcDbEntity
  8
SUNPOU
 62
    70
370
    -2
100
AcDbLine
 10
0.1418159049885054
 20
125.6030844466623
 30
0.0
 11
0.1418159049885066
 21
145.3652734674748
 31
0.0
  0
LINE
  5
2D95
330
2D4D
100
AcDbEntity
  8
SUNPOU
 62
    70
370
    -2
100
AcDbLine
 10
148.1418159049885
 20
124.931205663816
 30
0.0
 11
148.1418159049885
 21
145.3652734674748
 31
0.0
  0
LINE
  5
2D96
330
2D4D
100
AcDbEntity
  8
SUNPOU
 62
    60
370
    -2
100
AcDbLine
 10
2.141815904988506
 20
145.3652734674748
 30
0.0
 11
146.1418159049885
 21
145.3652734674748
 31
0.0
  0
INSERT
  5
2D97
330
2D4D
100
AcDbEntity
  8
SUNPOU
 62
    60
370
    -2
100
AcDbBlockReference
  2
_Dot
 10
0.1418159049885066
 20
145.3652734674748
 30
0.0
 41
2.0
 42
2.0
 43
2.0
 50
180.0
  0
INSERT
  5
2D98
330
2D4D
100
AcDbEntity
  8
SUNPOU
 62
    60
370
    -2
100
AcDbBlockReference
  2
_Dot
 10
148.1418159049885
 20
145.3652734674748
 30
0.0
 41
2.0
 42
2.0
 43
2.0
  0
MTEXT
  5
2D99
330
2D4D
100
AcDbEntity
  8
SUNPOU
 62
    60
100
AcDbMText
 10
74.1418159049885
 20
150.8652734674748
 30
0.0
 40
5.0
 41
0.0
 71
     5
 72
     1
  1
\A1;148
  7
SUNPOU
 73
     1
 44
1.0
1001
ACAD
1000
MTEXTBEGIN
1070
    73
1070
     1
1070
    44
1040
1.0
1070
    74
1070
     0
1000
MTEXTEND
  0
POINT
  5
2D9A
330
2D4D
100
AcDbEntity
  8
DEFPOINTS
 62
     0
100
AcDbPoint
 10
0.1418159049885048
 20
115.6030844466623
 30
0.0
  0
POINT
  5
2D9B
330
2D4D
100
AcDbEntity
  8
DEFPOINTS
 62
     0
100
AcDbPoint
 10
148.1418159049885
 20
114.931205663816
 30
0.0
  0
POINT
  5
2D9C
330
2D4D
100
AcDbEntity
  8
DEFPOINTS
 62
     0
100
AcDbPoint
 10
148.1418159049885
 20
145.3652734674748
 30
0.0
  0
ENDBLK
  5
2D58
330
2D4D
100
AcDbEntity
  8
0
100
AcDbBlockEnd
  0
BLOCK
  5
2D64
330
2D5A
100
AcDbEntity
  8
0
100
AcDbBlockBegin
  2
*D10
 70
     1
 10
0.0
 20
0.0
 30
0.0
  3
*D10
  1

  0
LINE
  5
2D82
330
2D5A
100
AcDbEntity
  8
SUNPOU
 62
    70
370
    -2
100
AcDbLine
 10
-9.858184095011495
 20
115.6030844466623
 30
0.0
 11
-29.12859584432521
 21
115.6030844466623
 31
0.0
  0
LINE
  5
2D83
330
2D5A
100
AcDbEntity
  8
SUNPOU
 62
    70
370
    -2
100
AcDbLine
 10
-10.17002237899623
 20
35.60308444666254
 30
0.0
 11
-29.12859584432522
 21
35.60308444666254
 31
0.0
  0
LINE
  5
2D84
330
2D5A
100
AcDbEntity
  8
SUNPOU
 62
    60
370
    -2
100
AcDbLine
 10
-29.12859584432521
 20
113.6030844466623
 30
0.0
 11
-29.12859584432522
 21
37.60308444666254
 31
0.0
  0
INSERT
  5
2D85
330
2D5A
100
AcDbEntity
  8
SUNPOU
 62
    60
370
    -2
100
AcDbBlockReference
  2
_Dot
 10
-29.12859584432521
 20
115.6030844466623
 30
0.0
 41
2.0
 42
2.0
 43
2.0
 50
90.0
  0
INSERT
  5
2D86
330
2D5A
100
AcDbEntity
  8
SUNPOU
 62
    60
370
    -2
100
AcDbBlockReference
  2
_Dot
 10
-29.12859584432522
 20
35.60308444666254
 30
0.0
 41
2.0
 42
2.0
 43
2.0
 50
270.0
  0
MTEXT
  5
2D87
330
2D5A
100
AcDbEntity
  8
SUNPOU
 62
    60
100
AcDbMText
 10
-34.62859584432523
 20
75.60308444666244
 30
0.0
 40
5.0
 41
0.0
 71
     5
 72
     1
  1
\A1;80
  7
SUNPOU
 11
0.0000000000000001
 21
1.0
 31
0.0
 73
     1
 44
1.0
1001
ACAD
1000
MTEXTBEGIN
1070
    73
1070
     1
1070
    44
1040
1.0
1070
    74
1070
     0
1000
MTEXTEND
  0
POINT
  5
2D88
330
2D5A
100
AcDbEntity
  8
DEFPOINTS
 62
     0
100
AcDbPoint
 10
0.1418159049885048
 20
115.6030844466623
 30
0.0
  0
POINT
  5
2D89
330
2D5A
100
AcDbEntity
  8
DEFPOINTS
 62
     0
100
AcDbPoint
 10
-0.1700223789962365
 20
35.60308444666254
 30
0.0
  0
POINT
  5
2D8A
330
2D5A
100
AcDbEntity
  8
DEFPOINTS
 62
     0
100
AcDbPoint
 10
-29.12859584432522
 20
35.60308444666254
 30
0.0
  0
ENDBLK
  5
2D65
330
2D5A
100
AcDbEntity
  8
0
100
AcDbBlockEnd
  0
BLOCK
  5
2EC0
330
2EB6
100
AcDbEntity
  8
0
100
AcDbBlockBegin
  2
*D13
 70
     1
 10
0.0
 20
0.0
 30
0.0
  3
*D13
  1

  0
LINE
  5
2EB7
330
2EB6
100
AcDbEntity
  8
SUNPOU
 62
    70
370
    -2
100
AcDbLine
 10
44.62777553604053
 20
75.56064489621573
 30
0.0
 11
44.62777553604053
 21
103.3282186239353
 31
0.0
  0
LINE
  5
2EB8
330
2EB6
100
AcDbEntity
  8
SUNPOU
 62
    70
370
    -2
100
AcDbLine
 10
98.62777553604042
 20
75.56064489621566
 30
0.0
 11
98.62777553604042
 21
103.3282186239353
 31
0.0
  0
LINE
  5
2EB9
330
2EB6
100
AcDbEntity
  8
SUNPOU
 62
    60
370
    -2
100
AcDbLine
 10
46.62777553604053
 20
103.3282186239353
 30
0.0
 11
96.62777553604042
 21
103.3282186239353
 31
0.0
  0
INSERT
  5
2EBA
330
2EB6
100
AcDbEntity
  8
SUNPOU
 62
    60
370
    -2
100
AcDbBlockReference
  2
_Dot
 10
44.62777553604053
 20
103.3282186239353
 30
0.0
 41
2.0
 42
2.0
 43
2.0
 50
180.0
  0
INSERT
  5
2EBB
330
2EB6
100
AcDbEntity
  8
SUNPOU
 62
    60
370
    -2
100
AcDbBlockReference
  2
_Dot
 10
98.62777553604042
 20
103.3282186239353
 30
0.0
 41
2.0
 42
2.0
 43
2.0
  0
MTEXT
  5
2EBC
330
2EB6
100
AcDbEntity
  8
SUNPOU
 62
    60
100
AcDbMText
 10
71.62777553604048
 20
108.8282186239353
 30
0.0
 40
5.0
 41
0.0
 71
     5
 72
     1
  1
\A1;54
  7
SUNPOU
 73
     1
 44
1.0
1001
ACAD
1000
MTEXTBEGIN
1070
    73
1070
     1
1070
    44
1040
1.0
1070
    74
1070
     0
1000
MTEXTEND
  0
POINT
  5
2EBD
330
2EB6
100
AcDbEntity
  8
DEFPOINTS
 62
     0
100
AcDbPoint
 10
44.62777553604053
 20
65.56064489621573
 30
0.0
  0
POINT
  5
2EBE
330
2EB6
100
AcDbEntity
  8
DEFPOINTS
 62
     0
100
AcDbPoint
 10
98.62777553604042
 20
65.56064489621566
 30
0.0
  0
POINT
  5
2EBF
330
2EB6
100
AcDbEntity
  8
DEFPOINTS
 62
     0
100
AcDbPoint
 10
98.62777553604042
 20
103.3282186239353
 30
0.0
  0
ENDBLK
  5
2EC1
330
2EB6
100
AcDbEntity
  8
0
100
AcDbBlockEnd
  0
BLOCK
  5
2ECD
330
2EC3
100
AcDbEntity
  8
0
100
AcDbBlockBegin
  2
*D14
 70
     1
 10
0.0
 20
0.0
 30
0.0
  3
*D14
  1

  0
LINE
  5
2EC4
330
2EC3
100
AcDbEntity
  8
SUNPOU
 62
    70
370
    -2
100
AcDbLine
 10
56.46639654069609
 20
87.39926590087112
 30
0.0
 11
26.88340140478659
 21
87.39926590087113
 31
0.0
  0
LINE
  5
2EC5
330
2EC3
100
AcDbEntity
  8
SUNPOU
 62
    70
370
    -2
100
AcDbLine
 10
56.46639654069602
 20
33.39926590087123
 30
0.0
 11
26.88340140478658
 21
33.39926590087124
 31
0.0
  0
LINE
  5
2EC6
330
2EC3
100
AcDbEntity
  8
SUNPOU
 62
    60
370
    -2
100
AcDbLine
 10
26.88340140478659
 20
85.39926590087112
 30
0.0
 11
26.88340140478658
 21
35.39926590087123
 31
0.0
  0
INSERT
  5
2EC7
330
2EC3
100
AcDbEntity
  8
SUNPOU
 62
    60
370
    -2
100
AcDbBlockReference
  2
_Dot
 10
26.88340140478659
 20
87.39926590087113
 30
0.0
 41
2.0
 42
2.0
 43
2.0
 50
90.0
  0
INSERT
  5
2EC8
330
2EC3
100
AcDbEntity
  8
SUNPOU
 62
    60
370
    -2
100
AcDbBlockReference
  2
_Dot
 10
26.88340140478658
 20
33.39926590087124
 30
0.0
 41
2.0
 42
2.0
 43
2.0
 50
270.0
  0
MTEXT
  5
2EC9
330
2EC3
100
AcDbEntity
  8
SUNPOU
 62
    60
100
AcDbMText
 10
21.38340140478657
 20
60.39926590087119
 30
0.0
 40
5.0
 41
0.0
 71
     5
 72
     1
  1
\A1;54
  7
SUNPOU
 11
0.0000000000000001
 21
1.0
 31
0.0
 73
     1
 44
1.0
1001
ACAD
1000
MTEXTBEGIN
1070
    73
1070
     1
1070
    44
1040
1.0
1070
    74
1070
     0
1000
MTEXTEND
  0
POINT
  5
2ECA
330
2EC3
100
AcDbEntity
  8
DEFPOINTS
 62
     0
100
AcDbPoint
 10
66.46639654069608
 20
87.39926590087112
 30
0.0
  0
POINT
  5
2ECB
330
2EC3
100
AcDbEntity
  8
DEFPOINTS
 62
     0
100
AcDbPoint
 10
66.46639654069602
 20
33.39926590087123
 30
0.0
  0
POINT
  5
2ECC
330
2EC3
100
AcDbEntity
  8
DEFPOINTS
 62
     0
100
AcDbPoint
 10
26.88340140478658
 20
33.39926590087124
 30
0.0
  0
ENDBLK
  5
2ECE
330
2EC3
100
AcDbEntity
  8
0
100
AcDbBlockEnd
  0
BLOCK
  5
2F5F
330
2F55
100
AcDbEntity
  8
0
100
AcDbBlockBegin
  2
*D16
 70
     1
 10
0.0
 20
0.0
 30
0.0
  3
*D16
  1

  0
LINE
  5
2FAF
330
2F55
100
AcDbEntity
  8
SUNPOU
 62
    70
370
    -2
100
AcDbLine
 10
-6.955946714665485
 20
222.8416558432654
 30
0.0
 11
-6.955946714665484
 21
243.6803208305053
 31
0.0
  0
LINE
  5
2FB0
330
2F55
100
AcDbEntity
  8
SUNPOU
 62
    70
370
    -2
100
AcDbLine
 10
165.0440532853345
 20
220.4892270029193
 30
0.0
 11
165.0440532853345
 21
243.6803208305053
 31
0.0
  0
LINE
  5
2FB1
330
2F55
100
AcDbEntity
  8
SUNPOU
 62
    60
370
    -2
100
AcDbLine
 10
-4.955946714665484
 20
243.6803208305053
 30
0.0
 11
163.0440532853345
 21
243.6803208305053
 31
0.0
  0
INSERT
  5
2FB2
330
2F55
100
AcDbEntity
  8
SUNPOU
 62
    60
370
    -2
100
AcDbBlockReference
  2
_Dot
 10
-6.955946714665484
 20
243.6803208305053
 30
0.0
 41
2.0
 42
2.0
 43
2.0
 50
180.0
  0
INSERT
  5
2FB3
330
2F55
100
AcDbEntity
  8
SUNPOU
 62
    60
370
    -2
100
AcDbBlockReference
  2
_Dot
 10
165.0440532853345
 20
243.6803208305053
 30
0.0
 41
2.0
 42
2.0
 43
2.0
  0
MTEXT
  5
2FB4
330
2F55
100
AcDbEntity
  8
SUNPOU
 62
    60
100
AcDbMText
 10
79.04405328533453
 20
249.1803208305053
 30
0.0
 40
5.0
 41
0.0
 71
     5
 72
     1
  1
\A1;172
  7
SUNPOU
 73
     1
 44
1.0
1001
ACAD
1000
MTEXTBEGIN
1070
    73
1070
     1
1070
    44
1040
1.0
1070
    74
1070
     0
1000
MTEXTEND
  0
POINT
  5
2FB5
330
2F55
100
AcDbEntity
  8
DEFPOINTS
 62
     0
100
AcDbPoint
 10
-6.955946714665486
 20
212.8416558432654
 30
0.0
  0
POINT
  5
2FB6
330
2F55
100
AcDbEntity
  8
DEFPOINTS
 62
     0
100
AcDbPoint
 10
165.0440532853345
 20
210.4892270029193
 30
0.0
  0
POINT
  5
2FB7
330
2F55
100
AcDbEntity
  8
DEFPOINTS
 62
     0
100
AcDbPoint
 10
165.0440532853345
 20
243.6803208305053
 30
0.0
  0
ENDBLK
  5
2F60
330
2F55
100
AcDbEntity
  8
0
100
AcDbBlockEnd
  0
BLOCK
  5
2F6C
330
2F62
100
AcDbEntity
  8
0
100
AcDbBlockBegin
  2
*D17
 70
     1
 10
0.0
 20
0.0
 30
0.0
  3
*D17
  1

  0
LINE
  5
2F9D
330
2F62
100
AcDbEntity
  8
SUNPOU
 62
    70
370
    -2
100
AcDbLine
 10
-16.95594671466549
 20
212.8416558432654
 30
0.0
 11
-35.7209210111059
 21
212.8416558432654
 31
0.0
  0
LINE
  5
2F9E
330
2F62
100
AcDbEntity
  8
SUNPOU
 62
    70
370
    -2
100
AcDbLine
 10
-12.82070709250229
 20
42.84165584326565
 30
0.0
 11
-35.72092101110594
 21
42.84165584326566
 31
0.0
  0
LINE
  5
2F9F
330
2F62
100
AcDbEntity
  8
SUNPOU
 62
    60
370
    -2
100
AcDbLine
 10
-35.7209210111059
 20
210.8416558432654
 30
0.0
 11
-35.72092101110594
 21
44.84165584326566
 31
0.0
  0
INSERT
  5
2FA0
330
2F62
100
AcDbEntity
  8
SUNPOU
 62
    60
370
    -2
100
AcDbBlockReference
  2
_Dot
 10
-35.7209210111059
 20
212.8416558432654
 30
0.0
 41
2.0
 42
2.0
 43
2.0
 50
90.0
  0
INSERT
  5
2FA1
330
2F62
100
AcDbEntity
  8
SUNPOU
 62
    60
370
    -2
100
AcDbBlockReference
  2
_Dot
 10
-35.72092101110594
 20
42.84165584326566
 30
0.0
 41
2.0
 42
2.0
 43
2.0
 50
270.0
  0
MTEXT
  5
2FA2
330
2F62
100
AcDbEntity
  8
SUNPOU
 62
    60
100
AcDbMText
 10
-41.22092101110593
 20
127.8416558432655
 30
0.0
 40
5.0
 41
0.0
 71
     5
 72
     1
  1
\A1;170
  7
SUNPOU
 11
0.0000000000000001
 21
1.0
 31
0.0
 73
     1
 44
1.0
1001
ACAD
1000
MTEXTBEGIN
1070
    73
1070
     1
1070
    44
1040
1.0
1070
    74
1070
     0
1000
MTEXTEND
  0
POINT
  5
2FA3
330
2F62
100
AcDbEntity
  8
DEFPOINTS
 62
     0
100
AcDbPoint
 10
-6.955946714665486
 20
212.8416558432654
 30
0.0
  0
POINT
  5
2FA4
330
2F62
100
AcDbEntity
  8
DEFPOINTS
 62
     0
100
AcDbPoint
 10
-2.820707092502289
 20
42.84165584326565
 30
0.0
  0
POINT
  5
2FA5
330
2F62
100
AcDbEntity
  8
DEFPOINTS
 62
     0
100
AcDbPoint
 10
-35.72092101110594
 20
42.84165584326566
 30
0.0
  0
ENDBLK
  5
2F6D
330
2F62
100
AcDbEntity
  8
0
100
AcDbBlockEnd
  0
BLOCK
  5
305A
330
3050
100
AcDbEntity
  8
0
100
AcDbBlockBegin
  2
*D19
 70
     1
 10
0.0
 20
0.0
 30
0.0
  3
*D19
  1

  0
LINE
  5
3099
330
3050
100
AcDbEntity
  8
SUNPOU
 62
    70
370
    -2
100
AcDbLine
 10
26.77615250246225
 20
88.38649375862404
 30
0.0
 11
26.77615250246225
 21
100.1932696032997
 31
0.0
  0
LINE
  5
309A
330
3050
100
AcDbEntity
  8
SUNPOU
 62
    70
370
    -2
100
AcDbLine
 10
128.7761525024628
 20
88.67617922769978
 30
0.0
 11
128.7761525024628
 21
100.1932696032997
 31
0.0
  0
LINE
  5
309B
330
3050
100
AcDbEntity
  8
SUNPOU
 62
    60
370
    -2
100
AcDbLine
 10
28.77615250246225
 20
100.1932696032997
 30
0.0
 11
126.7761525024628
 21
100.1932696032997
 31
0.0
  0
INSERT
  5
309C
330
3050
100
AcDbEntity
  8
SUNPOU
 62
    60
370
    -2
100
AcDbBlockReference
  2
_Dot
 10
26.77615250246225
 20
100.1932696032997
 30
0.0
 41
2.0
 42
2.0
 43
2.0
 50
180.0
  0
INSERT
  5
309D
330
3050
100
AcDbEntity
  8
SUNPOU
 62
    60
370
    -2
100
AcDbBlockReference
  2
_Dot
 10
128.7761525024628
 20
100.1932696032997
 30
0.0
 41
2.0
 42
2.0
 43
2.0
  0
MTEXT
  5
309E
330
3050
100
AcDbEntity
  8
SUNPOU
 62
    60
100
AcDbMText
 10
77.77615250246253
 20
105.6932696032997
 30
0.0
 40
5.0
 41
0.0
 71
     5
 72
     1
  1
\A1;102
  7
SUNPOU
 73
     1
 44
1.0
1001
ACAD
1000
MTEXTBEGIN
1070
    73
1070
     1
1070
    44
1040
1.0
1070
    74
1070
     0
1000
MTEXTEND
  0
POINT
  5
309F
330
3050
100
AcDbEntity
  8
DEFPOINTS
 62
     0
100
AcDbPoint
 10
26.77615250246225
 20
78.38649375862404
 30
0.0
  0
POINT
  5
30A0
330
3050
100
AcDbEntity
  8
DEFPOINTS
 62
     0
100
AcDbPoint
 10
128.7761525024628
 20
78.67617922769977
 30
0.0
  0
POINT
  5
30A1
330
3050
100
AcDbEntity
  8
DEFPOINTS
 62
     0
100
AcDbPoint
 10
128.7761525024628
 20
100.1932696032997
 30
0.0
  0
ENDBLK
  5
305B
330
3050
100
AcDbEntity
  8
0
100
AcDbBlockEnd
  0
BLOCK
  5
3067
330
305D
100
AcDbEntity
  8
0
100
AcDbBlockBegin
  2
*D20
 70
     1
 10
0.0
 20
0.0
 30
0.0
  3
*D20
  1

  0
LINE
  5
3087
330
305D
100
AcDbEntity
  8
SUNPOU
 62
    70
370
    -2
100
AcDbLine
 10
16.77615250246225
 20
78.38649375862404
 30
0.0
 11
7.307928459925285
 21
78.38649375862404
 31
0.0
  0
LINE
  5
3088
330
305D
100
AcDbEntity
  8
SUNPOU
 62
    70
370
    -2
100
AcDbLine
 10
16.85609841476389
 20
46.38649375862399
 30
0.0
 11
7.307928459925278
 21
46.38649375862399
 31
0.0
  0
LINE
  5
3089
330
305D
100
AcDbEntity
  8
SUNPOU
 62
    60
370
    -2
100
AcDbLine
 10
7.307928459925284
 20
76.38649375862404
 30
0.0
 11
7.307928459925278
 21
48.38649375862399
 31
0.0
  0
INSERT
  5
308A
330
305D
100
AcDbEntity
  8
SUNPOU
 62
    60
370
    -2
100
AcDbBlockReference
  2
_Dot
 10
7.307928459925285
 20
78.38649375862404
 30
0.0
 41
2.0
 42
2.0
 43
2.0
 50
90.0
  0
INSERT
  5
308B
330
305D
100
AcDbEntity
  8
SUNPOU
 62
    60
370
    -2
100
AcDbBlockReference
  2
_Dot
 10
7.307928459925278
 20
46.38649375862399
 30
0.0
 41
2.0
 42
2.0
 43
2.0
 50
270.0
  0
MTEXT
  5
308C
330
305D
100
AcDbEntity
  8
SUNPOU
 62
    60
100
AcDbMText
 10
1.807928459925271
 20
62.38649375862401
 30
0.0
 40
5.0
 41
0.0
 71
     5
 72
     1
  1
\A1;32
  7
SUNPOU
 11
0.0000000000000001
 21
1.0
 31
0.0
 73
     1
 44
1.0
1001
ACAD
1000
MTEXTBEGIN
1070
    73
1070
     1
1070
    44
1040
1.0
1070
    74
1070
     0
1000
MTEXTEND
  0
POINT
  5
308D
330
305D
100
AcDbEntity
  8
DEFPOINTS
 62
     0
100
AcDbPoint
 10
26.77615250246225
 20
78.38649375862404
 30
0.0
  0
POINT
  5
308E
330
305D
100
AcDbEntity
  8
DEFPOINTS
 62
     0
100
AcDbPoint
 10
26.85609841476389
 20
46.38649375862399
 30
0.0
  0
POINT
  5
308F
330
305D
100
AcDbEntity
  8
DEFPOINTS
 62
     0
100
AcDbPoint
 10
7.307928459925278
 20
46.38649375862399
 30
0.0
  0
ENDBLK
  5
3068
330
305D
100
AcDbEntity
  8
0
100
AcDbBlockEnd
  0
BLOCK
  5
3106
330
30FC
100
AcDbEntity
  8
0
100
AcDbBlockBegin
  2
*D22
 70
     1
 10
0.0
 20
0.0
 30
0.0
  3
*D22
  1

  0
LINE
  5
31E0
330
30FC
100
AcDbEntity
  8
SUNPOU
 62
    70
370
    -2
100
AcDbLine
 10
5.990362397614164
 20
179.3740075797039
 30
0.0
 11
-15.86928620185925
 21
179.3740075797039
 31
0.0
  0
LINE
  5
31E1
330
30FC
100
AcDbEntity
  8
SUNPOU
 62
    70
370
    -2
100
AcDbLine
 10
4.766901656834306
 20
46.37400757970431
 30
0.0
 11
-15.86928620185928
 21
46.37400757970431
 31
0.0
  0
LINE
  5
31E2
330
30FC
100
AcDbEntity
  8
SUNPOU
 62
    60
370
    -2
100
AcDbLine
 10
-15.86928620185925
 20
177.3740075797039
 30
0.0
 11
-15.86928620185928
 21
48.37400757970431
 31
0.0
  0
INSERT
  5
31E3
330
30FC
100
AcDbEntity
  8
SUNPOU
 62
    60
370
    -2
100
AcDbBlockReference
  2
_Dot
 10
-15.86928620185925
 20
179.3740075797039
 30
0.0
 41
2.0
 42
2.0
 43
2.0
 50
90.0
  0
INSERT
  5
31E4
330
30FC
100
AcDbEntity
  8
SUNPOU
 62
    60
370
    -2
100
AcDbBlockReference
  2
_Dot
 10
-15.86928620185928
 20
46.37400757970431
 30
0.0
 41
2.0
 42
2.0
 43
2.0
 50
270.0
  0
MTEXT
  5
31E5
330
30FC
100
AcDbEntity
  8
SUNPOU
 62
    60
100
AcDbMText
 10
-21.36928620185928
 20
112.8740075797041
 30
0.0
 40
5.0
 41
0.0
 71
     5
 72
     1
  1
\A1;133
  7
SUNPOU
 11
0.0000000000000001
 21
1.0
 31
0.0
 73
     1
 44
1.0
1001
ACAD
1000
MTEXTBEGIN
1070
    73
1070
     1
1070
    44
1040
1.0
1070
    74
1070
     0
1000
MTEXTEND
  0
POINT
  5
31E6
330
30FC
100
AcDbEntity
  8
DEFPOINTS
 62
     0
100
AcDbPoint
 10
15.99036239761416
 20
179.3740075797039
 30
0.0
  0
POINT
  5
31E7
330
30FC
100
AcDbEntity
  8
DEFPOINTS
 62
     0
100
AcDbPoint
 10
14.76690165683431
 20
46.37400757970431
 30
0.0
  0
POINT
  5
31E8
330
30FC
100
AcDbEntity
  8
DEFPOINTS
 62
     0
100
AcDbPoint
 10
-15.86928620185928
 20
46.37400757970431
 30
0.0
  0
ENDBLK
  5
3107
330
30FC
100
AcDbEntity
  8
0
100
AcDbBlockEnd
  0
BLOCK
  5
3113
330
3109
100
AcDbEntity
  8
0
100
AcDbBlockBegin
  2
*D23
 70
     1
 10
0.0
 20
0.0
 30
0.0
  3
*D23
  1

  0
LINE
  5
31E9
330
3109
100
AcDbEntity
  8
SUNPOU
 62
    70
370
    -2
100
AcDbLine
 10
15.99036239761416
 20
189.3740075797039
 30
0.0
 11
15.99036239761416
 21
204.2147186650006
 31
0.0
  0
LINE
  5
31EA
330
3109
100
AcDbEntity
  8
SUNPOU
 62
    70
370
    -2
100
AcDbLine
 10
69.99036239761443
 20
189.5793105005016
 30
0.0
 11
69.99036239761443
 21
204.2147186650006
 31
0.0
  0
LINE
  5
31EB
330
3109
100
AcDbEntity
  8
SUNPOU
 62
    60
370
    -2
100
AcDbLine
 10
17.99036239761416
 20
204.2147186650006
 30
0.0
 11
67.99036239761443
 21
204.2147186650006
 31
0.0
  0
INSERT
  5
31EC
330
3109
100
AcDbEntity
  8
SUNPOU
 62
    60
370
    -2
100
AcDbBlockReference
  2
_Dot
 10
15.99036239761416
 20
204.2147186650006
 30
0.0
 41
2.0
 42
2.0
 43
2.0
 50
180.0
  0
INSERT
  5
31ED
330
3109
100
AcDbEntity
  8
SUNPOU
 62
    60
370
    -2
100
AcDbBlockReference
  2
_Dot
 10
69.99036239761443
 20
204.2147186650006
 30
0.0
 41
2.0
 42
2.0
 43
2.0
  0
MTEXT
  5
31EE
330
3109
100
AcDbEntity
  8
SUNPOU
 62
    60
100
AcDbMText
 10
42.9903623976143
 20
209.7147186650007
 30
0.0
 40
5.0
 41
0.0
 71
     5
 72
     1
  1
\A1;54
  7
SUNPOU
 73
     1
 44
1.0
1001
ACAD
1000
MTEXTBEGIN
1070
    73
1070
     1
1070
    44
1040
1.0
1070
    74
1070
     0
1000
MTEXTEND
  0
POINT
  5
31EF
330
3109
100
AcDbEntity
  8
DEFPOINTS
 62
     0
100
AcDbPoint
 10
15.99036239761416
 20
179.3740075797039
 30
0.0
  0
POINT
  5
31F0
330
3109
100
AcDbEntity
  8
DEFPOINTS
 62
     0
100
AcDbPoint
 10
69.99036239761443
 20
179.5793105005016
 30
0.0
  0
POINT
  5
31F1
330
3109
100
AcDbEntity
  8
DEFPOINTS
 62
     0
100
AcDbPoint
 10
69.99036239761443
 20
204.2147186650006
 30
0.0
  0
ENDBLK
  5
3114
330
3109
100
AcDbEntity
  8
0
100
AcDbBlockEnd
  0
BLOCK
  5
3280
330
3276
100
AcDbEntity
  8
0
100
AcDbBlockBegin
  2
*D25
 70
     1
 10
0.0
 20
0.0
 30
0.0
  3
*D25
  1

  0
LINE
  5
334A
330
3276
100
AcDbEntity
  8
SUNPOU
 62
    70
370
    -2
100
AcDbLine
 10
-68.9031625570903
 20
224.0410889786088
 30
0.0
 11
-68.9031625570903
 21
255.6383599886624
 31
0.0
  0
LINE
  5
334B
330
3276
100
AcDbEntity
  8
SUNPOU
 62
    70
370
    -2
100
AcDbLine
 10
214.0968374429097
 20
229.1482236532713
 30
0.0
 11
214.0968374429097
 21
255.6383599886624
 31
0.0
  0
LINE
  5
334C
330
3276
100
AcDbEntity
  8
SUNPOU
 62
    60
370
    -2
100
AcDbLine
 10
-66.9031625570903
 20
255.6383599886624
 30
0.0
 11
212.0968374429097
 21
255.6383599886624
 31
0.0
  0
INSERT
  5
334D
330
3276
100
AcDbEntity
  8
SUNPOU
 62
    60
370
    -2
100
AcDbBlockReference
  2
_Dot
 10
-68.9031625570903
 20
255.6383599886624
 30
0.0
 41
2.0
 42
2.0
 43
2.0
 50
180.0
  0
INSERT
  5
334E
330
3276
100
AcDbEntity
  8
SUNPOU
 62
    60
370
    -2
100
AcDbBlockReference
  2
_Dot
 10
214.0968374429097
 20
255.6383599886624
 30
0.0
 41
2.0
 42
2.0
 43
2.0
  0
MTEXT
  5
334F
330
3276
100
AcDbEntity
  8
SUNPOU
 62
    60
100
AcDbMText
 10
72.5968374429097
 20
261.1383599886624
 30
0.0
 40
5.0
 41
0.0
 71
     5
 72
     1
  1
\A1;283
  7
SUNPOU
 73
     1
 44
1.0
1001
ACAD
1000
MTEXTBEGIN
1070
    73
1070
     1
1070
    44
1040
1.0
1070
    74
1070
     0
1000
MTEXTEND
  0
POINT
  5
3350
330
3276
100
AcDbEntity
  8
DEFPOINTS
 62
     0
100
AcDbPoint
 10
-68.9031625570903
 20
214.0410889786088
 30
0.0
  0
POINT
  5
3351
330
3276
100
AcDbEntity
  8
DEFPOINTS
 62
     0
100
AcDbPoint
 10
214.0968374429097
 20
219.1482236532713
 30
0.0
  0
POINT
  5
3352
330
3276
100
AcDbEntity
  8
DEFPOINTS
 62
     0
100
AcDbPoint
 10
214.0968374429097
 20
255.6383599886624
 30
0.0
  0
ENDBLK
  5
3281
330
3276
100
AcDbEntity
  8
0
100
AcDbBlockEnd
  0
BLOCK
  5
329F
330
3295
100
AcDbEntity
  8
0
100
AcDbBlockBegin
  2
*D26
 70
     1
 10
0.0
 20
0.0
 30
0.0
  3
*D26
  1

  0
LINE
  5
3353
330
3295
100
AcDbEntity
  8
SUNPOU
 62
    70
370
    -2
100
AcDbLine
 10
-79.8360753158986
 20
138.0410888860841
 30
0.0
 11
-107.8199535032295
 21
138.0410888860841
 31
0.0
  0
LINE
  5
3354
330
3295
100
AcDbEntity
  8
SUNPOU
 62
    70
370
    -2
100
AcDbLine
 10
-78.9031625570903
 20
214.0410889786088
 30
0.0
 11
-107.8199535032295
 21
214.0410889786088
 31
0.0
  0
LINE
  5
3355
330
3295
100
AcDbEntity
  8
SUNPOU
 62
    60
370
    -2
100
AcDbLine
 10
-107.8199535032295
 20
140.0410888860841
 30
0.0
 11
-107.8199535032295
 21
212.0410889786088
 31
0.0
  0
INSERT
  5
3356
330
3295
100
AcDbEntity
  8
SUNPOU
 62
    60
370
    -2
100
AcDbBlockReference
  2
_Dot
 10
-107.8199535032295
 20
138.0410888860841
 30
0.0
 41
2.0
 42
2.0
 43
2.0
 50
270.0
  0
INSERT
  5
3357
330
3295
100
AcDbEntity
  8
SUNPOU
 62
    60
370
    -2
100
AcDbBlockReference
  2
_Dot
 10
-107.8199535032295
 20
214.0410889786088
 30
0.0
 41
2.0
 42
2.0
 43
2.0
 50
90.0
  0
MTEXT
  5
3358
330
3295
100
AcDbEntity
  8
SUNPOU
 62
    60
100
AcDbMText
 10
-113.3199535032295
 20
176.0410889323464
 30
0.0
 40
5.0
 41
0.0
 71
     5
 72
     1
  1
\A1;76
  7
SUNPOU
 11
0.0000000000000001
 21
1.0
 31
0.0
 73
     1
 44
1.0
1001
ACAD
1000
MTEXTBEGIN
1070
    73
1070
     1
1070
    44
1040
1.0
1070
    74
1070
     0
1000
MTEXTEND
  0
POINT
  5
3359
330
3295
100
AcDbEntity
  8
DEFPOINTS
 62
     0
100
AcDbPoint
 10
-69.8360753158986
 20
138.0410888860841
 30
0.0
  0
POINT
  5
335A
330
3295
100
AcDbEntity
  8
DEFPOINTS
 62
     0
100
AcDbPoint
 10
-68.9031625570903
 20
214.0410889786088
 30
0.0
  0
POINT
  5
335B
330
3295
100
AcDbEntity
  8
DEFPOINTS
 62
     0
100
AcDbPoint
 10
-107.8199535032295
 20
214.0410889786088
 30
0.0
  0
ENDBLK
  5
32A0
330
3295
100
AcDbEntity
  8
0
100
AcDbBlockEnd
  0
BLOCK
  5
33F1
330
33E7
100
AcDbEntity
  8
0
100
AcDbBlockBegin
  2
*D28
 70
     1
 10
0.0
 20
0.0
 30
0.0
  3
*D28
  1

  0
LINE
  5
34CE
330
33E7
100
AcDbEntity
  8
SUNPOU
 62
    70
370
    -2
100
AcDbLine
 10
-13.60661830403456
 20
140.7172245237277
 30
0.0
 11
-13.60661830403455
 21
154.4203747121562
 31
0.0
  0
LINE
  5
34CF
330
33E7
100
AcDbEntity
  8
SUNPOU
 62
    70
370
    -2
100
AcDbLine
 10
67.39338169596544
 20
141.0295830922748
 30
0.0
 11
67.39338169596544
 21
154.4203747121562
 31
0.0
  0
LINE
  5
34D0
330
33E7
100
AcDbEntity
  8
SUNPOU
 62
    60
370
    -2
100
AcDbLine
 10
-11.60661830403455
 20
154.4203747121562
 30
0.0
 11
65.39338169596544
 21
154.4203747121562
 31
0.0
  0
INSERT
  5
34D1
330
33E7
100
AcDbEntity
  8
SUNPOU
 62
    60
370
    -2
100
AcDbBlockReference
  2
_Dot
 10
-13.60661830403455
 20
154.4203747121562
 30
0.0
 41
2.0
 42
2.0
 43
2.0
 50
180.0
  0
INSERT
  5
34D2
330
33E7
100
AcDbEntity
  8
SUNPOU
 62
    60
370
    -2
100
AcDbBlockReference
  2
_Dot
 10
67.39338169596544
 20
154.4203747121562
 30
0.0
 41
2.0
 42
2.0
 43
2.0
  0
MTEXT
  5
34D3
330
33E7
100
AcDbEntity
  8
SUNPOU
 62
    60
100
AcDbMText
 10
26.89338169596545
 20
159.9203747121562
 30
0.0
 40
5.0
 41
0.0
 71
     5
 72
     1
  1
\A1;81
  7
SUNPOU
 73
     1
 44
1.0
1001
ACAD
1000
MTEXTBEGIN
1070
    73
1070
     1
1070
    44
1040
1.0
1070
    74
1070
     0
1000
MTEXTEND
  0
POINT
  5
34D4
330
33E7
100
AcDbEntity
  8
DEFPOINTS
 62
     0
100
AcDbPoint
 10
-13.60661830403456
 20
130.7172245237277
 30
0.0
  0
POINT
  5
34D5
330
33E7
100
AcDbEntity
  8
DEFPOINTS
 62
     0
100
AcDbPoint
 10
67.39338169596544
 20
131.0295830922748
 30
0.0
  0
POINT
  5
34D6
330
33E7
100
AcDbEntity
  8
DEFPOINTS
 62
     0
100
AcDbPoint
 10
67.39338169596544
 20
154.4203747121562
 30
0.0
  0
ENDBLK
  5
33F2
330
33E7
100
AcDbEntity
  8
0
100
AcDbBlockEnd
  0
BLOCK
  5
33FE
330
33F4
100
AcDbEntity
  8
0
100
AcDbBlockBegin
  2
*D29
 70
     1
 10
0.0
 20
0.0
 30
0.0
  3
*D29
  1

  0
LINE
  5
34D7
330
33F4
100
AcDbEntity
  8
SUNPOU
 62
    70
370
    -2
100
AcDbLine
 10
-23.60661830403456
 20
130.7172245237277
 30
0.0
 11
-40.63343382143647
 21
130.7172245237277
 31
0.0
  0
LINE
  5
34D8
330
33F4
100
AcDbEntity
  8
SUNPOU
 62
    70
370
    -2
100
AcDbLine
 10
-23.80906538472527
 20
36.71722452372772
 30
0.0
 11
-40.63343382143648
 21
36.71722452372772
 31
0.0
  0
LINE
  5
34D9
330
33F4
100
AcDbEntity
  8
SUNPOU
 62
    60
370
    -2
100
AcDbLine
 10
-40.63343382143647
 20
128.7172245237277
 30
0.0
 11
-40.63343382143648
 21
38.71722452372772
 31
0.0
  0
INSERT
  5
34DA
330
33F4
100
AcDbEntity
  8
SUNPOU
 62
    60
370
    -2
100
AcDbBlockReference
  2
_Dot
 10
-40.63343382143647
 20
130.7172245237277
 30
0.0
 41
2.0
 42
2.0
 43
2.0
 50
90.0
  0
INSERT
  5
34DB
330
33F4
100
AcDbEntity
  8
SUNPOU
 62
    60
370
    -2
100
AcDbBlockReference
  2
_Dot
 10
-40.63343382143648
 20
36.71722452372772
 30
0.0
 41
2.0
 42
2.0
 43
2.0
 50
270.0
  0
MTEXT
  5
34DC
330
33F4
100
AcDbEntity
  8
SUNPOU
 62
    60
100
AcDbMText
 10
-46.13343382143649
 20
83.7172245237277
 30
0.0
 40
5.0
 41
0.0
 71
     5
 72
     1
  1
\A1;94
  7
SUNPOU
 11
0.0000000000000001
 21
1.0
 31
0.0
 73
     1
 44
1.0
1001
ACAD
1000
MTEXTBEGIN
1070
    73
1070
     1
1070
    44
1040
1.0
1070
    74
1070
     0
1000
MTEXTEND
  0
POINT
  5
34DD
330
33F4
100
AcDbEntity
  8
DEFPOINTS
 62
     0
100
AcDbPoint
 10
-13.60661830403456
 20
130.7172245237277
 30
0.0
  0
POINT
  5
34DE
330
33F4
100
AcDbEntity
  8
DEFPOINTS
 62
     0
100
AcDbPoint
 10
-13.80906538472527
 20
36.71722452372771
 30
0.0
  0
POINT
  5
34DF
330
33F4
100
AcDbEntity
  8
DEFPOINTS
 62
     0
100
AcDbPoint
 10
-40.63343382143648
 20
36.71722452372772
 30
0.0
  0
ENDBLK
  5
33FF
330
33F4
100
AcDbEntity
  8
0
100
AcDbBlockEnd
  0
ENDSEC
  0
SECTION
  2
ENTITIES
  0
LINE
  5
1F
330
2
100
AcDbEntity
  8
WAKU
100
AcDbLine
 10
0.0
 20
14.0
 30
0.0
 11
148.6829221395387
 21
14.0
 31
0.0
  0
LINE
  5
20
330
2
100
AcDbEntity
  8
WAKU
100
AcDbLine
 10
0.0
 20
0.0
 30
0.0
 11
148.6829221395387
 21
0.0
 31
0.0
  0
TEXT
  5
21
330
2
100
AcDbEntity
  8
HOJO
100
AcDbText
 10
9.653966000000025
 20
2.366626000000024
 30
0.0
 40
9.0
  1
TWE128
  7
SUNPOU
100
AcDbText
  0
TEXT
  5
23
330
2
100
AcDbEntity
  8
HOJO
100
AcDbText
 10
85.84696046283864
 20
5.044386000000031
 30
0.0
 40
6.0
  1
94×81×5
  7
SUNPOU
100
AcDbText
  0
ARC
  5
3396
102
{ACAD_REACTORS
330
3467
102
}
330
2
100
AcDbEntity
  8
KIJUN
100
AcDbCircle
 10
-2.62492073205065
 20
55.82620507318472
 30
0.0
 40
10.9576828410883
100
AcDbArc
 50
326.1164624124083
 51
174.2857848785423
  0
ARC
  5
3397
102
{ACAD_REACTORS
330
3467
102
}
330
2
100
AcDbEntity
  8
KIJUN
100
AcDbCircle
 10
5.671846270144953
 20
62.87722452372737
 30
0.0
 40
13.18429368604939
100
AcDbArc
 50
273.4787451401428
 51
63.90138991181161
  0
LINE
  5
3398
102
{ACAD_REACTORS
330
3467
102
}
330
2
100
AcDbEntity
  8
KIJUN
100
AcDbLine
 10
11.47184627014491
 20
74.71722452372751
 30
0.0
 11
13.47184627014491
 21
77.71722452372728
 31
0.0
  0
LINE
  5
3399
102
{ACAD_REACTORS
330
3467
102
}
330
2
100
AcDbEntity
  8
KIJUN
100
AcDbLine
 10
13.47184627014491
 20
77.71722452372728
 30
0.0
 11
11.47184627014491
 21
82.71722452372728
 31
0.0
  0
LINE
  5
339A
102
{ACAD_REACTORS
330
3467
102
}
330
2
100
AcDbEntity
  8
KIJUN
100
AcDbLine
 10
11.47184627014491
 20
82.71722452372728
 30
0.0
 11
14.47184627014491
 21
83.71722452372727
 31
0.0
  0
LINE
  5
339B
102
{ACAD_REACTORS
330
3467
102
}
330
2
100
AcDbEntity
  8
KIJUN
100
AcDbLine
 10
14.47184627014491
 20
83.71722452372727
 30
0.0
 11
11.47184627014491
 21
86.54456738374642
 31
0.0
  0
LINE
  5
339C
102
{ACAD_REACTORS
330
3467
102
}
330
2
100
AcDbEntity
  8
KIJUN
100
AcDbLine
 10
11.47184627014491
 20
86.54456738374642
 30
0.0
 11
14.47184627014491
 21
88.71722452372727
 31
0.0
  0
LINE
  5
339D
102
{ACAD_REACTORS
330
3467
102
}
330
2
100
AcDbEntity
  8
KIJUN
100
AcDbLine
 10
14.47184627014491
 20
88.71722452372727
 30
0.0
 11
12.47184627014491
 21
91.71722452372728
 31
0.0
  0
ARC
  5
339E
102
{ACAD_REACTORS
330
3467
102
}
330
2
100
AcDbEntity
  8
KIJUN
100
AcDbCircle
 10
4.745689635014127
 20
104.4843469034873
 30
0.0
 40
14.92289885412167
100
AcDbArc
 50
202.0354238277049
 51
301.180664623603
  0
ARC
  5
339F
102
{ACAD_REACTORS
330
3467
102
}
330
2
100
AcDbEntity
  8
KIJUN
100
AcDbCircle
 10
9.019397719976325
 20
93.43145446983863
 30
0.0
 40
37.55067171973614
100
AcDbArc
 50
355.8549434504504
 51
83.19031909189169
  0
ARC
  5
33A1
102
{ACAD_REACTORS
330
3467
102
}
330
2
100
AcDbEntity
  8
KIJUN
100
AcDbCircle
 10
60.5140487833751
 20
87.26127497664963
 30
0.0
 40
6.555944166776854
100
AcDbArc
 50
202.8333737488802
 51
291.3842097993105
  0
ARC
  5
33A3
102
{ACAD_REACTORS
330
3467
102
}
330
2
100
AcDbEntity
  8
KIJUN
100
AcDbCircle
 10
5.006087641086843
 20
55.20996959161841
 30
0.0
 40
18.6127059451214
100
AcDbArc
 50
174.7371332944532
 51
238.55309216548
  0
LINE
  5
33A5
102
{ACAD_REACTORS
330
3467
102
}
330
2
100
AcDbEntity
  8
KIJUN
100
AcDbLine
 10
37.47184627014491
 20
90.71722452372728
 30
0.0
 11
35.47184627014491
 21
89.71722452372729
 31
0.0
  0
LINE
  5
33A6
102
{ACAD_REACTORS
330
3467
102
}
330
2
100
AcDbEntity
  8
KIJUN
100
AcDbLine
 10
35.47184627014491
 20
89.71722452372729
 30
0.0
 11
32.47184627014491
 21
95.71722452372728
 31
0.0
  0
LINE
  5
33A7
102
{ACAD_REACTORS
330
3467
102
}
330
2
100
AcDbEntity
  8
KIJUN
100
AcDbLine
 10
32.47184627014491
 20
95.71722452372728
 30
0.0
 11
28.47184627014491
 21
91.71722452372728
 31
0.0
  0
LINE
  5
33A8
102
{ACAD_REACTORS
330
3467
102
}
330
2
100
AcDbEntity
  8
KIJUN
100
AcDbLine
 10
28.47184627014491
 20
91.71722452372728
 30
0.0
 11
22.47184627014491
 21
98.71722452372729
 31
0.0
  0
ARC
  5
33A9
102
{ACAD_REACTORS
330
3467
102
}
330
2
100
AcDbEntity
  8
KIJUN
100
AcDbCircle
 10
11.50214095149175
 20
104.8439364198648
 30
0.0
 40
8.554179110225671
100
AcDbArc
 50
314.25636583441
 51
145.2709175470526
  0
LINE
  5
33AA
102
{ACAD_REACTORS
330
3467
102
}
330
2
100
AcDbEntity
  8
KIJUN
100
AcDbLine
 10
17.47184627014491
 20
98.71722452372729
 30
0.0
 11
20.47184627014491
 21
96.71722452372728
 31
0.0
  0
LINE
  5
33AB
102
{ACAD_REACTORS
330
3467
102
}
330
2
100
AcDbEntity
  8
KIJUN
100
AcDbLine
 10
20.47184627014491
 20
96.71722452372728
 30
0.0
 11
22.47184627014491
 21
98.71722452372729
 31
0.0
  0
ARC
  5
33AC
102
{ACAD_REACTORS
330
3467
102
}
330
2
100
AcDbEntity
  8
KIJUN
100
AcDbCircle
 10
10.79824655838109
 20
95.53867432820267
 30
0.0
 40
27.10585360767039
100
AcDbArc
 50
349.75399942597
 51
85.13321843169896
  0
ARC
  5
33AD
102
{ACAD_REACTORS
330
3467
102
}
330
2
100
AcDbEntity
  8
KIJUN
100
AcDbCircle
 10
13.66298547635909
 20
112.8521817060452
 30
0.0
 40
9.711075967315995
100
AcDbArc
 50
93.33599046303298
 51
198.8337248380443
  0
ARC
  5
33AE
102
{ACAD_REACTORS
330
3467
102
}
330
2
100
AcDbEntity
  8
KIJUN
100
AcDbCircle
 10
58.87611828884889
 20
85.98910487386865
 30
0.0
 40
4.584243846024222
100
AcDbArc
 50
49.84008144655831
 51
196.10783599447
  0
ARC
  5
33AF
102
{ACAD_REACTORS
330
3467
102
}
330
2
100
AcDbEntity
  8
KIJUN
100
AcDbCircle
 10
7.77112152238368
 20
91.20997547926846
 30
0.0
 40
38.70386155806873
100
AcDbArc
 50
335.8253130680497
 51
359.2705298203406
  0
ARC
  5
33B0
102
{ACAD_REACTORS
330
3467
102
}
330
2
100
AcDbEntity
  8
KIJUN
100
AcDbCircle
 10
58.6290915720279
 20
74.01202519115599
 30
0.0
 40
13.42562406639636
100
AcDbArc
 50
108.5698120646021
 51
155.7442028217688
  0
ARC
  5
33B1
102
{ACAD_REACTORS
330
3467
102
}
330
2
100
AcDbEntity
  8
KIJUN
100
AcDbCircle
 10
-39.15623532531311
 20
89.60938308116329
 30
0.0
 40
76.63608942046801
100
AcDbArc
 50
336.0540018620276
 51
0.8282892623567715
  0
LINE
  5
33B2
102
{ACAD_REACTORS
330
3467
102
}
330
2
100
AcDbEntity
  8
KIJUN
100
AcDbLine
 10
35.47184627014491
 20
89.71722452372729
 30
0.0
 11
33.84449155529143
 21
87.38557152406883
 31
0.0
  0
ARC
  5
33B3
102
{ACAD_REACTORS
330
3467
102
}
330
2
100
AcDbEntity
  8
KIJUN
100
AcDbCircle
 10
-9.2554762995494
 20
84.23009965289566
 30
0.0
 40
43.21532403925814
100
AcDbArc
 50
342.6346139437716
 51
4.187316981986362
  0
SPLINE
  5
33B4
102
{ACAD_REACTORS
330
3467
102
}
330
2
100
AcDbEntity
  8
KIJUN
100
AcDbSpline
210
0.0
220
0.0
230
1.0
 70
     8
 71
     3
 72
     9
 73
     5
 74
     3
 42
0.0000000001
 43
0.0000000001
 44
0.0000000001
 40
0.0
 40
0.0
 40
0.0
 40
0.0
 40
5.472601352706983
 40
12.17246744119197
 40
12.17246744119197
 40
12.17246744119197
 40
12.17246744119197
 10
17.47184627014458
 20
98.71722452372754
 30
0.0
 10
15.21294181668976
 20
98.9972256553478
 30
0.0
 10
10.18855960057221
 20
99.62001990592099
 30
0.0
 10
11.66125679514949
 20
94.52279547774494
 30
0.0
 10
12.47184627014503
 20
91.71722452372732
 30
0.0
 11
17.47184627014458
 21
98.71722452372754
 31
0.0
 11
12.00838638502371
 21
98.40104158724082
 31
0.0
 11
12.47184627014503
 21
91.71722452372732
 31
0.0
  0
ARC
  5
33B5
102
{ACAD_REACTORS
330
3467
102
}
330
2
100
AcDbEntity
  8
KIJUN
100
AcDbCircle
 10
7.359564076484787
 20
66.10697981987732
 30
0.0
 40
18.9922425356178
100
AcDbArc
 50
285.6901916811808
 51
68.00760401898485
  0
ARC
  5
33B6
102
{ACAD_REACTORS
330
3467
102
}
330
2
100
AcDbEntity
  8
KIJUN
100
AcDbCircle
 10
5.621087745947249
 20
63.38969611221023
 30
0.0
 40
17.01766184173822
100
AcDbArc
 50
230.7132692843357
 51
293.8267113657544
  0
ARC
  5
33B7
102
{ACAD_REACTORS
330
3467
102
}
330
2
100
AcDbEntity
  8
KIJUN
100
AcDbCircle
 10
-2.520760218322436
 20
55.00774059038509
 30
0.0
 40
5.465888542790564
100
AcDbArc
 50
90.0
 51
241.1934023185925
  0
ARC
  5
33B8
102
{ACAD_REACTORS
330
3467
102
}
330
2
100
AcDbEntity
  8
KIJUN
100
AcDbCircle
 10
1.150926345562595
 20
61.39083762951123
 30
0.0
 40
12.82908538390265
100
AcDbArc
 50
240.5610132525013
 51
294.503852375121
  0
ARC
  5
33B9
102
{ACAD_REACTORS
330
3467
102
}
330
2
100
AcDbEntity
  8
KIJUN
100
AcDbCircle
 10
-2.849878208952134
 20
69.38123112425092
 30
0.0
 40
31.47564278600339
100
AcDbArc
 50
352.3212065896561
 51
52.86880190326254
  0
ARC
  5
33BA
102
{ACAD_REACTORS
330
3467
102
}
330
2
100
AcDbEntity
  8
KIJUN
100
AcDbCircle
 10
8.34645875299094
 20
66.51946122077288
 30
0.0
 40
20.04216826906175
100
AcDbArc
 50
287.3609263103519
 51
356.1549784543881
  0
ARC
  5
33BB
102
{ACAD_REACTORS
330
3467
102
}
330
2
100
AcDbEntity
  8
KIJUN
100
AcDbCircle
 10
-46.71130599262323
 20
73.88316193465357
 30
0.0
 40
77.26939997565391
100
AcDbArc
 50
353.4443599070907
 51
13.34439290591172
  0
ARC
  5
33BC
102
{ACAD_REACTORS
330
3467
102
}
330
2
100
AcDbEntity
  8
KIJUN
100
AcDbCircle
 10
10.25453505230706
 20
65.23717800975669
 30
0.0
 40
19.79910920245903
100
AcDbArc
 50
276.5223565285686
 51
359.4915122822271
  0
SPLINE
  5
33BD
102
{ACAD_REACTORS
330
3467
102
}
330
2
100
AcDbEntity
  8
KIJUN
100
AcDbSpline
210
0.0
220
0.0
230
1.0
 70
     8
 71
     3
 72
    13
 73
     9
 74
     7
 42
0.0000000001
 43
0.0000000001
 44
0.0000000001
 40
0.0
 40
0.0
 40
0.0
 40
0.0
 40
4.4115714394141
 40
8.897020093056712
 40
13.40540721463693
 40
18.71485954299184
 40
24.98629763421846
 40
33.50250843107864
 40
33.50250843107864
 40
33.50250843107864
 40
33.50250843107864
 10
4.471846270144578
 20
109.717224523727
 30
0.0
 10
4.773358128353724
 20
108.1038925891922
 30
0.0
 10
5.381431033354207
 20
104.8502114836148
 30
0.0
 10
0.3913648299882801
 20
102.5757305132962
 30
0.0
 10
-4.778067624761657
 20
104.4603243386816
 30
0.0
 10
-5.181810794064798
 20
110.4290826006322
 30
0.0
 10
-5.703327234059873
 20
117.1262745906122
 30
0.0
 10
-2.75516236105442
 20
121.3454259926575
 30
0.0
 10
-1.057313452656263
 20
123.7752363699267
 30
0.0
 11
4.471846270144578
 21
109.717224523727
 31
0.0
 11
4.412607874748072
 21
105.3060508275817
 31
0.0
 11
0.4241238269169721
 21
103.2539191006545
 31
0.0
 11
-3.792274116358317
 21
104.850021485207
 31
0.0
 11
-5.159754245488439
 21
109.9803511162841
 31
0.0
 11
-5.045797905929124
 21
116.250753789539
 31
0.0
 11
-1.057313452656263
 21
123.7752363699267
 31
0.0
  0
SPLINE
  5
33BE
102
{ACAD_REACTORS
330
3467
102
}
330
2
100
AcDbEntity
  8
KIJUN
100
AcDbSpline
210
0.0
220
0.0
230
1.0
 70
     8
 71
     3
 72
    13
 73
     9
 74
     7
 42
0.0000000001
 43
0.0000000001
 44
0.0000000001
 40
0.0
 40
0.0
 40
0.0
 40
0.0
 40
2.793097080644402
 40
5.861843463749373
 40
9.086428577213535
 40
13.60746246534922
 40
18.14620288899561
 40
20.90246652062785
 40
20.90246652062785
 40
20.90246652062785
 40
20.90246652062785
 10
4.141138546344503
 20
104.9070256226953
 30
0.0
 10
5.06549330940658
 20
105.1198584390721
 30
0.0
 10
7.005426927750708
 20
105.5665284321042
 30
0.0
 10
10.04974028204254
 20
103.8455559298249
 30
0.0
 10
10.37117818003179
 20
99.7800253122218
 30
0.0
 10
7.660184823914516
 20
96.40937047812727
 30
0.0
 10
4.137816974181941
 20
94.35749218355461
 30
0.0
 10
1.690616726161362
 20
94.19480241180613
 30
0.0
 10
0.7659936564785533
 20
94.13333350819611
 30
0.0
 11
4.141138546344503
 21
104.9070256226953
 31
0.0
 11
6.919655453889792
 21
105.1920433351086
 31
0.0
 11
9.54065937259072
 21
103.595940950556
 31
0.0
 11
9.996485947153541
 21
100.403736181451
 31
0.0
 11
7.489438773453752
 21
96.64149457749799
 31
0.0
 11
3.500954320180728
 21
94.47535598561584
 31
0.0
 11
0.7659936564785533
 21
94.13333350819611
 31
0.0
  0
DIMENSION
  5
33E6
330
2
100
AcDbEntity
  8
SUNPOU
100
AcDbDimension
  2
*D28
 10
67.39338169596544
 20
154.4203747121562
 30
0.0
 11
26.89338169596545
 21
159.9203747121562
 31
0.0
 70
    32
 71
     5
 42
81.0
  3
STANDARD
100
AcDbAlignedDimension
 13
-13.60661830403456
 23
130.7172245237277
 33
0.0
 14
67.39338169596544
 24
131.0295830922748
 34
0.0
100
AcDbRotatedDimension
1001
ACAD
1000
DSTYLE
1002
{
1070
    41
1040
2.0
1070
    42
1040
10.0
1070
    44
1040
0.0
1070
    73
1070
     0
1070
    74
1070
     0
1070
    77
1070
     1
1070
   140
1040
5.0
1070
   141
1040
0.0
1070
   146
1040
0.064286
1070
   147
1040
3.0
1070
   176
1070
    60
1070
   177
1070
    70
1070
   178
1070
    60
1070
   271
1070
     0
1070
   272
1070
     0
1070
   340
1005
1C
1070
   342
1005
109
1002
}
  0
DIMENSION
  5
33F3
330
2
100
AcDbEntity
  8
SUNPOU
100
AcDbDimension
  2
*D29
 10
-40.63343382143648
 20
36.71722452372772
 30
0.0
 11
-46.13343382143649
 21
83.7172245237277
 31
0.0
 70
    32
 71
     5
 42
94.0
  3
STANDARD
100
AcDbAlignedDimension
 13
-13.60661830403456
 23
130.7172245237277
 33
0.0
 14
-13.80906538472527
 24
36.71722452372771
 34
0.0
 50
90.0
100
AcDbRotatedDimension
1001
ACAD
1000
DSTYLE
1002
{
1070
    41
1040
2.0
1070
    42
1040
10.0
1070
    44
1040
0.0
1070
    73
1070
     0
1070
    74
1070
     0
1070
    77
1070
     1
1070
   140
1040
5.0
1070
   141
1040
0.0
1070
   146
1040
0.064286
1070
   147
1040
3.0
1070
   176
1070
    60
1070
   177
1070
    70
1070
   178
1070
    60
1070
   271
1070
     0
1070
   272
1070
     0
1070
   340
1005
1C
1070
   342
1005
109
1002
}
  0
ARC
  5
3413
102
{ACAD_REACTORS
330
3467
102
}
330
2
100
AcDbEntity
  8
KIJUN
100
AcDbCircle
 10
7.459596401647289
 20
66.32788808926851
 30
0.0
 40
29.61066356554081
100
AcDbArc
 50
245.7452177724448
 51
296.1082713673529
  0
ARC
  5
341E
102
{ACAD_REACTORS
330
3467
102
}
330
2
100
AcDbEntity
  8
KIJUN
100
AcDbCircle
 10
9.281357198311418
 20
65.95948125546958
 30
0.0
 40
28.51625537714929
100
AcDbArc
 50
293.1458428918754
 51
332.971628024114
  0
ARC
  5
341F
102
{ACAD_REACTORS
330
3467
102
}
330
2
100
AcDbEntity
  8
KIJUN
100
AcDbCircle
 10
72.42403219181371
 20
57.448864476621
 30
0.0
 40
32.64727307180166
100
AcDbArc
 50
123.3589981303445
 51
155.3533770283079
  0
ARC
  5
3420
102
{ACAD_REACTORS
330
3467
102
}
330
2
100
AcDbEntity
  8
KIJUN
100
AcDbCircle
 10
-306.277060915959
 20
216.1280143075738
 30
0.0
 40
377.9739816426348
100
AcDbArc
 50
334.4319236933881
 51
337.4310402497705
  0
ARC
  5
3422
102
{ACAD_REACTORS
330
3467
102
}
330
2
100
AcDbEntity
  8
KIJUN
100
AcDbCircle
 10
16.25685200203183
 20
107.3998924033692
 30
0.0
 40
26.73594211029791
100
AcDbArc
 50
153.0483032803094
 51
198.5697884903824
  0
ARC
  5
3426
102
{ACAD_REACTORS
330
3467
102
}
330
2
100
AcDbEntity
  8
KIJUN
100
AcDbCircle
 10
13.5526236959335
 20
105.1889143287658
 30
0.0
 40
25.52843799378863
100
AcDbArc
 50
90.18129637629568
 51
145.8552212680494
  0
ARC
  5
343D
102
{ACAD_REACTORS
330
3467
102
}
330
2
100
AcDbEntity
  8
KIJUN
100
AcDbCircle
 10
82.60197982123843
 20
29.5820067139527
 30
0.0
 40
71.0133889282045
100
AcDbArc
 50
113.2546477715668
 51
120.5825454791345
  0
ARC
  5
343E
102
{ACAD_REACTORS
330
3467
102
}
330
2
100
AcDbEntity
  8
KIJUN
100
AcDbCircle
 10
58.47199417444524
 20
83.75433611477896
 30
0.0
 40
11.74113348140659
100
AcDbArc
 50
63.30344170578275
 51
109.4385887355627
  0
ARC
  5
343F
102
{ACAD_REACTORS
330
3467
102
}
330
2
100
AcDbEntity
  8
KIJUN
100
AcDbCircle
 10
60.06908536262274
 20
87.90987736836067
 30
0.0
 40
7.324296333342697
100
AcDbArc
 50
292.7755120951969
 51
59.85858065638673
  0
ARC
  5
348C
102
{ACAD_REACTORS
330
34BB
102
}
330
2
100
AcDbEntity
  8
KIJUN
100
AcDbCircle
 10
152.5771022323369
 20
55.82620507318472
 30
0.0
 40
10.9576828410883
100
AcDbArc
 50
5.714215121457801
 51
213.8835375875916
  0
ARC
  5
348D
102
{ACAD_REACTORS
330
34BB
102
}
330
2
100
AcDbEntity
  8
KIJUN
100
AcDbCircle
 10
144.2803352301413
 20
62.87722452372737
 30
0.0
 40
13.18429368604939
100
AcDbArc
 50
116.0986100881886
 51
266.521254859857
  0
LINE
  5
348E
102
{ACAD_REACTORS
330
34BB
102
}
330
2
100
AcDbEntity
  8
KIJUN
100
AcDbLine
 10
138.4803352301414
 20
74.71722452372751
 30
0.0
 11
136.4803352301414
 21
77.71722452372728
 31
0.0
  0
LINE
  5
348F
102
{ACAD_REACTORS
330
34BB
102
}
330
2
100
AcDbEntity
  8
KIJUN
100
AcDbLine
 10
136.4803352301414
 20
77.71722452372728
 30
0.0
 11
138.4803352301414
 21
82.71722452372728
 31
0.0
  0
LINE
  5
3490
102
{ACAD_REACTORS
330
34BB
102
}
330
2
100
AcDbEntity
  8
KIJUN
100
AcDbLine
 10
138.4803352301414
 20
82.71722452372728
 30
0.0
 11
135.4803352301414
 21
83.71722452372727
 31
0.0
  0
LINE
  5
3491
102
{ACAD_REACTORS
330
34BB
102
}
330
2
100
AcDbEntity
  8
KIJUN
100
AcDbLine
 10
135.4803352301414
 20
83.71722452372727
 30
0.0
 11
138.4803352301414
 21
86.54456738374642
 31
0.0
  0
LINE
  5
3492
102
{ACAD_REACTORS
330
34BB
102
}
330
2
100
AcDbEntity
  8
KIJUN
100
AcDbLine
 10
138.4803352301414
 20
86.54456738374642
 30
0.0
 11
135.4803352301414
 21
88.71722452372727
 31
0.0
  0
LINE
  5
3493
102
{ACAD_REACTORS
330
34BB
102
}
330
2
100
AcDbEntity
  8
KIJUN
100
AcDbLine
 10
135.4803352301414
 20
88.71722452372727
 30
0.0
 11
137.4803352301414
 21
91.71722452372728
 31
0.0
  0
ARC
  5
3494
102
{ACAD_REACTORS
330
34BB
102
}
330
2
100
AcDbEntity
  8
KIJUN
100
AcDbCircle
 10
145.2064918652722
 20
104.4843469034873
 30
0.0
 40
14.92289885412167
100
AcDbArc
 50
238.8193353763974
 51
337.9645761722948
  0
ARC
  5
3495
102
{ACAD_REACTORS
330
34BB
102
}
330
2
100
AcDbEntity
  8
KIJUN
100
AcDbCircle
 10
140.93278378031
 20
93.43145446983863
 30
0.0
 40
37.55067171973614
100
AcDbArc
 50
96.80968090810832
 51
184.1450565495496
  0
ARC
  5
3496
102
{ACAD_REACTORS
330
34BB
102
}
330
2
100
AcDbEntity
  8
KIJUN
100
AcDbCircle
 10
89.43813271691121
 20
87.26127497664963
 30
0.0
 40
6.555944166776854
100
AcDbArc
 50
248.6157902006902
 51
337.1666262511198
  0
ARC
  5
3497
102
{ACAD_REACTORS
330
34BB
102
}
330
2
100
AcDbEntity
  8
KIJUN
100
AcDbCircle
 10
144.9460938591994
 20
55.20996959161841
 30
0.0
 40
18.6127059451214
100
AcDbArc
 50
301.4469078345202
 51
5.262866705546656
  0
LINE
  5
3498
102
{ACAD_REACTORS
330
34BB
102
}
330
2
100
AcDbEntity
  8
KIJUN
100
AcDbLine
 10
112.4803352301414
 20
90.71722452372728
 30
0.0
 11
114.4803352301414
 21
89.71722452372729
 31
0.0
  0
LINE
  5
3499
102
{ACAD_REACTORS
330
34BB
102
}
330
2
100
AcDbEntity
  8
KIJUN
100
AcDbLine
 10
114.4803352301414
 20
89.71722452372729
 30
0.0
 11
117.4803352301414
 21
95.71722452372728
 31
0.0
  0
LINE
  5
349A
102
{ACAD_REACTORS
330
34BB
102
}
330
2
100
AcDbEntity
  8
KIJUN
100
AcDbLine
 10
117.4803352301414
 20
95.71722452372728
 30
0.0
 11
121.4803352301414
 21
91.71722452372728
 31
0.0
  0
LINE
  5
349B
102
{ACAD_REACTORS
330
34BB
102
}
330
2
100
AcDbEntity
  8
KIJUN
100
AcDbLine
 10
121.4803352301414
 20
91.71722452372728
 30
0.0
 11
127.4803352301414
 21
98.71722452372729
 31
0.0
  0
ARC
  5
349C
102
{ACAD_REACTORS
330
34BB
102
}
330
2
100
AcDbEntity
  8
KIJUN
100
AcDbCircle
 10
138.4500405487945
 20
104.8439364198648
 30
0.0
 40
8.554179110225671
100
AcDbArc
 50
34.72908245294738
 51
225.74363416559
  0
LINE
  5
349D
102
{ACAD_REACTORS
330
34BB
102
}
330
2
100
AcDbEntity
  8
KIJUN
100
AcDbLine
 10
132.4803352301414
 20
98.71722452372729
 30
0.0
 11
129.4803352301414
 21
96.71722452372728
 31
0.0
  0
LINE
  5
349E
102
{ACAD_REACTORS
330
34BB
102
}
330
2
100
AcDbEntity
  8
KIJUN
100
AcDbLine
 10
129.4803352301414
 20
96.71722452372728
 30
0.0
 11
127.4803352301414
 21
98.71722452372729
 31
0.0
  0
ARC
  5
349F
102
{ACAD_REACTORS
330
34BB
102
}
330
2
100
AcDbEntity
  8
KIJUN
100
AcDbCircle
 10
139.1539349419052
 20
95.53867432820267
 30
0.0
 40
27.10585360767039
100
AcDbArc
 50
94.86678156830102
 51
190.2460005740299
  0
ARC
  5
34A0
102
{ACAD_REACTORS
330
34BB
102
}
330
2
100
AcDbEntity
  8
KIJUN
100
AcDbCircle
 10
136.2891960239272
 20
112.8521817060452
 30
0.0
 40
9.711075967315995
100
AcDbArc
 50
341.1662751619554
 51
86.66400953696701
  0
ARC
  5
34A1
102
{ACAD_REACTORS
330
34BB
102
}
330
2
100
AcDbEntity
  8
KIJUN
100
AcDbCircle
 10
91.07606321143743
 20
85.98910487386865
 30
0.0
 40
4.584243846024222
100
AcDbArc
 50
343.89216400553
 51
130.1599185534414
  0
ARC
  5
34A2
102
{ACAD_REACTORS
330
34BB
102
}
330
2
100
AcDbEntity
  8
KIJUN
100
AcDbCircle
 10
142.1810599779026
 20
91.20997547926846
 30
0.0
 40
38.70386155806873
100
AcDbArc
 50
180.7294701796593
 51
204.1746869319502
  0
ARC
  5
34A3
102
{ACAD_REACTORS
330
34BB
102
}
330
2
100
AcDbEntity
  8
KIJUN
100
AcDbCircle
 10
91.32308992825841
 20
74.01202519115599
 30
0.0
 40
13.42562406639636
100
AcDbArc
 50
24.25579717823127
 51
71.43018793539787
  0
ARC
  5
34A4
102
{ACAD_REACTORS
330
34BB
102
}
330
2
100
AcDbEntity
  8
KIJUN
100
AcDbCircle
 10
189.1084168255994
 20
89.60938308116329
 30
0.0
 40
76.63608942046801
100
AcDbArc
 50
179.1717107376432
 51
203.9459981379725
  0
LINE
  5
34A5
102
{ACAD_REACTORS
330
34BB
102
}
330
2
100
AcDbEntity
  8
KIJUN
100
AcDbLine
 10
114.4803352301414
 20
89.71722452372729
 30
0.0
 11
116.1076899449949
 21
87.38557152406883
 31
0.0
  0
ARC
  5
34A6
102
{ACAD_REACTORS
330
34BB
102
}
330
2
100
AcDbEntity
  8
KIJUN
100
AcDbCircle
 10
159.2076577998357
 20
84.23009965289566
 30
0.0
 40
43.21532403925814
100
AcDbArc
 50
175.8126830180137
 51
197.3653860562284
  0
SPLINE
  5
34A7
102
{ACAD_REACTORS
330
34BB
102
}
330
2
100
AcDbEntity
  8
KIJUN
100
AcDbSpline
210
0.0
220
0.0
230
1.0
 70
     8
 71
     3
 72
     9
 73
     5
 74
     3
 42
0.0000000001
 43
0.0000000001
 44
0.0000000001
 40
0.0
 40
0.0
 40
0.0
 40
0.0
 40
5.472601352706987
 40
12.17246744119197
 40
12.17246744119197
 40
12.17246744119197
 40
12.17246744119197
 10
132.4803352301417
 20
98.71722452372754
 30
0.0
 10
134.7392396835965
 20
98.99722565534782
 30
0.0
 10
139.7636218997141
 20
99.62001990592098
 30
0.0
 10
138.2909247051367
 20
94.52279547774496
 30
0.0
 10
137.4803352301413
 20
91.71722452372732
 30
0.0
 11
132.4803352301417
 21
98.71722452372754
 31
0.0
 11
137.9437951152626
 21
98.40104158724082
 31
0.0
 11
137.4803352301413
 21
91.71722452372732
 31
0.0
  0
ARC
  5
34A8
102
{ACAD_REACTORS
330
34BB
102
}
330
2
100
AcDbEntity
  8
KIJUN
100
AcDbCircle
 10
142.5926174238015
 20
66.10697981987732
 30
0.0
 40
18.9922425356178
100
AcDbArc
 50
111.9923959810151
 51
254.3098083188191
  0
ARC
  5
34A9
102
{ACAD_REACTORS
330
34BB
102
}
330
2
100
AcDbEntity
  8
KIJUN
100
AcDbCircle
 10
144.331093754339
 20
63.38969611221023
 30
0.0
 40
17.01766184173822
100
AcDbArc
 50
246.1732886342455
 51
309.2867307156641
  0
ARC
  5
34AA
102
{ACAD_REACTORS
330
34BB
102
}
330
2
100
AcDbEntity
  8
KIJUN
100
AcDbCircle
 10
152.4729417186087
 20
55.00774059038509
 30
0.0
 40
5.465888542790564
100
AcDbArc
 50
298.8065976814077
 51
90.0
  0
ARC
  5
34AB
102
{ACAD_REACTORS
330
34BB
102
}
330
2
100
AcDbEntity
  8
KIJUN
100
AcDbCircle
 10
148.8012551547237
 20
61.39083762951123
 30
0.0
 40
12.82908538390265
100
AcDbArc
 50
245.496147624879
 51
299.4389867474986
  0
ARC
  5
34AC
102
{ACAD_REACTORS
330
34BB
102
}
330
2
100
AcDbEntity
  8
KIJUN
100
AcDbCircle
 10
152.8020597092384
 20
69.38123112425092
 30
0.0
 40
31.47564278600339
100
AcDbArc
 50
127.1311980967374
 51
187.6787934103439
  0
ARC
  5
34AD
102
{ACAD_REACTORS
330
34BB
102
}
330
2
100
AcDbEntity
  8
KIJUN
100
AcDbCircle
 10
141.6057227472953
 20
66.51946122077288
 30
0.0
 40
20.04216826906175
100
AcDbArc
 50
183.8450215456119
 51
252.639073689648
  0
ARC
  5
34AE
102
{ACAD_REACTORS
330
34BB
102
}
330
2
100
AcDbEntity
  8
KIJUN
100
AcDbCircle
 10
196.6634874929095
 20
73.88316193465357
 30
0.0
 40
77.26939997565391
100
AcDbArc
 50
166.6556070940884
 51
186.5556400929093
  0
ARC
  5
34AF
102
{ACAD_REACTORS
330
34BB
102
}
330
2
100
AcDbEntity
  8
KIJUN
100
AcDbCircle
 10
139.6976464479792
 20
65.23717800975669
 30
0.0
 40
19.79910920245903
100
AcDbArc
 50
180.5084877177728
 51
263.4776434714315
  0
SPLINE
  5
34B0
102
{ACAD_REACTORS
330
34BB
102
}
330
2
100
AcDbEntity
  8
KIJUN
100
AcDbSpline
210
0.0
220
0.0
230
1.0
 70
     8
 71
     3
 72
    13
 73
     9
 74
     7
 42
0.0000000001
 43
0.0000000001
 44
0.0000000001
 40
0.0
 40
0.0
 40
0.0
 40
0.0
 40
4.4115714394141
 40
8.897020093056717
 40
13.40540721463693
 40
18.71485954299182
 40
24.98629763421845
 40
33.5025084310786
 40
33.5025084310786
 40
33.5025084310786
 40
33.5025084310786
 10
145.4803352301417
 20
109.717224523727
 30
0.0
 10
145.1788233719326
 20
108.1038925891922
 30
0.0
 10
144.570750466932
 20
104.8502114836149
 30
0.0
 10
149.560816670298
 20
102.5757305132962
 30
0.0
 10
154.730249125048
 20
104.4603243386816
 30
0.0
 10
155.133992294351
 20
110.4290826006323
 30
0.0
 10
155.6555087343461
 20
117.1262745906121
 30
0.0
 10
152.7073438613407
 20
121.3454259926575
 30
0.0
 10
151.0094949529426
 20
123.7752363699267
 30
0.0
 11
145.4803352301417
 21
109.717224523727
 31
0.0
 11
145.5395736255382
 21
105.3060508275817
 31
0.0
 11
149.5280576733693
 21
103.2539191006545
 31
0.0
 11
153.7444556166446
 21
104.850021485207
 31
0.0
 11
155.1119357457747
 21
109.9803511162841
 31
0.0
 11
154.9979794062154
 21
116.250753789539
 31
0.0
 11
151.0094949529426
 21
123.7752363699267
 31
0.0
  0
SPLINE
  5
34B1
102
{ACAD_REACTORS
330
34BB
102
}
330
2
100
AcDbEntity
  8
KIJUN
100
AcDbSpline
210
0.0
220
0.0
230
1.0
 70
     8
 71
     3
 72
    13
 73
     9
 74
     7
 42
0.0000000001
 43
0.0000000001
 44
0.0000000001
 40
0.0
 40
0.0
 40
0.0
 40
0.0
 40
2.793097080644412
 40
5.861843463749389
 40
9.086428577213551
 40
13.60746246534924
 40
18.14620288899562
 40
20.90246652062787
 40
20.90246652062787
 40
20.90246652062787
 40
20.90246652062787
 10
145.8110429539418
 20
104.9070256226953
 30
0.0
 10
144.8866881908797
 20
105.119858439072
 30
0.0
 10
142.9467545725356
 20
105.5665284321042
 30
0.0
 10
139.9024412182437
 20
103.8455559298249
 30
0.0
 10
139.5810033202544
 20
99.7800253122218
 30
0.0
 10
142.2919966763717
 20
96.40937047812721
 30
0.0
 10
145.8143645261043
 20
94.35749218355462
 30
0.0
 10
148.2615647741249
 20
94.19480241180616
 30
0.0
 10
149.1861878438077
 20
94.13333350819611
 30
0.0
 11
145.8110429539418
 21
104.9070256226953
 31
0.0
 11
143.0325260463965
 21
105.1920433351086
 31
0.0
 11
140.4115221276956
 21
103.595940950556
 31
0.0
 11
139.9556955531328
 21
100.403736181451
 31
0.0
 11
142.4627427268325
 21
96.64149457749799
 31
0.0
 11
146.4512271801055
 21
94.47535598561584
 31
0.0
 11
149.1861878438077
 21
94.13333350819611
 31
0.0
  0
ARC
  5
34B2
102
{ACAD_REACTORS
330
34BB
102
}
330
2
100
AcDbEntity
  8
KIJUN
100
AcDbCircle
 10
142.492585098639
 20
66.32788808926851
 30
0.0
 40
29.61066356554081
100
AcDbArc
 50
243.8917286326465
 51
294.2547822275548
  0
ARC
  5
34B3
102
{ACAD_REACTORS
330
34BB
102
}
330
2
100
AcDbEntity
  8
KIJUN
100
AcDbCircle
 10
140.6708243019749
 20
65.95948125546958
 30
0.0
 40
28.51625537714929
100
AcDbArc
 50
207.028371975886
 51
246.8541571081239
  0
ARC
  5
34B4
102
{ACAD_REACTORS
330
34BB
102
}
330
2
100
AcDbEntity
  8
KIJUN
100
AcDbCircle
 10
77.52814930847261
 20
57.448864476621
 30
0.0
 40
32.64727307180166
100
AcDbArc
 50
24.64662297169236
 51
56.64100186965546
  0
ARC
  5
34B5
102
{ACAD_REACTORS
330
34BB
102
}
330
2
100
AcDbEntity
  8
KIJUN
100
AcDbCircle
 10
456.2292424162452
 20
216.1280143075738
 30
0.0
 40
377.9739816426348
100
AcDbArc
 50
202.5689597502297
 51
205.5680763066118
  0
ARC
  5
34B6
102
{ACAD_REACTORS
330
34BB
102
}
330
2
100
AcDbEntity
  8
KIJUN
100
AcDbCircle
 10
133.6953294982544
 20
107.3998924033692
 30
0.0
 40
26.73594211029791
100
AcDbArc
 50
341.4302115096175
 51
26.95169671969076
  0
ARC
  5
34B7
102
{ACAD_REACTORS
330
34BB
102
}
330
2
100
AcDbEntity
  8
KIJUN
100
AcDbCircle
 10
136.3995578043528
 20
105.1889143287658
 30
0.0
 40
25.52843799378863
100
AcDbArc
 50
34.14477873195026
 51
89.81870362370411
  0
ARC
  5
34B8
102
{ACAD_REACTORS
330
34BB
102
}
330
2
100
AcDbEntity
  8
KIJUN
100
AcDbCircle
 10
67.35020167904789
 20
29.5820067139527
 30
0.0
 40
71.0133889282045
100
AcDbArc
 50
59.41745452086524
 51
66.74535222843296
  0
ARC
  5
34B9
102
{ACAD_REACTORS
330
34BB
102
}
330
2
100
AcDbEntity
  8
KIJUN
100
AcDbCircle
 10
91.48018732584107
 20
83.75433611477896
 30
0.0
 40
11.74113348140659
100
AcDbArc
 50
70.56141126443769
 51
116.6965582942172
  0
ARC
  5
34BA
102
{ACAD_REACTORS
330
34BB
102
}
330
2
100
AcDbEntity
  8
KIJUN
100
AcDbCircle
 10
89.88309613766357
 20
87.90987736836067
 30
0.0
 40
7.324296333342697
100
AcDbArc
 50
120.141419343613
 51
247.224487904803
  0
ENDSEC
  0
SECTION
  2
OBJECTS
  0
DICTIONARY
  5
1A
330
0
100
AcDbDictionary
281
     1
  3
ACAD_COLOR
350
144
  3
ACAD_GROUP
350
18
  3
ACAD_LAYOUT
350
58
  3
ACAD_MATERIAL
350
143
  3
ACAD_MLINESTYLE
350
19
  3
ACAD_PLOTSETTINGS
350
59
  3
ACAD_PLOTSTYLENAME
350
56
  3
ACAD_TABLESTYLE
350
145
  3
ACDBHEADERROUNDTRIPXREC
350
34E1
  3
AcDbVariableDictionary
350
1D1
  0
DICTIONARY
  5
1B4
330
A
100
AcDbDictionary
280
     1
281
     1
  3
ACAD_LAYERFILTERS
360
1A2A
  3
ACLYDICTIONARY
360
1A29
  0
DICTIONARY
  5
D13
330
2
100
AcDbDictionary
280
     1
281
     1
  3
ACAD_SORTENTS
360
D14
  0
DICTIONARY
  5
144
102
{ACAD_REACTORS
330
1A
102
}
330
1A
100
AcDbDictionary
281
     1
  0
DICTIONARY
  5
18
102
{ACAD_REACTORS
330
1A
102
}
330
1A
100
AcDbDictionary
281
     1
  3
*A1
350
E0D
  3
*A10
350
2905
  3
*A11
350
2A17
  3
*A12
350
213E
  3
*A13
350
2B84
  3
*A14
350
2C6B
  3
*A15
350
2D78
  3
*A16
350
22C8
  3
*A17
350
241A
  3
*A18
350
24D6
  3
*A19
350
2573
  3
*A2
350
1EFE
  3
*A20
350
265A
  3
*A21
350
26DD
  3
*A22
350
275E
  3
*A23
350
2EE1
  3
*A24
350
2F81
  3
*A25
350
307D
  3
*A26
350
3181
  3
*A27
350
31DF
  3
*A28
350
32E4
  3
*A29
350
3349
  3
*A3
350
2037
  3
*A30
350
3467
  3
*A31
350
34BB
  3
*A4
350
FF8
  3
*A5
350
136A
  3
*A6
350
1555
  3
*A7
350
17BC
  3
*A8
350
1A98
  3
*A9
350
1CBC
  0
DICTIONARY
  5
58
102
{ACAD_REACTORS
330
1A
102
}
330
1A
100
AcDbDictionary
281
     1
  3
Model
350
5A
  3
ﾚｲｱｳﾄ1
350
5B
  0
DICTIONARY
  5
143
102
{ACAD_REACTORS
330
1A
102
}
330
1A
100
AcDbDictionary
281
     1
  0
DICTIONARY
  5
19
102
{ACAD_REACTORS
330
1A
102
}
330
1A
100
AcDbDictionary
281
     1
  3
STANDARD
350
1D
  0
DICTIONARY
  5
59
102
{ACAD_REACTORS
330
1A
102
}
330
1A
100
AcDbDictionary
281
     1
  0
ACDBDICTIONARYWDFLT
  5
56
102
{ACAD_REACTORS
330
1A
102
}
330
1A
100
AcDbDictionary
281
     1
  3
Normal
350
57
100
AcDbDictionaryWithDefault
340
57
  0
DICTIONARY
  5
145
102
{ACAD_REACTORS
330
1A
102
}
330
1A
100
AcDbDictionary
281
     1
  3
Standard
350
146
  0
DICTIONARY
  5
34E1
102
{ACAD_REACTORS
330
1A
102
}
330
1A
100
AcDbDictionary
281
     1
  0
DICTIONARY
  5
1D1
102
{ACAD_REACTORS
330
1A
102
}
330
1A
100
AcDbDictionary
281
     1
  3
CTABLESTYLE
350
1D2
  3
DIMASSOC
350
D03
  3
PROJECTNAME
350
D04
  0
DICTIONARY
  5
1A2A
102
{ACAD_REACTORS
330
1B4
102
}
330
1B4
100
AcDbDictionary
281
     1
  0
DICTIONARY
  5
1A29
102
{ACAD_REACTORS
330
1B4
102
}
330
1B4
100
AcDbDictionary
281
     1
1001
ACAD
1000
<All
  0
SORTENTSTABLE
  5
D14
102
{ACAD_REACTORS
330
D13
102
}
330
D13
100
AcDbSortentsTable
330
2
331
23
  5
23
331
21
  5
21
331
1F
  5
1F
331
20
  5
20
  0
GROUP
  5
E0D
102
{ACAD_REACTORS
330
18
102
}
330
18
100
AcDbGroup
300

 70
     1
 71
     1
  0
GROUP
  5
2905
102
{ACAD_REACTORS
330
18
102
}
330
18
100
AcDbGroup
300

 70
     1
 71
     1
  0
GROUP
  5
2A17
102
{ACAD_REACTORS
330
18
102
}
330
18
100
AcDbGroup
300

 70
     1
 71
     1
  0
GROUP
  5
213E
102
{ACAD_REACTORS
330
18
102
}
330
18
100
AcDbGroup
300

 70
     1
 71
     1
  0
GROUP
  5
2B84
102
{ACAD_REACTORS
330
18
102
}
330
18
100
AcDbGroup
300

 70
     1
 71
     1
  0
GROUP
  5
2C6B
102
{ACAD_REACTORS
330
18
102
}
330
18
100
AcDbGroup
300

 70
     1
 71
     1
  0
GROUP
  5
2D78
102
{ACAD_REACTORS
330
18
102
}
330
18
100
AcDbGroup
300

 70
     1
 71
     1
  0
GROUP
  5
22C8
102
{ACAD_REACTORS
330
18
102
}
330
18
100
AcDbGroup
300

 70
     1
 71
     1
  0
GROUP
  5
241A
102
{ACAD_REACTORS
330
18
102
}
330
18
100
AcDbGroup
300

 70
     1
 71
     1
  0
GROUP
  5
24D6
102
{ACAD_REACTORS
330
18
102
}
330
18
100
AcDbGroup
300

 70
     1
 71
     1
  0
GROUP
  5
2573
102
{ACAD_REACTORS
330
18
102
}
330
18
100
AcDbGroup
300

 70
     1
 71
     1
  0
GROUP
  5
1EFE
102
{ACAD_REACTORS
330
18
102
}
330
18
100
AcDbGroup
300

 70
     1
 71
     1
  0
GROUP
  5
265A
102
{ACAD_REACTORS
330
18
102
}
330
18
100
AcDbGroup
300

 70
     1
 71
     1
  0
GROUP
  5
26DD
102
{ACAD_REACTORS
330
18
102
}
330
18
100
AcDbGroup
300

 70
     1
 71
     1
  0
GROUP
  5
275E
102
{ACAD_REACTORS
330
18
102
}
330
18
100
AcDbGroup
300

 70
     1
 71
     1
  0
GROUP
  5
2EE1
102
{ACAD_REACTORS
330
18
102
}
330
18
100
AcDbGroup
300

 70
     1
 71
     1
  0
GROUP
  5
2F81
102
{ACAD_REACTORS
330
18
102
}
330
18
100
AcDbGroup
300

 70
     1
 71
     1
  0
GROUP
  5
307D
102
{ACAD_REACTORS
330
18
102
}
330
18
100
AcDbGroup
300

 70
     1
 71
     1
  0
GROUP
  5
3181
102
{ACAD_REACTORS
330
18
102
}
330
18
100
AcDbGroup
300

 70
     1
 71
     1
  0
GROUP
  5
31DF
102
{ACAD_REACTORS
330
18
102
}
330
18
100
AcDbGroup
300

 70
     1
 71
     1
  0
GROUP
  5
32E4
102
{ACAD_REACTORS
330
18
102
}
330
18
100
AcDbGroup
300

 70
     1
 71
     1
  0
GROUP
  5
3349
102
{ACAD_REACTORS
330
18
102
}
330
18
100
AcDbGroup
300

 70
     1
 71
     1
  0
GROUP
  5
2037
102
{ACAD_REACTORS
330
18
102
}
330
18
100
AcDbGroup
300

 70
     1
 71
     1
  0
GROUP
  5
3467
102
{ACAD_REACTORS
330
18
102
}
330
18
100
AcDbGroup
300

 70
     1
 71
     1
340
343F
340
343E
340
343D
340
3426
340
3422
340
3420
340
341F
340
341E
340
3413
340
33BE
340
33BD
340
33BC
340
33BB
340
33BA
340
33B9
340
33B8
340
33B7
340
33B6
340
33B5
340
33B4
340
33B3
340
33B2
340
33B1
340
33B0
340
33AF
340
33AE
340
33AD
340
33AC
340
33AB
340
33AA
340
33A9
340
33A8
340
33A7
340
33A6
340
33A5
340
33A3
340
33A1
340
339F
340
339E
340
339D
340
339C
340
339B
340
339A
340
3399
340
3398
340
3397
340
3396
  0
GROUP
  5
34BB
102
{ACAD_REACTORS
330
18
102
}
330
18
100
AcDbGroup
300

 70
     1
 71
     1
340
34BA
340
34B9
340
34B8
340
34B7
340
34B6
340
34B5
340
34B4
340
34B3
340
34B2
340
34B1
340
34B0
340
34AF
340
34AE
340
34AD
340
34AC
340
34AB
340
34AA
340
34A9
340
34A8
340
34A7
340
34A6
340
34A5
340
34A4
340
34A3
340
34A2
340
34A1
340
34A0
340
349F
340
349E
340
349D
340
349C
340
349B
340
349A
340
3499
340
3498
340
3497
340
3496
340
3495
340
3494
340
3493
340
3492
340
3491
340
3490
340
348F
340
348E
340
348D
340
348C
  0
GROUP
  5
FF8
102
{ACAD_REACTORS
330
18
102
}
330
18
100
AcDbGroup
300

 70
     1
 71
     1
  0
GROUP
  5
136A
102
{ACAD_REACTORS
330
18
102
}
330
18
100
AcDbGroup
300

 70
     1
 71
     1
  0
GROUP
  5
1555
102
{ACAD_REACTORS
330
18
102
}
330
18
100
AcDbGroup
300

 70
     1
 71
     1
  0
GROUP
  5
17BC
102
{ACAD_REACTORS
330
18
102
}
330
18
100
AcDbGroup
300

 70
     1
 71
     1
  0
GROUP
  5
1A98
102
{ACAD_REACTORS
330
18
102
}
330
18
100
AcDbGroup
300

 70
     1
 71
     1
  0
GROUP
  5
1CBC
102
{ACAD_REACTORS
330
18
102
}
330
18
100
AcDbGroup
300

 70
     1
 71
     1
  0
LAYOUT
  5
5A
102
{ACAD_XDICTIONARY
360
34E2
102
}
102
{ACAD_REACTORS
330
58
102
}
330
58
100
AcDbPlotSettings
  1

  2
なし
  4

  6

 40
0.0
 41
0.0
 42
0.0
 43
0.0
 44
0.0
 45
0.0
 46
0.0
 47
0.0
 48
0.0
 49
0.0
140
0.0
141
0.0
142
1.0
143
1.0
 70
  1712
 72
     0
 73
     0
 74
     0
  7
monochrome.ctb
 75
     0
147
1.0
148
0.0
149
0.0
100
AcDbLayout
  1
Model
 70
     1
 71
     0
 10
0.0
 20
0.0
 11
12.0
 21
9.0
 12
0.0
 22
0.0
 32
0.0
 14
0.0
 24
0.0
 34
0.0
 15
0.0
 25
0.0
 35
0.0
146
0.0
 13
0.0
 23
0.0
 33
0.0
 16
1.0
 26
0.0
 36
0.0
 17
0.0
 27
1.0
 37
0.0
 76
     0
330
2
  0
LAYOUT
  5
5B
102
{ACAD_XDICTIONARY
360
34E4
102
}
102
{ACAD_REACTORS
330
58
102
}
330
58
100
AcDbPlotSettings
  1

  2
なし
  4

  6

 40
0.0
 41
0.0
 42
0.0
 43
0.0
 44
0.0
 45
0.0
 46
0.0
 47
0.0
 48
0.0
 49
0.0
140
0.0
141
0.0
142
1.0
143
1.0
 70
   688
 72
     0
 73
     0
 74
     5
  7
monochrome.ctb
 75
    16
147
1.0
148
0.0
149
0.0
100
AcDbLayout
  1
ﾚｲｱｳﾄ1
 70
     1
 71
     1
 10
0.0
 20
0.0
 11
12.0
 21
9.0
 12
0.0
 22
0.0
 32
0.0
 14
1.000000000000000E+20
 24
1.000000000000000E+20
 34
1.000000000000000E+20
 15
-1.000000000000000E+20
 25
-1.000000000000000E+20
 35
-1.000000000000000E+20
146
0.0
 13
0.0
 23
0.0
 33
0.0
 16
1.0
 26
0.0
 36
0.0
 17
0.0
 27
1.0
 37
0.0
 76
     0
330
7
  0
MLINESTYLE
  5
1D
102
{ACAD_REACTORS
330
19
102
}
330
19
100
AcDbMlineStyle
  2
STANDARD
 70
     0
  3

 62
   256
 51
90.0
 52
90.0
 71
     2
 49
0.5
 62
   256
  6
BYLAYER
 49
-0.5
 62
   256
  6
BYLAYER
  0
ACDBPLACEHOLDER
  5
57
102
{ACAD_REACTORS
330
56
102
}
330
56
  0
TABLESTYLE
  5
146
102
{ACAD_REACTORS
330
145
102
}
330
145
100
AcDbTableStyle
  3
Standard
 70
     0
 71
     0
 40
0.06
 41
0.06
280
     0
281
     0
  7
STANDARD
140
0.18
170
     2
 62
     0
 63
     7
283
     0
274
    -2
284
     1
 64
     0
275
    -2
285
     1
 65
     0
276
    -2
286
     1
 66
     0
277
    -2
287
     1
 67
     0
278
    -2
288
     1
 68
     0
279
    -2
289
     1
 69
     0
  7
STANDARD
140
0.25
170
     5
 62
     0
 63
     7
283
     0
274
    -2
284
     1
 64
     0
275
    -2
285
     1
 65
     0
276
    -2
286
     1
 66
     0
277
    -2
287
     1
 67
     0
278
    -2
288
     1
 68
     0
279
    -2
289
     1
 69
     0
  7
STANDARD
140
0.18
170
     5
 62
     0
 63
     7
283
     0
274
    -2
284
     1
 64
     0
275
    -2
285
     1
 65
     0
276
    -2
286
     1
 66
     0
277
    -2
287
     1
 67
     0
278
    -2
288
     1
 68
     0
279
    -2
289
     1
 69
     0
  0
DICTIONARYVAR
  5
1D2
102
{ACAD_REACTORS
330
1D1
102
}
330
1D1
100
DictionaryVariables
280
     0
  1
STANDARD
  0
DICTIONARYVAR
  5
D03
102
{ACAD_REACTORS
330
1D1
102
}
330
1D1
100
DictionaryVariables
280
     0
  1
1
  0
DICTIONARYVAR
  5
D04
102
{ACAD_REACTORS
330
1D1
102
}
330
1D1
100
DictionaryVariables
280
     0
  1

  0
DICTIONARY
  5
34E2
330
5A
100
AcDbDictionary
280
     1
281
     1
  3
ACAD_XREC_ROUNDTRIP
360
34E3
  0
DICTIONARY
  5
34E4
330
5B
100
AcDbDictionary
280
     1
281
     1
  3
ACAD_XREC_ROUNDTRIP
360
34E5
  0
XRECORD
  5
34E3
102
{ACAD_REACTORS
330
34E2
102
}
330
34E2
100
AcDbXrecord
280
     1
102
SHADEPLOT
 70
     0
102
SHADEPLOTRESLEVEL
 70
     2
102
SHADEPLOTCUSTOMDPI
 70
   300
  0
XRECORD
  5
34E5
102
{ACAD_REACTORS
330
34E4
102
}
330
34E4
100
AcDbXrecord
280
     1
102
SHADEPLOT
 70
     0
102
SHADEPLOTRESLEVEL
 70
     2
102
SHADEPLOTCUSTOMDPI
 70
   300
  0
ENDSEC
  0
EOF
