  0
SECTION
  2
HEADER
  9
$ACADVER
  1
AC1015
  9
$ACADMAINTVER
 70
    20
  9
$DWGCODEPAGE
  3
ANSI_932
  9
$INSBASE
 10
922.019522
 20
-675.4306699999999
 30
0.0
  9
$EXTMIN
 10
-111.3762895280233
 20
0.0
 30
0.0
  9
$EXTMAX
 10
249.6869506800916
 20
200.093913795597
 30
0.0
  9
$LIMMIN
 10
0.0
 20
0.0
  9
$LIMMAX
 10
420.0
 20
297.0
  9
$ORTHOMODE
 70
     1
  9
$REGENMODE
 70
     1
  9
$FILLMODE
 70
     1
  9
$QTEXTMODE
 70
     0
  9
$MIRRTEXT
 70
     1
  9
$LTSCALE
 40
1.0
  9
$ATTMODE
 70
     1
  9
$TEXTSIZE
 40
30.0
  9
$TRACEWID
 40
0.05
  9
$TEXTSTYLE
  7
SUNPOU
  9
$CLAYER
  8
0
  9
$CELTYPE
  6
BYLAYER
  9
$CECOLOR
 62
   256
  9
$CELTSCALE
 40
1.0
  9
$DISPSILH
 70
     0
  9
$DIMSCALE
 40
1.0
  9
$DIMASZ
 40
2.0
  9
$DIMEXO
 40
10.0
  9
$DIMDLI
 40
0.38
  9
$DIMRND
 40
0.0
  9
$DIMDLE
 40
0.0
  9
$DIMEXE
 40
0.0
  9
$DIMTP
 40
0.0
  9
$DIMTM
 40
0.0
  9
$DIMTXT
 40
10.0
  9
$DIMCEN
 40
0.0
  9
$DIMTSZ
 40
0.0
  9
$DIMTOL
 70
     0
  9
$DIMLIM
 70
     0
  9
$DIMTIH
 70
     0
  9
$DIMTOH
 70
     0
  9
$DIMSE1
 70
     0
  9
$DIMSE2
 70
     0
  9
$DIMTAD
 70
     1
  9
$DIMZIN
 70
     0
  9
$DIMBLK
  1
Dot
  9
$DIMASO
 70
     1
  9
$DIMSHO
 70
     1
  9
$DIMPOST
  1

  9
$DIMAPOST
  1

  9
$DIMALT
 70
     0
  9
$DIMALTD
 70
     2
  9
$DIMALTF
 40
25.4
  9
$DIMLFAC
 40
1.0
  9
$DIMTOFL
 70
     0
  9
$DIMTVP
 40
0.0
  9
$DIMTIX
 70
     0
  9
$DIMSOXD
 70
     0
  9
$DIMSAH
 70
     0
  9
$DIMBLK1
  1

  9
$DIMBLK2
  1

  9
$DIMSTYLE
  2
STANDARD
  9
$DIMCLRD
 70
    60
  9
$DIMCLRE
 70
    70
  9
$DIMCLRT
 70
    60
  9
$DIMTFAC
 40
0.064286
  9
$DIMGAP
 40
3.0
  9
$DIMJUST
 70
     0
  9
$DIMSD1
 70
     0
  9
$DIMSD2
 70
     0
  9
$DIMTOLJ
 70
     1
  9
$DIMTZIN
 70
     0
  9
$DIMALTZ
 70
     0
  9
$DIMALTTZ
 70
     0
  9
$DIMUPT
 70
     0
  9
$DIMDEC
 70
     0
  9
$DIMTDEC
 70
     0
  9
$DIMALTU
 70
     2
  9
$DIMALTTD
 70
     2
  9
$DIMTXSTY
  7
SUNPOU
  9
$DIMAUNIT
 70
     0
  9
$DIMADEC
 70
     0
  9
$DIMALTRND
 40
0.0
  9
$DIMAZIN
 70
     0
  9
$DIMDSEP
 70
    46
  9
$DIMATFIT
 70
     3
  9
$DIMFRAC
 70
     0
  9
$DIMLDRBLK
  1

  9
$DIMLUNIT
 70
     2
  9
$DIMLWD
 70
    -2
  9
$DIMLWE
 70
    -2
  9
$DIMTMOVE
 70
     0
  9
$LUNITS
 70
     2
  9
$LUPREC
 70
     5
  9
$SKETCHINC
 40
0.1
  9
$FILLETRAD
 40
0.0
  9
$AUNITS
 70
     0
  9
$AUPREC
 70
     0
  9
$MENU
  1
acad
  9
$ELEVATION
 40
0.0
  9
$PELEVATION
 40
0.0
  9
$THICKNESS
 40
0.0
  9
$LIMCHECK
 70
     0
  9
$CHAMFERA
 40
0.0
  9
$CHAMFERB
 40
0.0
  9
$CHAMFERC
 40
0.0
  9
$CHAMFERD
 40
0.0
  9
$SKPOLY
 70
     0
  9
$TDCREATE
 40
2450623.654673033
  9
$TDUCREATE
 40
2450623.279673032
  9
$TDUPDATE
 40
2453943.365944560
  9
$TDUUPDATE
 40
2453942.990944560
  9
$TDINDWG
 40
0.2137875347
  9
$TDUSRTIMER
 40
0.2137873611
  9
$USRTIMER
 70
     1
  9
$ANGBASE
 50
0.0
  9
$ANGDIR
 70
     0
  9
$PDMODE
 70
     0
  9
$PDSIZE
 40
0.0
  9
$PLINEWID
 40
0.0
  9
$SPLFRAME
 70
     0
  9
$SPLINETYPE
 70
     6
  9
$SPLINESEGS
 70
     8
  9
$HANDSEED
  5
3773
  9
$SURFTAB1
 70
     6
  9
$SURFTAB2
 70
     6
  9
$SURFTYPE
 70
     6
  9
$SURFU
 70
     6
  9
$SURFV
 70
     6
  9
$UCSBASE
  2

  9
$UCSNAME
  2

  9
$UCSORG
 10
0.0
 20
0.0
 30
0.0
  9
$UCSXDIR
 10
1.0
 20
0.0
 30
0.0
  9
$UCSYDIR
 10
0.0
 20
1.0
 30
0.0
  9
$UCSORTHOREF
  2

  9
$UCSORTHOVIEW
 70
     0
  9
$UCSORGTOP
 10
0.0
 20
0.0
 30
0.0
  9
$UCSORGBOTTOM
 10
0.0
 20
0.0
 30
0.0
  9
$UCSORGLEFT
 10
0.0
 20
0.0
 30
0.0
  9
$UCSORGRIGHT
 10
0.0
 20
0.0
 30
0.0
  9
$UCSORGFRONT
 10
0.0
 20
0.0
 30
0.0
  9
$UCSORGBACK
 10
0.0
 20
0.0
 30
0.0
  9
$PUCSBASE
  2

  9
$PUCSNAME
  2

  9
$PUCSORG
 10
0.0
 20
0.0
 30
0.0
  9
$PUCSXDIR
 10
1.0
 20
0.0
 30
0.0
  9
$PUCSYDIR
 10
0.0
 20
1.0
 30
0.0
  9
$PUCSORTHOREF
  2

  9
$PUCSORTHOVIEW
 70
     0
  9
$PUCSORGTOP
 10
0.0
 20
0.0
 30
0.0
  9
$PUCSORGBOTTOM
 10
0.0
 20
0.0
 30
0.0
  9
$PUCSORGLEFT
 10
0.0
 20
0.0
 30
0.0
  9
$PUCSORGRIGHT
 10
0.0
 20
0.0
 30
0.0
  9
$PUCSORGFRONT
 10
0.0
 20
0.0
 30
0.0
  9
$PUCSORGBACK
 10
0.0
 20
0.0
 30
0.0
  9
$USERI1
 70
     0
  9
$USERI2
 70
     0
  9
$USERI3
 70
     0
  9
$USERI4
 70
     0
  9
$USERI5
 70
     0
  9
$USERR1
 40
0.0
  9
$USERR2
 40
0.0
  9
$USERR3
 40
0.0
  9
$USERR4
 40
0.0
  9
$USERR5
 40
0.0
  9
$WORLDVIEW
 70
     1
  9
$SHADEDGE
 70
     3
  9
$SHADEDIF
 70
    70
  9
$TILEMODE
 70
     1
  9
$MAXACTVP
 70
    16
  9
$PINSBASE
 10
0.0
 20
0.0
 30
0.0
  9
$PLIMCHECK
 70
     0
  9
$PEXTMIN
 10
1.000000000000000E+20
 20
1.000000000000000E+20
 30
1.000000000000000E+20
  9
$PEXTMAX
 10
-1.000000000000000E+20
 20
-1.000000000000000E+20
 30
-1.000000000000000E+20
  9
$PLIMMIN
 10
0.0
 20
0.0
  9
$PLIMMAX
 10
12.0
 20
9.0
  9
$UNITMODE
 70
     0
  9
$VISRETAIN
 70
     0
  9
$PLINEGEN
 70
     0
  9
$PSLTSCALE
 70
     1
  9
$TREEDEPTH
 70
  3020
  9
$CMLSTYLE
  2
STANDARD
  9
$CMLJUST
 70
     0
  9
$CMLSCALE
 40
1.0
  9
$PROXYGRAPHICS
 70
     1
  9
$MEASUREMENT
 70
     0
  9
$CELWEIGHT
370
    -1
  9
$ENDCAPS
280
     0
  9
$JOINSTYLE
280
     0
  9
$LWDISPLAY
290
     0
  9
$INSUNITS
 70
     0
  9
$HYPERLINKBASE
  1

  9
$STYLESHEET
  1

  9
$XEDIT
290
     1
  9
$CEPSNTYPE
380
     0
  9
$PSTYLEMODE
290
     1
  9
$FINGERPRINTGUID
  2
{FB88A696-E29C-4009-92AF-A3599A8169D5}
  9
$VERSIONGUID
  2
{4C8574EC-1986-49AE-B52E-60E29BC31F7E}
  9
$EXTNAMES
290
     1
  9
$PSVPSCALE
 40
0.0
  9
$OLESTARTUP
290
     0
  0
ENDSEC
  0
SECTION
  2
CLASSES
  0
CLASS
  1
DICTIONARYVAR
  2
AcDbDictionaryVar
  3
ObjectDBX Classes
 90
        0
280
     0
281
     0
  0
CLASS
  1
ACDBDICTIONARYWDFLT
  2
AcDbDictionaryWithDefault
  3
ObjectDBX Classes
 90
        0
280
     0
281
     0
  0
CLASS
  1
ACDBPLACEHOLDER
  2
AcDbPlaceHolder
  3
ObjectDBX Classes
 90
        0
280
     0
281
     0
  0
CLASS
  1
LAYOUT
  2
AcDbLayout
  3
ObjectDBX Classes
 90
        0
280
     0
281
     0
  0
CLASS
  1
TABLESTYLE
  2
AcDbTableStyle
  3
ObjectDBX Classes
 90
     2047
280
     0
281
     0
  0
CLASS
  1
SORTENTSTABLE
  2
AcDbSortentsTable
  3
ObjectDBX Classes
 90
        0
280
     0
281
     0
  0
ENDSEC
  0
SECTION
  2
TABLES
  0
TABLE
  2
VPORT
  5
12
330
0
100
AcDbSymbolTable
 70
     2
  0
VPORT
  5
376D
330
12
100
AcDbSymbolTableRecord
100
AcDbViewportTableRecord
  2
*Active
 70
     0
 10
0.0
 20
0.0
 11
1.0
 21
1.0
 12
69.15134847481408
 22
100.0497543811289
 13
0.0
 23
0.0
 14
1.0
 24
1.0
 15
0.0
 25
0.0
 16
0.0
 26
0.0
 36
1.0
 17
0.0
 27
0.0
 37
0.0
 40
230.8368822438574
 41
1.5719794344473
 42
50.0
 43
0.0
 44
0.0
 50
0.0
 51
0.0
 71
     0
 72
 20000
 73
     1
 74
     1
 75
     0
 76
     0
 77
     0
 78
     0
281
     0
 65
     1
110
0.0
120
0.0
130
0.0
111
1.0
121
0.0
131
0.0
112
0.0
122
1.0
132
0.0
 79
     0
146
0.0
  0
ENDTAB
  0
TABLE
  2
LTYPE
  5
D
330
0
100
AcDbSymbolTable
 70
     1
  0
LTYPE
  5
E
330
D
100
AcDbSymbolTableRecord
100
AcDbLinetypeTableRecord
  2
BYBLOCK
 70
     0
  3

 72
    65
 73
     0
 40
0.0
  0
LTYPE
  5
F
330
D
100
AcDbSymbolTableRecord
100
AcDbLinetypeTableRecord
  2
BYLAYER
 70
     0
  3

 72
    65
 73
     0
 40
0.0
  0
LTYPE
  5
5
330
D
100
AcDbSymbolTableRecord
100
AcDbLinetypeTableRecord
  2
CONTINUOUS
 70
     0
  3
Solid line
 72
    65
 73
     0
 40
0.0
  0
ENDTAB
  0
TABLE
  2
LAYER
  5
A
102
{ACAD_XDICTIONARY
360
1B4
102
}
330
0
100
AcDbSymbolTable
 70
     6
  0
LAYER
  5
4
330
A
100
AcDbSymbolTableRecord
100
AcDbLayerTableRecord
  2
0
 70
     0
 62
     7
  6
CONTINUOUS
370
    -3
390
57
  0
LAYER
  5
25
330
A
100
AcDbSymbolTableRecord
100
AcDbLayerTableRecord
  2
KIJUN
 70
     0
 62
     7
  6
CONTINUOUS
370
    -3
390
57
  0
LAYER
  5
22
330
A
100
AcDbSymbolTableRecord
100
AcDbLayerTableRecord
  2
HOJO
 70
     0
 62
     3
  6
CONTINUOUS
370
    -3
390
57
  0
LAYER
  5
1B
330
A
100
AcDbSymbolTableRecord
100
AcDbLayerTableRecord
  2
WAKU
 70
     0
 62
     1
  6
CONTINUOUS
370
    -3
390
57
  0
LAYER
  5
31
330
A
100
AcDbSymbolTableRecord
100
AcDbLayerTableRecord
  2
DEFPOINTS
 70
     0
 62
     7
  6
CONTINUOUS
290
     0
370
    -3
390
57
  0
LAYER
  5
28
330
A
100
AcDbSymbolTableRecord
100
AcDbLayerTableRecord
  2
SUNPOU
 70
     0
 62
    70
  6
CONTINUOUS
370
    -3
390
57
  0
ENDTAB
  0
TABLE
  2
STYLE
  5
B
330
0
100
AcDbSymbolTable
 70
     2
  0
STYLE
  5
C
330
B
100
AcDbSymbolTableRecord
100
AcDbTextStyleTableRecord
  2
STANDARD
 70
     0
 40
0.0
 41
1.0
 50
0.0
 71
     0
 42
0.2
  3
txt
  4

  0
STYLE
  5
1C
330
B
100
AcDbSymbolTableRecord
100
AcDbTextStyleTableRecord
  2
SUNPOU
 70
     0
 40
0.0
 41
1.0
 50
0.0
 71
     0
 42
30.0
  3
txt
  4
bigfont
  0
ENDTAB
  0
TABLE
  2
VIEW
  5
10
330
0
100
AcDbSymbolTable
 70
     0
  0
ENDTAB
  0
TABLE
  2
UCS
  5
11
330
0
100
AcDbSymbolTable
 70
     0
  0
ENDTAB
  0
TABLE
  2
APPID
  5
14
330
0
100
AcDbSymbolTable
 70
    10
  0
APPID
  5
15
330
14
100
AcDbSymbolTableRecord
100
AcDbRegAppTableRecord
  2
ACAD
 70
     0
  0
APPID
  5
1D3
330
14
100
AcDbSymbolTableRecord
100
AcDbRegAppTableRecord
  2
ACAD_DSTYLE_DIMTEXT_FILL
 70
     0
  0
APPID
  5
1D4
330
14
100
AcDbSymbolTableRecord
100
AcDbRegAppTableRecord
  2
ACAD_DSTYLE_DIMEXT_LENGTH
 70
     0
  0
APPID
  5
1D5
330
14
100
AcDbSymbolTableRecord
100
AcDbRegAppTableRecord
  2
ACAD_DSTYLE_DIMEXT_ENABLED
 70
     0
  0
APPID
  5
1D6
330
14
100
AcDbSymbolTableRecord
100
AcDbRegAppTableRecord
  2
ACAD_DSTYLE_DIM_LINETYPE
 70
     0
  0
APPID
  5
1D7
330
14
100
AcDbSymbolTableRecord
100
AcDbRegAppTableRecord
  2
ACAD_DSTYLE_DIM_EXT1_LINETYPE
 70
     0
  0
APPID
  5
1D8
330
14
100
AcDbSymbolTableRecord
100
AcDbRegAppTableRecord
  2
ACAD_DSTYLE_DIM_EXT2_LINETYPE
 70
     0
  0
APPID
  5
294
330
14
100
AcDbSymbolTableRecord
100
AcDbRegAppTableRecord
  2
ACAD_DSTYLE_DIMJOGGED_JOGANGLE_SYMBOL
 70
     0
  0
APPID
  5
478
330
14
100
AcDbSymbolTableRecord
100
AcDbRegAppTableRecord
  2
ACAD_DSTYLE_DIMARC_LENGTH_SYMBOL
 70
     0
  0
APPID
  5
157B
330
14
100
AcDbSymbolTableRecord
100
AcDbRegAppTableRecord
  2
ACAD_EXEMPT_FROM_CAD_STANDARDS
 70
     0
  0
ENDTAB
  0
TABLE
  2
DIMSTYLE
  5
16
330
0
100
AcDbSymbolTable
 70
     1
100
AcDbDimStyleTable
 71
     1
340
1E
  0
DIMSTYLE
105
1E
102
{ACAD_REACTORS
330
35E8
330
35F5
102
}
330
16
100
AcDbSymbolTableRecord
100
AcDbDimStyleTableRecord
  2
STANDARD
 70
     0
340
C
  0
ENDTAB
  0
TABLE
  2
BLOCK_RECORD
  5
1
330
0
100
AcDbSymbolTable
 70
     3
  0
BLOCK_RECORD
  5
2
102
{ACAD_XDICTIONARY
360
1578
102
}
330
1
100
AcDbSymbolTableRecord
100
AcDbBlockTableRecord
  2
*MODEL_SPACE
340
5A
  0
BLOCK_RECORD
  5
7
330
1
100
AcDbSymbolTableRecord
100
AcDbBlockTableRecord
  2
*PAPER_SPACE
340
5B
  0
BLOCK_RECORD
  5
109
330
1
100
AcDbSymbolTableRecord
100
AcDbBlockTableRecord
  2
_Dot
340
0
102
{BLKREFS
331
374E
331
374F
331
3757
331
3758
102
}
  0
BLOCK_RECORD
  5
35E9
330
1
100
AcDbSymbolTableRecord
100
AcDbBlockTableRecord
  2
*D1
340
0
  0
BLOCK_RECORD
  5
35F6
330
1
100
AcDbSymbolTableRecord
100
AcDbBlockTableRecord
  2
*D2
340
0
  0
ENDTAB
  0
ENDSEC
  0
SECTION
  2
BLOCKS
  0
BLOCK
  5
3
330
2
100
AcDbEntity
  8
0
100
AcDbBlockBegin
  2
*MODEL_SPACE
 70
     0
 10
0.0
 20
0.0
 30
0.0
  3
*MODEL_SPACE
  1

  0
ENDBLK
  5
6
330
2
100
AcDbEntity
  8
0
100
AcDbBlockEnd
  0
BLOCK
  5
8
330
7
100
AcDbEntity
 67
     1
  8
0
100
AcDbBlockBegin
  2
*PAPER_SPACE
 70
     0
 10
0.0
 20
0.0
 30
0.0
  3
*PAPER_SPACE
  1

  0
ENDBLK
  5
9
330
7
100
AcDbEntity
 67
     1
  8
0
100
AcDbBlockEnd
  0
BLOCK
  5
10C
330
109
100
AcDbEntity
  8
0
100
AcDbBlockBegin
  2
_Dot
 70
     0
 10
0.0
 20
0.0
 30
0.0
  3
_Dot
  1

  0
LWPOLYLINE
  5
10A
330
109
100
AcDbEntity
  8
0
  6
ByBlock
 62
     0
100
AcDbPolyline
 90
        2
 70
     1
 43
0.5
 10
-0.25
 20
0.0
 42
1.0
 10
0.25
 20
0.0
 42
1.0
  0
LINE
  5
10B
330
109
100
AcDbEntity
  8
0
  6
ByBlock
 62
     0
370
    -2
100
AcDbLine
 10
-0.5
 20
0.0
 30
0.0
 11
-1.0
 21
0.0
 31
0.0
  0
ENDBLK
  5
10D
330
109
100
AcDbEntity
  8
0
100
AcDbBlockEnd
  0
BLOCK
  5
35F3
330
35E9
100
AcDbEntity
  8
0
100
AcDbBlockBegin
  2
*D1
 70
     1
 10
0.0
 20
0.0
 30
0.0
  3
*D1
  1

  0
LINE
  5
374B
330
35E9
100
AcDbEntity
  8
SUNPOU
 62
    70
370
    -2
100
AcDbLine
 10
-57.31304931990838
 20
131.8379141464632
 30
0.0
 11
-57.31304931990837
 21
187.0939137955968
 31
0.0
  0
LINE
  5
374C
330
35E9
100
AcDbEntity
  8
SUNPOU
 62
    70
370
    -2
100
AcDbLine
 10
248.6869506800916
 20
132.4970890612778
 30
0.0
 11
248.6869506800916
 21
187.0939137955968
 31
0.0
  0
LINE
  5
374D
330
35E9
100
AcDbEntity
  8
SUNPOU
 62
    60
370
    -2
100
AcDbLine
 10
-55.31304931990836
 20
187.0939137955968
 30
0.0
 11
246.6869506800916
 21
187.0939137955968
 31
0.0
  0
INSERT
  5
374E
330
35E9
100
AcDbEntity
  8
SUNPOU
 62
    60
370
    -2
100
AcDbBlockReference
  2
_Dot
 10
-57.31304931990837
 20
187.0939137955968
 30
0.0
 41
2.0
 42
2.0
 43
2.0
 50
180.0
  0
INSERT
  5
374F
330
35E9
100
AcDbEntity
  8
SUNPOU
 62
    60
370
    -2
100
AcDbBlockReference
  2
_Dot
 10
248.6869506800916
 20
187.0939137955968
 30
0.0
 41
2.0
 42
2.0
 43
2.0
  0
MTEXT
  5
3750
330
35E9
100
AcDbEntity
  8
SUNPOU
 62
    60
100
AcDbMText
 10
95.68695068009162
 20
195.0939137955968
 30
0.0
 40
10.0
 41
0.0
 71
     5
 72
     1
  1
\A1;306
  7
SUNPOU
 73
     1
 44
1.0
1001
ACAD
1000
MTEXTBEGIN
1070
    73
1070
     1
1070
    44
1040
1.0
1070
    74
1070
     0
1000
MTEXTEND
  0
POINT
  5
3751
330
35E9
100
AcDbEntity
  8
DEFPOINTS
 62
     0
100
AcDbPoint
 10
-57.31304931990838
 20
121.8379141464632
 30
0.0
  0
POINT
  5
3752
330
35E9
100
AcDbEntity
  8
DEFPOINTS
 62
     0
100
AcDbPoint
 10
248.6869506800916
 20
122.4970890612778
 30
0.0
  0
POINT
  5
3753
330
35E9
100
AcDbEntity
  8
DEFPOINTS
 62
     0
100
AcDbPoint
 10
248.6869506800916
 20
187.0939137955968
 30
0.0
  0
ENDBLK
  5
35F4
330
35E9
100
AcDbEntity
  8
0
100
AcDbBlockEnd
  0
BLOCK
  5
3600
330
35F6
100
AcDbEntity
  8
0
100
AcDbBlockBegin
  2
*D2
 70
     1
 10
0.0
 20
0.0
 30
0.0
  3
*D2
  1

  0
LINE
  5
3754
330
35F6
100
AcDbEntity
  8
SUNPOU
 62
    70
370
    -2
100
AcDbLine
 10
-67.31304931990838
 20
145.6748995530178
 30
0.0
 11
-98.37628952802333
 21
145.6748995530178
 31
0.0
  0
LINE
  5
3755
330
35F6
100
AcDbEntity
  8
SUNPOU
 62
    70
370
    -2
100
AcDbLine
 10
-67.49508426752891
 20
99.6748995530177
 30
0.0
 11
-98.37628952802333
 21
99.67489955301772
 31
0.0
  0
LINE
  5
3756
330
35F6
100
AcDbEntity
  8
SUNPOU
 62
    60
370
    -2
100
AcDbLine
 10
-98.37628952802333
 20
143.6748995530177
 30
0.0
 11
-98.37628952802333
 21
101.6748995530177
 31
0.0
  0
INSERT
  5
3757
330
35F6
100
AcDbEntity
  8
SUNPOU
 62
    60
370
    -2
100
AcDbBlockReference
  2
_Dot
 10
-98.37628952802333
 20
145.6748995530178
 30
0.0
 41
2.0
 42
2.0
 43
2.0
 50
90.0
  0
INSERT
  5
3758
330
35F6
100
AcDbEntity
  8
SUNPOU
 62
    60
370
    -2
100
AcDbBlockReference
  2
_Dot
 10
-98.37628952802333
 20
99.67489955301772
 30
0.0
 41
2.0
 42
2.0
 43
2.0
 50
270.0
  0
MTEXT
  5
3759
330
35F6
100
AcDbEntity
  8
SUNPOU
 62
    60
100
AcDbMText
 10
-106.3762895280233
 20
122.6748995530177
 30
0.0
 40
10.0
 41
0.0
 71
     5
 72
     1
  1
\A1;46
  7
SUNPOU
 11
0.0000000000000001
 21
1.0
 31
0.0
 73
     1
 44
1.0
1001
ACAD
1000
MTEXTBEGIN
1070
    73
1070
     1
1070
    44
1040
1.0
1070
    74
1070
     0
1000
MTEXTEND
  0
POINT
  5
375A
330
35F6
100
AcDbEntity
  8
DEFPOINTS
 62
     0
100
AcDbPoint
 10
-57.31304931990838
 20
145.6748995530177
 30
0.0
  0
POINT
  5
375B
330
35F6
100
AcDbEntity
  8
DEFPOINTS
 62
     0
100
AcDbPoint
 10
-57.49508426752891
 20
99.6748995530177
 30
0.0
  0
POINT
  5
375C
330
35F6
100
AcDbEntity
  8
DEFPOINTS
 62
     0
100
AcDbPoint
 10
-98.37628952802333
 20
99.67489955301772
 30
0.0
  0
ENDBLK
  5
3601
330
35F6
100
AcDbEntity
  8
0
100
AcDbBlockEnd
  0
ENDSEC
  0
SECTION
  2
ENTITIES
  0
LINE
  5
1F
330
2
100
AcDbEntity
  8
WAKU
100
AcDbLine
 10
0.0
 20
14.0
 30
0.0
 11
147.8933597240585
 21
13.99999999999999
 31
0.0
  0
LINE
  5
20
330
2
100
AcDbEntity
  8
WAKU
100
AcDbLine
 10
0.0
 20
0.0
 30
0.0
 11
147.8933597240585
 21
0.0
 31
0.0
  0
TEXT
  5
21
330
2
100
AcDbEntity
  8
HOJO
100
AcDbText
 10
9.653966000000025
 20
2.366626000000024
 30
0.0
 40
9.0
  1
TWE114
  7
SUNPOU
100
AcDbText
  0
TEXT
  5
23
330
2
100
AcDbEntity
  8
HOJO
100
AcDbText
 10
85.84696046283864
 20
5.044386000000031
 30
0.0
 40
6.0
  1
306×46×5
  7
SUNPOU
100
AcDbText
  0
DIMENSION
  5
35E8
330
2
100
AcDbEntity
  8
SUNPOU
100
AcDbDimension
  2
*D1
 10
248.6869506800916
 20
187.0939137955968
 30
0.0
 11
95.68695068009162
 21
195.0939137955968
 31
0.0
 70
    32
 71
     5
 42
306.0
  3
STANDARD
100
AcDbAlignedDimension
 13
-57.31304931990838
 23
121.8379141464632
 33
0.0
 14
248.6869506800916
 24
122.4970890612778
 34
0.0
100
AcDbRotatedDimension
1001
ACAD
1000
DSTYLE
1002
{
1070
    41
1040
2.0
1070
    42
1040
10.0
1070
    44
1040
0.0
1070
    73
1070
     0
1070
    74
1070
     0
1070
    77
1070
     1
1070
   140
1040
10.0
1070
   141
1040
0.0
1070
   146
1040
0.064286
1070
   147
1040
3.0
1070
   176
1070
    60
1070
   177
1070
    70
1070
   178
1070
    60
1070
   271
1070
     0
1070
   272
1070
     0
1070
   340
1005
1C
1070
   342
1005
109
1002
}
  0
DIMENSION
  5
35F5
330
2
100
AcDbEntity
  8
SUNPOU
100
AcDbDimension
  2
*D2
 10
-98.37628952802333
 20
99.67489955301772
 30
0.0
 11
-106.3762895280233
 21
122.6748995530177
 31
0.0
 70
    32
 71
     5
 42
46.00000000000007
  3
STANDARD
100
AcDbAlignedDimension
 13
-57.31304931990838
 23
145.6748995530177
 33
0.0
 14
-57.49508426752891
 24
99.6748995530177
 34
0.0
 50
90.0
100
AcDbRotatedDimension
1001
ACAD
1000
DSTYLE
1002
{
1070
    41
1040
2.0
1070
    42
1040
10.0
1070
    44
1040
0.0
1070
    73
1070
     0
1070
    74
1070
     0
1070
    77
1070
     1
1070
   140
1040
10.0
1070
   141
1040
0.0
1070
   146
1040
0.064286
1070
   147
1040
3.0
1070
   176
1070
    60
1070
   177
1070
    70
1070
   178
1070
    60
1070
   271
1070
     0
1070
   272
1070
     0
1070
   340
1005
1C
1070
   342
1005
109
1002
}
  0
ARC
  5
36BF
102
{ACAD_REACTORS
330
370C
102
}
330
2
100
AcDbEntity
  8
KIJUN
100
AcDbCircle
 10
-38.51445736862382
 20
110.5507218198069
 30
0.0
 40
9.776636162029557
100
AcDbArc
 50
307.9681984935651
 51
43.92323462007162
  0
ARC
  5
36C0
102
{ACAD_REACTORS
330
370C
102
}
330
2
100
AcDbEntity
  8
KIJUN
100
AcDbCircle
 10
-41.54417279356722
 20
114.1684403951361
 30
0.0
 40
14.49354084211839
100
AcDbArc
 50
229.1106625505973
 51
308.6116970303359
  0
ARC
  5
36C8
102
{ACAD_REACTORS
330
370C
102
}
330
2
100
AcDbEntity
  8
KIJUN
100
AcDbCircle
 10
-40.5473785164236
 20
116.2947942278562
 30
0.0
 40
16.76567080348476
100
AcDbArc
 50
146.4797976531675
 51
231.2927498758079
  0
ARC
  5
36C9
102
{ACAD_REACTORS
330
370C
102
}
330
2
100
AcDbEntity
  8
KIJUN
100
AcDbCircle
 10
-7.943770636280079
 20
39.31078036941823
 30
0.0
 40
106.3641191835995
100
AcDbArc
 50
82.89427161017901
 51
100.8278025052602
  0
ARC
  5
36CB
102
{ACAD_REACTORS
330
370C
102
}
330
2
100
AcDbEntity
  8
KIJUN
100
AcDbCircle
 10
-17.80941815121577
 20
100.4973980935283
 30
0.0
 40
44.4501533849148
100
AcDbArc
 50
103.1542821453363
 51
145.688921534331
  0
ARC
  5
36CC
102
{ACAD_REACTORS
330
370C
102
}
330
2
100
AcDbEntity
  8
KIJUN
100
AcDbCircle
 10
233.0462181519177
 20
125.2538243852123
 30
0.0
 40
15.64073252817388
100
AcDbArc
 50
329.1464777045953
 51
19.37041283220608
  0
ARC
  5
36CD
102
{ACAD_REACTORS
330
370C
102
}
330
2
100
AcDbEntity
  8
KIJUN
100
AcDbCircle
 10
238.6956361093939
 20
125.6263496133523
 30
0.0
 40
10.30066110183941
100
AcDbArc
 50
27.86924521073948
 51
141.6938030428173
  0
ARC
  5
36CE
102
{ACAD_REACTORS
330
370C
102
}
330
2
100
AcDbEntity
  8
KIJUN
100
AcDbCircle
 10
236.4511857772316
 20
127.3307223970734
 30
0.0
 40
7.483134325669731
100
AcDbArc
 50
141.2817449221141
 51
220.3720136385984
  0
ARC
  5
36CF
102
{ACAD_REACTORS
330
370C
102
}
330
2
100
AcDbEntity
  8
KIJUN
100
AcDbCircle
 10
226.4142368664722
 20
115.9636427140573
 30
0.0
 40
6.804551192703322
100
AcDbArc
 50
72.68310899189095
 51
103.1709646939416
  0
ARC
  5
36D1
102
{ACAD_REACTORS
330
370C
102
}
330
2
100
AcDbEntity
  8
KIJUN
100
AcDbCircle
 10
229.5545317341135
 20
126.3938540868171
 30
0.0
 40
4.089010990551526
100
AcDbArc
 50
254.1778608126202
 51
287.0011893738552
  0
ARC
  5
36D2
102
{ACAD_REACTORS
330
370C
102
}
330
2
100
AcDbEntity
  8
KIJUN
100
AcDbCircle
 10
212.1630636517392
 20
114.6477267000301
 30
0.0
 40
3.694103279575116
100
AcDbArc
 50
127.9949630954558
 51
224.7486051909588
  0
ARC
  5
36D3
102
{ACAD_REACTORS
330
370C
102
}
330
2
100
AcDbEntity
  8
KIJUN
100
AcDbCircle
 10
220.1071081383791
 20
104.1054416634441
 30
0.0
 40
16.89395617373031
100
AcDbArc
 50
103.835114371897
 51
127.217181042346
  0
ARC
  5
36D4
102
{ACAD_REACTORS
330
370C
102
}
330
2
100
AcDbEntity
  8
KIJUN
100
AcDbCircle
 10
217.6561274727151
 20
113.9701964960126
 30
0.0
 40
6.729331507533999
100
AcDbArc
 50
63.34909808764013
 51
103.6569282744076
  0
ARC
  5
36D5
102
{ACAD_REACTORS
330
370C
102
}
330
2
100
AcDbEntity
  8
KIJUN
100
AcDbCircle
 10
214.638072586812
 20
109.4962299543448
 30
0.0
 40
12.10144586115541
100
AcDbArc
 50
51.66762268768266
 51
60.07762561035612
  0
ARC
  5
36D6
102
{ACAD_REACTORS
330
370C
102
}
330
2
100
AcDbEntity
  8
KIJUN
100
AcDbCircle
 10
226.0758844580147
 20
118.8457130831626
 30
0.0
 40
3.934830852016903
100
AcDbArc
 50
107.9416121713006
 51
177.914293837766
  0
ARC
  5
36D7
102
{ACAD_REACTORS
330
370C
102
}
330
2
100
AcDbEntity
  8
KIJUN
100
AcDbCircle
 10
193.4947864714537
 20
346.7688779055513
 30
0.0
 40
235.2695301373208
100
AcDbArc
 50
261.5539855410903
 51
273.9104450739619
  0
ARC
  5
36D8
102
{ACAD_REACTORS
330
370C
102
}
330
2
100
AcDbEntity
  8
KIJUN
100
AcDbCircle
 10
-55.84791028736455
 20
-364.7025222271017
 30
0.0
 40
513.2060059660821
100
AcDbArc
 50
76.09704170900548
 51
83.16673792863793
  0
ARC
  5
36D9
102
{ACAD_REACTORS
330
370C
102
}
330
2
100
AcDbEntity
  8
KIJUN
100
AcDbCircle
 10
298.5248664709019
 20
996.7966775491829
 30
0.0
 40
893.7137642432773
100
AcDbArc
 50
255.0165631293106
 51
261.0143939970267
  0
ARC
  5
36DA
102
{ACAD_REACTORS
330
370C
102
}
330
2
100
AcDbEntity
  8
KIJUN
100
AcDbCircle
 10
195.831679090395
 20
394.407068204149
 30
0.0
 40
294.7321686511313
100
AcDbArc
 50
258.7516945651954
 51
273.4426819088324
  0
ARC
  5
36DC
102
{ACAD_REACTORS
330
370C
102
}
330
2
100
AcDbEntity
  8
KIJUN
100
AcDbCircle
 10
207.125593450389
 20
162.5112077031143
 30
0.0
 40
62.6327573978965
100
AcDbArc
 50
275.86925486052
 51
292.0377596879173
  0
ARC
  5
36DD
102
{ACAD_REACTORS
330
370C
102
}
330
2
100
AcDbEntity
  8
KIJUN
100
AcDbCircle
 10
219.3130228653132
 20
134.7009347235105
 30
0.0
 40
32.29296391889232
100
AcDbArc
 50
290.5080436516645
 51
327.2527145781636
  0
ARC
  5
36DF
102
{ACAD_REACTORS
330
370C
102
}
330
2
100
AcDbEntity
  8
KIJUN
100
AcDbCircle
 10
-30.9918798525629
 20
120.0399439913864
 30
0.0
 40
2.749585072793923
100
AcDbArc
 50
259.9301518982374
 51
344.9249513130895
  0
ARC
  5
36E0
102
{ACAD_REACTORS
330
370C
102
}
330
2
100
AcDbEntity
  8
KIJUN
100
AcDbCircle
 10
-25.53947403345727
 20
123.0410078578359
 30
0.0
 40
4.651423953861995
100
AcDbArc
 50
233.0285562897828
 51
25.32256000884195
  0
ARC
  5
36E1
102
{ACAD_REACTORS
330
370C
102
}
330
2
100
AcDbEntity
  8
KIJUN
100
AcDbCircle
 10
-29.48960775029321
 20
93.06824040781505
 30
0.0
 40
32.98610327750271
100
AcDbArc
 50
41.58955734410465
 51
75.68729618625088
  0
ARC
  5
36E2
102
{ACAD_REACTORS
330
370C
102
}
330
2
100
AcDbEntity
  8
KIJUN
100
AcDbCircle
 10
-2.263439634882262
 20
117.5826411206947
 30
0.0
 40
3.658696148226209
100
AcDbArc
 50
225.7012551165324
 51
348.2599619450782
  0
ARC
  5
36E3
102
{ACAD_REACTORS
330
370C
102
}
330
2
100
AcDbEntity
  8
KIJUN
100
AcDbCircle
 10
9.110175869737055
 20
124.8926184307074
 30
0.0
 40
11.20626763420816
100
AcDbArc
 50
225.9507339953544
 51
294.0074750067233
  0
ARC
  5
36E4
102
{ACAD_REACTORS
330
370C
102
}
330
2
100
AcDbEntity
  8
KIJUN
100
AcDbCircle
 10
8.009235609386163
 20
121.3449000057799
 30
0.0
 40
11.90510204098593
100
AcDbArc
 50
329.9569659385767
 51
15.56855208345326
  0
ARC
  5
36E5
102
{ACAD_REACTORS
330
370C
102
}
330
2
100
AcDbEntity
  8
KIJUN
100
AcDbCircle
 10
15.69530259686889
 20
116.9125225570933
 30
0.0
 40
3.032610402448717
100
AcDbArc
 50
228.0869129443046
 51
329.7463807367861
  0
ARC
  5
36E6
102
{ACAD_REACTORS
330
370C
102
}
330
2
100
AcDbEntity
  8
KIJUN
100
AcDbCircle
 10
20.43956710596414
 20
128.2325491159972
 30
0.0
 40
3.815691478395682
100
AcDbArc
 50
255.3967652375227
 51
24.70175704073477
  0
ARC
  5
36E7
102
{ACAD_REACTORS
330
370C
102
}
330
2
100
AcDbEntity
  8
KIJUN
100
AcDbCircle
 10
-35.62031277801621
 20
-314.7792854433618
 30
0.0
 40
448.5735601389428
100
AcDbArc
 50
75.29689389348766
 51
82.37426597303066
  0
ARC
  5
36E8
102
{ACAD_REACTORS
330
370C
102
}
330
2
100
AcDbEntity
  8
KIJUN
100
AcDbCircle
 10
292.2934875760546
 20
915.5089400063948
 30
0.0
 40
824.670220057953
100
AcDbArc
 50
254.9553412908775
 51
259.240676718578
  0
ARC
  5
36E9
102
{ACAD_REACTORS
330
370C
102
}
330
2
100
AcDbEntity
  8
KIJUN
100
AcDbCircle
 10
-41.10338423282178
 20
109.4892049444862
 30
0.0
 40
3.521248249601018
100
AcDbArc
 50
285.8398266896061
 51
120.8818440292639
  0
ARC
  5
36EA
102
{ACAD_REACTORS
330
370C
102
}
330
2
100
AcDbEntity
  8
KIJUN
100
AcDbCircle
 10
-38.50702498136964
 20
99.62271740913102
 30
0.0
 40
19.05588061710542
100
AcDbArc
 50
68.33710001479516
 51
93.64849114356616
  0
ARC
  5
36EB
102
{ACAD_REACTORS
330
370C
102
}
330
2
100
AcDbEntity
  8
KIJUN
100
AcDbCircle
 10
-39.16071974699471
 20
111.1917537265218
 30
0.0
 40
7.469164531783954
100
AcDbArc
 50
94.29154386595943
 51
177.2128998622257
  0
ARC
  5
36EC
102
{ACAD_REACTORS
330
370C
102
}
330
2
100
AcDbEntity
  8
KIJUN
100
AcDbCircle
 10
-41.63794583147275
 20
110.8999237199637
 30
0.0
 40
5.025969129957847
100
AcDbArc
 50
172.5115359398975
 51
287.3129666964847
  0
ARC
  5
36EE
102
{ACAD_REACTORS
330
370C
102
}
330
2
100
AcDbEntity
  8
KIJUN
100
AcDbCircle
 10
-34.46845742936436
 20
118.1710062947184
 30
0.0
 40
6.23915466269229
100
AcDbArc
 50
10.65712264506905
 51
94.18342907747247
  0
ARC
  5
36EF
102
{ACAD_REACTORS
330
370C
102
}
330
2
100
AcDbEntity
  8
KIJUN
100
AcDbCircle
 10
-30.91243637860551
 20
116.2616390285531
 30
0.0
 40
12.98538556511776
100
AcDbArc
 50
42.47635178988073
 51
99.40129945857785
  0
ARC
  5
36F0
102
{ACAD_REACTORS
330
370C
102
}
330
2
100
AcDbEntity
  8
KIJUN
100
AcDbCircle
 10
-2.892164176978347
 20
116.3050334642618
 30
0.0
 40
4.244503588925074
100
AcDbArc
 50
7.216189113136706
 51
45.60485758206827
  0
ARC
  5
36F1
102
{ACAD_REACTORS
330
370C
102
}
330
2
100
AcDbEntity
  8
KIJUN
100
AcDbCircle
 10
-26.61659366952934
 20
97.84128719217676
 30
0.0
 40
34.27341575108298
100
AcDbArc
 50
38.84447443383161
 51
71.89824717228991
  0
ARC
  5
36F3
102
{ACAD_REACTORS
330
370C
102
}
330
2
100
AcDbEntity
  8
KIJUN
100
AcDbCircle
 10
-0.293175582657763
 20
114.4673873073388
 30
0.0
 40
14.19840387084097
100
AcDbArc
 50
12.27112595340674
 51
50.28318290020544
  0
ARC
  5
36F4
102
{ACAD_REACTORS
330
370C
102
}
330
2
100
AcDbEntity
  8
KIJUN
100
AcDbCircle
 10
-21.04617700892436
 20
88.2339177618353
 30
0.0
 40
47.64524926374799
100
AcDbArc
 50
51.24474010401137
 51
73.98200082256305
  0
ARC
  5
36F5
102
{ACAD_REACTORS
330
370C
102
}
330
2
100
AcDbEntity
  8
KIJUN
100
AcDbCircle
 10
26.68442558338586
 20
139.8756254203137
 30
0.0
 40
16.94452164853985
100
AcDbArc
 50
222.4393751713849
 51
244.8289234154959
  0
ARC
  5
36F6
102
{ACAD_REACTORS
330
370C
102
}
330
2
100
AcDbEntity
  8
KIJUN
100
AcDbCircle
 10
-18.92501331944664
 20
89.27706582741764
 30
0.0
 40
51.28105292473639
100
AcDbArc
 50
49.79301973348317
 51
72.05013028500161
  0
ARC
  5
36F7
102
{ACAD_REACTORS
330
370C
102
}
330
2
100
AcDbEntity
  8
KIJUN
100
AcDbCircle
 10
8.810987020535044
 20
125.6617613851193
 30
0.0
 40
14.87284706757901
100
AcDbArc
 50
42.45725833861595
 51
70.34533616393587
  0
ARC
  5
36F8
102
{ACAD_REACTORS
330
370C
102
}
330
2
100
AcDbEntity
  8
KIJUN
100
AcDbCircle
 10
76.54790720938343
 20
76.75544976028534
 30
0.0
 40
81.83393879722245
100
AcDbArc
 50
133.9196426832757
 51
136.2075401008169
  0
ARC
  5
36F9
102
{ACAD_REACTORS
330
370C
102
}
330
2
100
AcDbEntity
  8
KIJUN
100
AcDbCircle
 10
5.882243265983754
 20
104.8701900147554
 30
0.0
 40
30.78485527403538
100
AcDbArc
 50
54.16321970396034
 51
67.87645800415403
  0
ARC
  5
36FA
102
{ACAD_REACTORS
330
370C
102
}
330
2
100
AcDbEntity
  8
KIJUN
100
AcDbCircle
 10
-17.92045151743146
 20
85.83758900307785
 30
0.0
 40
54.28096533416698
100
AcDbArc
 50
74.17823180824116
 51
102.6433321344111
  0
ARC
  5
36FB
102
{ACAD_REACTORS
330
370C
102
}
330
2
100
AcDbEntity
  8
KIJUN
100
AcDbCircle
 10
-23.84354942883299
 20
85.6435747642392
 30
0.0
 40
50.94518505898555
100
AcDbArc
 50
71.76138958042956
 51
93.17926758704691
  0
ARC
  5
36FC
102
{ACAD_REACTORS
330
370C
102
}
330
2
100
AcDbEntity
  8
KIJUN
100
AcDbCircle
 10
-39.43369862501347
 20
110.5734493862395
 30
0.0
 40
3.980551444412297
100
AcDbArc
 50
84.27117575075547
 51
150.8686140056328
  0
ARC
  5
36FE
102
{ACAD_REACTORS
330
370C
102
}
330
2
100
AcDbEntity
  8
KIJUN
100
AcDbCircle
 10
-41.33997710646744
 20
114.3332205207253
 30
0.0
 40
11.80654548378443
100
AcDbArc
 50
165.675463054848
 51
286.9906401098823
  0
ARC
  5
36FF
102
{ACAD_REACTORS
330
370C
102
}
330
2
100
AcDbEntity
  8
KIJUN
100
AcDbCircle
 10
-40.0248311978295
 20
108.6322685244114
 30
0.0
 40
5.98405609600174
100
AcDbArc
 50
290.9017344022169
 51
80.49205507085581
  0
ARC
  5
3701
102
{ACAD_REACTORS
330
370C
102
}
330
2
100
AcDbEntity
  8
KIJUN
100
AcDbCircle
 10
-28.48302128933124
 20
100.1736591912332
 30
0.0
 40
29.25503320639795
100
AcDbArc
 50
98.94856858372682
 51
122.0250291797711
  0
ARC
  5
3702
102
{ACAD_REACTORS
330
370C
102
}
330
2
100
AcDbEntity
  8
KIJUN
100
AcDbCircle
 10
-34.39441279001036
 20
110.3571794578329
 30
0.0
 40
17.49084037511686
100
AcDbArc
 50
123.297570545031
 51
149.4088888848583
  0
ARC
  5
3703
102
{ACAD_REACTORS
330
370C
102
}
330
2
100
AcDbEntity
  8
KIJUN
100
AcDbCircle
 10
237.8765754660124
 20
126.0284025344792
 30
0.0
 40
3.642292138849446
100
AcDbArc
 50
10.68262329738386
 51
188.5445696271972
  0
ARC
  5
3704
102
{ACAD_REACTORS
330
370C
102
}
330
2
100
AcDbEntity
  8
KIJUN
100
AcDbCircle
 10
235.8660271736214
 20
129.0652241483974
 30
0.0
 40
8.336129459966448
100
AcDbArc
 50
232.1423009196139
 51
294.9839402958564
  0
ARC
  5
3705
102
{ACAD_REACTORS
330
370C
102
}
330
2
100
AcDbEntity
  8
KIJUN
100
AcDbCircle
 10
237.2638120954037
 20
125.3639255278843
 30
0.0
 40
4.400787640935317
100
AcDbArc
 50
298.8446139367019
 51
17.7226693426954
  0
ARC
  5
3707
102
{ACAD_REACTORS
330
370C
102
}
330
2
100
AcDbEntity
  8
KIJUN
100
AcDbCircle
 10
228.3741150311316
 20
121.0037448034894
 30
0.0
 40
6.548136237138832
100
AcDbArc
 50
197.9203488751161
 51
275.3267587218636
  0
ARC
  5
3708
102
{ACAD_REACTORS
330
370C
102
}
330
2
100
AcDbEntity
  8
KIJUN
100
AcDbCircle
 10
229.2114157601984
 20
134.9100333648747
 30
0.0
 40
20.42743447145367
100
AcDbArc
 50
269.3565536705114
 51
298.0616705441887
  0
ARC
  5
3709
102
{ACAD_REACTORS
330
370C
102
}
330
2
100
AcDbEntity
  8
KIJUN
100
AcDbCircle
 10
221.3879038344037
 20
126.1206446689014
 30
0.0
 40
18.39700066026638
100
AcDbArc
 50
229.9062748646547
 51
261.1288704026974
  0
ARC
  5
370A
102
{ACAD_REACTORS
330
370C
102
}
330
2
100
AcDbEntity
  8
KIJUN
100
AcDbCircle
 10
222.9716440152157
 20
137.3967977694993
 30
0.0
 40
29.7830066419742
100
AcDbArc
 50
261.4638578088174
 51
296.5826097184771
  0
ARC
  5
370B
102
{ACAD_REACTORS
330
370C
102
}
330
2
100
AcDbEntity
  8
KIJUN
100
AcDbCircle
 10
229.7559666970377
 20
147.6338203225465
 30
0.0
 40
36.9465362662768
100
AcDbArc
 50
248.3973784170704
 51
270.2096862059335
  0
ARC
  5
370D
102
{ACAD_REACTORS
330
374A
102
}
330
2
100
AcDbEntity
  8
KIJUN
100
AcDbCircle
 10
-38.51445736862382
 20
72.87243845531534
 30
0.0
 40
9.776636162029557
100
AcDbArc
 50
316.0767653799284
 51
52.0318015064345
  0
ARC
  5
370E
102
{ACAD_REACTORS
330
374A
102
}
330
2
100
AcDbEntity
  8
KIJUN
100
AcDbCircle
 10
-41.54417279356722
 20
69.25471987998623
 30
0.0
 40
14.49354084211839
100
AcDbArc
 50
51.388302969664
 51
130.889337449403
  0
ARC
  5
370F
102
{ACAD_REACTORS
330
374A
102
}
330
2
100
AcDbEntity
  8
KIJUN
100
AcDbCircle
 10
-40.5473785164236
 20
67.12836604726613
 30
0.0
 40
16.76567080348476
100
AcDbArc
 50
128.707250124192
 51
213.5202023468326
  0
ARC
  5
3710
102
{ACAD_REACTORS
330
374A
102
}
330
2
100
AcDbEntity
  8
KIJUN
100
AcDbCircle
 10
-7.943770636280079
 20
144.1123799057041
 30
0.0
 40
106.3641191835995
100
AcDbArc
 50
259.1721974947398
 51
277.105728389821
  0
ARC
  5
3711
102
{ACAD_REACTORS
330
374A
102
}
330
2
100
AcDbEntity
  8
KIJUN
100
AcDbCircle
 10
-17.80941815121577
 20
82.92576218159396
 30
0.0
 40
44.4501533849148
100
AcDbArc
 50
214.3110784656683
 51
256.8457178546637
  0
ARC
  5
3712
102
{ACAD_REACTORS
330
374A
102
}
330
2
100
AcDbEntity
  8
KIJUN
100
AcDbCircle
 10
233.0462181519177
 20
58.16933588991
 30
0.0
 40
15.64073252817388
100
AcDbArc
 50
340.6295871677935
 51
30.85352229540421
  0
ARC
  5
3713
102
{ACAD_REACTORS
330
374A
102
}
330
2
100
AcDbEntity
  8
KIJUN
100
AcDbCircle
 10
238.6956361093939
 20
57.79681066176997
 30
0.0
 40
10.30066110183941
100
AcDbArc
 50
218.3061969571821
 51
332.1307547892607
  0
ARC
  5
3714
102
{ACAD_REACTORS
330
374A
102
}
330
2
100
AcDbEntity
  8
KIJUN
100
AcDbCircle
 10
236.4511857772316
 20
56.09243787804889
 30
0.0
 40
7.483134325669731
100
AcDbArc
 50
139.6279863614019
 51
218.7182550778864
  0
ARC
  5
3715
102
{ACAD_REACTORS
330
374A
102
}
330
2
100
AcDbEntity
  8
KIJUN
100
AcDbCircle
 10
226.4142368664722
 20
67.45951756106501
 30
0.0
 40
6.804551192703322
100
AcDbArc
 50
256.8290353060585
 51
287.3168910081092
  0
ARC
  5
3716
102
{ACAD_REACTORS
330
374A
102
}
330
2
100
AcDbEntity
  8
KIJUN
100
AcDbCircle
 10
226.0758844580147
 20
64.57744719195969
 30
0.0
 40
3.934830852016903
100
AcDbArc
 50
182.085706162234
 51
252.0583878286993
  0
ARC
  5
3717
102
{ACAD_REACTORS
330
374A
102
}
330
2
100
AcDbEntity
  8
KIJUN
100
AcDbCircle
 10
229.5545317341135
 20
57.02930618830515
 30
0.0
 40
4.089010990551526
100
AcDbArc
 50
72.99881062614502
 51
105.8221391873795
  0
ARC
  5
3718
102
{ACAD_REACTORS
330
374A
102
}
330
2
100
AcDbEntity
  8
KIJUN
100
AcDbCircle
 10
212.1630636517392
 20
68.77543357509219
 30
0.0
 40
3.694103279575116
100
AcDbArc
 50
135.2513948090406
 51
232.0050369045438
  0
ARC
  5
3719
102
{ACAD_REACTORS
330
374A
102
}
330
2
100
AcDbEntity
  8
KIJUN
100
AcDbCircle
 10
220.1071081383791
 20
79.31771861167816
 30
0.0
 40
16.89395617373031
100
AcDbArc
 50
232.7828189576537
 51
256.1648856281029
  0
ARC
  5
371A
102
{ACAD_REACTORS
330
374A
102
}
330
2
100
AcDbEntity
  8
KIJUN
100
AcDbCircle
 10
217.6561274727151
 20
69.45296377910963
 30
0.0
 40
6.729331507533999
100
AcDbArc
 50
256.3430717255922
 51
296.65090191236
  0
ARC
  5
371B
102
{ACAD_REACTORS
330
374A
102
}
330
2
100
AcDbEntity
  8
KIJUN
100
AcDbCircle
 10
214.638072586812
 20
73.9269303207775
 30
0.0
 40
12.10144586115541
100
AcDbArc
 50
299.922374389644
 51
308.3323773123177
  0
ARC
  5
371C
102
{ACAD_REACTORS
330
374A
102
}
330
2
100
AcDbEntity
  8
KIJUN
100
AcDbCircle
 10
193.4947864714537
 20
-163.3457176304291
 30
0.0
 40
235.2695301373208
100
AcDbArc
 50
86.08955492603802
 51
98.44601445890983
  0
ARC
  5
371D
102
{ACAD_REACTORS
330
374A
102
}
330
2
100
AcDbEntity
  8
KIJUN
100
AcDbCircle
 10
-55.84791028736455
 20
548.1256825022241
 30
0.0
 40
513.2060059660821
100
AcDbArc
 50
276.8332620713621
 51
283.9029582909943
  0
ARC
  5
371E
102
{ACAD_REACTORS
330
374A
102
}
330
2
100
AcDbEntity
  8
KIJUN
100
AcDbCircle
 10
298.5248664709019
 20
-813.373517274061
 30
0.0
 40
893.7137642432773
100
AcDbArc
 50
98.98560600297322
 51
104.9834368706893
  0
ARC
  5
371F
102
{ACAD_REACTORS
330
374A
102
}
330
2
100
AcDbEntity
  8
KIJUN
100
AcDbCircle
 10
195.831679090395
 20
-210.9839079290268
 30
0.0
 40
294.7321686511313
100
AcDbArc
 50
86.55731809116753
 51
101.2483054348044
  0
ARC
  5
3720
102
{ACAD_REACTORS
330
374A
102
}
330
2
100
AcDbEntity
  8
KIJUN
100
AcDbCircle
 10
207.125593450389
 20
20.91195257200798
 30
0.0
 40
62.6327573978965
100
AcDbArc
 50
67.96224031208287
 51
84.13074513948004
  0
ARC
  5
3721
102
{ACAD_REACTORS
330
374A
102
}
330
2
100
AcDbEntity
  8
KIJUN
100
AcDbCircle
 10
219.3130228653132
 20
48.72222555161179
 30
0.0
 40
32.29296391889232
100
AcDbArc
 50
32.74728542183645
 51
69.49195634833547
  0
ARC
  5
3722
102
{ACAD_REACTORS
330
374A
102
}
330
2
100
AcDbEntity
  8
KIJUN
100
AcDbCircle
 10
-30.9918798525629
 20
63.38321628373589
 30
0.0
 40
2.749585072793923
100
AcDbArc
 50
15.07504868691071
 51
100.0698481017626
  0
ARC
  5
3723
102
{ACAD_REACTORS
330
374A
102
}
330
2
100
AcDbEntity
  8
KIJUN
100
AcDbCircle
 10
-25.53947403345727
 20
60.38215241728639
 30
0.0
 40
4.651423953861995
100
AcDbArc
 50
334.6774399911583
 51
126.971443710217
  0
ARC
  5
3724
102
{ACAD_REACTORS
330
374A
102
}
330
2
100
AcDbEntity
  8
KIJUN
100
AcDbCircle
 10
-29.48960775029321
 20
90.35491986730727
 30
0.0
 40
32.98610327750271
100
AcDbArc
 50
284.3127038137489
 51
318.4104426558951
  0
ARC
  5
3725
102
{ACAD_REACTORS
330
374A
102
}
330
2
100
AcDbEntity
  8
KIJUN
100
AcDbCircle
 10
-2.263439634882262
 20
65.84051915442756
 30
0.0
 40
3.658696148226209
100
AcDbArc
 50
11.74003805492139
 51
134.2987448834674
  0
ARC
  5
3726
102
{ACAD_REACTORS
330
374A
102
}
330
2
100
AcDbEntity
  8
KIJUN
100
AcDbCircle
 10
9.110175869737055
 20
58.53054184441484
 30
0.0
 40
11.20626763420816
100
AcDbArc
 50
65.99252499327706
 51
134.0492660046459
  0
ARC
  5
3727
102
{ACAD_REACTORS
330
374A
102
}
330
2
100
AcDbEntity
  8
KIJUN
100
AcDbCircle
 10
8.009235609386163
 20
62.07826026934239
 30
0.0
 40
11.90510204098593
100
AcDbArc
 50
344.4314479165468
 51
30.04303406142357
  0
ARC
  5
3728
102
{ACAD_REACTORS
330
374A
102
}
330
2
100
AcDbEntity
  8
KIJUN
100
AcDbCircle
 10
15.69530259686889
 20
66.51063771802899
 30
0.0
 40
3.032610402448717
100
AcDbArc
 50
30.25361926321336
 51
131.9130870556956
  0
ARC
  5
3729
102
{ACAD_REACTORS
330
374A
102
}
330
2
100
AcDbEntity
  8
KIJUN
100
AcDbCircle
 10
20.43956710596414
 20
55.19061115912506
 30
0.0
 40
3.815691478395682
100
AcDbArc
 50
335.2982429592657
 51
104.6032347624773
  0
ARC
  5
372A
102
{ACAD_REACTORS
330
374A
102
}
330
2
100
AcDbEntity
  8
KIJUN
100
AcDbCircle
 10
-35.62031277801621
 20
498.2024457184841
 30
0.0
 40
448.5735601389428
100
AcDbArc
 50
277.6257340269693
 51
284.7031061065121
  0
ARC
  5
372B
102
{ACAD_REACTORS
330
374A
102
}
330
2
100
AcDbEntity
  8
KIJUN
100
AcDbCircle
 10
292.2934875760546
 20
-732.0857797312728
 30
0.0
 40
824.670220057953
100
AcDbArc
 50
100.7593232814218
 51
105.0446587091226
  0
ARC
  5
372C
102
{ACAD_REACTORS
330
374A
102
}
330
2
100
AcDbEntity
  8
KIJUN
100
AcDbCircle
 10
-41.10338423282178
 20
73.9339553306361
 30
0.0
 40
3.521248249601018
100
AcDbArc
 50
239.1181559707359
 51
74.16017331039398
  0
ARC
  5
372D
102
{ACAD_REACTORS
330
374A
102
}
330
2
100
AcDbEntity
  8
KIJUN
100
AcDbCircle
 10
-38.50702498136964
 20
83.8004428659913
 30
0.0
 40
19.05588061710542
100
AcDbArc
 50
266.3515088564338
 51
291.6628999852047
  0
ARC
  5
372E
102
{ACAD_REACTORS
330
374A
102
}
330
2
100
AcDbEntity
  8
KIJUN
100
AcDbCircle
 10
-39.16071974699471
 20
72.23140654860052
 30
0.0
 40
7.469164531783954
100
AcDbArc
 50
182.7871001377749
 51
265.7084561340406
  0
ARC
  5
372F
102
{ACAD_REACTORS
330
374A
102
}
330
2
100
AcDbEntity
  8
KIJUN
100
AcDbCircle
 10
-41.63794583147275
 20
72.52323655515855
 30
0.0
 40
5.025969129957847
100
AcDbArc
 50
72.68703330351531
 51
187.4884640601022
  0
ARC
  5
3730
102
{ACAD_REACTORS
330
374A
102
}
330
2
100
AcDbEntity
  8
KIJUN
100
AcDbCircle
 10
-34.46845742936436
 20
65.25215398040393
 30
0.0
 40
6.23915466269229
100
AcDbArc
 50
265.8165709225276
 51
349.3428773549305
  0
ARC
  5
3731
102
{ACAD_REACTORS
330
374A
102
}
330
2
100
AcDbEntity
  8
KIJUN
100
AcDbCircle
 10
-30.91243637860551
 20
67.16152124656915
 30
0.0
 40
12.98538556511776
100
AcDbArc
 50
260.5987005414223
 51
317.523648210119
  0
ARC
  5
3732
102
{ACAD_REACTORS
330
374A
102
}
330
2
100
AcDbEntity
  8
KIJUN
100
AcDbCircle
 10
-2.892164176978347
 20
67.11812681086044
 30
0.0
 40
4.244503588925074
100
AcDbArc
 50
314.3951424179312
 51
352.7838108868629
  0
ARC
  5
3733
102
{ACAD_REACTORS
330
374A
102
}
330
2
100
AcDbEntity
  8
KIJUN
100
AcDbCircle
 10
-26.61659366952934
 20
85.58187308294554
 30
0.0
 40
34.27341575108298
100
AcDbArc
 50
288.1017528277101
 51
321.1555255661681
  0
ARC
  5
3734
102
{ACAD_REACTORS
330
374A
102
}
330
2
100
AcDbEntity
  8
KIJUN
100
AcDbCircle
 10
-0.293175582657763
 20
68.9557729677835
 30
0.0
 40
14.19840387084097
100
AcDbArc
 50
309.7168170997948
 51
347.7288740465926
  0
ARC
  5
3735
102
{ACAD_REACTORS
330
374A
102
}
330
2
100
AcDbEntity
  8
KIJUN
100
AcDbCircle
 10
-21.04617700892436
 20
95.18924251328703
 30
0.0
 40
47.64524926374799
100
AcDbArc
 50
286.0179991774367
 51
308.7552598959882
  0
ARC
  5
3736
102
{ACAD_REACTORS
330
374A
102
}
330
2
100
AcDbEntity
  8
KIJUN
100
AcDbCircle
 10
26.68442558338586
 20
43.54753485480858
 30
0.0
 40
16.94452164853985
100
AcDbArc
 50
115.1710765845044
 51
137.5606248286145
  0
ARC
  5
3737
102
{ACAD_REACTORS
330
374A
102
}
330
2
100
AcDbEntity
  8
KIJUN
100
AcDbCircle
 10
-18.92501331944664
 20
94.14609444770468
 30
0.0
 40
51.28105292473639
100
AcDbArc
 50
287.9498697149984
 51
310.2069802665172
  0
ARC
  5
3738
102
{ACAD_REACTORS
330
374A
102
}
330
2
100
AcDbEntity
  8
KIJUN
100
AcDbCircle
 10
8.810987020535044
 20
57.76139889000299
 30
0.0
 40
14.87284706757901
100
AcDbArc
 50
289.6546638360643
 51
317.5427416613836
  0
ARC
  5
3739
102
{ACAD_REACTORS
330
374A
102
}
330
2
100
AcDbEntity
  8
KIJUN
100
AcDbCircle
 10
76.54790720938343
 20
106.667710514837
 30
0.0
 40
81.83393879722245
100
AcDbArc
 50
223.7924598991825
 51
226.0803573167238
  0
ARC
  5
373A
102
{ACAD_REACTORS
330
374A
102
}
330
2
100
AcDbEntity
  8
KIJUN
100
AcDbCircle
 10
5.882243265983754
 20
78.55297026036692
 30
0.0
 40
30.78485527403538
100
AcDbArc
 50
292.1235419958459
 51
305.8367802960394
  0
ARC
  5
373B
102
{ACAD_REACTORS
330
374A
102
}
330
2
100
AcDbEntity
  8
KIJUN
100
AcDbCircle
 10
-17.92045151743146
 20
97.58557127204447
 30
0.0
 40
54.28096533416698
100
AcDbArc
 50
257.3566678655887
 51
285.8217681917588
  0
ARC
  5
373C
102
{ACAD_REACTORS
330
374A
102
}
330
2
100
AcDbEntity
  8
KIJUN
100
AcDbCircle
 10
-23.84354942883299
 20
97.77958551088314
 30
0.0
 40
50.94518505898555
100
AcDbArc
 50
266.8207324129531
 51
288.2386104195704
  0
ARC
  5
373D
102
{ACAD_REACTORS
330
374A
102
}
330
2
100
AcDbEntity
  8
KIJUN
100
AcDbCircle
 10
-39.43369862501347
 20
72.84971088888275
 30
0.0
 40
3.980551444412297
100
AcDbArc
 50
209.1313859943668
 51
275.7288242492446
  0
ARC
  5
373E
102
{ACAD_REACTORS
330
374A
102
}
330
2
100
AcDbEntity
  8
KIJUN
100
AcDbCircle
 10
-41.33997710646744
 20
69.08993975439702
 30
0.0
 40
11.80654548378443
100
AcDbArc
 50
73.00935989011752
 51
194.3245369451525
  0
ARC
  5
373F
102
{ACAD_REACTORS
330
374A
102
}
330
2
100
AcDbEntity
  8
KIJUN
100
AcDbCircle
 10
-40.0248311978295
 20
74.79089175071088
 30
0.0
 40
5.98405609600174
100
AcDbArc
 50
279.5079449291441
 51
69.09826559778331
  0
ARC
  5
3740
102
{ACAD_REACTORS
330
374A
102
}
330
2
100
AcDbEntity
  8
KIJUN
100
AcDbCircle
 10
-28.48302128933124
 20
83.24950108388909
 30
0.0
 40
29.25503320639795
100
AcDbArc
 50
237.9749708202291
 51
261.0514314162732
  0
ARC
  5
3741
102
{ACAD_REACTORS
330
374A
102
}
330
2
100
AcDbEntity
  8
KIJUN
100
AcDbCircle
 10
-34.39441279001036
 20
73.06598081728941
 30
0.0
 40
17.49084037511686
100
AcDbArc
 50
210.5911111151419
 51
236.7024294549695
  0
ARC
  5
3742
102
{ACAD_REACTORS
330
374A
102
}
330
2
100
AcDbEntity
  8
KIJUN
100
AcDbCircle
 10
237.8765754660124
 20
57.39475774064314
 30
0.0
 40
3.642292138849446
100
AcDbArc
 50
171.4554303728021
 51
349.3173767026157
  0
ARC
  5
3743
102
{ACAD_REACTORS
330
374A
102
}
330
2
100
AcDbEntity
  8
KIJUN
100
AcDbCircle
 10
235.8660271736214
 20
54.35793612672489
 30
0.0
 40
8.336129459966448
100
AcDbArc
 50
65.01605970414367
 51
127.8576990803857
  0
ARC
  5
3744
102
{ACAD_REACTORS
330
374A
102
}
330
2
100
AcDbEntity
  8
KIJUN
100
AcDbCircle
 10
237.2638120954037
 20
58.05923474723804
 30
0.0
 40
4.400787640935317
100
AcDbArc
 50
342.2773306573048
 51
61.1553860632978
  0
ARC
  5
3745
102
{ACAD_REACTORS
330
374A
102
}
330
2
100
AcDbEntity
  8
KIJUN
100
AcDbCircle
 10
228.3741150311316
 20
62.41941547163293
 30
0.0
 40
6.548136237138832
100
AcDbArc
 50
84.67324127813638
 51
162.0796511248836
  0
ARC
  5
3746
102
{ACAD_REACTORS
330
374A
102
}
330
2
100
AcDbEntity
  8
KIJUN
100
AcDbCircle
 10
229.2114157601984
 20
48.51312691024762
 30
0.0
 40
20.42743447145367
100
AcDbArc
 50
61.93832945581137
 51
90.64344632948861
  0
ARC
  5
3747
102
{ACAD_REACTORS
330
374A
102
}
330
2
100
AcDbEntity
  8
KIJUN
100
AcDbCircle
 10
221.3879038344037
 20
57.3025156062209
 30
0.0
 40
18.39700066026638
100
AcDbArc
 50
98.87112959730252
 51
130.0937251353453
  0
ARC
  5
3748
102
{ACAD_REACTORS
330
374A
102
}
330
2
100
AcDbEntity
  8
KIJUN
100
AcDbCircle
 10
222.9716440152157
 20
46.02636250562295
 30
0.0
 40
29.7830066419742
100
AcDbArc
 50
63.41739028152264
 51
98.53614219118261
  0
ARC
  5
3749
102
{ACAD_REACTORS
330
374A
102
}
330
2
100
AcDbEntity
  8
KIJUN
100
AcDbCircle
 10
229.7559666970377
 20
35.78933995257575
 30
0.0
 40
36.9465362662768
100
AcDbArc
 50
89.7903137940665
 51
111.6026215829295
  0
ENDSEC
  0
SECTION
  2
OBJECTS
  0
DICTIONARY
  5
1A
330
0
100
AcDbDictionary
281
     1
  3
ACAD_COLOR
350
144
  3
ACAD_GROUP
350
18
  3
ACAD_LAYOUT
350
58
  3
ACAD_MATERIAL
350
143
  3
ACAD_MLINESTYLE
350
19
  3
ACAD_PLOTSETTINGS
350
59
  3
ACAD_PLOTSTYLENAME
350
56
  3
ACAD_TABLESTYLE
350
145
  3
ACDBHEADERROUNDTRIPXREC
350
376E
  3
AcDbVariableDictionary
350
1D1
  0
DICTIONARY
  5
1B4
330
A
100
AcDbDictionary
280
     1
281
     1
  3
ACAD_LAYERFILTERS
360
1C2
  3
ACLYDICTIONARY
360
1C1
  0
DICTIONARY
  5
1578
330
2
100
AcDbDictionary
280
     1
281
     1
  3
ACAD_SORTENTS
360
1579
  0
DICTIONARY
  5
144
102
{ACAD_REACTORS
330
1A
102
}
330
1A
100
AcDbDictionary
281
     1
  0
DICTIONARY
  5
18
102
{ACAD_REACTORS
330
1A
102
}
330
1A
100
AcDbDictionary
281
     1
  3
*A1
350
CFC
  3
*A10
350
1682
  3
*A11
350
1827
  3
*A12
350
218C
  3
*A13
350
18ED
  3
*A14
350
19E5
  3
*A15
350
1F8A
  3
*A16
350
2108
  3
*A17
350
370C
  3
*A18
350
374A
  3
*A19
350
2335
  3
*A2
350
2FE9
  3
*A20
350
2862
  3
*A21
350
299B
  3
*A22
350
2C07
  3
*A23
350
2DB5
  3
*A24
350
2E88
  3
*A25
350
2FBC
  3
*A3
350
312A
  3
*A4
350
15D1
  3
*A5
350
3154
  3
*A6
350
327B
  3
*A7
350
32AA
  3
*A8
350
3650
  3
*A9
350
367C
  0
DICTIONARY
  5
58
102
{ACAD_REACTORS
330
1A
102
}
330
1A
100
AcDbDictionary
281
     1
  3
Model
350
5A
  3
ﾚｲｱｳﾄ1
350
5B
  0
DICTIONARY
  5
143
102
{ACAD_REACTORS
330
1A
102
}
330
1A
100
AcDbDictionary
281
     1
  0
DICTIONARY
  5
19
102
{ACAD_REACTORS
330
1A
102
}
330
1A
100
AcDbDictionary
281
     1
  3
STANDARD
350
1D
  0
DICTIONARY
  5
59
102
{ACAD_REACTORS
330
1A
102
}
330
1A
100
AcDbDictionary
281
     1
  0
ACDBDICTIONARYWDFLT
  5
56
102
{ACAD_REACTORS
330
1A
102
}
330
1A
100
AcDbDictionary
281
     1
  3
Normal
350
57
100
AcDbDictionaryWithDefault
340
57
  0
DICTIONARY
  5
145
102
{ACAD_REACTORS
330
1A
102
}
330
1A
100
AcDbDictionary
281
     1
  3
Standard
350
146
  0
DICTIONARY
  5
376E
102
{ACAD_REACTORS
330
1A
102
}
330
1A
100
AcDbDictionary
281
     1
  0
DICTIONARY
  5
1D1
102
{ACAD_REACTORS
330
1A
102
}
330
1A
100
AcDbDictionary
281
     1
  3
CTABLESTYLE
350
1D2
  3
DIMASSOC
350
D03
  3
PROJECTNAME
350
D04
  0
DICTIONARY
  5
1C2
102
{ACAD_REACTORS
330
1B4
102
}
330
1B4
100
AcDbDictionary
281
     1
  0
DICTIONARY
  5
1C1
102
{ACAD_REACTORS
330
1B4
102
}
330
1B4
100
AcDbDictionary
281
     1
1001
ACAD
1000
<All
  0
SORTENTSTABLE
  5
1579
102
{ACAD_REACTORS
330
1578
102
}
330
1578
100
AcDbSortentsTable
330
2
331
36F9
  5
36F9
331
36F7
  5
36F7
331
20
  5
21
331
23
  5
358C
331
36FC
  5
36FC
331
36FF
  5
36FF
331
3702
  5
3702
331
3705
  5
3705
331
36CD
  5
36CD
331
36D3
  5
36D4
331
36D8
  5
36D8
331
36D6
  5
36D1
331
35F5
  5
36B9
331
36E1
  5
36E1
331
36E4
  5
36E4
331
36E7
  5
36E7
331
36EA
  5
36EA
331
36F0
  5
36F0
331
36F3
  5
36F3
331
36F8
  5
36F8
331
36F6
  5
36F6
331
36FB
  5
36FB
331
36FE
  5
36FE
331
3701
  5
3701
331
3704
  5
3704
331
36C0
  5
36C0
331
36C9
  5
36C9
331
36CC
  5
36CC
331
36CF
  5
36CF
331
35E8
  5
35F5
331
36D2
  5
36D3
331
36D5
  5
36D6
331
36DA
  5
36DA
331
36DD
  5
36DD
331
36E0
  5
36E0
331
36E3
  5
36E3
331
36E6
  5
36E6
331
36E9
  5
36E9
331
36EC
  5
36EC
331
36EF
  5
36EF
331
36F5
  5
36F5
331
36FA
  5
36FA
331
1F
  5
20
331
21
  5
23
331
3703
  5
3703
331
36BF
  5
36BF
331
36C8
  5
36C8
331
36CB
  5
36CB
331
36CE
  5
36CE
331
36D1
  5
36D2
331
36D4
  5
36D5
331
36D9
  5
36D9
331
36D7
  5
36D7
331
36DC
  5
36DC
331
36DF
  5
36DF
331
36E2
  5
36E2
331
36E5
  5
36E5
331
36E8
  5
36E8
331
36EB
  5
36EB
331
36EE
  5
36EE
331
36F1
  5
36F1
331
36F4
  5
36F4
  0
GROUP
  5
CFC
102
{ACAD_REACTORS
330
18
102
}
330
18
100
AcDbGroup
300

 70
     1
 71
     1
  0
GROUP
  5
1682
102
{ACAD_REACTORS
330
18
102
}
330
18
100
AcDbGroup
300

 70
     1
 71
     1
  0
GROUP
  5
1827
102
{ACAD_REACTORS
330
18
102
}
330
18
100
AcDbGroup
300

 70
     1
 71
     1
  0
GROUP
  5
218C
102
{ACAD_REACTORS
330
18
102
}
330
18
100
AcDbGroup
300

 70
     1
 71
     1
  0
GROUP
  5
18ED
102
{ACAD_REACTORS
330
18
102
}
330
18
100
AcDbGroup
300

 70
     1
 71
     1
  0
GROUP
  5
19E5
102
{ACAD_REACTORS
330
18
102
}
330
18
100
AcDbGroup
300

 70
     1
 71
     1
  0
GROUP
  5
1F8A
102
{ACAD_REACTORS
330
18
102
}
330
18
100
AcDbGroup
300

 70
     1
 71
     1
  0
GROUP
  5
2108
102
{ACAD_REACTORS
330
18
102
}
330
18
100
AcDbGroup
300

 70
     1
 71
     1
  0
GROUP
  5
370C
102
{ACAD_REACTORS
330
18
102
}
330
18
100
AcDbGroup
300

 70
     1
 71
     1
340
370B
340
370A
340
3709
340
3708
340
3707
340
3705
340
3704
340
3703
340
3702
340
3701
340
36FF
340
36FE
340
36FC
340
36FB
340
36FA
340
36F9
340
36F8
340
36F7
340
36F6
340
36F5
340
36F4
340
36F3
340
36F1
340
36F0
340
36EF
340
36EE
340
36EC
340
36EB
340
36EA
340
36E9
340
36E8
340
36E7
340
36E6
340
36E5
340
36E4
340
36E3
340
36E2
340
36E1
340
36E0
340
36DF
340
36DD
340
36DC
340
36DA
340
36D9
340
36D8
340
36D7
340
36D5
340
36D4
340
36D3
340
36D2
340
36D1
340
36D6
340
36CF
340
36CE
340
36CD
340
36CC
340
36CB
340
36C9
340
36C8
340
36C0
340
36BF
  0
GROUP
  5
374A
102
{ACAD_REACTORS
330
18
102
}
330
18
100
AcDbGroup
300

 70
     1
 71
     1
340
3749
340
3748
340
3747
340
3746
340
3745
340
3744
340
3743
340
3742
340
3741
340
3740
340
373F
340
373E
340
373D
340
373C
340
373B
340
373A
340
3739
340
3738
340
3737
340
3736
340
3735
340
3734
340
3733
340
3732
340
3731
340
3730
340
372F
340
372E
340
372D
340
372C
340
372B
340
372A
340
3729
340
3728
340
3727
340
3726
340
3725
340
3724
340
3723
340
3722
340
3721
340
3720
340
371F
340
371E
340
371D
340
371C
340
371B
340
371A
340
3719
340
3718
340
3717
340
3716
340
3715
340
3714
340
3713
340
3712
340
3711
340
3710
340
370F
340
370E
340
370D
  0
GROUP
  5
2335
102
{ACAD_REACTORS
330
18
102
}
330
18
100
AcDbGroup
300

 70
     1
 71
     1
  0
GROUP
  5
2FE9
102
{ACAD_REACTORS
330
18
102
}
330
18
100
AcDbGroup
300

 70
     1
 71
     1
  0
GROUP
  5
2862
102
{ACAD_REACTORS
330
18
102
}
330
18
100
AcDbGroup
300

 70
     1
 71
     1
  0
GROUP
  5
299B
102
{ACAD_REACTORS
330
18
102
}
330
18
100
AcDbGroup
300

 70
     1
 71
     1
  0
GROUP
  5
2C07
102
{ACAD_REACTORS
330
18
102
}
330
18
100
AcDbGroup
300

 70
     1
 71
     1
  0
GROUP
  5
2DB5
102
{ACAD_REACTORS
330
18
102
}
330
18
100
AcDbGroup
300

 70
     1
 71
     1
  0
GROUP
  5
2E88
102
{ACAD_REACTORS
330
18
102
}
330
18
100
AcDbGroup
300

 70
     1
 71
     1
  0
GROUP
  5
2FBC
102
{ACAD_REACTORS
330
18
102
}
330
18
100
AcDbGroup
300

 70
     1
 71
     1
  0
GROUP
  5
312A
102
{ACAD_REACTORS
330
18
102
}
330
18
100
AcDbGroup
300

 70
     1
 71
     1
  0
GROUP
  5
15D1
102
{ACAD_REACTORS
330
18
102
}
330
18
100
AcDbGroup
300

 70
     1
 71
     1
  0
GROUP
  5
3154
102
{ACAD_REACTORS
330
18
102
}
330
18
100
AcDbGroup
300

 70
     1
 71
     1
  0
GROUP
  5
327B
102
{ACAD_REACTORS
330
18
102
}
330
18
100
AcDbGroup
300

 70
     1
 71
     1
  0
GROUP
  5
32AA
102
{ACAD_REACTORS
330
18
102
}
330
18
100
AcDbGroup
300

 70
     1
 71
     1
  0
GROUP
  5
3650
102
{ACAD_REACTORS
330
18
102
}
330
18
100
AcDbGroup
300

 70
     1
 71
     1
  0
GROUP
  5
367C
102
{ACAD_REACTORS
330
18
102
}
330
18
100
AcDbGroup
300

 70
     1
 71
     1
  0
LAYOUT
  5
5A
102
{ACAD_XDICTIONARY
360
376F
102
}
102
{ACAD_REACTORS
330
58
102
}
330
58
100
AcDbPlotSettings
  1

  2
なし
  4

  6

 40
0.0
 41
0.0
 42
0.0
 43
0.0
 44
0.0
 45
0.0
 46
0.0
 47
0.0
 48
0.0
 49
0.0
140
0.0
141
0.0
142
1.0
143
1.0
 70
  1712
 72
     0
 73
     0
 74
     0
  7
monochrome.ctb
 75
     0
147
1.0
148
0.0
149
0.0
100
AcDbLayout
  1
Model
 70
     1
 71
     0
 10
0.0
 20
0.0
 11
12.0
 21
9.0
 12
0.0
 22
0.0
 32
0.0
 14
0.0
 24
0.0
 34
0.0
 15
0.0
 25
0.0
 35
0.0
146
0.0
 13
0.0
 23
0.0
 33
0.0
 16
1.0
 26
0.0
 36
0.0
 17
0.0
 27
1.0
 37
0.0
 76
     0
330
2
  0
LAYOUT
  5
5B
102
{ACAD_XDICTIONARY
360
3771
102
}
102
{ACAD_REACTORS
330
58
102
}
330
58
100
AcDbPlotSettings
  1

  2
なし
  4

  6

 40
0.0
 41
0.0
 42
0.0
 43
0.0
 44
0.0
 45
0.0
 46
0.0
 47
0.0
 48
0.0
 49
0.0
140
0.0
141
0.0
142
1.0
143
1.0
 70
   688
 72
     0
 73
     0
 74
     5
  7
monochrome.ctb
 75
    16
147
1.0
148
0.0
149
0.0
100
AcDbLayout
  1
ﾚｲｱｳﾄ1
 70
     1
 71
     1
 10
0.0
 20
0.0
 11
12.0
 21
9.0
 12
0.0
 22
0.0
 32
0.0
 14
1.000000000000000E+20
 24
1.000000000000000E+20
 34
1.000000000000000E+20
 15
-1.000000000000000E+20
 25
-1.000000000000000E+20
 35
-1.000000000000000E+20
146
0.0
 13
0.0
 23
0.0
 33
0.0
 16
1.0
 26
0.0
 36
0.0
 17
0.0
 27
1.0
 37
0.0
 76
     0
330
7
  0
MLINESTYLE
  5
1D
102
{ACAD_REACTORS
330
19
102
}
330
19
100
AcDbMlineStyle
  2
STANDARD
 70
     0
  3

 62
   256
 51
90.0
 52
90.0
 71
     2
 49
0.5
 62
   256
  6
BYLAYER
 49
-0.5
 62
   256
  6
BYLAYER
  0
ACDBPLACEHOLDER
  5
57
102
{ACAD_REACTORS
330
56
102
}
330
56
  0
TABLESTYLE
  5
146
102
{ACAD_REACTORS
330
145
102
}
330
145
100
AcDbTableStyle
  3
Standard
 70
     0
 71
     0
 40
0.06
 41
0.06
280
     0
281
     0
  7
STANDARD
140
0.18
170
     2
 62
     0
 63
     7
283
     0
274
    -2
284
     1
 64
     0
275
    -2
285
     1
 65
     0
276
    -2
286
     1
 66
     0
277
    -2
287
     1
 67
     0
278
    -2
288
     1
 68
     0
279
    -2
289
     1
 69
     0
  7
STANDARD
140
0.25
170
     5
 62
     0
 63
     7
283
     0
274
    -2
284
     1
 64
     0
275
    -2
285
     1
 65
     0
276
    -2
286
     1
 66
     0
277
    -2
287
     1
 67
     0
278
    -2
288
     1
 68
     0
279
    -2
289
     1
 69
     0
  7
STANDARD
140
0.18
170
     5
 62
     0
 63
     7
283
     0
274
    -2
284
     1
 64
     0
275
    -2
285
     1
 65
     0
276
    -2
286
     1
 66
     0
277
    -2
287
     1
 67
     0
278
    -2
288
     1
 68
     0
279
    -2
289
     1
 69
     0
  0
DICTIONARYVAR
  5
1D2
102
{ACAD_REACTORS
330
1D1
102
}
330
1D1
100
DictionaryVariables
280
     0
  1
STANDARD
  0
DICTIONARYVAR
  5
D03
102
{ACAD_REACTORS
330
1D1
102
}
330
1D1
100
DictionaryVariables
280
     0
  1
1
  0
DICTIONARYVAR
  5
D04
102
{ACAD_REACTORS
330
1D1
102
}
330
1D1
100
DictionaryVariables
280
     0
  1

  0
DICTIONARY
  5
376F
330
5A
100
AcDbDictionary
280
     1
281
     1
  3
ACAD_XREC_ROUNDTRIP
360
3770
  0
DICTIONARY
  5
3771
330
5B
100
AcDbDictionary
280
     1
281
     1
  3
ACAD_XREC_ROUNDTRIP
360
3772
  0
XRECORD
  5
3770
102
{ACAD_REACTORS
330
376F
102
}
330
376F
100
AcDbXrecord
280
     1
102
SHADEPLOT
 70
     0
102
SHADEPLOTRESLEVEL
 70
     2
102
SHADEPLOTCUSTOMDPI
 70
   300
  0
XRECORD
  5
3772
102
{ACAD_REACTORS
330
3771
102
}
330
3771
100
AcDbXrecord
280
     1
102
SHADEPLOT
 70
     0
102
SHADEPLOTRESLEVEL
 70
     2
102
SHADEPLOTCUSTOMDPI
 70
   300
  0
ENDSEC
  0
EOF
