  0
SECTION
  2
HEADER
  9
$ACADVER
  1
AC1015
  9
$ACADMAINTVER
 70
    20
  9
$DWGCODEPAGE
  3
ANSI_932
  9
$INSBASE
 10
922.019522
 20
-675.4306699999999
 30
0.0
  9
$EXTMIN
 10
-179.6487703736511
 20
-0.0024922941694285
 30
-0.0000000000000053
  9
$EXTMAX
 10
277.0226128862335
 20
189.3488901960263
 30
0.0000000000000099
  9
$LIMMIN
 10
0.0
 20
0.0
  9
$LIMMAX
 10
420.0
 20
297.0
  9
$ORTHOMODE
 70
     1
  9
$REGENMODE
 70
     1
  9
$FILLMODE
 70
     1
  9
$QTEXTMODE
 70
     0
  9
$MIRRTEXT
 70
     1
  9
$LTSCALE
 40
1.0
  9
$ATTMODE
 70
     1
  9
$TEXTSIZE
 40
30.0
  9
$TRACEWID
 40
0.05
  9
$TEXTSTYLE
  7
SUNPOU
  9
$CLAYER
  8
0
  9
$CELTYPE
  6
BYLAYER
  9
$CECOLOR
 62
   256
  9
$CELTSCALE
 40
1.0
  9
$DISPSILH
 70
     0
  9
$DIMSCALE
 40
1.0
  9
$DIMASZ
 40
2.0
  9
$DIMEXO
 40
10.0
  9
$DIMDLI
 40
0.38
  9
$DIMRND
 40
0.0
  9
$DIMDLE
 40
0.0
  9
$DIMEXE
 40
0.0
  9
$DIMTP
 40
0.0
  9
$DIMTM
 40
0.0
  9
$DIMTXT
 40
10.0
  9
$DIMCEN
 40
0.0
  9
$DIMTSZ
 40
0.0
  9
$DIMTOL
 70
     0
  9
$DIMLIM
 70
     0
  9
$DIMTIH
 70
     0
  9
$DIMTOH
 70
     0
  9
$DIMSE1
 70
     0
  9
$DIMSE2
 70
     0
  9
$DIMTAD
 70
     1
  9
$DIMZIN
 70
     0
  9
$DIMBLK
  1
Dot
  9
$DIMASO
 70
     1
  9
$DIMSHO
 70
     1
  9
$DIMPOST
  1

  9
$DIMAPOST
  1

  9
$DIMALT
 70
     0
  9
$DIMALTD
 70
     2
  9
$DIMALTF
 40
25.4
  9
$DIMLFAC
 40
1.0
  9
$DIMTOFL
 70
     0
  9
$DIMTVP
 40
0.0
  9
$DIMTIX
 70
     0
  9
$DIMSOXD
 70
     0
  9
$DIMSAH
 70
     0
  9
$DIMBLK1
  1

  9
$DIMBLK2
  1

  9
$DIMSTYLE
  2
STANDARD
  9
$DIMCLRD
 70
    60
  9
$DIMCLRE
 70
    70
  9
$DIMCLRT
 70
    60
  9
$DIMTFAC
 40
0.064286
  9
$DIMGAP
 40
3.0
  9
$DIMJUST
 70
     0
  9
$DIMSD1
 70
     0
  9
$DIMSD2
 70
     0
  9
$DIMTOLJ
 70
     1
  9
$DIMTZIN
 70
     0
  9
$DIMALTZ
 70
     0
  9
$DIMALTTZ
 70
     0
  9
$DIMUPT
 70
     0
  9
$DIMDEC
 70
     0
  9
$DIMTDEC
 70
     0
  9
$DIMALTU
 70
     2
  9
$DIMALTTD
 70
     2
  9
$DIMTXSTY
  7
SUNPOU
  9
$DIMAUNIT
 70
     0
  9
$DIMADEC
 70
     0
  9
$DIMALTRND
 40
0.0
  9
$DIMAZIN
 70
     0
  9
$DIMDSEP
 70
    46
  9
$DIMATFIT
 70
     3
  9
$DIMFRAC
 70
     0
  9
$DIMLDRBLK
  1

  9
$DIMLUNIT
 70
     2
  9
$DIMLWD
 70
    -2
  9
$DIMLWE
 70
    -2
  9
$DIMTMOVE
 70
     0
  9
$LUNITS
 70
     2
  9
$LUPREC
 70
     5
  9
$SKETCHINC
 40
0.1
  9
$FILLETRAD
 40
0.0
  9
$AUNITS
 70
     0
  9
$AUPREC
 70
     0
  9
$MENU
  1
acad
  9
$ELEVATION
 40
0.0
  9
$PELEVATION
 40
0.0
  9
$THICKNESS
 40
0.0
  9
$LIMCHECK
 70
     0
  9
$CHAMFERA
 40
0.0
  9
$CHAMFERB
 40
0.0
  9
$CHAMFERC
 40
0.0
  9
$CHAMFERD
 40
0.0
  9
$SKPOLY
 70
     0
  9
$TDCREATE
 40
2450623.654673033
  9
$TDUCREATE
 40
2450623.279673032
  9
$TDUPDATE
 40
2453943.694554132
  9
$TDUUPDATE
 40
2453943.319554132
  9
$TDINDWG
 40
0.5205721644
  9
$TDUSRTIMER
 40
0.5205719907
  9
$USRTIMER
 70
     1
  9
$ANGBASE
 50
0.0
  9
$ANGDIR
 70
     0
  9
$PDMODE
 70
     0
  9
$PDSIZE
 40
0.0
  9
$PLINEWID
 40
0.0
  9
$SPLFRAME
 70
     0
  9
$SPLINETYPE
 70
     6
  9
$SPLINESEGS
 70
     8
  9
$HANDSEED
  5
3A38
  9
$SURFTAB1
 70
     6
  9
$SURFTAB2
 70
     6
  9
$SURFTYPE
 70
     6
  9
$SURFU
 70
     6
  9
$SURFV
 70
     6
  9
$UCSBASE
  2

  9
$UCSNAME
  2

  9
$UCSORG
 10
0.0
 20
0.0
 30
0.0
  9
$UCSXDIR
 10
1.0
 20
0.0
 30
0.0
  9
$UCSYDIR
 10
0.0
 20
1.0
 30
0.0
  9
$UCSORTHOREF
  2

  9
$UCSORTHOVIEW
 70
     0
  9
$UCSORGTOP
 10
0.0
 20
0.0
 30
0.0
  9
$UCSORGBOTTOM
 10
0.0
 20
0.0
 30
0.0
  9
$UCSORGLEFT
 10
0.0
 20
0.0
 30
0.0
  9
$UCSORGRIGHT
 10
0.0
 20
0.0
 30
0.0
  9
$UCSORGFRONT
 10
0.0
 20
0.0
 30
0.0
  9
$UCSORGBACK
 10
0.0
 20
0.0
 30
0.0
  9
$PUCSBASE
  2

  9
$PUCSNAME
  2

  9
$PUCSORG
 10
0.0
 20
0.0
 30
0.0
  9
$PUCSXDIR
 10
1.0
 20
0.0
 30
0.0
  9
$PUCSYDIR
 10
0.0
 20
1.0
 30
0.0
  9
$PUCSORTHOREF
  2

  9
$PUCSORTHOVIEW
 70
     0
  9
$PUCSORGTOP
 10
0.0
 20
0.0
 30
0.0
  9
$PUCSORGBOTTOM
 10
0.0
 20
0.0
 30
0.0
  9
$PUCSORGLEFT
 10
0.0
 20
0.0
 30
0.0
  9
$PUCSORGRIGHT
 10
0.0
 20
0.0
 30
0.0
  9
$PUCSORGFRONT
 10
0.0
 20
0.0
 30
0.0
  9
$PUCSORGBACK
 10
0.0
 20
0.0
 30
0.0
  9
$USERI1
 70
     0
  9
$USERI2
 70
     0
  9
$USERI3
 70
     0
  9
$USERI4
 70
     0
  9
$USERI5
 70
     0
  9
$USERR1
 40
0.0
  9
$USERR2
 40
0.0
  9
$USERR3
 40
0.0
  9
$USERR4
 40
0.0
  9
$USERR5
 40
0.0
  9
$WORLDVIEW
 70
     1
  9
$SHADEDGE
 70
     3
  9
$SHADEDIF
 70
    70
  9
$TILEMODE
 70
     1
  9
$MAXACTVP
 70
    16
  9
$PINSBASE
 10
0.0
 20
0.0
 30
0.0
  9
$PLIMCHECK
 70
     0
  9
$PEXTMIN
 10
1.000000000000000E+20
 20
1.000000000000000E+20
 30
1.000000000000000E+20
  9
$PEXTMAX
 10
-1.000000000000000E+20
 20
-1.000000000000000E+20
 30
-1.000000000000000E+20
  9
$PLIMMIN
 10
0.0
 20
0.0
  9
$PLIMMAX
 10
12.0
 20
9.0
  9
$UNITMODE
 70
     0
  9
$VISRETAIN
 70
     0
  9
$PLINEGEN
 70
     0
  9
$PSLTSCALE
 70
     1
  9
$TREEDEPTH
 70
  3020
  9
$CMLSTYLE
  2
STANDARD
  9
$CMLJUST
 70
     0
  9
$CMLSCALE
 40
1.0
  9
$PROXYGRAPHICS
 70
     1
  9
$MEASUREMENT
 70
     0
  9
$CELWEIGHT
370
    -1
  9
$ENDCAPS
280
     0
  9
$JOINSTYLE
280
     0
  9
$LWDISPLAY
290
     0
  9
$INSUNITS
 70
     0
  9
$HYPERLINKBASE
  1

  9
$STYLESHEET
  1

  9
$XEDIT
290
     1
  9
$CEPSNTYPE
380
     0
  9
$PSTYLEMODE
290
     1
  9
$FINGERPRINTGUID
  2
{FB88A696-E29C-4009-92AF-A3599A8169D5}
  9
$VERSIONGUID
  2
{59E11C74-3FBE-4E93-B5D5-EC1091CE21E6}
  9
$EXTNAMES
290
     1
  9
$PSVPSCALE
 40
0.0
  9
$OLESTARTUP
290
     0
  0
ENDSEC
  0
SECTION
  2
CLASSES
  0
CLASS
  1
DICTIONARYVAR
  2
AcDbDictionaryVar
  3
ObjectDBX Classes
 90
        0
280
     0
281
     0
  0
CLASS
  1
ACDBDICTIONARYWDFLT
  2
AcDbDictionaryWithDefault
  3
ObjectDBX Classes
 90
        0
280
     0
281
     0
  0
CLASS
  1
ACDBPLACEHOLDER
  2
AcDbPlaceHolder
  3
ObjectDBX Classes
 90
        0
280
     0
281
     0
  0
CLASS
  1
LAYOUT
  2
AcDbLayout
  3
ObjectDBX Classes
 90
        0
280
     0
281
     0
  0
CLASS
  1
TABLESTYLE
  2
AcDbTableStyle
  3
ObjectDBX Classes
 90
     2047
280
     0
281
     0
  0
CLASS
  1
SORTENTSTABLE
  2
AcDbSortentsTable
  3
ObjectDBX Classes
 90
        0
280
     0
281
     0
  0
ENDSEC
  0
SECTION
  2
TABLES
  0
TABLE
  2
VPORT
  5
12
330
0
100
AcDbSymbolTable
 70
    39
  0
VPORT
  5
3A32
330
12
100
AcDbSymbolTableRecord
100
AcDbViewportTableRecord
  2
*Active
 70
     0
 10
0.0
 20
0.0
 11
1.0
 21
1.0
 12
48.68692125629116
 22
94.67319895092845
 13
0.0
 23
0.0
 14
1.0
 24
1.0
 15
0.0
 25
0.0
 16
0.0
 26
0.0
 36
1.0
 17
0.0
 27
0.0
 37
0.0
 40
290.2579328968522
 41
1.581063553826199
 42
50.0
 43
0.0
 44
0.0
 50
0.0
 51
0.0
 71
     0
 72
 20000
 73
     1
 74
     1
 75
     0
 76
     0
 77
     0
 78
     0
281
     0
 65
     1
110
0.0
120
0.0
130
0.0
111
1.0
121
0.0
131
0.0
112
0.0
122
1.0
132
0.0
 79
     0
146
0.0
  0
ENDTAB
  0
TABLE
  2
LTYPE
  5
D
330
0
100
AcDbSymbolTable
 70
     2
  0
LTYPE
  5
E
330
D
100
AcDbSymbolTableRecord
100
AcDbLinetypeTableRecord
  2
BYBLOCK
 70
     0
  3

 72
    65
 73
     0
 40
0.0
  0
LTYPE
  5
F
330
D
100
AcDbSymbolTableRecord
100
AcDbLinetypeTableRecord
  2
BYLAYER
 70
     0
  3

 72
    65
 73
     0
 40
0.0
  0
LTYPE
  5
5
330
D
100
AcDbSymbolTableRecord
100
AcDbLinetypeTableRecord
  2
CONTINUOUS
 70
     0
  3
Solid line
 72
    65
 73
     0
 40
0.0
  0
ENDTAB
  0
TABLE
  2
LAYER
  5
A
102
{ACAD_XDICTIONARY
360
1B4
102
}
330
0
100
AcDbSymbolTable
 70
     6
  0
LAYER
  5
4
330
A
100
AcDbSymbolTableRecord
100
AcDbLayerTableRecord
  2
0
 70
     0
 62
     7
  6
CONTINUOUS
370
    -3
390
57
  0
LAYER
  5
25
330
A
100
AcDbSymbolTableRecord
100
AcDbLayerTableRecord
  2
KIJUN
 70
     0
 62
     7
  6
CONTINUOUS
370
    -3
390
57
  0
LAYER
  5
22
330
A
100
AcDbSymbolTableRecord
100
AcDbLayerTableRecord
  2
HOJO
 70
     0
 62
     3
  6
CONTINUOUS
370
    -3
390
57
  0
LAYER
  5
1B
330
A
100
AcDbSymbolTableRecord
100
AcDbLayerTableRecord
  2
WAKU
 70
     0
 62
     1
  6
CONTINUOUS
370
    -3
390
57
  0
LAYER
  5
31
330
A
100
AcDbSymbolTableRecord
100
AcDbLayerTableRecord
  2
DEFPOINTS
 70
     0
 62
     7
  6
CONTINUOUS
290
     0
370
    -3
390
57
  0
LAYER
  5
28
330
A
100
AcDbSymbolTableRecord
100
AcDbLayerTableRecord
  2
SUNPOU
 70
     0
 62
    70
  6
CONTINUOUS
370
    -3
390
57
  0
ENDTAB
  0
TABLE
  2
STYLE
  5
B
330
0
100
AcDbSymbolTable
 70
     2
  0
STYLE
  5
C
330
B
100
AcDbSymbolTableRecord
100
AcDbTextStyleTableRecord
  2
STANDARD
 70
     0
 40
0.0
 41
1.0
 50
0.0
 71
     0
 42
0.2
  3
txt
  4

  0
STYLE
  5
1C
330
B
100
AcDbSymbolTableRecord
100
AcDbTextStyleTableRecord
  2
SUNPOU
 70
     0
 40
0.0
 41
1.0
 50
0.0
 71
     0
 42
30.0
  3
txt
  4
bigfont
  0
ENDTAB
  0
TABLE
  2
VIEW
  5
10
330
0
100
AcDbSymbolTable
 70
     0
  0
ENDTAB
  0
TABLE
  2
UCS
  5
11
330
0
100
AcDbSymbolTable
 70
     0
  0
ENDTAB
  0
TABLE
  2
APPID
  5
14
330
0
100
AcDbSymbolTable
 70
    10
  0
APPID
  5
15
330
14
100
AcDbSymbolTableRecord
100
AcDbRegAppTableRecord
  2
ACAD
 70
     0
  0
APPID
  5
1D3
330
14
100
AcDbSymbolTableRecord
100
AcDbRegAppTableRecord
  2
ACAD_DSTYLE_DIMTEXT_FILL
 70
     0
  0
APPID
  5
1D4
330
14
100
AcDbSymbolTableRecord
100
AcDbRegAppTableRecord
  2
ACAD_DSTYLE_DIMEXT_LENGTH
 70
     0
  0
APPID
  5
1D5
330
14
100
AcDbSymbolTableRecord
100
AcDbRegAppTableRecord
  2
ACAD_DSTYLE_DIMEXT_ENABLED
 70
     0
  0
APPID
  5
1D6
330
14
100
AcDbSymbolTableRecord
100
AcDbRegAppTableRecord
  2
ACAD_DSTYLE_DIM_LINETYPE
 70
     0
  0
APPID
  5
1D7
330
14
100
AcDbSymbolTableRecord
100
AcDbRegAppTableRecord
  2
ACAD_DSTYLE_DIM_EXT1_LINETYPE
 70
     0
  0
APPID
  5
1D8
330
14
100
AcDbSymbolTableRecord
100
AcDbRegAppTableRecord
  2
ACAD_DSTYLE_DIM_EXT2_LINETYPE
 70
     0
  0
APPID
  5
294
330
14
100
AcDbSymbolTableRecord
100
AcDbRegAppTableRecord
  2
ACAD_DSTYLE_DIMJOGGED_JOGANGLE_SYMBOL
 70
     0
  0
APPID
  5
478
330
14
100
AcDbSymbolTableRecord
100
AcDbRegAppTableRecord
  2
ACAD_DSTYLE_DIMARC_LENGTH_SYMBOL
 70
     0
  0
APPID
  5
157B
330
14
100
AcDbSymbolTableRecord
100
AcDbRegAppTableRecord
  2
ACAD_EXEMPT_FROM_CAD_STANDARDS
 70
     0
  0
ENDTAB
  0
TABLE
  2
DIMSTYLE
  5
16
330
0
100
AcDbSymbolTable
 70
     2
100
AcDbDimStyleTable
 71
     1
340
1E
  0
DIMSTYLE
105
1E
102
{ACAD_REACTORS
330
35E8
330
35F5
102
}
330
16
100
AcDbSymbolTableRecord
100
AcDbDimStyleTableRecord
  2
STANDARD
 70
     0
340
C
  0
ENDTAB
  0
TABLE
  2
BLOCK_RECORD
  5
1
330
0
100
AcDbSymbolTable
 70
     4
  0
BLOCK_RECORD
  5
2
102
{ACAD_XDICTIONARY
360
1578
102
}
330
1
100
AcDbSymbolTableRecord
100
AcDbBlockTableRecord
  2
*MODEL_SPACE
340
5A
  0
BLOCK_RECORD
  5
7
330
1
100
AcDbSymbolTableRecord
100
AcDbBlockTableRecord
  2
*PAPER_SPACE
340
5B
  0
BLOCK_RECORD
  5
109
330
1
100
AcDbSymbolTableRecord
100
AcDbBlockTableRecord
  2
_Dot
340
0
102
{BLKREFS
331
3A14
331
3A15
331
3A26
331
3A27
102
}
  0
BLOCK_RECORD
  5
35E9
330
1
100
AcDbSymbolTableRecord
100
AcDbBlockTableRecord
  2
*D1
340
0
  0
BLOCK_RECORD
  5
35F6
330
1
100
AcDbSymbolTableRecord
100
AcDbBlockTableRecord
  2
*D2
340
0
  0
ENDTAB
  0
ENDSEC
  0
SECTION
  2
BLOCKS
  0
BLOCK
  5
3
330
2
100
AcDbEntity
  8
0
100
AcDbBlockBegin
  2
*MODEL_SPACE
 70
     0
 10
0.0
 20
0.0
 30
0.0
  3
*MODEL_SPACE
  1

  0
ENDBLK
  5
6
330
2
100
AcDbEntity
  8
0
100
AcDbBlockEnd
  0
BLOCK
  5
8
330
7
100
AcDbEntity
 67
     1
  8
0
100
AcDbBlockBegin
  2
*PAPER_SPACE
 70
     0
 10
0.0
 20
0.0
 30
0.0
  3
*PAPER_SPACE
  1

  0
ENDBLK
  5
9
330
7
100
AcDbEntity
 67
     1
  8
0
100
AcDbBlockEnd
  0
BLOCK
  5
10C
330
109
100
AcDbEntity
  8
0
100
AcDbBlockBegin
  2
_Dot
 70
     0
 10
0.0
 20
0.0
 30
0.0
  3
_Dot
  1

  0
LWPOLYLINE
  5
10A
330
109
100
AcDbEntity
  8
0
  6
ByBlock
 62
     0
100
AcDbPolyline
 90
        2
 70
     1
 43
0.5
 10
-0.25
 20
0.0
 42
1.0
 10
0.25
 20
0.0
 42
1.0
  0
LINE
  5
10B
330
109
100
AcDbEntity
  8
0
  6
ByBlock
 62
     0
370
    -2
100
AcDbLine
 10
-0.5
 20
0.0
 30
0.0
 11
-1.0
 21
0.0
 31
0.0
  0
ENDBLK
  5
10D
330
109
100
AcDbEntity
  8
0
100
AcDbBlockEnd
  0
BLOCK
  5
35F3
330
35E9
100
AcDbEntity
  8
0
100
AcDbBlockBegin
  2
*D1
 70
     1
 10
0.0
 20
0.0
 30
0.0
  3
*D1
  1

  0
LINE
  5
3A11
330
35E9
100
AcDbEntity
  8
SUNPOU
 62
    70
370
    -2
100
AcDbLine
 10
-130.9762549596429
 20
143.9592059718877
 30
0.0
 11
-130.9762549596429
 21
176.3281947592562
 31
0.0
  0
LINE
  5
3A12
330
35E9
100
AcDbEntity
  8
SUNPOU
 62
    70
370
    -2
100
AcDbLine
 10
67.02374504035707
 20
136.4841663612614
 30
0.0
 11
67.02374504035707
 21
176.3281947592562
 31
0.0
  0
LINE
  5
3A13
330
35E9
100
AcDbEntity
  8
SUNPOU
 62
    60
370
    -2
100
AcDbLine
 10
-128.9762549596429
 20
176.3281947592562
 30
0.0
 11
65.02374504035707
 21
176.3281947592562
 31
0.0
  0
INSERT
  5
3A14
330
35E9
100
AcDbEntity
  8
SUNPOU
 62
    60
370
    -2
100
AcDbBlockReference
  2
_Dot
 10
-130.9762549596429
 20
176.3281947592562
 30
0.0
 41
2.0
 42
2.0
 43
2.0
 50
180.0
  0
INSERT
  5
3A15
330
35E9
100
AcDbEntity
  8
SUNPOU
 62
    60
370
    -2
100
AcDbBlockReference
  2
_Dot
 10
67.02374504035707
 20
176.3281947592562
 30
0.0
 41
2.0
 42
2.0
 43
2.0
  0
MTEXT
  5
3A16
330
35E9
100
AcDbEntity
  8
SUNPOU
 62
    60
100
AcDbMText
 10
-31.97625495964292
 20
184.3281947592562
 30
0.0
 40
10.0
 41
0.0
 71
     5
 72
     1
  1
\A1;198
  7
SUNPOU
 73
     1
 44
1.0
1001
ACAD
1000
MTEXTBEGIN
1070
    73
1070
     1
1070
    44
1040
1.0
1070
    74
1070
     0
1000
MTEXTEND
  0
POINT
  5
3A17
330
35E9
100
AcDbEntity
  8
DEFPOINTS
 62
     0
100
AcDbPoint
 10
-130.9762549596429
 20
133.9592059718877
 30
0.0
  0
POINT
  5
3A18
330
35E9
100
AcDbEntity
  8
DEFPOINTS
 62
     0
100
AcDbPoint
 10
67.02374504035707
 20
126.4841663612614
 30
0.0
  0
POINT
  5
3A19
330
35E9
100
AcDbEntity
  8
DEFPOINTS
 62
     0
100
AcDbPoint
 10
67.02374504035707
 20
176.3281947592562
 30
0.0
  0
ENDBLK
  5
35F4
330
35E9
100
AcDbEntity
  8
0
100
AcDbBlockEnd
  0
BLOCK
  5
3600
330
35F6
100
AcDbEntity
  8
0
100
AcDbBlockBegin
  2
*D2
 70
     1
 10
0.0
 20
0.0
 30
0.0
  3
*D2
  1

  0
LINE
  5
3A23
330
35F6
100
AcDbEntity
  8
SUNPOU
 62
    70
370
    -2
100
AcDbLine
 10
-140.9762549596429
 20
133.9592059718877
 30
0.0
 11
-166.6336986075125
 21
133.9592059718877
 31
0.0
  0
LINE
  5
3A24
330
35F6
100
AcDbEntity
  8
SUNPOU
 62
    70
370
    -2
100
AcDbLine
 10
-141.1710545128356
 20
35.95920597188767
 30
0.0
 11
-166.6336986075125
 21
35.95920597188768
 31
0.0
  0
LINE
  5
3A25
330
35F6
100
AcDbEntity
  8
SUNPOU
 62
    60
370
    -2
100
AcDbLine
 10
-166.6336986075125
 20
131.9592059718877
 30
0.0
 11
-166.6336986075125
 21
37.95920597188768
 31
0.0
  0
INSERT
  5
3A26
330
35F6
100
AcDbEntity
  8
SUNPOU
 62
    60
370
    -2
100
AcDbBlockReference
  2
_Dot
 10
-166.6336986075125
 20
133.9592059718877
 30
0.0
 41
2.0
 42
2.0
 43
2.0
 50
90.0
  0
INSERT
  5
3A27
330
35F6
100
AcDbEntity
  8
SUNPOU
 62
    60
370
    -2
100
AcDbBlockReference
  2
_Dot
 10
-166.6336986075125
 20
35.95920597188768
 30
0.0
 41
2.0
 42
2.0
 43
2.0
 50
270.0
  0
MTEXT
  5
3A28
330
35F6
100
AcDbEntity
  8
SUNPOU
 62
    60
100
AcDbMText
 10
-174.6336986075125
 20
84.95920597188767
 30
0.0
 40
10.0
 41
0.0
 71
     5
 72
     1
  1
\A1;98
  7
SUNPOU
 11
0.0000000000000001
 21
1.0
 31
0.0
 73
     1
 44
1.0
1001
ACAD
1000
MTEXTBEGIN
1070
    73
1070
     1
1070
    44
1040
1.0
1070
    74
1070
     0
1000
MTEXTEND
  0
POINT
  5
3A29
330
35F6
100
AcDbEntity
  8
DEFPOINTS
 62
     0
100
AcDbPoint
 10
-130.9762549596429
 20
133.9592059718877
 30
0.0
  0
POINT
  5
3A2A
330
35F6
100
AcDbEntity
  8
DEFPOINTS
 62
     0
100
AcDbPoint
 10
-131.1710545128356
 20
35.95920597188767
 30
0.0
  0
POINT
  5
3A2B
330
35F6
100
AcDbEntity
  8
DEFPOINTS
 62
     0
100
AcDbPoint
 10
-166.6336986075125
 20
35.95920597188768
 30
0.0
  0
ENDBLK
  5
3601
330
35F6
100
AcDbEntity
  8
0
100
AcDbBlockEnd
  0
ENDSEC
  0
SECTION
  2
ENTITIES
  0
LINE
  5
1F
330
2
100
AcDbEntity
  8
WAKU
100
AcDbLine
 10
0.0
 20
14.0
 30
0.0
 11
147.8933597240585
 21
13.99999999999999
 31
0.0
  0
LINE
  5
20
330
2
100
AcDbEntity
  8
WAKU
100
AcDbLine
 10
0.0
 20
0.0
 30
0.0
 11
147.8933597240585
 21
0.0
 31
0.0
  0
TEXT
  5
21
330
2
100
AcDbEntity
  8
HOJO
100
AcDbText
 10
9.653966000000025
 20
2.366626000000024
 30
0.0
 40
9.0
  1
TWE112
  7
SUNPOU
100
AcDbText
  0
TEXT
  5
23
330
2
100
AcDbEntity
  8
HOJO
100
AcDbText
 10
85.84696046283864
 20
5.044386000000031
 30
0.0
 40
6.0
  1
198×98×6
  7
SUNPOU
100
AcDbText
  0
DIMENSION
  5
35E8
330
2
100
AcDbEntity
  8
SUNPOU
100
AcDbDimension
  2
*D1
 10
67.02374504035707
 20
176.3281947592562
 30
0.0
 11
-31.97625495964292
 21
184.3281947592562
 31
0.0
 70
    32
 71
     5
 42
198.0
  3
STANDARD
100
AcDbAlignedDimension
 13
-130.9762549596429
 23
133.9592059718877
 33
0.0
 14
67.02374504035707
 24
126.4841663612614
 34
0.0
100
AcDbRotatedDimension
1001
ACAD
1000
DSTYLE
1002
{
1070
    41
1040
2.0
1070
    42
1040
10.0
1070
    44
1040
0.0
1070
    73
1070
     0
1070
    74
1070
     0
1070
    77
1070
     1
1070
   140
1040
10.0
1070
   141
1040
0.0
1070
   146
1040
0.064286
1070
   147
1040
3.0
1070
   176
1070
    60
1070
   177
1070
    70
1070
   178
1070
    60
1070
   271
1070
     0
1070
   272
1070
     0
1070
   340
1005
1C
1070
   342
1005
109
1002
}
  0
DIMENSION
  5
35F5
330
2
100
AcDbEntity
  8
SUNPOU
100
AcDbDimension
  2
*D2
 10
-166.6336986075125
 20
35.95920597188768
 30
0.0
 11
-174.6336986075125
 21
84.95920597188767
 31
0.0
 70
    32
 71
     5
 42
98.00000000000002
  3
STANDARD
100
AcDbAlignedDimension
 13
-130.9762549596429
 23
133.9592059718877
 33
0.0
 14
-131.1710545128356
 24
35.95920597188767
 34
0.0
 50
90.0
100
AcDbRotatedDimension
1001
ACAD
1000
DSTYLE
1002
{
1070
    41
1040
2.0
1070
    42
1040
10.0
1070
    44
1040
0.0
1070
    73
1070
     0
1070
    74
1070
     0
1070
    77
1070
     1
1070
   140
1040
10.0
1070
   141
1040
0.0
1070
   146
1040
0.064286
1070
   147
1040
3.0
1070
   176
1070
    60
1070
   177
1070
    70
1070
   178
1070
    60
1070
   271
1070
     0
1070
   272
1070
     0
1070
   340
1005
1C
1070
   342
1005
109
1002
}
  0
ARC
  5
378C
102
{ACAD_REACTORS
330
390C
102
}
330
2
100
AcDbEntity
  8
KIJUN
100
AcDbCircle
 10
-122.1848842291314
 20
44.7505767023992
 30
0.0
 40
8.791370730511529
100
AcDbArc
 50
118.0736469973203
 51
270.0
  0
ARC
  5
378D
102
{ACAD_REACTORS
330
390C
102
}
330
2
100
AcDbEntity
  8
KIJUN
100
AcDbCircle
 10
-122.5552394800324
 20
53.66319037326696
 30
0.0
 40
17.70785776699576
100
AcDbArc
 50
271.1984137436114
 51
337.8711288995678
  0
ARC
  5
378E
102
{ACAD_REACTORS
330
390C
102
}
330
2
100
AcDbEntity
  8
KIJUN
100
AcDbCircle
 10
-121.8029214307842
 20
26.80426138490606
 30
0.0
 40
26.09759226180454
100
AcDbArc
 50
91.57639206172339
 51
99.97199248252433
  0
ARC
  5
378F
102
{ACAD_REACTORS
330
390C
102
}
330
2
100
AcDbEntity
  8
KIJUN
100
AcDbCircle
 10
-130.9562964918087
 20
64.34255185739568
 30
0.0
 40
14.2222453547752
100
AcDbArc
 50
306.3784185375534
 51
329.0192403667119
  0
ARC
  5
3790
102
{ACAD_REACTORS
330
390C
102
}
330
2
100
AcDbEntity
  8
KIJUN
100
AcDbCircle
 10
-119.1328463109919
 20
60.26108070014823
 30
0.0
 40
3.260477568595561
100
AcDbArc
 50
192.4025439986058
 51
276.5133719628604
  0
ARC
  5
3791
102
{ACAD_REACTORS
330
390C
102
}
330
2
100
AcDbEntity
  8
KIJUN
100
AcDbCircle
 10
-107.2050915264753
 20
61.31299065893745
 30
0.0
 40
15.21338232612603
100
AcDbArc
 50
172.4557196832367
 51
186.6136800485584
  0
ARC
  5
3792
102
{ACAD_REACTORS
330
390C
102
}
330
2
100
AcDbEntity
  8
KIJUN
100
AcDbCircle
 10
-120.2215064843562
 20
71.33068847987408
 30
0.0
 40
8.281939505262322
100
AcDbArc
 50
149.6368495381163
 51
255.5597051252131
  0
ARC
  5
3793
102
{ACAD_REACTORS
330
390C
102
}
330
2
100
AcDbEntity
  8
KIJUN
100
AcDbCircle
 10
-133.1183295596615
 20
79.01245414631222
 30
0.0
 40
6.729796100143714
100
AcDbArc
 50
328.7083494631884
 51
8.018691142324938
  0
ARC
  5
3794
102
{ACAD_REACTORS
330
390C
102
}
330
2
100
AcDbEntity
  8
KIJUN
100
AcDbCircle
 10
-127.1798688338136
 20
81.49612531312895
 30
0.0
 40
1.706777305005441
100
AcDbArc
 50
177.2481198466095
 51
295.156419606648
  0
ARC
  5
3795
102
{ACAD_REACTORS
330
390C
102
}
330
2
100
AcDbEntity
  8
KIJUN
100
AcDbCircle
 10
-250.4639425679464
 20
85.06645014419978
 30
0.0
 40
121.629299092919
100
AcDbArc
 50
358.3565068946143
 51
5.234018337686964
  0
ARC
  5
3796
102
{ACAD_REACTORS
330
390C
102
}
330
2
100
AcDbEntity
  8
KIJUN
100
AcDbCircle
 10
-96.80539081996943
 20
104.2446096828919
 30
0.0
 40
32.36860544990106
100
AcDbArc
 50
148.3797825541248
 51
176.7688493626666
  0
ARC
  5
3797
102
{ACAD_REACTORS
330
390C
102
}
330
2
100
AcDbEntity
  8
KIJUN
100
AcDbCircle
 10
-121.9555493809326
 20
127.2013140496961
 30
0.0
 40
6.454339372278774
100
AcDbArc
 50
196.7663172224287
 51
248.0456622971519
  0
ARC
  5
3798
102
{ACAD_REACTORS
330
390C
102
}
330
2
100
AcDbEntity
  8
KIJUN
100
AcDbCircle
 10
-124.6501966947364
 20
126.4301137364847
 30
0.0
 40
3.651983438654593
100
AcDbArc
 50
80.44792756444193
 51
197.376724685451
  0
ARC
  5
3799
102
{ACAD_REACTORS
330
390C
102
}
330
2
100
AcDbEntity
  8
KIJUN
100
AcDbCircle
 10
-98.42551298351224
 20
107.4286033358399
 30
0.0
 40
26.53060263604771
100
AcDbArc
 50
40.20688431150189
 51
113.605440352497
  0
ARC
  5
379B
102
{ACAD_REACTORS
330
390C
102
}
330
2
100
AcDbEntity
  8
KIJUN
100
AcDbCircle
 10
-119.5616056349872
 20
157.3566592108368
 30
0.0
 40
27.69042694960386
100
AcDbArc
 50
260.6838804017828
 51
292.311138008962
  0
ARC
  5
379C
102
{ACAD_REACTORS
330
390C
102
}
330
2
100
AcDbEntity
  8
KIJUN
100
AcDbCircle
 10
-30.17419877327081
 20
98.92329523351129
 30
0.0
 40
99.20602670732286
100
AcDbArc
 50
175.8694431886823
 51
181.5950063505373
  0
ARC
  5
379E
102
{ACAD_REACTORS
330
390C
102
}
330
2
100
AcDbEntity
  8
KIJUN
100
AcDbCircle
 10
-67.34005157159208
 20
116.6008920160028
 30
0.0
 40
13.43219063312044
100
AcDbArc
 50
96.01849006699218
 51
143.6868012196161
  0
ARC
  5
379F
102
{ACAD_REACTORS
330
390C
102
}
330
2
100
AcDbEntity
  8
KIJUN
100
AcDbCircle
 10
-44.68696382321013
 20
121.8679345918035
 30
0.0
 40
6.556278002979023
100
AcDbArc
 50
41.31785347477975
 51
140.0582959438613
  0
ARC
  5
37A0
102
{ACAD_REACTORS
330
390C
102
}
330
2
100
AcDbEntity
  8
KIJUN
100
AcDbCircle
 10
-32.54055931795142
 20
112.5090292192444
 30
0.0
 40
21.88625182086092
100
AcDbArc
 50
141.6884990347062
 51
155.7723651918765
  0
ARC
  5
37A1
102
{ACAD_REACTORS
330
390C
102
}
330
2
100
AcDbEntity
  8
KIJUN
100
AcDbCircle
 10
-32.40785567886923
 20
128.7795506079292
 30
0.0
 40
2.800605102585911
100
AcDbArc
 50
34.89544931029286
 51
112.7199884454121
  0
ARC
  5
37A2
102
{ACAD_REACTORS
330
390C
102
}
330
2
100
AcDbEntity
  8
KIJUN
100
AcDbCircle
 10
-27.24482799664588
 20
117.3880488772787
 30
0.0
 40
15.30656753338356
100
AcDbArc
 50
114.0777010690265
 51
144.8669693934354
  0
ARC
  5
37A3
102
{ACAD_REACTORS
330
390C
102
}
330
2
100
AcDbEntity
  8
KIJUN
100
AcDbCircle
 10
-11.22945551973583
 20
92.95688358070293
 30
0.0
 40
41.91806319447134
100
AcDbArc
 50
104.7476460975044
 51
116.7715790346694
  0
ARC
  5
37A4
102
{ACAD_REACTORS
330
390C
102
}
330
2
100
AcDbEntity
  8
KIJUN
100
AcDbCircle
 10
19.90635826219801
 20
102.4647603482703
 30
0.0
 40
31.49444562361733
100
AcDbArc
 50
60.04688137050531
 51
114.0392064739494
  0
ARC
  5
37A5
102
{ACAD_REACTORS
330
390C
102
}
330
2
100
AcDbEntity
  8
KIJUN
100
AcDbCircle
 10
49.95332106133543
 20
34.38540331171655
 30
0.0
 40
105.9094539806185
100
AcDbArc
 50
113.8812250162465
 51
121.3909466818112
  0
ARC
  5
37A6
102
{ACAD_REACTORS
330
390C
102
}
330
2
100
AcDbEntity
  8
KIJUN
100
AcDbCircle
 10
-67.23499980016476
 20
113.0394219520514
 30
0.0
 40
16.98717402312164
100
AcDbArc
 50
29.83393914368071
 51
95.11133077551308
  0
ARC
  5
37A8
102
{ACAD_REACTORS
330
390C
102
}
330
2
100
AcDbEntity
  8
KIJUN
100
AcDbCircle
 10
-19.28063832449067
 20
122.3272373474732
 30
0.0
 40
11.46992056061352
100
AcDbArc
 50
66.44739658970964
 51
103.2020832313842
  0
ARC
  5
37A9
102
{ACAD_REACTORS
330
390C
102
}
330
2
100
AcDbEntity
  8
KIJUN
100
AcDbCircle
 10
-21.13463617498632
 20
115.6419113701856
 30
0.0
 40
18.36488915698372
100
AcDbArc
 50
29.88789623586871
 51
69.4808351662292
  0
ARC
  5
37AB
102
{ACAD_REACTORS
330
390C
102
}
330
2
100
AcDbEntity
  8
KIJUN
100
AcDbCircle
 10
41.33114748402943
 20
123.6514241864598
 30
0.0
 40
8.349455059535337
100
AcDbArc
 50
47.01199868975049
 51
133.0523258748999
  0
ARC
  5
37AC
102
{ACAD_REACTORS
330
390C
102
}
330
2
100
AcDbEntity
  8
KIJUN
100
AcDbCircle
 10
49.8651239886164
 20
128.7159259823255
 30
0.0
 40
3.026382728882671
100
AcDbArc
 50
11.5782517702928
 51
159.8385070095731
  0
ARC
  5
37AD
102
{ACAD_REACTORS
330
390C
102
}
330
2
100
AcDbEntity
  8
KIJUN
100
AcDbCircle
 10
61.78937937092121
 20
126.4841663612614
 30
0.0
 40
5.23436566943586
100
AcDbArc
 50
260.2650859888712
 51
79.23812457782535
  0
ARC
  5
37B0
102
{ACAD_REACTORS
330
390C
102
}
330
2
100
AcDbEntity
  8
KIJUN
100
AcDbCircle
 10
60.42352161024587
 20
119.1486050106391
 30
0.0
 40
12.6959812063169
100
AcDbArc
 50
79.36411392051752
 51
126.7346779734324
  0
ARC
  5
37B3
102
{ACAD_REACTORS
330
390C
102
}
330
2
100
AcDbEntity
  8
KIJUN
100
AcDbCircle
 10
31.02536124983709
 20
117.3431434783657
 30
0.0
 40
18.69463701048163
100
AcDbArc
 50
228.2471763578868
 51
319.0758950901158
  0
ARC
  5
37B4
102
{ACAD_REACTORS
330
390C
102
}
330
2
100
AcDbEntity
  8
KIJUN
100
AcDbCircle
 10
59.8118034007486
 20
116.0788533773957
 30
0.0
 40
5.358862987311764
100
AcDbArc
 50
78.23679849873531
 51
106.8146884712797
  0
ARC
  5
37B5
102
{ACAD_REACTORS
330
390C
102
}
330
2
100
AcDbEntity
  8
KIJUN
100
AcDbCircle
 10
7.465041664913883
 20
139.8977672902205
 30
0.0
 40
51.29612010886073
100
AcDbArc
 50
317.2790992762221
 51
333.9937467581019
  0
ARC
  5
37B6
102
{ACAD_REACTORS
330
390C
102
}
330
2
100
AcDbEntity
  8
KIJUN
100
AcDbCircle
 10
60.39556313666913
 20
113.7752596661961
 30
0.0
 40
7.733584024596174
100
AcDbArc
 50
106.0176658839627
 51
151.9996716102326
  0
ARC
  5
37B7
102
{ACAD_REACTORS
330
390C
102
}
330
2
100
AcDbEntity
  8
KIJUN
100
AcDbCircle
 10
12.5830947355459
 20
106.0024998132711
 30
0.0
 40
6.535236556039001
100
AcDbArc
 50
193.0020147925533
 51
336.499090247611
  0
ARC
  5
37B8
102
{ACAD_REACTORS
330
390C
102
}
330
2
100
AcDbEntity
  8
KIJUN
100
AcDbCircle
 10
4.01738965853417
 20
104.8287055556343
 30
0.0
 40
1.905785852367519
100
AcDbArc
 50
44.19266607458474
 51
106.9038230043544
  0
ARC
  5
37BA
102
{ACAD_REACTORS
330
390C
102
}
330
2
100
AcDbEntity
  8
KIJUN
100
AcDbCircle
 10
35.64350874276426
 20
19.73052299763859
 30
0.0
 40
92.68731433823907
100
AcDbArc
 50
110.3156366629602
 51
132.0109527723497
  0
ARC
  5
37BB
102
{ACAD_REACTORS
330
390C
102
}
330
2
100
AcDbEntity
  8
KIJUN
100
AcDbCircle
 10
3.171487073071602
 20
103.9997718906047
 30
0.0
 40
3.090128980082756
100
AcDbArc
 50
9.920940969424075
 51
44.27961061092383
  0
ARC
  5
37BC
102
{ACAD_REACTORS
330
390C
102
}
330
2
100
AcDbEntity
  8
KIJUN
100
AcDbCircle
 10
-78.64983733365716
 20
142.6688811496314
 30
0.0
 40
75.19782222713273
100
AcDbArc
 50
265.5001156726632
 51
314.0248590696485
  0
ARC
  5
37C0
102
{ACAD_REACTORS
330
390C
102
}
330
2
100
AcDbEntity
  8
KIJUN
100
AcDbCircle
 10
-103.7203431824776
 20
60.90993103024215
 30
0.0
 40
20.33862666928502
100
AcDbArc
 50
353.0269610162106
 51
19.51121530831601
  0
ARC
  5
37C1
102
{ACAD_REACTORS
330
390C
102
}
330
2
100
AcDbEntity
  8
KIJUN
100
AcDbCircle
 10
-89.5035185159852
 20
69.16638510149226
 30
0.0
 40
13.78517687847343
100
AcDbArc
 50
234.5920879617558
 51
286.1147490653804
  0
ARC
  5
37C3
102
{ACAD_REACTORS
330
390C
102
}
330
2
100
AcDbEntity
  8
KIJUN
100
AcDbCircle
 10
-86.50996360021219
 20
58.80498223961064
 30
0.0
 40
3.0
100
AcDbArc
 50
286.1147490653804
 51
353.0269610162106
  0
ARC
  5
37C4
102
{ACAD_REACTORS
330
390C
102
}
330
2
100
AcDbEntity
  8
KIJUN
100
AcDbCircle
 10
-99.29316714242993
 20
58.17935906677485
 30
0.0
 40
1.819658704315729
100
AcDbArc
 50
235.5835638597674
 51
352.1492757200981
  0
ARC
  5
37C5
102
{ACAD_REACTORS
330
390C
102
}
330
2
100
AcDbEntity
  8
KIJUN
100
AcDbCircle
 10
-116.4496338795356
 20
54.88433830301506
 30
0.0
 40
16.22744809352491
100
AcDbArc
 50
328.8276914992745
 51
6.346831167233812
  0
ARC
  5
37C6
102
{ACAD_REACTORS
330
390C
102
}
330
2
100
AcDbEntity
  8
KIJUN
100
AcDbCircle
 10
-103.0489501108832
 20
55.97080641517897
 30
0.0
 40
9.498342052489837
100
AcDbArc
 50
250.9332953214894
 51
272.9193732305771
  0
ARC
  5
37CA
102
{ACAD_REACTORS
330
390C
102
}
330
2
100
AcDbEntity
  8
KIJUN
100
AcDbCircle
 10
27.01112336037414
 20
113.521641332411
 30
0.0
 40
6.653887487293576
100
AcDbArc
 50
311.2725366688856
 51
34.08616093089778
  0
ARC
  5
37CB
102
{ACAD_REACTORS
330
390C
102
}
330
2
100
AcDbEntity
  8
KIJUN
100
AcDbCircle
 10
-100.338248863858
 20
104.4901574796207
 30
0.0
 40
11.90458202681388
100
AcDbArc
 50
222.3032225939131
 51
310.2778721918089
  0
ARC
  5
37CC
102
{ACAD_REACTORS
330
390C
102
}
330
2
100
AcDbEntity
  8
KIJUN
100
AcDbCircle
 10
-96.85893198752006
 20
107.7072860036034
 30
0.0
 40
16.64320532230459
100
AcDbArc
 50
113.8722221871658
 51
222.4326572264288
  0
ARC
  5
37CD
102
{ACAD_REACTORS
330
390C
102
}
330
2
100
AcDbEntity
  8
KIJUN
100
AcDbCircle
 10
-98.93176245864708
 20
110.7173360918305
 30
0.0
 40
13.06935707491931
100
AcDbArc
 50
32.57580254446168
 51
110.9014550573737
  0
ARC
  5
37CE
102
{ACAD_REACTORS
330
390C
102
}
330
2
100
AcDbEntity
  8
KIJUN
100
AcDbCircle
 10
-92.96746484272546
 20
107.8256326423391
 30
0.0
 40
9.478773558513188
100
AcDbArc
 50
97.63345897378783
 51
209.6184400098055
  0
ARC
  5
37CF
102
{ACAD_REACTORS
330
390C
102
}
330
2
100
AcDbEntity
  8
KIJUN
100
AcDbCircle
 10
-85.27292084549378
 20
112.1809797842785
 30
0.0
 40
18.32043145311963
100
AcDbArc
 50
209.5666787506657
 51
246.2821824495303
  0
ARC
  5
37D0
102
{ACAD_REACTORS
330
390C
102
}
330
2
100
AcDbEntity
  8
KIJUN
100
AcDbCircle
 10
-83.36185391599565
 20
26.34473400935619
 30
0.0
 40
91.52283943067017
100
AcDbArc
 50
92.85375032572458
 51
96.81769008113551
  0
ARC
  5
37D2
102
{ACAD_REACTORS
330
390C
102
}
330
2
100
AcDbEntity
  8
KIJUN
100
AcDbCircle
 10
-108.9507881518759
 20
121.7429848846998
 30
0.0
 40
34.39598527018438
100
AcDbArc
 50
315.9513879269831
 51
349.3549722701348
  0
ARC
  5
37D3
102
{ACAD_REACTORS
330
390C
102
}
330
2
100
AcDbEntity
  8
KIJUN
100
AcDbCircle
 10
-70.40997735299095
 20
123.3733860921215
 30
0.0
 40
9.283517476122186
100
AcDbArc
 50
239.3205994873015
 51
331.689011206621
  0
ARC
  5
37D4
102
{ACAD_REACTORS
330
390C
102
}
330
2
100
AcDbEntity
  8
KIJUN
100
AcDbCircle
 10
-67.32915726879435
 20
110.4586214835642
 30
0.0
 40
9.918927656810151
100
AcDbArc
 50
358.5938275777553
 51
59.11020484372315
  0
ARC
  5
37D5
102
{ACAD_REACTORS
330
390C
102
}
330
2
100
AcDbEntity
  8
KIJUN
100
AcDbCircle
 10
-88.85056093277063
 20
92.85787602461796
 30
0.0
 40
6.787445280138976
100
AcDbArc
 50
354.4145232475425
 51
47.08228332900621
  0
ARC
  5
37D6
102
{ACAD_REACTORS
330
390C
102
}
330
2
100
AcDbEntity
  8
KIJUN
100
AcDbCircle
 10
-80.570323748799
 20
90.25162649407691
 30
0.0
 40
2.472069900718929
100
AcDbArc
 50
11.31112872959666
 51
128.0900509886126
  0
ARC
  5
37D7
102
{ACAD_REACTORS
330
390C
102
}
330
2
100
AcDbEntity
  8
KIJUN
100
AcDbCircle
 10
-68.81497267491074
 20
81.5925157571989
 30
0.0
 40
13.06466115075716
100
AcDbArc
 50
105.4450232591652
 51
135.5809091483563
  0
ARC
  5
37D8
102
{ACAD_REACTORS
330
390C
102
}
330
2
100
AcDbEntity
  8
KIJUN
100
AcDbCircle
 10
-40.64754246315078
 20
107.7645819200881
 30
0.0
 40
20.70574685371682
100
AcDbArc
 50
180.4751459554932
 51
193.9251928459518
  0
ARC
  5
37D9
102
{ACAD_REACTORS
330
390C
102
}
330
2
100
AcDbEntity
  8
KIJUN
100
AcDbCircle
 10
-58.510845488288
 20
107.5940193408023
 30
0.0
 40
2.84173208032456
100
AcDbArc
 50
67.27842217343198
 51
180.0230926674579
  0
ARC
  5
37DA
102
{ACAD_REACTORS
330
390C
102
}
330
2
100
AcDbEntity
  8
KIJUN
100
AcDbCircle
 10
-73.11672847610726
 20
99.77259125723746
 30
0.0
 40
12.73263219271403
100
AcDbArc
 50
307.9606795542285
 51
13.66980068387407
  0
ARC
  5
37DC
102
{ACAD_REACTORS
330
390C
102
}
330
2
100
AcDbEntity
  8
KIJUN
100
AcDbCircle
 10
-70.94781482773857
 20
88.56092519909497
 30
0.0
 40
5.783361364229
100
AcDbArc
 50
11.70045981151889
 51
103.4628782560411
  0
ARC
  5
37DD
102
{ACAD_REACTORS
330
390C
102
}
330
2
100
AcDbEntity
  8
KIJUN
100
AcDbCircle
 10
-11.93206785192421
 20
122.4236614004521
 30
0.0
 40
7.249153135106061
100
AcDbArc
 50
158.0288098299007
 51
240.5419600425202
  0
ARC
  5
37DE
102
{ACAD_REACTORS
330
390C
102
}
330
2
100
AcDbEntity
  8
KIJUN
100
AcDbCircle
 10
-24.27265266018935
 20
122.1191049029112
 30
0.0
 40
10.63480842702397
100
AcDbArc
 50
303.7785987282189
 51
325.605994597488
  0
ARC
  5
37DF
102
{ACAD_REACTORS
330
390C
102
}
330
2
100
AcDbEntity
  8
KIJUN
100
AcDbCircle
 10
-26.95038213809244
 20
108.8381603949096
 30
0.0
 40
9.670725721447173
100
AcDbArc
 50
27.33934826142794
 51
67.33471964001937
  0
ARC
  5
37E0
102
{ACAD_REACTORS
330
390C
102
}
330
2
100
AcDbEntity
  8
KIJUN
100
AcDbCircle
 10
-22.21522432799816
 20
112.0223854674948
 30
0.0
 40
5.827587374506316
100
AcDbArc
 50
99.96629075087462
 51
191.4411723387378
  0
ARC
  5
37E1
102
{ACAD_REACTORS
330
390C
102
}
330
2
100
AcDbEntity
  8
KIJUN
100
AcDbCircle
 10
-29.11684779799242
 20
106.8376849151612
 30
0.0
 40
4.200759453681307
100
AcDbArc
 50
73.54613243216374
 51
126.8415429336119
  0
ARC
  5
37E2
102
{ACAD_REACTORS
330
390C
102
}
330
2
100
AcDbEntity
  8
KIJUN
100
AcDbCircle
 10
-9.084821510427616
 20
105.5320314436383
 30
0.0
 40
23.02878736438218
100
AcDbArc
 50
168.3061932544737
 51
187.5377402947728
  0
ARC
  5
37E4
102
{ACAD_REACTORS
330
390C
102
}
330
2
100
AcDbEntity
  8
KIJUN
100
AcDbCircle
 10
37.28512016267848
 20
63.30149810013131
 30
0.0
 40
87.89589971968572
100
AcDbArc
 50
146.3115339492921
 51
160.5353444340479
  0
ARC
  5
37E5
102
{ACAD_REACTORS
330
390C
102
}
330
2
100
AcDbEntity
  8
KIJUN
100
AcDbCircle
 10
-12.76788620605003
 20
99.55465191513031
 30
0.0
 40
26.24982362555847
100
AcDbArc
 50
102.9594984915289
 51
151.5612263059103
  0
ARC
  5
37F9
102
{ACAD_REACTORS
330
390C
102
}
330
2
100
AcDbEntity
  8
KIJUN
100
AcDbCircle
 10
24.75560685621696
 20
83.40704708967143
 30
0.0
 40
41.70412887113869
100
AcDbArc
 50
109.550453195862
 51
127.4869155814117
  0
ARC
  5
37FA
102
{ACAD_REACTORS
330
390C
102
}
330
2
100
AcDbEntity
  8
KIJUN
100
AcDbCircle
 10
27.11735809192243
 20
109.74780439247
 30
0.0
 40
9.246756418626095
100
AcDbArc
 50
54.23417809522831
 51
175.5469249133337
  0
ARC
  5
37FB
102
{ACAD_REACTORS
330
390C
102
}
330
2
100
AcDbEntity
  8
KIJUN
100
AcDbCircle
 10
0.1107938732497473
 20
87.30538811431783
 30
0.0
 40
29.20282926764359
100
AcDbArc
 50
52.47485656335041
 51
91.44319083339894
  0
ARC
  5
37FC
102
{ACAD_REACTORS
330
390C
102
}
330
2
100
AcDbEntity
  8
KIJUN
100
AcDbCircle
 10
18.57495889188971
 20
99.25222897696738
 30
0.0
 40
24.70970706355305
100
AcDbArc
 50
70.14960240110163
 51
108.3401225923484
  0
ARC
  5
37FD
102
{ACAD_REACTORS
330
390C
102
}
330
2
100
AcDbEntity
  8
KIJUN
100
AcDbCircle
 10
23.25075535740552
 20
112.9913035504973
 30
0.0
 40
10.20273916716985
100
AcDbArc
 50
24.67556710923795
 51
68.64811053186625
  0
ARC
  5
37FE
102
{ACAD_REACTORS
330
390C
102
}
330
2
100
AcDbEntity
  8
KIJUN
100
AcDbCircle
 10
27.95641375054743
 20
112.7203387890199
 30
0.0
 40
5.431138035405271
100
AcDbArc
 50
178.5066347221734
 51
309.3533367169117
  0
ARC
  5
37FF
102
{ACAD_REACTORS
330
390C
102
}
330
2
100
AcDbEntity
  8
KIJUN
100
AcDbCircle
 10
28.64502962175158
 20
109.5609322081676
 30
0.0
 40
6.951623854012094
100
AcDbArc
 50
151.6506977660689
 51
258.8657645694744
  0
ARC
  5
3800
102
{ACAD_REACTORS
330
390C
102
}
330
2
100
AcDbEntity
  8
KIJUN
100
AcDbCircle
 10
28.67987502964013
 20
110.9363880090943
 30
0.0
 40
8.311141593597529
100
AcDbArc
 50
260.4613623442935
 51
0.5630874004881194
  0
ARC
  5
3801
102
{ACAD_REACTORS
330
390C
102
}
330
2
100
AcDbEntity
  8
KIJUN
100
AcDbCircle
 10
22.87126458315396
 20
112.0953469151267
 30
0.0
 40
14.16038830941903
100
AcDbArc
 50
355.6368904409424
 51
80.12576435671547
  0
ARC
  5
3802
102
{ACAD_REACTORS
330
390C
102
}
330
2
100
AcDbEntity
  8
KIJUN
100
AcDbCircle
 10
21.40953453986918
 20
89.96823894470763
 30
0.0
 40
36.28684541605033
100
AcDbArc
 50
83.84592412731151
 51
98.90122579384144
  0
ARC
  5
3804
102
{ACAD_REACTORS
330
390C
102
}
330
2
100
AcDbEntity
  8
KIJUN
100
AcDbCircle
 10
22.20888842176396
 20
115.7529228096725
 30
0.0
 40
19.39463097451493
100
AcDbArc
 50
320.3414278218401
 51
46.20610402568745
  0
ARC
  5
3805
102
{ACAD_REACTORS
330
390C
102
}
330
2
100
AcDbEntity
  8
KIJUN
100
AcDbCircle
 10
26.49916899471816
 20
134.0126518262201
 30
0.0
 40
26.74506179082453
100
AcDbArc
 50
322.8395849587425
 51
349.9019181501744
  0
ARC
  5
3806
102
{ACAD_REACTORS
330
390C
102
}
330
2
100
AcDbEntity
  8
KIJUN
100
AcDbCircle
 10
-125.1205192462857
 20
112.364287583643
 30
0.0
 40
173.0213147468872
100
AcDbArc
 50
1.819320482978786
 51
5.769990940518792
  0
ARC
  5
3809
102
{ACAD_REACTORS
330
390C
102
}
330
2
100
AcDbEntity
  8
KIJUN
100
AcDbCircle
 10
90.97650470367421
 20
-24.93984826906993
 30
0.0
 40
168.5102839468493
100
AcDbArc
 50
122.9286458170919
 51
131.9567169830378
  0
ARC
  5
380A
102
{ACAD_REACTORS
330
390C
102
}
330
2
100
AcDbEntity
  8
KIJUN
100
AcDbCircle
 10
-31.78102827163923
 20
105.8926769956381
 30
0.0
 40
6.292179387225966
100
AcDbArc
 50
345.0671068149189
 51
52.22884981607089
  0
ARC
  5
380B
102
{ACAD_REACTORS
330
390C
102
}
330
2
100
AcDbEntity
  8
KIJUN
100
AcDbCircle
 10
-81.57011305817508
 20
135.1823407454552
 30
0.0
 40
64.60269698386937
100
AcDbArc
 50
267.2166834391665
 51
320.6808782261338
  0
ARC
  5
380C
102
{ACAD_REACTORS
330
390C
102
}
330
2
100
AcDbEntity
  8
KIJUN
100
AcDbCircle
 10
-34.15557758073851
 20
100.2647822225148
 30
0.0
 40
3.17301590431021
100
AcDbArc
 50
20.08424245132038
 51
45.06872918509894
  0
ARC
  5
380D
102
{ACAD_REACTORS
330
390C
102
}
330
2
100
AcDbEntity
  8
KIJUN
100
AcDbCircle
 10
-67.70408018283956
 20
99.92745817631899
 30
0.0
 40
36.55642360281103
100
AcDbArc
 50
351.0615214412421
 51
2.237049817042468
  0
ARC
  5
380E
102
{ACAD_REACTORS
330
390C
102
}
330
2
100
AcDbEntity
  8
KIJUN
100
AcDbCircle
 10
-52.7597402713231
 20
112.8512221465861
 30
0.0
 40
33.48725210943954
100
AcDbArc
 50
325.3311432690191
 51
355.9267037334364
  0
ARC
  5
380F
102
{ACAD_REACTORS
330
390C
102
}
330
2
100
AcDbEntity
  8
KIJUN
100
AcDbCircle
 10
-39.56658303148123
 20
119.2328465662192
 30
0.0
 40
22.02651034780894
100
AcDbArc
 50
336.5644879314416
 51
344.3191079578558
  0
ARC
  5
3810
102
{ACAD_REACTORS
330
390C
102
}
330
2
100
AcDbEntity
  8
KIJUN
100
AcDbCircle
 10
-274.1655645984037
 20
374.3869114875832
 30
0.0
 40
364.1455260418025
100
AcDbArc
 50
307.5843653397883
 51
311.7021701152595
  0
ARC
  5
3811
102
{ACAD_REACTORS
330
390C
102
}
330
2
100
AcDbEntity
  8
KIJUN
100
AcDbCircle
 10
-34.65237808867101
 20
130.1630016762174
 30
0.0
 40
4.546834929947373
100
AcDbArc
 50
310.4556013850992
 51
2.757222763119823
  0
ARC
  5
3812
102
{ACAD_REACTORS
330
390C
102
}
330
2
100
AcDbEntity
  8
KIJUN
100
AcDbCircle
 10
-55.17333872413662
 20
127.4075088976933
 30
0.0
 40
15.45802241439035
100
AcDbArc
 50
305.4963839204943
 51
355.5072023136397
  0
ARC
  5
3813
102
{ACAD_REACTORS
330
390C
102
}
330
2
100
AcDbEntity
  8
KIJUN
100
AcDbCircle
 10
-34.91480833573116
 20
95.90634754066387
 30
0.0
 40
17.95173443842739
100
AcDbArc
 50
123.7940373483229
 51
185.0423226793454
  0
ARC
  5
3815
102
{ACAD_REACTORS
330
390C
102
}
330
2
100
AcDbEntity
  8
KIJUN
100
AcDbCircle
 10
-45.89243878578725
 20
112.712045148687
 30
0.0
 40
2.132233321537665
100
AcDbArc
 50
297.7473582578666
 51
98.22869006306152
  0
ARC
  5
3816
102
{ACAD_REACTORS
330
390C
102
}
330
2
100
AcDbEntity
  8
KIJUN
100
AcDbCircle
 10
-97.79370652434307
 20
136.8293250806726
 30
0.0
 40
61.89518467958548
100
AcDbArc
 50
316.6339114604188
 51
330.3589727009375
  0
ARC
  5
3817
102
{ACAD_REACTORS
330
390C
102
}
330
2
100
AcDbEntity
  8
KIJUN
100
AcDbCircle
 10
-58.81668941579653
 20
107.7891768689049
 30
0.0
 40
2.802745679544742
100
AcDbArc
 50
357.3603806335132
 51
59.95041902329846
  0
ARC
  5
3818
102
{ACAD_REACTORS
330
390C
102
}
330
2
100
AcDbEntity
  8
KIJUN
100
AcDbCircle
 10
-69.49971159893578
 20
119.86467806509
 30
0.0
 40
4.419179467616211
100
AcDbArc
 50
115.9079720575928
 51
196.7148670821286
  0
ARC
  5
3819
102
{ACAD_REACTORS
330
390C
102
}
330
2
100
AcDbEntity
  8
KIJUN
100
AcDbCircle
 10
-69.12078101132351
 20
117.086838078297
 30
0.0
 40
7.136980869023756
100
AcDbArc
 50
15.30430577358037
 51
108.8830024039298
  0
ARC
  5
381A
102
{ACAD_REACTORS
330
390C
102
}
330
2
100
AcDbEntity
  8
KIJUN
100
AcDbCircle
 10
-40.0285826276077
 20
120.9354396149622
 30
0.0
 40
12.48287708242698
100
AcDbArc
 50
177.452216678436
 51
195.9511842806134
  0
ARC
  5
381B
102
{ACAD_REACTORS
330
390C
102
}
330
2
100
AcDbEntity
  8
KIJUN
100
AcDbCircle
 10
-85.59923281416002
 20
108.5814147836594
 30
0.0
 40
34.73423582967846
100
AcDbArc
 50
5.628032895490562
 51
14.88667111515817
  0
ARC
  5
381C
102
{ACAD_REACTORS
330
390C
102
}
330
2
100
AcDbEntity
  8
KIJUN
100
AcDbCircle
 10
-92.087612035627
 20
109.5600259167687
 30
0.0
 40
6.103692619727704
100
AcDbArc
 50
169.4242910419699
 51
329.7960320584364
  0
ARC
  5
381D
102
{ACAD_REACTORS
330
390C
102
}
330
2
100
AcDbEntity
  8
KIJUN
100
AcDbCircle
 10
-97.64784842181882
 20
111.1122500500256
 30
0.0
 40
11.78025701723052
100
AcDbArc
 50
336.8945191009983
 51
34.31967597456612
  0
ARC
  5
3820
102
{ACAD_REACTORS
330
390C
102
}
330
2
100
AcDbEntity
  8
KIJUN
100
AcDbCircle
 10
-126.5245595091353
 20
139.8872151496943
 30
0.0
 40
18.79623879486568
100
AcDbArc
 50
276.5863632425466
 51
301.3339518492858
  0
ARC
  5
3821
102
{ACAD_REACTORS
330
390C
102
}
330
2
100
AcDbEntity
  8
KIJUN
100
AcDbCircle
 10
-127.3311507979239
 20
82.61423648015881
 30
0.0
 40
2.803638225396855
100
AcDbArc
 50
288.2245993377807
 51
350.5560631364233
  0
ARC
  5
3822
102
{ACAD_REACTORS
330
390C
102
}
330
2
100
AcDbEntity
  8
KIJUN
100
AcDbCircle
 10
-174.935240677388
 20
76.02477682470234
 30
0.0
 40
55.51695202770896
100
AcDbArc
 50
350.972775339295
 51
4.318890332550138
  0
ARC
  5
3823
102
{ACAD_REACTORS
330
390C
102
}
330
2
100
AcDbEntity
  8
KIJUN
100
AcDbCircle
 10
-125.0017335285318
 20
64.97794357390557
 30
0.0
 40
10.11061376344468
100
AcDbArc
 50
308.10092456575
 51
357.1021531056384
  0
ARC
  5
3824
102
{ACAD_REACTORS
330
390C
102
}
330
2
100
AcDbEntity
  8
KIJUN
100
AcDbCircle
 10
-138.0283947658678
 20
53.12532130900507
 30
0.0
 40
32.46117060746455
100
AcDbArc
 50
349.1103106804595
 51
19.31406634104701
  0
ARC
  5
3825
102
{ACAD_REACTORS
330
390C
102
}
330
2
100
AcDbEntity
  8
KIJUN
100
AcDbCircle
 10
-115.0491643907638
 20
57.28534409489348
 30
0.0
 40
17.57046060888853
100
AcDbArc
 50
2.105273699406876
 51
33.64849458506708
  0
ARC
  5
3826
102
{ACAD_REACTORS
330
390C
102
}
330
2
100
AcDbEntity
  8
KIJUN
100
AcDbCircle
 10
-54.02987189950278
 20
189.5270313902032
 30
0.0
 40
125.588955348132
100
AcDbArc
 50
250.593371525321
 51
255.9355527823851
  0
ARC
  5
3827
102
{ACAD_REACTORS
330
390C
102
}
330
2
100
AcDbEntity
  8
KIJUN
100
AcDbCircle
 10
-92.15361473586193
 20
96.94117797916183
 30
0.0
 40
11.12086826628372
100
AcDbArc
 50
289.8691964314082
 51
334.7493534481059
  0
ARC
  5
3828
102
{ACAD_REACTORS
330
390C
102
}
330
2
100
AcDbEntity
  8
KIJUN
100
AcDbCircle
 10
-88.33469630777358
 20
95.58540806767448
 30
0.0
 40
11.28344096930915
100
AcDbArc
 50
288.8211546762752
 51
334.5490950558371
  0
ARC
  5
3829
102
{ACAD_REACTORS
330
390C
102
}
330
2
100
AcDbEntity
  8
KIJUN
100
AcDbCircle
 10
-72.61702549641359
 20
90.61170316073365
 30
0.0
 40
7.384773396995107
100
AcDbArc
 50
298.1751561592844
 51
353.1722309915795
  0
ARC
  5
382C
102
{ACAD_REACTORS
330
390C
102
}
330
2
100
AcDbEntity
  8
KIJUN
100
AcDbCircle
 10
-119.7906111139249
 20
49.55079646736385
 30
0.0
 40
8.086712268930835
100
AcDbArc
 50
183.6727624119137
 51
302.3845674975305
  0
ARC
  5
382D
102
{ACAD_REACTORS
330
390C
102
}
330
2
100
AcDbEntity
  8
KIJUN
100
AcDbCircle
 10
-118.8857610720654
 20
50.33025966850289
 30
0.0
 40
5.030792469559005
100
AcDbArc
 50
191.7040620339333
 51
285.8889950212478
  0
ARC
  5
382F
102
{ACAD_REACTORS
330
390C
102
}
330
2
100
AcDbEntity
  8
KIJUN
100
AcDbCircle
 10
-125.8006959203886
 20
48.65024310729586
 30
0.0
 40
2.095235314083586
100
AcDbArc
 50
18.34604481046624
 51
169.4802756255836
  0
ARC
  5
3830
102
{ACAD_REACTORS
330
390C
102
}
330
2
100
AcDbEntity
  8
KIJUN
100
AcDbCircle
 10
-137.8756052710418
 20
59.82075634563734
 30
0.0
 40
28.04874278322709
100
AcDbArc
 50
344.7344815120819
 51
11.58798530268578
  0
ARC
  5
3831
102
{ACAD_REACTORS
330
390C
102
}
330
2
100
AcDbEntity
  8
KIJUN
100
AcDbCircle
 10
-121.0157924171322
 20
55.56816258880878
 30
0.0
 40
10.66944290753211
100
AcDbArc
 50
289.1915279180633
 51
342.9270573967763
  0
ARC
  5
3832
102
{ACAD_REACTORS
330
390C
102
}
330
2
100
AcDbEntity
  8
KIJUN
100
AcDbCircle
 10
-118.0100398178333
 20
50.64602833489951
 30
0.0
 40
2.257510563893528
100
AcDbArc
 50
128.9210369255061
 51
277.0549174398069
  0
ARC
  5
3833
102
{ACAD_REACTORS
330
390C
102
}
330
2
100
AcDbEntity
  8
KIJUN
100
AcDbCircle
 10
-125.2794472094821
 20
61.75425700645797
 30
0.0
 40
11.03145254025355
100
AcDbArc
 50
302.0327716622119
 51
356.563038509384
  0
ARC
  5
3834
102
{ACAD_REACTORS
330
390C
102
}
330
2
100
AcDbEntity
  8
KIJUN
100
AcDbCircle
 10
-155.4555981535987
 20
61.64082005905186
 30
0.0
 40
41.19140597811661
100
AcDbArc
 50
359.2378650367199
 51
24.14615189274031
  0
ARC
  5
3835
102
{ACAD_REACTORS
330
390C
102
}
330
2
100
AcDbEntity
  8
KIJUN
100
AcDbCircle
 10
347.3226556126629
 20
288.9962162707611
 30
0.0
 40
510.6026753413394
100
AcDbArc
 50
202.5100943414656
 51
204.347419439353
  0
ARC
  5
3836
102
{ACAD_REACTORS
330
390C
102
}
330
2
100
AcDbEntity
  8
KIJUN
100
AcDbCircle
 10
-94.3432366815888
 20
104.5223257001095
 30
0.0
 40
31.98887744386007
100
AcDbArc
 50
153.1569556211001
 51
200.1288274073718
  0
ARC
  5
3838
102
{ACAD_REACTORS
330
390C
102
}
330
2
100
AcDbEntity
  8
KIJUN
100
AcDbCircle
 10
-153.0142810522355
 20
87.91419735018534
 30
0.0
 40
29.02602227100411
100
AcDbArc
 50
348.5541200689733
 51
6.913918037844506
  0
ARC
  5
3839
102
{ACAD_REACTORS
330
390C
102
}
330
2
100
AcDbEntity
  8
KIJUN
100
AcDbCircle
 10
-125.9581095733135
 20
67.90603628477143
 30
0.0
 40
5.882056915229757
100
AcDbArc
 50
308.6203461878498
 51
354.2229206409861
  0
ARC
  5
383A
102
{ACAD_REACTORS
330
390C
102
}
330
2
100
AcDbEntity
  8
KIJUN
100
AcDbCircle
 10
-31.04068450868004
 20
140.8223633347972
 30
0.0
 40
98.88289907731159
100
AcDbArc
 50
222.7227049942744
 51
234.7087468060173
  0
ARC
  5
383B
102
{ACAD_REACTORS
330
390C
102
}
330
2
100
AcDbEntity
  8
KIJUN
100
AcDbCircle
 10
-132.0644938265204
 20
25.76570027437879
 30
0.0
 40
55.73589120309994
100
AcDbArc
 50
38.04103776249642
 51
59.39041403779697
  0
ARC
  5
383C
102
{ACAD_REACTORS
330
390C
102
}
330
2
100
AcDbEntity
  8
KIJUN
100
AcDbCircle
 10
-93.60166948690846
 20
107.0203039625696
 30
0.0
 40
5.78956731524617
100
AcDbArc
 50
140.7899795124187
 51
212.2602520968214
  0
ARC
  5
383D
102
{ACAD_REACTORS
330
390C
102
}
330
2
100
AcDbEntity
  8
KIJUN
100
AcDbCircle
 10
-91.02481405684761
 20
109.7766455380697
 30
0.0
 40
9.488106275120246
100
AcDbArc
 50
218.0395015231988
 51
8.698005790928405
  0
ARC
  5
383F
102
{ACAD_REACTORS
330
390C
102
}
330
2
100
AcDbEntity
  8
KIJUN
100
AcDbCircle
 10
-99.28506306805161
 20
110.0875540510763
 30
0.0
 40
17.6750056866048
100
AcDbArc
 50
3.645866668355143
 51
151.0022625772532
  0
ARC
  5
3841
102
{ACAD_REACTORS
330
390C
102
}
330
2
100
AcDbEntity
  8
KIJUN
100
AcDbCircle
 10
-98.36186703454309
 20
107.6619177623704
 30
0.0
 40
19.7295036427118
100
AcDbArc
 50
146.134965477068
 51
243.0598976103462
  0
ARC
  5
3842
102
{ACAD_REACTORS
330
390C
102
}
330
2
100
AcDbEntity
  8
KIJUN
100
AcDbCircle
 10
-101.1766658235346
 20
104.155470358232
 30
0.0
 40
15.35593123607665
100
AcDbArc
 50
246.4973030283712
 51
316.5381095251482
  0
ARC
  5
3849
102
{ACAD_REACTORS
330
390C
102
}
330
2
100
AcDbEntity
  8
KIJUN
100
AcDbCircle
 10
-98.73184566934629
 20
113.7249495382856
 30
0.0
 40
29.14527832977499
100
AcDbArc
 50
258.284152292261
 51
290.8173152898171
  0
ARC
  5
384A
102
{ACAD_REACTORS
330
390C
102
}
330
2
100
AcDbEntity
  8
KIJUN
100
AcDbCircle
 10
-93.837705024547
 20
124.8095357283989
 30
0.0
 40
47.61899598147094
100
AcDbArc
 50
278.2171699773475
 51
301.2557365160517
  0
ARC
  5
384B
102
{ACAD_REACTORS
330
390C
102
}
330
2
100
AcDbEntity
  8
KIJUN
100
AcDbCircle
 10
-85.62943926319979
 20
113.5649597114175
 30
0.0
 40
38.38631989099059
100
AcDbArc
 50
214.9690429331761
 51
273.3173870941054
  0
ARC
  5
384E
102
{ACAD_REACTORS
330
390C
102
}
330
2
100
AcDbEntity
  8
KIJUN
100
AcDbCircle
 10
-84.35662302367523
 20
129.7992551130432
 30
0.0
 40
54.56453569693973
100
AcDbArc
 50
270.9960111091988
 51
306.2883142617052
  0
ARC
  5
384F
102
{ACAD_REACTORS
330
390C
102
}
330
2
100
AcDbEntity
  8
KIJUN
100
AcDbCircle
 10
-44.90106303405832
 20
92.39185952961451
 30
0.0
 40
0.7144320186761491
100
AcDbArc
 50
163.8454151510487
 51
305.113946428476
  0
ARC
  5
3850
102
{ACAD_REACTORS
330
390C
102
}
330
2
100
AcDbEntity
  8
KIJUN
100
AcDbCircle
 10
60.12551632895571
 20
123.787222222274
 30
0.0
 40
5.855640089238384
100
AcDbArc
 50
33.16479688051561
 51
155.635352201841
  0
ARC
  5
3851
102
{ACAD_REACTORS
330
390C
102
}
330
2
100
AcDbEntity
  8
KIJUN
100
AcDbCircle
 10
43.56262050275302
 20
114.448640551694
 30
0.0
 40
4.738284248905388
100
AcDbArc
 50
290.008844649982
 51
333.9882621855209
  0
ARC
  5
3853
102
{ACAD_REACTORS
330
390C
102
}
330
2
100
AcDbEntity
  8
KIJUN
100
AcDbCircle
 10
-415.5511827059743
 20
354.5485492200638
 30
0.0
 40
522.8420986538025
100
AcDbArc
 50
332.4065243324252
 51
334.103987973413
  0
ARC
  5
3854
102
{ACAD_REACTORS
330
390C
102
}
330
2
100
AcDbEntity
  8
KIJUN
100
AcDbCircle
 10
60.71371394544485
 20
116.9482153316278
 30
0.0
 40
9.554588115967634
100
AcDbArc
 50
69.30405864532447
 51
87.05410645382526
  0
ARC
  5
3856
102
{ACAD_REACTORS
330
390C
102
}
330
2
100
AcDbEntity
  8
KIJUN
100
AcDbCircle
 10
64.30464290169999
 20
126.6540431230671
 30
0.0
 40
0.797139719835786
100
AcDbArc
 50
254.4082925550576
 51
24.96950004519094
  0
ARC
  5
3857
102
{ACAD_REACTORS
330
390C
102
}
330
2
100
AcDbEntity
  8
KIJUN
100
AcDbCircle
 10
22.90644471672312
 20
112.4581234232813
 30
0.0
 40
22.63526066653712
100
AcDbArc
 50
36.99205938032554
 51
45.64081535958536
  0
ARC
  5
3858
102
{ACAD_REACTORS
330
390C
102
}
330
2
100
AcDbEntity
  8
KIJUN
100
AcDbCircle
 10
41.22967909347642
 20
126.3649325033467
 30
0.0
 40
3.379652666439757
100
AcDbArc
 50
27.43651007205841
 51
137.6496600384508
  0
ARC
  5
3859
102
{ACAD_REACTORS
330
390C
102
}
330
2
100
AcDbEntity
  8
KIJUN
100
AcDbCircle
 10
33.27002002657963
 20
112.998681593458
 30
0.0
 40
12.28634960876699
100
AcDbArc
 50
304.4435958626954
 51
345.8558448109652
  0
ARC
  5
385B
102
{ACAD_REACTORS
330
390C
102
}
330
2
100
AcDbEntity
  8
KIJUN
100
AcDbCircle
 10
16.39383357577736
 20
117.4513668621137
 30
0.0
 40
29.73961748899557
100
AcDbArc
 50
345.4824850465776
 51
20.61473050572041
  0
ARC
  5
385C
102
{ACAD_REACTORS
330
390C
102
}
330
2
100
AcDbEntity
  8
KIJUN
100
AcDbCircle
 10
-36.53813504587015
 20
128.1048571655122
 30
0.0
 40
90.87918844874739
100
AcDbArc
 50
201.9432936244158
 51
220.2189774705331
  0
ARC
  5
385D
102
{ACAD_REACTORS
330
390C
102
}
330
2
100
AcDbEntity
  8
KIJUN
100
AcDbCircle
 10
-93.92160515998842
 20
104.5540887579254
 30
0.0
 40
28.85504212309136
100
AcDbArc
 50
128.8192983189394
 51
201.1469163486493
  0
ARC
  5
385E
102
{ACAD_REACTORS
330
390C
102
}
330
2
100
AcDbEntity
  8
KIJUN
100
AcDbCircle
 10
-126.3450034648044
 20
52.83025032036693
 30
0.0
 40
26.30631349862165
100
AcDbArc
 50
8.411168681582914
 51
39.1061543228342
  0
ARC
  5
3860
102
{ACAD_REACTORS
330
390C
102
}
330
2
100
AcDbEntity
  8
KIJUN
100
AcDbCircle
 10
-119.7319461565607
 20
139.3354233387146
 30
0.0
 40
14.52276519874239
100
AcDbArc
 50
249.2519960635135
 51
302.1219452575363
  0
ARC
  5
3861
102
{ACAD_REACTORS
330
390C
102
}
330
2
100
AcDbEntity
  8
KIJUN
100
AcDbCircle
 10
-152.8763706244569
 20
88.89238288617672
 30
0.0
 40
26.21838455710463
100
AcDbArc
 50
347.6733530331796
 51
12.32664696682036
  0
ARC
  5
3862
102
{ACAD_REACTORS
330
390C
102
}
330
2
100
AcDbEntity
  8
KIJUN
100
AcDbCircle
 10
-118.2877510805897
 20
71.97145469945931
 30
0.0
 40
7.930290758200563
100
AcDbArc
 50
146.5259196287755
 51
220.376812701539
  0
ARC
  5
3863
102
{ACAD_REACTORS
330
390C
102
}
330
2
100
AcDbEntity
  8
KIJUN
100
AcDbCircle
 10
-142.9260676538594
 20
84.83511574345106
 30
0.0
 40
19.92275302528274
100
AcDbArc
 50
334.7779506379009
 51
7.510028184643765
  0
ARC
  5
3865
102
{ACAD_REACTORS
330
390C
102
}
330
2
100
AcDbEntity
  8
KIJUN
100
AcDbCircle
 10
-100.4469132740773
 20
130.3790157579953
 30
0.0
 40
50.17873438273561
100
AcDbArc
 50
277.9442086818113
 51
307.6629379785431
  0
ARC
  5
3866
102
{ACAD_REACTORS
330
390C
102
}
330
2
100
AcDbEntity
  8
KIJUN
100
AcDbCircle
 10
-70.70006542456003
 20
122.0150604422686
 30
0.0
 40
4.571596750816575
100
AcDbArc
 50
117.4545407219822
 51
228.4518826633359
  0
ARC
  5
3867
102
{ACAD_REACTORS
330
390C
102
}
330
2
100
AcDbEntity
  8
KIJUN
100
AcDbCircle
 10
-67.30950455870669
 20
113.056311493066
 30
0.0
 40
14.1291777672649
100
AcDbArc
 50
16.1141125495467
 51
112.901187945155
  0
ARC
  5
3868
102
{ACAD_REACTORS
330
390C
102
}
330
2
100
AcDbEntity
  8
KIJUN
100
AcDbCircle
 10
-82.43147729768674
 20
108.9435120469357
 30
0.0
 40
29.79954807872774
100
AcDbArc
 50
307.1703166521327
 51
15.64129026455136
  0
ARC
  5
3869
102
{ACAD_REACTORS
330
390C
102
}
330
2
100
AcDbEntity
  8
KIJUN
100
AcDbCircle
 10
-70.84017835348624
 20
80.96800917765028
 30
0.0
 40
1.912695878953035
100
AcDbArc
 50
280.5543219421491
 51
122.7304993292354
  0
ARC
  5
386A
102
{ACAD_REACTORS
330
390C
102
}
330
2
100
AcDbEntity
  8
KIJUN
100
AcDbCircle
 10
-81.78513047188294
 20
126.0537181200265
 30
0.0
 40
48.30520800540234
100
AcDbArc
 50
269.4701755603034
 51
283.5227743418178
  0
ARC
  5
386B
102
{ACAD_REACTORS
330
390C
102
}
330
2
100
AcDbEntity
  8
KIJUN
100
AcDbCircle
 10
-91.14518029332016
 20
74.10314553853533
 30
0.0
 40
1.519330747827628
100
AcDbArc
 50
275.7469240463028
 51
66.16461411626196
  0
ARC
  5
386C
102
{ACAD_REACTORS
330
390C
102
}
330
2
100
AcDbEntity
  8
KIJUN
100
AcDbCircle
 10
-91.5246401425851
 20
96.7109394866434
 30
0.0
 40
24.12534591768587
100
AcDbArc
 50
219.830144547411
 51
271.2626039979548
  0
ARC
  5
386E
102
{ACAD_REACTORS
330
390C
102
}
330
2
100
AcDbEntity
  8
KIJUN
100
AcDbCircle
 10
6.146079772159623
 20
101.8779414217795
 30
0.0
 40
10.02781237071186
100
AcDbArc
 50
25.75691839052027
 51
92.08585797074098
  0
ARC
  5
386F
102
{ACAD_REACTORS
330
390C
102
}
330
2
100
AcDbEntity
  8
KIJUN
100
AcDbCircle
 10
18.60472278156908
 20
58.46490495389469
 30
0.0
 40
54.9514293500548
100
AcDbArc
 50
103.4951418936083
 51
137.8598832112276
  0
ARC
  5
3870
102
{ACAD_REACTORS
330
390C
102
}
330
2
100
AcDbEntity
  8
KIJUN
100
AcDbCircle
 10
-35.8820863203847
 20
106.6233797761104
 30
0.0
 40
13.96933075119317
100
AcDbArc
 50
324.3140012114411
 51
27.53673165888575
  0
ARC
  5
3871
102
{ACAD_REACTORS
330
390C
102
}
330
2
100
AcDbEntity
  8
KIJUN
100
AcDbCircle
 10
-57.05404339290203
 20
112.0139808941909
 30
0.0
 40
33.57574633394933
100
AcDbArc
 50
339.1762176728544
 51
1.822230404120763
  0
ARC
  5
3872
102
{ACAD_REACTORS
330
390C
102
}
330
2
100
AcDbEntity
  8
KIJUN
100
AcDbCircle
 10
-69.13597983812542
 20
120.8885955287201
 30
0.0
 40
48.65222908738323
100
AcDbArc
 50
288.3933627516951
 51
323.6883424228115
  0
ARC
  5
3873
102
{ACAD_REACTORS
330
390C
102
}
330
2
100
AcDbEntity
  8
KIJUN
100
AcDbCircle
 10
-36.63281276995474
 20
103.8513325207726
 30
0.0
 40
7.84749003564186
100
AcDbArc
 50
2.893740836069588
 51
38.6412299801467
  0
ARC
  5
3874
102
{ACAD_REACTORS
330
390C
102
}
330
2
100
AcDbEntity
  8
KIJUN
100
AcDbCircle
 10
-68.90134392276888
 20
101.8544102269731
 30
0.0
 40
40.17734823455196
100
AcDbArc
 50
345.9165446522779
 51
3.414744373461817
  0
ARC
  5
3875
102
{ACAD_REACTORS
330
390C
102
}
330
2
100
AcDbEntity
  8
KIJUN
100
AcDbCircle
 10
19.85720208100139
 20
101.5057301828041
 30
0.0
 40
29.85897497216924
100
AcDbArc
 50
80.60742910946265
 51
119.2675174447118
  0
ARC
  5
3876
102
{ACAD_REACTORS
330
390C
102
}
330
2
100
AcDbEntity
  8
KIJUN
100
AcDbCircle
 10
28.60768749326587
 20
114.723074544846
 30
0.0
 40
11.94728424281865
100
AcDbArc
 50
284.5663110495573
 51
20.51093670163293
  0
ARC
  5
3877
102
{ACAD_REACTORS
330
390C
102
}
330
2
100
AcDbEntity
  8
KIJUN
100
AcDbCircle
 10
22.0894300779122
 20
112.2200527564644
 30
0.0
 40
18.92943953341173
100
AcDbArc
 50
20.6938660722729
 51
81.98095911201745
  0
ARC
  5
3879
102
{ACAD_REACTORS
330
390C
102
}
330
2
100
AcDbEntity
  8
KIJUN
100
AcDbCircle
 10
61.03680835404458
 20
20.88758202022032
 30
0.0
 40
120.3687706348105
100
AcDbArc
 50
126.6738612557164
 51
131.9049255892651
  0
ARC
  5
387C
102
{ACAD_REACTORS
330
390C
102
}
330
2
100
AcDbEntity
  8
KIJUN
100
AcDbCircle
 10
-11.41005976176967
 20
121.369166490557
 30
0.0
 40
3.903532604287936
100
AcDbArc
 50
297.5297096623309
 51
20.43821517498272
  0
ARC
  5
387D
102
{ACAD_REACTORS
330
390C
102
}
330
2
100
AcDbEntity
  8
KIJUN
100
AcDbCircle
 10
-19.64369690582151
 20
116.9110637453842
 30
0.0
 40
13.2398173849913
100
AcDbArc
 50
26.08309068612571
 51
136.3987780806175
  0
ARC
  5
387E
102
{ACAD_REACTORS
330
390C
102
}
330
2
100
AcDbEntity
  8
KIJUN
100
AcDbCircle
 10
36.59400490738295
 20
61.59634795136312
 30
0.0
 40
92.12051178123246
100
AcDbArc
 50
135.6069532528109
 51
151.0277907182487
  0
ARC
  5
387F
102
{ACAD_REACTORS
330
390C
102
}
330
2
100
AcDbEntity
  8
KIJUN
100
AcDbCircle
 10
-316.4545787054724
 20
431.9670764477137
 30
0.0
 40
436.6793843881829
100
AcDbArc
 50
307.4975954142492
 51
310.7902518897441
  0
ARC
  5
3881
102
{ACAD_REACTORS
330
390C
102
}
330
2
100
AcDbEntity
  8
KIJUN
100
AcDbCircle
 10
-23.79274445786575
 20
114.6802438728003
 30
0.0
 40
14.3913709248517
100
AcDbArc
 50
123.3390188370607
 51
144.0859955380857
  0
ARC
  5
3882
102
{ACAD_REACTORS
330
390C
102
}
330
2
100
AcDbEntity
  8
KIJUN
100
AcDbCircle
 10
-16.95550621862418
 20
111.1309340778362
 30
0.0
 40
24.44590815399682
100
AcDbArc
 50
133.792708582534
 51
156.123502477789
  0
ARC
  5
3883
102
{ACAD_REACTORS
330
390C
102
}
330
2
100
AcDbEntity
  8
KIJUN
100
AcDbCircle
 10
-32.85875468132855
 20
127.6930598166475
 30
0.0
 40
1.484809531478103
100
AcDbArc
 50
62.5646486585812
 51
133.102276415964
  0
ARC
  5
3884
102
{ACAD_REACTORS
330
390C
102
}
330
2
100
AcDbEntity
  8
KIJUN
100
AcDbCircle
 10
-33.54061022516402
 20
114.9399208763393
 30
0.0
 40
16.43376841195832
100
AcDbArc
 50
145.632400721449
 51
182.7919371391324
  0
ARC
  5
3885
102
{ACAD_REACTORS
330
390C
102
}
330
2
100
AcDbEntity
  8
KIJUN
100
AcDbCircle
 10
-44.89482350932059
 20
122.6761806088205
 30
0.0
 40
2.694610868145898
100
AcDbArc
 50
30.54667233233969
 51
145.1285866493663
  0
ARC
  5
3886
102
{ACAD_REACTORS
330
390C
102
}
330
2
100
AcDbEntity
  8
KIJUN
100
AcDbCircle
 10
-81.46290861461352
 20
126.453218114464
 30
0.0
 40
51.24718604976787
100
AcDbArc
 50
267.8246560301734
 51
306.9804453984054
  0
ARC
  5
3906
102
{ACAD_REACTORS
330
390C
102
}
330
2
100
AcDbEntity
  8
KIJUN
100
AcDbCircle
 10
-10.10202216091431
 20
83.16482017203695
 30
0.0
 40
43.83605138918062
100
AcDbArc
 50
145.7260531166204
 51
159.2002137401568
  0
ARC
  5
3907
102
{ACAD_REACTORS
330
390C
102
}
330
2
100
AcDbEntity
  8
KIJUN
100
AcDbCircle
 10
11.4210564680676
 20
103.4257318156711
 30
0.0
 40
4.691129435964703
100
AcDbArc
 50
18.86175983099589
 51
148.4047203110654
  0
ARC
  5
3909
102
{ACAD_REACTORS
330
390C
102
}
330
2
100
AcDbEntity
  8
KIJUN
100
AcDbCircle
 10
-11.65682240991532
 20
121.3915820556086
 30
0.0
 40
4.042843904740274
100
AcDbArc
 50
117.8950978465622
 51
300.4853655617294
  0
ARC
  5
390B
102
{ACAD_REACTORS
330
390C
102
}
330
2
100
AcDbEntity
  8
KIJUN
100
AcDbCircle
 10
61.03680835404458
 20
20.88758202022032
 30
0.0
 40
120.3687706348105
100
AcDbArc
 50
117.6058686965282
 51
124.9867058864206
  0
ARC
  5
390D
102
{ACAD_REACTORS
330
39C8
102
}
330
2
100
AcDbEntity
  8
KIJUN
100
AcDbCircle
 10
268.2009824049355
 20
44.7505767023992
 30
0.0
 40
8.791370730511529
100
AcDbArc
 50
270.0
 51
61.92635300267964
  0
ARC
  5
390E
102
{ACAD_REACTORS
330
39C8
102
}
330
2
100
AcDbEntity
  8
KIJUN
100
AcDbCircle
 10
268.5713376558366
 20
53.66319037326696
 30
0.0
 40
17.70785776699576
100
AcDbArc
 50
202.1288711004321
 51
268.8015862563886
  0
ARC
  5
390F
102
{ACAD_REACTORS
330
39C8
102
}
330
2
100
AcDbEntity
  8
KIJUN
100
AcDbCircle
 10
267.8190196065883
 20
26.80426138490606
 30
0.0
 40
26.09759226180454
100
AcDbArc
 50
80.0280075174756
 51
88.42360793827671
  0
ARC
  5
3910
102
{ACAD_REACTORS
330
39C8
102
}
330
2
100
AcDbEntity
  8
KIJUN
100
AcDbCircle
 10
276.9723946676128
 20
64.34255185739568
 30
0.0
 40
14.2222453547752
100
AcDbArc
 50
210.980759633288
 51
233.6215814624467
  0
ARC
  5
3911
102
{ACAD_REACTORS
330
39C8
102
}
330
2
100
AcDbEntity
  8
KIJUN
100
AcDbCircle
 10
265.148944486796
 20
60.26108070014823
 30
0.0
 40
3.260477568595561
100
AcDbArc
 50
263.4866280371395
 51
347.5974560013941
  0
ARC
  5
3912
102
{ACAD_REACTORS
330
39C8
102
}
330
2
100
AcDbEntity
  8
KIJUN
100
AcDbCircle
 10
253.2211897022794
 20
61.31299065893745
 30
0.0
 40
15.21338232612603
100
AcDbArc
 50
353.3863199514416
 51
7.544280316763241
  0
ARC
  5
3913
102
{ACAD_REACTORS
330
39C8
102
}
330
2
100
AcDbEntity
  8
KIJUN
100
AcDbCircle
 10
266.2376046601603
 20
71.33068847987408
 30
0.0
 40
8.281939505262322
100
AcDbArc
 50
284.440294874787
 51
30.36315046188363
  0
ARC
  5
3914
102
{ACAD_REACTORS
330
39C8
102
}
330
2
100
AcDbEntity
  8
KIJUN
100
AcDbCircle
 10
279.1344277354657
 20
79.01245414631222
 30
0.0
 40
6.729796100143714
100
AcDbArc
 50
171.981308857675
 51
211.2916505368114
  0
ARC
  5
3915
102
{ACAD_REACTORS
330
39C8
102
}
330
2
100
AcDbEntity
  8
KIJUN
100
AcDbCircle
 10
273.1959670096178
 20
81.49612531312895
 30
0.0
 40
1.706777305005441
100
AcDbArc
 50
244.843580393352
 51
2.751880153390452
  0
ARC
  5
3916
102
{ACAD_REACTORS
330
39C8
102
}
330
2
100
AcDbEntity
  8
KIJUN
100
AcDbCircle
 10
396.4800407437505
 20
85.06645014419978
 30
0.0
 40
121.629299092919
100
AcDbArc
 50
174.765981662313
 51
181.6434931053858
  0
ARC
  5
3917
102
{ACAD_REACTORS
330
39C8
102
}
330
2
100
AcDbEntity
  8
KIJUN
100
AcDbCircle
 10
176.1902969490749
 20
98.92329523351129
 30
0.0
 40
99.20602670732286
100
AcDbArc
 50
358.4049936494626
 51
4.130556811317685
  0
ARC
  5
3918
102
{ACAD_REACTORS
330
39C8
102
}
330
2
100
AcDbEntity
  8
KIJUN
100
AcDbCircle
 10
242.8214889957736
 20
104.2446096828919
 30
0.0
 40
32.36860544990106
100
AcDbArc
 50
3.231150637333393
 51
31.62021744587514
  0
ARC
  5
3919
102
{ACAD_REACTORS
330
39C8
102
}
330
2
100
AcDbEntity
  8
KIJUN
100
AcDbCircle
 10
267.9716475567368
 20
127.2013140496961
 30
0.0
 40
6.454339372278774
100
AcDbArc
 50
291.9543377028481
 51
343.2336827775712
  0
ARC
  5
391A
102
{ACAD_REACTORS
330
39C8
102
}
330
2
100
AcDbEntity
  8
KIJUN
100
AcDbCircle
 10
270.6662948705406
 20
126.4301137364847
 30
0.0
 40
3.651983438654593
100
AcDbArc
 50
342.623275314549
 51
99.55207243555808
  0
ARC
  5
391B
102
{ACAD_REACTORS
330
39C8
102
}
330
2
100
AcDbEntity
  8
KIJUN
100
AcDbCircle
 10
244.4416111593164
 20
107.4286033358399
 30
0.0
 40
26.53060263604771
100
AcDbArc
 50
66.3945596475028
 51
139.7931156884981
  0
ARC
  5
391C
102
{ACAD_REACTORS
330
39C8
102
}
330
2
100
AcDbEntity
  8
KIJUN
100
AcDbCircle
 10
265.5777038107914
 20
157.3566592108368
 30
0.0
 40
27.69042694960386
100
AcDbArc
 50
247.6888619910378
 51
279.3161195982172
  0
ARC
  5
391D
102
{ACAD_REACTORS
330
39C8
102
}
330
2
100
AcDbEntity
  8
KIJUN
100
AcDbCircle
 10
213.3561497473962
 20
116.6008920160028
 30
0.0
 40
13.43219063312044
100
AcDbArc
 50
36.31319878038383
 51
83.98150993300781
  0
ARC
  5
391E
102
{ACAD_REACTORS
330
39C8
102
}
330
2
100
AcDbEntity
  8
KIJUN
100
AcDbCircle
 10
213.2510979759689
 20
113.0394219520514
 30
0.0
 40
16.98717402312164
100
AcDbArc
 50
84.8886692244868
 51
150.1660608563192
  0
ARC
  5
391F
102
{ACAD_REACTORS
330
39C8
102
}
330
2
100
AcDbEntity
  8
KIJUN
100
AcDbCircle
 10
190.7030619990143
 20
121.8679345918035
 30
0.0
 40
6.556278002979023
100
AcDbArc
 50
39.94170405613863
 51
138.6821465252203
  0
ARC
  5
3920
102
{ACAD_REACTORS
330
39C8
102
}
330
2
100
AcDbEntity
  8
KIJUN
100
AcDbCircle
 10
178.5566574937555
 20
112.5090292192444
 30
0.0
 40
21.88625182086092
100
AcDbArc
 50
24.2276348081235
 51
38.31150096529368
  0
ARC
  5
3921
102
{ACAD_REACTORS
330
39C8
102
}
330
2
100
AcDbEntity
  8
KIJUN
100
AcDbCircle
 10
178.4239538546733
 20
128.7795506079292
 30
0.0
 40
2.800605102585911
100
AcDbArc
 50
67.2800115545878
 51
145.1045506897071
  0
ARC
  5
3922
102
{ACAD_REACTORS
330
39C8
102
}
330
2
100
AcDbEntity
  8
KIJUN
100
AcDbCircle
 10
173.26092617245
 20
117.3880488772787
 30
0.0
 40
15.30656753338356
100
AcDbArc
 50
35.1330306065646
 51
65.92229893097412
  0
ARC
  5
3923
102
{ACAD_REACTORS
330
39C8
102
}
330
2
100
AcDbEntity
  8
KIJUN
100
AcDbCircle
 10
157.2455536955399
 20
92.95688358070293
 30
0.0
 40
41.91806319447134
100
AcDbArc
 50
63.22842096533079
 51
75.25235390249554
  0
ARC
  5
3924
102
{ACAD_REACTORS
330
39C8
102
}
330
2
100
AcDbEntity
  8
KIJUN
100
AcDbCircle
 10
165.2967365002948
 20
122.3272373474732
 30
0.0
 40
11.46992056061352
100
AcDbArc
 50
76.79791676861576
 51
113.5526034102903
  0
ARC
  5
3925
102
{ACAD_REACTORS
330
39C8
102
}
330
2
100
AcDbEntity
  8
KIJUN
100
AcDbCircle
 10
167.1507343507904
 20
115.6419113701856
 30
0.0
 40
18.36488915698372
100
AcDbArc
 50
110.5191648337707
 51
150.1121037641313
  0
ARC
  5
3926
102
{ACAD_REACTORS
330
39C8
102
}
330
2
100
AcDbEntity
  8
KIJUN
100
AcDbCircle
 10
126.1097399136061
 20
102.4647603482703
 30
0.0
 40
31.49444562361733
100
AcDbArc
 50
65.96079352605046
 51
119.9531186294943
  0
ARC
  5
3927
102
{ACAD_REACTORS
330
39C8
102
}
330
2
100
AcDbEntity
  8
KIJUN
100
AcDbCircle
 10
96.06277711446871
 20
34.38540331171655
 30
0.0
 40
105.9094539806185
100
AcDbArc
 50
58.60905331818877
 51
66.11877498375354
  0
ARC
  5
3928
102
{ACAD_REACTORS
330
39C8
102
}
330
2
100
AcDbEntity
  8
KIJUN
100
AcDbCircle
 10
104.6849506917747
 20
123.6514241864598
 30
0.0
 40
8.349455059535337
100
AcDbArc
 50
46.94767412510016
 51
132.9880013102495
  0
ARC
  5
3929
102
{ACAD_REACTORS
330
39C8
102
}
330
2
100
AcDbEntity
  8
KIJUN
100
AcDbCircle
 10
96.15097418718773
 20
128.7159259823255
 30
0.0
 40
3.026382728882671
100
AcDbArc
 50
20.16149299042681
 51
168.4217482297072
  0
ARC
  5
392A
102
{ACAD_REACTORS
330
39C8
102
}
330
2
100
AcDbEntity
  8
KIJUN
100
AcDbCircle
 10
84.22671880488293
 20
126.4841663612614
 30
0.0
 40
5.23436566943586
100
AcDbArc
 50
100.7618754221746
 51
279.7349140111286
  0
ARC
  5
392B
102
{ACAD_REACTORS
330
39C8
102
}
330
2
100
AcDbEntity
  8
KIJUN
100
AcDbCircle
 10
85.59257656555827
 20
119.1486050106391
 30
0.0
 40
12.6959812063169
100
AcDbArc
 50
53.26532202656765
 51
100.6358860794825
  0
ARC
  5
392C
102
{ACAD_REACTORS
330
39C8
102
}
330
2
100
AcDbEntity
  8
KIJUN
100
AcDbCircle
 10
114.990736925967
 20
117.3431434783657
 30
0.0
 40
18.69463701048163
100
AcDbArc
 50
220.9241049098843
 51
311.7528236421131
  0
ARC
  5
392D
102
{ACAD_REACTORS
330
39C8
102
}
330
2
100
AcDbEntity
  8
KIJUN
100
AcDbCircle
 10
86.20429477505552
 20
116.0788533773957
 30
0.0
 40
5.358862987311764
100
AcDbArc
 50
73.18531152872018
 51
101.7632015012646
  0
ARC
  5
392E
102
{ACAD_REACTORS
330
39C8
102
}
330
2
100
AcDbEntity
  8
KIJUN
100
AcDbCircle
 10
138.5510565108902
 20
139.8977672902205
 30
0.0
 40
51.29612010886073
100
AcDbArc
 50
206.0062532418981
 51
222.7209007237778
  0
ARC
  5
392F
102
{ACAD_REACTORS
330
39C8
102
}
330
2
100
AcDbEntity
  8
KIJUN
100
AcDbCircle
 10
85.62053503913501
 20
113.7752596661961
 30
0.0
 40
7.733584024596174
100
AcDbArc
 50
28.00032838976722
 51
73.98233411603732
  0
ARC
  5
3930
102
{ACAD_REACTORS
330
39C8
102
}
330
2
100
AcDbEntity
  8
KIJUN
100
AcDbCircle
 10
133.4330034402582
 20
106.0024998132711
 30
0.0
 40
6.535236556039001
100
AcDbArc
 50
203.5009097523889
 51
346.9979852074467
  0
ARC
  5
3931
102
{ACAD_REACTORS
330
39C8
102
}
330
2
100
AcDbEntity
  8
KIJUN
100
AcDbCircle
 10
141.9987085172699
 20
104.8287055556343
 30
0.0
 40
1.905785852367519
100
AcDbArc
 50
73.09617699564544
 51
135.8073339254151
  0
ARC
  5
3932
102
{ACAD_REACTORS
330
39C8
102
}
330
2
100
AcDbEntity
  8
KIJUN
100
AcDbCircle
 10
142.8446111027325
 20
103.9997718906047
 30
0.0
 40
3.090128980082756
100
AcDbArc
 50
135.7203893890763
 51
170.0790590305759
  0
ARC
  5
3933
102
{ACAD_REACTORS
330
39C8
102
}
330
2
100
AcDbEntity
  8
KIJUN
100
AcDbCircle
 10
110.3725894330398
 20
19.73052299763859
 30
0.0
 40
92.68731433823907
100
AcDbArc
 50
47.98904722765031
 51
69.68436333703971
  0
ARC
  5
3934
102
{ACAD_REACTORS
330
39C8
102
}
330
2
100
AcDbEntity
  8
KIJUN
100
AcDbCircle
 10
224.6659355094613
 20
142.6688811496314
 30
0.0
 40
75.19782222713273
100
AcDbArc
 50
225.9751409303515
 51
274.4998843273368
  0
ARC
  5
3935
102
{ACAD_REACTORS
330
39C8
102
}
330
2
100
AcDbEntity
  8
KIJUN
100
AcDbCircle
 10
249.7364413582818
 20
60.90993103024215
 30
0.0
 40
20.33862666928502
100
AcDbArc
 50
160.4887846916839
 51
186.9730389837894
  0
ARC
  5
3936
102
{ACAD_REACTORS
330
39C8
102
}
330
2
100
AcDbEntity
  8
KIJUN
100
AcDbCircle
 10
235.5196166917894
 20
69.16638510149226
 30
0.0
 40
13.78517687847343
100
AcDbArc
 50
253.8852509346195
 51
305.4079120382438
  0
ARC
  5
3937
102
{ACAD_REACTORS
330
39C8
102
}
330
2
100
AcDbEntity
  8
KIJUN
100
AcDbCircle
 10
232.5260617760163
 20
58.80498223961064
 30
0.0
 40
3.0
100
AcDbArc
 50
186.9730389837894
 51
253.8852509346195
  0
ARC
  5
3938
102
{ACAD_REACTORS
330
39C8
102
}
330
2
100
AcDbEntity
  8
KIJUN
100
AcDbCircle
 10
245.309265318234
 20
58.17935906677485
 30
0.0
 40
1.819658704315729
100
AcDbArc
 50
187.8507242799019
 51
304.4164361402325
  0
ARC
  5
3939
102
{ACAD_REACTORS
330
39C8
102
}
330
2
100
AcDbEntity
  8
KIJUN
100
AcDbCircle
 10
262.4657320553398
 20
54.88433830301506
 30
0.0
 40
16.22744809352491
100
AcDbArc
 50
173.6531688327661
 51
211.1723085007255
  0
ARC
  5
393A
102
{ACAD_REACTORS
330
39C8
102
}
330
2
100
AcDbEntity
  8
KIJUN
100
AcDbCircle
 10
249.0650482866874
 20
55.97080641517897
 30
0.0
 40
9.498342052489837
100
AcDbArc
 50
267.0806267694229
 51
289.0667046785106
  0
ARC
  5
393B
102
{ACAD_REACTORS
330
39C8
102
}
330
2
100
AcDbEntity
  8
KIJUN
100
AcDbCircle
 10
119.00497481543
 20
113.521641332411
 30
0.0
 40
6.653887487293576
100
AcDbArc
 50
145.9138390691022
 51
228.7274633311146
  0
ARC
  5
393C
102
{ACAD_REACTORS
330
39C8
102
}
330
2
100
AcDbEntity
  8
KIJUN
100
AcDbCircle
 10
246.3543470396621
 20
104.4901574796207
 30
0.0
 40
11.90458202681388
100
AcDbArc
 50
229.7221278081909
 51
317.6967774060868
  0
ARC
  5
393D
102
{ACAD_REACTORS
330
39C8
102
}
330
2
100
AcDbEntity
  8
KIJUN
100
AcDbCircle
 10
242.8750301633242
 20
107.7072860036034
 30
0.0
 40
16.64320532230459
100
AcDbArc
 50
317.5673427735711
 51
66.12777781283404
  0
ARC
  5
393E
102
{ACAD_REACTORS
330
39C8
102
}
330
2
100
AcDbEntity
  8
KIJUN
100
AcDbCircle
 10
244.9478606344512
 20
110.7173360918305
 30
0.0
 40
13.06935707491931
100
AcDbArc
 50
69.09854494262619
 51
147.4241974555383
  0
ARC
  5
393F
102
{ACAD_REACTORS
330
39C8
102
}
330
2
100
AcDbEntity
  8
KIJUN
100
AcDbCircle
 10
238.9835630185296
 20
107.8256326423391
 30
0.0
 40
9.478773558513188
100
AcDbArc
 50
330.3815599901944
 51
82.36654102621217
  0
ARC
  5
3940
102
{ACAD_REACTORS
330
39C8
102
}
330
2
100
AcDbEntity
  8
KIJUN
100
AcDbCircle
 10
231.2890190212979
 20
112.1809797842785
 30
0.0
 40
18.32043145311963
100
AcDbArc
 50
293.7178175504696
 51
330.4333212493343
  0
ARC
  5
3941
102
{ACAD_REACTORS
330
39C8
102
}
330
2
100
AcDbEntity
  8
KIJUN
100
AcDbCircle
 10
229.3779520917998
 20
26.34473400935619
 30
0.0
 40
91.52283943067017
100
AcDbArc
 50
83.1823099188645
 51
87.1462496742753
  0
ARC
  5
3942
102
{ACAD_REACTORS
330
39C8
102
}
330
2
100
AcDbEntity
  8
KIJUN
100
AcDbCircle
 10
254.96688632768
 20
121.7429848846998
 30
0.0
 40
34.39598527018438
100
AcDbArc
 50
190.6450277298652
 51
224.0486120730168
  0
ARC
  5
3943
102
{ACAD_REACTORS
330
39C8
102
}
330
2
100
AcDbEntity
  8
KIJUN
100
AcDbCircle
 10
216.4260755287951
 20
123.3733860921215
 30
0.0
 40
9.283517476122186
100
AcDbArc
 50
208.3109887933788
 51
300.6794005126985
  0
ARC
  5
3944
102
{ACAD_REACTORS
330
39C8
102
}
330
2
100
AcDbEntity
  8
KIJUN
100
AcDbCircle
 10
213.3452554445985
 20
110.4586214835642
 30
0.0
 40
9.918927656810151
100
AcDbArc
 50
120.889795156277
 51
181.4061724222447
  0
ARC
  5
3945
102
{ACAD_REACTORS
330
39C8
102
}
330
2
100
AcDbEntity
  8
KIJUN
100
AcDbCircle
 10
234.8666591085748
 20
92.85787602461796
 30
0.0
 40
6.787445280138976
100
AcDbArc
 50
132.9177166709939
 51
185.5854767524574
  0
ARC
  5
3946
102
{ACAD_REACTORS
330
39C8
102
}
330
2
100
AcDbEntity
  8
KIJUN
100
AcDbCircle
 10
226.5864219246032
 20
90.25162649407691
 30
0.0
 40
2.472069900718929
100
AcDbArc
 50
51.90994901138733
 51
168.6888712704033
  0
ARC
  5
3947
102
{ACAD_REACTORS
330
39C8
102
}
330
2
100
AcDbEntity
  8
KIJUN
100
AcDbCircle
 10
214.8310708507149
 20
81.5925157571989
 30
0.0
 40
13.06466115075716
100
AcDbArc
 50
44.4190908516436
 51
74.5549767408348
  0
ARC
  5
3948
102
{ACAD_REACTORS
330
39C8
102
}
330
2
100
AcDbEntity
  8
KIJUN
100
AcDbCircle
 10
216.9639130035427
 20
88.56092519909497
 30
0.0
 40
5.783361364229
100
AcDbArc
 50
76.53712174395875
 51
168.2995401884811
  0
ARC
  5
3949
102
{ACAD_REACTORS
330
39C8
102
}
330
2
100
AcDbEntity
  8
KIJUN
100
AcDbCircle
 10
186.6636406389549
 20
107.7645819200881
 30
0.0
 40
20.70574685371682
100
AcDbArc
 50
346.0748071540481
 51
359.5248540445068
  0
ARC
  5
394A
102
{ACAD_REACTORS
330
39C8
102
}
330
2
100
AcDbEntity
  8
KIJUN
100
AcDbCircle
 10
219.1328266519114
 20
99.77259125723746
 30
0.0
 40
12.73263219271403
100
AcDbArc
 50
166.3301993161259
 51
232.0393204457714
  0
ARC
  5
394B
102
{ACAD_REACTORS
330
39C8
102
}
330
2
100
AcDbEntity
  8
KIJUN
100
AcDbCircle
 10
204.5269436640921
 20
107.5940193408023
 30
0.0
 40
2.84173208032456
100
AcDbArc
 50
359.976907332542
 51
112.7215778265679
  0
ARC
  5
394C
102
{ACAD_REACTORS
330
39C8
102
}
330
2
100
AcDbEntity
  8
KIJUN
100
AcDbCircle
 10
157.9481660277283
 20
122.4236614004521
 30
0.0
 40
7.249153135106061
100
AcDbArc
 50
299.4580399574798
 51
21.97119017009917
  0
ARC
  5
394D
102
{ACAD_REACTORS
330
39C8
102
}
330
2
100
AcDbEntity
  8
KIJUN
100
AcDbCircle
 10
170.2887508359935
 20
122.1191049029112
 30
0.0
 40
10.63480842702397
100
AcDbArc
 50
214.394005402512
 51
236.2214012717813
  0
ARC
  5
394E
102
{ACAD_REACTORS
330
39C8
102
}
330
2
100
AcDbEntity
  8
KIJUN
100
AcDbCircle
 10
172.9664803138965
 20
108.8381603949096
 30
0.0
 40
9.670725721447173
100
AcDbArc
 50
112.6652803599807
 51
152.660651738572
  0
ARC
  5
394F
102
{ACAD_REACTORS
330
39C8
102
}
330
2
100
AcDbEntity
  8
KIJUN
100
AcDbCircle
 10
168.2313225038023
 20
112.0223854674948
 30
0.0
 40
5.827587374506316
100
AcDbArc
 50
348.5588276612621
 51
80.0337092491255
  0
ARC
  5
3950
102
{ACAD_REACTORS
330
39C8
102
}
330
2
100
AcDbEntity
  8
KIJUN
100
AcDbCircle
 10
175.1329459737965
 20
106.8376849151612
 30
0.0
 40
4.200759453681307
100
AcDbArc
 50
53.15845706638818
 51
106.4538675678362
  0
ARC
  5
3951
102
{ACAD_REACTORS
330
39C8
102
}
330
2
100
AcDbEntity
  8
KIJUN
100
AcDbCircle
 10
155.1009196862317
 20
105.5320314436383
 30
0.0
 40
23.02878736438218
100
AcDbArc
 50
352.4622597052271
 51
11.6938067455263
  0
ARC
  5
3952
102
{ACAD_REACTORS
330
39C8
102
}
330
2
100
AcDbEntity
  8
KIJUN
100
AcDbCircle
 10
108.7309780131256
 20
63.30149810013131
 30
0.0
 40
87.89589971968572
100
AcDbArc
 50
19.46465556595212
 51
33.68846605070784
  0
ARC
  5
3953
102
{ACAD_REACTORS
330
39C8
102
}
330
2
100
AcDbEntity
  8
KIJUN
100
AcDbCircle
 10
158.7839843818541
 20
99.55465191513031
 30
0.0
 40
26.24982362555847
100
AcDbArc
 50
28.43877369408982
 51
77.04050150847099
  0
ARC
  5
3954
102
{ACAD_REACTORS
330
39C8
102
}
330
2
100
AcDbEntity
  8
KIJUN
100
AcDbCircle
 10
121.2604913195872
 20
83.40704708967143
 30
0.0
 40
41.70412887113869
100
AcDbArc
 50
52.51308441858839
 51
70.44954680413804
  0
ARC
  5
3955
102
{ACAD_REACTORS
330
39C8
102
}
330
2
100
AcDbEntity
  8
KIJUN
100
AcDbCircle
 10
127.4411392839144
 20
99.25222897696738
 30
0.0
 40
24.70970706355305
100
AcDbArc
 50
71.65987740765165
 51
109.8503975988984
  0
ARC
  5
3956
102
{ACAD_REACTORS
330
39C8
102
}
330
2
100
AcDbEntity
  8
KIJUN
100
AcDbCircle
 10
122.7653428183986
 20
112.9913035504973
 30
0.0
 40
10.20273916716985
100
AcDbArc
 50
111.3518894681338
 51
155.324432890762
  0
ARC
  5
3957
102
{ACAD_REACTORS
330
39C8
102
}
330
2
100
AcDbEntity
  8
KIJUN
100
AcDbCircle
 10
118.8987400838817
 20
109.74780439247
 30
0.0
 40
9.246756418626095
100
AcDbArc
 50
4.453075086666275
 51
125.7658219047715
  0
ARC
  5
3958
102
{ACAD_REACTORS
330
39C8
102
}
330
2
100
AcDbEntity
  8
KIJUN
100
AcDbCircle
 10
145.9053043025544
 20
87.30538811431783
 30
0.0
 40
29.20282926764359
100
AcDbArc
 50
88.55680916660116
 51
127.5251434366496
  0
ARC
  5
3959
102
{ACAD_REACTORS
330
39C8
102
}
330
2
100
AcDbEntity
  8
KIJUN
100
AcDbCircle
 10
118.0596844252567
 20
112.7203387890199
 30
0.0
 40
5.431138035405271
100
AcDbArc
 50
230.6466632830884
 51
1.493365277826574
  0
ARC
  5
395A
102
{ACAD_REACTORS
330
39C8
102
}
330
2
100
AcDbEntity
  8
KIJUN
100
AcDbCircle
 10
117.3710685540525
 20
109.5609322081676
 30
0.0
 40
6.951623854012094
100
AcDbArc
 50
281.1342354305255
 51
28.34930223393104
  0
ARC
  5
395B
102
{ACAD_REACTORS
330
39C8
102
}
330
2
100
AcDbEntity
  8
KIJUN
100
AcDbCircle
 10
117.336223146164
 20
110.9363880090943
 30
0.0
 40
8.311141593597529
100
AcDbArc
 50
179.4369125995119
 51
279.5386376557063
  0
ARC
  5
395C
102
{ACAD_REACTORS
330
39C8
102
}
330
2
100
AcDbEntity
  8
KIJUN
100
AcDbCircle
 10
123.1448335926502
 20
112.0953469151267
 30
0.0
 40
14.16038830941903
100
AcDbArc
 50
99.87423564328455
 51
184.3631095590576
  0
ARC
  5
395D
102
{ACAD_REACTORS
330
39C8
102
}
330
2
100
AcDbEntity
  8
KIJUN
100
AcDbCircle
 10
124.6065636359349
 20
89.96823894470763
 30
0.0
 40
36.28684541605033
100
AcDbArc
 50
81.09877420615845
 51
96.15407587268848
  0
ARC
  5
395E
102
{ACAD_REACTORS
330
39C8
102
}
330
2
100
AcDbEntity
  8
KIJUN
100
AcDbCircle
 10
123.8072097540402
 20
115.7529228096725
 30
0.0
 40
19.39463097451493
100
AcDbArc
 50
133.7938959743125
 51
219.6585721781599
  0
ARC
  5
395F
102
{ACAD_REACTORS
330
39C8
102
}
330
2
100
AcDbEntity
  8
KIJUN
100
AcDbCircle
 10
119.5169291810859
 20
134.0126518262201
 30
0.0
 40
26.74506179082453
100
AcDbArc
 50
190.0980818498256
 51
217.1604150412573
  0
ARC
  5
3960
102
{ACAD_REACTORS
330
39C8
102
}
330
2
100
AcDbEntity
  8
KIJUN
100
AcDbCircle
 10
271.1366174220898
 20
112.364287583643
 30
0.0
 40
173.0213147468872
100
AcDbArc
 50
174.2300090594812
 51
178.1806795170212
  0
ARC
  5
3961
102
{ACAD_REACTORS
330
39C8
102
}
330
2
100
AcDbEntity
  8
KIJUN
100
AcDbCircle
 10
55.03959347212992
 20
-24.93984826906993
 30
0.0
 40
168.5102839468493
100
AcDbArc
 50
48.04328301696209
 51
57.07135418290822
  0
ARC
  5
3962
102
{ACAD_REACTORS
330
39C8
102
}
330
2
100
AcDbEntity
  8
KIJUN
100
AcDbCircle
 10
177.7971264474433
 20
105.8926769956381
 30
0.0
 40
6.292179387225966
100
AcDbArc
 50
127.7711501839292
 51
194.932893185081
  0
ARC
  5
3963
102
{ACAD_REACTORS
330
39C8
102
}
330
2
100
AcDbEntity
  8
KIJUN
100
AcDbCircle
 10
227.5862112339792
 20
135.1823407454552
 30
0.0
 40
64.60269698386937
100
AcDbArc
 50
219.3191217738661
 51
272.7833165608333
  0
ARC
  5
3964
102
{ACAD_REACTORS
330
39C8
102
}
330
2
100
AcDbEntity
  8
KIJUN
100
AcDbCircle
 10
180.1716757565426
 20
100.2647822225148
 30
0.0
 40
3.17301590431021
100
AcDbArc
 50
134.931270814901
 51
159.9157575486795
  0
ARC
  5
3965
102
{ACAD_REACTORS
330
39C8
102
}
330
2
100
AcDbEntity
  8
KIJUN
100
AcDbCircle
 10
213.7201783586437
 20
99.92745817631899
 30
0.0
 40
36.55642360281103
100
AcDbArc
 50
177.7629501829575
 51
188.9384785587579
  0
ARC
  5
3966
102
{ACAD_REACTORS
330
39C8
102
}
330
2
100
AcDbEntity
  8
KIJUN
100
AcDbCircle
 10
198.7758384471272
 20
112.8512221465861
 30
0.0
 40
33.48725210943954
100
AcDbArc
 50
184.0732962665636
 51
214.668856730981
  0
ARC
  5
3967
102
{ACAD_REACTORS
330
39C8
102
}
330
2
100
AcDbEntity
  8
KIJUN
100
AcDbCircle
 10
185.5826812072853
 20
119.2328465662192
 30
0.0
 40
22.02651034780894
100
AcDbArc
 50
195.6808920421442
 51
203.4355120685584
  0
ARC
  5
3968
102
{ACAD_REACTORS
330
39C8
102
}
330
2
100
AcDbEntity
  8
KIJUN
100
AcDbCircle
 10
420.1816627742078
 20
374.3869114875832
 30
0.0
 40
364.1455260418025
100
AcDbArc
 50
228.2978298847402
 51
232.4156346602116
  0
ARC
  5
3969
102
{ACAD_REACTORS
330
39C8
102
}
330
2
100
AcDbEntity
  8
KIJUN
100
AcDbCircle
 10
230.3727211994794
 20
129.7992551130432
 30
0.0
 40
54.56453569693973
100
AcDbArc
 50
233.7116857382945
 51
269.0039888908012
  0
ARC
  5
396A
102
{ACAD_REACTORS
330
39C8
102
}
330
2
100
AcDbEntity
  8
KIJUN
100
AcDbCircle
 10
231.6455374390039
 20
113.5649597114175
 30
0.0
 40
38.38631989099059
100
AcDbArc
 50
266.6826129058946
 51
325.0309570668239
  0
ARC
  5
396B
102
{ACAD_REACTORS
330
39C8
102
}
330
2
100
AcDbEntity
  8
KIJUN
100
AcDbCircle
 10
180.6684762644751
 20
130.1630016762174
 30
0.0
 40
4.546834929947373
100
AcDbArc
 50
177.2427772368802
 51
229.5443986149009
  0
ARC
  5
396C
102
{ACAD_REACTORS
330
39C8
102
}
330
2
100
AcDbEntity
  8
KIJUN
100
AcDbCircle
 10
169.8088426336699
 20
114.6802438728003
 30
0.0
 40
14.3913709248517
100
AcDbArc
 50
35.91400446191425
 51
56.66098116293913
  0
ARC
  5
396D
102
{ACAD_REACTORS
330
39C8
102
}
330
2
100
AcDbEntity
  8
KIJUN
100
AcDbCircle
 10
201.1894368999407
 20
127.4075088976933
 30
0.0
 40
15.45802241439035
100
AcDbArc
 50
184.4927976863603
 51
234.5036160795056
  0
ARC
  5
396E
102
{ACAD_REACTORS
330
39C8
102
}
330
2
100
AcDbEntity
  8
KIJUN
100
AcDbCircle
 10
180.9309065115353
 20
95.90634754066387
 30
0.0
 40
17.95173443842739
100
AcDbArc
 50
354.9576773206546
 51
56.20596265167692
  0
ARC
  5
396F
102
{ACAD_REACTORS
330
39C8
102
}
330
2
100
AcDbEntity
  8
KIJUN
100
AcDbCircle
 10
191.9085369615913
 20
112.712045148687
 30
0.0
 40
2.132233321537665
100
AcDbArc
 50
81.77130993693848
 51
242.2526417421334
  0
ARC
  5
3970
102
{ACAD_REACTORS
330
39C8
102
}
330
2
100
AcDbEntity
  8
KIJUN
100
AcDbCircle
 10
243.8098047001472
 20
136.8293250806726
 30
0.0
 40
61.89518467958548
100
AcDbArc
 50
209.6410272990623
 51
223.3660885395811
  0
ARC
  5
3971
102
{ACAD_REACTORS
330
39C8
102
}
330
2
100
AcDbEntity
  8
KIJUN
100
AcDbCircle
 10
204.8327875916007
 20
107.7891768689049
 30
0.0
 40
2.802745679544742
100
AcDbArc
 50
120.0495809767016
 51
182.6396193664868
  0
ARC
  5
3972
102
{ACAD_REACTORS
330
39C8
102
}
330
2
100
AcDbEntity
  8
KIJUN
100
AcDbCircle
 10
215.5158097747399
 20
119.86467806509
 30
0.0
 40
4.419179467616211
100
AcDbArc
 50
343.2851329178713
 51
64.09202794240717
  0
ARC
  5
3973
102
{ACAD_REACTORS
330
39C8
102
}
330
2
100
AcDbEntity
  8
KIJUN
100
AcDbCircle
 10
215.1368791871277
 20
117.086838078297
 30
0.0
 40
7.136980869023756
100
AcDbArc
 50
71.11699759607022
 51
164.6956942264196
  0
ARC
  5
3974
102
{ACAD_REACTORS
330
39C8
102
}
330
2
100
AcDbEntity
  8
KIJUN
100
AcDbCircle
 10
186.0446808034118
 20
120.9354396149622
 30
0.0
 40
12.48287708242698
100
AcDbArc
 50
344.0488157193865
 51
2.547783321563999
  0
ARC
  5
3975
102
{ACAD_REACTORS
330
39C8
102
}
330
2
100
AcDbEntity
  8
KIJUN
100
AcDbCircle
 10
231.6153309899641
 20
108.5814147836594
 30
0.0
 40
34.73423582967846
100
AcDbArc
 50
165.1133288848418
 51
174.3719671045094
  0
ARC
  5
3976
102
{ACAD_REACTORS
330
39C8
102
}
330
2
100
AcDbEntity
  8
KIJUN
100
AcDbCircle
 10
238.1037102114311
 20
109.5600259167687
 30
0.0
 40
6.103692619727704
100
AcDbArc
 50
210.2039679415634
 51
10.57570895803009
  0
ARC
  5
3977
102
{ACAD_REACTORS
330
39C8
102
}
330
2
100
AcDbEntity
  8
KIJUN
100
AcDbCircle
 10
243.663946597623
 20
111.1122500500256
 30
0.0
 40
11.78025701723052
100
AcDbArc
 50
145.6803240254338
 51
203.1054808990016
  0
ARC
  5
3978
102
{ACAD_REACTORS
330
39C8
102
}
330
2
100
AcDbEntity
  8
KIJUN
100
AcDbCircle
 10
272.5406576849395
 20
139.8872151496943
 30
0.0
 40
18.79623879486568
100
AcDbArc
 50
238.6660481507142
 51
263.4136367574535
  0
ARC
  5
3979
102
{ACAD_REACTORS
330
39C8
102
}
330
2
100
AcDbEntity
  8
KIJUN
100
AcDbCircle
 10
273.347248973728
 20
82.61423648015881
 30
0.0
 40
2.803638225396855
100
AcDbArc
 50
189.4439368635766
 51
251.7754006622197
  0
ARC
  5
397A
102
{ACAD_REACTORS
330
39C8
102
}
330
2
100
AcDbEntity
  8
KIJUN
100
AcDbCircle
 10
320.9513388531921
 20
76.02477682470234
 30
0.0
 40
55.51695202770896
100
AcDbArc
 50
175.6811096674498
 51
189.027224660705
  0
ARC
  5
397B
102
{ACAD_REACTORS
330
39C8
102
}
330
2
100
AcDbEntity
  8
KIJUN
100
AcDbCircle
 10
271.9742077491176
 20
67.90603628477143
 30
0.0
 40
5.882056915229757
100
AcDbArc
 50
185.7770793590139
 51
231.379653812149
  0
ARC
  5
397C
102
{ACAD_REACTORS
330
39C8
102
}
330
2
100
AcDbEntity
  8
KIJUN
100
AcDbCircle
 10
271.017831704336
 20
64.97794357390557
 30
0.0
 40
10.11061376344468
100
AcDbArc
 50
182.8978468943615
 51
231.8990754342502
  0
ARC
  5
397D
102
{ACAD_REACTORS
330
39C8
102
}
330
2
100
AcDbEntity
  8
KIJUN
100
AcDbCircle
 10
284.0444929416719
 20
53.12532130900507
 30
0.0
 40
32.46117060746455
100
AcDbArc
 50
160.6859336589529
 51
190.8896893195404
  0
ARC
  5
397E
102
{ACAD_REACTORS
330
39C8
102
}
330
2
100
AcDbEntity
  8
KIJUN
100
AcDbCircle
 10
261.065262566568
 20
57.28534409489348
 30
0.0
 40
17.57046060888853
100
AcDbArc
 50
146.3515054149329
 51
177.8947263005931
  0
ARC
  5
397F
102
{ACAD_REACTORS
330
39C8
102
}
330
2
100
AcDbEntity
  8
KIJUN
100
AcDbCircle
 10
200.0459700753069
 20
189.5270313902032
 30
0.0
 40
125.588955348132
100
AcDbArc
 50
284.0644472176148
 51
289.4066284746789
  0
ARC
  5
3980
102
{ACAD_REACTORS
330
39C8
102
}
330
2
100
AcDbEntity
  8
KIJUN
100
AcDbCircle
 10
238.1697129116661
 20
96.94117797916183
 30
0.0
 40
11.12086826628372
100
AcDbArc
 50
205.2506465518941
 51
250.1308035685918
  0
ARC
  5
3981
102
{ACAD_REACTORS
330
39C8
102
}
330
2
100
AcDbEntity
  8
KIJUN
100
AcDbCircle
 10
244.7479438451504
 20
113.7249495382856
 30
0.0
 40
29.14527832977499
100
AcDbArc
 50
249.182684710183
 51
281.715847707739
  0
ARC
  5
3982
102
{ACAD_REACTORS
330
39C8
102
}
330
2
100
AcDbEntity
  8
KIJUN
100
AcDbCircle
 10
234.3507944835777
 20
95.58540806767448
 30
0.0
 40
11.28344096930915
100
AcDbArc
 50
205.4509049441629
 51
251.1788453237246
  0
ARC
  5
3983
102
{ACAD_REACTORS
330
39C8
102
}
330
2
100
AcDbEntity
  8
KIJUN
100
AcDbCircle
 10
218.6331236722177
 20
90.61170316073365
 30
0.0
 40
7.384773396995107
100
AcDbArc
 50
186.8277690084204
 51
241.8248438407154
  0
ARC
  5
3984
102
{ACAD_REACTORS
330
39C8
102
}
330
2
100
AcDbEntity
  8
KIJUN
100
AcDbCircle
 10
239.8538032003511
 20
124.8095357283989
 30
0.0
 40
47.61899598147094
100
AcDbArc
 50
238.744263483948
 51
261.7828300226524
  0
ARC
  5
3985
102
{ACAD_REACTORS
330
39C8
102
}
330
2
100
AcDbEntity
  8
KIJUN
100
AcDbCircle
 10
265.8067092897291
 20
49.55079646736385
 30
0.0
 40
8.086712268930835
100
AcDbArc
 50
237.6154325024693
 51
356.3272375880863
  0
ARC
  5
3986
102
{ACAD_REACTORS
330
39C8
102
}
330
2
100
AcDbEntity
  8
KIJUN
100
AcDbCircle
 10
264.9018592478696
 20
50.33025966850289
 30
0.0
 40
5.030792469559005
100
AcDbArc
 50
254.111004978752
 51
348.2959379660666
  0
ARC
  5
3987
102
{ACAD_REACTORS
330
39C8
102
}
330
2
100
AcDbEntity
  8
KIJUN
100
AcDbCircle
 10
271.8167940961927
 20
48.65024310729586
 30
0.0
 40
2.095235314083586
100
AcDbArc
 50
10.51972437441642
 51
161.6539551895337
  0
ARC
  5
3988
102
{ACAD_REACTORS
330
39C8
102
}
330
2
100
AcDbEntity
  8
KIJUN
100
AcDbCircle
 10
283.891703446846
 20
59.82075634563734
 30
0.0
 40
28.04874278322709
100
AcDbArc
 50
168.4120146973142
 51
195.265518487918
  0
ARC
  5
3989
102
{ACAD_REACTORS
330
39C8
102
}
330
2
100
AcDbEntity
  8
KIJUN
100
AcDbCircle
 10
267.0318905929364
 20
55.56816258880878
 30
0.0
 40
10.66944290753211
100
AcDbArc
 50
197.0729426032237
 51
250.8084720819366
  0
ARC
  5
398A
102
{ACAD_REACTORS
330
39C8
102
}
330
2
100
AcDbEntity
  8
KIJUN
100
AcDbCircle
 10
264.0261379936374
 20
50.64602833489951
 30
0.0
 40
2.257510563893528
100
AcDbArc
 50
262.9450825601931
 51
51.07896307449392
  0
ARC
  5
398B
102
{ACAD_REACTORS
330
39C8
102
}
330
2
100
AcDbEntity
  8
KIJUN
100
AcDbCircle
 10
271.2955453852863
 20
61.75425700645797
 30
0.0
 40
11.03145254025355
100
AcDbArc
 50
183.4369614906159
 51
237.967228337789
  0
ARC
  5
398C
102
{ACAD_REACTORS
330
39C8
102
}
330
2
100
AcDbEntity
  8
KIJUN
100
AcDbCircle
 10
301.4716963294028
 20
61.64082005905186
 30
0.0
 40
41.19140597811661
100
AcDbArc
 50
155.8538481072596
 51
180.7621349632801
  0
ARC
  5
398D
102
{ACAD_REACTORS
330
39C8
102
}
330
2
100
AcDbEntity
  8
KIJUN
100
AcDbCircle
 10
-201.3065574368587
 20
288.9962162707611
 30
0.0
 40
510.6026753413394
100
AcDbArc
 50
335.6525805606469
 51
337.4899056585342
  0
ARC
  5
398E
102
{ACAD_REACTORS
330
39C8
102
}
330
2
100
AcDbEntity
  8
KIJUN
100
AcDbCircle
 10
240.3593348573929
 20
104.5223257001095
 30
0.0
 40
31.98887744386007
100
AcDbArc
 50
339.8711725926282
 51
26.84304437889989
  0
ARC
  5
398F
102
{ACAD_REACTORS
330
39C8
102
}
330
2
100
AcDbEntity
  8
KIJUN
100
AcDbCircle
 10
299.0303792280396
 20
87.91419735018534
 30
0.0
 40
29.02602227100411
100
AcDbArc
 50
173.0860819621554
 51
191.4458799310266
  0
ARC
  5
3990
102
{ACAD_REACTORS
330
39C8
102
}
330
2
100
AcDbEntity
  8
KIJUN
100
AcDbCircle
 10
177.0567826844841
 20
140.8223633347972
 30
0.0
 40
98.88289907731159
100
AcDbArc
 50
305.2912531939825
 51
317.2772950057255
  0
ARC
  5
3991
102
{ACAD_REACTORS
330
39C8
102
}
330
2
100
AcDbEntity
  8
KIJUN
100
AcDbCircle
 10
278.0805920023246
 20
25.76570027437879
 30
0.0
 40
55.73589120309994
100
AcDbArc
 50
120.609585962203
 51
141.9589622375035
  0
ARC
  5
3992
102
{ACAD_REACTORS
330
39C8
102
}
330
2
100
AcDbEntity
  8
KIJUN
100
AcDbCircle
 10
239.6177676627126
 20
107.0203039625696
 30
0.0
 40
5.78956731524617
100
AcDbArc
 50
327.7397479031785
 51
39.21002048758115
  0
ARC
  5
3993
102
{ACAD_REACTORS
330
39C8
102
}
330
2
100
AcDbEntity
  8
KIJUN
100
AcDbCircle
 10
237.0409122326517
 20
109.7766455380697
 30
0.0
 40
9.488106275120246
100
AcDbArc
 50
171.3019942090715
 51
321.9604984767998
  0
ARC
  5
3994
102
{ACAD_REACTORS
330
39C8
102
}
330
2
100
AcDbEntity
  8
KIJUN
100
AcDbCircle
 10
245.3011612438558
 20
110.0875540510763
 30
0.0
 40
17.6750056866048
100
AcDbArc
 50
28.99773742274676
 51
176.3541333316448
  0
ARC
  5
3995
102
{ACAD_REACTORS
330
39C8
102
}
330
2
100
AcDbEntity
  8
KIJUN
100
AcDbCircle
 10
244.3779652103472
 20
107.6619177623704
 30
0.0
 40
19.7295036427118
100
AcDbArc
 50
296.9401023896537
 51
33.86503452293195
  0
ARC
  5
3996
102
{ACAD_REACTORS
330
39C8
102
}
330
2
100
AcDbEntity
  8
KIJUN
100
AcDbCircle
 10
247.1927639993388
 20
104.155470358232
 30
0.0
 40
15.35593123607665
100
AcDbArc
 50
223.4618904748516
 51
293.502696971629
  0
ARC
  5
3997
102
{ACAD_REACTORS
330
39C8
102
}
330
2
100
AcDbEntity
  8
KIJUN
100
AcDbCircle
 10
190.9171612098624
 20
92.39185952961451
 30
0.0
 40
0.7144320186761491
100
AcDbArc
 50
234.8860535715239
 51
16.15458484895128
  0
ARC
  5
3998
102
{ACAD_REACTORS
330
39C8
102
}
330
2
100
AcDbEntity
  8
KIJUN
100
AcDbCircle
 10
85.89058184684843
 20
123.787222222274
 30
0.0
 40
5.855640089238384
100
AcDbArc
 50
24.36464779815891
 51
146.8352031194842
  0
ARC
  5
3999
102
{ACAD_REACTORS
330
39C8
102
}
330
2
100
AcDbEntity
  8
KIJUN
100
AcDbCircle
 10
102.4534776730511
 20
114.448640551694
 30
0.0
 40
4.738284248905388
100
AcDbArc
 50
206.0117378144791
 51
249.991155350018
  0
ARC
  5
399A
102
{ACAD_REACTORS
330
39C8
102
}
330
2
100
AcDbEntity
  8
KIJUN
100
AcDbCircle
 10
561.5672808817784
 20
354.5485492200638
 30
0.0
 40
522.8420986538025
100
AcDbArc
 50
205.8960120265868
 51
207.5934756675748
  0
ARC
  5
399B
102
{ACAD_REACTORS
330
39C8
102
}
330
2
100
AcDbEntity
  8
KIJUN
100
AcDbCircle
 10
85.30238423035928
 20
116.9482153316278
 30
0.0
 40
9.554588115967634
100
AcDbArc
 50
92.94589354617473
 51
110.6959413546756
  0
ARC
  5
399C
102
{ACAD_REACTORS
330
39C8
102
}
330
2
100
AcDbEntity
  8
KIJUN
100
AcDbCircle
 10
81.71145527410414
 20
126.6540431230671
 30
0.0
 40
0.797139719835786
100
AcDbArc
 50
155.0304999548091
 51
285.5917074449425
  0
ARC
  5
399D
102
{ACAD_REACTORS
330
39C8
102
}
330
2
100
AcDbEntity
  8
KIJUN
100
AcDbCircle
 10
123.109653459081
 20
112.4581234232813
 30
0.0
 40
22.63526066653712
100
AcDbArc
 50
134.3591846404146
 51
143.0079406196757
  0
ARC
  5
399E
102
{ACAD_REACTORS
330
39C8
102
}
330
2
100
AcDbEntity
  8
KIJUN
100
AcDbCircle
 10
112.7460781492245
 20
112.998681593458
 30
0.0
 40
12.28634960876699
100
AcDbArc
 50
194.1441551890347
 51
235.5564041373047
  0
ARC
  5
399F
102
{ACAD_REACTORS
330
39C8
102
}
330
2
100
AcDbEntity
  8
KIJUN
100
AcDbCircle
 10
104.7864190823277
 20
126.3649325033467
 30
0.0
 40
3.379652666439757
100
AcDbArc
 50
42.35033996154796
 51
152.5634899279415
  0
ARC
  5
39A0
102
{ACAD_REACTORS
330
39C8
102
}
330
2
100
AcDbEntity
  8
KIJUN
100
AcDbCircle
 10
129.6222646000267
 20
117.4513668621137
 30
0.0
 40
29.73961748899557
100
AcDbArc
 50
159.3852694942796
 51
194.5175149534223
  0
ARC
  5
39A1
102
{ACAD_REACTORS
330
39C8
102
}
330
2
100
AcDbEntity
  8
KIJUN
100
AcDbCircle
 10
182.5542332216743
 20
128.1048571655122
 30
0.0
 40
90.87918844874739
100
AcDbArc
 50
319.7810225294668
 51
338.0567063755841
  0
ARC
  5
39A2
102
{ACAD_REACTORS
330
39C8
102
}
330
2
100
AcDbEntity
  8
KIJUN
100
AcDbCircle
 10
272.3611016406086
 20
52.83025032036693
 30
0.0
 40
26.30631349862165
100
AcDbArc
 50
140.8938456771658
 51
171.5888313184171
  0
ARC
  5
39A3
102
{ACAD_REACTORS
330
39C8
102
}
330
2
100
AcDbEntity
  8
KIJUN
100
AcDbCircle
 10
239.9377033357926
 20
104.5540887579254
 30
0.0
 40
28.85504212309136
100
AcDbArc
 50
338.8530836513507
 51
51.18070168106073
  0
ARC
  5
39A4
102
{ACAD_REACTORS
330
39C8
102
}
330
2
100
AcDbEntity
  8
KIJUN
100
AcDbCircle
 10
265.7480443323649
 20
139.3354233387146
 30
0.0
 40
14.52276519874239
100
AcDbArc
 50
237.8780547424634
 51
290.7480039364866
  0
ARC
  5
39A5
102
{ACAD_REACTORS
330
39C8
102
}
330
2
100
AcDbEntity
  8
KIJUN
100
AcDbCircle
 10
298.892468800261
 20
88.89238288617672
 30
0.0
 40
26.21838455710463
100
AcDbArc
 50
167.6733530331796
 51
192.3266469668203
  0
ARC
  5
39A6
102
{ACAD_REACTORS
330
39C8
102
}
330
2
100
AcDbEntity
  8
KIJUN
100
AcDbCircle
 10
264.3038492563939
 20
71.97145469945931
 30
0.0
 40
7.930290758200563
100
AcDbArc
 50
319.6231872984609
 51
33.47408037122447
  0
ARC
  5
39A7
102
{ACAD_REACTORS
330
39C8
102
}
330
2
100
AcDbEntity
  8
KIJUN
100
AcDbCircle
 10
288.9421658296636
 20
84.83511574345106
 30
0.0
 40
19.92275302528274
100
AcDbArc
 50
172.4899718153562
 51
205.222049362099
  0
ARC
  5
39A8
102
{ACAD_REACTORS
330
39C8
102
}
330
2
100
AcDbEntity
  8
KIJUN
100
AcDbCircle
 10
246.4630114498815
 20
130.3790157579953
 30
0.0
 40
50.17873438273561
100
AcDbArc
 50
232.337062021457
 51
262.0557913181887
  0
ARC
  5
39A9
102
{ACAD_REACTORS
330
39C8
102
}
330
2
100
AcDbEntity
  8
KIJUN
100
AcDbCircle
 10
216.7161636003641
 20
122.0150604422686
 30
0.0
 40
4.571596750816575
100
AcDbArc
 50
311.5481173366639
 51
62.54545927801759
  0
ARC
  5
39AA
102
{ACAD_REACTORS
330
39C8
102
}
330
2
100
AcDbEntity
  8
KIJUN
100
AcDbCircle
 10
213.3256027345108
 20
113.056311493066
 30
0.0
 40
14.1291777672649
100
AcDbArc
 50
67.09881205484506
 51
163.8858874504533
  0
ARC
  5
39AB
102
{ACAD_REACTORS
330
39C8
102
}
330
2
100
AcDbEntity
  8
KIJUN
100
AcDbCircle
 10
228.4475754734909
 20
108.9435120469357
 30
0.0
 40
29.79954807872774
100
AcDbArc
 50
164.3587097354486
 51
232.8296833478673
  0
ARC
  5
39AC
102
{ACAD_REACTORS
330
39C8
102
}
330
2
100
AcDbEntity
  8
KIJUN
100
AcDbCircle
 10
216.8562765292904
 20
80.96800917765028
 30
0.0
 40
1.912695878953035
100
AcDbArc
 50
57.26950067076458
 51
259.4456780578509
  0
ARC
  5
39AD
102
{ACAD_REACTORS
330
39C8
102
}
330
2
100
AcDbEntity
  8
KIJUN
100
AcDbCircle
 10
227.8012286476871
 20
126.0537181200265
 30
0.0
 40
48.30520800540234
100
AcDbArc
 50
256.4772256581822
 51
270.5298244396964
  0
ARC
  5
39AE
102
{ACAD_REACTORS
330
39C8
102
}
330
2
100
AcDbEntity
  8
KIJUN
100
AcDbCircle
 10
237.1612784691243
 20
74.10314553853533
 30
0.0
 40
1.519330747827628
100
AcDbArc
 50
113.835385883738
 51
264.2530759536971
  0
ARC
  5
39AF
102
{ACAD_REACTORS
330
39C8
102
}
330
2
100
AcDbEntity
  8
KIJUN
100
AcDbCircle
 10
237.5407383183892
 20
96.7109394866434
 30
0.0
 40
24.12534591768587
100
AcDbArc
 50
268.7373960020452
 51
320.1698554525891
  0
ARC
  5
39B0
102
{ACAD_REACTORS
330
39C8
102
}
330
2
100
AcDbEntity
  8
KIJUN
100
AcDbCircle
 10
139.8700184036445
 20
101.8779414217795
 30
0.0
 40
10.02781237071186
100
AcDbArc
 50
87.91414202925912
 51
154.2430816094797
  0
ARC
  5
39B1
102
{ACAD_REACTORS
330
39C8
102
}
330
2
100
AcDbEntity
  8
KIJUN
100
AcDbCircle
 10
127.411375394235
 20
58.46490495389469
 30
0.0
 40
54.9514293500548
100
AcDbArc
 50
42.14011678877232
 51
76.50485810639171
  0
ARC
  5
39B2
102
{ACAD_REACTORS
330
39C8
102
}
330
2
100
AcDbEntity
  8
KIJUN
100
AcDbCircle
 10
181.8981844961888
 20
106.6233797761104
 30
0.0
 40
13.96933075119317
100
AcDbArc
 50
152.4632683411142
 51
215.6859987885588
  0
ARC
  5
39B3
102
{ACAD_REACTORS
330
39C8
102
}
330
2
100
AcDbEntity
  8
KIJUN
100
AcDbCircle
 10
203.0701415687062
 20
112.0139808941909
 30
0.0
 40
33.57574633394933
100
AcDbArc
 50
178.1777695958792
 51
200.8237823271456
  0
ARC
  5
39B4
102
{ACAD_REACTORS
330
39C8
102
}
330
2
100
AcDbEntity
  8
KIJUN
100
AcDbCircle
 10
215.1520780139295
 20
120.8885955287201
 30
0.0
 40
48.65222908738323
100
AcDbArc
 50
216.3116575771885
 51
251.6066372483049
  0
ARC
  5
39B5
102
{ACAD_REACTORS
330
39C8
102
}
330
2
100
AcDbEntity
  8
KIJUN
100
AcDbCircle
 10
182.6489109457589
 20
103.8513325207726
 30
0.0
 40
7.84749003564186
100
AcDbArc
 50
141.3587700198533
 51
177.1062591639304
  0
ARC
  5
39B6
102
{ACAD_REACTORS
330
39C8
102
}
330
2
100
AcDbEntity
  8
KIJUN
100
AcDbCircle
 10
214.917442098573
 20
101.8544102269731
 30
0.0
 40
40.17734823455196
100
AcDbArc
 50
176.5852556265382
 51
194.0834553477219
  0
ARC
  5
39B7
102
{ACAD_REACTORS
330
39C8
102
}
330
2
100
AcDbEntity
  8
KIJUN
100
AcDbCircle
 10
126.1588960948027
 20
101.5057301828041
 30
0.0
 40
29.85897497216924
100
AcDbArc
 50
60.73248255528817
 51
99.39257089053734
  0
ARC
  5
39B8
102
{ACAD_REACTORS
330
39C8
102
}
330
2
100
AcDbEntity
  8
KIJUN
100
AcDbCircle
 10
123.9266680978919
 20
112.2200527564644
 30
0.0
 40
18.92943953341173
100
AcDbArc
 50
98.01904088798256
 51
159.3061339277269
  0
ARC
  5
39B9
102
{ACAD_REACTORS
330
39C8
102
}
330
2
100
AcDbEntity
  8
KIJUN
100
AcDbCircle
 10
117.4084106825382
 20
114.723074544846
 30
0.0
 40
11.94728424281865
100
AcDbArc
 50
159.4890632983671
 51
255.4336889504427
  0
ARC
  5
39BA
102
{ACAD_REACTORS
330
39C8
102
}
330
2
100
AcDbEntity
  8
KIJUN
100
AcDbCircle
 10
84.97928982175954
 20
20.88758202022032
 30
0.0
 40
120.3687706348105
100
AcDbArc
 50
48.09507441073503
 51
53.32613874428343
  0
ARC
  5
39BB
102
{ACAD_REACTORS
330
39C8
102
}
330
2
100
AcDbEntity
  8
KIJUN
100
AcDbCircle
 10
84.97928982175954
 20
20.88758202022032
 30
0.0
 40
120.3687706348105
100
AcDbArc
 50
55.01329411358053
 51
62.39413130347166
  0
ARC
  5
39BC
102
{ACAD_REACTORS
330
39C8
102
}
330
2
100
AcDbEntity
  8
KIJUN
100
AcDbCircle
 10
157.4261579375738
 20
121.369166490557
 30
0.0
 40
3.903532604287936
100
AcDbArc
 50
159.5617848250173
 51
242.4702903376691
  0
ARC
  5
39BD
102
{ACAD_REACTORS
330
39C8
102
}
330
2
100
AcDbEntity
  8
KIJUN
100
AcDbCircle
 10
157.6729205857194
 20
121.3915820556086
 30
0.0
 40
4.042843904740274
100
AcDbArc
 50
239.5146344382709
 51
62.10490215343758
  0
ARC
  5
39BE
102
{ACAD_REACTORS
330
39C8
102
}
330
2
100
AcDbEntity
  8
KIJUN
100
AcDbCircle
 10
165.6597950816256
 20
116.9110637453842
 30
0.0
 40
13.2398173849913
100
AcDbArc
 50
43.60122191938251
 51
153.9169093138742
  0
ARC
  5
39BF
102
{ACAD_REACTORS
330
39C8
102
}
330
2
100
AcDbEntity
  8
KIJUN
100
AcDbCircle
 10
109.4220932684212
 20
61.59634795136312
 30
0.0
 40
92.12051178123246
100
AcDbArc
 50
28.9722092817513
 51
44.3930467471892
  0
ARC
  5
39C0
102
{ACAD_REACTORS
330
39C8
102
}
330
2
100
AcDbEntity
  8
KIJUN
100
AcDbCircle
 10
462.4706768812766
 20
431.9670764477137
 30
0.0
 40
436.6793843881829
100
AcDbArc
 50
229.2097481102559
 51
232.5024045857506
  0
ARC
  5
39C1
102
{ACAD_REACTORS
330
39C8
102
}
330
2
100
AcDbEntity
  8
KIJUN
100
AcDbCircle
 10
162.9716043944283
 20
111.1309340778362
 30
0.0
 40
24.44590815399682
100
AcDbArc
 50
23.87649752221099
 51
46.20729141746596
  0
ARC
  5
39C2
102
{ACAD_REACTORS
330
39C8
102
}
330
2
100
AcDbEntity
  8
KIJUN
100
AcDbCircle
 10
178.8748528571327
 20
127.6930598166475
 30
0.0
 40
1.484809531478103
100
AcDbArc
 50
46.89772358403611
 51
117.4353513414188
  0
ARC
  5
39C3
102
{ACAD_REACTORS
330
39C8
102
}
330
2
100
AcDbEntity
  8
KIJUN
100
AcDbCircle
 10
179.5567084009681
 20
114.9399208763393
 30
0.0
 40
16.43376841195832
100
AcDbArc
 50
357.2080628608675
 51
34.36759927855085
  0
ARC
  5
39C4
102
{ACAD_REACTORS
330
39C8
102
}
330
2
100
AcDbEntity
  8
KIJUN
100
AcDbCircle
 10
190.9109216851247
 20
122.6761806088205
 30
0.0
 40
2.694610868145898
100
AcDbArc
 50
34.87141335063367
 51
149.4533276676602
  0
ARC
  5
39C5
102
{ACAD_REACTORS
330
39C8
102
}
330
2
100
AcDbEntity
  8
KIJUN
100
AcDbCircle
 10
227.4790067904177
 20
126.453218114464
 30
0.0
 40
51.24718604976787
100
AcDbArc
 50
233.0195546015947
 51
272.1753439698264
  0
ARC
  5
39C6
102
{ACAD_REACTORS
330
39C8
102
}
330
2
100
AcDbEntity
  8
KIJUN
100
AcDbCircle
 10
156.1181203367184
 20
83.16482017203695
 30
0.0
 40
43.83605138918062
100
AcDbArc
 50
20.79978625984307
 51
34.27394688337953
  0
ARC
  5
39C7
102
{ACAD_REACTORS
330
39C8
102
}
330
2
100
AcDbEntity
  8
KIJUN
100
AcDbCircle
 10
134.5950417077365
 20
103.4257318156711
 30
0.0
 40
4.691129435964703
100
AcDbArc
 50
31.59527968893455
 51
161.1382401690041
  0
ENDSEC
  0
SECTION
  2
OBJECTS
  0
DICTIONARY
  5
1A
330
0
100
AcDbDictionary
281
     1
  3
ACAD_COLOR
350
144
  3
ACAD_GROUP
350
18
  3
ACAD_LAYOUT
350
58
  3
ACAD_MATERIAL
350
143
  3
ACAD_MLINESTYLE
350
19
  3
ACAD_PLOTSETTINGS
350
59
  3
ACAD_PLOTSTYLENAME
350
56
  3
ACAD_TABLESTYLE
350
145
  3
ACDBHEADERROUNDTRIPXREC
350
3A33
  3
AcDbVariableDictionary
350
1D1
  0
DICTIONARY
  5
1B4
330
A
100
AcDbDictionary
280
     1
281
     1
  3
ACAD_LAYERFILTERS
360
382B
  3
ACLYDICTIONARY
360
382A
  0
DICTIONARY
  5
1578
330
2
100
AcDbDictionary
280
     1
281
     1
  3
ACAD_SORTENTS
360
1579
  0
DICTIONARY
  5
144
102
{ACAD_REACTORS
330
1A
102
}
330
1A
100
AcDbDictionary
281
     1
  0
DICTIONARY
  5
18
102
{ACAD_REACTORS
330
1A
102
}
330
1A
100
AcDbDictionary
281
     1
  3
*A1
350
CFC
  3
*A10
350
1682
  3
*A11
350
1827
  3
*A12
350
218C
  3
*A13
350
18ED
  3
*A14
350
19E5
  3
*A15
350
1F8A
  3
*A16
350
2108
  3
*A17
350
370C
  3
*A18
350
374A
  3
*A19
350
2335
  3
*A2
350
2FE9
  3
*A20
350
2862
  3
*A21
350
299B
  3
*A22
350
2C07
  3
*A23
350
2DB5
  3
*A24
350
2E88
  3
*A25
350
2FBC
  3
*A26
350
390C
  3
*A27
350
39C8
  3
*A3
350
312A
  3
*A4
350
15D1
  3
*A5
350
3154
  3
*A6
350
327B
  3
*A7
350
32AA
  3
*A8
350
3650
  3
*A9
350
367C
  0
DICTIONARY
  5
58
102
{ACAD_REACTORS
330
1A
102
}
330
1A
100
AcDbDictionary
281
     1
  3
Model
350
5A
  3
ﾚｲｱｳﾄ1
350
5B
  0
DICTIONARY
  5
143
102
{ACAD_REACTORS
330
1A
102
}
330
1A
100
AcDbDictionary
281
     1
  0
DICTIONARY
  5
19
102
{ACAD_REACTORS
330
1A
102
}
330
1A
100
AcDbDictionary
281
     1
  3
STANDARD
350
1D
  0
DICTIONARY
  5
59
102
{ACAD_REACTORS
330
1A
102
}
330
1A
100
AcDbDictionary
281
     1
  0
ACDBDICTIONARYWDFLT
  5
56
102
{ACAD_REACTORS
330
1A
102
}
330
1A
100
AcDbDictionary
281
     1
  3
Normal
350
57
100
AcDbDictionaryWithDefault
340
57
  0
DICTIONARY
  5
145
102
{ACAD_REACTORS
330
1A
102
}
330
1A
100
AcDbDictionary
281
     1
  3
Standard
350
146
  0
DICTIONARY
  5
3A33
102
{ACAD_REACTORS
330
1A
102
}
330
1A
100
AcDbDictionary
281
     1
  0
DICTIONARY
  5
1D1
102
{ACAD_REACTORS
330
1A
102
}
330
1A
100
AcDbDictionary
281
     1
  3
CTABLESTYLE
350
1D2
  3
DIMASSOC
350
D03
  3
PROJECTNAME
350
D04
  0
DICTIONARY
  5
382B
102
{ACAD_REACTORS
330
1B4
102
}
330
1B4
100
AcDbDictionary
281
     1
  0
DICTIONARY
  5
382A
102
{ACAD_REACTORS
330
1B4
102
}
330
1B4
100
AcDbDictionary
281
     1
1001
ACAD
1000
<All
  0
SORTENTSTABLE
  5
1579
102
{ACAD_REACTORS
330
1578
102
}
330
1578
100
AcDbSortentsTable
330
2
331
380C
  5
380C
331
384B
  5
3812
331
37C3
  5
37C2
331
20
  5
23
331
380F
  5
380F
331
37C6
  5
37C6
331
384E
  5
3811
331
23
  5
35F5
331
37CB
  5
37CB
331
3851
  5
3853
331
3812
  5
3816
331
37CE
  5
37CE
331
3854
  5
3856
331
3815
  5
3818
331
3857
  5
3858
331
3818
  5
381B
331
37D4
  5
37D4
331
3790
  5
3790
331
378E
  5
378E
331
381B
  5
381E
331
37D7
  5
37D7
331
3793
  5
3793
331
385D
  5
3860
331
3862
  5
3863
331
37DA
  5
37DA
331
3796
  5
3797
331
3865
  5
3866
331
37DD
  5
37DD
331
3799
  5
379B
331
3868
  5
3869
331
3821
  5
3824
331
37E0
  5
37E0
331
379C
  5
3796
331
386B
  5
386C
331
3824
  5
3828
331
379F
  5
37A0
331
386E
  5
386F
331
3827
  5
382D
331
37A2
  5
37A3
331
3871
  5
3872
331
37A5
  5
37A9
331
3874
  5
3875
331
382D
  5
3834
331
3877
  5
3877
331
3830
  5
3836
331
35F5
  5
36BF
331
37AD
  5
37AD
331
3833
  5
383A
331
37B0
  5
37B0
331
387D
  5
3881
331
3836
  5
383D
331
3882
  5
3884
331
37B3
  5
37B3
331
3839
  5
3826
331
37FA
  5
37FC
331
3885
  5
3906
331
390B
  5
387D
331
37B6
  5
37B6
331
383C
  5
3842
331
37FD
  5
37FB
331
3800
  5
3800
331
3841
  5
384E
331
383F
  5
384B
331
37BC
  5
37BC
331
3806
  5
3806
331
380B
  5
380B
331
384A
  5
3832
331
380E
  5
380E
331
37C5
  5
37C5
331
37CA
  5
37CA
331
3850
  5
3851
331
3811
  5
3813
331
37CD
  5
37CD
331
3853
  5
3854
331
37D0
  5
37D0
331
3856
  5
3857
331
3817
  5
381A
331
37D3
  5
37D3
331
3859
  5
3859
331
378D
  5
378D
331
381A
  5
381D
331
37D6
  5
37D6
331
3792
  5
3792
331
385C
  5
385D
331
381D
  5
3822
331
3795
  5
3795
331
3861
  5
3862
331
37D9
  5
37DC
331
3798
  5
3799
331
37DC
  5
37D8
331
3867
  5
3868
331
3820
  5
3823
331
37DF
  5
37DF
331
379B
  5
379C
331
379E
  5
379E
331
386A
  5
386B
331
3823
  5
3827
331
37E2
  5
37E2
331
35E8
  5
36B9
331
3826
  5
382C
331
37E5
  5
37E5
331
37A1
  5
37A2
331
3870
  5
3871
331
3829
  5
3831
331
37A4
  5
37A8
331
3873
  5
3874
331
382C
  5
3833
331
37A9
  5
37A6
331
3876
  5
3879
331
382F
  5
3835
331
37AC
  5
37AC
331
3879
  5
387C
331
3832
  5
3839
331
387C
  5
387E
331
3835
  5
383C
331
3907
  5
390B
331
37F9
  5
37F9
331
3881
  5
3815
331
387F
  5
3883
331
3838
  5
383E
331
3884
  5
3886
331
37B5
  5
37B5
331
383B
  5
3841
331
37FC
  5
37FA
331
37FF
  5
37FF
331
37B8
  5
37B8
331
3802
  5
3802
331
37BB
  5
37BA
331
3805
  5
3805
331
380A
  5
380A
331
3849
  5
382F
331
37C1
  5
37C1
331
380D
  5
380D
331
37C4
  5
37C4
331
21
  5
358C
331
1F
  5
21
331
3810
  5
3810
331
384F
  5
3850
331
37CC
  5
37CC
331
3813
  5
3817
331
37CF
  5
37CF
331
3816
  5
3819
331
37D2
  5
37D2
331
378C
  5
378C
331
3858
  5
385B
331
3819
  5
381C
331
37D5
  5
37D5
331
3791
  5
3791
331
378F
  5
378F
331
385B
  5
385C
331
381C
  5
3820
331
3794
  5
3794
331
3860
  5
3861
331
385E
  5
385E
331
37D8
  5
37D9
331
3863
  5
3865
331
3797
  5
3798
331
37DE
  5
37DE
331
3866
  5
3867
331
37E1
  5
37E1
331
3869
  5
386A
331
3822
  5
3825
331
386C
  5
386E
331
3825
  5
3829
331
37E4
  5
37E4
331
37A0
  5
37A1
331
386F
  5
3870
331
3828
  5
3830
331
37A3
  5
37A4
331
3872
  5
3873
331
37A6
  5
379F
331
37A8
  5
37A5
331
3875
  5
3876
331
37AB
  5
37AB
331
3831
  5
3838
331
3834
  5
383B
331
3906
  5
3909
331
387E
  5
3882
331
3883
  5
3885
331
3909
  5
387F
331
37B4
  5
37B4
331
383A
  5
383F
331
37FB
  5
37FD
331
3886
  5
3907
331
37FE
  5
37FE
331
37B7
  5
37B7
331
383D
  5
384A
331
3842
  5
384F
331
3801
  5
3801
331
37BA
  5
37BB
331
3804
  5
3804
331
3809
  5
3809
331
37C0
  5
37C0
  0
GROUP
  5
CFC
102
{ACAD_REACTORS
330
18
102
}
330
18
100
AcDbGroup
300

 70
     1
 71
     1
  0
GROUP
  5
1682
102
{ACAD_REACTORS
330
18
102
}
330
18
100
AcDbGroup
300

 70
     1
 71
     1
  0
GROUP
  5
1827
102
{ACAD_REACTORS
330
18
102
}
330
18
100
AcDbGroup
300

 70
     1
 71
     1
  0
GROUP
  5
218C
102
{ACAD_REACTORS
330
18
102
}
330
18
100
AcDbGroup
300

 70
     1
 71
     1
  0
GROUP
  5
18ED
102
{ACAD_REACTORS
330
18
102
}
330
18
100
AcDbGroup
300

 70
     1
 71
     1
  0
GROUP
  5
19E5
102
{ACAD_REACTORS
330
18
102
}
330
18
100
AcDbGroup
300

 70
     1
 71
     1
  0
GROUP
  5
1F8A
102
{ACAD_REACTORS
330
18
102
}
330
18
100
AcDbGroup
300

 70
     1
 71
     1
  0
GROUP
  5
2108
102
{ACAD_REACTORS
330
18
102
}
330
18
100
AcDbGroup
300

 70
     1
 71
     1
  0
GROUP
  5
370C
102
{ACAD_REACTORS
330
18
102
}
330
18
100
AcDbGroup
300

 70
     1
 71
     1
  0
GROUP
  5
374A
102
{ACAD_REACTORS
330
18
102
}
330
18
100
AcDbGroup
300

 70
     1
 71
     1
  0
GROUP
  5
2335
102
{ACAD_REACTORS
330
18
102
}
330
18
100
AcDbGroup
300

 70
     1
 71
     1
  0
GROUP
  5
2FE9
102
{ACAD_REACTORS
330
18
102
}
330
18
100
AcDbGroup
300

 70
     1
 71
     1
  0
GROUP
  5
2862
102
{ACAD_REACTORS
330
18
102
}
330
18
100
AcDbGroup
300

 70
     1
 71
     1
  0
GROUP
  5
299B
102
{ACAD_REACTORS
330
18
102
}
330
18
100
AcDbGroup
300

 70
     1
 71
     1
  0
GROUP
  5
2C07
102
{ACAD_REACTORS
330
18
102
}
330
18
100
AcDbGroup
300

 70
     1
 71
     1
  0
GROUP
  5
2DB5
102
{ACAD_REACTORS
330
18
102
}
330
18
100
AcDbGroup
300

 70
     1
 71
     1
  0
GROUP
  5
2E88
102
{ACAD_REACTORS
330
18
102
}
330
18
100
AcDbGroup
300

 70
     1
 71
     1
  0
GROUP
  5
2FBC
102
{ACAD_REACTORS
330
18
102
}
330
18
100
AcDbGroup
300

 70
     1
 71
     1
  0
GROUP
  5
390C
102
{ACAD_REACTORS
330
18
102
}
330
18
100
AcDbGroup
300

 70
     1
 71
     1
340
3907
340
3906
340
3886
340
3885
340
3884
340
3883
340
3882
340
387F
340
387E
340
387D
340
3909
340
387C
340
390B
340
3879
340
3876
340
3877
340
3875
340
3874
340
3873
340
3872
340
3871
340
3870
340
386F
340
386E
340
386C
340
386B
340
386A
340
3869
340
3868
340
3867
340
3866
340
3865
340
3863
340
3862
340
3861
340
3860
340
385D
340
385E
340
385C
340
385B
340
3858
340
3859
340
3857
340
3856
340
3854
340
3853
340
3851
340
3850
340
384F
340
3842
340
3841
340
383F
340
383D
340
383C
340
383B
340
383A
340
3838
340
3836
340
3835
340
3834
340
3833
340
3832
340
3831
340
3830
340
382F
340
382D
340
382C
340
384A
340
3829
340
3828
340
3849
340
3827
340
3826
340
3825
340
3824
340
3823
340
3839
340
3822
340
3821
340
3820
340
381D
340
381C
340
381B
340
381A
340
3819
340
3818
340
3817
340
3816
340
3815
340
3813
340
3812
340
3881
340
3811
340
384B
340
384E
340
3810
340
380F
340
380E
340
380D
340
380C
340
380B
340
380A
340
3809
340
3806
340
3805
340
3804
340
3802
340
3801
340
3800
340
37FF
340
37FE
340
37FB
340
37FA
340
37FD
340
37FC
340
37F9
340
37E5
340
37E4
340
37E2
340
37E1
340
37E0
340
37DF
340
37DE
340
37DD
340
37D9
340
37DA
340
37D8
340
37DC
340
37D7
340
37D6
340
37D5
340
37D4
340
37D3
340
37D2
340
37D0
340
37CF
340
37CE
340
37CD
340
37CC
340
37CB
340
37CA
340
37C6
340
37C5
340
37C4
340
37C3
340
37C1
340
37C0
340
37BC
340
37BA
340
37BB
340
37B8
340
37B7
340
37B6
340
37B5
340
37B4
340
37B3
340
37B0
340
37AD
340
37AC
340
37AB
340
37A5
340
37A4
340
37A9
340
37A8
340
37A3
340
37A2
340
37A1
340
37A0
340
379F
340
37A6
340
379E
340
379B
340
3799
340
3798
340
3797
340
3796
340
379C
340
3795
340
3794
340
3793
340
3792
340
3791
340
3790
340
378F
340
378E
340
378D
340
378C
  0
GROUP
  5
39C8
102
{ACAD_REACTORS
330
18
102
}
330
18
100
AcDbGroup
300

 70
     1
 71
     1
340
39C7
340
39C6
340
39C5
340
39C4
340
39C3
340
39C2
340
39C1
340
39C0
340
39BF
340
39BE
340
39BD
340
39BC
340
39BB
340
39BA
340
39B9
340
39B8
340
39B7
340
39B6
340
39B5
340
39B4
340
39B3
340
39B2
340
39B1
340
39B0
340
39AF
340
39AE
340
39AD
340
39AC
340
39AB
340
39AA
340
39A9
340
39A8
340
39A7
340
39A6
340
39A5
340
39A4
340
39A3
340
39A2
340
39A1
340
39A0
340
399F
340
399E
340
399D
340
399C
340
399B
340
399A
340
3999
340
3998
340
3997
340
3996
340
3995
340
3994
340
3993
340
3992
340
3991
340
3990
340
398F
340
398E
340
398D
340
398C
340
398B
340
398A
340
3989
340
3988
340
3987
340
3986
340
3985
340
3984
340
3983
340
3982
340
3981
340
3980
340
397F
340
397E
340
397D
340
397C
340
397B
340
397A
340
3979
340
3978
340
3977
340
3976
340
3975
340
3974
340
3973
340
3972
340
3971
340
3970
340
396F
340
396E
340
396D
340
396C
340
396B
340
396A
340
3969
340
3968
340
3967
340
3966
340
3965
340
3964
340
3963
340
3962
340
3961
340
3960
340
395F
340
395E
340
395D
340
395C
340
395B
340
395A
340
3959
340
3958
340
3957
340
3956
340
3955
340
3954
340
3953
340
3952
340
3951
340
3950
340
394F
340
394E
340
394D
340
394C
340
394B
340
394A
340
3949
340
3948
340
3947
340
3946
340
3945
340
3944
340
3943
340
3942
340
3941
340
3940
340
393F
340
393E
340
393D
340
393C
340
393B
340
393A
340
3939
340
3938
340
3937
340
3936
340
3935
340
3934
340
3933
340
3932
340
3931
340
3930
340
392F
340
392E
340
392D
340
392C
340
392B
340
392A
340
3929
340
3928
340
3927
340
3926
340
3925
340
3924
340
3923
340
3922
340
3921
340
3920
340
391F
340
391E
340
391D
340
391C
340
391B
340
391A
340
3919
340
3918
340
3917
340
3916
340
3915
340
3914
340
3913
340
3912
340
3911
340
3910
340
390F
340
390E
340
390D
  0
GROUP
  5
312A
102
{ACAD_REACTORS
330
18
102
}
330
18
100
AcDbGroup
300

 70
     1
 71
     1
  0
GROUP
  5
15D1
102
{ACAD_REACTORS
330
18
102
}
330
18
100
AcDbGroup
300

 70
     1
 71
     1
  0
GROUP
  5
3154
102
{ACAD_REACTORS
330
18
102
}
330
18
100
AcDbGroup
300

 70
     1
 71
     1
  0
GROUP
  5
327B
102
{ACAD_REACTORS
330
18
102
}
330
18
100
AcDbGroup
300

 70
     1
 71
     1
  0
GROUP
  5
32AA
102
{ACAD_REACTORS
330
18
102
}
330
18
100
AcDbGroup
300

 70
     1
 71
     1
  0
GROUP
  5
3650
102
{ACAD_REACTORS
330
18
102
}
330
18
100
AcDbGroup
300

 70
     1
 71
     1
  0
GROUP
  5
367C
102
{ACAD_REACTORS
330
18
102
}
330
18
100
AcDbGroup
300

 70
     1
 71
     1
  0
LAYOUT
  5
5A
102
{ACAD_XDICTIONARY
360
3A34
102
}
102
{ACAD_REACTORS
330
58
102
}
330
58
100
AcDbPlotSettings
  1

  2
なし
  4

  6

 40
0.0
 41
0.0
 42
0.0
 43
0.0
 44
0.0
 45
0.0
 46
0.0
 47
0.0
 48
0.0
 49
0.0
140
0.0
141
0.0
142
1.0
143
1.0
 70
  1712
 72
     0
 73
     0
 74
     0
  7
monochrome.ctb
 75
     0
147
1.0
148
0.0
149
0.0
100
AcDbLayout
  1
Model
 70
     1
 71
     0
 10
0.0
 20
0.0
 11
12.0
 21
9.0
 12
0.0
 22
0.0
 32
0.0
 14
0.0
 24
0.0
 34
0.0
 15
0.0
 25
0.0
 35
0.0
146
0.0
 13
0.0
 23
0.0
 33
0.0
 16
1.0
 26
0.0
 36
0.0
 17
0.0
 27
1.0
 37
0.0
 76
     0
330
2
  0
LAYOUT
  5
5B
102
{ACAD_XDICTIONARY
360
3A36
102
}
102
{ACAD_REACTORS
330
58
102
}
330
58
100
AcDbPlotSettings
  1

  2
なし
  4

  6

 40
0.0
 41
0.0
 42
0.0
 43
0.0
 44
0.0
 45
0.0
 46
0.0
 47
0.0
 48
0.0
 49
0.0
140
0.0
141
0.0
142
1.0
143
1.0
 70
   688
 72
     0
 73
     0
 74
     5
  7
monochrome.ctb
 75
    16
147
1.0
148
0.0
149
0.0
100
AcDbLayout
  1
ﾚｲｱｳﾄ1
 70
     1
 71
     1
 10
0.0
 20
0.0
 11
12.0
 21
9.0
 12
0.0
 22
0.0
 32
0.0
 14
1.000000000000000E+20
 24
1.000000000000000E+20
 34
1.000000000000000E+20
 15
-1.000000000000000E+20
 25
-1.000000000000000E+20
 35
-1.000000000000000E+20
146
0.0
 13
0.0
 23
0.0
 33
0.0
 16
1.0
 26
0.0
 36
0.0
 17
0.0
 27
1.0
 37
0.0
 76
     0
330
7
  0
MLINESTYLE
  5
1D
102
{ACAD_REACTORS
330
19
102
}
330
19
100
AcDbMlineStyle
  2
STANDARD
 70
     0
  3

 62
   256
 51
90.0
 52
90.0
 71
     2
 49
0.5
 62
   256
  6
BYLAYER
 49
-0.5
 62
   256
  6
BYLAYER
  0
ACDBPLACEHOLDER
  5
57
102
{ACAD_REACTORS
330
56
102
}
330
56
  0
TABLESTYLE
  5
146
102
{ACAD_REACTORS
330
145
102
}
330
145
100
AcDbTableStyle
  3
Standard
 70
     0
 71
     0
 40
0.06
 41
0.06
280
     0
281
     0
  7
STANDARD
140
0.18
170
     2
 62
     0
 63
     7
283
     0
274
    -2
284
     1
 64
     0
275
    -2
285
     1
 65
     0
276
    -2
286
     1
 66
     0
277
    -2
287
     1
 67
     0
278
    -2
288
     1
 68
     0
279
    -2
289
     1
 69
     0
  7
STANDARD
140
0.25
170
     5
 62
     0
 63
     7
283
     0
274
    -2
284
     1
 64
     0
275
    -2
285
     1
 65
     0
276
    -2
286
     1
 66
     0
277
    -2
287
     1
 67
     0
278
    -2
288
     1
 68
     0
279
    -2
289
     1
 69
     0
  7
STANDARD
140
0.18
170
     5
 62
     0
 63
     7
283
     0
274
    -2
284
     1
 64
     0
275
    -2
285
     1
 65
     0
276
    -2
286
     1
 66
     0
277
    -2
287
     1
 67
     0
278
    -2
288
     1
 68
     0
279
    -2
289
     1
 69
     0
  0
DICTIONARYVAR
  5
1D2
102
{ACAD_REACTORS
330
1D1
102
}
330
1D1
100
DictionaryVariables
280
     0
  1
STANDARD
  0
DICTIONARYVAR
  5
D03
102
{ACAD_REACTORS
330
1D1
102
}
330
1D1
100
DictionaryVariables
280
     0
  1
1
  0
DICTIONARYVAR
  5
D04
102
{ACAD_REACTORS
330
1D1
102
}
330
1D1
100
DictionaryVariables
280
     0
  1

  0
DICTIONARY
  5
3A34
330
5A
100
AcDbDictionary
280
     1
281
     1
  3
ACAD_XREC_ROUNDTRIP
360
3A35
  0
DICTIONARY
  5
3A36
330
5B
100
AcDbDictionary
280
     1
281
     1
  3
ACAD_XREC_ROUNDTRIP
360
3A37
  0
XRECORD
  5
3A35
102
{ACAD_REACTORS
330
3A34
102
}
330
3A34
100
AcDbXrecord
280
     1
102
SHADEPLOT
 70
     0
102
SHADEPLOTRESLEVEL
 70
     2
102
SHADEPLOTCUSTOMDPI
 70
   300
  0
XRECORD
  5
3A37
102
{ACAD_REACTORS
330
3A36
102
}
330
3A36
100
AcDbXrecord
280
     1
102
SHADEPLOT
 70
     0
102
SHADEPLOTRESLEVEL
 70
     2
102
SHADEPLOTCUSTOMDPI
 70
   300
  0
ENDSEC
  0
EOF
