  0
SECTION
  2
HEADER
  9
$ACADVER
  1
AC1015
  9
$ACADMAINTVER
 70
    20
  9
$DWGCODEPAGE
  3
ANSI_932
  9
$INSBASE
 10
922.019522
 20
-675.4306699999999
 30
0.0
  9
$EXTMIN
 10
-29.18689749905161
 20
-0.0090630292066862
 30
-0.0015258207003583
  9
$EXTMAX
 10
147.9166207775429
 20
189.3320623337431
 30
0.0000000349246037
  9
$LIMMIN
 10
0.0
 20
0.0
  9
$LIMMAX
 10
420.0
 20
297.0
  9
$ORTHOMODE
 70
     1
  9
$REGENMODE
 70
     1
  9
$FILLMODE
 70
     1
  9
$QTEXTMODE
 70
     0
  9
$MIRRTEXT
 70
     1
  9
$LTSCALE
 40
1.0
  9
$ATTMODE
 70
     1
  9
$TEXTSIZE
 40
30.0
  9
$TRACEWID
 40
0.05
  9
$TEXTSTYLE
  7
SUNPOU
  9
$CLAYER
  8
0
  9
$CELTYPE
  6
BYLAYER
  9
$CECOLOR
 62
   256
  9
$CELTSCALE
 40
1.0
  9
$DISPSILH
 70
     0
  9
$DIMSCALE
 40
1.0
  9
$DIMASZ
 40
2.0
  9
$DIMEXO
 40
10.0
  9
$DIMDLI
 40
0.38
  9
$DIMRND
 40
0.0
  9
$DIMDLE
 40
0.0
  9
$DIMEXE
 40
0.0
  9
$DIMTP
 40
0.0
  9
$DIMTM
 40
0.0
  9
$DIMTXT
 40
10.0
  9
$DIMCEN
 40
0.0
  9
$DIMTSZ
 40
0.0
  9
$DIMTOL
 70
     0
  9
$DIMLIM
 70
     0
  9
$DIMTIH
 70
     0
  9
$DIMTOH
 70
     0
  9
$DIMSE1
 70
     0
  9
$DIMSE2
 70
     0
  9
$DIMTAD
 70
     1
  9
$DIMZIN
 70
     0
  9
$DIMBLK
  1
Dot
  9
$DIMASO
 70
     1
  9
$DIMSHO
 70
     1
  9
$DIMPOST
  1

  9
$DIMAPOST
  1

  9
$DIMALT
 70
     0
  9
$DIMALTD
 70
     2
  9
$DIMALTF
 40
25.4
  9
$DIMLFAC
 40
1.0
  9
$DIMTOFL
 70
     0
  9
$DIMTVP
 40
0.0
  9
$DIMTIX
 70
     0
  9
$DIMSOXD
 70
     0
  9
$DIMSAH
 70
     0
  9
$DIMBLK1
  1

  9
$DIMBLK2
  1

  9
$DIMSTYLE
  2
STANDARD
  9
$DIMCLRD
 70
    60
  9
$DIMCLRE
 70
    70
  9
$DIMCLRT
 70
    60
  9
$DIMTFAC
 40
0.064286
  9
$DIMGAP
 40
3.0
  9
$DIMJUST
 70
     0
  9
$DIMSD1
 70
     0
  9
$DIMSD2
 70
     0
  9
$DIMTOLJ
 70
     1
  9
$DIMTZIN
 70
     0
  9
$DIMALTZ
 70
     0
  9
$DIMALTTZ
 70
     0
  9
$DIMUPT
 70
     0
  9
$DIMDEC
 70
     0
  9
$DIMTDEC
 70
     0
  9
$DIMALTU
 70
     2
  9
$DIMALTTD
 70
     2
  9
$DIMTXSTY
  7
SUNPOU
  9
$DIMAUNIT
 70
     0
  9
$DIMADEC
 70
     0
  9
$DIMALTRND
 40
0.0
  9
$DIMAZIN
 70
     0
  9
$DIMDSEP
 70
    46
  9
$DIMATFIT
 70
     3
  9
$DIMFRAC
 70
     0
  9
$DIMLDRBLK
  1

  9
$DIMLUNIT
 70
     2
  9
$DIMLWD
 70
    -2
  9
$DIMLWE
 70
    -2
  9
$DIMTMOVE
 70
     0
  9
$LUNITS
 70
     2
  9
$LUPREC
 70
     5
  9
$SKETCHINC
 40
0.1
  9
$FILLETRAD
 40
0.0
  9
$AUNITS
 70
     0
  9
$AUPREC
 70
     0
  9
$MENU
  1
acad
  9
$ELEVATION
 40
0.0
  9
$PELEVATION
 40
0.0
  9
$THICKNESS
 40
0.0
  9
$LIMCHECK
 70
     0
  9
$CHAMFERA
 40
0.0
  9
$CHAMFERB
 40
0.0
  9
$CHAMFERC
 40
0.0
  9
$CHAMFERD
 40
0.0
  9
$SKPOLY
 70
     0
  9
$TDCREATE
 40
2450623.654673033
  9
$TDUCREATE
 40
2450623.279673032
  9
$TDUPDATE
 40
2453944.439920706
  9
$TDUUPDATE
 40
2453944.064920706
  9
$TDINDWG
 40
0.6418800463
  9
$TDUSRTIMER
 40
0.6418798727
  9
$USRTIMER
 70
     1
  9
$ANGBASE
 50
0.0
  9
$ANGDIR
 70
     0
  9
$PDMODE
 70
     0
  9
$PDSIZE
 40
0.0
  9
$PLINEWID
 40
0.0
  9
$SPLFRAME
 70
     0
  9
$SPLINETYPE
 70
     6
  9
$SPLINESEGS
 70
     8
  9
$HANDSEED
  5
3B8D
  9
$SURFTAB1
 70
     6
  9
$SURFTAB2
 70
     6
  9
$SURFTYPE
 70
     6
  9
$SURFU
 70
     6
  9
$SURFV
 70
     6
  9
$UCSBASE
  2

  9
$UCSNAME
  2

  9
$UCSORG
 10
0.0
 20
0.0
 30
0.0
  9
$UCSXDIR
 10
1.0
 20
0.0
 30
0.0
  9
$UCSYDIR
 10
0.0
 20
1.0
 30
0.0
  9
$UCSORTHOREF
  2

  9
$UCSORTHOVIEW
 70
     0
  9
$UCSORGTOP
 10
0.0
 20
0.0
 30
0.0
  9
$UCSORGBOTTOM
 10
0.0
 20
0.0
 30
0.0
  9
$UCSORGLEFT
 10
0.0
 20
0.0
 30
0.0
  9
$UCSORGRIGHT
 10
0.0
 20
0.0
 30
0.0
  9
$UCSORGFRONT
 10
0.0
 20
0.0
 30
0.0
  9
$UCSORGBACK
 10
0.0
 20
0.0
 30
0.0
  9
$PUCSBASE
  2

  9
$PUCSNAME
  2

  9
$PUCSORG
 10
0.0
 20
0.0
 30
0.0
  9
$PUCSXDIR
 10
1.0
 20
0.0
 30
0.0
  9
$PUCSYDIR
 10
0.0
 20
1.0
 30
0.0
  9
$PUCSORTHOREF
  2

  9
$PUCSORTHOVIEW
 70
     0
  9
$PUCSORGTOP
 10
0.0
 20
0.0
 30
0.0
  9
$PUCSORGBOTTOM
 10
0.0
 20
0.0
 30
0.0
  9
$PUCSORGLEFT
 10
0.0
 20
0.0
 30
0.0
  9
$PUCSORGRIGHT
 10
0.0
 20
0.0
 30
0.0
  9
$PUCSORGFRONT
 10
0.0
 20
0.0
 30
0.0
  9
$PUCSORGBACK
 10
0.0
 20
0.0
 30
0.0
  9
$USERI1
 70
     0
  9
$USERI2
 70
     0
  9
$USERI3
 70
     0
  9
$USERI4
 70
     0
  9
$USERI5
 70
     0
  9
$USERR1
 40
0.0
  9
$USERR2
 40
0.0
  9
$USERR3
 40
0.0
  9
$USERR4
 40
0.0
  9
$USERR5
 40
0.0
  9
$WORLDVIEW
 70
     1
  9
$SHADEDGE
 70
     3
  9
$SHADEDIF
 70
    70
  9
$TILEMODE
 70
     1
  9
$MAXACTVP
 70
    16
  9
$PINSBASE
 10
0.0
 20
0.0
 30
0.0
  9
$PLIMCHECK
 70
     0
  9
$PEXTMIN
 10
1.000000000000000E+20
 20
1.000000000000000E+20
 30
1.000000000000000E+20
  9
$PEXTMAX
 10
-1.000000000000000E+20
 20
-1.000000000000000E+20
 30
-1.000000000000000E+20
  9
$PLIMMIN
 10
0.0
 20
0.0
  9
$PLIMMAX
 10
12.0
 20
9.0
  9
$UNITMODE
 70
     0
  9
$VISRETAIN
 70
     0
  9
$PLINEGEN
 70
     0
  9
$PSLTSCALE
 70
     1
  9
$TREEDEPTH
 70
  3020
  9
$CMLSTYLE
  2
STANDARD
  9
$CMLJUST
 70
     0
  9
$CMLSCALE
 40
1.0
  9
$PROXYGRAPHICS
 70
     1
  9
$MEASUREMENT
 70
     0
  9
$CELWEIGHT
370
    -1
  9
$ENDCAPS
280
     0
  9
$JOINSTYLE
280
     0
  9
$LWDISPLAY
290
     0
  9
$INSUNITS
 70
     0
  9
$HYPERLINKBASE
  1

  9
$STYLESHEET
  1

  9
$XEDIT
290
     1
  9
$CEPSNTYPE
380
     0
  9
$PSTYLEMODE
290
     1
  9
$FINGERPRINTGUID
  2
{FB88A696-E29C-4009-92AF-A3599A8169D5}
  9
$VERSIONGUID
  2
{2896FBBB-304B-48E2-A596-7EFC14D006CC}
  9
$EXTNAMES
290
     1
  9
$PSVPSCALE
 40
0.0
  9
$OLESTARTUP
290
     0
  0
ENDSEC
  0
SECTION
  2
CLASSES
  0
CLASS
  1
DICTIONARYVAR
  2
AcDbDictionaryVar
  3
ObjectDBX Classes
 90
        0
280
     0
281
     0
  0
CLASS
  1
ACDBDICTIONARYWDFLT
  2
AcDbDictionaryWithDefault
  3
ObjectDBX Classes
 90
        0
280
     0
281
     0
  0
CLASS
  1
ACDBPLACEHOLDER
  2
AcDbPlaceHolder
  3
ObjectDBX Classes
 90
        0
280
     0
281
     0
  0
CLASS
  1
LAYOUT
  2
AcDbLayout
  3
ObjectDBX Classes
 90
        0
280
     0
281
     0
  0
CLASS
  1
TABLESTYLE
  2
AcDbTableStyle
  3
ObjectDBX Classes
 90
     2047
280
     0
281
     0
  0
CLASS
  1
SORTENTSTABLE
  2
AcDbSortentsTable
  3
ObjectDBX Classes
 90
        0
280
     0
281
     0
  0
ENDSEC
  0
SECTION
  2
TABLES
  0
TABLE
  2
VPORT
  5
12
330
0
100
AcDbSymbolTable
 70
    13
  0
VPORT
  5
3B87
330
12
100
AcDbSymbolTableRecord
100
AcDbViewportTableRecord
  2
*Active
 70
     0
 10
0.0
 20
0.0
 11
1.0
 21
1.0
 12
59.36486163924565
 22
94.66149965226822
 13
0.0
 23
0.0
 14
1.0
 24
1.0
 15
0.0
 25
0.0
 16
0.0
 26
0.0
 36
1.0
 17
0.0
 27
0.0
 37
0.0
 40
190.812688513439
 41
1.581063553826199
 42
50.0
 43
0.0
 44
0.0
 50
0.0
 51
0.0
 71
     0
 72
 20000
 73
     1
 74
     1
 75
     0
 76
     0
 77
     0
 78
     0
281
     0
 65
     1
110
0.0
120
0.0
130
0.0
111
1.0
121
0.0
131
0.0
112
0.0
122
1.0
132
0.0
 79
     0
146
0.0
  0
ENDTAB
  0
TABLE
  2
LTYPE
  5
D
330
0
100
AcDbSymbolTable
 70
     2
  0
LTYPE
  5
E
330
D
100
AcDbSymbolTableRecord
100
AcDbLinetypeTableRecord
  2
BYBLOCK
 70
     0
  3

 72
    65
 73
     0
 40
0.0
  0
LTYPE
  5
F
330
D
100
AcDbSymbolTableRecord
100
AcDbLinetypeTableRecord
  2
BYLAYER
 70
     0
  3

 72
    65
 73
     0
 40
0.0
  0
LTYPE
  5
5
330
D
100
AcDbSymbolTableRecord
100
AcDbLinetypeTableRecord
  2
CONTINUOUS
 70
     0
  3
Solid line
 72
    65
 73
     0
 40
0.0
  0
ENDTAB
  0
TABLE
  2
LAYER
  5
A
102
{ACAD_XDICTIONARY
360
1B4
102
}
330
0
100
AcDbSymbolTable
 70
     6
  0
LAYER
  5
4
330
A
100
AcDbSymbolTableRecord
100
AcDbLayerTableRecord
  2
0
 70
     0
 62
     7
  6
CONTINUOUS
370
    -3
390
57
  0
LAYER
  5
25
330
A
100
AcDbSymbolTableRecord
100
AcDbLayerTableRecord
  2
KIJUN
 70
     0
 62
     7
  6
CONTINUOUS
370
    -3
390
57
  0
LAYER
  5
22
330
A
100
AcDbSymbolTableRecord
100
AcDbLayerTableRecord
  2
HOJO
 70
     0
 62
     3
  6
CONTINUOUS
370
    -3
390
57
  0
LAYER
  5
1B
330
A
100
AcDbSymbolTableRecord
100
AcDbLayerTableRecord
  2
WAKU
 70
     0
 62
     1
  6
CONTINUOUS
370
    -3
390
57
  0
LAYER
  5
31
330
A
100
AcDbSymbolTableRecord
100
AcDbLayerTableRecord
  2
DEFPOINTS
 70
     0
 62
     7
  6
CONTINUOUS
290
     0
370
    -3
390
57
  0
LAYER
  5
28
330
A
100
AcDbSymbolTableRecord
100
AcDbLayerTableRecord
  2
SUNPOU
 70
     0
 62
    70
  6
CONTINUOUS
370
    -3
390
57
  0
ENDTAB
  0
TABLE
  2
STYLE
  5
B
330
0
100
AcDbSymbolTable
 70
     2
  0
STYLE
  5
C
330
B
100
AcDbSymbolTableRecord
100
AcDbTextStyleTableRecord
  2
STANDARD
 70
     0
 40
0.0
 41
1.0
 50
0.0
 71
     0
 42
0.2
  3
txt
  4

  0
STYLE
  5
1C
330
B
100
AcDbSymbolTableRecord
100
AcDbTextStyleTableRecord
  2
SUNPOU
 70
     0
 40
0.0
 41
1.0
 50
0.0
 71
     0
 42
30.0
  3
txt
  4
bigfont
  0
ENDTAB
  0
TABLE
  2
VIEW
  5
10
330
0
100
AcDbSymbolTable
 70
     0
  0
ENDTAB
  0
TABLE
  2
UCS
  5
11
330
0
100
AcDbSymbolTable
 70
     0
  0
ENDTAB
  0
TABLE
  2
APPID
  5
14
330
0
100
AcDbSymbolTable
 70
    10
  0
APPID
  5
15
330
14
100
AcDbSymbolTableRecord
100
AcDbRegAppTableRecord
  2
ACAD
 70
     0
  0
APPID
  5
1D3
330
14
100
AcDbSymbolTableRecord
100
AcDbRegAppTableRecord
  2
ACAD_DSTYLE_DIMTEXT_FILL
 70
     0
  0
APPID
  5
1D4
330
14
100
AcDbSymbolTableRecord
100
AcDbRegAppTableRecord
  2
ACAD_DSTYLE_DIMEXT_LENGTH
 70
     0
  0
APPID
  5
1D5
330
14
100
AcDbSymbolTableRecord
100
AcDbRegAppTableRecord
  2
ACAD_DSTYLE_DIMEXT_ENABLED
 70
     0
  0
APPID
  5
1D6
330
14
100
AcDbSymbolTableRecord
100
AcDbRegAppTableRecord
  2
ACAD_DSTYLE_DIM_LINETYPE
 70
     0
  0
APPID
  5
1D7
330
14
100
AcDbSymbolTableRecord
100
AcDbRegAppTableRecord
  2
ACAD_DSTYLE_DIM_EXT1_LINETYPE
 70
     0
  0
APPID
  5
1D8
330
14
100
AcDbSymbolTableRecord
100
AcDbRegAppTableRecord
  2
ACAD_DSTYLE_DIM_EXT2_LINETYPE
 70
     0
  0
APPID
  5
294
330
14
100
AcDbSymbolTableRecord
100
AcDbRegAppTableRecord
  2
ACAD_DSTYLE_DIMJOGGED_JOGANGLE_SYMBOL
 70
     0
  0
APPID
  5
478
330
14
100
AcDbSymbolTableRecord
100
AcDbRegAppTableRecord
  2
ACAD_DSTYLE_DIMARC_LENGTH_SYMBOL
 70
     0
  0
APPID
  5
157B
330
14
100
AcDbSymbolTableRecord
100
AcDbRegAppTableRecord
  2
ACAD_EXEMPT_FROM_CAD_STANDARDS
 70
     0
  0
ENDTAB
  0
TABLE
  2
DIMSTYLE
  5
16
330
0
100
AcDbSymbolTable
 70
     2
100
AcDbDimStyleTable
 71
     1
340
1E
  0
DIMSTYLE
105
1E
102
{ACAD_REACTORS
330
35E8
330
35F5
102
}
330
16
100
AcDbSymbolTableRecord
100
AcDbDimStyleTableRecord
  2
STANDARD
 70
     0
340
C
  0
ENDTAB
  0
TABLE
  2
BLOCK_RECORD
  5
1
330
0
100
AcDbSymbolTable
 70
     5
  0
BLOCK_RECORD
  5
2
102
{ACAD_XDICTIONARY
360
1578
102
}
330
1
100
AcDbSymbolTableRecord
100
AcDbBlockTableRecord
  2
*MODEL_SPACE
340
5A
  0
BLOCK_RECORD
  5
7
330
1
100
AcDbSymbolTableRecord
100
AcDbBlockTableRecord
  2
*PAPER_SPACE
340
5B
  0
BLOCK_RECORD
  5
109
330
1
100
AcDbSymbolTableRecord
100
AcDbBlockTableRecord
  2
_Dot
340
0
102
{BLKREFS
331
3A91
331
3A92
331
3B69
331
3B6A
331
3B7B
331
3B7C
102
}
  0
BLOCK_RECORD
  5
35E9
330
1
100
AcDbSymbolTableRecord
100
AcDbBlockTableRecord
  2
*D1
340
0
  0
BLOCK_RECORD
  5
35F6
330
1
100
AcDbSymbolTableRecord
100
AcDbBlockTableRecord
  2
*D2
340
0
  0
ENDTAB
  0
ENDSEC
  0
SECTION
  2
BLOCKS
  0
BLOCK
  5
3
330
2
100
AcDbEntity
  8
0
100
AcDbBlockBegin
  2
*MODEL_SPACE
 70
     0
 10
0.0
 20
0.0
 30
0.0
  3
*MODEL_SPACE
  1

  0
ENDBLK
  5
6
330
2
100
AcDbEntity
  8
0
100
AcDbBlockEnd
  0
BLOCK
  5
8
330
7
100
AcDbEntity
 67
     1
  8
0
100
AcDbBlockBegin
  2
*PAPER_SPACE
 70
     0
 10
0.0
 20
0.0
 30
0.0
  3
*PAPER_SPACE
  1

  0
ENDBLK
  5
9
330
7
100
AcDbEntity
 67
     1
  8
0
100
AcDbBlockEnd
  0
BLOCK
  5
10C
330
109
100
AcDbEntity
  8
0
100
AcDbBlockBegin
  2
_Dot
 70
     0
 10
0.0
 20
0.0
 30
0.0
  3
_Dot
  1

  0
LWPOLYLINE
  5
10A
330
109
100
AcDbEntity
  8
0
  6
ByBlock
 62
     0
100
AcDbPolyline
 90
        2
 70
     1
 43
0.5
 10
-0.25
 20
0.0
 42
1.0
 10
0.25
 20
0.0
 42
1.0
  0
LINE
  5
10B
330
109
100
AcDbEntity
  8
0
  6
ByBlock
 62
     0
370
    -2
100
AcDbLine
 10
-0.5
 20
0.0
 30
0.0
 11
-1.0
 21
0.0
 31
0.0
  0
ENDBLK
  5
10D
330
109
100
AcDbEntity
  8
0
100
AcDbBlockEnd
  0
BLOCK
  5
35F3
330
35E9
100
AcDbEntity
  8
0
100
AcDbBlockBegin
  2
*D1
 70
     1
 10
0.0
 20
0.0
 30
0.0
  3
*D1
  1

  0
LINE
  5
3B66
330
35E9
100
AcDbEntity
  8
SUNPOU
 62
    70
370
    -2
100
AcDbLine
 10
16.93141470256708
 20
160.5463311503893
 30
0.0
 11
16.93141470256708
 21
176.3281947592562
 31
0.0
  0
LINE
  5
3B67
330
35E9
100
AcDbEntity
  8
SUNPOU
 62
    70
370
    -2
100
AcDbLine
 10
58.93141470256708
 20
160.8783743211282
 30
0.0
 11
58.93141470256708
 21
176.3281947592562
 31
0.0
  0
LINE
  5
3B68
330
35E9
100
AcDbEntity
  8
SUNPOU
 62
    60
370
    -2
100
AcDbLine
 10
18.93141470256708
 20
176.3281947592562
 30
0.0
 11
56.93141470256708
 21
176.3281947592562
 31
0.0
  0
INSERT
  5
3B69
330
35E9
100
AcDbEntity
  8
SUNPOU
 62
    60
370
    -2
100
AcDbBlockReference
  2
_Dot
 10
16.93141470256708
 20
176.3281947592562
 30
0.0
 41
2.0
 42
2.0
 43
2.0
 50
180.0
  0
INSERT
  5
3B6A
330
35E9
100
AcDbEntity
  8
SUNPOU
 62
    60
370
    -2
100
AcDbBlockReference
  2
_Dot
 10
58.93141470256708
 20
176.3281947592562
 30
0.0
 41
2.0
 42
2.0
 43
2.0
  0
MTEXT
  5
3B6B
330
35E9
100
AcDbEntity
  8
SUNPOU
 62
    60
100
AcDbMText
 10
37.93141470256709
 20
184.3281947592562
 30
0.0
 40
10.0
 41
0.0
 71
     5
 72
     1
  1
\A1;42
  7
SUNPOU
 73
     1
 44
1.0
1001
ACAD
1000
MTEXTBEGIN
1070
    73
1070
     1
1070
    44
1040
1.0
1070
    74
1070
     0
1000
MTEXTEND
  0
POINT
  5
3B6C
330
35E9
100
AcDbEntity
  8
DEFPOINTS
 62
     0
100
AcDbPoint
 10
16.93141470256708
 20
150.5463311503893
 30
0.0
  0
POINT
  5
3B6D
330
35E9
100
AcDbEntity
  8
DEFPOINTS
 62
     0
100
AcDbPoint
 10
58.93141470256708
 20
150.8783743211282
 30
0.0
  0
POINT
  5
3B6E
330
35E9
100
AcDbEntity
  8
DEFPOINTS
 62
     0
100
AcDbPoint
 10
58.93141470256708
 20
176.3281947592562
 30
0.0
  0
ENDBLK
  5
35F4
330
35E9
100
AcDbEntity
  8
0
100
AcDbBlockEnd
  0
BLOCK
  5
3600
330
35F6
100
AcDbEntity
  8
0
100
AcDbBlockBegin
  2
*D2
 70
     1
 10
0.0
 20
0.0
 30
0.0
  3
*D2
  1

  0
LINE
  5
3B78
330
35F6
100
AcDbEntity
  8
SUNPOU
 62
    70
370
    -2
100
AcDbLine
 10
6.931414702567087
 20
150.5463311503893
 30
0.0
 11
-16.15494586637804
 21
150.5463311503893
 31
0.0
  0
LINE
  5
3B79
330
35F6
100
AcDbEntity
  8
SUNPOU
 62
    70
370
    -2
100
AcDbLine
 10
6.402217037835725
 20
33.54633115038929
 30
0.0
 11
-16.15494586637806
 21
33.54633115038929
 31
0.0
  0
LINE
  5
3B7A
330
35F6
100
AcDbEntity
  8
SUNPOU
 62
    60
370
    -2
100
AcDbLine
 10
-16.15494586637804
 20
148.5463311503893
 30
0.0
 11
-16.15494586637806
 21
35.54633115038929
 31
0.0
  0
INSERT
  5
3B7B
330
35F6
100
AcDbEntity
  8
SUNPOU
 62
    60
370
    -2
100
AcDbBlockReference
  2
_Dot
 10
-16.15494586637804
 20
150.5463311503893
 30
0.0
 41
2.0
 42
2.0
 43
2.0
 50
90.0
  0
INSERT
  5
3B7C
330
35F6
100
AcDbEntity
  8
SUNPOU
 62
    60
370
    -2
100
AcDbBlockReference
  2
_Dot
 10
-16.15494586637806
 20
33.54633115038929
 30
0.0
 41
2.0
 42
2.0
 43
2.0
 50
270.0
  0
MTEXT
  5
3B7D
330
35F6
100
AcDbEntity
  8
SUNPOU
 62
    60
100
AcDbMText
 10
-24.15494586637807
 20
92.04633115038928
 30
0.0
 40
10.0
 41
0.0
 71
     5
 72
     1
  1
\A1;117
  7
SUNPOU
 11
0.0000000000000001
 21
1.0
 31
0.0
 73
     1
 44
1.0
1001
ACAD
1000
MTEXTBEGIN
1070
    73
1070
     1
1070
    44
1040
1.0
1070
    74
1070
     0
1000
MTEXTEND
  0
POINT
  5
3B7E
330
35F6
100
AcDbEntity
  8
DEFPOINTS
 62
     0
100
AcDbPoint
 10
16.93141470256708
 20
150.5463311503893
 30
0.0
  0
POINT
  5
3B7F
330
35F6
100
AcDbEntity
  8
DEFPOINTS
 62
     0
100
AcDbPoint
 10
16.40221703783572
 20
33.54633115038928
 30
0.0
  0
POINT
  5
3B80
330
35F6
100
AcDbEntity
  8
DEFPOINTS
 62
     0
100
AcDbPoint
 10
-16.15494586637806
 20
33.54633115038929
 30
0.0
  0
ENDBLK
  5
3601
330
35F6
100
AcDbEntity
  8
0
100
AcDbBlockEnd
  0
ENDSEC
  0
SECTION
  2
ENTITIES
  0
LINE
  5
1F
330
2
100
AcDbEntity
  8
WAKU
100
AcDbLine
 10
0.0
 20
14.0
 30
0.0
 11
147.8933597240585
 21
13.99999999999999
 31
0.0
  0
LINE
  5
20
330
2
100
AcDbEntity
  8
WAKU
100
AcDbLine
 10
0.0
 20
0.0
 30
0.0
 11
147.8933597240585
 21
0.0
 31
0.0
  0
TEXT
  5
21
330
2
100
AcDbEntity
  8
HOJO
100
AcDbText
 10
9.653966000000025
 20
2.366626000000024
 30
0.0
 40
9.0
  1
TWE110
  7
SUNPOU
100
AcDbText
  0
TEXT
  5
23
330
2
100
AcDbEntity
  8
HOJO
100
AcDbText
 10
85.84696046283864
 20
5.044386000000031
 30
0.0
 40
6.0
  1
117×42×5
  7
SUNPOU
100
AcDbText
  0
DIMENSION
  5
35E8
330
2
100
AcDbEntity
  8
SUNPOU
100
AcDbDimension
  2
*D1
 10
58.93141470256708
 20
176.3281947592562
 30
0.0
 11
37.93141470256709
 21
184.3281947592562
 31
0.0
 70
    32
 71
     5
 42
41.99999999999998
  3
STANDARD
100
AcDbAlignedDimension
 13
16.93141470256708
 23
150.5463311503893
 33
0.0
 14
58.93141470256708
 24
150.8783743211282
 34
0.0
100
AcDbRotatedDimension
1001
ACAD
1000
DSTYLE
1002
{
1070
    41
1040
2.0
1070
    42
1040
10.0
1070
    44
1040
0.0
1070
    73
1070
     0
1070
    74
1070
     0
1070
    77
1070
     1
1070
   140
1040
10.0
1070
   141
1040
0.0
1070
   146
1040
0.064286
1070
   147
1040
3.0
1070
   176
1070
    60
1070
   177
1070
    70
1070
   178
1070
    60
1070
   271
1070
     0
1070
   272
1070
     0
1070
   340
1005
1C
1070
   342
1005
109
1002
}
  0
DIMENSION
  5
35F5
330
2
100
AcDbEntity
  8
SUNPOU
100
AcDbDimension
  2
*D2
 10
-16.15494586637806
 20
33.54633115038929
 30
0.0
 11
-24.15494586637807
 21
92.04633115038928
 31
0.0
 70
    32
 71
     5
 42
117.0
  3
STANDARD
100
AcDbAlignedDimension
 13
16.93141470256708
 23
150.5463311503893
 33
0.0
 14
16.40221703783572
 24
33.54633115038928
 34
0.0
 50
90.0
100
AcDbRotatedDimension
1001
ACAD
1000
DSTYLE
1002
{
1070
    41
1040
2.0
1070
    42
1040
10.0
1070
    44
1040
0.0
1070
    73
1070
     0
1070
    74
1070
     0
1070
    77
1070
     1
1070
   140
1040
10.0
1070
   141
1040
0.0
1070
   146
1040
0.064286
1070
   147
1040
3.0
1070
   176
1070
    60
1070
   177
1070
    70
1070
   178
1070
    60
1070
   271
1070
     0
1070
   272
1070
     0
1070
   340
1005
1C
1070
   342
1005
109
1002
}
  0
ARC
  5
3A49
102
{ACAD_REACTORS
330
3AE0
102
}
330
2
100
AcDbEntity
  8
KIJUN
100
AcDbCircle
 10
68.61762813612148
 20
66.4797026410288
 30
0.0
 40
51.68621343355439
100
AcDbArc
 50
150.30503684758
 51
194.5877952305876
  0
ARC
  5
3A51
102
{ACAD_REACTORS
330
3AE0
102
}
330
2
100
AcDbEntity
  8
KIJUN
100
AcDbCircle
 10
40.88756131780633
 20
51.33577653788205
 30
0.0
 40
17.78944538749277
100
AcDbArc
 50
233.0272885784639
 51
303.2183172503376
  0
ARC
  5
3A52
102
{ACAD_REACTORS
330
3AE0
102
}
330
2
100
AcDbEntity
  8
KIJUN
100
AcDbCircle
 10
45.27832244639779
 20
50.67159342267117
 30
0.0
 40
13.65309225616928
100
AcDbArc
 50
330.4632409302646
 51
64.17841021778745
  0
ARC
  5
3A54
102
{ACAD_REACTORS
330
3AE0
102
}
330
2
100
AcDbEntity
  8
KIJUN
100
AcDbCircle
 10
49.58134214019105
 20
63.16160848643884
 30
0.0
 40
32.46653227275785
100
AcDbArc
 50
197.3832532803898
 51
233.3216722173108
  0
ARC
  5
3A55
102
{ACAD_REACTORS
330
3AE0
102
}
330
2
100
AcDbEntity
  8
KIJUN
100
AcDbCircle
 10
37.44691509801618
 20
54.52837499546205
 30
0.0
 40
22.37375423683463
100
AcDbArc
 50
306.1117788665697
 51
331.7570630507021
  0
ARC
  5
3A5A
102
{ACAD_REACTORS
330
3AE0
102
}
330
2
100
AcDbEntity
  8
KIJUN
100
AcDbCircle
 10
46.64523692978614
 20
53.31857038492879
 30
0.0
 40
10.67529735137508
100
AcDbArc
 50
64.5943127694146
 51
192.6888907929471
  0
ARC
  5
3A5B
102
{ACAD_REACTORS
330
3AE0
102
}
330
2
100
AcDbEntity
  8
KIJUN
100
AcDbCircle
 10
40.17053531128726
 20
57.98767063198624
 30
0.0
 40
8.04480403681936
100
AcDbArc
 50
148.3853926861868
 51
240.6764060493609
  0
ARC
  5
3A5D
102
{ACAD_REACTORS
330
3AE0
102
}
330
2
100
AcDbEntity
  8
KIJUN
100
AcDbCircle
 10
44.22806784973369
 20
142.0416705426783
 30
0.0
 40
8.504660607710958
100
AcDbArc
 50
57.10225848558874
 51
145.1559345822432
  0
ARC
  5
3A5E
102
{ACAD_REACTORS
330
3AE0
102
}
330
2
100
AcDbEntity
  8
KIJUN
100
AcDbCircle
 10
44.07620609693123
 20
142.7498578960292
 30
0.0
 40
7.990719418185366
100
AcDbArc
 50
148.703558461624
 51
278.665744172209
  0
ARC
  5
3A5F
102
{ACAD_REACTORS
330
3AE0
102
}
330
2
100
AcDbEntity
  8
KIJUN
100
AcDbCircle
 10
42.25768043192556
 20
137.3701547787357
 30
0.0
 40
13.52610117527919
100
AcDbArc
 50
3.112574684083778
 51
60.84472549005631
  0
ARC
  5
3A60
102
{ACAD_REACTORS
330
3AE0
102
}
330
2
100
AcDbEntity
  8
KIJUN
100
AcDbCircle
 10
7.339156776201946
 20
135.9363790727373
 30
0.0
 40
37.95654925936712
100
AcDbArc
 50
336.2808816383612
 51
358.3604189539892
  0
ARC
  5
3A7C
102
{ACAD_REACTORS
330
3AE0
102
}
330
2
100
AcDbEntity
  8
KIJUN
100
AcDbCircle
 10
56.08628696471581
 20
136.2061868331447
 30
0.0
 40
1.925599034401033
100
AcDbArc
 50
9.20077050061953
 51
99.64012704661806
  0
ARC
  5
3A7D
102
{ACAD_REACTORS
330
3AE0
102
}
330
2
100
AcDbEntity
  8
KIJUN
100
AcDbCircle
 10
37.3413333861067
 20
132.9570599379447
 30
0.0
 40
20.94995322812695
100
AcDbArc
 50
337.9274909227732
 51
9.775406739928692
  0
ARC
  5
3A7E
102
{ACAD_REACTORS
330
3AE0
102
}
330
2
100
AcDbEntity
  8
KIJUN
100
AcDbCircle
 10
56.87966925884428
 20
123.5343474813807
 30
0.0
 40
1.55508372192695
100
AcDbArc
 50
26.63307272082444
 51
94.56705918411833
  0
ARC
  5
3A7F
102
{ACAD_REACTORS
330
3AE0
102
}
330
2
100
AcDbEntity
  8
KIJUN
100
AcDbCircle
 10
52.15809163788089
 20
121.3116043378244
 30
0.0
 40
6.773323064686187
100
AcDbArc
 50
327.412251693374
 51
25.53616059717108
  0
ARC
  5
3A80
102
{ACAD_REACTORS
330
3AE0
102
}
330
2
100
AcDbEntity
  8
KIJUN
100
AcDbCircle
 10
-10.87705468441732
 20
163.5841759808101
 30
0.0
 40
82.66912124418405
100
AcDbArc
 50
314.7244097418455
 51
326.2565706253408
  0
ARC
  5
3A99
102
{ACAD_REACTORS
330
3AE0
102
}
330
2
100
AcDbEntity
  8
KIJUN
100
AcDbCircle
 10
46.7905100728322
 20
94.30725423160589
 30
0.0
 40
10.55269407551064
100
AcDbArc
 50
41.6875738141993
 51
87.24898099559586
  0
ARC
  5
3A9A
102
{ACAD_REACTORS
330
3AE0
102
}
330
2
100
AcDbEntity
  8
KIJUN
100
AcDbCircle
 10
46.95951557307544
 20
105.6228578503672
 30
0.0
 40
13.03033943126048
100
AcDbArc
 50
266.9731331031264
 51
303.4389900790707
  0
ARC
  5
3A9B
102
{ACAD_REACTORS
330
3AE0
102
}
330
2
100
AcDbEntity
  8
KIJUN
100
AcDbCircle
 10
51.17743032371897
 20
98.29821022438181
 30
0.0
 40
4.622786546509819
100
AcDbArc
 50
309.8540121096238
 51
40.90951867851224
  0
ARC
  5
3A9C
102
{ACAD_REACTORS
330
3AE0
102
}
330
2
100
AcDbEntity
  8
KIJUN
100
AcDbCircle
 10
43.52689197078794
 20
92.73767672667105
 30
0.0
 40
2.747502475556297
100
AcDbArc
 50
272.8911999150782
 51
357.3510560041262
  0
ARC
  5
3A9D
102
{ACAD_REACTORS
330
3AE0
102
}
330
2
100
AcDbEntity
  8
KIJUN
100
AcDbCircle
 10
42.17570814429061
 20
88.83554664246736
 30
0.0
 40
1.886970515089773
100
AcDbArc
 50
312.6305774806898
 51
37.86102246238697
  0
ARC
  5
3A9E
102
{ACAD_REACTORS
330
3AE0
102
}
330
2
100
AcDbEntity
  8
KIJUN
100
AcDbCircle
 10
8.156342248554608
 20
129.8613496594025
 30
0.0
 40
55.1802517340974
100
AcDbArc
 50
300.4508612911263
 51
309.767487288346
  0
ARC
  5
3A9F
102
{ACAD_REACTORS
330
3AE0
102
}
330
2
100
AcDbEntity
  8
KIJUN
100
AcDbCircle
 10
36.42571998980583
 20
77.67214689230678
 30
0.0
 40
4.630282219900612
100
AcDbArc
 50
319.9423751085587
 51
93.76530890001248
  0
ARC
  5
3AA0
102
{ACAD_REACTORS
330
3AE0
102
}
330
2
100
AcDbEntity
  8
KIJUN
100
AcDbCircle
 10
30.69754694429693
 20
63.75550390859269
 30
0.0
 40
3.046322507686924
100
AcDbArc
 50
329.3996006074824
 51
24.72268639033897
  0
ARC
  5
3AA1
102
{ACAD_REACTORS
330
3AE0
102
}
330
2
100
AcDbEntity
  8
KIJUN
100
AcDbCircle
 10
34.3848942320721
 20
70.50556118785883
 30
0.0
 40
2.534410239828471
100
AcDbArc
 50
322.2305369524358
 51
13.45120216883568
  0
ARC
  5
3AA2
102
{ACAD_REACTORS
330
3AE0
102
}
330
2
100
AcDbEntity
  8
KIJUN
100
AcDbCircle
 10
19.31825755997727
 20
89.45232405691678
 30
0.0
 40
25.38388658501484
100
AcDbArc
 50
313.6820293919992
 51
324.4458253178529
  0
ARC
  5
3AA3
102
{ACAD_REACTORS
330
3AE0
102
}
330
2
100
AcDbEntity
  8
KIJUN
100
AcDbCircle
 10
2.588747523801885
 20
91.08698376827788
 30
0.0
 40
40.40186772311172
100
AcDbArc
 50
319.8376248159252
 51
326.7811246345358
  0
ARC
  5
3AA4
102
{ACAD_REACTORS
330
3AE0
102
}
330
2
100
AcDbEntity
  8
KIJUN
100
AcDbCircle
 10
29.12098913097111
 20
112.9426996292424
 30
0.0
 40
15.09519780547545
100
AcDbArc
 50
30.78296349107993
 51
46.94488458646757
  0
ARC
  5
3AA5
102
{ACAD_REACTORS
330
3AE0
102
}
330
2
100
AcDbEntity
  8
KIJUN
100
AcDbCircle
 10
36.70255633799744
 20
120.9305763068848
 30
0.0
 40
4.083446092094808
100
AcDbArc
 50
48.15860540213081
 51
177.2913030628435
  0
ARC
  5
3AA6
102
{ACAD_REACTORS
330
3AE0
102
}
330
2
100
AcDbEntity
  8
KIJUN
100
AcDbCircle
 10
31.72587418884305
 20
113.1371304253122
 30
0.0
 40
2.116414475095022
100
AcDbArc
 50
100.8539833161671
 51
177.8356774152654
  0
ARC
  5
3AA7
102
{ACAD_REACTORS
330
3AE0
102
}
330
2
100
AcDbEntity
  8
KIJUN
100
AcDbCircle
 10
30.92388710092951
 20
116.5915332478185
 30
0.0
 40
1.43378448341786
100
AcDbArc
 50
286.3431561546288
 51
356.9705128961643
  0
ARC
  5
3AA9
102
{ACAD_REACTORS
330
3AE0
102
}
330
2
100
AcDbEntity
  8
KIJUN
100
AcDbCircle
 10
-469.1869067411943
 20
147.998851318475
 30
0.0
 40
502.5297396907446
100
AcDbArc
 50
356.4081121566977
 51
356.9343581820884
  0
ARC
  5
3AAA
102
{ACAD_REACTORS
330
3AE0
102
}
330
2
100
AcDbEntity
  8
KIJUN
100
AcDbCircle
 10
17.09674626296015
 20
107.2951852631789
 30
0.0
 40
12.45514252376717
100
AcDbArc
 50
337.2707141147214
 51
1.746158379818977
  0
ARC
  5
3AAB
102
{ACAD_REACTORS
330
3AE0
102
}
330
2
100
AcDbEntity
  8
KIJUN
100
AcDbCircle
 10
234.7246888280213
 20
108.0449721226252
 30
0.0
 40
205.1789178396914
100
AcDbArc
 50
178.5555529318168
 51
180.1033943904256
  0
ARC
  5
3AAC
102
{ACAD_REACTORS
330
3AE0
102
}
330
2
100
AcDbEntity
  8
KIJUN
100
AcDbCircle
 10
-53.66423845933309
 20
134.6293872584356
 30
0.0
 40
88.30786934579064
100
AcDbArc
 50
331.1980686196006
 51
338.6521872460733
  0
ARC
  5
3AAF
102
{ACAD_REACTORS
330
3AE0
102
}
330
2
100
AcDbEntity
  8
KIJUN
100
AcDbCircle
 10
45.08023336389237
 20
54.00998320577051
 30
0.0
 40
9.35596908392022
100
AcDbArc
 50
198.937261344394
 51
291.1885486014939
  0
ARC
  5
3AB0
102
{ACAD_REACTORS
330
3AE0
102
}
330
2
100
AcDbEntity
  8
KIJUN
100
AcDbCircle
 10
45.84501579736877
 20
51.10406805686074
 30
0.0
 40
6.379003751881126
100
AcDbArc
 50
294.2189264463229
 51
51.42513669464754
  0
ARC
  5
3AB1
102
{ACAD_REACTORS
330
3AE0
102
}
330
2
100
AcDbEntity
  8
KIJUN
100
AcDbCircle
 10
46.99830953695925
 20
52.04244747625961
 30
0.0
 40
4.936421566060054
100
AcDbArc
 50
55.10147481641152
 51
173.3404256723485
  0
ARC
  5
3AB2
102
{ACAD_REACTORS
330
3AE0
102
}
330
2
100
AcDbEntity
  8
KIJUN
100
AcDbCircle
 10
45.90230365096352
 20
55.2380368503104
 30
0.0
 40
4.623288197886569
100
AcDbArc
 50
145.5647610504188
 51
214.5669962671421
  0
ARC
  5
3AB3
102
{ACAD_REACTORS
330
3AE0
102
}
330
2
100
AcDbEntity
  8
KIJUN
100
AcDbCircle
 10
46.36502691820669
 20
50.7395698211786
 30
0.0
 40
10.11694108688435
100
AcDbArc
 50
22.61339990574846
 51
66.49225336112197
  0
ARC
  5
3AB4
102
{ACAD_REACTORS
330
3AE0
102
}
330
2
100
AcDbEntity
  8
KIJUN
100
AcDbCircle
 10
42.06695714290868
 20
56.1643660278516
 30
0.0
 40
16.07723669905357
100
AcDbArc
 50
126.3508424841891
 51
195.6993868692898
  0
ARC
  5
3AB5
102
{ACAD_REACTORS
330
3AE0
102
}
330
2
100
AcDbEntity
  8
KIJUN
100
AcDbCircle
 10
44.90728316626063
 20
56.48352916582715
 30
0.0
 40
18.90359526422206
100
AcDbArc
 50
194.3010496034942
 51
259.4359300576197
  0
ARC
  5
3AB6
102
{ACAD_REACTORS
330
3AE0
102
}
330
2
100
AcDbEntity
  8
KIJUN
100
AcDbCircle
 10
43.3958044964364
 20
50.67872069335206
 30
0.0
 40
12.9269465468701
100
AcDbArc
 50
261.3050672836329
 51
17.79636754421105
  0
ARC
  5
3AB8
102
{ACAD_REACTORS
330
3AE0
102
}
330
2
100
AcDbEntity
  8
KIJUN
100
AcDbCircle
 10
33.86967312977032
 20
59.81370204288308
 30
0.0
 40
5.231557207084656
100
AcDbArc
 50
94.44022063447109
 51
144.6646525389878
  0
ARC
  5
3AB9
102
{ACAD_REACTORS
330
3AE0
102
}
330
2
100
AcDbEntity
  8
KIJUN
100
AcDbCircle
 10
39.92754247164981
 20
55.72659827288337
 30
0.0
 40
12.53841813775711
100
AcDbArc
 50
145.4390166394779
 51
205.1038409366668
  0
ARC
  5
3ABA
102
{ACAD_REACTORS
330
3AE0
102
}
330
2
100
AcDbEntity
  8
KIJUN
100
AcDbCircle
 10
47.69885962234917
 20
53.35124091885209
 30
0.0
 40
7.192280836505993
100
AcDbArc
 50
67.93755152223304
 51
141.2568484043165
  0
ARC
  5
3ABB
102
{ACAD_REACTORS
330
3AE0
102
}
330
2
100
AcDbEntity
  8
KIJUN
100
AcDbCircle
 10
33.96834014884854
 20
66.59075719506765
 30
0.0
 40
5.347137955528764
100
AcDbArc
 50
57.39288143413842
 51
134.8348921088773
  0
ARC
  5
3ABC
102
{ACAD_REACTORS
330
3AE0
102
}
330
2
100
AcDbEntity
  8
KIJUN
100
AcDbCircle
 10
42.83514670273587
 20
57.65319881571347
 30
0.0
 40
17.93682229980569
100
AcDbArc
 50
134.7909709014884
 51
159.1662882808299
  0
ARC
  5
3ABD
102
{ACAD_REACTORS
330
3AE0
102
}
330
2
100
AcDbEntity
  8
KIJUN
100
AcDbCircle
 10
41.33849332755747
 20
63.90276318733882
 30
0.0
 40
19.11531977913139
100
AcDbArc
 50
105.8377544173358
 51
151.9761466956678
  0
ARC
  5
3ABE
102
{ACAD_REACTORS
330
3AE0
102
}
330
2
100
AcDbEntity
  8
KIJUN
100
AcDbCircle
 10
50.40386290177264
 20
60.4904124877674
 30
0.0
 40
28.74810770858124
100
AcDbArc
 50
154.4622435107058
 51
216.3036944103513
  0
ARC
  5
3ABF
102
{ACAD_REACTORS
330
3AE0
102
}
330
2
100
AcDbEntity
  8
KIJUN
100
AcDbCircle
 10
64.2208906980739
 20
62.72960982653913
 30
0.0
 40
45.39117790067606
100
AcDbArc
 50
111.8912116231224
 51
175.6311804951908
  0
ARC
  5
3AC0
102
{ACAD_REACTORS
330
3AE0
102
}
330
2
100
AcDbEntity
  8
KIJUN
100
AcDbCircle
 10
-67.39225181734244
 20
159.6206446925766
 30
0.0
 40
116.2047110478305
100
AcDbArc
 50
323.3567491129215
 51
340.4149891907975
  0
ARC
  5
3AC1
102
{ACAD_REACTORS
330
3AE0
102
}
330
2
100
AcDbEntity
  8
KIJUN
100
AcDbCircle
 10
44.01212809820075
 20
140.7783589071518
 30
0.0
 40
5.055145271061022
100
AcDbArc
 50
18.39668609027866
 51
138.2390173578416
  0
ARC
  5
3AC2
102
{ACAD_REACTORS
330
3AE0
102
}
330
2
100
AcDbEntity
  8
KIJUN
100
AcDbCircle
 10
41.78467256322233
 20
141.0791354008168
 30
0.0
 40
7.142557408513082
100
AcDbArc
 50
299.3004722351232
 51
10.4426528872927
  0
ARC
  5
3AC3
102
{ACAD_REACTORS
330
3AE0
102
}
330
2
100
AcDbEntity
  8
KIJUN
100
AcDbCircle
 10
45.31636791501421
 20
142.0938720024272
 30
0.0
 40
5.473924242982198
100
AcDbArc
 50
59.43046013951282
 51
157.9913048468295
  0
ARC
  5
3AC4
102
{ACAD_REACTORS
330
3AE0
102
}
330
2
100
AcDbEntity
  8
KIJUN
100
AcDbCircle
 10
43.10422647468652
 20
137.9849350424916
 30
0.0
 40
10.13851867412955
100
AcDbArc
 50
0.4709318859124107
 51
60.47633065621124
  0
ARC
  5
3AC6
102
{ACAD_REACTORS
330
3AE0
102
}
330
2
100
AcDbEntity
  8
KIJUN
100
AcDbCircle
 10
10.74091308918784
 20
138.8899563696873
 30
0.0
 40
42.50943181751443
100
AcDbArc
 50
326.4053529692549
 51
358.8924261115906
  0
ARC
  5
3AC7
102
{ACAD_REACTORS
330
3AE0
102
}
330
2
100
AcDbEntity
  8
KIJUN
100
AcDbCircle
 10
-768.6826018824238
 20
633.5145030160909
 30
0.0
 40
965.6227137942691
100
AcDbArc
 50
326.7743302673107
 51
327.5480461708351
  0
ARC
  5
3AC8
102
{ACAD_REACTORS
330
3AE0
102
}
330
2
100
AcDbEntity
  8
KIJUN
100
AcDbCircle
 10
57.82460867550708
 20
135.200446753276
 30
0.0
 40
3.561024103888024
100
AcDbArc
 50
125.3594834959773
 51
167.5986259765733
  0
ARC
  5
3AC9
102
{ACAD_REACTORS
330
3AE0
102
}
330
2
100
AcDbEntity
  8
KIJUN
100
AcDbCircle
 10
57.1906928045791
 20
122.5275571619847
 30
0.0
 40
2.593649309725595
100
AcDbArc
 50
99.65173033389071
 51
139.6739168514535
  0
ARC
  5
3ACA
102
{ACAD_REACTORS
330
3AE0
102
}
330
2
100
AcDbEntity
  8
KIJUN
100
AcDbCircle
 10
144.5997056735095
 20
45.97165795739613
 30
0.0
 40
118.7877567136887
100
AcDbArc
 50
138.8063447918796
 51
142.8023635061453
  0
ARC
  5
3ACB
102
{ACAD_REACTORS
330
3AE0
102
}
330
2
100
AcDbEntity
  8
KIJUN
100
AcDbCircle
 10
21.71488947850912
 20
137.8209093175592
 30
0.0
 40
34.64410124070607
100
AcDbArc
 50
324.6699549445088
 51
357.3139599263701
  0
ARC
  5
3ACC
102
{ACAD_REACTORS
330
3AE0
102
}
330
2
100
AcDbEntity
  8
KIJUN
100
AcDbCircle
 10
-0.3292076808264142
 20
154.4397394242078
 30
0.0
 40
65.97596743659322
100
AcDbArc
 50
311.9768854437014
 51
330.2525771080038
  0
ARC
  5
3ACD
102
{ACAD_REACTORS
330
3AE0
102
}
330
2
100
AcDbEntity
  8
KIJUN
100
AcDbCircle
 10
30.99361517921773
 20
113.2234899338999
 30
0.0
 40
2.019951511931232
100
AcDbArc
 50
358.1855281539479
 51
80.49034359004521
  0
ARC
  5
3ACE
102
{ACAD_REACTORS
330
3AE0
102
}
330
2
100
AcDbEntity
  8
KIJUN
100
AcDbCircle
 10
-3.300041169837584
 20
114.3528717997112
 30
0.0
 40
36.33219810902272
100
AcDbArc
 50
335.4786974696763
 51
358.117767432211
  0
ARC
  5
3AD0
102
{ACAD_REACTORS
330
3AE0
102
}
330
2
100
AcDbEntity
  8
KIJUN
100
AcDbCircle
 10
43.05871532503795
 20
86.19941184326975
 30
0.0
 40
3.842468394497037
100
AcDbArc
 50
80.91446599239031
 51
105.4770309857245
  0
ARC
  5
3AD1
102
{ACAD_REACTORS
330
3AE0
102
}
330
2
100
AcDbEntity
  8
KIJUN
100
AcDbCircle
 10
50.82598739577765
 20
60.11203284427859
 30
0.0
 40
31.06098912471008
100
AcDbArc
 50
106.4439185815518
 51
146.0216837350311
  0
ARC
  5
3AD2
102
{ACAD_REACTORS
330
3AE0
102
}
330
2
100
AcDbEntity
  8
KIJUN
100
AcDbCircle
 10
44.21005441939541
 20
89.89268924965688
 30
0.0
 40
3.411298108610667
100
AcDbArc
 50
52.82242452355348
 51
100.5814045853468
  0
ARC
  5
3AD3
102
{ACAD_REACTORS
330
3AE0
102
}
330
2
100
AcDbEntity
  8
KIJUN
100
AcDbCircle
 10
49.03521690576861
 20
67.05047897372901
 30
0.0
 40
26.75675584262398
100
AcDbArc
 50
101.7561121350762
 51
134.0267522443543
  0
ARC
  5
3AD4
102
{ACAD_REACTORS
330
3AE0
102
}
330
2
100
AcDbEntity
  8
KIJUN
100
AcDbCircle
 10
5.389157509116841
 20
140.9578740262837
 30
0.0
 40
49.21143247953005
100
AcDbArc
 50
326.9708263882426
 51
354.1771312597437
  0
ARC
  5
3AD5
102
{ACAD_REACTORS
330
3AE0
102
}
330
2
100
AcDbEntity
  8
KIJUN
100
AcDbCircle
 10
-41.17843568113975
 20
174.7052512263957
 30
0.0
 40
106.6876563965973
100
AcDbArc
 50
318.7870462768433
 51
325.4072174025541
  0
ARC
  5
3AD7
102
{ACAD_REACTORS
330
3AE0
102
}
330
2
100
AcDbEntity
  8
KIJUN
100
AcDbCircle
 10
44.41209442218371
 20
57.02721513885066
 30
0.0
 40
17.16647117030946
100
AcDbArc
 50
202.6838028861564
 51
267.1205533194436
  0
ARC
  5
3AD8
102
{ACAD_REACTORS
330
3AE0
102
}
330
2
100
AcDbEntity
  8
KIJUN
100
AcDbCircle
 10
39.16802943925302
 20
62.48105002861706
 30
0.0
 40
15.35712435292408
100
AcDbArc
 50
100.2355354161683
 51
186.5605071664347
  0
ARC
  5
3AD9
102
{ACAD_REACTORS
330
3AE0
102
}
330
2
100
AcDbEntity
  8
KIJUN
100
AcDbCircle
 10
44.1316804639614
 20
58.79445147910792
 30
0.0
 40
20.31230371904624
100
AcDbArc
 50
112.2539963815404
 51
174.5420462010642
  0
ARC
  5
3ADA
102
{ACAD_REACTORS
330
3AE0
102
}
330
2
100
AcDbEntity
  8
KIJUN
100
AcDbCircle
 10
46.84616029133917
 20
80.74161489543499
 30
0.0
 40
18.38220817769742
100
AcDbArc
 50
73.94412103697201
 51
156.3063267965584
  0
ARC
  5
3ADB
102
{ACAD_REACTORS
330
3AE0
102
}
330
2
100
AcDbEntity
  8
KIJUN
100
AcDbCircle
 10
49.68163972277443
 20
74.69544503667953
 30
0.0
 40
23.81771143815054
100
AcDbArc
 50
84.58277157803653
 51
145.6676762554933
  0
ARC
  5
3ADD
102
{ACAD_REACTORS
330
3AE0
102
}
330
2
100
AcDbEntity
  8
KIJUN
100
AcDbCircle
 10
9.352551243634763
 20
115.4413218250491
 30
0.0
 40
26.03184071837378
100
AcDbArc
 50
321.6060717706386
 51
11.26057101582739
  0
ARC
  5
3ADE
102
{ACAD_REACTORS
330
3AE0
102
}
330
2
100
AcDbEntity
  8
KIJUN
100
AcDbCircle
 10
36.21519810427313
 20
120.8188362012998
 30
0.0
 40
1.36405220816902
100
AcDbArc
 50
97.44949597779516
 51
192.4573571991262
  0
ARC
  5
3AE1
102
{ACAD_REACTORS
330
3B2F
102
}
330
2
100
AcDbEntity
  8
KIJUN
100
AcDbCircle
 10
65.78818613530512
 20
66.4797026410288
 30
0.0
 40
51.68621343355439
100
AcDbArc
 50
345.4122047694123
 51
29.69496315242015
  0
ARC
  5
3AE2
102
{ACAD_REACTORS
330
3B2F
102
}
330
2
100
AcDbEntity
  8
KIJUN
100
AcDbCircle
 10
93.51825295362028
 20
51.33577653788205
 30
0.0
 40
17.78944538749277
100
AcDbArc
 50
236.7816827496624
 51
306.9727114215361
  0
ARC
  5
3AE3
102
{ACAD_REACTORS
330
3B2F
102
}
330
2
100
AcDbEntity
  8
KIJUN
100
AcDbCircle
 10
89.12749182502881
 20
50.67159342267117
 30
0.0
 40
13.65309225616928
100
AcDbArc
 50
115.8215897822126
 51
209.5367590697354
  0
ARC
  5
3AE4
102
{ACAD_REACTORS
330
3B2F
102
}
330
2
100
AcDbEntity
  8
KIJUN
100
AcDbCircle
 10
84.82447213123554
 20
63.16160848643884
 30
0.0
 40
32.46653227275785
100
AcDbArc
 50
306.6783277826892
 51
342.61674671961
  0
ARC
  5
3AE5
102
{ACAD_REACTORS
330
3B2F
102
}
330
2
100
AcDbEntity
  8
KIJUN
100
AcDbCircle
 10
96.95889917341043
 20
54.52837499546205
 30
0.0
 40
22.37375423683463
100
AcDbArc
 50
208.2429369492977
 51
233.8882211334305
  0
ARC
  5
3AE6
102
{ACAD_REACTORS
330
3B2F
102
}
330
2
100
AcDbEntity
  8
KIJUN
100
AcDbCircle
 10
87.76057734164046
 20
53.31857038492879
 30
0.0
 40
10.67529735137508
100
AcDbArc
 50
347.3111092070529
 51
115.4056872305854
  0
ARC
  5
3AE7
102
{ACAD_REACTORS
330
3B2F
102
}
330
2
100
AcDbEntity
  8
KIJUN
100
AcDbCircle
 10
94.23527896013935
 20
57.98767063198624
 30
0.0
 40
8.04480403681936
100
AcDbArc
 50
299.3235939506392
 51
31.61460731381322
  0
ARC
  5
3AE8
102
{ACAD_REACTORS
330
3B2F
102
}
330
2
100
AcDbEntity
  8
KIJUN
100
AcDbCircle
 10
90.17774642169291
 20
142.0416705426783
 30
0.0
 40
8.504660607710958
100
AcDbArc
 50
34.84406541775707
 51
122.8977415144111
  0
ARC
  5
3AE9
102
{ACAD_REACTORS
330
3B2F
102
}
330
2
100
AcDbEntity
  8
KIJUN
100
AcDbCircle
 10
90.32960817449538
 20
142.7498578960292
 30
0.0
 40
7.990719418185366
100
AcDbArc
 50
261.334255827791
 51
31.29644153837613
  0
ARC
  5
3AEA
102
{ACAD_REACTORS
330
3B2F
102
}
330
2
100
AcDbEntity
  8
KIJUN
100
AcDbCircle
 10
92.14813383950104
 20
137.3701547787357
 30
0.0
 40
13.52610117527919
100
AcDbArc
 50
119.1552745099437
 51
176.8874253159162
  0
ARC
  5
3AEB
102
{ACAD_REACTORS
330
3B2F
102
}
330
2
100
AcDbEntity
  8
KIJUN
100
AcDbCircle
 10
127.0666574952246
 20
135.9363790727373
 30
0.0
 40
37.95654925936712
100
AcDbArc
 50
181.6395810460108
 51
203.7191183616389
  0
ARC
  5
3AEC
102
{ACAD_REACTORS
330
3B2F
102
}
330
2
100
AcDbEntity
  8
KIJUN
100
AcDbCircle
 10
78.3195273067108
 20
136.2061868331447
 30
0.0
 40
1.925599034401033
100
AcDbArc
 50
80.35987295338193
 51
170.7992294993804
  0
ARC
  5
3AED
102
{ACAD_REACTORS
330
3B2F
102
}
330
2
100
AcDbEntity
  8
KIJUN
100
AcDbCircle
 10
97.06448088531992
 20
132.9570599379447
 30
0.0
 40
20.94995322812695
100
AcDbArc
 50
170.2245932600713
 51
202.0725090772269
  0
ARC
  5
3AEE
102
{ACAD_REACTORS
330
3B2F
102
}
330
2
100
AcDbEntity
  8
KIJUN
100
AcDbCircle
 10
77.52614501258233
 20
123.5343474813807
 30
0.0
 40
1.55508372192695
100
AcDbArc
 50
85.43294081588168
 51
153.3669272791756
  0
ARC
  5
3AEF
102
{ACAD_REACTORS
330
3B2F
102
}
330
2
100
AcDbEntity
  8
KIJUN
100
AcDbCircle
 10
82.24772263354571
 20
121.3116043378244
 30
0.0
 40
6.773323064686187
100
AcDbArc
 50
154.4638394028288
 51
212.5877483066262
  0
ARC
  5
3AF0
102
{ACAD_REACTORS
330
3B2F
102
}
330
2
100
AcDbEntity
  8
KIJUN
100
AcDbCircle
 10
145.2828689558439
 20
163.5841759808101
 30
0.0
 40
82.66912124418405
100
AcDbArc
 50
213.743429374659
 51
225.2755902581543
  0
ARC
  5
3AF1
102
{ACAD_REACTORS
330
3B2F
102
}
330
2
100
AcDbEntity
  8
KIJUN
100
AcDbCircle
 10
87.6153041985944
 20
94.30725423160589
 30
0.0
 40
10.55269407551064
100
AcDbArc
 50
92.75101900440414
 51
138.3124261858005
  0
ARC
  5
3AF2
102
{ACAD_REACTORS
330
3B2F
102
}
330
2
100
AcDbEntity
  8
KIJUN
100
AcDbCircle
 10
87.44629869835117
 20
105.6228578503672
 30
0.0
 40
13.03033943126048
100
AcDbArc
 50
236.5610099209292
 51
273.0268668968736
  0
ARC
  5
3AF3
102
{ACAD_REACTORS
330
3B2F
102
}
330
2
100
AcDbEntity
  8
KIJUN
100
AcDbCircle
 10
83.22838394770764
 20
98.29821022438181
 30
0.0
 40
4.622786546509819
100
AcDbArc
 50
139.0904813214876
 51
230.1459878903762
  0
ARC
  5
3AF4
102
{ACAD_REACTORS
330
3B2F
102
}
330
2
100
AcDbEntity
  8
KIJUN
100
AcDbCircle
 10
90.87892230063866
 20
92.73767672667105
 30
0.0
 40
2.747502475556297
100
AcDbArc
 50
182.6489439958738
 51
267.1088000849218
  0
ARC
  5
3AF5
102
{ACAD_REACTORS
330
3B2F
102
}
330
2
100
AcDbEntity
  8
KIJUN
100
AcDbCircle
 10
92.23010612713599
 20
88.83554664246736
 30
0.0
 40
1.886970515089773
100
AcDbArc
 50
142.1389775376133
 51
227.3694225193101
  0
ARC
  5
3AF6
102
{ACAD_REACTORS
330
3B2F
102
}
330
2
100
AcDbEntity
  8
KIJUN
100
AcDbCircle
 10
126.249472022872
 20
129.8613496594025
 30
0.0
 40
55.1802517340974
100
AcDbArc
 50
230.232512711654
 51
239.5491387088738
  0
ARC
  5
3AF7
102
{ACAD_REACTORS
330
3B2F
102
}
330
2
100
AcDbEntity
  8
KIJUN
100
AcDbCircle
 10
97.98009428162078
 20
77.67214689230678
 30
0.0
 40
4.630282219900612
100
AcDbArc
 50
86.23469109998749
 51
220.0576248914412
  0
ARC
  5
3AF8
102
{ACAD_REACTORS
330
3B2F
102
}
330
2
100
AcDbEntity
  8
KIJUN
100
AcDbCircle
 10
103.7082673271296
 20
63.75550390859269
 30
0.0
 40
3.046322507686924
100
AcDbArc
 50
155.2773136096612
 51
210.6003993925177
  0
ARC
  5
3AF9
102
{ACAD_REACTORS
330
3B2F
102
}
330
2
100
AcDbEntity
  8
KIJUN
100
AcDbCircle
 10
100.0209200393545
 20
70.50556118785883
 30
0.0
 40
2.534410239828471
100
AcDbArc
 50
166.5487978311642
 51
217.7694630475645
  0
ARC
  5
3AFA
102
{ACAD_REACTORS
330
3B2F
102
}
330
2
100
AcDbEntity
  8
KIJUN
100
AcDbCircle
 10
115.0875567114493
 20
89.45232405691678
 30
0.0
 40
25.38388658501484
100
AcDbArc
 50
215.5541746821471
 51
226.3179706080006
  0
ARC
  5
3AFB
102
{ACAD_REACTORS
330
3B2F
102
}
330
2
100
AcDbEntity
  8
KIJUN
100
AcDbCircle
 10
131.8170667476247
 20
91.08698376827788
 30
0.0
 40
40.40186772311172
100
AcDbArc
 50
213.2188753654643
 51
220.1623751840746
  0
ARC
  5
3AFC
102
{ACAD_REACTORS
330
3B2F
102
}
330
2
100
AcDbEntity
  8
KIJUN
100
AcDbCircle
 10
105.2848251404555
 20
112.9426996292424
 30
0.0
 40
15.09519780547545
100
AcDbArc
 50
133.0551154135324
 51
149.2170365089201
  0
ARC
  5
3AFD
102
{ACAD_REACTORS
330
3B2F
102
}
330
2
100
AcDbEntity
  8
KIJUN
100
AcDbCircle
 10
97.70325793342918
 20
120.9305763068848
 30
0.0
 40
4.083446092094808
100
AcDbArc
 50
2.708696937156402
 51
131.841394597869
  0
ARC
  5
3AFE
102
{ACAD_REACTORS
330
3B2F
102
}
330
2
100
AcDbEntity
  8
KIJUN
100
AcDbCircle
 10
102.6799400825835
 20
113.1371304253122
 30
0.0
 40
2.116414475095022
100
AcDbArc
 50
2.164322584734623
 51
79.14601668383288
  0
ARC
  5
3AFF
102
{ACAD_REACTORS
330
3B2F
102
}
330
2
100
AcDbEntity
  8
KIJUN
100
AcDbCircle
 10
103.4819271704971
 20
116.5915332478185
 30
0.0
 40
1.43378448341786
100
AcDbArc
 50
183.0294871038356
 51
253.6568438453711
  0
ARC
  5
3B00
102
{ACAD_REACTORS
330
3B2F
102
}
330
2
100
AcDbEntity
  8
KIJUN
100
AcDbCircle
 10
603.5927210126209
 20
147.998851318475
 30
0.0
 40
502.5297396907446
100
AcDbArc
 50
183.0656418179115
 51
183.5918878433023
  0
ARC
  5
3B01
102
{ACAD_REACTORS
330
3B2F
102
}
330
2
100
AcDbEntity
  8
KIJUN
100
AcDbCircle
 10
117.3090680084664
 20
107.2951852631789
 30
0.0
 40
12.45514252376717
100
AcDbArc
 50
178.253841620181
 51
202.7292858852787
  0
ARC
  5
3B02
102
{ACAD_REACTORS
330
3B2F
102
}
330
2
100
AcDbEntity
  8
KIJUN
100
AcDbCircle
 10
-100.3188745565946
 20
108.0449721226252
 30
0.0
 40
205.1789178396914
100
AcDbArc
 50
359.8966056095744
 51
1.444447068183154
  0
ARC
  5
3B03
102
{ACAD_REACTORS
330
3B2F
102
}
330
2
100
AcDbEntity
  8
KIJUN
100
AcDbCircle
 10
188.0700527307597
 20
134.6293872584356
 30
0.0
 40
88.30786934579064
100
AcDbArc
 50
201.3478127539266
 51
208.8019313803996
  0
ARC
  5
3B04
102
{ACAD_REACTORS
330
3B2F
102
}
330
2
100
AcDbEntity
  8
KIJUN
100
AcDbCircle
 10
89.32558090753422
 20
54.00998320577051
 30
0.0
 40
9.35596908392022
100
AcDbArc
 50
248.8114513985061
 51
341.0627386556058
  0
ARC
  5
3B05
102
{ACAD_REACTORS
330
3B2F
102
}
330
2
100
AcDbEntity
  8
KIJUN
100
AcDbCircle
 10
88.56079847405784
 20
51.10406805686074
 30
0.0
 40
6.379003751881126
100
AcDbArc
 50
128.5748633053523
 51
245.7810735536771
  0
ARC
  5
3B06
102
{ACAD_REACTORS
330
3B2F
102
}
330
2
100
AcDbEntity
  8
KIJUN
100
AcDbCircle
 10
87.40750473446736
 20
52.04244747625961
 30
0.0
 40
4.936421566060054
100
AcDbArc
 50
6.659574327651416
 51
124.8985251835883
  0
ARC
  5
3B07
102
{ACAD_REACTORS
330
3B2F
102
}
330
2
100
AcDbEntity
  8
KIJUN
100
AcDbCircle
 10
88.50351062046309
 20
55.2380368503104
 30
0.0
 40
4.623288197886569
100
AcDbArc
 50
325.4330037328577
 51
34.43523894958107
  0
ARC
  5
3B08
102
{ACAD_REACTORS
330
3B2F
102
}
330
2
100
AcDbEntity
  8
KIJUN
100
AcDbCircle
 10
88.04078735321992
 20
50.7395698211786
 30
0.0
 40
10.11694108688435
100
AcDbArc
 50
113.507746638878
 51
157.3866000942513
  0
ARC
  5
3B09
102
{ACAD_REACTORS
330
3B2F
102
}
330
2
100
AcDbEntity
  8
KIJUN
100
AcDbCircle
 10
86.70695464907742
 20
53.35124091885209
 30
0.0
 40
7.192280836505993
100
AcDbArc
 50
38.7431515956833
 51
112.0624484777669
  0
ARC
  5
3B0A
102
{ACAD_REACTORS
330
3B2F
102
}
330
2
100
AcDbEntity
  8
KIJUN
100
AcDbCircle
 10
92.33885712851792
 20
56.1643660278516
 30
0.0
 40
16.07723669905357
100
AcDbArc
 50
344.3006131307102
 51
53.64915751581077
  0
ARC
  5
3B0B
102
{ACAD_REACTORS
330
3B2F
102
}
330
2
100
AcDbEntity
  8
KIJUN
100
AcDbCircle
 10
89.49853110516597
 20
56.48352916582715
 30
0.0
 40
18.90359526422206
100
AcDbArc
 50
280.5640699423803
 51
345.6989503965058
  0
ARC
  5
3B0C
102
{ACAD_REACTORS
330
3B2F
102
}
330
2
100
AcDbEntity
  8
KIJUN
100
AcDbCircle
 10
91.01000977499021
 20
50.67872069335206
 30
0.0
 40
12.9269465468701
100
AcDbArc
 50
162.2036324557888
 51
278.6949327163671
  0
ARC
  5
3B0D
102
{ACAD_REACTORS
330
3B2F
102
}
330
2
100
AcDbEntity
  8
KIJUN
100
AcDbCircle
 10
100.5361411416563
 20
59.81370204288308
 30
0.0
 40
5.231557207084656
100
AcDbArc
 50
35.33534746101222
 51
85.55977936552892
  0
ARC
  5
3B0E
102
{ACAD_REACTORS
330
3B2F
102
}
330
2
100
AcDbEntity
  8
KIJUN
100
AcDbCircle
 10
94.47827179977679
 20
55.72659827288337
 30
0.0
 40
12.53841813775711
100
AcDbArc
 50
334.896159063333
 51
34.56098336052208
  0
ARC
  5
3B0F
102
{ACAD_REACTORS
330
3B2F
102
}
330
2
100
AcDbEntity
  8
KIJUN
100
AcDbCircle
 10
100.437474122578
 20
66.59075719506765
 30
0.0
 40
5.347137955528764
100
AcDbArc
 50
45.16510789112283
 51
122.6071185658616
  0
ARC
  5
3B10
102
{ACAD_REACTORS
330
3B2F
102
}
330
2
100
AcDbEntity
  8
KIJUN
100
AcDbCircle
 10
91.57066756869074
 20
57.65319881571347
 30
0.0
 40
17.93682229980569
100
AcDbArc
 50
20.83371171917019
 51
45.20902909851141
  0
ARC
  5
3B11
102
{ACAD_REACTORS
330
3B2F
102
}
330
2
100
AcDbEntity
  8
KIJUN
100
AcDbCircle
 10
93.06732094386914
 20
63.90276318733882
 30
0.0
 40
19.11531977913139
100
AcDbArc
 50
28.02385330433241
 51
74.16224558266417
  0
ARC
  5
3B12
102
{ACAD_REACTORS
330
3B2F
102
}
330
2
100
AcDbEntity
  8
KIJUN
100
AcDbCircle
 10
84.00195136965397
 20
60.4904124877674
 30
0.0
 40
28.74810770858124
100
AcDbArc
 50
323.6963055896487
 51
25.53775648929399
  0
ARC
  5
3B13
102
{ACAD_REACTORS
330
3B2F
102
}
330
2
100
AcDbEntity
  8
KIJUN
100
AcDbCircle
 10
70.1849235733527
 20
62.72960982653913
 30
0.0
 40
45.39117790067606
100
AcDbArc
 50
4.3688195048092
 51
68.10878837687759
  0
ARC
  5
3B14
102
{ACAD_REACTORS
330
3B2F
102
}
330
2
100
AcDbEntity
  8
KIJUN
100
AcDbCircle
 10
201.798066088769
 20
159.6206446925766
 30
0.0
 40
116.2047110478305
100
AcDbArc
 50
199.5850108092026
 51
216.6432508870783
  0
ARC
  5
3B15
102
{ACAD_REACTORS
330
3B2F
102
}
330
2
100
AcDbEntity
  8
KIJUN
100
AcDbCircle
 10
90.39368617322585
 20
140.7783589071518
 30
0.0
 40
5.055145271061022
100
AcDbArc
 50
41.76098264215854
 51
161.6033139097212
  0
ARC
  5
3B16
102
{ACAD_REACTORS
330
3B2F
102
}
330
2
100
AcDbEntity
  8
KIJUN
100
AcDbCircle
 10
92.62114170820428
 20
141.0791354008168
 30
0.0
 40
7.142557408513082
100
AcDbArc
 50
169.5573471127073
 51
240.6995277648769
  0
ARC
  5
3B17
102
{ACAD_REACTORS
330
3B2F
102
}
330
2
100
AcDbEntity
  8
KIJUN
100
AcDbCircle
 10
89.08944635641239
 20
142.0938720024272
 30
0.0
 40
5.473924242982198
100
AcDbArc
 50
22.00869515317029
 51
120.5695398604872
  0
ARC
  5
3B18
102
{ACAD_REACTORS
330
3B2F
102
}
330
2
100
AcDbEntity
  8
KIJUN
100
AcDbCircle
 10
91.30158779674008
 20
137.9849350424916
 30
0.0
 40
10.13851867412955
100
AcDbArc
 50
119.5236693437889
 51
179.5290681140876
  0
ARC
  5
3B19
102
{ACAD_REACTORS
330
3B2F
102
}
330
2
100
AcDbEntity
  8
KIJUN
100
AcDbCircle
 10
123.6649011822387
 20
138.8899563696873
 30
0.0
 40
42.50943181751443
100
AcDbArc
 50
181.1075738884094
 51
213.5946470307449
  0
ARC
  5
3B1A
102
{ACAD_REACTORS
330
3B2F
102
}
330
2
100
AcDbEntity
  8
KIJUN
100
AcDbCircle
 10
903.0884161538505
 20
633.5145030160909
 30
0.0
 40
965.6227137942691
100
AcDbArc
 50
212.451953829165
 51
213.2256697326891
  0
ARC
  5
3B1B
102
{ACAD_REACTORS
330
3B2F
102
}
330
2
100
AcDbEntity
  8
KIJUN
100
AcDbCircle
 10
76.58120559591953
 20
135.200446753276
 30
0.0
 40
3.561024103888024
100
AcDbArc
 50
12.40137402342673
 51
54.64051650402258
  0
ARC
  5
3B1C
102
{ACAD_REACTORS
330
3B2F
102
}
330
2
100
AcDbEntity
  8
KIJUN
100
AcDbCircle
 10
77.21512146684751
 20
122.5275571619847
 30
0.0
 40
2.593649309725595
100
AcDbArc
 50
40.32608314854676
 51
80.3482696661093
  0
ARC
  5
3B1D
102
{ACAD_REACTORS
330
3B2F
102
}
330
2
100
AcDbEntity
  8
KIJUN
100
AcDbCircle
 10
-10.19389140208289
 20
45.97165795739613
 30
0.0
 40
118.7877567136887
100
AcDbArc
 50
37.19763649385449
 51
41.19365520812024
  0
ARC
  5
3B1E
102
{ACAD_REACTORS
330
3B2F
102
}
330
2
100
AcDbEntity
  8
KIJUN
100
AcDbCircle
 10
112.6909247929175
 20
137.8209093175592
 30
0.0
 40
34.64410124070607
100
AcDbArc
 50
182.68604007363
 51
215.330045055491
  0
ARC
  5
3B1F
102
{ACAD_REACTORS
330
3B2F
102
}
330
2
100
AcDbEntity
  8
KIJUN
100
AcDbCircle
 10
134.735021952253
 20
154.4397394242078
 30
0.0
 40
65.97596743659322
100
AcDbArc
 50
209.7474228919963
 51
228.0231145562985
  0
ARC
  5
3B20
102
{ACAD_REACTORS
330
3B2F
102
}
330
2
100
AcDbEntity
  8
KIJUN
100
AcDbCircle
 10
103.4121990922089
 20
113.2234899338999
 30
0.0
 40
2.019951511931232
100
AcDbArc
 50
99.50965640995478
 51
181.8144718460521
  0
ARC
  5
3B21
102
{ACAD_REACTORS
330
3B2F
102
}
330
2
100
AcDbEntity
  8
KIJUN
100
AcDbCircle
 10
137.7058554412642
 20
114.3528717997112
 30
0.0
 40
36.33219810902272
100
AcDbArc
 50
181.882232567789
 51
204.5213025303236
  0
ARC
  5
3B22
102
{ACAD_REACTORS
330
3B2F
102
}
330
2
100
AcDbEntity
  8
KIJUN
100
AcDbCircle
 10
91.34709894638865
 20
86.19941184326975
 30
0.0
 40
3.842468394497037
100
AcDbArc
 50
74.5229690142755
 51
99.0855340076097
  0
ARC
  5
3B23
102
{ACAD_REACTORS
330
3B2F
102
}
330
2
100
AcDbEntity
  8
KIJUN
100
AcDbCircle
 10
83.57982687564897
 20
60.11203284427859
 30
0.0
 40
31.06098912471008
100
AcDbArc
 50
33.97831626496886
 51
73.55608141844822
  0
ARC
  5
3B24
102
{ACAD_REACTORS
330
3B2F
102
}
330
2
100
AcDbEntity
  8
KIJUN
100
AcDbCircle
 10
90.19575985203118
 20
89.89268924965688
 30
0.0
 40
3.411298108610667
100
AcDbArc
 50
79.41859541465317
 51
127.1775754764466
  0
ARC
  5
3B25
102
{ACAD_REACTORS
330
3B2F
102
}
330
2
100
AcDbEntity
  8
KIJUN
100
AcDbCircle
 10
85.37059736565799
 20
67.05047897372901
 30
0.0
 40
26.75675584262398
100
AcDbArc
 50
45.9732477556455
 51
78.24388786492381
  0
ARC
  5
3B26
102
{ACAD_REACTORS
330
3B2F
102
}
330
2
100
AcDbEntity
  8
KIJUN
100
AcDbCircle
 10
129.0166567623098
 20
140.9578740262837
 30
0.0
 40
49.21143247953005
100
AcDbArc
 50
185.8228687402563
 51
213.0291736117572
  0
ARC
  5
3B27
102
{ACAD_REACTORS
330
3B2F
102
}
330
2
100
AcDbEntity
  8
KIJUN
100
AcDbCircle
 10
175.5842499525663
 20
174.7052512263957
 30
0.0
 40
106.6876563965973
100
AcDbArc
 50
214.5927825974457
 51
221.2129537231566
  0
ARC
  5
3B28
102
{ACAD_REACTORS
330
3B2F
102
}
330
2
100
AcDbEntity
  8
KIJUN
100
AcDbCircle
 10
89.99371984924289
 20
57.02721513885066
 30
0.0
 40
17.16647117030946
100
AcDbArc
 50
272.8794466805564
 51
337.3161971138436
  0
ARC
  5
3B29
102
{ACAD_REACTORS
330
3B2F
102
}
330
2
100
AcDbEntity
  8
KIJUN
100
AcDbCircle
 10
95.23778483217359
 20
62.48105002861706
 30
0.0
 40
15.35712435292408
100
AcDbArc
 50
353.4394928335652
 51
79.76446458383169
  0
ARC
  5
3B2A
102
{ACAD_REACTORS
330
3B2F
102
}
330
2
100
AcDbEntity
  8
KIJUN
100
AcDbCircle
 10
90.27413380746521
 20
58.79445147910792
 30
0.0
 40
20.31230371904624
100
AcDbArc
 50
5.457953798935763
 51
67.74600361845961
  0
ARC
  5
3B2B
102
{ACAD_REACTORS
330
3B2F
102
}
330
2
100
AcDbEntity
  8
KIJUN
100
AcDbCircle
 10
87.55965398008743
 20
80.74161489543499
 30
0.0
 40
18.38220817769742
100
AcDbArc
 50
23.69367320344172
 51
106.0558789630279
  0
ARC
  5
3B2C
102
{ACAD_REACTORS
330
3B2F
102
}
330
2
100
AcDbEntity
  8
KIJUN
100
AcDbCircle
 10
84.72417454865217
 20
74.69544503667953
 30
0.0
 40
23.81771143815054
100
AcDbArc
 50
34.33232374450688
 51
95.41722842196348
  0
ARC
  5
3B2D
102
{ACAD_REACTORS
330
3B2F
102
}
330
2
100
AcDbEntity
  8
KIJUN
100
AcDbCircle
 10
125.0532630277918
 20
115.4413218250491
 30
0.0
 40
26.03184071837378
100
AcDbArc
 50
168.7394289841725
 51
218.3939282293615
  0
ARC
  5
3B2E
102
{ACAD_REACTORS
330
3B2F
102
}
330
2
100
AcDbEntity
  8
KIJUN
100
AcDbCircle
 10
98.19061616715348
 20
120.8188362012998
 30
0.0
 40
1.36405220816902
100
AcDbArc
 50
347.5426428008737
 51
82.55050402220485
  0
ENDSEC
  0
SECTION
  2
OBJECTS
  0
DICTIONARY
  5
1A
330
0
100
AcDbDictionary
281
     1
  3
ACAD_COLOR
350
144
  3
ACAD_GROUP
350
18
  3
ACAD_LAYOUT
350
58
  3
ACAD_MATERIAL
350
143
  3
ACAD_MLINESTYLE
350
19
  3
ACAD_PLOTSETTINGS
350
59
  3
ACAD_PLOTSTYLENAME
350
56
  3
ACAD_TABLESTYLE
350
145
  3
ACDBHEADERROUNDTRIPXREC
350
3B88
  3
AcDbVariableDictionary
350
1D1
  0
DICTIONARY
  5
1B4
330
A
100
AcDbDictionary
280
     1
281
     1
  3
ACAD_LAYERFILTERS
360
382B
  3
ACLYDICTIONARY
360
382A
  0
DICTIONARY
  5
1578
330
2
100
AcDbDictionary
280
     1
281
     1
  3
ACAD_SORTENTS
360
1579
  0
DICTIONARY
  5
144
102
{ACAD_REACTORS
330
1A
102
}
330
1A
100
AcDbDictionary
281
     1
  0
DICTIONARY
  5
18
102
{ACAD_REACTORS
330
1A
102
}
330
1A
100
AcDbDictionary
281
     1
  3
*A1
350
CFC
  3
*A10
350
32AA
  3
*A11
350
3650
  3
*A12
350
374A
  3
*A13
350
367C
  3
*A14
350
1827
  3
*A15
350
218C
  3
*A16
350
18ED
  3
*A17
350
19E5
  3
*A18
350
1F8A
  3
*A19
350
2108
  3
*A2
350
2FBC
  3
*A20
350
370C
  3
*A21
350
2335
  3
*A22
350
2FE9
  3
*A23
350
2862
  3
*A24
350
299B
  3
*A25
350
2C07
  3
*A26
350
2DB5
  3
*A27
350
2E88
  3
*A28
350
3AE0
  3
*A29
350
3B2F
  3
*A3
350
390C
  3
*A4
350
1682
  3
*A5
350
39C8
  3
*A6
350
312A
  3
*A7
350
15D1
  3
*A8
350
3154
  3
*A9
350
327B
  0
DICTIONARY
  5
58
102
{ACAD_REACTORS
330
1A
102
}
330
1A
100
AcDbDictionary
281
     1
  3
Model
350
5A
  3
ﾚｲｱｳﾄ1
350
5B
  0
DICTIONARY
  5
143
102
{ACAD_REACTORS
330
1A
102
}
330
1A
100
AcDbDictionary
281
     1
  0
DICTIONARY
  5
19
102
{ACAD_REACTORS
330
1A
102
}
330
1A
100
AcDbDictionary
281
     1
  3
STANDARD
350
1D
  0
DICTIONARY
  5
59
102
{ACAD_REACTORS
330
1A
102
}
330
1A
100
AcDbDictionary
281
     1
  0
ACDBDICTIONARYWDFLT
  5
56
102
{ACAD_REACTORS
330
1A
102
}
330
1A
100
AcDbDictionary
281
     1
  3
Normal
350
57
100
AcDbDictionaryWithDefault
340
57
  0
DICTIONARY
  5
145
102
{ACAD_REACTORS
330
1A
102
}
330
1A
100
AcDbDictionary
281
     1
  3
Standard
350
146
  0
DICTIONARY
  5
3B88
102
{ACAD_REACTORS
330
1A
102
}
330
1A
100
AcDbDictionary
281
     1
  0
DICTIONARY
  5
1D1
102
{ACAD_REACTORS
330
1A
102
}
330
1A
100
AcDbDictionary
281
     1
  3
CTABLESTYLE
350
1D2
  3
DIMASSOC
350
D03
  3
PROJECTNAME
350
D04
  0
DICTIONARY
  5
382B
102
{ACAD_REACTORS
330
1B4
102
}
330
1B4
100
AcDbDictionary
281
     1
  0
DICTIONARY
  5
382A
102
{ACAD_REACTORS
330
1B4
102
}
330
1B4
100
AcDbDictionary
281
     1
1001
ACAD
1000
<All
  0
SORTENTSTABLE
  5
1579
102
{ACAD_REACTORS
330
1578
102
}
330
1578
100
AcDbSortentsTable
330
2
331
3AB6
  5
3AB8
331
3AAA
  5
3AAA
331
3AA1
  5
3AA1
331
3A5B
  5
3A5B
331
20
  5
358C
331
3AB4
  5
3AB5
331
3A9F
  5
3A9F
331
3AB2
  5
3AB2
331
3A9D
  5
3A9D
331
3AA6
  5
3AA6
331
3A7F
  5
3A7F
331
3A60
  5
3A60
331
3AAF
  5
3AAF
331
3A54
  5
3A54
331
3AB0
  5
3AB0
331
3AB9
  5
3ABA
331
3A9B
  5
3A9B
331
3A7D
  5
3A7D
331
3A5E
  5
3A5E
331
3AA4
  5
3AA4
331
3A49
  5
3A49
331
3A52
  5
3A52
331
23
  5
36B9
331
3A99
  5
3A99
331
21
  5
35F5
331
3AAB
  5
3AAB
331
3AA2
  5
3AA2
331
3AB5
  5
3AB6
331
3AA0
  5
3AA0
331
3A5A
  5
3A5A
331
3AA9
  5
3AA9
331
35F5
  5
378C
331
3AB3
  5
3AB3
331
3A9E
  5
3A9E
331
3AA7
  5
3AA7
331
3A80
  5
3A80
331
3A55
  5
3A55
331
3AB1
  5
3AB1
331
3A5F
  5
3A5F
331
3ABA
  5
3AB4
331
3A9C
  5
3A9C
331
3AA5
  5
3AA5
331
3A7E
  5
3A7E
331
35E8
  5
36BF
331
3AB8
  5
3AB9
331
3A9A
  5
3A9A
331
3A7C
  5
3A7C
331
3A5D
  5
3A5D
331
3AA3
  5
3AA3
331
3AAC
  5
3AAC
331
1F
  5
23
331
3A51
  5
3A51
  0
GROUP
  5
CFC
102
{ACAD_REACTORS
330
18
102
}
330
18
100
AcDbGroup
300

 70
     1
 71
     1
  0
GROUP
  5
32AA
102
{ACAD_REACTORS
330
18
102
}
330
18
100
AcDbGroup
300

 70
     1
 71
     1
  0
GROUP
  5
3650
102
{ACAD_REACTORS
330
18
102
}
330
18
100
AcDbGroup
300

 70
     1
 71
     1
  0
GROUP
  5
374A
102
{ACAD_REACTORS
330
18
102
}
330
18
100
AcDbGroup
300

 70
     1
 71
     1
  0
GROUP
  5
367C
102
{ACAD_REACTORS
330
18
102
}
330
18
100
AcDbGroup
300

 70
     1
 71
     1
  0
GROUP
  5
1827
102
{ACAD_REACTORS
330
18
102
}
330
18
100
AcDbGroup
300

 70
     1
 71
     1
  0
GROUP
  5
218C
102
{ACAD_REACTORS
330
18
102
}
330
18
100
AcDbGroup
300

 70
     1
 71
     1
  0
GROUP
  5
18ED
102
{ACAD_REACTORS
330
18
102
}
330
18
100
AcDbGroup
300

 70
     1
 71
     1
  0
GROUP
  5
19E5
102
{ACAD_REACTORS
330
18
102
}
330
18
100
AcDbGroup
300

 70
     1
 71
     1
  0
GROUP
  5
1F8A
102
{ACAD_REACTORS
330
18
102
}
330
18
100
AcDbGroup
300

 70
     1
 71
     1
  0
GROUP
  5
2108
102
{ACAD_REACTORS
330
18
102
}
330
18
100
AcDbGroup
300

 70
     1
 71
     1
  0
GROUP
  5
2FBC
102
{ACAD_REACTORS
330
18
102
}
330
18
100
AcDbGroup
300

 70
     1
 71
     1
  0
GROUP
  5
370C
102
{ACAD_REACTORS
330
18
102
}
330
18
100
AcDbGroup
300

 70
     1
 71
     1
  0
GROUP
  5
2335
102
{ACAD_REACTORS
330
18
102
}
330
18
100
AcDbGroup
300

 70
     1
 71
     1
  0
GROUP
  5
2FE9
102
{ACAD_REACTORS
330
18
102
}
330
18
100
AcDbGroup
300

 70
     1
 71
     1
  0
GROUP
  5
2862
102
{ACAD_REACTORS
330
18
102
}
330
18
100
AcDbGroup
300

 70
     1
 71
     1
  0
GROUP
  5
299B
102
{ACAD_REACTORS
330
18
102
}
330
18
100
AcDbGroup
300

 70
     1
 71
     1
  0
GROUP
  5
2C07
102
{ACAD_REACTORS
330
18
102
}
330
18
100
AcDbGroup
300

 70
     1
 71
     1
  0
GROUP
  5
2DB5
102
{ACAD_REACTORS
330
18
102
}
330
18
100
AcDbGroup
300

 70
     1
 71
     1
  0
GROUP
  5
2E88
102
{ACAD_REACTORS
330
18
102
}
330
18
100
AcDbGroup
300

 70
     1
 71
     1
  0
GROUP
  5
3AE0
102
{ACAD_REACTORS
330
18
102
}
330
18
100
AcDbGroup
300

 70
     1
 71
     1
340
3ADE
340
3ADD
340
3ADB
340
3ADA
340
3AD9
340
3AD8
340
3AD7
340
3AD5
340
3AD4
340
3AD3
340
3AD2
340
3AD1
340
3AD0
340
3ACE
340
3ACD
340
3ACC
340
3ACB
340
3ACA
340
3AC9
340
3AC8
340
3AC7
340
3AC6
340
3AC4
340
3AC3
340
3AC2
340
3AC1
340
3AC0
340
3ABF
340
3ABE
340
3ABD
340
3ABC
340
3ABB
340
3AB9
340
3AB8
340
3AB6
340
3AB5
340
3AB4
340
3ABA
340
3AB3
340
3AB2
340
3AB1
340
3AB0
340
3AAF
340
3AAC
340
3AAB
340
3AAA
340
3AA9
340
3AA7
340
3AA6
340
3AA5
340
3AA4
340
3AA3
340
3AA2
340
3AA1
340
3AA0
340
3A9F
340
3A9E
340
3A9D
340
3A9C
340
3A9B
340
3A9A
340
3A99
340
3A80
340
3A7F
340
3A7E
340
3A7D
340
3A7C
340
3A60
340
3A5F
340
3A5E
340
3A5D
340
3A5B
340
3A5A
340
3A55
340
3A54
340
3A52
340
3A51
340
3A49
  0
GROUP
  5
3B2F
102
{ACAD_REACTORS
330
18
102
}
330
18
100
AcDbGroup
300

 70
     1
 71
     1
340
3B2E
340
3B2D
340
3B2C
340
3B2B
340
3B2A
340
3B29
340
3B28
340
3B27
340
3B26
340
3B25
340
3B24
340
3B23
340
3B22
340
3B21
340
3B20
340
3B1F
340
3B1E
340
3B1D
340
3B1C
340
3B1B
340
3B1A
340
3B19
340
3B18
340
3B17
340
3B16
340
3B15
340
3B14
340
3B13
340
3B12
340
3B11
340
3B10
340
3B0F
340
3B0E
340
3B0D
340
3B0C
340
3B0B
340
3B0A
340
3B09
340
3B08
340
3B07
340
3B06
340
3B05
340
3B04
340
3B03
340
3B02
340
3B01
340
3B00
340
3AFF
340
3AFE
340
3AFD
340
3AFC
340
3AFB
340
3AFA
340
3AF9
340
3AF8
340
3AF7
340
3AF6
340
3AF5
340
3AF4
340
3AF3
340
3AF2
340
3AF1
340
3AF0
340
3AEF
340
3AEE
340
3AED
340
3AEC
340
3AEB
340
3AEA
340
3AE9
340
3AE8
340
3AE7
340
3AE6
340
3AE5
340
3AE4
340
3AE3
340
3AE2
340
3AE1
  0
GROUP
  5
390C
102
{ACAD_REACTORS
330
18
102
}
330
18
100
AcDbGroup
300

 70
     1
 71
     1
  0
GROUP
  5
1682
102
{ACAD_REACTORS
330
18
102
}
330
18
100
AcDbGroup
300

 70
     1
 71
     1
  0
GROUP
  5
39C8
102
{ACAD_REACTORS
330
18
102
}
330
18
100
AcDbGroup
300

 70
     1
 71
     1
  0
GROUP
  5
312A
102
{ACAD_REACTORS
330
18
102
}
330
18
100
AcDbGroup
300

 70
     1
 71
     1
  0
GROUP
  5
15D1
102
{ACAD_REACTORS
330
18
102
}
330
18
100
AcDbGroup
300

 70
     1
 71
     1
  0
GROUP
  5
3154
102
{ACAD_REACTORS
330
18
102
}
330
18
100
AcDbGroup
300

 70
     1
 71
     1
  0
GROUP
  5
327B
102
{ACAD_REACTORS
330
18
102
}
330
18
100
AcDbGroup
300

 70
     1
 71
     1
  0
LAYOUT
  5
5A
102
{ACAD_XDICTIONARY
360
3B89
102
}
102
{ACAD_REACTORS
330
58
102
}
330
58
100
AcDbPlotSettings
  1

  2
なし
  4

  6

 40
0.0
 41
0.0
 42
0.0
 43
0.0
 44
0.0
 45
0.0
 46
0.0
 47
0.0
 48
0.0
 49
0.0
140
0.0
141
0.0
142
1.0
143
1.0
 70
  1712
 72
     0
 73
     0
 74
     0
  7
monochrome.ctb
 75
     0
147
1.0
148
0.0
149
0.0
100
AcDbLayout
  1
Model
 70
     1
 71
     0
 10
0.0
 20
0.0
 11
12.0
 21
9.0
 12
0.0
 22
0.0
 32
0.0
 14
0.0
 24
0.0
 34
0.0
 15
0.0
 25
0.0
 35
0.0
146
0.0
 13
0.0
 23
0.0
 33
0.0
 16
1.0
 26
0.0
 36
0.0
 17
0.0
 27
1.0
 37
0.0
 76
     0
330
2
  0
LAYOUT
  5
5B
102
{ACAD_XDICTIONARY
360
3B8B
102
}
102
{ACAD_REACTORS
330
58
102
}
330
58
100
AcDbPlotSettings
  1

  2
なし
  4

  6

 40
0.0
 41
0.0
 42
0.0
 43
0.0
 44
0.0
 45
0.0
 46
0.0
 47
0.0
 48
0.0
 49
0.0
140
0.0
141
0.0
142
1.0
143
1.0
 70
   688
 72
     0
 73
     0
 74
     5
  7
monochrome.ctb
 75
    16
147
1.0
148
0.0
149
0.0
100
AcDbLayout
  1
ﾚｲｱｳﾄ1
 70
     1
 71
     1
 10
0.0
 20
0.0
 11
12.0
 21
9.0
 12
0.0
 22
0.0
 32
0.0
 14
1.000000000000000E+20
 24
1.000000000000000E+20
 34
1.000000000000000E+20
 15
-1.000000000000000E+20
 25
-1.000000000000000E+20
 35
-1.000000000000000E+20
146
0.0
 13
0.0
 23
0.0
 33
0.0
 16
1.0
 26
0.0
 36
0.0
 17
0.0
 27
1.0
 37
0.0
 76
     0
330
7
  0
MLINESTYLE
  5
1D
102
{ACAD_REACTORS
330
19
102
}
330
19
100
AcDbMlineStyle
  2
STANDARD
 70
     0
  3

 62
   256
 51
90.0
 52
90.0
 71
     2
 49
0.5
 62
   256
  6
BYLAYER
 49
-0.5
 62
   256
  6
BYLAYER
  0
ACDBPLACEHOLDER
  5
57
102
{ACAD_REACTORS
330
56
102
}
330
56
  0
TABLESTYLE
  5
146
102
{ACAD_REACTORS
330
145
102
}
330
145
100
AcDbTableStyle
  3
Standard
 70
     0
 71
     0
 40
0.06
 41
0.06
280
     0
281
     0
  7
STANDARD
140
0.18
170
     2
 62
     0
 63
     7
283
     0
274
    -2
284
     1
 64
     0
275
    -2
285
     1
 65
     0
276
    -2
286
     1
 66
     0
277
    -2
287
     1
 67
     0
278
    -2
288
     1
 68
     0
279
    -2
289
     1
 69
     0
  7
STANDARD
140
0.25
170
     5
 62
     0
 63
     7
283
     0
274
    -2
284
     1
 64
     0
275
    -2
285
     1
 65
     0
276
    -2
286
     1
 66
     0
277
    -2
287
     1
 67
     0
278
    -2
288
     1
 68
     0
279
    -2
289
     1
 69
     0
  7
STANDARD
140
0.18
170
     5
 62
     0
 63
     7
283
     0
274
    -2
284
     1
 64
     0
275
    -2
285
     1
 65
     0
276
    -2
286
     1
 66
     0
277
    -2
287
     1
 67
     0
278
    -2
288
     1
 68
     0
279
    -2
289
     1
 69
     0
  0
DICTIONARYVAR
  5
1D2
102
{ACAD_REACTORS
330
1D1
102
}
330
1D1
100
DictionaryVariables
280
     0
  1
STANDARD
  0
DICTIONARYVAR
  5
D03
102
{ACAD_REACTORS
330
1D1
102
}
330
1D1
100
DictionaryVariables
280
     0
  1
1
  0
DICTIONARYVAR
  5
D04
102
{ACAD_REACTORS
330
1D1
102
}
330
1D1
100
DictionaryVariables
280
     0
  1

  0
DICTIONARY
  5
3B89
330
5A
100
AcDbDictionary
280
     1
281
     1
  3
ACAD_XREC_ROUNDTRIP
360
3B8A
  0
DICTIONARY
  5
3B8B
330
5B
100
AcDbDictionary
280
     1
281
     1
  3
ACAD_XREC_ROUNDTRIP
360
3B8C
  0
XRECORD
  5
3B8A
102
{ACAD_REACTORS
330
3B89
102
}
330
3B89
100
AcDbXrecord
280
     1
102
SHADEPLOT
 70
     0
102
SHADEPLOTRESLEVEL
 70
     2
102
SHADEPLOTCUSTOMDPI
 70
   300
  0
XRECORD
  5
3B8C
102
{ACAD_REACTORS
330
3B8B
102
}
330
3B8B
100
AcDbXrecord
280
     1
102
SHADEPLOT
 70
     0
102
SHADEPLOTRESLEVEL
 70
     2
102
SHADEPLOTCUSTOMDPI
 70
   300
  0
ENDSEC
  0
EOF
