  0
SECTION
  2
HEADER
  9
$ACADVER
  1
AC1015
  9
$ACADMAINTVER
 70
    20
  9
$DWGCODEPAGE
  3
ANSI_932
  9
$INSBASE
 10
922.019522
 20
-675.4306699999999
 30
0.0
  9
$EXTMIN
 10
-23.87287825074952
 20
-0.0075636913210246
 30
-0.0000000000000053
  9
$EXTMAX
 10
148.7013365993729
 20
212.2345774220578
 30
0.0000000000000099
  9
$LIMMIN
 10
0.0
 20
0.0
  9
$LIMMAX
 10
420.0
 20
297.0
  9
$ORTHOMODE
 70
     0
  9
$REGENMODE
 70
     1
  9
$FILLMODE
 70
     1
  9
$QTEXTMODE
 70
     0
  9
$MIRRTEXT
 70
     1
  9
$LTSCALE
 40
1.0
  9
$ATTMODE
 70
     1
  9
$TEXTSIZE
 40
30.0
  9
$TRACEWID
 40
0.05
  9
$TEXTSTYLE
  7
SUNPOU
  9
$CLAYER
  8
KIJUN
  9
$CELTYPE
  6
BYLAYER
  9
$CECOLOR
 62
   256
  9
$CELTSCALE
 40
1.0
  9
$DISPSILH
 70
     0
  9
$DIMSCALE
 40
1.0
  9
$DIMASZ
 40
2.0
  9
$DIMEXO
 40
10.0
  9
$DIMDLI
 40
0.38
  9
$DIMRND
 40
0.0
  9
$DIMDLE
 40
0.0
  9
$DIMEXE
 40
0.0
  9
$DIMTP
 40
0.0
  9
$DIMTM
 40
0.0
  9
$DIMTXT
 40
5.0
  9
$DIMCEN
 40
0.0
  9
$DIMTSZ
 40
0.0
  9
$DIMTOL
 70
     0
  9
$DIMLIM
 70
     0
  9
$DIMTIH
 70
     0
  9
$DIMTOH
 70
     0
  9
$DIMSE1
 70
     0
  9
$DIMSE2
 70
     0
  9
$DIMTAD
 70
     1
  9
$DIMZIN
 70
     0
  9
$DIMBLK
  1
Dot
  9
$DIMASO
 70
     1
  9
$DIMSHO
 70
     1
  9
$DIMPOST
  1

  9
$DIMAPOST
  1

  9
$DIMALT
 70
     0
  9
$DIMALTD
 70
     2
  9
$DIMALTF
 40
25.4
  9
$DIMLFAC
 40
1.0
  9
$DIMTOFL
 70
     0
  9
$DIMTVP
 40
0.0
  9
$DIMTIX
 70
     0
  9
$DIMSOXD
 70
     0
  9
$DIMSAH
 70
     0
  9
$DIMBLK1
  1

  9
$DIMBLK2
  1

  9
$DIMSTYLE
  2
STANDARD
  9
$DIMCLRD
 70
    60
  9
$DIMCLRE
 70
    70
  9
$DIMCLRT
 70
    60
  9
$DIMTFAC
 40
0.064286
  9
$DIMGAP
 40
3.0
  9
$DIMJUST
 70
     0
  9
$DIMSD1
 70
     0
  9
$DIMSD2
 70
     0
  9
$DIMTOLJ
 70
     1
  9
$DIMTZIN
 70
     0
  9
$DIMALTZ
 70
     0
  9
$DIMALTTZ
 70
     0
  9
$DIMUPT
 70
     0
  9
$DIMDEC
 70
     0
  9
$DIMTDEC
 70
     0
  9
$DIMALTU
 70
     2
  9
$DIMALTTD
 70
     2
  9
$DIMTXSTY
  7
SUNPOU
  9
$DIMAUNIT
 70
     0
  9
$DIMADEC
 70
     0
  9
$DIMALTRND
 40
0.0
  9
$DIMAZIN
 70
     0
  9
$DIMDSEP
 70
    46
  9
$DIMATFIT
 70
     3
  9
$DIMFRAC
 70
     0
  9
$DIMLDRBLK
  1

  9
$DIMLUNIT
 70
     2
  9
$DIMLWD
 70
    -2
  9
$DIMLWE
 70
    -2
  9
$DIMTMOVE
 70
     0
  9
$LUNITS
 70
     2
  9
$LUPREC
 70
     5
  9
$SKETCHINC
 40
0.1
  9
$FILLETRAD
 40
0.0
  9
$AUNITS
 70
     0
  9
$AUPREC
 70
     0
  9
$MENU
  1
acad
  9
$ELEVATION
 40
0.0
  9
$PELEVATION
 40
0.0
  9
$THICKNESS
 40
0.0
  9
$LIMCHECK
 70
     0
  9
$CHAMFERA
 40
0.0
  9
$CHAMFERB
 40
0.0
  9
$CHAMFERC
 40
0.0
  9
$CHAMFERD
 40
0.0
  9
$SKPOLY
 70
     0
  9
$TDCREATE
 40
2450623.654673033
  9
$TDUCREATE
 40
2450623.279673032
  9
$TDUPDATE
 40
2453867.566076759
  9
$TDUUPDATE
 40
2453867.191076759
  9
$TDINDWG
 40
0.4130981713
  9
$TDUSRTIMER
 40
0.4130979977
  9
$USRTIMER
 70
     1
  9
$ANGBASE
 50
0.0
  9
$ANGDIR
 70
     0
  9
$PDMODE
 70
     0
  9
$PDSIZE
 40
0.0
  9
$PLINEWID
 40
0.0
  9
$SPLFRAME
 70
     0
  9
$SPLINETYPE
 70
     6
  9
$SPLINESEGS
 70
     8
  9
$HANDSEED
  5
31F8
  9
$SURFTAB1
 70
     6
  9
$SURFTAB2
 70
     6
  9
$SURFTYPE
 70
     6
  9
$SURFU
 70
     6
  9
$SURFV
 70
     6
  9
$UCSBASE
  2

  9
$UCSNAME
  2

  9
$UCSORG
 10
0.0
 20
0.0
 30
0.0
  9
$UCSXDIR
 10
1.0
 20
0.0
 30
0.0
  9
$UCSYDIR
 10
0.0
 20
1.0
 30
0.0
  9
$UCSORTHOREF
  2

  9
$UCSORTHOVIEW
 70
     0
  9
$UCSORGTOP
 10
0.0
 20
0.0
 30
0.0
  9
$UCSORGBOTTOM
 10
0.0
 20
0.0
 30
0.0
  9
$UCSORGLEFT
 10
0.0
 20
0.0
 30
0.0
  9
$UCSORGRIGHT
 10
0.0
 20
0.0
 30
0.0
  9
$UCSORGFRONT
 10
0.0
 20
0.0
 30
0.0
  9
$UCSORGBACK
 10
0.0
 20
0.0
 30
0.0
  9
$PUCSBASE
  2

  9
$PUCSNAME
  2

  9
$PUCSORG
 10
0.0
 20
0.0
 30
0.0
  9
$PUCSXDIR
 10
1.0
 20
0.0
 30
0.0
  9
$PUCSYDIR
 10
0.0
 20
1.0
 30
0.0
  9
$PUCSORTHOREF
  2

  9
$PUCSORTHOVIEW
 70
     0
  9
$PUCSORGTOP
 10
0.0
 20
0.0
 30
0.0
  9
$PUCSORGBOTTOM
 10
0.0
 20
0.0
 30
0.0
  9
$PUCSORGLEFT
 10
0.0
 20
0.0
 30
0.0
  9
$PUCSORGRIGHT
 10
0.0
 20
0.0
 30
0.0
  9
$PUCSORGFRONT
 10
0.0
 20
0.0
 30
0.0
  9
$PUCSORGBACK
 10
0.0
 20
0.0
 30
0.0
  9
$USERI1
 70
     0
  9
$USERI2
 70
     0
  9
$USERI3
 70
     0
  9
$USERI4
 70
     0
  9
$USERI5
 70
     0
  9
$USERR1
 40
0.0
  9
$USERR2
 40
0.0
  9
$USERR3
 40
0.0
  9
$USERR4
 40
0.0
  9
$USERR5
 40
0.0
  9
$WORLDVIEW
 70
     1
  9
$SHADEDGE
 70
     3
  9
$SHADEDIF
 70
    70
  9
$TILEMODE
 70
     1
  9
$MAXACTVP
 70
    16
  9
$PINSBASE
 10
0.0
 20
0.0
 30
0.0
  9
$PLIMCHECK
 70
     0
  9
$PEXTMIN
 10
1.000000000000000E+20
 20
1.000000000000000E+20
 30
1.000000000000000E+20
  9
$PEXTMAX
 10
-1.000000000000000E+20
 20
-1.000000000000000E+20
 30
-1.000000000000000E+20
  9
$PLIMMIN
 10
0.0
 20
0.0
  9
$PLIMMAX
 10
12.0
 20
9.0
  9
$UNITMODE
 70
     0
  9
$VISRETAIN
 70
     0
  9
$PLINEGEN
 70
     0
  9
$PSLTSCALE
 70
     1
  9
$TREEDEPTH
 70
  3020
  9
$CMLSTYLE
  2
STANDARD
  9
$CMLJUST
 70
     0
  9
$CMLSCALE
 40
1.0
  9
$PROXYGRAPHICS
 70
     1
  9
$MEASUREMENT
 70
     0
  9
$CELWEIGHT
370
    -1
  9
$ENDCAPS
280
     0
  9
$JOINSTYLE
280
     0
  9
$LWDISPLAY
290
     0
  9
$INSUNITS
 70
     0
  9
$HYPERLINKBASE
  1

  9
$STYLESHEET
  1

  9
$XEDIT
290
     1
  9
$CEPSNTYPE
380
     0
  9
$PSTYLEMODE
290
     1
  9
$FINGERPRINTGUID
  2
{FB88A696-E29C-4009-92AF-A3599A8169D5}
  9
$VERSIONGUID
  2
{D18CC45E-D500-4894-99C5-AF94DE6EEC0F}
  9
$EXTNAMES
290
     1
  9
$PSVPSCALE
 40
0.0
  9
$OLESTARTUP
290
     0
  0
ENDSEC
  0
SECTION
  2
CLASSES
  0
CLASS
  1
DICTIONARYVAR
  2
AcDbDictionaryVar
  3
ObjectDBX Classes
 90
        0
280
     0
281
     0
  0
CLASS
  1
ACDBDICTIONARYWDFLT
  2
AcDbDictionaryWithDefault
  3
ObjectDBX Classes
 90
        0
280
     0
281
     0
  0
CLASS
  1
ACDBPLACEHOLDER
  2
AcDbPlaceHolder
  3
ObjectDBX Classes
 90
        0
280
     0
281
     0
  0
CLASS
  1
LAYOUT
  2
AcDbLayout
  3
ObjectDBX Classes
 90
        0
280
     0
281
     0
  0
CLASS
  1
TABLESTYLE
  2
AcDbTableStyle
  3
ObjectDBX Classes
 90
     2047
280
     0
281
     0
  0
CLASS
  1
SORTENTSTABLE
  2
AcDbSortentsTable
  3
ObjectDBX Classes
 90
        0
280
     0
281
     0
  0
ENDSEC
  0
SECTION
  2
TABLES
  0
TABLE
  2
VPORT
  5
12
330
0
100
AcDbSymbolTable
 70
    12
  0
VPORT
  5
31F2
330
12
100
AcDbSymbolTableRecord
100
AcDbViewportTableRecord
  2
*Active
 70
     0
 10
0.0
 20
0.0
 11
1.0
 21
1.0
 12
62.41422917431169
 22
106.1135068653683
 13
0.0
 23
0.0
 14
1.0
 24
1.0
 15
0.0
 25
0.0
 16
0.0
 26
0.0
 36
1.0
 17
0.0
 27
0.0
 37
0.0
 40
213.872682530383
 41
1.565384615384615
 42
50.0
 43
0.0
 44
0.0
 50
0.0
 51
0.0
 71
     0
 72
 20000
 73
     1
 74
     1
 75
     0
 76
     0
 77
     0
 78
     0
281
     0
 65
     1
110
0.0
120
0.0
130
0.0
111
1.0
121
0.0
131
0.0
112
0.0
122
1.0
132
0.0
 79
     0
146
0.0
  0
ENDTAB
  0
TABLE
  2
LTYPE
  5
D
330
0
100
AcDbSymbolTable
 70
     2
  0
LTYPE
  5
E
330
D
100
AcDbSymbolTableRecord
100
AcDbLinetypeTableRecord
  2
BYBLOCK
 70
     0
  3

 72
    65
 73
     0
 40
0.0
  0
LTYPE
  5
F
330
D
100
AcDbSymbolTableRecord
100
AcDbLinetypeTableRecord
  2
BYLAYER
 70
     0
  3

 72
    65
 73
     0
 40
0.0
  0
LTYPE
  5
5
330
D
100
AcDbSymbolTableRecord
100
AcDbLinetypeTableRecord
  2
CONTINUOUS
 70
     0
  3
Solid line
 72
    65
 73
     0
 40
0.0
  0
ENDTAB
  0
TABLE
  2
LAYER
  5
A
102
{ACAD_XDICTIONARY
360
1B4
102
}
330
0
100
AcDbSymbolTable
 70
     6
  0
LAYER
  5
4
330
A
100
AcDbSymbolTableRecord
100
AcDbLayerTableRecord
  2
0
 70
     0
 62
     7
  6
CONTINUOUS
370
    -3
390
57
  0
LAYER
  5
25
330
A
100
AcDbSymbolTableRecord
100
AcDbLayerTableRecord
  2
KIJUN
 70
     0
 62
     7
  6
CONTINUOUS
370
    -3
390
57
  0
LAYER
  5
22
330
A
100
AcDbSymbolTableRecord
100
AcDbLayerTableRecord
  2
HOJO
 70
     0
 62
     3
  6
CONTINUOUS
370
    -3
390
57
  0
LAYER
  5
1B
330
A
100
AcDbSymbolTableRecord
100
AcDbLayerTableRecord
  2
WAKU
 70
     0
 62
     1
  6
CONTINUOUS
370
    -3
390
57
  0
LAYER
  5
31
330
A
100
AcDbSymbolTableRecord
100
AcDbLayerTableRecord
  2
DEFPOINTS
 70
     0
 62
     7
  6
CONTINUOUS
290
     0
370
    -3
390
57
  0
LAYER
  5
28
330
A
100
AcDbSymbolTableRecord
100
AcDbLayerTableRecord
  2
SUNPOU
 70
     0
 62
    70
  6
CONTINUOUS
370
    -3
390
57
  0
ENDTAB
  0
TABLE
  2
STYLE
  5
B
330
0
100
AcDbSymbolTable
 70
     3
  0
STYLE
  5
C
330
B
100
AcDbSymbolTableRecord
100
AcDbTextStyleTableRecord
  2
STANDARD
 70
     0
 40
0.0
 41
1.0
 50
0.0
 71
     0
 42
0.2
  3
txt
  4

  0
STYLE
  5
1C
330
B
100
AcDbSymbolTableRecord
100
AcDbTextStyleTableRecord
  2
SUNPOU
 70
     0
 40
0.0
 41
1.0
 50
0.0
 71
     0
 42
30.0
  3
txt
  4
bigfont
  0
STYLE
  5
14A
330
B
100
AcDbSymbolTableRecord
100
AcDbTextStyleTableRecord
  2
LIFE
 70
     0
 40
0.0
 41
0.7
 50
0.0
 71
     0
 42
10.0
  3
romans
  4
extfont
  0
ENDTAB
  0
TABLE
  2
VIEW
  5
10
330
0
100
AcDbSymbolTable
 70
     0
  0
ENDTAB
  0
TABLE
  2
UCS
  5
11
330
0
100
AcDbSymbolTable
 70
     0
  0
ENDTAB
  0
TABLE
  2
APPID
  5
14
330
0
100
AcDbSymbolTable
 70
    10
  0
APPID
  5
15
330
14
100
AcDbSymbolTableRecord
100
AcDbRegAppTableRecord
  2
ACAD
 70
     0
  0
APPID
  5
1D3
330
14
100
AcDbSymbolTableRecord
100
AcDbRegAppTableRecord
  2
ACAD_DSTYLE_DIMTEXT_FILL
 70
     0
  0
APPID
  5
1D4
330
14
100
AcDbSymbolTableRecord
100
AcDbRegAppTableRecord
  2
ACAD_DSTYLE_DIMEXT_LENGTH
 70
     0
  0
APPID
  5
1D5
330
14
100
AcDbSymbolTableRecord
100
AcDbRegAppTableRecord
  2
ACAD_DSTYLE_DIMEXT_ENABLED
 70
     0
  0
APPID
  5
1D6
330
14
100
AcDbSymbolTableRecord
100
AcDbRegAppTableRecord
  2
ACAD_DSTYLE_DIM_LINETYPE
 70
     0
  0
APPID
  5
1D7
330
14
100
AcDbSymbolTableRecord
100
AcDbRegAppTableRecord
  2
ACAD_DSTYLE_DIM_EXT1_LINETYPE
 70
     0
  0
APPID
  5
1D8
330
14
100
AcDbSymbolTableRecord
100
AcDbRegAppTableRecord
  2
ACAD_DSTYLE_DIM_EXT2_LINETYPE
 70
     0
  0
APPID
  5
294
330
14
100
AcDbSymbolTableRecord
100
AcDbRegAppTableRecord
  2
ACAD_DSTYLE_DIMJOGGED_JOGANGLE_SYMBOL
 70
     0
  0
APPID
  5
478
330
14
100
AcDbSymbolTableRecord
100
AcDbRegAppTableRecord
  2
ACAD_DSTYLE_DIMARC_LENGTH_SYMBOL
 70
     0
  0
APPID
  5
F55
330
14
100
AcDbSymbolTableRecord
100
AcDbRegAppTableRecord
  2
ACAD_EXEMPT_FROM_CAD_STANDARDS
 70
     0
  0
ENDTAB
  0
TABLE
  2
DIMSTYLE
  5
16
330
0
100
AcDbSymbolTable
 70
     3
100
AcDbDimStyleTable
 71
     1
340
1E
  0
DIMSTYLE
105
1E
102
{ACAD_REACTORS
330
30FB
330
3108
102
}
330
16
100
AcDbSymbolTableRecord
100
AcDbDimStyleTableRecord
  2
STANDARD
 70
     0
340
C
  0
DIMSTYLE
105
1005
330
16
100
AcDbSymbolTableRecord
100
AcDbDimStyleTableRecord
  2
1-100
 70
     0
 40
100.0
 41
0.7
 42
2.5
 43
5.0
 44
1.0
 77
     1
147
1.0
172
     1
176
     3
177
     3
271
     2
272
     2
279
     2
340
C
342
109
  0
ENDTAB
  0
TABLE
  2
BLOCK_RECORD
  5
1
330
0
100
AcDbSymbolTable
 70
    24
  0
BLOCK_RECORD
  5
2
102
{ACAD_XDICTIONARY
360
D13
102
}
330
1
100
AcDbSymbolTableRecord
100
AcDbBlockTableRecord
  2
*MODEL_SPACE
340
5A
  0
BLOCK_RECORD
  5
7
330
1
100
AcDbSymbolTableRecord
100
AcDbBlockTableRecord
  2
*PAPER_SPACE
340
5B
  0
BLOCK_RECORD
  5
109
330
1
100
AcDbSymbolTableRecord
100
AcDbBlockTableRecord
  2
_Dot
340
0
102
{BLKREFS
331
28F6
331
28F7
331
28FF
331
2900
331
29FF
331
2A00
331
2A11
331
2A12
331
2BBE
331
2BBF
331
2BC7
331
2BC8
331
2C78
331
2C79
331
2C8A
331
2C8B
331
2D85
331
2D86
331
2D97
331
2D98
331
2EBA
331
2EBB
331
2EC7
331
2EC8
331
2FA0
331
2FA1
331
2FB2
331
2FB3
331
308A
331
308B
331
309C
331
309D
331
31E3
331
31E4
331
31EC
331
31ED
102
}
  0
BLOCK_RECORD
  5
2D4D
330
1
100
AcDbSymbolTableRecord
100
AcDbBlockTableRecord
  2
*D9
340
0
  0
BLOCK_RECORD
  5
2D5A
330
1
100
AcDbSymbolTableRecord
100
AcDbBlockTableRecord
  2
*D10
340
0
  0
BLOCK_RECORD
  5
2EB6
330
1
100
AcDbSymbolTableRecord
100
AcDbBlockTableRecord
  2
*D13
340
0
  0
BLOCK_RECORD
  5
2EC3
330
1
100
AcDbSymbolTableRecord
100
AcDbBlockTableRecord
  2
*D14
340
0
  0
BLOCK_RECORD
  5
2F55
330
1
100
AcDbSymbolTableRecord
100
AcDbBlockTableRecord
  2
*D16
340
0
  0
BLOCK_RECORD
  5
2F62
330
1
100
AcDbSymbolTableRecord
100
AcDbBlockTableRecord
  2
*D17
340
0
  0
BLOCK_RECORD
  5
3050
330
1
100
AcDbSymbolTableRecord
100
AcDbBlockTableRecord
  2
*D19
340
0
  0
BLOCK_RECORD
  5
305D
330
1
100
AcDbSymbolTableRecord
100
AcDbBlockTableRecord
  2
*D20
340
0
  0
BLOCK_RECORD
  5
30FC
330
1
100
AcDbSymbolTableRecord
100
AcDbBlockTableRecord
  2
*D22
340
0
  0
BLOCK_RECORD
  5
3109
330
1
100
AcDbSymbolTableRecord
100
AcDbBlockTableRecord
  2
*D23
340
0
  0
ENDTAB
  0
ENDSEC
  0
SECTION
  2
BLOCKS
  0
BLOCK
  5
3
330
2
100
AcDbEntity
  8
0
100
AcDbBlockBegin
  2
*MODEL_SPACE
 70
     0
 10
0.0
 20
0.0
 30
0.0
  3
*MODEL_SPACE
  1

  0
ENDBLK
  5
6
330
2
100
AcDbEntity
  8
0
100
AcDbBlockEnd
  0
BLOCK
  5
8
330
7
100
AcDbEntity
 67
     1
  8
0
100
AcDbBlockBegin
  2
*PAPER_SPACE
 70
     0
 10
0.0
 20
0.0
 30
0.0
  3
*PAPER_SPACE
  1

  0
ENDBLK
  5
9
330
7
100
AcDbEntity
 67
     1
  8
0
100
AcDbBlockEnd
  0
BLOCK
  5
10C
330
109
100
AcDbEntity
  8
0
100
AcDbBlockBegin
  2
_Dot
 70
     0
 10
0.0
 20
0.0
 30
0.0
  3
_Dot
  1

  0
LWPOLYLINE
  5
10A
330
109
100
AcDbEntity
  8
0
  6
ByBlock
 62
     0
100
AcDbPolyline
 90
        2
 70
     1
 43
0.5
 10
-0.25
 20
0.0
 42
1.0
 10
0.25
 20
0.0
 42
1.0
  0
LINE
  5
10B
330
109
100
AcDbEntity
  8
0
  6
ByBlock
 62
     0
370
    -2
100
AcDbLine
 10
-0.5
 20
0.0
 30
0.0
 11
-1.0
 21
0.0
 31
0.0
  0
ENDBLK
  5
10D
330
109
100
AcDbEntity
  8
0
100
AcDbBlockEnd
  0
BLOCK
  5
2D57
330
2D4D
100
AcDbEntity
  8
0
100
AcDbBlockBegin
  2
*D9
 70
     1
 10
0.0
 20
0.0
 30
0.0
  3
*D9
  1

  0
LINE
  5
2D94
330
2D4D
100
AcDbEntity
  8
SUNPOU
 62
    70
370
    -2
100
AcDbLine
 10
0.1418159049885054
 20
125.6030844466623
 30
0.0
 11
0.1418159049885066
 21
145.3652734674748
 31
0.0
  0
LINE
  5
2D95
330
2D4D
100
AcDbEntity
  8
SUNPOU
 62
    70
370
    -2
100
AcDbLine
 10
148.1418159049885
 20
124.931205663816
 30
0.0
 11
148.1418159049885
 21
145.3652734674748
 31
0.0
  0
LINE
  5
2D96
330
2D4D
100
AcDbEntity
  8
SUNPOU
 62
    60
370
    -2
100
AcDbLine
 10
2.141815904988506
 20
145.3652734674748
 30
0.0
 11
146.1418159049885
 21
145.3652734674748
 31
0.0
  0
INSERT
  5
2D97
330
2D4D
100
AcDbEntity
  8
SUNPOU
 62
    60
370
    -2
100
AcDbBlockReference
  2
_Dot
 10
0.1418159049885066
 20
145.3652734674748
 30
0.0
 41
2.0
 42
2.0
 43
2.0
 50
180.0
  0
INSERT
  5
2D98
330
2D4D
100
AcDbEntity
  8
SUNPOU
 62
    60
370
    -2
100
AcDbBlockReference
  2
_Dot
 10
148.1418159049885
 20
145.3652734674748
 30
0.0
 41
2.0
 42
2.0
 43
2.0
  0
MTEXT
  5
2D99
330
2D4D
100
AcDbEntity
  8
SUNPOU
 62
    60
100
AcDbMText
 10
74.1418159049885
 20
150.8652734674748
 30
0.0
 40
5.0
 41
0.0
 71
     5
 72
     1
  1
\A1;148
  7
SUNPOU
 73
     1
 44
1.0
1001
ACAD
1000
MTEXTBEGIN
1070
    73
1070
     1
1070
    44
1040
1.0
1070
    74
1070
     0
1000
MTEXTEND
  0
POINT
  5
2D9A
330
2D4D
100
AcDbEntity
  8
DEFPOINTS
 62
     0
100
AcDbPoint
 10
0.1418159049885048
 20
115.6030844466623
 30
0.0
  0
POINT
  5
2D9B
330
2D4D
100
AcDbEntity
  8
DEFPOINTS
 62
     0
100
AcDbPoint
 10
148.1418159049885
 20
114.931205663816
 30
0.0
  0
POINT
  5
2D9C
330
2D4D
100
AcDbEntity
  8
DEFPOINTS
 62
     0
100
AcDbPoint
 10
148.1418159049885
 20
145.3652734674748
 30
0.0
  0
ENDBLK
  5
2D58
330
2D4D
100
AcDbEntity
  8
0
100
AcDbBlockEnd
  0
BLOCK
  5
2D64
330
2D5A
100
AcDbEntity
  8
0
100
AcDbBlockBegin
  2
*D10
 70
     1
 10
0.0
 20
0.0
 30
0.0
  3
*D10
  1

  0
LINE
  5
2D82
330
2D5A
100
AcDbEntity
  8
SUNPOU
 62
    70
370
    -2
100
AcDbLine
 10
-9.858184095011495
 20
115.6030844466623
 30
0.0
 11
-29.12859584432521
 21
115.6030844466623
 31
0.0
  0
LINE
  5
2D83
330
2D5A
100
AcDbEntity
  8
SUNPOU
 62
    70
370
    -2
100
AcDbLine
 10
-10.17002237899623
 20
35.60308444666254
 30
0.0
 11
-29.12859584432522
 21
35.60308444666254
 31
0.0
  0
LINE
  5
2D84
330
2D5A
100
AcDbEntity
  8
SUNPOU
 62
    60
370
    -2
100
AcDbLine
 10
-29.12859584432521
 20
113.6030844466623
 30
0.0
 11
-29.12859584432522
 21
37.60308444666254
 31
0.0
  0
INSERT
  5
2D85
330
2D5A
100
AcDbEntity
  8
SUNPOU
 62
    60
370
    -2
100
AcDbBlockReference
  2
_Dot
 10
-29.12859584432521
 20
115.6030844466623
 30
0.0
 41
2.0
 42
2.0
 43
2.0
 50
90.0
  0
INSERT
  5
2D86
330
2D5A
100
AcDbEntity
  8
SUNPOU
 62
    60
370
    -2
100
AcDbBlockReference
  2
_Dot
 10
-29.12859584432522
 20
35.60308444666254
 30
0.0
 41
2.0
 42
2.0
 43
2.0
 50
270.0
  0
MTEXT
  5
2D87
330
2D5A
100
AcDbEntity
  8
SUNPOU
 62
    60
100
AcDbMText
 10
-34.62859584432523
 20
75.60308444666244
 30
0.0
 40
5.0
 41
0.0
 71
     5
 72
     1
  1
\A1;80
  7
SUNPOU
 11
0.0000000000000001
 21
1.0
 31
0.0
 73
     1
 44
1.0
1001
ACAD
1000
MTEXTBEGIN
1070
    73
1070
     1
1070
    44
1040
1.0
1070
    74
1070
     0
1000
MTEXTEND
  0
POINT
  5
2D88
330
2D5A
100
AcDbEntity
  8
DEFPOINTS
 62
     0
100
AcDbPoint
 10
0.1418159049885048
 20
115.6030844466623
 30
0.0
  0
POINT
  5
2D89
330
2D5A
100
AcDbEntity
  8
DEFPOINTS
 62
     0
100
AcDbPoint
 10
-0.1700223789962365
 20
35.60308444666254
 30
0.0
  0
POINT
  5
2D8A
330
2D5A
100
AcDbEntity
  8
DEFPOINTS
 62
     0
100
AcDbPoint
 10
-29.12859584432522
 20
35.60308444666254
 30
0.0
  0
ENDBLK
  5
2D65
330
2D5A
100
AcDbEntity
  8
0
100
AcDbBlockEnd
  0
BLOCK
  5
2EC0
330
2EB6
100
AcDbEntity
  8
0
100
AcDbBlockBegin
  2
*D13
 70
     1
 10
0.0
 20
0.0
 30
0.0
  3
*D13
  1

  0
LINE
  5
2EB7
330
2EB6
100
AcDbEntity
  8
SUNPOU
 62
    70
370
    -2
100
AcDbLine
 10
44.62777553604053
 20
75.56064489621573
 30
0.0
 11
44.62777553604053
 21
103.3282186239353
 31
0.0
  0
LINE
  5
2EB8
330
2EB6
100
AcDbEntity
  8
SUNPOU
 62
    70
370
    -2
100
AcDbLine
 10
98.62777553604042
 20
75.56064489621566
 30
0.0
 11
98.62777553604042
 21
103.3282186239353
 31
0.0
  0
LINE
  5
2EB9
330
2EB6
100
AcDbEntity
  8
SUNPOU
 62
    60
370
    -2
100
AcDbLine
 10
46.62777553604053
 20
103.3282186239353
 30
0.0
 11
96.62777553604042
 21
103.3282186239353
 31
0.0
  0
INSERT
  5
2EBA
330
2EB6
100
AcDbEntity
  8
SUNPOU
 62
    60
370
    -2
100
AcDbBlockReference
  2
_Dot
 10
44.62777553604053
 20
103.3282186239353
 30
0.0
 41
2.0
 42
2.0
 43
2.0
 50
180.0
  0
INSERT
  5
2EBB
330
2EB6
100
AcDbEntity
  8
SUNPOU
 62
    60
370
    -2
100
AcDbBlockReference
  2
_Dot
 10
98.62777553604042
 20
103.3282186239353
 30
0.0
 41
2.0
 42
2.0
 43
2.0
  0
MTEXT
  5
2EBC
330
2EB6
100
AcDbEntity
  8
SUNPOU
 62
    60
100
AcDbMText
 10
71.62777553604048
 20
108.8282186239353
 30
0.0
 40
5.0
 41
0.0
 71
     5
 72
     1
  1
\A1;54
  7
SUNPOU
 73
     1
 44
1.0
1001
ACAD
1000
MTEXTBEGIN
1070
    73
1070
     1
1070
    44
1040
1.0
1070
    74
1070
     0
1000
MTEXTEND
  0
POINT
  5
2EBD
330
2EB6
100
AcDbEntity
  8
DEFPOINTS
 62
     0
100
AcDbPoint
 10
44.62777553604053
 20
65.56064489621573
 30
0.0
  0
POINT
  5
2EBE
330
2EB6
100
AcDbEntity
  8
DEFPOINTS
 62
     0
100
AcDbPoint
 10
98.62777553604042
 20
65.56064489621566
 30
0.0
  0
POINT
  5
2EBF
330
2EB6
100
AcDbEntity
  8
DEFPOINTS
 62
     0
100
AcDbPoint
 10
98.62777553604042
 20
103.3282186239353
 30
0.0
  0
ENDBLK
  5
2EC1
330
2EB6
100
AcDbEntity
  8
0
100
AcDbBlockEnd
  0
BLOCK
  5
2ECD
330
2EC3
100
AcDbEntity
  8
0
100
AcDbBlockBegin
  2
*D14
 70
     1
 10
0.0
 20
0.0
 30
0.0
  3
*D14
  1

  0
LINE
  5
2EC4
330
2EC3
100
AcDbEntity
  8
SUNPOU
 62
    70
370
    -2
100
AcDbLine
 10
56.46639654069609
 20
87.39926590087112
 30
0.0
 11
26.88340140478659
 21
87.39926590087113
 31
0.0
  0
LINE
  5
2EC5
330
2EC3
100
AcDbEntity
  8
SUNPOU
 62
    70
370
    -2
100
AcDbLine
 10
56.46639654069602
 20
33.39926590087123
 30
0.0
 11
26.88340140478658
 21
33.39926590087124
 31
0.0
  0
LINE
  5
2EC6
330
2EC3
100
AcDbEntity
  8
SUNPOU
 62
    60
370
    -2
100
AcDbLine
 10
26.88340140478659
 20
85.39926590087112
 30
0.0
 11
26.88340140478658
 21
35.39926590087123
 31
0.0
  0
INSERT
  5
2EC7
330
2EC3
100
AcDbEntity
  8
SUNPOU
 62
    60
370
    -2
100
AcDbBlockReference
  2
_Dot
 10
26.88340140478659
 20
87.39926590087113
 30
0.0
 41
2.0
 42
2.0
 43
2.0
 50
90.0
  0
INSERT
  5
2EC8
330
2EC3
100
AcDbEntity
  8
SUNPOU
 62
    60
370
    -2
100
AcDbBlockReference
  2
_Dot
 10
26.88340140478658
 20
33.39926590087124
 30
0.0
 41
2.0
 42
2.0
 43
2.0
 50
270.0
  0
MTEXT
  5
2EC9
330
2EC3
100
AcDbEntity
  8
SUNPOU
 62
    60
100
AcDbMText
 10
21.38340140478657
 20
60.39926590087119
 30
0.0
 40
5.0
 41
0.0
 71
     5
 72
     1
  1
\A1;54
  7
SUNPOU
 11
0.0000000000000001
 21
1.0
 31
0.0
 73
     1
 44
1.0
1001
ACAD
1000
MTEXTBEGIN
1070
    73
1070
     1
1070
    44
1040
1.0
1070
    74
1070
     0
1000
MTEXTEND
  0
POINT
  5
2ECA
330
2EC3
100
AcDbEntity
  8
DEFPOINTS
 62
     0
100
AcDbPoint
 10
66.46639654069608
 20
87.39926590087112
 30
0.0
  0
POINT
  5
2ECB
330
2EC3
100
AcDbEntity
  8
DEFPOINTS
 62
     0
100
AcDbPoint
 10
66.46639654069602
 20
33.39926590087123
 30
0.0
  0
POINT
  5
2ECC
330
2EC3
100
AcDbEntity
  8
DEFPOINTS
 62
     0
100
AcDbPoint
 10
26.88340140478658
 20
33.39926590087124
 30
0.0
  0
ENDBLK
  5
2ECE
330
2EC3
100
AcDbEntity
  8
0
100
AcDbBlockEnd
  0
BLOCK
  5
2F5F
330
2F55
100
AcDbEntity
  8
0
100
AcDbBlockBegin
  2
*D16
 70
     1
 10
0.0
 20
0.0
 30
0.0
  3
*D16
  1

  0
LINE
  5
2FAF
330
2F55
100
AcDbEntity
  8
SUNPOU
 62
    70
370
    -2
100
AcDbLine
 10
-6.955946714665485
 20
222.8416558432654
 30
0.0
 11
-6.955946714665484
 21
243.6803208305053
 31
0.0
  0
LINE
  5
2FB0
330
2F55
100
AcDbEntity
  8
SUNPOU
 62
    70
370
    -2
100
AcDbLine
 10
165.0440532853345
 20
220.4892270029193
 30
0.0
 11
165.0440532853345
 21
243.6803208305053
 31
0.0
  0
LINE
  5
2FB1
330
2F55
100
AcDbEntity
  8
SUNPOU
 62
    60
370
    -2
100
AcDbLine
 10
-4.955946714665484
 20
243.6803208305053
 30
0.0
 11
163.0440532853345
 21
243.6803208305053
 31
0.0
  0
INSERT
  5
2FB2
330
2F55
100
AcDbEntity
  8
SUNPOU
 62
    60
370
    -2
100
AcDbBlockReference
  2
_Dot
 10
-6.955946714665484
 20
243.6803208305053
 30
0.0
 41
2.0
 42
2.0
 43
2.0
 50
180.0
  0
INSERT
  5
2FB3
330
2F55
100
AcDbEntity
  8
SUNPOU
 62
    60
370
    -2
100
AcDbBlockReference
  2
_Dot
 10
165.0440532853345
 20
243.6803208305053
 30
0.0
 41
2.0
 42
2.0
 43
2.0
  0
MTEXT
  5
2FB4
330
2F55
100
AcDbEntity
  8
SUNPOU
 62
    60
100
AcDbMText
 10
79.04405328533453
 20
249.1803208305053
 30
0.0
 40
5.0
 41
0.0
 71
     5
 72
     1
  1
\A1;172
  7
SUNPOU
 73
     1
 44
1.0
1001
ACAD
1000
MTEXTBEGIN
1070
    73
1070
     1
1070
    44
1040
1.0
1070
    74
1070
     0
1000
MTEXTEND
  0
POINT
  5
2FB5
330
2F55
100
AcDbEntity
  8
DEFPOINTS
 62
     0
100
AcDbPoint
 10
-6.955946714665486
 20
212.8416558432654
 30
0.0
  0
POINT
  5
2FB6
330
2F55
100
AcDbEntity
  8
DEFPOINTS
 62
     0
100
AcDbPoint
 10
165.0440532853345
 20
210.4892270029193
 30
0.0
  0
POINT
  5
2FB7
330
2F55
100
AcDbEntity
  8
DEFPOINTS
 62
     0
100
AcDbPoint
 10
165.0440532853345
 20
243.6803208305053
 30
0.0
  0
ENDBLK
  5
2F60
330
2F55
100
AcDbEntity
  8
0
100
AcDbBlockEnd
  0
BLOCK
  5
2F6C
330
2F62
100
AcDbEntity
  8
0
100
AcDbBlockBegin
  2
*D17
 70
     1
 10
0.0
 20
0.0
 30
0.0
  3
*D17
  1

  0
LINE
  5
2F9D
330
2F62
100
AcDbEntity
  8
SUNPOU
 62
    70
370
    -2
100
AcDbLine
 10
-16.95594671466549
 20
212.8416558432654
 30
0.0
 11
-35.7209210111059
 21
212.8416558432654
 31
0.0
  0
LINE
  5
2F9E
330
2F62
100
AcDbEntity
  8
SUNPOU
 62
    70
370
    -2
100
AcDbLine
 10
-12.82070709250229
 20
42.84165584326565
 30
0.0
 11
-35.72092101110594
 21
42.84165584326566
 31
0.0
  0
LINE
  5
2F9F
330
2F62
100
AcDbEntity
  8
SUNPOU
 62
    60
370
    -2
100
AcDbLine
 10
-35.7209210111059
 20
210.8416558432654
 30
0.0
 11
-35.72092101110594
 21
44.84165584326566
 31
0.0
  0
INSERT
  5
2FA0
330
2F62
100
AcDbEntity
  8
SUNPOU
 62
    60
370
    -2
100
AcDbBlockReference
  2
_Dot
 10
-35.7209210111059
 20
212.8416558432654
 30
0.0
 41
2.0
 42
2.0
 43
2.0
 50
90.0
  0
INSERT
  5
2FA1
330
2F62
100
AcDbEntity
  8
SUNPOU
 62
    60
370
    -2
100
AcDbBlockReference
  2
_Dot
 10
-35.72092101110594
 20
42.84165584326566
 30
0.0
 41
2.0
 42
2.0
 43
2.0
 50
270.0
  0
MTEXT
  5
2FA2
330
2F62
100
AcDbEntity
  8
SUNPOU
 62
    60
100
AcDbMText
 10
-41.22092101110593
 20
127.8416558432655
 30
0.0
 40
5.0
 41
0.0
 71
     5
 72
     1
  1
\A1;170
  7
SUNPOU
 11
0.0000000000000001
 21
1.0
 31
0.0
 73
     1
 44
1.0
1001
ACAD
1000
MTEXTBEGIN
1070
    73
1070
     1
1070
    44
1040
1.0
1070
    74
1070
     0
1000
MTEXTEND
  0
POINT
  5
2FA3
330
2F62
100
AcDbEntity
  8
DEFPOINTS
 62
     0
100
AcDbPoint
 10
-6.955946714665486
 20
212.8416558432654
 30
0.0
  0
POINT
  5
2FA4
330
2F62
100
AcDbEntity
  8
DEFPOINTS
 62
     0
100
AcDbPoint
 10
-2.820707092502289
 20
42.84165584326565
 30
0.0
  0
POINT
  5
2FA5
330
2F62
100
AcDbEntity
  8
DEFPOINTS
 62
     0
100
AcDbPoint
 10
-35.72092101110594
 20
42.84165584326566
 30
0.0
  0
ENDBLK
  5
2F6D
330
2F62
100
AcDbEntity
  8
0
100
AcDbBlockEnd
  0
BLOCK
  5
305A
330
3050
100
AcDbEntity
  8
0
100
AcDbBlockBegin
  2
*D19
 70
     1
 10
0.0
 20
0.0
 30
0.0
  3
*D19
  1

  0
LINE
  5
3099
330
3050
100
AcDbEntity
  8
SUNPOU
 62
    70
370
    -2
100
AcDbLine
 10
26.77615250246225
 20
88.38649375862404
 30
0.0
 11
26.77615250246225
 21
100.1932696032997
 31
0.0
  0
LINE
  5
309A
330
3050
100
AcDbEntity
  8
SUNPOU
 62
    70
370
    -2
100
AcDbLine
 10
128.7761525024628
 20
88.67617922769978
 30
0.0
 11
128.7761525024628
 21
100.1932696032997
 31
0.0
  0
LINE
  5
309B
330
3050
100
AcDbEntity
  8
SUNPOU
 62
    60
370
    -2
100
AcDbLine
 10
28.77615250246225
 20
100.1932696032997
 30
0.0
 11
126.7761525024628
 21
100.1932696032997
 31
0.0
  0
INSERT
  5
309C
330
3050
100
AcDbEntity
  8
SUNPOU
 62
    60
370
    -2
100
AcDbBlockReference
  2
_Dot
 10
26.77615250246225
 20
100.1932696032997
 30
0.0
 41
2.0
 42
2.0
 43
2.0
 50
180.0
  0
INSERT
  5
309D
330
3050
100
AcDbEntity
  8
SUNPOU
 62
    60
370
    -2
100
AcDbBlockReference
  2
_Dot
 10
128.7761525024628
 20
100.1932696032997
 30
0.0
 41
2.0
 42
2.0
 43
2.0
  0
MTEXT
  5
309E
330
3050
100
AcDbEntity
  8
SUNPOU
 62
    60
100
AcDbMText
 10
77.77615250246253
 20
105.6932696032997
 30
0.0
 40
5.0
 41
0.0
 71
     5
 72
     1
  1
\A1;102
  7
SUNPOU
 73
     1
 44
1.0
1001
ACAD
1000
MTEXTBEGIN
1070
    73
1070
     1
1070
    44
1040
1.0
1070
    74
1070
     0
1000
MTEXTEND
  0
POINT
  5
309F
330
3050
100
AcDbEntity
  8
DEFPOINTS
 62
     0
100
AcDbPoint
 10
26.77615250246225
 20
78.38649375862404
 30
0.0
  0
POINT
  5
30A0
330
3050
100
AcDbEntity
  8
DEFPOINTS
 62
     0
100
AcDbPoint
 10
128.7761525024628
 20
78.67617922769977
 30
0.0
  0
POINT
  5
30A1
330
3050
100
AcDbEntity
  8
DEFPOINTS
 62
     0
100
AcDbPoint
 10
128.7761525024628
 20
100.1932696032997
 30
0.0
  0
ENDBLK
  5
305B
330
3050
100
AcDbEntity
  8
0
100
AcDbBlockEnd
  0
BLOCK
  5
3067
330
305D
100
AcDbEntity
  8
0
100
AcDbBlockBegin
  2
*D20
 70
     1
 10
0.0
 20
0.0
 30
0.0
  3
*D20
  1

  0
LINE
  5
3087
330
305D
100
AcDbEntity
  8
SUNPOU
 62
    70
370
    -2
100
AcDbLine
 10
16.77615250246225
 20
78.38649375862404
 30
0.0
 11
7.307928459925285
 21
78.38649375862404
 31
0.0
  0
LINE
  5
3088
330
305D
100
AcDbEntity
  8
SUNPOU
 62
    70
370
    -2
100
AcDbLine
 10
16.85609841476389
 20
46.38649375862399
 30
0.0
 11
7.307928459925278
 21
46.38649375862399
 31
0.0
  0
LINE
  5
3089
330
305D
100
AcDbEntity
  8
SUNPOU
 62
    60
370
    -2
100
AcDbLine
 10
7.307928459925284
 20
76.38649375862404
 30
0.0
 11
7.307928459925278
 21
48.38649375862399
 31
0.0
  0
INSERT
  5
308A
330
305D
100
AcDbEntity
  8
SUNPOU
 62
    60
370
    -2
100
AcDbBlockReference
  2
_Dot
 10
7.307928459925285
 20
78.38649375862404
 30
0.0
 41
2.0
 42
2.0
 43
2.0
 50
90.0
  0
INSERT
  5
308B
330
305D
100
AcDbEntity
  8
SUNPOU
 62
    60
370
    -2
100
AcDbBlockReference
  2
_Dot
 10
7.307928459925278
 20
46.38649375862399
 30
0.0
 41
2.0
 42
2.0
 43
2.0
 50
270.0
  0
MTEXT
  5
308C
330
305D
100
AcDbEntity
  8
SUNPOU
 62
    60
100
AcDbMText
 10
1.807928459925271
 20
62.38649375862401
 30
0.0
 40
5.0
 41
0.0
 71
     5
 72
     1
  1
\A1;32
  7
SUNPOU
 11
0.0000000000000001
 21
1.0
 31
0.0
 73
     1
 44
1.0
1001
ACAD
1000
MTEXTBEGIN
1070
    73
1070
     1
1070
    44
1040
1.0
1070
    74
1070
     0
1000
MTEXTEND
  0
POINT
  5
308D
330
305D
100
AcDbEntity
  8
DEFPOINTS
 62
     0
100
AcDbPoint
 10
26.77615250246225
 20
78.38649375862404
 30
0.0
  0
POINT
  5
308E
330
305D
100
AcDbEntity
  8
DEFPOINTS
 62
     0
100
AcDbPoint
 10
26.85609841476389
 20
46.38649375862399
 30
0.0
  0
POINT
  5
308F
330
305D
100
AcDbEntity
  8
DEFPOINTS
 62
     0
100
AcDbPoint
 10
7.307928459925278
 20
46.38649375862399
 30
0.0
  0
ENDBLK
  5
3068
330
305D
100
AcDbEntity
  8
0
100
AcDbBlockEnd
  0
BLOCK
  5
3106
330
30FC
100
AcDbEntity
  8
0
100
AcDbBlockBegin
  2
*D22
 70
     1
 10
0.0
 20
0.0
 30
0.0
  3
*D22
  1

  0
LINE
  5
31E0
330
30FC
100
AcDbEntity
  8
SUNPOU
 62
    70
370
    -2
100
AcDbLine
 10
5.990362397614164
 20
179.3740075797039
 30
0.0
 11
-15.86928620185925
 21
179.3740075797039
 31
0.0
  0
LINE
  5
31E1
330
30FC
100
AcDbEntity
  8
SUNPOU
 62
    70
370
    -2
100
AcDbLine
 10
4.766901656834306
 20
46.37400757970431
 30
0.0
 11
-15.86928620185928
 21
46.37400757970431
 31
0.0
  0
LINE
  5
31E2
330
30FC
100
AcDbEntity
  8
SUNPOU
 62
    60
370
    -2
100
AcDbLine
 10
-15.86928620185925
 20
177.3740075797039
 30
0.0
 11
-15.86928620185928
 21
48.37400757970431
 31
0.0
  0
INSERT
  5
31E3
330
30FC
100
AcDbEntity
  8
SUNPOU
 62
    60
370
    -2
100
AcDbBlockReference
  2
_Dot
 10
-15.86928620185925
 20
179.3740075797039
 30
0.0
 41
2.0
 42
2.0
 43
2.0
 50
90.0
  0
INSERT
  5
31E4
330
30FC
100
AcDbEntity
  8
SUNPOU
 62
    60
370
    -2
100
AcDbBlockReference
  2
_Dot
 10
-15.86928620185928
 20
46.37400757970431
 30
0.0
 41
2.0
 42
2.0
 43
2.0
 50
270.0
  0
MTEXT
  5
31E5
330
30FC
100
AcDbEntity
  8
SUNPOU
 62
    60
100
AcDbMText
 10
-21.36928620185928
 20
112.8740075797041
 30
0.0
 40
5.0
 41
0.0
 71
     5
 72
     1
  1
\A1;133
  7
SUNPOU
 11
0.0000000000000001
 21
1.0
 31
0.0
 73
     1
 44
1.0
1001
ACAD
1000
MTEXTBEGIN
1070
    73
1070
     1
1070
    44
1040
1.0
1070
    74
1070
     0
1000
MTEXTEND
  0
POINT
  5
31E6
330
30FC
100
AcDbEntity
  8
DEFPOINTS
 62
     0
100
AcDbPoint
 10
15.99036239761416
 20
179.3740075797039
 30
0.0
  0
POINT
  5
31E7
330
30FC
100
AcDbEntity
  8
DEFPOINTS
 62
     0
100
AcDbPoint
 10
14.76690165683431
 20
46.37400757970431
 30
0.0
  0
POINT
  5
31E8
330
30FC
100
AcDbEntity
  8
DEFPOINTS
 62
     0
100
AcDbPoint
 10
-15.86928620185928
 20
46.37400757970431
 30
0.0
  0
ENDBLK
  5
3107
330
30FC
100
AcDbEntity
  8
0
100
AcDbBlockEnd
  0
BLOCK
  5
3113
330
3109
100
AcDbEntity
  8
0
100
AcDbBlockBegin
  2
*D23
 70
     1
 10
0.0
 20
0.0
 30
0.0
  3
*D23
  1

  0
LINE
  5
31E9
330
3109
100
AcDbEntity
  8
SUNPOU
 62
    70
370
    -2
100
AcDbLine
 10
15.99036239761416
 20
189.3740075797039
 30
0.0
 11
15.99036239761416
 21
204.2147186650006
 31
0.0
  0
LINE
  5
31EA
330
3109
100
AcDbEntity
  8
SUNPOU
 62
    70
370
    -2
100
AcDbLine
 10
69.99036239761443
 20
189.5793105005016
 30
0.0
 11
69.99036239761443
 21
204.2147186650006
 31
0.0
  0
LINE
  5
31EB
330
3109
100
AcDbEntity
  8
SUNPOU
 62
    60
370
    -2
100
AcDbLine
 10
17.99036239761416
 20
204.2147186650006
 30
0.0
 11
67.99036239761443
 21
204.2147186650006
 31
0.0
  0
INSERT
  5
31EC
330
3109
100
AcDbEntity
  8
SUNPOU
 62
    60
370
    -2
100
AcDbBlockReference
  2
_Dot
 10
15.99036239761416
 20
204.2147186650006
 30
0.0
 41
2.0
 42
2.0
 43
2.0
 50
180.0
  0
INSERT
  5
31ED
330
3109
100
AcDbEntity
  8
SUNPOU
 62
    60
370
    -2
100
AcDbBlockReference
  2
_Dot
 10
69.99036239761443
 20
204.2147186650006
 30
0.0
 41
2.0
 42
2.0
 43
2.0
  0
MTEXT
  5
31EE
330
3109
100
AcDbEntity
  8
SUNPOU
 62
    60
100
AcDbMText
 10
42.9903623976143
 20
209.7147186650007
 30
0.0
 40
5.0
 41
0.0
 71
     5
 72
     1
  1
\A1;54
  7
SUNPOU
 73
     1
 44
1.0
1001
ACAD
1000
MTEXTBEGIN
1070
    73
1070
     1
1070
    44
1040
1.0
1070
    74
1070
     0
1000
MTEXTEND
  0
POINT
  5
31EF
330
3109
100
AcDbEntity
  8
DEFPOINTS
 62
     0
100
AcDbPoint
 10
15.99036239761416
 20
179.3740075797039
 30
0.0
  0
POINT
  5
31F0
330
3109
100
AcDbEntity
  8
DEFPOINTS
 62
     0
100
AcDbPoint
 10
69.99036239761443
 20
179.5793105005016
 30
0.0
  0
POINT
  5
31F1
330
3109
100
AcDbEntity
  8
DEFPOINTS
 62
     0
100
AcDbPoint
 10
69.99036239761443
 20
204.2147186650006
 30
0.0
  0
ENDBLK
  5
3114
330
3109
100
AcDbEntity
  8
0
100
AcDbBlockEnd
  0
ENDSEC
  0
SECTION
  2
ENTITIES
  0
LINE
  5
1F
330
2
100
AcDbEntity
  8
WAKU
100
AcDbLine
 10
0.0
 20
14.0
 30
0.0
 11
148.6829221395387
 21
14.0
 31
0.0
  0
LINE
  5
20
330
2
100
AcDbEntity
  8
WAKU
100
AcDbLine
 10
0.0
 20
0.0
 30
0.0
 11
148.6829221395387
 21
0.0
 31
0.0
  0
TEXT
  5
21
330
2
100
AcDbEntity
  8
HOJO
100
AcDbText
 10
9.653966000000025
 20
2.366626000000024
 30
0.0
 40
9.0
  1
TWE106
  7
SUNPOU
100
AcDbText
  0
TEXT
  5
23
330
2
100
AcDbEntity
  8
HOJO
100
AcDbText
 10
85.84696046283864
 20
5.044386000000031
 30
0.0
 40
6.0
  1
133×54×4
  7
SUNPOU
100
AcDbText
  0
SPLINE
  5
30D7
102
{ACAD_REACTORS
330
3181
102
}
330
2
100
AcDbEntity
  8
KIJUN
100
AcDbSpline
210
0.0
220
0.0
230
1.0
 70
     8
 71
     3
 72
    13
 73
     9
 74
     7
 42
0.0000000001
 43
0.0000000001
 44
0.0000000001
 40
0.0
 40
0.0
 40
0.0
 40
0.0
 40
12.77526011472949
 40
22.91907489364703
 40
33.06309483485036
 40
44.05242098447602
 40
52.44815456228245
 40
57.33189395856898
 40
57.33189395856898
 40
57.33189395856898
 40
57.33189395856898
 10
40.05015755202134
 20
110.3150307747187
 30
0.0
 10
36.85058040127558
 20
107.5224347371636
 30
0.0
 10
31.11047431440261
 20
102.5124609943487
 30
0.0
 10
23.22115396314229
 20
94.59963032152449
 30
0.0
 10
19.5384756686056
 20
84.49334715636297
 30
0.0
 10
19.55719070322834
 20
74.53967253644165
 30
0.0
 10
21.3531809258381
 20
66.53658639132743
 30
0.0
 10
23.47124305568065
 20
62.6356897660437
 30
0.0
 10
24.25019441071368
 20
61.20107240081347
 30
0.0
 11
40.05015755202134
 21
110.3150307747187
 31
0.0
 11
30.53571726759538
 21
101.7896160004634
 31
0.0
 11
23.83424183105831
 21
94.17468295791627
 31
0.0
 11
20.21439934713487
 21
84.69850857375082
 31
0.0
 11
20.01591769580898
 21
73.71097498986888
 31
0.0
 11
22.06689543524579
 21
65.56960946424351
 31
0.0
 11
24.25019441071368
 21
61.20107240081347
 31
0.0
  0
ARC
  5
30D9
102
{ACAD_REACTORS
330
3181
102
}
330
2
100
AcDbEntity
  8
KIJUN
100
AcDbCircle
 10
49.03987191839155
 20
79.38007573043774
 30
0.0
 40
33.04951007785758
100
AcDbArc
 50
180.0105199571108
 51
267.0619631293722
  0
SPLINE
  5
30DA
102
{ACAD_REACTORS
330
3181
102
}
330
2
100
AcDbEntity
  8
KIJUN
100
AcDbSpline
210
0.0
220
0.0
230
1.0
 70
     8
 71
     3
 72
    11
 73
     7
 74
     5
 42
0.0000000001
 43
0.0000000001
 44
0.0000000001
 40
0.0
 40
0.0
 40
0.0
 40
0.0
 40
2.162461175790709
 40
6.899473469554017
 40
9.60300843407219
 40
13.10377644432035
 40
13.10377644432035
 40
13.10377644432035
 40
13.10377644432035
 10
48.13684836288394
 20
172.1463366785731
 30
0.0
 10
48.60652884099033
 20
172.7380269163685
 30
0.0
 10
50.10507505034701
 20
174.6258532244502
 30
0.0
 10
54.43528410056877
 20
173.2107099001758
 30
0.0
 10
55.36979924494506
 20
169.392911227402
 30
0.0
 10
54.48794643329546
 20
167.4629724447937
 30
0.0
 10
53.99036239761471
 20
166.3740075797041
 30
0.0
 11
48.13684836288394
 21
172.1463366785731
 31
0.0
 11
49.70430095322001
 21
173.6360785064919
 31
0.0
 11
54.24991326247345
 21
172.3031515748005
 31
0.0
 11
55.03363976036246
 21
169.715706100809
 31
0.0
 11
53.99036239761471
 21
166.3740075797041
 31
0.0
  0
ARC
  5
30DB
102
{ACAD_REACTORS
330
3181
102
}
330
2
100
AcDbEntity
  8
KIJUN
100
AcDbCircle
 10
48.83939636363635
 20
171.064311365798
 30
0.0
 40
6.966448211897234
100
AcDbArc
 50
169.465736207807
 51
317.6800149814805
  0
ARC
  5
30DC
102
{ACAD_REACTORS
330
3181
102
}
330
2
100
AcDbEntity
  8
KIJUN
100
AcDbCircle
 10
49.70573211778251
 20
162.6916640445738
 30
0.0
 40
16.69577303575776
100
AcDbArc
 50
12.74165862667812
 51
85.58710379021553
  0
ARC
  5
30DD
102
{ACAD_REACTORS
330
3181
102
}
330
2
100
AcDbEntity
  8
KIJUN
100
AcDbCircle
 10
50.21621797024057
 20
171.0475560395832
 30
0.0
 40
8.326451540120725
100
AcDbArc
 50
84.66527121337923
 51
171.0846960888158
  0
SPLINE
  5
30DE
102
{ACAD_REACTORS
330
3181
102
}
330
2
100
AcDbEntity
  8
KIJUN
100
AcDbSpline
210
0.0
220
0.0
230
1.0
 70
     8
 71
     3
 72
    12
 73
     8
 74
     6
 42
0.0000000001
 43
0.0000000001
 44
0.0000000001
 40
0.0
 40
0.0
 40
0.0
 40
0.0
 40
8.734221791300349
 40
21.75669210568825
 40
30.65881300703772
 40
43.89821471604594
 40
48.91998388140743
 40
48.91998388140743
 40
48.91998388140743
 40
48.91998388140743
 10
45.84958743713321
 20
101.8826415577493
 30
0.0
 10
43.02152842725433
 20
101.1668347658442
 30
0.0
 10
35.9769157983493
 20
99.38378089444455
 30
0.0
 10
27.29581272123534
 20
93.01003984444463
 30
0.0
 10
22.08616323339805
 20
82.13879189783668
 30
0.0
 10
22.47273616972222
 20
72.75722665318835
 30
0.0
 10
23.7353930199078
 20
66.81747842142732
 30
0.0
 10
24.08262000115212
 20
65.1840648399284
 30
0.0
 11
45.84958743713321
 21
101.8826415577493
 31
0.0
 11
37.50790383060996
 21
99.29363694047129
 31
0.0
 11
27.17333282519997
 21
91.37016704255074
 31
0.0
 11
23.30994179514016
 21
83.35006939407435
 31
0.0
 11
23.11677224363712
 21
70.11207698068847
 31
0.0
 11
24.08262000115212
 21
65.1840648399284
 31
0.0
  0
SPLINE
  5
30DF
102
{ACAD_REACTORS
330
3181
102
}
330
2
100
AcDbEntity
  8
KIJUN
100
AcDbSpline
210
0.0
220
0.0
230
1.0
 70
     8
 71
     3
 72
    13
 73
     9
 74
     7
 42
0.0000000001
 43
0.0000000001
 44
0.0000000001
 40
0.0
 40
0.0
 40
0.0
 40
0.0
 40
4.007064203707548
 40
9.126692128369006
 40
16.84870962222921
 40
27.98596385111184
 40
36.69148290181991
 40
39.38306456016138
 40
39.38306456016138
 40
39.38306456016138
 40
39.38306456016138
 10
38.99036239761449
 20
92.37400757970409
 30
0.0
 10
37.63001436209041
 20
92.38469142273439
 30
0.0
 10
34.53161686295061
 20
92.40902548406415
 30
0.0
 10
29.64853872746778
 20
89.01104802961922
 30
0.0
 10
25.60814092297676
 20
81.88533159367887
 30
0.0
 10
24.53985721168209
 20
72.56135253504675
 30
0.0
 10
25.49156913216757
 20
64.99643632218951
 30
0.0
 10
26.93017183936075
 20
61.47435268883518
 30
0.0
 10
27.26991760095143
 20
60.64256432891011
 30
0.0
 11
38.99036239761449
 21
92.37400757970409
 31
0.0
 11
34.99669966107115
 21
92.04656066892381
 31
0.0
 11
30.65038475225378
 21
89.3409855359132
 31
0.0
 11
26.59382417069094
 21
82.770302890739
 31
0.0
 11
24.95188298291544
 21
71.75474748510237
 31
0.0
 11
26.30406984343642
 21
63.15488396080877
 31
0.0
 11
27.26991760095143
 21
60.64256432891011
 31
0.0
  0
SPLINE
  5
30E0
102
{ACAD_REACTORS
330
3181
102
}
330
2
100
AcDbEntity
  8
KIJUN
100
AcDbSpline
210
0.0
220
0.0
230
1.0
 70
     8
 71
     3
 72
    11
 73
     7
 74
     5
 42
0.0000000001
 43
0.0000000001
 44
0.0000000001
 40
0.0
 40
0.0
 40
0.0
 40
0.0
 40
4.027079200194128
 40
7.515109856464979
 40
10.77547227658486
 40
15.56684949269873
 40
15.56684949269873
 40
15.56684949269873
 40
15.56684949269873
 10
38.99036239761449
 20
92.37400757970409
 30
0.0
 10
40.28756789769267
 20
91.9521273547707
 30
0.0
 10
42.70834021302937
 20
91.16483808653592
 30
0.0
 10
44.72177945818708
 20
87.34085877974465
 30
0.0
 10
41.92405123596933
 20
83.97497946535343
 30
0.0
 10
39.45790234855167
 20
82.97128161409373
 30
0.0
 10
37.99036239761449
 20
82.37400757970409
 30
0.0
 11
38.99036239761449
 21
92.37400757970409
 31
0.0
 11
42.59007754983474
 21
90.56862182936924
 31
0.0
 11
43.99036239761449
 21
87.37400757970409
 31
0.0
 11
42.21094477122585
 21
84.64204198302695
 31
0.0
 11
37.99036239761449
 21
82.37400757970409
 31
0.0
  0
SPLINE
  5
30E1
102
{ACAD_REACTORS
330
3181
102
}
330
2
100
AcDbEntity
  8
KIJUN
100
AcDbSpline
210
0.0
220
0.0
230
1.0
 70
     8
 71
     3
 72
    10
 73
     6
 74
     4
 42
0.0000000001
 43
0.0000000001
 44
0.0000000001
 40
0.0
 40
0.0
 40
0.0
 40
0.0
 40
2.765935608695111
 40
16.3070792259129
 40
36.40475056173508
 40
36.40475056173508
 40
36.40475056173508
 40
36.40475056173508
 10
63.99036239761426
 20
143.3740075797043
 30
0.0
 10
63.25292942228026
 20
142.8193961511581
 30
0.0
 10
58.90525845164393
 20
139.5495830447115
 30
0.0
 10
50.84355008981379
 20
130.3724982616468
 30
0.0
 10
42.76774777322424
 20
122.6086812846065
 30
0.0
 10
37.94282094513983
 20
117.9701515940137
 30
0.0
 11
63.99036239761426
 21
143.3740075797043
 31
0.0
 11
61.79925286253626
 21
141.6859795003354
 31
0.0
 11
52.19393480259589
 21
132.1413246909931
 31
0.0
 11
37.94282094513983
 21
117.9701515940137
 31
0.0
  0
SPLINE
  5
30E2
102
{ACAD_REACTORS
330
3181
102
}
330
2
100
AcDbEntity
  8
KIJUN
100
AcDbSpline
210
0.0
220
0.0
230
1.0
 70
     8
 71
     3
 72
    10
 73
     6
 74
     4
 42
0.0000000001
 43
0.0000000001
 44
0.0000000001
 40
0.0
 40
0.0
 40
0.0
 40
0.0
 40
4.697526058194489
 40
20.54468529047728
 40
31.30411496806822
 40
31.30411496806822
 40
31.30411496806822
 40
31.30411496806822
 10
62.9903623976146
 20
133.3740075797041
 30
0.0
 10
61.8823496745431
 20
132.2676360395621
 30
0.0
 10
57.03644303957322
 20
127.4289071373762
 30
0.0
 10
49.39627776053817
 20
120.3091725367917
 30
0.0
 10
42.58049291647469
 20
114.6333833975533
 30
0.0
 10
39.82425994066182
 20
112.3381529072664
 30
0.0
 11
62.9903623976146
 21
133.3740075797041
 31
0.0
 11
59.6575262781106
 21
130.0635764192741
 31
0.0
 11
48.04028385922754
 21
119.2852586324286
 31
0.0
 11
39.82425994066182
 21
112.3381529072664
 31
0.0
  0
SPLINE
  5
30E4
102
{ACAD_REACTORS
330
3181
102
}
330
2
100
AcDbEntity
  8
KIJUN
100
AcDbSpline
210
0.0
220
0.0
230
1.0
 70
     8
 71
     3
 72
    10
 73
     6
 74
     4
 42
0.0000000001
 43
0.0000000001
 44
0.0000000001
 40
0.0
 40
0.0
 40
0.0
 40
0.0
 40
18.14353667626011
 40
23.9504934771407
 40
27.49227418216515
 40
27.49227418216515
 40
27.49227418216515
 40
27.49227418216515
 10
46.99036239761449
 20
115.3740075797041
 30
0.0
 10
51.74196472646753
 20
118.170924595242
 30
0.0
 10
58.01434825420978
 20
121.8630130745733
 30
0.0
 10
66.5250385227099
 20
129.996277939599
 30
0.0
 10
63.96154505245613
 20
132.4459473209652
 30
0.0
 10
62.9903623976146
 20
133.3740075797041
 30
0.0
 11
46.99036239761449
 21
115.3740075797041
 31
0.0
 11
61.90046778482849
 21
125.7121254192805
 31
0.0
 11
65.12059766455116
 21
130.5444655195849
 31
0.0
 11
62.9903623976146
 21
133.3740075797041
 31
0.0
  0
SPLINE
  5
30E5
102
{ACAD_REACTORS
330
3181
102
}
330
2
100
AcDbEntity
  8
KIJUN
100
AcDbSpline
210
0.0
220
0.0
230
1.0
 70
     8
 71
     3
 72
    10
 73
     6
 74
     4
 42
0.0000000001
 43
0.0000000001
 44
0.0000000001
 40
0.0
 40
0.0
 40
0.0
 40
0.0
 40
4.108080152636508
 40
11.32199048920584
 40
16.35534365256328
 40
16.35534365256328
 40
16.35534365256328
 40
16.35534365256328
 10
65.99036239761449
 20
166.3740075797041
 30
0.0
 10
66.01775438122098
 20
165.0053002869221
 30
0.0
 10
66.0932474987722
 20
161.2331024778218
 30
0.0
 10
66.33004230077029
 20
155.7741890376836
 30
0.0
 10
65.93361323672275
 20
151.706973432834
 30
0.0
 10
65.77068970008269
 20
150.0354381930763
 30
0.0
 11
65.99036239761449
 21
166.3740075797041
 31
0.0
 11
66.08418021814987
 21
162.2669988437703
 31
0.0
 11
66.16255294902714
 21
155.0535142448323
 31
0.0
 11
65.77068970008269
 21
150.0354381930763
 31
0.0
  0
SPLINE
  5
30E6
102
{ACAD_REACTORS
330
3181
102
}
330
2
100
AcDbEntity
  8
KIJUN
100
AcDbSpline
210
0.0
220
0.0
230
1.0
 70
     8
 71
     3
 72
    10
 73
     6
 74
     4
 42
0.0000000001
 43
0.0000000001
 44
0.0000000001
 40
0.0
 40
0.0
 40
0.0
 40
0.0
 40
1.45213687122952
 40
3.5791772918935
 40
11.68066020377462
 40
11.68066020377462
 40
11.68066020377462
 40
11.68066020377462
 10
63.99036239761437
 20
143.3740075797043
 30
0.0
 10
64.52210114120919
 20
143.3149172393422
 30
0.0
 10
65.83271260904075
 20
143.1692733895204
 30
0.0
 10
66.21137378847413
 20
138.4617409676394
 30
0.0
 10
64.41398268415742
 20
135.6226803053393
 30
0.0
 10
62.99036239761448
 20
133.3740075797041
 30
0.0
 11
63.99036239761437
 21
143.3740075797043
 31
0.0
 11
65.38894182119463
 21
142.9832684228206
 31
0.0
 11
65.92563013448182
 21
140.9250491425884
 31
0.0
 11
62.99036239761448
 21
133.3740075797041
 31
0.0
  0
SPLINE
  5
30E9
102
{ACAD_REACTORS
330
3181
102
}
330
2
100
AcDbEntity
  8
KIJUN
100
AcDbSpline
210
0.0
220
0.0
230
1.0
 70
     8
 71
     3
 72
     9
 73
     5
 74
     3
 42
0.0000000001
 43
0.0000000001
 44
0.0000000001
 40
0.0
 40
0.0
 40
0.0
 40
0.0
 40
3.804156458728764
 40
8.97231865507687
 40
8.97231865507687
 40
8.97231865507687
 40
8.97231865507687
 10
28.99036239761449
 20
112.3740075797041
 30
0.0
 10
29.09311957309149
 20
111.0884554152125
 30
0.0
 10
29.33547819647558
 20
108.0564077608431
 30
0.0
 10
27.96356889201021
 20
105.3166457901991
 30
0.0
 10
27.17333282519997
 20
103.7385103284516
 30
0.0
 11
28.99036239761449
 21
112.3740075797041
 31
0.0
 11
29.0084435644784
 21
108.5698940911377
 31
0.0
 11
27.17333282519997
 21
103.7385103284516
 31
0.0
  0
SPLINE
  5
30EA
102
{ACAD_REACTORS
330
3181
102
}
330
2
100
AcDbEntity
  8
KIJUN
100
AcDbSpline
210
0.0
220
0.0
230
1.0
 70
     8
 71
     3
 72
     9
 73
     5
 74
     3
 42
0.0000000001
 43
0.0000000001
 44
0.0000000001
 40
0.0
 40
0.0
 40
0.0
 40
0.0
 40
2.289909573210466
 40
5.580925243658741
 40
5.580925243658741
 40
5.580925243658741
 40
5.580925243658741
 10
48.13222875783265
 20
100.356541569068
 30
0.0
 10
47.32662290420392
 20
100.6272041076824
 30
0.0
 10
45.36321522315205
 20
101.2868578389644
 30
0.0
 10
45.7076620655049
 20
103.4369181778412
 30
0.0
 10
45.91077891554834
 20
104.7047872064925
 30
0.0
 11
48.13222875783265
 21
100.356541569068
 31
0.0
 11
46.10394846705128
 21
101.4194455701465
 31
0.0
 11
45.91077891554834
 21
104.7047872064925
 31
0.0
  0
SPLINE
  5
30EB
102
{ACAD_REACTORS
330
3181
102
}
330
2
100
AcDbEntity
  8
KIJUN
100
AcDbSpline
210
0.0
220
0.0
230
1.0
 70
     8
 71
     3
 72
     9
 73
     5
 74
     3
 42
0.0000000001
 43
0.0000000001
 44
0.0000000001
 40
0.0
 40
0.0
 40
0.0
 40
0.0
 40
3.730817234145547
 40
15.07397590556378
 40
15.07397590556378
 40
15.07397590556378
 40
15.07397590556378
 10
59.58885903314251
 20
107.4386436092106
 30
0.0
 10
58.35988795179628
 20
107.1141432188677
 30
0.0
 10
53.39435913969118
 20
105.803033411449
 30
0.0
 10
50.88137876383695
 20
100.9933167510431
 30
0.0
 10
48.99036239761381
 20
97.37400757970432
 30
0.0
 11
59.58885903314251
 21
107.4386436092106
 31
0.0
 11
56.05218036945541
 21
106.2508299603507
 31
0.0
 11
48.99036239761381
 21
97.37400757970432
 31
0.0
  0
SPLINE
  5
30EC
102
{ACAD_REACTORS
330
3181
102
}
330
2
100
AcDbEntity
  8
KIJUN
100
AcDbSpline
210
0.0
220
0.0
230
1.0
 70
     8
 71
     3
 72
     9
 73
     5
 74
     3
 42
0.0000000001
 43
0.0000000001
 44
0.0000000001
 40
0.0
 40
0.0
 40
0.0
 40
0.0
 40
4.447488600708497
 40
10.1554047656667
 40
10.1554047656667
 40
10.1554047656667
 40
10.1554047656667
 10
48.99036239761449
 20
97.37400757970432
 30
0.0
 10
47.48625228532751
 20
97.65769583569358
 30
0.0
 10
44.0517641114908
 20
98.30547019229966
 30
0.0
 10
41.03730971418975
 20
96.46370590643824
 30
0.0
 10
39.3430145698884
 20
95.42852942830791
 30
0.0
 11
48.99036239761449
 21
97.37400757970432
 31
0.0
 11
44.55859205502735
 21
97.74759355909488
 31
0.0
 11
39.3430145698884
 21
95.42852942830791
 31
0.0
  0
SPLINE
  5
30ED
102
{ACAD_REACTORS
330
3181
102
}
330
2
100
AcDbEntity
  8
KIJUN
100
AcDbSpline
210
0.0
220
0.0
230
1.0
 70
     8
 71
     3
 72
     9
 73
     5
 74
     3
 42
0.0000000001
 43
0.0000000001
 44
0.0000000001
 40
0.0
 40
0.0
 40
0.0
 40
0.0
 40
5.659859027018296
 40
9.197277895851865
 40
9.197277895851865
 40
9.197277895851865
 40
9.197277895851865
 10
48.99036239761449
 20
111.3740075797041
 30
0.0
 10
47.19724994050153
 20
110.7374135842498
 30
0.0
 10
44.28343998731088
 20
109.7029475569028
 30
0.0
 10
41.83144653232457
 20
107.8378320691787
 30
0.0
 10
40.88837098191231
 20
107.1204790878357
 30
0.0
 11
48.99036239761449
 21
111.3740075797041
 31
0.0
 11
43.7859138490154
 21
109.1496605944733
 31
0.0
 11
40.88837098191231
 21
107.1204790878357
 31
0.0
  0
SPLINE
  5
30EE
102
{ACAD_REACTORS
330
3181
102
}
330
2
100
AcDbEntity
  8
KIJUN
100
AcDbSpline
210
0.0
220
0.0
230
1.0
 70
    24
 71
     3
 72
     8
 73
     4
 74
     2
 42
0.0000000001
 43
0.0000000001
 44
0.0000000001
 40
0.0
 40
0.0
 40
0.0
 40
0.0
 40
8.588346151159115
 40
8.588346151159115
 40
8.588346151159115
 40
8.588346151159115
 10
46.99036239761449
 20
115.3740075797041
 30
0.0
 10
44.67696078241658
 20
113.687681978044
 30
0.0
 10
42.36355916721868
 20
112.001356376384
 30
0.0
 10
40.05015755202077
 20
110.3150307747239
 30
0.0
 11
46.99036239761449
 21
115.3740075797041
 31
0.0
 11
40.05015755202077
 21
110.3150307747239
 31
0.0
  0
SPLINE
  5
30EF
102
{ACAD_REACTORS
330
3181
102
}
330
2
100
AcDbEntity
  8
KIJUN
100
AcDbSpline
210
0.0
220
0.0
230
1.0
 70
     8
 71
     3
 72
     9
 73
     5
 74
     3
 42
0.0000000001
 43
0.0000000001
 44
0.0000000001
 40
0.0
 40
0.0
 40
0.0
 40
0.0
 40
4.10638941481663
 40
11.07327050749987
 40
11.07327050749987
 40
11.07327050749987
 40
11.07327050749987
 10
35.97674224237653
 20
120.3588030494989
 30
0.0
 10
36.90790444071627
 20
119.3192674486511
 30
0.0
 10
39.41887207358852
 20
116.516060604987
 30
0.0
 10
39.80636298968881
 20
112.709790998309
 30
0.0
 10
40.05015755202134
 20
110.3150307747185
 30
0.0
 11
35.97674224237653
 21
120.3588030494989
 31
0.0
 11
38.47820658376338
 21
117.1022542359712
 31
0.0
 11
40.05015755202134
 21
110.3150307747185
 31
0.0
  0
SPLINE
  5
30F1
102
{ACAD_REACTORS
330
3181
102
}
330
2
100
AcDbEntity
  8
KIJUN
100
AcDbSpline
210
0.0
220
0.0
230
1.0
 70
     8
 71
     3
 72
    11
 73
     7
 74
     5
 42
0.0000000001
 43
0.0000000001
 44
0.0000000001
 40
0.0
 40
0.0
 40
0.0
 40
0.0
 40
7.566079501337857
 40
11.22044258710005
 40
12.76938727806252
 40
16.45127405809869
 40
16.45127405809869
 40
16.45127405809869
 40
16.45127405809869
 10
38.99036239761449
 20
92.37400757970409
 30
0.0
 10
41.35847611393683
 20
92.95394219298287
 30
0.0
 10
44.87037206864108
 20
93.81398113804232
 30
0.0
 10
49.97639090883888
 20
91.76241802949844
 30
0.0
 10
51.35432541110276
 20
95.01102434564405
 30
0.0
 10
49.96692688924378
 20
96.39784783966938
 30
0.0
 10
48.99036239761449
 20
97.37400757970409
 30
0.0
 11
38.99036239761449
 21
92.37400757970409
 31
0.0
 11
46.53792172300234
 21
92.90307019444435
 31
0.0
 11
50.19003535525417
 21
92.77486886956125
 31
0.0
 11
50.83075722294836
 21
94.18508344327666
 31
0.0
 11
48.99036239761449
 21
97.37400757970409
 31
0.0
  0
SPLINE
  5
30F2
102
{ACAD_REACTORS
330
3181
102
}
330
2
100
AcDbEntity
  8
KIJUN
100
AcDbSpline
210
0.0
220
0.0
230
1.0
 70
     8
 71
     3
 72
    11
 73
     7
 74
     5
 42
0.0000000001
 43
0.0000000001
 44
0.0000000001
 40
0.0
 40
0.0
 40
0.0
 40
0.0
 40
6.456604658480846
 40
12.64481914466736
 40
19.39452428243397
 40
27.44899812905982
 40
27.44899812905982
 40
27.44899812905982
 40
27.44899812905982
 10
48.99036239761449
 20
111.3740075797043
 30
0.0
 10
51.08904291937085
 20
111.3603531771851
 30
0.0
 10
55.19916535116454
 20
111.3336119626433
 30
0.0
 10
62.10776688925989
 20
106.4625716370217
 30
0.0
 10
55.98655181439557
 20
99.56189637870807
 30
0.0
 10
51.45553937458135
 20
98.14493197499437
 30
0.0
 10
48.99036239761449
 20
97.37400757970409
 30
0.0
 11
48.99036239761449
 21
111.3740075797043
 31
0.0
 11
55.38916608956776
 21
110.5120011831145
 31
0.0
 11
59.99036239761449
 21
106.374007579704
 31
0.0
 11
56.32247875607493
 21
100.7078670026517
 31
0.0
 11
48.99036239761449
 21
97.37400757970409
 31
0.0
  0
SPLINE
  5
30F3
102
{ACAD_REACTORS
330
3181
102
}
330
2
100
AcDbEntity
  8
KIJUN
100
AcDbSpline
210
0.0
220
0.0
230
1.0
 70
     8
 71
     3
 72
     9
 73
     5
 74
     3
 42
0.0000000001
 43
0.0000000001
 44
0.0000000001
 40
0.0
 40
0.0
 40
0.0
 40
0.0
 40
2.862815042725969
 40
6.860349249770891
 40
6.860349249770891
 40
6.860349249770891
 40
6.860349249770891
 10
48.99036239761449
 20
111.3740075797041
 30
0.0
 10
49.83223284881614
 20
112.2371307785488
 30
0.0
 10
51.84966157966641
 20
114.3054888461438
 30
0.0
 10
48.77940487350554
 20
114.9806122918228
 30
0.0
 10
46.99036239761449
 20
115.3740075797041
 30
0.0
 11
48.99036239761449
 21
111.3740075797041
 31
0.0
 11
50.63001320579963
 21
113.7207617628421
 31
0.0
 11
46.99036239761449
 21
115.3740075797041
 31
0.0
  0
ARC
  5
30F4
102
{ACAD_REACTORS
330
3181
102
}
330
2
100
AcDbEntity
  8
KIJUN
100
AcDbCircle
 10
51.31021062177239
 20
65.06529324373104
 30
0.0
 40
18.69293840565967
100
AcDbArc
 50
269.2380885043288
 51
357.8806550563586
  0
SPLINE
  5
30F5
102
{ACAD_REACTORS
330
3181
102
}
330
2
100
AcDbEntity
  8
KIJUN
100
AcDbSpline
210
0.0
220
0.0
230
1.0
 70
     8
 71
     3
 72
    12
 73
     8
 74
     6
 42
0.0000000001
 43
0.0000000001
 44
0.0000000001
 40
0.0
 40
0.0
 40
0.0
 40
0.0
 40
1.523697819513521
 40
7.398436910897913
 40
14.79496860466983
 40
26.28870853662053
 40
30.25303619924339
 40
30.25303619924339
 40
30.25303619924339
 40
30.25303619924339
 10
37.99036239761438
 20
82.37400757970409
 30
0.0
 10
37.49781605952378
 20
82.2364330986292
 30
0.0
 10
35.10621782961977
 20
81.56842917702022
 30
0.0
 10
31.70659278813622
 20
77.37403822684277
 30
0.0
 10
29.18372536924767
 20
69.7836094558576
 30
0.0
 10
29.03816062474488
 20
60.79855860258501
 30
0.0
 10
33.16552937558663
 20
57.52130362621068
 30
0.0
 10
34.22402145505919
 20
56.68082906619066
 30
0.0
 11
37.99036239761438
 21
82.37400757970409
 31
0.0
 11
36.54205607309507
 21
81.90065376325424
 31
0.0
 11
32.38891071578076
 21
77.74566362694122
 31
0.0
 11
29.87770654624183
 21
70.78847060706152
 31
0.0
 11
31.32647818251428
 21
59.38640419920147
 31
0.0
 11
34.22402145505919
 21
56.68082906619066
 31
0.0
  0
ARC
  5
30F6
102
{ACAD_REACTORS
330
3181
102
}
330
2
100
AcDbEntity
  8
KIJUN
100
AcDbCircle
 10
56.72012542281251
 20
64.86613946698525
 30
0.0
 40
5.5
100
AcDbArc
 50
270.0000000000065
 51
112.4943566535269
  0
ARC
  5
30F7
102
{ACAD_REACTORS
330
3181
102
}
330
2
100
AcDbEntity
  8
KIJUN
100
AcDbCircle
 10
57.45402141059123
 20
65.84977358136848
 30
0.0
 40
12.5363409870232
100
AcDbArc
 50
0.0
 51
92.51828720126432
  0
ARC
  5
30F8
102
{ACAD_REACTORS
330
3181
102
}
330
2
100
AcDbEntity
  8
KIJUN
100
AcDbCircle
 10
56.4031964857223
 20
68.8740075797034
 30
0.0
 40
9.513148795220642
100
AcDbArc
 50
86.98721249582016
 51
273.0127875041798
  0
SPLINE
  5
30F9
102
{ACAD_REACTORS
330
3181
102
}
330
2
100
AcDbEntity
  8
KIJUN
100
AcDbSpline
210
0.0
220
0.0
230
1.0
 70
     8
 71
     3
 72
    15
 73
    11
 74
     9
 42
0.0000000001
 43
0.0000000001
 44
0.0000000001
 40
0.0
 40
0.0
 40
0.0
 40
0.0
 40
1.816348279340555
 40
7.899447850561476
 40
12.47244657581566
 40
17.638160767426
 40
21.9834550108264
 40
26.38174064803695
 40
38.65850770218651
 40
46.32776020892977
 40
46.32776020892977
 40
46.32776020892977
 40
46.32776020892977
 10
37.99036239761449
 20
82.37400757970432
 30
0.0
 10
38.65449637973686
 20
82.20500360085617
 30
0.0
 10
41.54286961587962
 20
81.46999141589521
 30
0.0
 10
37.27603556309785
 20
76.09858990935999
 30
0.0
 10
35.39822919198787
 20
71.96375988466432
 30
0.0
 10
33.67166121437447
 20
67.24996865975899
 30
0.0
 10
34.85469087932779
 20
62.5351754845396
 30
0.0
 10
39.5879091315648
 20
57.17545791862145
 30
0.0
 10
48.77284538156766
 20
54.94923806861459
 30
0.0
 10
54.70821167970138
 20
58.14517034132487
 30
0.0
 10
56.99036239761449
 20
59.37400757970408
 30
0.0
 11
37.99036239761449
 21
82.37400757970432
 31
0.0
 11
39.68718284960232
 21
81.72599413418083
 31
0.0
 11
37.53525818497167
 21
76.03623837218697
 31
0.0
 11
35.4601878712889
 21
71.96114321569689
 31
0.0
 11
34.15366228340929
 21
66.9633843181889
 31
0.0
 11
35.15277006205599
 21
62.73451145318381
 31
0.0
 11
37.99036239761449
 21
59.37400757970408
 31
0.0
 11
49.90882490523723
 21
56.42964673968413
 31
0.0
 11
56.99036239761449
 21
59.37400757970408
 31
0.0
  0
LINE
  5
30FA
102
{ACAD_REACTORS
330
3181
102
}
330
2
100
AcDbEntity
  8
KIJUN
100
AcDbLine
 10
51.55877945234954
 20
46.37400757970431
 30
0.0
 11
47.34588797054709
 21
46.37400757970431
 31
0.0
  0
DIMENSION
  5
30FB
330
2
100
AcDbEntity
  8
SUNPOU
100
AcDbDimension
  2
*D22
 10
-15.86928620185928
 20
46.37400757970431
 30
0.0
 11
-21.36928620185928
 21
112.8740075797041
 31
0.0
 70
    32
 71
     5
 42
132.9999999999996
  3
STANDARD
100
AcDbAlignedDimension
 13
15.99036239761416
 23
179.3740075797039
 33
0.0
 14
14.76690165683431
 24
46.37400757970431
 34
0.0
 50
90.0
100
AcDbRotatedDimension
1001
ACAD
1000
DSTYLE
1002
{
1070
    41
1040
2.0
1070
    42
1040
10.0
1070
    44
1040
0.0
1070
    73
1070
     0
1070
    74
1070
     0
1070
    77
1070
     1
1070
   140
1040
5.0
1070
   141
1040
0.0
1070
   146
1040
0.064286
1070
   147
1040
3.0
1070
   176
1070
    60
1070
   177
1070
    70
1070
   178
1070
    60
1070
   271
1070
     0
1070
   272
1070
     0
1070
   340
1005
1C
1070
   342
1005
109
1002
}
  0
DIMENSION
  5
3108
330
2
100
AcDbEntity
  8
SUNPOU
100
AcDbDimension
  2
*D23
 10
69.99036239761443
 20
204.2147186650006
 30
0.0
 11
42.9903623976143
 21
209.7147186650007
 31
0.0
 70
    32
 71
     5
 42
54.00000000000027
  3
STANDARD
100
AcDbAlignedDimension
 13
15.99036239761416
 23
179.3740075797039
 33
0.0
 14
69.99036239761443
 24
179.5793105005016
 34
0.0
100
AcDbRotatedDimension
1001
ACAD
1000
DSTYLE
1002
{
1070
    41
1040
2.0
1070
    42
1040
10.0
1070
    44
1040
0.0
1070
    73
1070
     0
1070
    74
1070
     0
1070
    77
1070
     1
1070
   140
1040
5.0
1070
   141
1040
0.0
1070
   146
1040
0.064286
1070
   147
1040
3.0
1070
   176
1070
    60
1070
   177
1070
    70
1070
   178
1070
    60
1070
   271
1070
     0
1070
   272
1070
     0
1070
   340
1005
1C
1070
   342
1005
109
1002
}
  0
LINE
  5
313D
102
{ACAD_REACTORS
330
3181
102
}
330
2
100
AcDbEntity
  8
KIJUN
100
AcDbLine
 10
69.99036239761443
 20
65.84977358136848
 30
0.0
 11
69.99036239761443
 21
64.3740075797022
 31
0.0
  0
ARC
  5
315E
102
{ACAD_REACTORS
330
3181
102
}
330
2
100
AcDbEntity
  8
KIJUN
100
AcDbCircle
 10
66.79071576247427
 20
163.2744787328505
 30
0.0
 40
3.201194242953651
100
AcDbArc
 50
1.781679453000344
 51
104.4785252552833
  0
ARC
  5
315F
102
{ACAD_REACTORS
330
3181
102
}
330
2
100
AcDbEntity
  8
KIJUN
100
AcDbCircle
 10
31.87517776671132
 20
163.9085629689754
 30
0.0
 40
38.1189329456116
100
AcDbArc
 50
327.4050170158085
 51
359.1964945162011
  0
ARC
  5
3160
102
{ACAD_REACTORS
330
3181
102
}
330
2
100
AcDbEntity
  8
KIJUN
100
AcDbCircle
 10
56.31039196487595
 20
80.09008771217597
 30
0.0
 40
40.32638782563569
100
AcDbArc
 50
163.8730832706309
 51
181.0174609765514
  0
ARC
  5
3161
102
{ACAD_REACTORS
330
3181
102
}
330
2
100
AcDbEntity
  8
KIJUN
100
AcDbCircle
 10
61.40046929774097
 20
73.9740363705965
 30
0.0
 40
47.12665925017189
100
AcDbArc
 50
144.0281877851369
 51
158.4407004498284
  0
ARC
  5
3162
102
{ACAD_REACTORS
330
3181
102
}
330
2
100
AcDbEntity
  8
KIJUN
100
AcDbCircle
 10
8.336781878808137
 20
112.0257416320994
 30
0.0
 40
18.17302607293502
100
AcDbArc
 50
325.2056909329567
 51
356.6818282485416
  0
ARC
  5
3163
102
{ACAD_REACTORS
330
3181
102
}
330
2
100
AcDbEntity
  8
KIJUN
100
AcDbCircle
 10
53.80530603454703
 20
112.18831807462
 30
0.0
 40
27.35293831572291
100
AcDbArc
 50
179.0352356003493
 51
182.5447118088046
  0
ARC
  5
3164
102
{ACAD_REACTORS
330
3181
102
}
330
2
100
AcDbEntity
  8
KIJUN
100
AcDbCircle
 10
23.79416674153013
 20
111.0126482133331
 30
0.0
 40
5.371568543797613
100
AcDbArc
 50
14.68104656172062
 51
38.80242649385506
  0
ARC
  5
3165
102
{ACAD_REACTORS
330
3181
102
}
330
2
100
AcDbEntity
  8
KIJUN
100
AcDbCircle
 10
29.97700308661972
 20
112.5214565184227
 30
0.0
 40
3.523062662808334
100
AcDbArc
 50
147.8136567203283
 51
177.9273545607191
  0
ARC
  5
3166
102
{ACAD_REACTORS
330
3181
102
}
330
2
100
AcDbEntity
  8
KIJUN
100
AcDbCircle
 10
27.4831080808526
 20
114.1491574924332
 30
0.0
 40
0.5476017819952222
100
AcDbArc
 50
24.77932666367027
 51
152.9601964757896
  0
ARC
  5
3167
102
{ACAD_REACTORS
330
3181
102
}
330
2
100
AcDbEntity
  8
KIJUN
100
AcDbCircle
 10
-161.2022242001104
 20
207.5322240320114
 30
0.0
 40
212.6694763126982
100
AcDbArc
 50
333.4200272181071
 51
335.1239777408388
  0
ARC
  5
3168
102
{ACAD_REACTORS
330
3181
102
}
330
2
100
AcDbEntity
  8
KIJUN
100
AcDbCircle
 10
33.19893929035988
 20
118.0818424696814
 30
0.0
 40
3.611933534178114
100
AcDbArc
 50
39.39098217440061
 51
76.15617741826231
  0
ARC
  5
3169
102
{ACAD_REACTORS
330
3181
102
}
330
2
100
AcDbEntity
  8
KIJUN
100
AcDbCircle
 10
83.53957074518715
 20
102.090506986659
 30
0.0
 40
54.21274652482636
100
AcDbArc
 50
159.7028126399764
 51
162.8554855530098
  0
ARC
  5
316A
102
{ACAD_REACTORS
330
3181
102
}
330
2
100
AcDbEntity
  8
KIJUN
100
AcDbCircle
 10
33.75069771157916
 20
120.5055446389503
 30
0.0
 40
1.127480353997944
100
AcDbArc
 50
73.90929106023394
 51
159.7196273583727
  0
ARC
  5
316B
102
{ACAD_REACTORS
330
3181
102
}
330
2
100
AcDbEntity
  8
KIJUN
100
AcDbCircle
 10
250.6567259552395
 20
-70.32230138606831
 30
0.0
 40
287.1353860049711
100
AcDbArc
 50
134.1423569455544
 51
138.3840944547605
  0
ARC
  5
316D
102
{ACAD_REACTORS
330
3181
102
}
330
2
100
AcDbEntity
  8
KIJUN
100
AcDbCircle
 10
27.71177828222133
 20
156.1667995114565
 30
0.0
 40
30.74689779200951
100
AcDbArc
 50
318.3408253433893
 51
352.2987400183791
  0
ARC
  5
316E
102
{ACAD_REACTORS
330
3181
102
}
330
2
100
AcDbEntity
  8
KIJUN
100
AcDbCircle
 10
42.52447403723814
 20
155.2433648639671
 30
0.0
 40
15.97991874691481
100
AcDbArc
 50
348.4597064686526
 51
44.15001327650561
  0
SPLINE
  5
31AF
102
{ACAD_REACTORS
330
31DF
102
}
330
2
100
AcDbEntity
  8
KIJUN
100
AcDbSpline
210
0.0
220
0.0
230
1.0
 70
     8
 71
     3
 72
    13
 73
     9
 74
     7
 42
0.0000000001
 43
0.0000000001
 44
0.0000000001
 40
0.0
 40
0.0
 40
0.0
 40
0.0
 40
12.77526011472949
 40
22.91907489364703
 40
33.06309483485036
 40
44.05242098447602
 40
52.44815456228245
 40
57.33189395856898
 40
57.33189395856898
 40
57.33189395856898
 40
57.33189395856898
 10
111.9641620622603
 20
110.3150307747187
 30
0.0
 10
115.1637392130061
 20
107.5224347371636
 30
0.0
 10
120.9038452998791
 20
102.5124609943487
 30
0.0
 10
128.7931656511394
 20
94.59963032152449
 30
0.0
 10
132.4758439456761
 20
84.49334715636295
 30
0.0
 10
132.4571289110534
 20
74.53967253644164
 30
0.0
 10
130.6611386884436
 20
66.53658639132746
 30
0.0
 10
128.5430765586011
 20
62.6356897660437
 30
0.0
 10
127.764125203568
 20
61.20107240081347
 30
0.0
 11
111.9641620622603
 21
110.3150307747187
 31
0.0
 11
121.4786023466863
 21
101.7896160004634
 31
0.0
 11
128.1800777832234
 21
94.17468295791627
 31
0.0
 11
131.7999202671468
 21
84.69850857375082
 31
0.0
 11
131.9984019184727
 21
73.71097498986888
 31
0.0
 11
129.9474241790359
 21
65.56960946424351
 31
0.0
 11
127.764125203568
 21
61.20107240081347
 31
0.0
  0
ARC
  5
31B0
102
{ACAD_REACTORS
330
31DF
102
}
330
2
100
AcDbEntity
  8
KIJUN
100
AcDbCircle
 10
102.9744476958901
 20
79.38007573043774
 30
0.0
 40
33.04951007785758
100
AcDbArc
 50
272.9380368706279
 51
359.9894800428892
  0
SPLINE
  5
31B1
102
{ACAD_REACTORS
330
31DF
102
}
330
2
100
AcDbEntity
  8
KIJUN
100
AcDbSpline
210
0.0
220
0.0
230
1.0
 70
     8
 71
     3
 72
    11
 73
     7
 74
     5
 42
0.0000000001
 43
0.0000000001
 44
0.0000000001
 40
0.0
 40
0.0
 40
0.0
 40
0.0
 40
2.162461175790709
 40
6.899473469554017
 40
9.60300843407219
 40
13.10377644432035
 40
13.10377644432035
 40
13.10377644432035
 40
13.10377644432035
 10
103.8774712513977
 20
172.1463366785731
 30
0.0
 10
103.4077907732914
 20
172.7380269163685
 30
0.0
 10
101.9092445639347
 20
174.6258532244502
 30
0.0
 10
97.57903551371297
 20
173.2107099001758
 30
0.0
 10
96.64452036933667
 20
169.392911227402
 30
0.0
 10
97.52637318098626
 20
167.4629724447938
 30
0.0
 10
98.02395721666698
 20
166.3740075797041
 30
0.0
 11
103.8774712513977
 21
172.1463366785731
 31
0.0
 11
102.3100186610617
 21
173.6360785064919
 31
0.0
 11
97.76440635180826
 21
172.3031515748005
 31
0.0
 11
96.98067985391924
 21
169.715706100809
 31
0.0
 11
98.02395721666698
 21
166.3740075797041
 31
0.0
  0
ARC
  5
31B2
102
{ACAD_REACTORS
330
31DF
102
}
330
2
100
AcDbEntity
  8
KIJUN
100
AcDbCircle
 10
103.1749232506453
 20
171.064311365798
 30
0.0
 40
6.966448211897234
100
AcDbArc
 50
222.3199850185198
 51
10.53426379219304
  0
ARC
  5
31B3
102
{ACAD_REACTORS
330
31DF
102
}
330
2
100
AcDbEntity
  8
KIJUN
100
AcDbCircle
 10
102.3085874964992
 20
162.6916640445738
 30
0.0
 40
16.69577303575776
100
AcDbArc
 50
94.41289620978425
 51
167.2583413733219
  0
ARC
  5
31B4
102
{ACAD_REACTORS
330
31DF
102
}
330
2
100
AcDbEntity
  8
KIJUN
100
AcDbCircle
 10
101.7981016440411
 20
171.0475560395832
 30
0.0
 40
8.326451540120725
100
AcDbArc
 50
8.915303911184134
 51
95.33472878662077
  0
SPLINE
  5
31B5
102
{ACAD_REACTORS
330
31DF
102
}
330
2
100
AcDbEntity
  8
KIJUN
100
AcDbSpline
210
0.0
220
0.0
230
1.0
 70
     8
 71
     3
 72
    12
 73
     8
 74
     6
 42
0.0000000001
 43
0.0000000001
 44
0.0000000001
 40
0.0
 40
0.0
 40
0.0
 40
0.0
 40
8.734221791300349
 40
21.75669210568825
 40
30.65881300703772
 40
43.89821471604594
 40
48.91998388140743
 40
48.91998388140743
 40
48.91998388140743
 40
48.91998388140743
 10
106.1647321771485
 20
101.8826415577493
 30
0.0
 10
108.9927911870273
 20
101.1668347658442
 30
0.0
 10
116.0374038159324
 20
99.38378089444455
 30
0.0
 10
124.7185068930464
 20
93.01003984444463
 30
0.0
 10
129.9281563808837
 20
82.13879189783668
 30
0.0
 10
129.5415834445595
 20
72.75722665318838
 30
0.0
 10
128.2789265943739
 20
66.81747842142731
 30
0.0
 10
127.9316996131296
 20
65.1840648399284
 30
0.0
 11
106.1647321771485
 21
101.8826415577493
 31
0.0
 11
114.5064157836717
 21
99.29363694047129
 31
0.0
 11
124.8409867890817
 21
91.37016704255074
 31
0.0
 11
128.7043778191415
 21
83.35006939407435
 31
0.0
 11
128.8975473706446
 21
70.11207698068847
 31
0.0
 11
127.9316996131296
 21
65.1840648399284
 31
0.0
  0
SPLINE
  5
31B6
102
{ACAD_REACTORS
330
31DF
102
}
330
2
100
AcDbEntity
  8
KIJUN
100
AcDbSpline
210
0.0
220
0.0
230
1.0
 70
     8
 71
     3
 72
    13
 73
     9
 74
     7
 42
0.0000000001
 43
0.0000000001
 44
0.0000000001
 40
0.0
 40
0.0
 40
0.0
 40
0.0
 40
4.007064203707548
 40
9.126692128369006
 40
16.84870962222921
 40
27.98596385111184
 40
36.69148290181991
 40
39.38306456016138
 40
39.38306456016138
 40
39.38306456016138
 40
39.38306456016138
 10
113.0239572166672
 20
92.37400757970409
 30
0.0
 10
114.3843052521913
 20
92.38469142273439
 30
0.0
 10
117.4827027513311
 20
92.40902548406415
 30
0.0
 10
122.3657808868139
 20
89.01104802961922
 30
0.0
 10
126.4061786913049
 20
81.88533159367887
 30
0.0
 10
127.4744624025996
 20
72.56135253504678
 30
0.0
 10
126.5227504821141
 20
64.99643632218949
 30
0.0
 10
125.0841477749209
 20
61.47435268883518
 30
0.0
 10
124.7444020133303
 20
60.64256432891011
 30
0.0
 11
113.0239572166672
 21
92.37400757970409
 31
0.0
 11
117.0176199532105
 21
92.04656066892381
 31
0.0
 11
121.3639348620279
 21
89.3409855359132
 31
0.0
 11
125.4204954435907
 21
82.770302890739
 31
0.0
 11
127.0624366313662
 21
71.75474748510237
 31
0.0
 11
125.7102497708453
 21
63.15488396080877
 31
0.0
 11
124.7444020133303
 21
60.64256432891011
 31
0.0
  0
SPLINE
  5
31B7
102
{ACAD_REACTORS
330
31DF
102
}
330
2
100
AcDbEntity
  8
KIJUN
100
AcDbSpline
210
0.0
220
0.0
230
1.0
 70
     8
 71
     3
 72
    11
 73
     7
 74
     5
 42
0.0000000001
 43
0.0000000001
 44
0.0000000001
 40
0.0
 40
0.0
 40
0.0
 40
0.0
 40
4.027079200194128
 40
7.515109856464979
 40
10.77547227658486
 40
15.56684949269873
 40
15.56684949269873
 40
15.56684949269873
 40
15.56684949269873
 10
113.0239572166672
 20
92.37400757970409
 30
0.0
 10
111.726751716589
 20
91.9521273547707
 30
0.0
 10
109.3059794012523
 20
91.16483808653592
 30
0.0
 10
107.2925401560946
 20
87.34085877974463
 30
0.0
 10
110.0902683783123
 20
83.9749794653535
 30
0.0
 10
112.55641726573
 20
82.97128161409373
 30
0.0
 10
114.0239572166672
 20
82.37400757970409
 30
0.0
 11
113.0239572166672
 21
92.37400757970409
 31
0.0
 11
109.4242420644469
 21
90.56862182936924
 31
0.0
 11
108.0239572166672
 21
87.37400757970409
 31
0.0
 11
109.8033748430558
 21
84.64204198302695
 31
0.0
 11
114.0239572166672
 21
82.37400757970409
 31
0.0
  0
SPLINE
  5
31B8
102
{ACAD_REACTORS
330
31DF
102
}
330
2
100
AcDbEntity
  8
KIJUN
100
AcDbSpline
210
0.0
220
0.0
230
1.0
 70
     8
 71
     3
 72
    10
 73
     6
 74
     4
 42
0.0000000001
 43
0.0000000001
 44
0.0000000001
 40
0.0
 40
0.0
 40
0.0
 40
0.0
 40
2.765935608695111
 40
16.3070792259129
 40
36.40475056173508
 40
36.40475056173508
 40
36.40475056173508
 40
36.40475056173508
 10
88.02395721666744
 20
143.3740075797043
 30
0.0
 10
88.76139019200151
 20
142.8193961511581
 30
0.0
 10
93.1090611626378
 20
139.5495830447114
 30
0.0
 10
101.1707695244679
 20
130.3724982616468
 30
0.0
 10
109.2465718410575
 20
122.6086812846065
 30
0.0
 10
114.0714986691419
 20
117.9701515940137
 30
0.0
 11
88.02395721666744
 21
143.3740075797043
 31
0.0
 11
90.21506675174544
 21
141.6859795003354
 31
0.0
 11
99.82038481168581
 21
132.1413246909931
 31
0.0
 11
114.0714986691419
 21
117.9701515940137
 31
0.0
  0
SPLINE
  5
31B9
102
{ACAD_REACTORS
330
31DF
102
}
330
2
100
AcDbEntity
  8
KIJUN
100
AcDbSpline
210
0.0
220
0.0
230
1.0
 70
     8
 71
     3
 72
    10
 73
     6
 74
     4
 42
0.0000000001
 43
0.0000000001
 44
0.0000000001
 40
0.0
 40
0.0
 40
0.0
 40
0.0
 40
4.697526058194489
 40
20.54468529047728
 40
31.30411496806822
 40
31.30411496806822
 40
31.30411496806822
 40
31.30411496806822
 10
89.0239572166671
 20
133.3740075797041
 30
0.0
 10
90.1319699397386
 20
132.2676360395621
 30
0.0
 10
94.97787657470849
 20
127.4289071373762
 30
0.0
 10
102.6180418537435
 20
120.3091725367917
 30
0.0
 10
109.433826697807
 20
114.6333833975533
 30
0.0
 10
112.1900596736199
 20
112.3381529072664
 30
0.0
 11
89.0239572166671
 21
133.3740075797041
 31
0.0
 11
92.35679333617111
 21
130.0635764192741
 31
0.0
 11
103.9740357550541
 21
119.2852586324286
 31
0.0
 11
112.1900596736199
 21
112.3381529072664
 31
0.0
  0
SPLINE
  5
31BA
102
{ACAD_REACTORS
330
31DF
102
}
330
2
100
AcDbEntity
  8
KIJUN
100
AcDbSpline
210
0.0
220
0.0
230
1.0
 70
     8
 71
     3
 72
    10
 73
     6
 74
     4
 42
0.0000000001
 43
0.0000000001
 44
0.0000000001
 40
0.0
 40
0.0
 40
0.0
 40
0.0
 40
18.14353667626011
 40
23.9504934771407
 40
27.49227418216515
 40
27.49227418216515
 40
27.49227418216515
 40
27.49227418216515
 10
105.0239572166672
 20
115.3740075797041
 30
0.0
 10
100.2723548878142
 20
118.170924595242
 30
0.0
 10
93.99997136007192
 20
121.8630130745733
 30
0.0
 10
85.48928109157179
 20
129.996277939599
 30
0.0
 10
88.0527745618256
 20
132.4459473209652
 30
0.0
 10
89.0239572166671
 20
133.3740075797041
 30
0.0
 11
105.0239572166672
 21
115.3740075797041
 31
0.0
 11
90.11385182945321
 21
125.7121254192805
 31
0.0
 11
86.89372194973055
 21
130.5444655195849
 31
0.0
 11
89.0239572166671
 21
133.3740075797041
 31
0.0
  0
SPLINE
  5
31BB
102
{ACAD_REACTORS
330
31DF
102
}
330
2
100
AcDbEntity
  8
KIJUN
100
AcDbSpline
210
0.0
220
0.0
230
1.0
 70
     8
 71
     3
 72
    10
 73
     6
 74
     4
 42
0.0000000001
 43
0.0000000001
 44
0.0000000001
 40
0.0
 40
0.0
 40
0.0
 40
0.0
 40
4.108080152636508
 40
11.32199048920584
 40
16.35534365256328
 40
16.35534365256328
 40
16.35534365256328
 40
16.35534365256328
 10
86.02395721666722
 20
166.3740075797041
 30
0.0
 10
85.99656523306075
 20
165.0053002869221
 30
0.0
 10
85.92107211550951
 20
161.2331024778218
 30
0.0
 10
85.68427731351141
 20
155.7741890376836
 30
0.0
 10
86.08070637755895
 20
151.706973432834
 30
0.0
 10
86.243629914199
 20
150.0354381930763
 30
0.0
 11
86.02395721666722
 21
166.3740075797041
 31
0.0
 11
85.93013939613184
 21
162.2669988437703
 31
0.0
 11
85.85176666525455
 21
155.0535142448323
 31
0.0
 11
86.243629914199
 21
150.0354381930763
 31
0.0
  0
SPLINE
  5
31BC
102
{ACAD_REACTORS
330
31DF
102
}
330
2
100
AcDbEntity
  8
KIJUN
100
AcDbSpline
210
0.0
220
0.0
230
1.0
 70
     8
 71
     3
 72
    10
 73
     6
 74
     4
 42
0.0000000001
 43
0.0000000001
 44
0.0000000001
 40
0.0
 40
0.0
 40
0.0
 40
0.0
 40
1.45213687122952
 40
3.5791772918935
 40
11.68066020377462
 40
11.68066020377462
 40
11.68066020377462
 40
11.68066020377462
 10
88.02395721666732
 20
143.3740075797043
 30
0.0
 10
87.49221847307254
 20
143.3149172393422
 30
0.0
 10
86.181607005241
 20
143.1692733895204
 30
0.0
 10
85.80294582580753
 20
138.4617409676395
 30
0.0
 10
87.60033693012427
 20
135.6226803053393
 30
0.0
 10
89.02395721666721
 20
133.3740075797041
 30
0.0
 11
88.02395721666732
 21
143.3740075797043
 31
0.0
 11
86.62537779308706
 21
142.9832684228206
 31
0.0
 11
86.08868947979988
 21
140.9250491425884
 31
0.0
 11
89.02395721666721
 21
133.3740075797041
 31
0.0
  0
SPLINE
  5
31BD
102
{ACAD_REACTORS
330
31DF
102
}
330
2
100
AcDbEntity
  8
KIJUN
100
AcDbSpline
210
0.0
220
0.0
230
1.0
 70
     8
 71
     3
 72
     9
 73
     5
 74
     3
 42
0.0000000001
 43
0.0000000001
 44
0.0000000001
 40
0.0
 40
0.0
 40
0.0
 40
0.0
 40
3.804156458728764
 40
8.97231865507687
 40
8.97231865507687
 40
8.97231865507687
 40
8.97231865507687
 10
123.0239572166672
 20
112.3740075797041
 30
0.0
 10
122.9212000411902
 20
111.0884554152125
 30
0.0
 10
122.6788414178061
 20
108.0564077608431
 30
0.0
 10
124.0507507222715
 20
105.3166457901991
 30
0.0
 10
124.8409867890817
 20
103.7385103284516
 30
0.0
 11
123.0239572166672
 21
112.3740075797041
 31
0.0
 11
123.0058760498033
 21
108.5698940911377
 31
0.0
 11
124.8409867890817
 21
103.7385103284516
 31
0.0
  0
SPLINE
  5
31BE
102
{ACAD_REACTORS
330
31DF
102
}
330
2
100
AcDbEntity
  8
KIJUN
100
AcDbSpline
210
0.0
220
0.0
230
1.0
 70
     8
 71
     3
 72
     9
 73
     5
 74
     3
 42
0.0000000001
 43
0.0000000001
 44
0.0000000001
 40
0.0
 40
0.0
 40
0.0
 40
0.0
 40
2.289909573210466
 40
5.580925243658741
 40
5.580925243658741
 40
5.580925243658741
 40
5.580925243658741
 10
103.882090856449
 20
100.356541569068
 30
0.0
 10
104.6876967100778
 20
100.6272041076824
 30
0.0
 10
106.6511043911297
 20
101.2868578389644
 30
0.0
 10
106.3066575487768
 20
103.4369181778412
 30
0.0
 10
106.1035406987333
 20
104.7047872064925
 30
0.0
 11
103.882090856449
 21
100.356541569068
 31
0.0
 11
105.9103711472304
 21
101.4194455701465
 31
0.0
 11
106.1035406987333
 21
104.7047872064925
 31
0.0
  0
SPLINE
  5
31BF
102
{ACAD_REACTORS
330
31DF
102
}
330
2
100
AcDbEntity
  8
KIJUN
100
AcDbSpline
210
0.0
220
0.0
230
1.0
 70
     8
 71
     3
 72
     9
 73
     5
 74
     3
 42
0.0000000001
 43
0.0000000001
 44
0.0000000001
 40
0.0
 40
0.0
 40
0.0
 40
0.0
 40
3.730817234145547
 40
15.07397590556378
 40
15.07397590556378
 40
15.07397590556378
 40
15.07397590556378
 10
92.42546058113919
 20
107.4386436092106
 30
0.0
 10
93.65443166248544
 20
107.1141432188677
 30
0.0
 10
98.61996047459056
 20
105.803033411449
 30
0.0
 10
101.1329408504447
 20
100.9933167510431
 30
0.0
 10
103.0239572166679
 20
97.37400757970432
 30
0.0
 11
92.42546058113919
 21
107.4386436092106
 31
0.0
 11
95.96213924482629
 21
106.2508299603507
 31
0.0
 11
103.0239572166679
 21
97.37400757970432
 31
0.0
  0
SPLINE
  5
31C0
102
{ACAD_REACTORS
330
31DF
102
}
330
2
100
AcDbEntity
  8
KIJUN
100
AcDbSpline
210
0.0
220
0.0
230
1.0
 70
     8
 71
     3
 72
     9
 73
     5
 74
     3
 42
0.0000000001
 43
0.0000000001
 44
0.0000000001
 40
0.0
 40
0.0
 40
0.0
 40
0.0
 40
4.447488600708497
 40
10.1554047656667
 40
10.1554047656667
 40
10.1554047656667
 40
10.1554047656667
 10
103.0239572166672
 20
97.37400757970432
 30
0.0
 10
104.5280673289542
 20
97.65769583569356
 30
0.0
 10
107.9625555027909
 20
98.30547019229962
 30
0.0
 10
110.9770099000919
 20
96.46370590643826
 30
0.0
 10
112.6713050443933
 20
95.42852942830791
 30
0.0
 11
103.0239572166672
 21
97.37400757970432
 31
0.0
 11
107.4557275592543
 21
97.74759355909488
 31
0.0
 11
112.6713050443933
 21
95.42852942830791
 31
0.0
  0
SPLINE
  5
31C1
102
{ACAD_REACTORS
330
31DF
102
}
330
2
100
AcDbEntity
  8
KIJUN
100
AcDbSpline
210
0.0
220
0.0
230
1.0
 70
     8
 71
     3
 72
     9
 73
     5
 74
     3
 42
0.0000000001
 43
0.0000000001
 44
0.0000000001
 40
0.0
 40
0.0
 40
0.0
 40
0.0
 40
5.659859027018296
 40
9.197277895851865
 40
9.197277895851865
 40
9.197277895851865
 40
9.197277895851865
 10
103.0239572166672
 20
111.3740075797041
 30
0.0
 10
104.8170696737802
 20
110.7374135842498
 30
0.0
 10
107.7308796269708
 20
109.7029475569028
 30
0.0
 10
110.1828730819571
 20
107.8378320691787
 30
0.0
 10
111.1259486323694
 20
107.1204790878357
 30
0.0
 11
103.0239572166672
 21
111.3740075797041
 31
0.0
 11
108.2284057652663
 21
109.1496605944733
 31
0.0
 11
111.1259486323694
 21
107.1204790878357
 31
0.0
  0
SPLINE
  5
31C2
102
{ACAD_REACTORS
330
31DF
102
}
330
2
100
AcDbEntity
  8
KIJUN
100
AcDbSpline
210
0.0
220
0.0
230
1.0
 70
    24
 71
     3
 72
     8
 73
     4
 74
     2
 42
0.0000000001
 43
0.0000000001
 44
0.0000000001
 40
0.0
 40
0.0
 40
0.0
 40
0.0
 40
8.588346151159115
 40
8.588346151159115
 40
8.588346151159115
 40
8.588346151159115
 10
105.0239572166672
 20
115.3740075797041
 30
0.0
 10
107.3373588318651
 20
113.687681978044
 30
0.0
 10
109.650760447063
 20
112.001356376384
 30
0.0
 10
111.9641620622609
 20
110.3150307747239
 30
0.0
 11
105.0239572166672
 21
115.3740075797041
 31
0.0
 11
111.9641620622609
 21
110.3150307747239
 31
0.0
  0
SPLINE
  5
31C3
102
{ACAD_REACTORS
330
31DF
102
}
330
2
100
AcDbEntity
  8
KIJUN
100
AcDbSpline
210
0.0
220
0.0
230
1.0
 70
     8
 71
     3
 72
     9
 73
     5
 74
     3
 42
0.0000000001
 43
0.0000000001
 44
0.0000000001
 40
0.0
 40
0.0
 40
0.0
 40
0.0
 40
4.10638941481663
 40
11.07327050749987
 40
11.07327050749987
 40
11.07327050749987
 40
11.07327050749987
 10
116.0375773719051
 20
120.3588030494989
 30
0.0
 10
115.1064151735655
 20
119.3192674486511
 30
0.0
 10
112.5954475406932
 20
116.516060604987
 30
0.0
 10
112.2079566245929
 20
112.709790998309
 30
0.0
 10
111.9641620622603
 20
110.3150307747185
 30
0.0
 11
116.0375773719051
 21
120.3588030494989
 31
0.0
 11
113.5361130305183
 21
117.1022542359712
 31
0.0
 11
111.9641620622603
 21
110.3150307747185
 31
0.0
  0
SPLINE
  5
31C4
102
{ACAD_REACTORS
330
31DF
102
}
330
2
100
AcDbEntity
  8
KIJUN
100
AcDbSpline
210
0.0
220
0.0
230
1.0
 70
     8
 71
     3
 72
    11
 73
     7
 74
     5
 42
0.0000000001
 43
0.0000000001
 44
0.0000000001
 40
0.0
 40
0.0
 40
0.0
 40
0.0
 40
7.566079501337857
 40
11.22044258710005
 40
12.76938727806252
 40
16.45127405809869
 40
16.45127405809869
 40
16.45127405809869
 40
16.45127405809869
 10
113.0239572166672
 20
92.37400757970409
 30
0.0
 10
110.6558435003448
 20
92.95394219298286
 30
0.0
 10
107.1439475456406
 20
93.81398113804229
 30
0.0
 10
102.0379287054428
 20
91.76241802949846
 30
0.0
 10
100.6599942031789
 20
95.01102434564401
 30
0.0
 10
102.0473927250379
 20
96.39784783966938
 30
0.0
 10
103.0239572166672
 20
97.37400757970409
 30
0.0
 11
113.0239572166672
 21
92.37400757970409
 31
0.0
 11
105.4763978912793
 21
92.90307019444435
 31
0.0
 11
101.8242842590275
 21
92.77486886956125
 31
0.0
 11
101.1835623913333
 21
94.18508344327666
 31
0.0
 11
103.0239572166672
 21
97.37400757970409
 31
0.0
  0
SPLINE
  5
31C5
102
{ACAD_REACTORS
330
31DF
102
}
330
2
100
AcDbEntity
  8
KIJUN
100
AcDbSpline
210
0.0
220
0.0
230
1.0
 70
     8
 71
     3
 72
    11
 73
     7
 74
     5
 42
0.0000000001
 43
0.0000000001
 44
0.0000000001
 40
0.0
 40
0.0
 40
0.0
 40
0.0
 40
6.456604658480846
 40
12.64481914466736
 40
19.39452428243397
 40
27.44899812905982
 40
27.44899812905982
 40
27.44899812905982
 40
27.44899812905982
 10
103.0239572166672
 20
111.3740075797043
 30
0.0
 10
100.9252766949108
 20
111.3603531771851
 30
0.0
 10
96.81515426311721
 20
111.3336119626433
 30
0.0
 10
89.90655272502179
 20
106.4625716370217
 30
0.0
 10
96.02776779988616
 20
99.56189637870807
 30
0.0
 10
100.5587802397004
 20
98.14493197499437
 30
0.0
 10
103.0239572166672
 20
97.37400757970409
 30
0.0
 11
103.0239572166672
 21
111.3740075797043
 31
0.0
 11
96.62515352471395
 21
110.5120011831145
 31
0.0
 11
92.02395721666722
 21
106.374007579704
 31
0.0
 11
95.69184085820678
 21
100.7078670026517
 31
0.0
 11
103.0239572166672
 21
97.37400757970409
 31
0.0
  0
SPLINE
  5
31C6
102
{ACAD_REACTORS
330
31DF
102
}
330
2
100
AcDbEntity
  8
KIJUN
100
AcDbSpline
210
0.0
220
0.0
230
1.0
 70
     8
 71
     3
 72
     9
 73
     5
 74
     3
 42
0.0000000001
 43
0.0000000001
 44
0.0000000001
 40
0.0
 40
0.0
 40
0.0
 40
0.0
 40
2.862815042725969
 40
6.860349249770891
 40
6.860349249770891
 40
6.860349249770891
 40
6.860349249770891
 10
103.0239572166672
 20
111.3740075797041
 30
0.0
 10
102.1820867654655
 20
112.2371307785488
 30
0.0
 10
100.1646580346153
 20
114.3054888461438
 30
0.0
 10
103.2349147407762
 20
114.9806122918228
 30
0.0
 10
105.0239572166672
 20
115.3740075797041
 30
0.0
 11
103.0239572166672
 21
111.3740075797041
 31
0.0
 11
101.3843064084821
 21
113.7207617628421
 31
0.0
 11
105.0239572166672
 21
115.3740075797041
 31
0.0
  0
ARC
  5
31C7
102
{ACAD_REACTORS
330
31DF
102
}
330
2
100
AcDbEntity
  8
KIJUN
100
AcDbCircle
 10
100.7041089925093
 20
65.06529324373104
 30
0.0
 40
18.69293840565967
100
AcDbArc
 50
182.1193449436412
 51
270.7619114956712
  0
SPLINE
  5
31C8
102
{ACAD_REACTORS
330
31DF
102
}
330
2
100
AcDbEntity
  8
KIJUN
100
AcDbSpline
210
0.0
220
0.0
230
1.0
 70
     8
 71
     3
 72
    12
 73
     8
 74
     6
 42
0.0000000001
 43
0.0000000001
 44
0.0000000001
 40
0.0
 40
0.0
 40
0.0
 40
0.0
 40
1.523697819513521
 40
7.398436910897913
 40
14.79496860466983
 40
26.28870853662053
 40
30.25303619924339
 40
30.25303619924339
 40
30.25303619924339
 40
30.25303619924339
 10
114.0239572166673
 20
82.37400757970409
 30
0.0
 10
114.5165035547579
 20
82.23643309862918
 30
0.0
 10
116.908101784662
 20
81.5684291770202
 30
0.0
 10
120.3077268261455
 20
77.37403822684277
 30
0.0
 10
122.830594245034
 20
69.78360945585762
 30
0.0
 10
122.9761589895369
 20
60.79855860258499
 30
0.0
 10
118.848790238695
 20
57.52130362621071
 30
0.0
 10
117.7902981592225
 20
56.68082906619066
 30
0.0
 11
114.0239572166673
 21
82.37400757970409
 31
0.0
 11
115.4722635411866
 21
81.90065376325424
 31
0.0
 11
119.6254088985009
 21
77.74566362694122
 31
0.0
 11
122.1366130680399
 21
70.78847060706152
 31
0.0
 11
120.6878414317674
 21
59.38640419920147
 31
0.0
 11
117.7902981592225
 21
56.68082906619066
 31
0.0
  0
ARC
  5
31C9
102
{ACAD_REACTORS
330
31DF
102
}
330
2
100
AcDbEntity
  8
KIJUN
100
AcDbCircle
 10
95.29419419146918
 20
64.86613946698525
 30
0.0
 40
5.5
100
AcDbArc
 50
67.50564334647311
 51
269.9999999999935
  0
ARC
  5
31CA
102
{ACAD_REACTORS
330
31DF
102
}
330
2
100
AcDbEntity
  8
KIJUN
100
AcDbCircle
 10
94.56029820369048
 20
65.84977358136848
 30
0.0
 40
12.5363409870232
100
AcDbArc
 50
87.48171279873545
 51
180.0
  0
ARC
  5
31CB
102
{ACAD_REACTORS
330
31DF
102
}
330
2
100
AcDbEntity
  8
KIJUN
100
AcDbCircle
 10
95.61112312855939
 20
68.8740075797034
 30
0.0
 40
9.513148795220642
100
AcDbArc
 50
266.9872124958202
 51
93.01278750417983
  0
SPLINE
  5
31CC
102
{ACAD_REACTORS
330
31DF
102
}
330
2
100
AcDbEntity
  8
KIJUN
100
AcDbSpline
210
0.0
220
0.0
230
1.0
 70
     8
 71
     3
 72
    15
 73
    11
 74
     9
 42
0.0000000001
 43
0.0000000001
 44
0.0000000001
 40
0.0
 40
0.0
 40
0.0
 40
0.0
 40
1.816348279340555
 40
7.899447850561476
 40
12.47244657581566
 40
17.638160767426
 40
21.9834550108264
 40
26.38174064803695
 40
38.65850770218651
 40
46.32776020892977
 40
46.32776020892977
 40
46.32776020892977
 40
46.32776020892977
 10
114.0239572166672
 20
82.37400757970432
 30
0.0
 10
113.3598232345448
 20
82.20500360085617
 30
0.0
 10
110.4714499984021
 20
81.46999141589521
 30
0.0
 10
114.7382840511838
 20
76.09858990935997
 30
0.0
 10
116.6160904222938
 20
71.96375988466432
 30
0.0
 10
118.3426583999072
 20
67.24996865975896
 30
0.0
 10
117.1596287349539
 20
62.5351754845396
 30
0.0
 10
112.4264104827169
 20
57.17545791862143
 30
0.0
 10
103.241474232714
 20
54.94923806861459
 30
0.0
 10
97.30610793458035
 20
58.14517034132489
 30
0.0
 10
95.0239572166672
 20
59.37400757970408
 30
0.0
 11
114.0239572166672
 21
82.37400757970432
 31
0.0
 11
112.3271367646794
 21
81.72599413418083
 31
0.0
 11
114.47906142931
 21
76.03623837218697
 31
0.0
 11
116.5541317429928
 21
71.96114321569689
 31
0.0
 11
117.8606573308724
 21
66.9633843181889
 31
0.0
 11
116.8615495522257
 21
62.73451145318381
 31
0.0
 11
114.0239572166672
 21
59.37400757970408
 31
0.0
 11
102.1054947090445
 21
56.42964673968413
 31
0.0
 11
95.0239572166672
 21
59.37400757970408
 31
0.0
  0
LINE
  5
31CD
102
{ACAD_REACTORS
330
31DF
102
}
330
2
100
AcDbEntity
  8
KIJUN
100
AcDbLine
 10
100.4555401619321
 20
46.37400757970431
 30
0.0
 11
104.6684316437346
 21
46.37400757970431
 31
0.0
  0
LINE
  5
31CE
102
{ACAD_REACTORS
330
31DF
102
}
330
2
100
AcDbEntity
  8
KIJUN
100
AcDbLine
 10
82.02395721666727
 20
65.84977358136848
 30
0.0
 11
82.02395721666727
 21
64.3740075797022
 31
0.0
  0
ARC
  5
31CF
102
{ACAD_REACTORS
330
31DF
102
}
330
2
100
AcDbEntity
  8
KIJUN
100
AcDbCircle
 10
85.22360385180745
 20
163.2744787328505
 30
0.0
 40
3.201194242953651
100
AcDbArc
 50
75.52147474471664
 51
178.2183205469996
  0
ARC
  5
31D0
102
{ACAD_REACTORS
330
31DF
102
}
330
2
100
AcDbEntity
  8
KIJUN
100
AcDbCircle
 10
120.1391418475704
 20
163.9085629689754
 30
0.0
 40
38.1189329456116
100
AcDbArc
 50
180.8035054837989
 51
212.5949829841913
  0
ARC
  5
31D1
102
{ACAD_REACTORS
330
31DF
102
}
330
2
100
AcDbEntity
  8
KIJUN
100
AcDbCircle
 10
95.70392764940576
 20
80.09008771217597
 30
0.0
 40
40.32638782563569
100
AcDbArc
 50
358.9825390234486
 51
16.12691672936905
  0
ARC
  5
31D2
102
{ACAD_REACTORS
330
31DF
102
}
330
2
100
AcDbEntity
  8
KIJUN
100
AcDbCircle
 10
90.61385031654072
 20
73.9740363705965
 30
0.0
 40
47.12665925017189
100
AcDbArc
 50
21.55929955017155
 51
35.97181221486302
  0
ARC
  5
31D3
102
{ACAD_REACTORS
330
31DF
102
}
330
2
100
AcDbEntity
  8
KIJUN
100
AcDbCircle
 10
143.6775377354735
 20
112.0257416320994
 30
0.0
 40
18.17302607293502
100
AcDbArc
 50
183.3181717514584
 51
214.794309067043
  0
ARC
  5
31D4
102
{ACAD_REACTORS
330
31DF
102
}
330
2
100
AcDbEntity
  8
KIJUN
100
AcDbCircle
 10
98.20901357973468
 20
112.18831807462
 30
0.0
 40
27.35293831572291
100
AcDbArc
 50
357.4552881911953
 51
0.9647643996506142
  0
ARC
  5
31D5
102
{ACAD_REACTORS
330
31DF
102
}
330
2
100
AcDbEntity
  8
KIJUN
100
AcDbCircle
 10
128.2201528727516
 20
111.0126482133331
 30
0.0
 40
5.371568543797613
100
AcDbArc
 50
141.1975735061449
 51
165.3189534382794
  0
ARC
  5
31D6
102
{ACAD_REACTORS
330
31DF
102
}
330
2
100
AcDbEntity
  8
KIJUN
100
AcDbCircle
 10
122.037316527662
 20
112.5214565184227
 30
0.0
 40
3.523062662808334
100
AcDbArc
 50
2.072645439280822
 51
32.18634327967139
  0
ARC
  5
31D7
102
{ACAD_REACTORS
330
31DF
102
}
330
2
100
AcDbEntity
  8
KIJUN
100
AcDbCircle
 10
124.5312115334291
 20
114.1491574924332
 30
0.0
 40
0.5476017819952222
100
AcDbArc
 50
27.03980352421043
 51
155.2206733363296
  0
ARC
  5
31D8
102
{ACAD_REACTORS
330
31DF
102
}
330
2
100
AcDbEntity
  8
KIJUN
100
AcDbCircle
 10
313.2165438143922
 20
207.5322240320114
 30
0.0
 40
212.6694763126982
100
AcDbArc
 50
204.8760222591612
 51
206.5799727818931
  0
ARC
  5
31D9
102
{ACAD_REACTORS
330
31DF
102
}
330
2
100
AcDbEntity
  8
KIJUN
100
AcDbCircle
 10
118.8153803239218
 20
118.0818424696814
 30
0.0
 40
3.611933534178114
100
AcDbArc
 50
103.8438225817372
 51
140.6090178255993
  0
ARC
  5
31DA
102
{ACAD_REACTORS
330
31DF
102
}
330
2
100
AcDbEntity
  8
KIJUN
100
AcDbCircle
 10
68.47474886909454
 20
102.090506986659
 30
0.0
 40
54.21274652482636
100
AcDbArc
 50
17.14451444699012
 51
20.29718736002346
  0
ARC
  5
31DB
102
{ACAD_REACTORS
330
31DF
102
}
330
2
100
AcDbEntity
  8
KIJUN
100
AcDbCircle
 10
118.2636219027025
 20
120.5055446389503
 30
0.0
 40
1.127480353997944
100
AcDbArc
 50
20.28037264162742
 51
106.090708939766
  0
ARC
  5
31DC
102
{ACAD_REACTORS
330
31DF
102
}
330
2
100
AcDbEntity
  8
KIJUN
100
AcDbCircle
 10
-98.64240634095782
 20
-70.32230138606831
 30
0.0
 40
287.1353860049711
100
AcDbArc
 50
41.61590554523916
 51
45.85764305444581
  0
ARC
  5
31DD
102
{ACAD_REACTORS
330
31DF
102
}
330
2
100
AcDbEntity
  8
KIJUN
100
AcDbCircle
 10
124.3025413320604
 20
156.1667995114565
 30
0.0
 40
30.74689779200951
100
AcDbArc
 50
187.7012599816208
 51
221.6591746566105
  0
ARC
  5
31DE
102
{ACAD_REACTORS
330
31DF
102
}
330
2
100
AcDbEntity
  8
KIJUN
100
AcDbCircle
 10
109.4898455770435
 20
155.2433648639671
 30
0.0
 40
15.97991874691481
100
AcDbArc
 50
135.8499867234945
 51
191.5402935313474
  0
ENDSEC
  0
SECTION
  2
OBJECTS
  0
DICTIONARY
  5
1A
330
0
100
AcDbDictionary
281
     1
  3
ACAD_COLOR
350
144
  3
ACAD_GROUP
350
18
  3
ACAD_LAYOUT
350
58
  3
ACAD_MATERIAL
350
143
  3
ACAD_MLINESTYLE
350
19
  3
ACAD_PLOTSETTINGS
350
59
  3
ACAD_PLOTSTYLENAME
350
56
  3
ACAD_TABLESTYLE
350
145
  3
ACDBHEADERROUNDTRIPXREC
350
31F3
  3
AcDbVariableDictionary
350
1D1
  0
DICTIONARY
  5
1B4
330
A
100
AcDbDictionary
280
     1
281
     1
  3
ACAD_LAYERFILTERS
360
1A2A
  3
ACLYDICTIONARY
360
1A29
  0
DICTIONARY
  5
D13
330
2
100
AcDbDictionary
280
     1
281
     1
  3
ACAD_SORTENTS
360
D14
  0
DICTIONARY
  5
144
102
{ACAD_REACTORS
330
1A
102
}
330
1A
100
AcDbDictionary
281
     1
  0
DICTIONARY
  5
18
102
{ACAD_REACTORS
330
1A
102
}
330
1A
100
AcDbDictionary
281
     1
  3
*A1
350
E0D
  3
*A10
350
2905
  3
*A11
350
2A17
  3
*A12
350
213E
  3
*A13
350
2B84
  3
*A14
350
2C6B
  3
*A15
350
2D78
  3
*A16
350
22C8
  3
*A17
350
241A
  3
*A18
350
24D6
  3
*A19
350
2573
  3
*A2
350
1EFE
  3
*A20
350
265A
  3
*A21
350
26DD
  3
*A22
350
275E
  3
*A23
350
2EE1
  3
*A24
350
2F81
  3
*A25
350
307D
  3
*A26
350
3181
  3
*A27
350
31DF
  3
*A3
350
2037
  3
*A4
350
FF8
  3
*A5
350
136A
  3
*A6
350
1555
  3
*A7
350
17BC
  3
*A8
350
1A98
  3
*A9
350
1CBC
  0
DICTIONARY
  5
58
102
{ACAD_REACTORS
330
1A
102
}
330
1A
100
AcDbDictionary
281
     1
  3
Model
350
5A
  3
ﾚｲｱｳﾄ1
350
5B
  0
DICTIONARY
  5
143
102
{ACAD_REACTORS
330
1A
102
}
330
1A
100
AcDbDictionary
281
     1
  0
DICTIONARY
  5
19
102
{ACAD_REACTORS
330
1A
102
}
330
1A
100
AcDbDictionary
281
     1
  3
STANDARD
350
1D
  0
DICTIONARY
  5
59
102
{ACAD_REACTORS
330
1A
102
}
330
1A
100
AcDbDictionary
281
     1
  0
ACDBDICTIONARYWDFLT
  5
56
102
{ACAD_REACTORS
330
1A
102
}
330
1A
100
AcDbDictionary
281
     1
  3
Normal
350
57
100
AcDbDictionaryWithDefault
340
57
  0
DICTIONARY
  5
145
102
{ACAD_REACTORS
330
1A
102
}
330
1A
100
AcDbDictionary
281
     1
  3
Standard
350
146
  0
DICTIONARY
  5
31F3
102
{ACAD_REACTORS
330
1A
102
}
330
1A
100
AcDbDictionary
281
     1
  0
DICTIONARY
  5
1D1
102
{ACAD_REACTORS
330
1A
102
}
330
1A
100
AcDbDictionary
281
     1
  3
CTABLESTYLE
350
1D2
  3
DIMASSOC
350
D03
  3
PROJECTNAME
350
D04
  0
DICTIONARY
  5
1A2A
102
{ACAD_REACTORS
330
1B4
102
}
330
1B4
100
AcDbDictionary
281
     1
  0
DICTIONARY
  5
1A29
102
{ACAD_REACTORS
330
1B4
102
}
330
1B4
100
AcDbDictionary
281
     1
1001
ACAD
1000
<All
  0
SORTENTSTABLE
  5
D14
102
{ACAD_REACTORS
330
D13
102
}
330
D13
100
AcDbSortentsTable
330
2
331
23
  5
23
331
21
  5
21
331
1F
  5
1F
331
20
  5
20
  0
GROUP
  5
E0D
102
{ACAD_REACTORS
330
18
102
}
330
18
100
AcDbGroup
300

 70
     1
 71
     1
  0
GROUP
  5
2905
102
{ACAD_REACTORS
330
18
102
}
330
18
100
AcDbGroup
300

 70
     1
 71
     1
  0
GROUP
  5
2A17
102
{ACAD_REACTORS
330
18
102
}
330
18
100
AcDbGroup
300

 70
     1
 71
     1
  0
GROUP
  5
213E
102
{ACAD_REACTORS
330
18
102
}
330
18
100
AcDbGroup
300

 70
     1
 71
     1
  0
GROUP
  5
2B84
102
{ACAD_REACTORS
330
18
102
}
330
18
100
AcDbGroup
300

 70
     1
 71
     1
  0
GROUP
  5
2C6B
102
{ACAD_REACTORS
330
18
102
}
330
18
100
AcDbGroup
300

 70
     1
 71
     1
  0
GROUP
  5
2D78
102
{ACAD_REACTORS
330
18
102
}
330
18
100
AcDbGroup
300

 70
     1
 71
     1
  0
GROUP
  5
22C8
102
{ACAD_REACTORS
330
18
102
}
330
18
100
AcDbGroup
300

 70
     1
 71
     1
  0
GROUP
  5
241A
102
{ACAD_REACTORS
330
18
102
}
330
18
100
AcDbGroup
300

 70
     1
 71
     1
  0
GROUP
  5
24D6
102
{ACAD_REACTORS
330
18
102
}
330
18
100
AcDbGroup
300

 70
     1
 71
     1
  0
GROUP
  5
2573
102
{ACAD_REACTORS
330
18
102
}
330
18
100
AcDbGroup
300

 70
     1
 71
     1
  0
GROUP
  5
1EFE
102
{ACAD_REACTORS
330
18
102
}
330
18
100
AcDbGroup
300

 70
     1
 71
     1
  0
GROUP
  5
265A
102
{ACAD_REACTORS
330
18
102
}
330
18
100
AcDbGroup
300

 70
     1
 71
     1
  0
GROUP
  5
26DD
102
{ACAD_REACTORS
330
18
102
}
330
18
100
AcDbGroup
300

 70
     1
 71
     1
  0
GROUP
  5
275E
102
{ACAD_REACTORS
330
18
102
}
330
18
100
AcDbGroup
300

 70
     1
 71
     1
  0
GROUP
  5
2EE1
102
{ACAD_REACTORS
330
18
102
}
330
18
100
AcDbGroup
300

 70
     1
 71
     1
  0
GROUP
  5
2F81
102
{ACAD_REACTORS
330
18
102
}
330
18
100
AcDbGroup
300

 70
     1
 71
     1
  0
GROUP
  5
307D
102
{ACAD_REACTORS
330
18
102
}
330
18
100
AcDbGroup
300

 70
     1
 71
     1
  0
GROUP
  5
3181
102
{ACAD_REACTORS
330
18
102
}
330
18
100
AcDbGroup
300

 70
     1
 71
     1
340
316E
340
316D
340
316B
340
316A
340
3169
340
3168
340
3167
340
3166
340
3165
340
3164
340
3163
340
3162
340
3161
340
3160
340
315F
340
315E
340
313D
340
30FA
340
30F9
340
30F8
340
30F7
340
30F6
340
30F5
340
30F4
340
30F3
340
30F2
340
30F1
340
30EF
340
30EE
340
30ED
340
30EC
340
30EB
340
30EA
340
30E9
340
30E6
340
30E5
340
30E4
340
30E2
340
30E1
340
30E0
340
30DF
340
30DE
340
30DD
340
30DC
340
30DB
340
30DA
340
30D9
340
30D7
  0
GROUP
  5
31DF
102
{ACAD_REACTORS
330
18
102
}
330
18
100
AcDbGroup
300

 70
     1
 71
     1
340
31DE
340
31DD
340
31DC
340
31DB
340
31DA
340
31D9
340
31D8
340
31D7
340
31D6
340
31D5
340
31D4
340
31D3
340
31D2
340
31D1
340
31D0
340
31CF
340
31CE
340
31CD
340
31CC
340
31CB
340
31CA
340
31C9
340
31C8
340
31C7
340
31C6
340
31C5
340
31C4
340
31C3
340
31C2
340
31C1
340
31C0
340
31BF
340
31BE
340
31BD
340
31BC
340
31BB
340
31BA
340
31B9
340
31B8
340
31B7
340
31B6
340
31B5
340
31B4
340
31B3
340
31B2
340
31B1
340
31B0
340
31AF
  0
GROUP
  5
2037
102
{ACAD_REACTORS
330
18
102
}
330
18
100
AcDbGroup
300

 70
     1
 71
     1
  0
GROUP
  5
FF8
102
{ACAD_REACTORS
330
18
102
}
330
18
100
AcDbGroup
300

 70
     1
 71
     1
  0
GROUP
  5
136A
102
{ACAD_REACTORS
330
18
102
}
330
18
100
AcDbGroup
300

 70
     1
 71
     1
  0
GROUP
  5
1555
102
{ACAD_REACTORS
330
18
102
}
330
18
100
AcDbGroup
300

 70
     1
 71
     1
  0
GROUP
  5
17BC
102
{ACAD_REACTORS
330
18
102
}
330
18
100
AcDbGroup
300

 70
     1
 71
     1
  0
GROUP
  5
1A98
102
{ACAD_REACTORS
330
18
102
}
330
18
100
AcDbGroup
300

 70
     1
 71
     1
  0
GROUP
  5
1CBC
102
{ACAD_REACTORS
330
18
102
}
330
18
100
AcDbGroup
300

 70
     1
 71
     1
  0
LAYOUT
  5
5A
102
{ACAD_XDICTIONARY
360
31F4
102
}
102
{ACAD_REACTORS
330
58
102
}
330
58
100
AcDbPlotSettings
  1

  2
なし
  4

  6

 40
0.0
 41
0.0
 42
0.0
 43
0.0
 44
0.0
 45
0.0
 46
0.0
 47
0.0
 48
0.0
 49
0.0
140
0.0
141
0.0
142
1.0
143
1.0
 70
  1712
 72
     0
 73
     0
 74
     0
  7
monochrome.ctb
 75
     0
147
1.0
148
0.0
149
0.0
100
AcDbLayout
  1
Model
 70
     1
 71
     0
 10
0.0
 20
0.0
 11
12.0
 21
9.0
 12
0.0
 22
0.0
 32
0.0
 14
0.0
 24
0.0
 34
0.0
 15
0.0
 25
0.0
 35
0.0
146
0.0
 13
0.0
 23
0.0
 33
0.0
 16
1.0
 26
0.0
 36
0.0
 17
0.0
 27
1.0
 37
0.0
 76
     0
330
2
  0
LAYOUT
  5
5B
102
{ACAD_XDICTIONARY
360
31F6
102
}
102
{ACAD_REACTORS
330
58
102
}
330
58
100
AcDbPlotSettings
  1

  2
なし
  4

  6

 40
0.0
 41
0.0
 42
0.0
 43
0.0
 44
0.0
 45
0.0
 46
0.0
 47
0.0
 48
0.0
 49
0.0
140
0.0
141
0.0
142
1.0
143
1.0
 70
   688
 72
     0
 73
     0
 74
     5
  7
monochrome.ctb
 75
    16
147
1.0
148
0.0
149
0.0
100
AcDbLayout
  1
ﾚｲｱｳﾄ1
 70
     1
 71
     1
 10
0.0
 20
0.0
 11
12.0
 21
9.0
 12
0.0
 22
0.0
 32
0.0
 14
1.000000000000000E+20
 24
1.000000000000000E+20
 34
1.000000000000000E+20
 15
-1.000000000000000E+20
 25
-1.000000000000000E+20
 35
-1.000000000000000E+20
146
0.0
 13
0.0
 23
0.0
 33
0.0
 16
1.0
 26
0.0
 36
0.0
 17
0.0
 27
1.0
 37
0.0
 76
     0
330
7
  0
MLINESTYLE
  5
1D
102
{ACAD_REACTORS
330
19
102
}
330
19
100
AcDbMlineStyle
  2
STANDARD
 70
     0
  3

 62
   256
 51
90.0
 52
90.0
 71
     2
 49
0.5
 62
   256
  6
BYLAYER
 49
-0.5
 62
   256
  6
BYLAYER
  0
ACDBPLACEHOLDER
  5
57
102
{ACAD_REACTORS
330
56
102
}
330
56
  0
TABLESTYLE
  5
146
102
{ACAD_REACTORS
330
145
102
}
330
145
100
AcDbTableStyle
  3
Standard
 70
     0
 71
     0
 40
0.06
 41
0.06
280
     0
281
     0
  7
STANDARD
140
0.18
170
     2
 62
     0
 63
     7
283
     0
274
    -2
284
     1
 64
     0
275
    -2
285
     1
 65
     0
276
    -2
286
     1
 66
     0
277
    -2
287
     1
 67
     0
278
    -2
288
     1
 68
     0
279
    -2
289
     1
 69
     0
  7
STANDARD
140
0.25
170
     5
 62
     0
 63
     7
283
     0
274
    -2
284
     1
 64
     0
275
    -2
285
     1
 65
     0
276
    -2
286
     1
 66
     0
277
    -2
287
     1
 67
     0
278
    -2
288
     1
 68
     0
279
    -2
289
     1
 69
     0
  7
STANDARD
140
0.18
170
     5
 62
     0
 63
     7
283
     0
274
    -2
284
     1
 64
     0
275
    -2
285
     1
 65
     0
276
    -2
286
     1
 66
     0
277
    -2
287
     1
 67
     0
278
    -2
288
     1
 68
     0
279
    -2
289
     1
 69
     0
  0
DICTIONARYVAR
  5
1D2
102
{ACAD_REACTORS
330
1D1
102
}
330
1D1
100
DictionaryVariables
280
     0
  1
STANDARD
  0
DICTIONARYVAR
  5
D03
102
{ACAD_REACTORS
330
1D1
102
}
330
1D1
100
DictionaryVariables
280
     0
  1
1
  0
DICTIONARYVAR
  5
D04
102
{ACAD_REACTORS
330
1D1
102
}
330
1D1
100
DictionaryVariables
280
     0
  1

  0
DICTIONARY
  5
31F4
330
5A
100
AcDbDictionary
280
     1
281
     1
  3
ACAD_XREC_ROUNDTRIP
360
31F5
  0
DICTIONARY
  5
31F6
330
5B
100
AcDbDictionary
280
     1
281
     1
  3
ACAD_XREC_ROUNDTRIP
360
31F7
  0
XRECORD
  5
31F5
102
{ACAD_REACTORS
330
31F4
102
}
330
31F4
100
AcDbXrecord
280
     1
102
SHADEPLOT
 70
     0
102
SHADEPLOTRESLEVEL
 70
     2
102
SHADEPLOTCUSTOMDPI
 70
   300
  0
XRECORD
  5
31F7
102
{ACAD_REACTORS
330
31F6
102
}
330
31F6
100
AcDbXrecord
280
     1
102
SHADEPLOT
 70
     0
102
SHADEPLOTRESLEVEL
 70
     2
102
SHADEPLOTCUSTOMDPI
 70
   300
  0
ENDSEC
  0
EOF
