  0
SECTION
  2
HEADER
  9
$ACADVER
  1
AC1015
  9
$ACADMAINTVER
 70
    20
  9
$DWGCODEPAGE
  3
ANSI_932
  9
$INSBASE
 10
922.019522
 20
-675.4306699999998
 30
0.0
  9
$EXTMIN
 10
-20.98633851983618
 20
0.0
 30
0.0
  9
$EXTMAX
 10
147.8933597240585
 20
176.9676068068858
 30
0.0
  9
$LIMMIN
 10
0.0
 20
0.0
  9
$LIMMAX
 10
420.0
 20
297.0
  9
$ORTHOMODE
 70
     1
  9
$REGENMODE
 70
     1
  9
$FILLMODE
 70
     1
  9
$QTEXTMODE
 70
     0
  9
$MIRRTEXT
 70
     1
  9
$LTSCALE
 40
1.0
  9
$ATTMODE
 70
     1
  9
$TEXTSIZE
 40
30.0
  9
$TRACEWID
 40
0.05
  9
$TEXTSTYLE
  7
SUNPOU
  9
$CLAYER
  8
0
  9
$CELTYPE
  6
BYLAYER
  9
$CECOLOR
 62
   256
  9
$CELTSCALE
 40
1.0
  9
$DISPSILH
 70
     0
  9
$DIMSCALE
 40
1.0
  9
$DIMASZ
 40
2.0
  9
$DIMEXO
 40
10.0
  9
$DIMDLI
 40
0.38
  9
$DIMRND
 40
0.0
  9
$DIMDLE
 40
0.0
  9
$DIMEXE
 40
0.0
  9
$DIMTP
 40
0.0
  9
$DIMTM
 40
0.0
  9
$DIMTXT
 40
10.0
  9
$DIMCEN
 40
0.0
  9
$DIMTSZ
 40
0.0
  9
$DIMTOL
 70
     0
  9
$DIMLIM
 70
     0
  9
$DIMTIH
 70
     0
  9
$DIMTOH
 70
     0
  9
$DIMSE1
 70
     0
  9
$DIMSE2
 70
     0
  9
$DIMTAD
 70
     1
  9
$DIMZIN
 70
     0
  9
$DIMBLK
  1
Dot
  9
$DIMASO
 70
     1
  9
$DIMSHO
 70
     1
  9
$DIMPOST
  1

  9
$DIMAPOST
  1

  9
$DIMALT
 70
     0
  9
$DIMALTD
 70
     2
  9
$DIMALTF
 40
25.4
  9
$DIMLFAC
 40
1.0
  9
$DIMTOFL
 70
     0
  9
$DIMTVP
 40
0.0
  9
$DIMTIX
 70
     0
  9
$DIMSOXD
 70
     0
  9
$DIMSAH
 70
     0
  9
$DIMBLK1
  1

  9
$DIMBLK2
  1

  9
$DIMSTYLE
  2
STANDARD
  9
$DIMCLRD
 70
    60
  9
$DIMCLRE
 70
    70
  9
$DIMCLRT
 70
    60
  9
$DIMTFAC
 40
0.064286
  9
$DIMGAP
 40
3.0
  9
$DIMJUST
 70
     0
  9
$DIMSD1
 70
     0
  9
$DIMSD2
 70
     0
  9
$DIMTOLJ
 70
     1
  9
$DIMTZIN
 70
     0
  9
$DIMALTZ
 70
     0
  9
$DIMALTTZ
 70
     0
  9
$DIMUPT
 70
     0
  9
$DIMDEC
 70
     0
  9
$DIMTDEC
 70
     0
  9
$DIMALTU
 70
     2
  9
$DIMALTTD
 70
     2
  9
$DIMTXSTY
  7
SUNPOU
  9
$DIMAUNIT
 70
     0
  9
$DIMADEC
 70
     0
  9
$DIMALTRND
 40
0.0
  9
$DIMAZIN
 70
     0
  9
$DIMDSEP
 70
    46
  9
$DIMATFIT
 70
     3
  9
$DIMFRAC
 70
     0
  9
$DIMLDRBLK
  1

  9
$DIMLUNIT
 70
     2
  9
$DIMLWD
 70
    -2
  9
$DIMLWE
 70
    -2
  9
$DIMTMOVE
 70
     0
  9
$LUNITS
 70
     2
  9
$LUPREC
 70
     5
  9
$SKETCHINC
 40
0.1
  9
$FILLETRAD
 40
1.0
  9
$AUNITS
 70
     0
  9
$AUPREC
 70
     0
  9
$MENU
  1
acad
  9
$ELEVATION
 40
0.0
  9
$PELEVATION
 40
0.0
  9
$THICKNESS
 40
0.0
  9
$LIMCHECK
 70
     0
  9
$CHAMFERA
 40
0.0
  9
$CHAMFERB
 40
0.0
  9
$CHAMFERC
 40
0.0
  9
$CHAMFERD
 40
0.0
  9
$SKPOLY
 70
     0
  9
$TDCREATE
 40
2450623.654673033
  9
$TDUCREATE
 40
2450623.279673032
  9
$TDUPDATE
 40
2454910.458859062
  9
$TDUUPDATE
 40
2454910.083859062
  9
$TDINDWG
 40
0.8459403704
  9
$TDUSRTIMER
 40
0.8459396528
  9
$USRTIMER
 70
     1
  9
$ANGBASE
 50
0.0
  9
$ANGDIR
 70
     0
  9
$PDMODE
 70
     0
  9
$PDSIZE
 40
0.0
  9
$PLINEWID
 40
0.0
  9
$SPLFRAME
 70
     0
  9
$SPLINETYPE
 70
     6
  9
$SPLINESEGS
 70
     8
  9
$HANDSEED
  5
3D21
  9
$SURFTAB1
 70
     6
  9
$SURFTAB2
 70
     6
  9
$SURFTYPE
 70
     6
  9
$SURFU
 70
     6
  9
$SURFV
 70
     6
  9
$UCSBASE
  2

  9
$UCSNAME
  2

  9
$UCSORG
 10
0.0
 20
0.0
 30
0.0
  9
$UCSXDIR
 10
1.0
 20
0.0
 30
0.0
  9
$UCSYDIR
 10
0.0
 20
1.0
 30
0.0
  9
$UCSORTHOREF
  2

  9
$UCSORTHOVIEW
 70
     0
  9
$UCSORGTOP
 10
0.0
 20
0.0
 30
0.0
  9
$UCSORGBOTTOM
 10
0.0
 20
0.0
 30
0.0
  9
$UCSORGLEFT
 10
0.0
 20
0.0
 30
0.0
  9
$UCSORGRIGHT
 10
0.0
 20
0.0
 30
0.0
  9
$UCSORGFRONT
 10
0.0
 20
0.0
 30
0.0
  9
$UCSORGBACK
 10
0.0
 20
0.0
 30
0.0
  9
$PUCSBASE
  2

  9
$PUCSNAME
  2

  9
$PUCSORG
 10
0.0
 20
0.0
 30
0.0
  9
$PUCSXDIR
 10
1.0
 20
0.0
 30
0.0
  9
$PUCSYDIR
 10
0.0
 20
1.0
 30
0.0
  9
$PUCSORTHOREF
  2

  9
$PUCSORTHOVIEW
 70
     0
  9
$PUCSORGTOP
 10
0.0
 20
0.0
 30
0.0
  9
$PUCSORGBOTTOM
 10
0.0
 20
0.0
 30
0.0
  9
$PUCSORGLEFT
 10
0.0
 20
0.0
 30
0.0
  9
$PUCSORGRIGHT
 10
0.0
 20
0.0
 30
0.0
  9
$PUCSORGFRONT
 10
0.0
 20
0.0
 30
0.0
  9
$PUCSORGBACK
 10
0.0
 20
0.0
 30
0.0
  9
$USERI1
 70
     0
  9
$USERI2
 70
     0
  9
$USERI3
 70
     0
  9
$USERI4
 70
     0
  9
$USERI5
 70
     0
  9
$USERR1
 40
0.0
  9
$USERR2
 40
0.0
  9
$USERR3
 40
0.0
  9
$USERR4
 40
0.0
  9
$USERR5
 40
0.0
  9
$WORLDVIEW
 70
     1
  9
$SHADEDGE
 70
     3
  9
$SHADEDIF
 70
    70
  9
$TILEMODE
 70
     1
  9
$MAXACTVP
 70
    16
  9
$PINSBASE
 10
0.0
 20
0.0
 30
0.0
  9
$PLIMCHECK
 70
     0
  9
$PEXTMIN
 10
1.000000000000000E+20
 20
1.000000000000000E+20
 30
1.000000000000000E+20
  9
$PEXTMAX
 10
-1.000000000000000E+20
 20
-1.000000000000000E+20
 30
-1.000000000000000E+20
  9
$PLIMMIN
 10
0.0
 20
0.0
  9
$PLIMMAX
 10
12.0
 20
9.0
  9
$UNITMODE
 70
     0
  9
$VISRETAIN
 70
     0
  9
$PLINEGEN
 70
     0
  9
$PSLTSCALE
 70
     1
  9
$TREEDEPTH
 70
  3020
  9
$CMLSTYLE
  2
STANDARD
  9
$CMLJUST
 70
     0
  9
$CMLSCALE
 40
1.0
  9
$PROXYGRAPHICS
 70
     1
  9
$MEASUREMENT
 70
     0
  9
$CELWEIGHT
370
    -1
  9
$ENDCAPS
280
     0
  9
$JOINSTYLE
280
     0
  9
$LWDISPLAY
290
     0
  9
$INSUNITS
 70
     0
  9
$HYPERLINKBASE
  1

  9
$STYLESHEET
  1

  9
$XEDIT
290
     1
  9
$CEPSNTYPE
380
     0
  9
$PSTYLEMODE
290
     1
  9
$FINGERPRINTGUID
  2
{FB88A696-E29C-4009-92AF-A3599A8169D5}
  9
$VERSIONGUID
  2
{BAF56C9C-0BFB-4DA1-9EED-B794FADC4108}
  9
$EXTNAMES
290
     1
  9
$PSVPSCALE
 40
0.0
  9
$OLESTARTUP
290
     0
  0
ENDSEC
  0
SECTION
  2
CLASSES
  0
CLASS
  1
DICTIONARYVAR
  2
AcDbDictionaryVar
  3
ObjectDBX Classes
 90
        0
280
     0
281
     0
  0
CLASS
  1
ACDBDICTIONARYWDFLT
  2
AcDbDictionaryWithDefault
  3
ObjectDBX Classes
 90
        0
280
     0
281
     0
  0
CLASS
  1
ACDBPLACEHOLDER
  2
AcDbPlaceHolder
  3
ObjectDBX Classes
 90
        0
280
     0
281
     0
  0
CLASS
  1
LAYOUT
  2
AcDbLayout
  3
ObjectDBX Classes
 90
        0
280
     0
281
     0
  0
CLASS
  1
TABLESTYLE
  2
AcDbTableStyle
  3
ObjectDBX Classes
 90
     4095
280
     0
281
     0
  0
CLASS
  1
SORTENTSTABLE
  2
AcDbSortentsTable
  3
ObjectDBX Classes
 90
        0
280
     0
281
     0
  0
CLASS
  1
MATERIAL
  2
AcDbMaterial
  3
ObjectDBX Classes
 90
     1153
280
     0
281
     0
  0
CLASS
  1
VISUALSTYLE
  2
AcDbVisualStyle
  3
ObjectDBX Classes
 90
     4095
280
     0
281
     0
  0
CLASS
  1
SCALE
  2
AcDbScale
  3
ObjectDBX Classes
 90
     1153
280
     0
281
     0
  0
CLASS
  1
MLEADERSTYLE
  2
AcDbMLeaderStyle
  3
ACDB_MLEADERSTYLE_CLASS
 90
     4095
280
     0
281
     0
  0
CLASS
  1
CELLSTYLEMAP
  2
AcDbCellStyleMap
  3
ObjectDBX Classes
 90
     1152
280
     0
281
     0
  0
ENDSEC
  0
SECTION
  2
TABLES
  0
TABLE
  2
VPORT
  5
12
330
0
100
AcDbSymbolTable
 70
     1
  0
VPORT
  5
3CAE
330
12
100
AcDbSymbolTableRecord
100
AcDbViewportTableRecord
  2
*Active
 70
     0
 10
0.0
 20
0.0
 11
1.0
 21
1.0
 12
74.07402985911923
 22
90.80294535795166
 13
0.0
 23
0.0
 14
1.0
 24
1.0
 15
0.0
 25
0.0
 16
0.0
 26
0.0
 36
1.0
 17
0.0
 27
0.0
 37
0.0
 40
183.0440153019965
 41
1.323687031082529
 42
50.0
 43
0.0
 44
0.0
 50
0.0
 51
0.0
 71
     0
 72
 20000
 73
     1
 74
     1
 75
     0
 76
     0
 77
     0
 78
     0
281
     0
 65
     1
110
0.0
120
0.0
130
0.0
111
1.0
121
0.0
131
0.0
112
0.0
122
1.0
132
0.0
 79
     0
146
0.0
  0
ENDTAB
  0
TABLE
  2
LTYPE
  5
D
330
0
100
AcDbSymbolTable
 70
     1
  0
LTYPE
  5
E
330
D
100
AcDbSymbolTableRecord
100
AcDbLinetypeTableRecord
  2
BYBLOCK
 70
     0
  3

 72
    65
 73
     0
 40
0.0
  0
LTYPE
  5
F
330
D
100
AcDbSymbolTableRecord
100
AcDbLinetypeTableRecord
  2
BYLAYER
 70
     0
  3

 72
    65
 73
     0
 40
0.0
  0
LTYPE
  5
5
330
D
100
AcDbSymbolTableRecord
100
AcDbLinetypeTableRecord
  2
CONTINUOUS
 70
     0
  3
Solid line
 72
    65
 73
     0
 40
0.0
  0
ENDTAB
  0
TABLE
  2
LAYER
  5
A
102
{ACAD_XDICTIONARY
360
1B4
102
}
330
0
100
AcDbSymbolTable
 70
     6
  0
LAYER
  5
4
102
{ACAD_XDICTIONARY
360
3D07
102
}
330
A
100
AcDbSymbolTableRecord
100
AcDbLayerTableRecord
  2
0
 70
     0
 62
     7
  6
CONTINUOUS
370
    -3
390
57
  0
LAYER
  5
25
102
{ACAD_XDICTIONARY
360
3D09
102
}
330
A
100
AcDbSymbolTableRecord
100
AcDbLayerTableRecord
  2
KIJUN
 70
     0
 62
     7
  6
CONTINUOUS
370
    -3
390
57
  0
LAYER
  5
22
102
{ACAD_XDICTIONARY
360
3D0B
102
}
330
A
100
AcDbSymbolTableRecord
100
AcDbLayerTableRecord
  2
HOJO
 70
     0
 62
     3
  6
CONTINUOUS
370
    -3
390
57
  0
LAYER
  5
1B
102
{ACAD_XDICTIONARY
360
3D0D
102
}
330
A
100
AcDbSymbolTableRecord
100
AcDbLayerTableRecord
  2
WAKU
 70
     0
 62
     1
  6
CONTINUOUS
370
    -3
390
57
  0
LAYER
  5
31
330
A
100
AcDbSymbolTableRecord
100
AcDbLayerTableRecord
  2
DEFPOINTS
 70
     0
 62
     7
  6
CONTINUOUS
290
     0
370
    -3
390
57
  0
LAYER
  5
28
102
{ACAD_XDICTIONARY
360
3D0F
102
}
330
A
100
AcDbSymbolTableRecord
100
AcDbLayerTableRecord
  2
SUNPOU
 70
     0
 62
    70
  6
CONTINUOUS
370
    -3
390
57
  0
ENDTAB
  0
TABLE
  2
STYLE
  5
B
330
0
100
AcDbSymbolTable
 70
     2
  0
STYLE
  5
C
330
B
100
AcDbSymbolTableRecord
100
AcDbTextStyleTableRecord
  2
STANDARD
 70
     0
 40
0.0
 41
1.0
 50
0.0
 71
     0
 42
0.2
  3
txt
  4

  0
STYLE
  5
1C
330
B
100
AcDbSymbolTableRecord
100
AcDbTextStyleTableRecord
  2
SUNPOU
 70
     0
 40
0.0
 41
1.0
 50
0.0
 71
     0
 42
30.0
  3
txt
  4
bigfont
  0
ENDTAB
  0
TABLE
  2
VIEW
  5
10
330
0
100
AcDbSymbolTable
 70
     0
  0
ENDTAB
  0
TABLE
  2
UCS
  5
11
330
0
100
AcDbSymbolTable
 70
     0
  0
ENDTAB
  0
TABLE
  2
APPID
  5
14
330
0
100
AcDbSymbolTable
 70
    11
  0
APPID
  5
15
330
14
100
AcDbSymbolTableRecord
100
AcDbRegAppTableRecord
  2
ACAD
 70
     0
  0
APPID
  5
1D3
330
14
100
AcDbSymbolTableRecord
100
AcDbRegAppTableRecord
  2
ACAD_DSTYLE_DIMTEXT_FILL
 70
     0
  0
APPID
  5
1D4
330
14
100
AcDbSymbolTableRecord
100
AcDbRegAppTableRecord
  2
ACAD_DSTYLE_DIMEXT_LENGTH
 70
     0
  0
APPID
  5
1D5
330
14
100
AcDbSymbolTableRecord
100
AcDbRegAppTableRecord
  2
ACAD_DSTYLE_DIMEXT_ENABLED
 70
     0
  0
APPID
  5
1D6
330
14
100
AcDbSymbolTableRecord
100
AcDbRegAppTableRecord
  2
ACAD_DSTYLE_DIM_LINETYPE
 70
     0
  0
APPID
  5
1D7
330
14
100
AcDbSymbolTableRecord
100
AcDbRegAppTableRecord
  2
ACAD_DSTYLE_DIM_EXT1_LINETYPE
 70
     0
  0
APPID
  5
1D8
330
14
100
AcDbSymbolTableRecord
100
AcDbRegAppTableRecord
  2
ACAD_DSTYLE_DIM_EXT2_LINETYPE
 70
     0
  0
APPID
  5
294
330
14
100
AcDbSymbolTableRecord
100
AcDbRegAppTableRecord
  2
ACAD_DSTYLE_DIMJOGGED_JOGANGLE_SYMBOL
 70
     0
  0
APPID
  5
478
330
14
100
AcDbSymbolTableRecord
100
AcDbRegAppTableRecord
  2
ACAD_DSTYLE_DIMARC_LENGTH_SYMBOL
 70
     0
  0
APPID
  5
157B
330
14
100
AcDbSymbolTableRecord
100
AcDbRegAppTableRecord
  2
ACAD_EXEMPT_FROM_CAD_STANDARDS
 70
     0
  0
APPID
  5
3D05
330
14
100
AcDbSymbolTableRecord
100
AcDbRegAppTableRecord
  2
ACAD_MLEADERVER
 70
     0
  0
ENDTAB
  0
TABLE
  2
DIMSTYLE
  5
16
330
0
100
AcDbSymbolTable
 70
     1
100
AcDbDimStyleTable
 71
     1
340
1E
  0
DIMSTYLE
105
1E
102
{ACAD_REACTORS
330
35E8
330
35F5
102
}
330
16
100
AcDbSymbolTableRecord
100
AcDbDimStyleTableRecord
  2
STANDARD
 70
     0
340
C
  0
ENDTAB
  0
TABLE
  2
BLOCK_RECORD
  5
1
330
0
100
AcDbSymbolTable
 70
     3
  0
BLOCK_RECORD
  5
2
102
{ACAD_XDICTIONARY
360
1578
102
}
330
1
100
AcDbSymbolTableRecord
100
AcDbBlockTableRecord
  2
*MODEL_SPACE
340
5A
  0
BLOCK_RECORD
  5
7
330
1
100
AcDbSymbolTableRecord
100
AcDbBlockTableRecord
  2
*PAPER_SPACE
340
5B
  0
BLOCK_RECORD
  5
109
330
1
100
AcDbSymbolTableRecord
100
AcDbBlockTableRecord
  2
_Dot
340
0
102
{BLKREFS
331
3C70
331
3C71
331
3C8B
331
3C8C
102
}
  0
BLOCK_RECORD
  5
35E9
330
1
100
AcDbSymbolTableRecord
100
AcDbBlockTableRecord
  2
*D1
340
0
  0
BLOCK_RECORD
  5
35F6
330
1
100
AcDbSymbolTableRecord
100
AcDbBlockTableRecord
  2
*D2
340
0
  0
ENDTAB
  0
ENDSEC
  0
SECTION
  2
BLOCKS
  0
BLOCK
  5
3
330
2
100
AcDbEntity
  8
0
100
AcDbBlockBegin
  2
*MODEL_SPACE
 70
     0
 10
0.0
 20
0.0
 30
0.0
  3
*MODEL_SPACE
  1

  0
ENDBLK
  5
6
330
2
100
AcDbEntity
  8
0
100
AcDbBlockEnd
  0
BLOCK
  5
8
330
7
100
AcDbEntity
 67
     1
  8
0
100
AcDbBlockBegin
  2
*PAPER_SPACE
 70
     0
 10
0.0
 20
0.0
 30
0.0
  3
*PAPER_SPACE
  1

  0
ENDBLK
  5
9
330
7
100
AcDbEntity
 67
     1
  8
0
100
AcDbBlockEnd
  0
BLOCK
  5
10C
330
109
100
AcDbEntity
  8
0
100
AcDbBlockBegin
  2
_Dot
 70
     0
 10
0.0
 20
0.0
 30
0.0
  3
_Dot
  1

  0
LWPOLYLINE
  5
10A
330
109
100
AcDbEntity
  8
0
  6
ByBlock
 62
     0
100
AcDbPolyline
 90
        2
 70
     1
 43
0.5
 10
-0.25
 20
0.0
 42
1.0
 10
0.25
 20
0.0
 42
1.0
  0
LINE
  5
10B
330
109
100
AcDbEntity
  8
0
  6
ByBlock
 62
     0
370
    -2
100
AcDbLine
 10
-0.5
 20
0.0
 30
0.0
 11
-1.0
 21
0.0
 31
0.0
  0
ENDBLK
  5
10D
330
109
100
AcDbEntity
  8
0
100
AcDbBlockEnd
  0
BLOCK
  5
35F3
330
35E9
100
AcDbEntity
  8
0
100
AcDbBlockBegin
  2
*D1
 70
     1
 10
0.0
 20
0.0
 30
0.0
  3
*D1
  1

  0
LINE
  5
3C88
330
35E9
100
AcDbEntity
  8
SUNPOU
 62
    70
370
    -2
100
AcDbLine
 10
19.76101516753718
 20
147.1714760951109
 30
0.0
 11
19.76101516753718
 21
163.9676068068856
 31
0.0
  0
LINE
  5
3C89
330
35E9
100
AcDbEntity
  8
SUNPOU
 62
    70
370
    -2
100
AcDbLine
 10
71.76101516753718
 20
147.5966533869847
 30
0.0
 11
71.76101516753718
 21
163.9676068068856
 31
0.0
  0
LINE
  5
3C8A
330
35E9
100
AcDbEntity
  8
SUNPOU
 62
    60
370
    -2
100
AcDbLine
 10
21.76101516753718
 20
163.9676068068856
 30
0.0
 11
69.76101516753718
 21
163.9676068068856
 31
0.0
  0
INSERT
  5
3C8B
330
35E9
100
AcDbEntity
  8
SUNPOU
 62
    60
370
    -2
100
AcDbBlockReference
  2
_Dot
 10
19.76101516753718
 20
163.9676068068856
 30
0.0
 41
2.0
 42
2.0
 43
2.0
 50
180.0
  0
INSERT
  5
3C8C
330
35E9
100
AcDbEntity
  8
SUNPOU
 62
    60
370
    -2
100
AcDbBlockReference
  2
_Dot
 10
71.76101516753718
 20
163.9676068068856
 30
0.0
 41
2.0
 42
2.0
 43
2.0
  0
MTEXT
  5
3C8D
330
35E9
100
AcDbEntity
  8
SUNPOU
 62
    60
100
AcDbMText
 10
45.76101516753718
 20
171.9676068068858
 30
0.0
 40
10.0
 41
0.0
 71
     5
 72
     1
  1
\A1;52
  7
SUNPOU
 73
     1
 44
1.0
1001
ACAD
1000
MTEXTBEGIN
1070
    73
1070
     1
1070
    44
1040
1.0
1070
    74
1070
     0
1000
MTEXTEND
  0
POINT
  5
3C8E
330
35E9
100
AcDbEntity
  8
DEFPOINTS
 62
     0
100
AcDbPoint
 10
19.76101516753718
 20
137.1714760951109
 30
0.0
  0
POINT
  5
3C8F
330
35E9
100
AcDbEntity
  8
DEFPOINTS
 62
     0
100
AcDbPoint
 10
71.76101516753718
 20
137.5966533869847
 30
0.0
  0
POINT
  5
3C90
330
35E9
100
AcDbEntity
  8
DEFPOINTS
 62
     0
100
AcDbPoint
 10
71.76101516753718
 20
163.9676068068856
 30
0.0
  0
ENDBLK
  5
35F4
330
35E9
100
AcDbEntity
  8
0
100
AcDbBlockEnd
  0
BLOCK
  5
3600
330
35F6
100
AcDbEntity
  8
0
100
AcDbBlockBegin
  2
*D2
 70
     1
 10
0.0
 20
0.0
 30
0.0
  3
*D2
  1

  0
LINE
  5
3C6D
330
35F6
100
AcDbEntity
  8
SUNPOU
 62
    70
370
    -2
100
AcDbLine
 10
20.22221840781106
 20
137.1714760951109
 30
0.0
 11
-7.98633851983616
 21
137.1714760951109
 31
0.0
  0
LINE
  5
3C6E
330
35F6
100
AcDbEntity
  8
SUNPOU
 62
    70
370
    -2
100
AcDbLine
 10
28.98286794310589
 20
45.17147609511098
 30
0.0
 11
-7.986338519836177
 21
45.17147609511098
 31
0.0
  0
LINE
  5
3C6F
330
35F6
100
AcDbEntity
  8
SUNPOU
 62
    60
370
    -2
100
AcDbLine
 10
-7.986338519836158
 20
135.1714760951109
 30
0.0
 11
-7.986338519836179
 21
47.171476095111
 31
0.0
  0
INSERT
  5
3C70
330
35F6
100
AcDbEntity
  8
SUNPOU
 62
    60
370
    -2
100
AcDbBlockReference
  2
_Dot
 10
-7.986338519836158
 20
137.1714760951109
 30
0.0
 41
2.0
 42
2.0
 43
2.0
 50
90.0
  0
INSERT
  5
3C71
330
35F6
100
AcDbEntity
  8
SUNPOU
 62
    60
370
    -2
100
AcDbBlockReference
  2
_Dot
 10
-7.98633851983618
 20
45.17147609511098
 30
0.0
 41
2.0
 42
2.0
 43
2.0
 50
270.0
  0
MTEXT
  5
3C72
330
35F6
100
AcDbEntity
  8
SUNPOU
 62
    60
100
AcDbMText
 10
-15.98633851983618
 20
91.17147609511098
 30
0.0
 40
10.0
 41
0.0
 71
     5
 72
     1
  1
\A1;92
  7
SUNPOU
 11
0.0000000000000001
 21
1.0
 31
0.0
 73
     1
 44
1.0
1001
ACAD
1000
MTEXTBEGIN
1070
    73
1070
     1
1070
    44
1040
1.0
1070
    74
1070
     0
1000
MTEXTEND
  0
POINT
  5
3C73
330
35F6
100
AcDbEntity
  8
DEFPOINTS
 62
     0
100
AcDbPoint
 10
30.22221840781106
 20
137.1714760951109
 30
0.0
  0
POINT
  5
3C74
330
35F6
100
AcDbEntity
  8
DEFPOINTS
 62
     0
100
AcDbPoint
 10
38.98286794310589
 20
45.17147609511098
 30
0.0
  0
POINT
  5
3C75
330
35F6
100
AcDbEntity
  8
DEFPOINTS
 62
     0
100
AcDbPoint
 10
-7.98633851983618
 20
45.17147609511098
 30
0.0
  0
ENDBLK
  5
3601
330
35F6
100
AcDbEntity
  8
0
100
AcDbBlockEnd
  0
ENDSEC
  0
SECTION
  2
ENTITIES
  0
LINE
  5
1F
330
2
100
AcDbEntity
  8
WAKU
100
AcDbLine
 10
0.0
 20
14.0
 30
0.0
 11
147.8933597240585
 21
13.99999999999999
 31
0.0
  0
LINE
  5
20
330
2
100
AcDbEntity
  8
WAKU
100
AcDbLine
 10
0.0
 20
0.0
 30
0.0
 11
147.8933597240585
 21
0.0
 31
0.0
  0
TEXT
  5
21
330
2
100
AcDbEntity
  8
HOJO
100
AcDbText
 10
9.653966000000023
 20
2.366626000000023
 30
0.0
 40
9.0
  1
TWE102
  7
SUNPOU
100
AcDbText
  0
TEXT
  5
23
330
2
100
AcDbEntity
  8
HOJO
100
AcDbText
 10
85.84696046283864
 20
5.044386000000031
 30
0.0
 40
6.0
  1
92×52×6
  7
SUNPOU
100
AcDbText
  0
DIMENSION
  5
35E8
330
2
100
AcDbEntity
  8
SUNPOU
100
AcDbDimension
  2
*D1
 10
71.76101516753718
 20
163.9676068068856
 30
0.0
 11
45.76101516753718
 21
171.9676068068858
 31
0.0
 70
    32
 71
     5
 42
52.00000000000001
  3
STANDARD
100
AcDbAlignedDimension
 13
19.76101516753718
 23
137.1714760951109
 33
0.0
 14
71.76101516753718
 24
137.5966533869847
 34
0.0
100
AcDbRotatedDimension
1001
ACAD
1000
DSTYLE
1002
{
1070
    41
1040
2.0
1070
    42
1040
10.0
1070
    44
1040
0.0
1070
    73
1070
     0
1070
    74
1070
     0
1070
    77
1070
     1
1070
   140
1040
10.0
1070
   141
1040
0.0
1070
   146
1040
0.064286
1070
   147
1040
3.0
1070
   176
1070
    60
1070
   177
1070
    70
1070
   178
1070
    60
1070
   271
1070
     0
1070
   272
1070
     0
1070
   340
1005
1C
1070
   342
1005
109
1002
}
  0
DIMENSION
  5
35F5
330
2
100
AcDbEntity
  8
SUNPOU
100
AcDbDimension
  2
*D2
 10
-7.98633851983618
 20
45.17147609511098
 30
0.0
 11
-15.98633851983618
 21
91.17147609511098
 31
0.0
 70
    32
 71
     5
 42
91.99999999999995
  3
STANDARD
100
AcDbAlignedDimension
 13
30.22221840781106
 23
137.1714760951109
 33
0.0
 14
38.98286794310589
 24
45.17147609511098
 34
0.0
 50
90.0
100
AcDbRotatedDimension
1001
ACAD
1000
DSTYLE
1002
{
1070
    41
1040
2.0
1070
    42
1040
10.0
1070
    44
1040
0.0
1070
    73
1070
     0
1070
    74
1070
     0
1070
    77
1070
     1
1070
   140
1040
10.0
1070
   141
1040
0.0
1070
   146
1040
0.064286
1070
   147
1040
3.0
1070
   176
1070
    60
1070
   177
1070
    70
1070
   178
1070
    60
1070
   271
1070
     0
1070
   272
1070
     0
1070
   340
1005
1C
1070
   342
1005
109
1002
}
  0
ARC
  5
3B9E
102
{ACAD_REACTORS
330
3BFA
102
}
330
2
100
AcDbEntity
  8
KIJUN
100
AcDbCircle
 10
67.48797964887805
 20
71.95382414307734
 30
0.0
 40
47.72696448134088
100
AcDbArc
 50
167.8287401134274
 51
197.5999073548584
  0
ARC
  5
3B9F
102
{ACAD_REACTORS
330
3BFA
102
}
330
2
100
AcDbEntity
  8
KIJUN
100
AcDbCircle
 10
40.14680933295664
 20
64.49835662014827
 30
0.0
 40
19.44597156234869
100
AcDbArc
 50
201.0215982735181
 51
239.8078850991967
  0
ARC
  5
3BA1
102
{ACAD_REACTORS
330
3BFA
102
}
330
2
100
AcDbEntity
  8
KIJUN
100
AcDbCircle
 10
41.38286778218486
 20
57.04110255505838
 30
0.0
 40
11.36864631577518
100
AcDbArc
 50
317.1430321397602
 51
117.7071132054745
  0
ARC
  5
3BA3
102
{ACAD_REACTORS
330
3BFA
102
}
330
2
100
AcDbEntity
  8
KIJUN
100
AcDbCircle
 10
38.98286794310589
 20
61.16491224217419
 30
0.0
 40
15.99343614706321
100
AcDbArc
 50
237.4056938081355
 51
312.1550931851385
  0
ARC
  5
3BA4
102
{ACAD_REACTORS
330
3BFA
102
}
330
2
100
AcDbEntity
  8
KIJUN
100
AcDbCircle
 10
37.2873231008669
 20
104.3859444042831
 30
0.0
 40
17.52630793332972
100
AcDbArc
 50
166.8182200709948
 51
197.1090361042891
  0
ARC
  5
3BA6
102
{ACAD_REACTORS
330
3BFA
102
}
330
2
100
AcDbEntity
  8
KIJUN
100
AcDbCircle
 10
-16.34781762060926
 20
89.98365336399045
 30
0.0
 40
38.02569670629461
100
AcDbArc
 50
347.9054748564518
 51
14.07293434734744
  0
ARC
  5
3BA7
102
{ACAD_REACTORS
330
3BFA
102
}
330
2
100
AcDbEntity
  8
KIJUN
100
AcDbCircle
 10
18.57660562851127
 20
103.2844836839706
 30
0.0
 40
6.530090750534517
100
AcDbArc
 50
26.28304992859314
 51
61.72232408812095
  0
ARC
  5
3BA8
102
{ACAD_REACTORS
330
3BFA
102
}
330
2
100
AcDbEntity
  8
KIJUN
100
AcDbCircle
 10
82.32556838350008
 20
115.0401335550403
 30
0.0
 40
60.95187766397104
100
AcDbArc
 50
179.5292047907719
 51
185.6538272431998
  0
ARC
  5
3BA9
102
{ACAD_REACTORS
330
3BFA
102
}
330
2
100
AcDbEntity
  8
KIJUN
100
AcDbCircle
 10
23.58776071973684
 20
115.5547608959909
 30
0.0
 40
2.212055361613464
100
AcDbArc
 50
73.12405776014806
 51
180.3573376650854
  0
ARC
  5
3BAA
102
{ACAD_REACTORS
330
3BFA
102
}
330
2
100
AcDbEntity
  8
KIJUN
100
AcDbCircle
 10
35.88387621210758
 20
123.1021782731157
 30
0.0
 40
11.70469936672255
100
AcDbArc
 50
142.6644511473727
 51
179.6495791529506
  0
ARC
  5
3BAB
102
{ACAD_REACTORS
330
3BFA
102
}
330
2
100
AcDbEntity
  8
KIJUN
100
AcDbCircle
 10
104.154659103687
 20
121.1568225716715
 30
0.0
 40
80.00069249370548
100
AcDbArc
 50
178.5553317270489
 51
182.496907440738
  0
ARC
  5
3BAC
102
{ACAD_REACTORS
330
3BFA
102
}
330
2
100
AcDbEntity
  8
KIJUN
100
AcDbCircle
 10
28.6916308402503
 20
133.0863923473892
 30
0.0
 40
3.577123058133823
100
AcDbArc
 50
132.0744024476502
 51
233.7709978839332
  0
ARC
  5
3BB3
102
{ACAD_REACTORS
330
3BFA
102
}
330
2
100
AcDbEntity
  8
KIJUN
100
AcDbCircle
 10
30.22221840781106
 20
131.0623417111026
 30
0.0
 40
6.109134384008313
100
AcDbArc
 50
45.28392172699144
 51
130.0088668635577
  0
ARC
  5
3BB4
102
{ACAD_REACTORS
330
3BFA
102
}
330
2
100
AcDbEntity
  8
KIJUN
100
AcDbCircle
 10
20.64442062174693
 20
121.7715455983097
 30
0.0
 40
19.4519364456305
100
AcDbArc
 50
2.869657842079479
 51
44.49139901407149
  0
ARC
  5
3BB5
102
{ACAD_REACTORS
330
3BFA
102
}
330
2
100
AcDbEntity
  8
KIJUN
100
AcDbCircle
 10
60.39082685571053
 20
116.438038177759
 30
0.0
 40
11.37018831182665
100
AcDbArc
 50
321.0640952907687
 51
41.32995805692014
  0
ARC
  5
3BBE
102
{ACAD_REACTORS
330
3BFA
102
}
330
2
100
AcDbEntity
  8
KIJUN
100
AcDbCircle
 10
39.97090313555907
 20
118.2763737715295
 30
0.0
 40
4.470156908458712
100
AcDbArc
 50
29.06574689076182
 51
88.70454556481211
  0
ARC
  5
3BBF
102
{ACAD_REACTORS
330
3BFA
102
}
330
2
100
AcDbEntity
  8
KIJUN
100
AcDbCircle
 10
49.10632525813273
 20
117.8911330520666
 30
0.0
 40
4.534101273150071
100
AcDbArc
 50
38.1527643996906
 51
109.1376007188068
  0
ARC
  5
3BC0
102
{ACAD_REACTORS
330
3BFA
102
}
330
2
100
AcDbEntity
  8
KIJUN
100
AcDbCircle
 10
54.01511106868521
 20
103.3977406412054
 30
0.0
 40
19.83611524966729
100
AcDbArc
 50
108.8083509672874
 51
120.7329996942332
  0
ARC
  5
3BC1
102
{ACAD_REACTORS
330
3BFA
102
}
330
2
100
AcDbEntity
  8
KIJUN
100
AcDbCircle
 10
65.68673600462384
 20
121.6661764449732
 30
0.0
 40
3.963986870756667
100
AcDbArc
 50
35.12397777009945
 51
182.5401257446267
  0
ARC
  5
3BC2
102
{ACAD_REACTORS
330
3BFA
102
}
330
2
100
AcDbEntity
  8
KIJUN
100
AcDbCircle
 10
58.43420254988284
 20
107.0846018684203
 30
0.0
 40
14.77734641982106
100
AcDbArc
 50
77.12626240955898
 51
112.9513290183188
  0
ARC
  5
3BC3
102
{ACAD_REACTORS
330
3BFA
102
}
330
2
100
AcDbEntity
  8
KIJUN
100
AcDbCircle
 10
45.83804102471169
 20
127.1421477619801
 30
0.0
 40
29.42848273094158
100
AcDbArc
 50
310.8274395755378
 51
322.6598684065527
  0
ARC
  5
3BC4
102
{ACAD_REACTORS
330
3BFA
102
}
330
2
100
AcDbEntity
  8
KIJUN
100
AcDbCircle
 10
60.46462151462147
 20
103.4271536053397
 30
0.0
 40
4.83487081110599
100
AcDbArc
 50
313.8856717870493
 51
17.41448405740747
  0
ARC
  5
3BC5
102
{ACAD_REACTORS
330
3BFA
102
}
330
2
100
AcDbEntity
  8
KIJUN
100
AcDbCircle
 10
65.58852488817184
 20
91.93139432867949
 30
0.0
 40
4.470414600628759
100
AcDbArc
 50
293.4086534758625
 51
41.85521939555505
  0
ARC
  5
3BC6
102
{ACAD_REACTORS
330
3BFA
102
}
330
2
100
AcDbEntity
  8
KIJUN
100
AcDbCircle
 10
31.10125050499134
 20
61.64539336958753
 30
0.0
 40
50.36807994197744
100
AcDbArc
 50
41.33918501715887
 51
49.49467901811924
  0
ARC
  5
3BC7
102
{ACAD_REACTORS
330
3BFA
102
}
330
2
100
AcDbEntity
  8
KIJUN
100
AcDbCircle
 10
58.33250303384707
 20
76.8910565180051
 30
0.0
 40
12.40823300682214
100
AcDbArc
 50
296.6788134062215
 51
332.6348422684686
  0
ARC
  5
3BC8
102
{ACAD_REACTORS
330
3BFA
102
}
330
2
100
AcDbEntity
  8
KIJUN
100
AcDbCircle
 10
53.88460065650109
 20
77.7794731840067
 30
0.0
 40
16.8137047794606
100
AcDbArc
 50
336.9172546799688
 51
36.70490003728934
  0
ARC
  5
3BC9
102
{ACAD_REACTORS
330
3BFA
102
}
330
2
100
AcDbEntity
  8
KIJUN
100
AcDbCircle
 10
61.77979754545943
 20
71.31678693330269
 30
0.0
 40
5.907911688287465
100
AcDbArc
 50
172.6315689305255
 51
291.0691459961749
  0
ARC
  5
3BCA
102
{ACAD_REACTORS
330
3BFA
102
}
330
2
100
AcDbEntity
  8
KIJUN
100
AcDbCircle
 10
56.93835007028944
 20
74.94713707833567
 30
0.0
 40
3.047600925342891
100
AcDbArc
 50
188.4143213447911
 51
250.4926914032499
  0
ARC
  5
3BCC
102
{ACAD_REACTORS
330
3BFA
102
}
330
2
100
AcDbEntity
  8
KIJUN
100
AcDbCircle
 10
53.3839247447803
 20
77.90587172315376
 30
0.0
 40
3.44719025847422
100
AcDbArc
 50
231.5288782052467
 51
279.00622747488
  0
ARC
  5
3BCD
102
{ACAD_REACTORS
330
3BFA
102
}
330
2
100
AcDbEntity
  8
KIJUN
100
AcDbCircle
 10
43.30313092642349
 20
73.07915783165812
 30
0.0
 40
7.258985671303568
100
AcDbArc
 50
48.52737243498872
 51
164.0952934727621
  0
ARC
  5
3BCE
102
{ACAD_REACTORS
330
3BFA
102
}
330
2
100
AcDbEntity
  8
KIJUN
100
AcDbCircle
 10
142.8259429113501
 20
164.8864685098682
 30
0.0
 40
128.1815552540506
100
AcDbArc
 50
222.3608042184853
 51
224.3972111137511
  0
ARC
  5
3BCF
102
{ACAD_REACTORS
330
3BFA
102
}
330
2
100
AcDbEntity
  8
KIJUN
100
AcDbCircle
 10
53.50413870415689
 20
70.59849114724755
 30
0.0
 40
17.7540134136834
100
AcDbArc
 50
165.4177961587904
 51
191.3443901111427
  0
ARC
  5
3BD0
102
{ACAD_REACTORS
330
3BFA
102
}
330
2
100
AcDbEntity
  8
KIJUN
100
AcDbCircle
 10
40.2374028008954
 20
58.63450679324411
 30
0.0
 40
4.486909142843426
100
AcDbArc
 50
289.3186089060204
 51
98.68777950555433
  0
ARC
  5
3BD1
102
{ACAD_REACTORS
330
3BFA
102
}
330
2
100
AcDbEntity
  8
KIJUN
100
AcDbCircle
 10
45.74769914773852
 20
60.15651886035861
 30
0.0
 40
11.89259517735288
100
AcDbArc
 50
144.2416307473653
 51
183.5505662004949
  0
ARC
  5
3BD2
102
{ACAD_REACTORS
330
3BFA
102
}
330
2
100
AcDbEntity
  8
KIJUN
100
AcDbCircle
 10
39.67657859792094
 20
59.84268024330877
 30
0.0
 40
5.81403068864818
100
AcDbArc
 50
184.1689114816309
 51
290.5954670051519
  0
ARC
  5
3BD3
102
{ACAD_REACTORS
330
3BFA
102
}
330
2
100
AcDbEntity
  8
KIJUN
100
AcDbCircle
 10
52.53562896815779
 20
36.3366727369495
 30
0.0
 40
64.59844762491809
100
AcDbArc
 50
79.94305070544064
 51
89.30708572399336
  0
ARC
  5
3BD4
102
{ACAD_REACTORS
330
3BFA
102
}
330
2
100
AcDbEntity
  8
KIJUN
100
AcDbCircle
 10
52.38574956602029
 20
77.73982451730859
 30
0.0
 40
23.20925583903462
100
AcDbArc
 50
87.70083655842897
 51
157.2192973599984
  0
ARC
  5
3BD5
102
{ACAD_REACTORS
330
3BFA
102
}
330
2
100
AcDbEntity
  8
KIJUN
100
AcDbCircle
 10
41.2028108282668
 20
57.44152130456768
 30
0.0
 40
5.863359654039579
100
AcDbArc
 50
351.6841718543842
 51
106.2746072331674
  0
ARC
  5
3BD6
102
{ACAD_REACTORS
330
3BFA
102
}
330
2
100
AcDbEntity
  8
KIJUN
100
AcDbCircle
 10
39.63873273681752
 20
58.09837286438907
 30
0.0
 40
7.517943907407794
100
AcDbArc
 50
267.9752918075031
 51
348.4531010051091
  0
ARC
  5
3BD7
102
{ACAD_REACTORS
330
3BFA
102
}
330
2
100
AcDbEntity
  8
KIJUN
100
AcDbCircle
 10
75.91250656498181
 20
69.16116887657188
 30
0.0
 40
48.23740843053506
100
AcDbArc
 50
158.6450434787154
 51
191.2710674525178
  0
ARC
  5
3BD8
102
{ACAD_REACTORS
330
3BFA
102
}
330
2
100
AcDbEntity
  8
KIJUN
100
AcDbCircle
 10
40.196133896353
 20
62.46493095176596
 30
0.0
 40
11.90828281605951
100
AcDbArc
 50
193.261991154419
 51
266.0369744012712
  0
ARC
  5
3BDA
102
{ACAD_REACTORS
330
3BFA
102
}
330
2
100
AcDbEntity
  8
KIJUN
100
AcDbCircle
 10
47.4380704958505
 20
67.66618247375935
 30
0.0
 40
28.34785585146797
100
AcDbArc
 50
45.337641281633
 51
90.20901813128174
  0
ARC
  5
3BDB
102
{ACAD_REACTORS
330
3BFA
102
}
330
2
100
AcDbEntity
  8
KIJUN
100
AcDbCircle
 10
48.12717603969618
 20
79.53181874972149
 30
0.0
 40
16.50107365483036
100
AcDbArc
 50
92.75288253506879
 51
142.3677014953952
  0
ARC
  5
3BDC
102
{ACAD_REACTORS
330
3BFA
102
}
330
2
100
AcDbEntity
  8
KIJUN
100
AcDbCircle
 10
48.73335932363946
 20
79.73290558447344
 30
0.0
 40
7.369468602237176
100
AcDbArc
 50
314.7716848868951
 51
75.33332834069529
  0
ARC
  5
3BDD
102
{ACAD_REACTORS
330
3BFA
102
}
330
2
100
AcDbEntity
  8
KIJUN
100
AcDbCircle
 10
46.1203160983175
 20
72.62794136878735
 30
0.0
 40
14.92234440019498
100
AcDbArc
 50
72.5333228397767
 51
139.9058511760245
  0
ARC
  5
3BDE
102
{ACAD_REACTORS
330
3BFA
102
}
330
2
100
AcDbEntity
  8
KIJUN
100
AcDbCircle
 10
52.29042658489325
 20
78.68993101433059
 30
0.0
 40
7.546058155440239
100
AcDbArc
 50
298.7558695565762
 51
90.6775890043688
  0
ARC
  5
3BDF
102
{ACAD_REACTORS
330
3BFA
102
}
330
2
100
AcDbEntity
  8
KIJUN
100
AcDbCircle
 10
49.29310150027875
 20
77.32634710930472
 30
0.0
 40
15.68778294838786
100
AcDbArc
 50
353.1163538404671
 51
132.9391082805811
  0
ARC
  5
3BE0
102
{ACAD_REACTORS
330
3BFA
102
}
330
2
100
AcDbEntity
  8
KIJUN
100
AcDbCircle
 10
66.71844928307404
 20
59.87690499792559
 30
0.0
 40
40.34202285415346
100
AcDbArc
 50
134.1745290940689
 51
148.6919083995368
  0
ARC
  5
3BE2
102
{ACAD_REACTORS
330
3BFA
102
}
330
2
100
AcDbEntity
  8
KIJUN
100
AcDbCircle
 10
1.795208195295216
 20
98.23510419462799
 30
0.0
 40
23.98884658423051
100
AcDbArc
 50
338.5392043930305
 51
19.3310883276643
  0
ARC
  5
3BE4
102
{ACAD_REACTORS
330
3BFA
102
}
330
2
100
AcDbEntity
  8
KIJUN
100
AcDbCircle
 10
21.19645909989403
 20
108.15462449278
 30
0.0
 40
1.0
100
AcDbArc
 50
61.72232408811942
 51
166.8182200709948
  0
ARC
  5
3BE5
102
{ACAD_REACTORS
330
3BFA
102
}
330
2
100
AcDbEntity
  8
KIJUN
100
AcDbCircle
 10
13.31094441965591
 20
107.1939312177649
 30
0.0
 40
15.13290003428526
100
AcDbArc
 50
355.0876474986168
 51
43.81831392805014
  0
ARC
  5
3BE6
102
{ACAD_REACTORS
330
3BFA
102
}
330
2
100
AcDbEntity
  8
KIJUN
100
AcDbCircle
 10
27.69745501541589
 20
122.056346419786
 30
0.0
 40
8.221161287522326
100
AcDbArc
 50
357.810383517758
 51
97.82964811729812
  0
ARC
  5
3BE7
102
{ACAD_REACTORS
330
3BFA
102
}
330
2
100
AcDbEntity
  8
KIJUN
100
AcDbCircle
 10
41.60542576438692
 20
119.2394295999705
 30
0.0
 40
3.826649790043953
100
AcDbArc
 50
113.6239507994154
 51
184.9282287537018
  0
ARC
  5
3BE8
102
{ACAD_REACTORS
330
3BFA
102
}
330
2
100
AcDbEntity
  8
KIJUN
100
AcDbCircle
 10
-5.277918902118315
 20
114.9498345312362
 30
0.0
 40
43.25258120412002
100
AcDbArc
 50
326.0349942586476
 51
5.254223354371714
  0
ARC
  5
3BE9
102
{ACAD_REACTORS
330
3BFA
102
}
330
2
100
AcDbEntity
  8
KIJUN
100
AcDbCircle
 10
-8.322108773592347
 20
123.6444291664186
 30
0.0
 40
52.29798131520485
100
AcDbArc
 50
332.4848416681759
 51
356.4959607773757
  0
ARC
  5
3BEA
102
{ACAD_REACTORS
330
3BFA
102
}
330
2
100
AcDbEntity
  8
KIJUN
100
AcDbCircle
 10
-106.225989038864
 20
246.0164532034439
 30
0.0
 40
202.3726576961596
100
AcDbArc
 50
318.2340863734835
 51
321.7367878490539
  0
ARC
  5
3BEC
102
{ACAD_REACTORS
330
3BFA
102
}
330
2
100
AcDbEntity
  8
KIJUN
100
AcDbCircle
 10
57.17061252052339
 20
75.99504389923467
 30
0.0
 40
29.94206644029198
100
AcDbArc
 50
74.68736700656456
 51
104.1094940867676
  0
ARC
  5
3BED
102
{ACAD_REACTORS
330
3BFA
102
}
330
2
100
AcDbEntity
  8
KIJUN
100
AcDbCircle
 10
60.20184672853588
 20
115.5207710915995
 30
0.0
 40
6.161381880579848
100
AcDbArc
 50
302.449364331233
 51
75.6717646630852
  0
ARC
  5
3BEE
102
{ACAD_REACTORS
330
3BFA
102
}
330
2
100
AcDbEntity
  8
KIJUN
100
AcDbCircle
 10
55.39977123905348
 20
121.5092832379957
 30
0.0
 40
13.81696203403326
100
AcDbArc
 50
280.8018436284744
 51
305.9312602748599
  0
ARC
  5
3BEF
102
{ACAD_REACTORS
330
3BFA
102
}
330
2
100
AcDbEntity
  8
KIJUN
100
AcDbCircle
 10
-15.74486296064186
 20
111.0873251675369
 30
0.0
 40
47.613765388663
100
AcDbArc
 50
336.1147843384969
 51
19.90101226132155
  0
ARC
  5
3BF0
102
{ACAD_REACTORS
330
3BFA
102
}
330
2
100
AcDbEntity
  8
KIJUN
100
AcDbCircle
 10
-6.132038379524103
 20
110.7529646864905
 30
0.0
 40
38.85469994493237
100
AcDbArc
 50
330.8184417966796
 51
25.19735480313994
  0
ARC
  5
3BF1
102
{ACAD_REACTORS
330
3BFA
102
}
330
2
100
AcDbEntity
  8
KIJUN
100
AcDbCircle
 10
48.16494245585767
 20
130.0694754798815
 30
0.0
 40
15.52208493674424
100
AcDbArc
 50
296.8610970819053
 51
318.2298759494845
  0
ARC
  5
3BF2
102
{ACAD_REACTORS
330
3BFA
102
}
330
2
100
AcDbEntity
  8
KIJUN
100
AcDbCircle
 10
116.1343325443805
 20
-0.555390684138672
 30
0.0
 40
126.3255105668565
100
AcDbArc
 50
116.4697871432123
 51
124.904629156769
  0
ARC
  5
3BF3
102
{ACAD_REACTORS
330
3BFA
102
}
330
2
100
AcDbEntity
  8
KIJUN
100
AcDbCircle
 10
51.52460908864916
 20
101.4255752339474
 30
0.0
 40
9.47660585556407
100
AcDbArc
 50
134.642476854982
 51
164.9842239322187
  0
ARC
  5
3BF4
102
{ACAD_REACTORS
330
3BFA
102
}
330
2
100
AcDbEntity
  8
KIJUN
100
AcDbCircle
 10
74.9123733390589
 20
80.3240778686507
 30
0.0
 40
40.96469920364823
100
AcDbArc
 50
118.7987343740787
 51
137.1789439157238
  0
ARC
  5
3BF6
102
{ACAD_REACTORS
330
3BFA
102
}
330
2
100
AcDbEntity
  8
KIJUN
100
AcDbCircle
 10
57.453180461805
 20
117.0703045880774
 30
0.0
 40
5.126123323508421
100
AcDbArc
 50
297.5961555534179
 51
19.91638549965911
  0
ARC
  5
3BF7
102
{ACAD_REACTORS
330
3BFA
102
}
330
2
100
AcDbEntity
  8
KIJUN
100
AcDbCircle
 10
54.73191566682806
 20
120.9241920203122
 30
0.0
 40
6.873700893133929
100
AcDbArc
 50
304.7200467328297
 51
356.5072134704061
  0
ARC
  5
3BF8
102
{ACAD_REACTORS
330
3BFA
102
}
330
2
100
AcDbEntity
  8
KIJUN
100
AcDbCircle
 10
95.14312140636574
 20
47.92486451917041
 30
0.0
 40
76.60240870775455
100
AcDbArc
 50
118.4529115259092
 51
130.9856313856219
  0
ARC
  5
3BFB
102
{ACAD_REACTORS
330
3C3F
102
}
330
2
100
AcDbEntity
  8
KIJUN
100
AcDbCircle
 10
94.30229509995184
 20
71.95382414307734
 30
0.0
 40
47.72696448134088
100
AcDbArc
 50
342.4000926451417
 51
12.17125988657242
  0
ARC
  5
3BFC
102
{ACAD_REACTORS
330
3C3F
102
}
330
2
100
AcDbEntity
  8
KIJUN
100
AcDbCircle
 10
121.6434654158732
 20
64.49835662014827
 30
0.0
 40
19.44597156234869
100
AcDbArc
 50
300.1921149008029
 51
338.978401726482
  0
ARC
  5
3BFD
102
{ACAD_REACTORS
330
3C3F
102
}
330
2
100
AcDbEntity
  8
KIJUN
100
AcDbCircle
 10
122.807406805724
 20
61.16491224217419
 30
0.0
 40
15.99343614706321
100
AcDbArc
 50
227.8449068148613
 51
302.5943061918645
  0
ARC
  5
3BFE
102
{ACAD_REACTORS
330
3C3F
102
}
330
2
100
AcDbEntity
  8
KIJUN
100
AcDbCircle
 10
120.407406966645
 20
57.04110255505838
 30
0.0
 40
11.36864631577518
100
AcDbArc
 50
62.29288679452555
 51
222.85696786024
  0
ARC
  5
3BFF
102
{ACAD_REACTORS
330
3C3F
102
}
330
2
100
AcDbEntity
  8
KIJUN
100
AcDbCircle
 10
124.502951647963
 20
104.3859444042831
 30
0.0
 40
17.52630793332972
100
AcDbArc
 50
342.8909638957108
 51
13.18177992900537
  0
ARC
  5
3C00
102
{ACAD_REACTORS
330
3C3F
102
}
330
2
100
AcDbEntity
  8
KIJUN
100
AcDbCircle
 10
140.5938156489359
 20
108.15462449278
 30
0.0
 40
1.0
100
AcDbArc
 50
13.18177992900537
 51
118.2776759118804
  0
ARC
  5
3C01
102
{ACAD_REACTORS
330
3C3F
102
}
330
2
100
AcDbEntity
  8
KIJUN
100
AcDbCircle
 10
178.138092369439
 20
89.98365336399045
 30
0.0
 40
38.02569670629461
100
AcDbArc
 50
165.9270656526524
 51
192.094525143548
  0
ARC
  5
3C02
102
{ACAD_REACTORS
330
3C3F
102
}
330
2
100
AcDbEntity
  8
KIJUN
100
AcDbCircle
 10
143.2136691203185
 20
103.2844836839706
 30
0.0
 40
6.530090750534517
100
AcDbArc
 50
118.2776759118787
 51
153.7169500714071
  0
ARC
  5
3C03
102
{ACAD_REACTORS
330
3C3F
102
}
330
2
100
AcDbEntity
  8
KIJUN
100
AcDbCircle
 10
79.4647063653298
 20
115.0401335550403
 30
0.0
 40
60.95187766397104
100
AcDbArc
 50
354.3461727568002
 51
0.470795209228103
  0
ARC
  5
3C04
102
{ACAD_REACTORS
330
3C3F
102
}
330
2
100
AcDbEntity
  8
KIJUN
100
AcDbCircle
 10
138.2025140290931
 20
115.5547608959909
 30
0.0
 40
2.212055361613464
100
AcDbArc
 50
359.6426623349146
 51
106.8759422398519
  0
ARC
  5
3C05
102
{ACAD_REACTORS
330
3C3F
102
}
330
2
100
AcDbEntity
  8
KIJUN
100
AcDbCircle
 10
125.9063985367223
 20
123.1021782731157
 30
0.0
 40
11.70469936672255
100
AcDbArc
 50
0.350420847049408
 51
37.3355488526274
  0
ARC
  5
3C06
102
{ACAD_REACTORS
330
3C3F
102
}
330
2
100
AcDbEntity
  8
KIJUN
100
AcDbCircle
 10
57.6356156451429
 20
121.1568225716715
 30
0.0
 40
80.00069249370548
100
AcDbArc
 50
357.503092559262
 51
1.444668272951074
  0
ARC
  5
3C07
102
{ACAD_REACTORS
330
3C3F
102
}
330
2
100
AcDbEntity
  8
KIJUN
100
AcDbCircle
 10
133.0986439085796
 20
133.0863923473892
 30
0.0
 40
3.577123058133823
100
AcDbArc
 50
306.2290021160671
 51
47.92559755234956
  0
ARC
  5
3C08
102
{ACAD_REACTORS
330
3C3F
102
}
330
2
100
AcDbEntity
  8
KIJUN
100
AcDbCircle
 10
131.5680563410188
 20
131.0623417111026
 30
0.0
 40
6.109134384008313
100
AcDbArc
 50
49.9911331364423
 51
134.7160782730085
  0
ARC
  5
3C09
102
{ACAD_REACTORS
330
3C3F
102
}
330
2
100
AcDbEntity
  8
KIJUN
100
AcDbCircle
 10
141.145854127083
 20
121.7715455983097
 30
0.0
 40
19.4519364456305
100
AcDbArc
 50
135.5086009859287
 51
177.1303421579205
  0
ARC
  5
3C0A
102
{ACAD_REACTORS
330
3C3F
102
}
330
2
100
AcDbEntity
  8
KIJUN
100
AcDbCircle
 10
101.3994478931193
 20
116.438038177759
 30
0.0
 40
11.37018831182665
100
AcDbArc
 50
138.6700419430798
 51
218.9359047092311
  0
ARC
  5
3C0B
102
{ACAD_REACTORS
330
3C3F
102
}
330
2
100
AcDbEntity
  8
KIJUN
100
AcDbCircle
 10
121.8193716132708
 20
118.2763737715295
 30
0.0
 40
4.470156908458712
100
AcDbArc
 50
91.29545443518784
 51
150.9342531092382
  0
ARC
  5
3C0C
102
{ACAD_REACTORS
330
3C3F
102
}
330
2
100
AcDbEntity
  8
KIJUN
100
AcDbCircle
 10
112.6839494906972
 20
117.8911330520666
 30
0.0
 40
4.534101273150071
100
AcDbArc
 50
70.86239928119308
 51
141.8472356003097
  0
ARC
  5
3C0D
102
{ACAD_REACTORS
330
3C3F
102
}
330
2
100
AcDbEntity
  8
KIJUN
100
AcDbCircle
 10
107.7751636801447
 20
103.3977406412054
 30
0.0
 40
19.83611524966729
100
AcDbArc
 50
59.26700030576714
 51
71.19164903271225
  0
ARC
  5
3C0E
102
{ACAD_REACTORS
330
3C3F
102
}
330
2
100
AcDbEntity
  8
KIJUN
100
AcDbCircle
 10
96.1035387442061
 20
121.6661764449732
 30
0.0
 40
3.963986870756667
100
AcDbArc
 50
357.4598742553733
 51
144.8760222299003
  0
ARC
  5
3C0F
102
{ACAD_REACTORS
330
3C3F
102
}
330
2
100
AcDbEntity
  8
KIJUN
100
AcDbCircle
 10
103.356072198947
 20
107.0846018684203
 30
0.0
 40
14.77734641982106
100
AcDbArc
 50
67.0486709816815
 51
102.873737590441
  0
ARC
  5
3C10
102
{ACAD_REACTORS
330
3C3F
102
}
330
2
100
AcDbEntity
  8
KIJUN
100
AcDbCircle
 10
115.9522337241182
 20
127.1421477619801
 30
0.0
 40
29.42848273094158
100
AcDbArc
 50
217.3401315934471
 51
229.1725604244623
  0
ARC
  5
3C11
102
{ACAD_REACTORS
330
3C3F
102
}
330
2
100
AcDbEntity
  8
KIJUN
100
AcDbCircle
 10
101.3256532342084
 20
103.4271536053397
 30
0.0
 40
4.83487081110599
100
AcDbArc
 50
162.5855159425924
 51
226.1143282129506
  0
ARC
  5
3C12
102
{ACAD_REACTORS
330
3C3F
102
}
330
2
100
AcDbEntity
  8
KIJUN
100
AcDbCircle
 10
96.20174986065807
 20
91.93139432867949
 30
0.0
 40
4.470414600628759
100
AcDbArc
 50
138.1447806044447
 51
246.591346524137
  0
ARC
  5
3C13
102
{ACAD_REACTORS
330
3C3F
102
}
330
2
100
AcDbEntity
  8
KIJUN
100
AcDbCircle
 10
130.6890242438385
 20
61.64539336958753
 30
0.0
 40
50.36807994197744
100
AcDbArc
 50
130.5053209818811
 51
138.6608149828408
  0
ARC
  5
3C14
102
{ACAD_REACTORS
330
3C3F
102
}
330
2
100
AcDbEntity
  8
KIJUN
100
AcDbCircle
 10
103.4577717149828
 20
76.8910565180051
 30
0.0
 40
12.40823300682214
100
AcDbArc
 50
207.3651577315315
 51
243.3211865937785
  0
ARC
  5
3C15
102
{ACAD_REACTORS
330
3C3F
102
}
330
2
100
AcDbEntity
  8
KIJUN
100
AcDbCircle
 10
107.9056740923288
 20
77.7794731840067
 30
0.0
 40
16.8137047794606
100
AcDbArc
 50
143.2950999627107
 51
203.0827453200314
  0
ARC
  5
3C16
102
{ACAD_REACTORS
330
3C3F
102
}
330
2
100
AcDbEntity
  8
KIJUN
100
AcDbCircle
 10
100.0104772033705
 20
71.31678693330269
 30
0.0
 40
5.907911688287465
100
AcDbArc
 50
248.9308540038252
 51
7.368431069474431
  0
ARC
  5
3C17
102
{ACAD_REACTORS
330
3C3F
102
}
330
2
100
AcDbEntity
  8
KIJUN
100
AcDbCircle
 10
104.8519246785404
 20
74.94713707833567
 30
0.0
 40
3.047600925342891
100
AcDbArc
 50
289.5073085967501
 51
351.5856786552089
  0
ARC
  5
3C18
102
{ACAD_REACTORS
330
3C3F
102
}
330
2
100
AcDbEntity
  8
KIJUN
100
AcDbCircle
 10
108.4063500040496
 20
77.90587172315376
 30
0.0
 40
3.44719025847422
100
AcDbArc
 50
260.9937725251199
 51
308.4711217947531
  0
ARC
  5
3C19
102
{ACAD_REACTORS
330
3C3F
102
}
330
2
100
AcDbEntity
  8
KIJUN
100
AcDbCircle
 10
118.4871438224064
 20
73.07915783165812
 30
0.0
 40
7.258985671303568
100
AcDbArc
 50
15.90470652723797
 51
131.4726275650113
  0
ARC
  5
3C1A
102
{ACAD_REACTORS
330
3C3F
102
}
330
2
100
AcDbEntity
  8
KIJUN
100
AcDbCircle
 10
18.96433183747979
 20
164.8864685098682
 30
0.0
 40
128.1815552540506
100
AcDbArc
 50
315.6027888862486
 51
317.6391957815145
  0
ARC
  5
3C1B
102
{ACAD_REACTORS
330
3C3F
102
}
330
2
100
AcDbEntity
  8
KIJUN
100
AcDbCircle
 10
108.286136044673
 20
70.59849114724755
 30
0.0
 40
17.7540134136834
100
AcDbArc
 50
348.6556098888573
 51
14.58220384120976
  0
ARC
  5
3C1C
102
{ACAD_REACTORS
330
3C3F
102
}
330
2
100
AcDbEntity
  8
KIJUN
100
AcDbCircle
 10
121.5528719479345
 20
58.63450679324411
 30
0.0
 40
4.486909142843426
100
AcDbArc
 50
81.31222049444565
 51
250.6813910939794
  0
ARC
  5
3C1D
102
{ACAD_REACTORS
330
3C3F
102
}
330
2
100
AcDbEntity
  8
KIJUN
100
AcDbCircle
 10
116.0425756010914
 20
60.15651886035861
 30
0.0
 40
11.89259517735288
100
AcDbArc
 50
356.4494337995051
 51
35.75836925263462
  0
ARC
  5
3C1E
102
{ACAD_REACTORS
330
3C3F
102
}
330
2
100
AcDbEntity
  8
KIJUN
100
AcDbCircle
 10
122.113696150909
 20
59.84268024330877
 30
0.0
 40
5.81403068864818
100
AcDbArc
 50
249.4045329948484
 51
355.831088518369
  0
ARC
  5
3C1F
102
{ACAD_REACTORS
330
3C3F
102
}
330
2
100
AcDbEntity
  8
KIJUN
100
AcDbCircle
 10
109.2546457806721
 20
36.3366727369495
 30
0.0
 40
64.59844762491809
100
AcDbArc
 50
90.69291427600665
 51
100.0569492945593
  0
ARC
  5
3C20
102
{ACAD_REACTORS
330
3C3F
102
}
330
2
100
AcDbEntity
  8
KIJUN
100
AcDbCircle
 10
109.4045251828096
 20
77.73982451730859
 30
0.0
 40
23.20925583903462
100
AcDbArc
 50
22.78070264000179
 51
92.29916344157102
  0
ARC
  5
3C21
102
{ACAD_REACTORS
330
3C3F
102
}
330
2
100
AcDbEntity
  8
KIJUN
100
AcDbCircle
 10
120.587463920563
 20
57.44152130456768
 30
0.0
 40
5.863359654039579
100
AcDbArc
 50
73.72539276683252
 51
188.3158281456157
  0
ARC
  5
3C22
102
{ACAD_REACTORS
330
3C3F
102
}
330
2
100
AcDbEntity
  8
KIJUN
100
AcDbCircle
 10
122.1515420120124
 20
58.09837286438907
 30
0.0
 40
7.517943907407794
100
AcDbArc
 50
191.5468989948908
 51
272.0247081924969
  0
ARC
  5
3C23
102
{ACAD_REACTORS
330
3C3F
102
}
330
2
100
AcDbEntity
  8
KIJUN
100
AcDbCircle
 10
85.87776818384808
 20
69.16116887657188
 30
0.0
 40
48.23740843053506
100
AcDbArc
 50
348.7289325474822
 51
21.35495652128469
  0
ARC
  5
3C24
102
{ACAD_REACTORS
330
3C3F
102
}
330
2
100
AcDbEntity
  8
KIJUN
100
AcDbCircle
 10
121.5941408524769
 20
62.46493095176596
 30
0.0
 40
11.90828281605951
100
AcDbArc
 50
273.9630255987289
 51
346.7380088455811
  0
ARC
  5
3C25
102
{ACAD_REACTORS
330
3C3F
102
}
330
2
100
AcDbEntity
  8
KIJUN
100
AcDbCircle
 10
114.3522042529794
 20
67.66618247375935
 30
0.0
 40
28.34785585146797
100
AcDbArc
 50
89.79098186871821
 51
134.662358718367
  0
ARC
  5
3C26
102
{ACAD_REACTORS
330
3C3F
102
}
330
2
100
AcDbEntity
  8
KIJUN
100
AcDbCircle
 10
113.6630987091337
 20
79.53181874972149
 30
0.0
 40
16.50107365483036
100
AcDbArc
 50
37.63229850460487
 51
87.24711746493118
  0
ARC
  5
3C27
102
{ACAD_REACTORS
330
3C3F
102
}
330
2
100
AcDbEntity
  8
KIJUN
100
AcDbCircle
 10
113.0569154251904
 20
79.73290558447344
 30
0.0
 40
7.369468602237176
100
AcDbArc
 50
104.6666716593047
 51
225.228315113105
  0
ARC
  5
3C28
102
{ACAD_REACTORS
330
3C3F
102
}
330
2
100
AcDbEntity
  8
KIJUN
100
AcDbCircle
 10
115.6699586505124
 20
72.62794136878735
 30
0.0
 40
14.92234440019498
100
AcDbArc
 50
40.09414882397527
 51
107.4666771602233
  0
ARC
  5
3C29
102
{ACAD_REACTORS
330
3C3F
102
}
330
2
100
AcDbEntity
  8
KIJUN
100
AcDbCircle
 10
109.4998481639366
 20
78.68993101433059
 30
0.0
 40
7.546058155440239
100
AcDbArc
 50
89.32241099563118
 51
241.2441304434234
  0
ARC
  5
3C2A
102
{ACAD_REACTORS
330
3C3F
102
}
330
2
100
AcDbEntity
  8
KIJUN
100
AcDbCircle
 10
112.4971732485511
 20
77.32634710930472
 30
0.0
 40
15.68778294838786
100
AcDbArc
 50
47.06089171941868
 51
186.8836461595328
  0
ARC
  5
3C2B
102
{ACAD_REACTORS
330
3C3F
102
}
330
2
100
AcDbEntity
  8
KIJUN
100
AcDbCircle
 10
95.07182546575588
 20
59.87690499792559
 30
0.0
 40
40.34202285415346
100
AcDbArc
 50
31.30809160046312
 51
45.82547090593133
  0
ARC
  5
3C2C
102
{ACAD_REACTORS
330
3C3F
102
}
330
2
100
AcDbEntity
  8
KIJUN
100
AcDbCircle
 10
159.9950665535347
 20
98.23510419462799
 30
0.0
 40
23.98884658423051
100
AcDbArc
 50
160.6689116723358
 51
201.4607956069695
  0
ARC
  5
3C2D
102
{ACAD_REACTORS
330
3C3F
102
}
330
2
100
AcDbEntity
  8
KIJUN
100
AcDbCircle
 10
148.479330329174
 20
107.1939312177649
 30
0.0
 40
15.13290003428526
100
AcDbArc
 50
136.1816860719498
 51
184.9123525013832
  0
ARC
  5
3C2E
102
{ACAD_REACTORS
330
3C3F
102
}
330
2
100
AcDbEntity
  8
KIJUN
100
AcDbCircle
 10
134.092819733414
 20
122.056346419786
 30
0.0
 40
8.221161287522326
100
AcDbArc
 50
82.17035188270186
 51
182.189616482242
  0
ARC
  5
3C2F
102
{ACAD_REACTORS
330
3C3F
102
}
330
2
100
AcDbEntity
  8
KIJUN
100
AcDbCircle
 10
120.184848984443
 20
119.2394295999705
 30
0.0
 40
3.826649790043953
100
AcDbArc
 50
355.0717712462982
 51
66.37604920058453
  0
ARC
  5
3C30
102
{ACAD_REACTORS
330
3C3F
102
}
330
2
100
AcDbEntity
  8
KIJUN
100
AcDbCircle
 10
167.0681936509482
 20
114.9498345312362
 30
0.0
 40
43.25258120412002
100
AcDbArc
 50
174.7457766456283
 51
213.9650057413522
  0
ARC
  5
3C31
102
{ACAD_REACTORS
330
3C3F
102
}
330
2
100
AcDbEntity
  8
KIJUN
100
AcDbCircle
 10
170.1123835224222
 20
123.6444291664186
 30
0.0
 40
52.29798131520485
100
AcDbArc
 50
183.5040392226243
 51
207.515158331824
  0
ARC
  5
3C32
102
{ACAD_REACTORS
330
3C3F
102
}
330
2
100
AcDbEntity
  8
KIJUN
100
AcDbCircle
 10
268.0162637876939
 20
246.0164532034439
 30
0.0
 40
202.3726576961596
100
AcDbArc
 50
218.263212150946
 51
221.7659136265169
  0
ARC
  5
3C33
102
{ACAD_REACTORS
330
3C3F
102
}
330
2
100
AcDbEntity
  8
KIJUN
100
AcDbCircle
 10
104.6196622283065
 20
75.99504389923467
 30
0.0
 40
29.94206644029198
100
AcDbArc
 50
75.8905059132324
 51
105.3126329934354
  0
ARC
  5
3C34
102
{ACAD_REACTORS
330
3C3F
102
}
330
2
100
AcDbEntity
  8
KIJUN
100
AcDbCircle
 10
101.588428020294
 20
115.5207710915995
 30
0.0
 40
6.161381880579848
100
AcDbArc
 50
104.3282353369147
 51
237.5506356687674
  0
ARC
  5
3C35
102
{ACAD_REACTORS
330
3C3F
102
}
330
2
100
AcDbEntity
  8
KIJUN
100
AcDbCircle
 10
106.3905035097764
 20
121.5092832379957
 30
0.0
 40
13.81696203403326
100
AcDbArc
 50
234.0687397251401
 51
259.1981563715257
  0
ARC
  5
3C36
102
{ACAD_REACTORS
330
3C3F
102
}
330
2
100
AcDbEntity
  8
KIJUN
100
AcDbCircle
 10
177.5351377094717
 20
111.0873251675369
 30
0.0
 40
47.613765388663
100
AcDbArc
 50
160.0989877386784
 51
203.8852156615031
  0
ARC
  5
3C37
102
{ACAD_REACTORS
330
3C3F
102
}
330
2
100
AcDbEntity
  8
KIJUN
100
AcDbCircle
 10
167.922313128354
 20
110.7529646864905
 30
0.0
 40
38.85469994493237
100
AcDbArc
 50
154.8026451968599
 51
209.1815582033206
  0
ARC
  5
3C38
102
{ACAD_REACTORS
330
3C3F
102
}
330
2
100
AcDbEntity
  8
KIJUN
100
AcDbCircle
 10
113.6253322929722
 20
130.0694754798815
 30
0.0
 40
15.52208493674424
100
AcDbArc
 50
221.7701240505155
 51
243.1389029180946
  0
ARC
  5
3C39
102
{ACAD_REACTORS
330
3C3F
102
}
330
2
100
AcDbEntity
  8
KIJUN
100
AcDbCircle
 10
86.87790140977103
 20
80.3240778686507
 30
0.0
 40
40.96469920364823
100
AcDbArc
 50
42.82105608427608
 51
61.20126562592115
  0
ARC
  5
3C3A
102
{ACAD_REACTORS
330
3C3F
102
}
330
2
100
AcDbEntity
  8
KIJUN
100
AcDbCircle
 10
110.2656656601807
 20
101.4255752339474
 30
0.0
 40
9.47660585556407
100
AcDbArc
 50
15.01577606778145
 51
45.35752314501791
  0
ARC
  5
3C3B
102
{ACAD_REACTORS
330
3C3F
102
}
330
2
100
AcDbEntity
  8
KIJUN
100
AcDbCircle
 10
45.65594220444942
 20
-0.555390684138672
 30
0.0
 40
126.3255105668565
100
AcDbArc
 50
55.09537084323092
 51
63.53021285678767
  0
ARC
  5
3C3C
102
{ACAD_REACTORS
330
3C3F
102
}
330
2
100
AcDbEntity
  8
KIJUN
100
AcDbCircle
 10
104.3370942870249
 20
117.0703045880774
 30
0.0
 40
5.126123323508421
100
AcDbArc
 50
160.083614500341
 51
242.403844446582
  0
ARC
  5
3C3D
102
{ACAD_REACTORS
330
3C3F
102
}
330
2
100
AcDbEntity
  8
KIJUN
100
AcDbCircle
 10
107.0583590820018
 20
120.9241920203122
 30
0.0
 40
6.873700893133929
100
AcDbArc
 50
183.4927865295939
 51
235.2799532671701
  0
ARC
  5
3C3E
102
{ACAD_REACTORS
330
3C3F
102
}
330
2
100
AcDbEntity
  8
KIJUN
100
AcDbCircle
 10
66.64715334246416
 20
47.92486451917041
 30
0.0
 40
76.60240870775455
100
AcDbArc
 50
49.01436861437829
 51
61.54708847409073
  0
ENDSEC
  0
SECTION
  2
OBJECTS
  0
DICTIONARY
  5
1A
330
0
100
AcDbDictionary
281
     1
  3
ACAD_COLOR
350
144
  3
ACAD_GROUP
350
18
  3
ACAD_LAYOUT
350
58
  3
ACAD_MATERIAL
350
143
  3
ACAD_MLEADERSTYLE
350
3D03
  3
ACAD_MLINESTYLE
350
19
  3
ACAD_PLOTSETTINGS
350
59
  3
ACAD_PLOTSTYLENAME
350
56
  3
ACAD_SCALELIST
350
3CE1
  3
ACAD_TABLESTYLE
350
145
  3
ACAD_VISUALSTYLE
350
3CD0
  3
ACDB_RECOMPOSE_DATA
350
3D17
  3
AcDbVariableDictionary
350
1D1
  3
DWGPROPS
350
3D18
  0
DICTIONARY
  5
1B4
330
A
100
AcDbDictionary
280
     1
281
     1
  3
ACAD_LAYERFILTERS
360
382B
  3
ACLYDICTIONARY
360
382A
  0
DICTIONARY
  5
3D07
330
4
100
AcDbDictionary
280
     1
281
     1
  3
ADSK_XREC_LAYER_RECONCILED
360
3D08
  0
DICTIONARY
  5
3D09
330
25
100
AcDbDictionary
280
     1
281
     1
  3
ADSK_XREC_LAYER_RECONCILED
360
3D0A
  0
DICTIONARY
  5
3D0B
330
22
100
AcDbDictionary
280
     1
281
     1
  3
ADSK_XREC_LAYER_RECONCILED
360
3D0C
  0
DICTIONARY
  5
3D0D
330
1B
100
AcDbDictionary
280
     1
281
     1
  3
ADSK_XREC_LAYER_RECONCILED
360
3D0E
  0
DICTIONARY
  5
3D0F
330
28
100
AcDbDictionary
280
     1
281
     1
  3
ADSK_XREC_LAYER_RECONCILED
360
3D10
  0
DICTIONARY
  5
1578
330
2
100
AcDbDictionary
280
     1
281
     1
  3
ACAD_SORTENTS
360
1579
  0
DICTIONARY
  5
144
102
{ACAD_REACTORS
330
1A
102
}
330
1A
100
AcDbDictionary
281
     1
  0
DICTIONARY
  5
18
102
{ACAD_REACTORS
330
1A
102
}
330
1A
100
AcDbDictionary
281
     1
  3
*A1
350
CFC
  3
*A10
350
2C07
  3
*A11
350
2DB5
  3
*A12
350
32AA
  3
*A13
350
2E88
  3
*A14
350
3AE0
  3
*A15
350
3B2F
  3
*A16
350
390C
  3
*A17
350
3BFA
  3
*A18
350
3C3F
  3
*A19
350
1682
  3
*A2
350
1F8A
  3
*A20
350
39C8
  3
*A21
350
312A
  3
*A22
350
15D1
  3
*A23
350
3650
  3
*A24
350
3154
  3
*A25
350
327B
  3
*A26
350
374A
  3
*A27
350
367C
  3
*A28
350
1827
  3
*A29
350
218C
  3
*A3
350
2108
  3
*A30
350
18ED
  3
*A31
350
19E5
  3
*A4
350
2FBC
  3
*A5
350
370C
  3
*A6
350
2335
  3
*A7
350
2FE9
  3
*A8
350
2862
  3
*A9
350
299B
  0
DICTIONARY
  5
58
102
{ACAD_REACTORS
330
1A
102
}
330
1A
100
AcDbDictionary
281
     1
  3
Model
350
5A
  3
ﾚｲｱｳﾄ1
350
5B
  0
DICTIONARY
  5
143
102
{ACAD_REACTORS
330
1A
102
}
330
1A
100
AcDbDictionary
281
     1
  3
ByBlock
350
3CC0
  3
ByLayer
350
3CB8
  3
Global
350
3CC8
  0
DICTIONARY
  5
3D03
102
{ACAD_REACTORS
330
1A
102
}
330
1A
100
AcDbDictionary
281
     1
  3
Standard
350
3D04
  0
DICTIONARY
  5
19
102
{ACAD_REACTORS
330
1A
102
}
330
1A
100
AcDbDictionary
281
     1
  3
STANDARD
350
1D
  0
DICTIONARY
  5
59
102
{ACAD_REACTORS
330
1A
102
}
330
1A
100
AcDbDictionary
281
     1
  0
ACDBDICTIONARYWDFLT
  5
56
102
{ACAD_REACTORS
330
1A
102
}
330
1A
100
AcDbDictionary
281
     1
  3
Normal
350
57
100
AcDbDictionaryWithDefault
340
57
  0
DICTIONARY
  5
3CE1
102
{ACAD_REACTORS
330
1A
102
}
330
1A
100
AcDbDictionary
281
     1
  3
A0
350
3CE2
  3
A1
350
3CE3
  3
A2
350
3CE4
  3
A3
350
3CE5
  3
A4
350
3CE6
  3
A5
350
3CE7
  3
A6
350
3CE8
  3
A7
350
3CE9
  3
A8
350
3CEA
  3
A9
350
3CEB
  3
B0
350
3CEC
  3
B1
350
3CED
  3
B2
350
3CEE
  3
B3
350
3CEF
  3
B4
350
3CF0
  3
B5
350
3CF1
  3
B6
350
3CF2
  3
B7
350
3CF3
  3
B8
350
3CF4
  3
B9
350
3CF5
  3
C0
350
3CF6
  3
C1
350
3CF7
  3
C2
350
3CF8
  3
C3
350
3CF9
  3
C4
350
3CFA
  3
C5
350
3CFB
  3
C6
350
3CFC
  3
C7
350
3CFD
  3
C8
350
3CFE
  3
C9
350
3CFF
  3
D0
350
3D00
  3
D1
350
3D01
  3
D2
350
3D02
  0
DICTIONARY
  5
145
102
{ACAD_REACTORS
330
1A
102
}
330
1A
100
AcDbDictionary
281
     1
  3
Standard
350
146
  0
DICTIONARY
  5
3CD0
102
{ACAD_REACTORS
330
1A
102
}
330
1A
100
AcDbDictionary
281
     1
  3
2dWireframe
350
3CD6
  3
3D Hidden
350
3CD8
  3
3dWireframe
350
3CD7
  3
Basic
350
3CD5
  3
Brighten
350
3CDC
  3
ColorChange
350
3CE0
  3
Conceptual
350
3CD9
  3
Dim
350
3CDB
  3
Facepattern
350
3CDF
  3
Flat
350
3CD1
  3
FlatWithEdges
350
3CD2
  3
Gouraud
350
3CD3
  3
GouraudWithEdges
350
3CD4
  3
Linepattern
350
3CDE
  3
Realistic
350
3CDA
  3
Thicken
350
3CDD
  0
XRECORD
  5
3D17
102
{ACAD_REACTORS
330
1A
102
}
330
1A
100
AcDbXrecord
280
     1
 90
        1
330
146
  0
DICTIONARY
  5
1D1
102
{ACAD_REACTORS
330
1A
102
}
330
1A
100
AcDbDictionary
281
     1
  3
CANNOSCALE
350
3D12
  3
CMLEADERSTYLE
350
3D11
  3
CTABLESTYLE
350
1D2
  3
DIMASSOC
350
D03
  3
INDEXCTL
350
3D14
  3
PROJECTNAME
350
D04
  3
SORTENTS
350
3D13
  0
XRECORD
  5
3D18
102
{ACAD_REACTORS
330
1A
102
}
330
1A
100
AcDbXrecord
280
     1
  1
DWGPROPS COOKIE
  2

  3

  4

  6

  7

  8
y.kohno
  9

300
=
301
=
302
=
303
=
304
=
305
=
306
=
307
=
308
=
309
=
 40
0.8459401851851852
 41
2450623.654673033
 42
2454910.458859062
  1

 90
        0
  0
DICTIONARY
  5
382B
102
{ACAD_REACTORS
330
1B4
102
}
330
1B4
100
AcDbDictionary
281
     1
  0
DICTIONARY
  5
382A
102
{ACAD_REACTORS
330
1B4
102
}
330
1B4
100
AcDbDictionary
281
     1
1001
ACAD
1000
<All
  0
XRECORD
  5
3D08
102
{ACAD_REACTORS
330
3D07
102
}
330
3D07
100
AcDbXrecord
280
     1
290
     1
  0
XRECORD
  5
3D0A
102
{ACAD_REACTORS
330
3D09
102
}
330
3D09
100
AcDbXrecord
280
     1
290
     1
  0
XRECORD
  5
3D0C
102
{ACAD_REACTORS
330
3D0B
102
}
330
3D0B
100
AcDbXrecord
280
     1
290
     1
  0
XRECORD
  5
3D0E
102
{ACAD_REACTORS
330
3D0D
102
}
330
3D0D
100
AcDbXrecord
280
     1
290
     1
  0
XRECORD
  5
3D10
102
{ACAD_REACTORS
330
3D0F
102
}
330
3D0F
100
AcDbXrecord
280
     1
290
     1
  0
SORTENTSTABLE
  5
1579
102
{ACAD_REACTORS
330
1578
102
}
330
1578
100
AcDbSortentsTable
330
2
331
3BEA
  5
3BEA
331
3BF3
  5
3BF3
331
3BC0
  5
3BC1
331
3BD5
  5
3BD6
331
3BCC
  5
3BCD
331
35F5
  5
3A49
331
3BDE
  5
3BDF
331
3BAB
  5
3BAC
331
1F
  5
358C
331
3BCD
  5
3BCE
331
3BE2
  5
3BE4
331
3BC1
  5
3BC2
331
3BF4
  5
3BF2
331
3BDF
  5
3BE0
331
3BAC
  5
3BB3
331
3BD6
  5
3BD7
331
3BA3
  5
3BA1
331
3BEC
  5
3BEC
331
3BC2
  5
3BC3
331
3BD7
  5
3BD8
331
3BA4
  5
3BA4
331
3BCE
  5
3BCF
331
20
  5
35F5
331
3BED
  5
3BED
331
3BCF
  5
3BD0
331
3BE4
  5
3BA6
331
3BF6
  5
3BF6
331
3BC3
  5
3BC4
331
3BD8
  5
3BDA
331
21
  5
36B9
331
3BEE
  5
3BEE
331
3BC4
  5
3BC5
331
3BA6
  5
3BA7
331
3BD0
  5
3BD1
331
3BE5
  5
3BE5
331
3BE6
  5
3BE6
331
3BB3
  5
3BB4
331
3BC8
  5
3BC9
331
3BEF
  5
3BEF
331
3BD1
  5
3BD2
331
3B9E
  5
3B9E
331
35E8
  5
378C
331
3BDA
  5
3BDB
331
3BA7
  5
3BA8
331
3BC5
  5
3BC6
331
3BC9
  5
3BCA
331
23
  5
36BF
331
3BF0
  5
3BF0
331
3BC6
  5
3BC7
331
3BDB
  5
3BDC
331
3BA8
  5
3BA9
331
3BD2
  5
3BD3
331
3B9F
  5
3B9F
331
3BE7
  5
3BE7
331
3BB4
  5
3BB5
331
3BE8
  5
3BE8
331
3BB5
  5
3BBE
331
3BF1
  5
3BF1
331
3BBE
  5
3BBF
331
3BC7
  5
3BC8
331
3BDC
  5
3BDD
331
3BA9
  5
3BAA
331
3BD3
  5
3BD4
331
3BCA
  5
3BCC
331
3BE0
  5
3BE2
331
3BBF
  5
3BC0
331
3BF2
  5
3BF4
331
3BDD
  5
3BDE
331
3BAA
  5
3BAB
331
3BD4
  5
3BD5
331
3BA1
  5
3BA3
331
3BE9
  5
3BE9
  0
GROUP
  5
CFC
102
{ACAD_REACTORS
330
18
102
}
330
18
100
AcDbGroup
300

 70
     1
 71
     1
  0
GROUP
  5
2C07
102
{ACAD_REACTORS
330
18
102
}
330
18
100
AcDbGroup
300

 70
     1
 71
     1
  0
GROUP
  5
2DB5
102
{ACAD_REACTORS
330
18
102
}
330
18
100
AcDbGroup
300

 70
     1
 71
     1
  0
GROUP
  5
32AA
102
{ACAD_REACTORS
330
18
102
}
330
18
100
AcDbGroup
300

 70
     1
 71
     1
  0
GROUP
  5
2E88
102
{ACAD_REACTORS
330
18
102
}
330
18
100
AcDbGroup
300

 70
     1
 71
     1
  0
GROUP
  5
3AE0
102
{ACAD_REACTORS
330
18
102
}
330
18
100
AcDbGroup
300

 70
     1
 71
     1
  0
GROUP
  5
3B2F
102
{ACAD_REACTORS
330
18
102
}
330
18
100
AcDbGroup
300

 70
     1
 71
     1
  0
GROUP
  5
390C
102
{ACAD_REACTORS
330
18
102
}
330
18
100
AcDbGroup
300

 70
     1
 71
     1
  0
GROUP
  5
3BFA
102
{ACAD_REACTORS
330
18
102
}
330
18
100
AcDbGroup
300

 70
     1
 71
     1
340
3BF8
340
3BF7
340
3BF6
340
3BF2
340
3BF3
340
3BF4
340
3BF1
340
3BF0
340
3BEF
340
3BEE
340
3BED
340
3BEC
340
3BEA
340
3BE9
340
3BE8
340
3BE7
340
3BE6
340
3BE5
340
3BE2
340
3BE0
340
3BDF
340
3BDE
340
3BDD
340
3BDC
340
3BDB
340
3BDA
340
3BD8
340
3BD7
340
3BD6
340
3BD5
340
3BD4
340
3BD3
340
3BD2
340
3BD1
340
3BD0
340
3BCF
340
3BCE
340
3BCD
340
3BCC
340
3BCA
340
3BC9
340
3BC8
340
3BC7
340
3BC6
340
3BC5
340
3BC4
340
3BC3
340
3BC2
340
3BC1
340
3BC0
340
3BBF
340
3BBE
340
3BB5
340
3BB4
340
3BB3
340
3BAC
340
3BAB
340
3BAA
340
3BA9
340
3BA8
340
3BA7
340
3BA6
340
3BE4
340
3BA4
340
3BA1
340
3BA3
340
3B9F
340
3B9E
  0
GROUP
  5
3C3F
102
{ACAD_REACTORS
330
18
102
}
330
18
100
AcDbGroup
300

 70
     1
 71
     1
340
3C3E
340
3C3D
340
3C3C
340
3C3B
340
3C3A
340
3C39
340
3C38
340
3C37
340
3C36
340
3C35
340
3C34
340
3C33
340
3C32
340
3C31
340
3C30
340
3C2F
340
3C2E
340
3C2D
340
3C2C
340
3C2B
340
3C2A
340
3C29
340
3C28
340
3C27
340
3C26
340
3C25
340
3C24
340
3C23
340
3C22
340
3C21
340
3C20
340
3C1F
340
3C1E
340
3C1D
340
3C1C
340
3C1B
340
3C1A
340
3C19
340
3C18
340
3C17
340
3C16
340
3C15
340
3C14
340
3C13
340
3C12
340
3C11
340
3C10
340
3C0F
340
3C0E
340
3C0D
340
3C0C
340
3C0B
340
3C0A
340
3C09
340
3C08
340
3C07
340
3C06
340
3C05
340
3C04
340
3C03
340
3C02
340
3C01
340
3C00
340
3BFF
340
3BFE
340
3BFD
340
3BFC
340
3BFB
  0
GROUP
  5
1682
102
{ACAD_REACTORS
330
18
102
}
330
18
100
AcDbGroup
300

 70
     1
 71
     1
  0
GROUP
  5
1F8A
102
{ACAD_REACTORS
330
18
102
}
330
18
100
AcDbGroup
300

 70
     1
 71
     1
  0
GROUP
  5
39C8
102
{ACAD_REACTORS
330
18
102
}
330
18
100
AcDbGroup
300

 70
     1
 71
     1
  0
GROUP
  5
312A
102
{ACAD_REACTORS
330
18
102
}
330
18
100
AcDbGroup
300

 70
     1
 71
     1
  0
GROUP
  5
15D1
102
{ACAD_REACTORS
330
18
102
}
330
18
100
AcDbGroup
300

 70
     1
 71
     1
  0
GROUP
  5
3650
102
{ACAD_REACTORS
330
18
102
}
330
18
100
AcDbGroup
300

 70
     1
 71
     1
  0
GROUP
  5
3154
102
{ACAD_REACTORS
330
18
102
}
330
18
100
AcDbGroup
300

 70
     1
 71
     1
  0
GROUP
  5
327B
102
{ACAD_REACTORS
330
18
102
}
330
18
100
AcDbGroup
300

 70
     1
 71
     1
  0
GROUP
  5
374A
102
{ACAD_REACTORS
330
18
102
}
330
18
100
AcDbGroup
300

 70
     1
 71
     1
  0
GROUP
  5
367C
102
{ACAD_REACTORS
330
18
102
}
330
18
100
AcDbGroup
300

 70
     1
 71
     1
  0
GROUP
  5
1827
102
{ACAD_REACTORS
330
18
102
}
330
18
100
AcDbGroup
300

 70
     1
 71
     1
  0
GROUP
  5
218C
102
{ACAD_REACTORS
330
18
102
}
330
18
100
AcDbGroup
300

 70
     1
 71
     1
  0
GROUP
  5
2108
102
{ACAD_REACTORS
330
18
102
}
330
18
100
AcDbGroup
300

 70
     1
 71
     1
  0
GROUP
  5
18ED
102
{ACAD_REACTORS
330
18
102
}
330
18
100
AcDbGroup
300

 70
     1
 71
     1
  0
GROUP
  5
19E5
102
{ACAD_REACTORS
330
18
102
}
330
18
100
AcDbGroup
300

 70
     1
 71
     1
  0
GROUP
  5
2FBC
102
{ACAD_REACTORS
330
18
102
}
330
18
100
AcDbGroup
300

 70
     1
 71
     1
  0
GROUP
  5
370C
102
{ACAD_REACTORS
330
18
102
}
330
18
100
AcDbGroup
300

 70
     1
 71
     1
  0
GROUP
  5
2335
102
{ACAD_REACTORS
330
18
102
}
330
18
100
AcDbGroup
300

 70
     1
 71
     1
  0
GROUP
  5
2FE9
102
{ACAD_REACTORS
330
18
102
}
330
18
100
AcDbGroup
300

 70
     1
 71
     1
  0
GROUP
  5
2862
102
{ACAD_REACTORS
330
18
102
}
330
18
100
AcDbGroup
300

 70
     1
 71
     1
  0
GROUP
  5
299B
102
{ACAD_REACTORS
330
18
102
}
330
18
100
AcDbGroup
300

 70
     1
 71
     1
  0
LAYOUT
  5
5A
102
{ACAD_XDICTIONARY
360
3D19
102
}
102
{ACAD_REACTORS
330
58
102
}
330
58
100
AcDbPlotSettings
  1

  2
なし
  4

  6

 40
0.0
 41
0.0
 42
0.0
 43
0.0
 44
0.0
 45
0.0
 46
0.0
 47
0.0
 48
0.0
 49
0.0
140
0.0
141
0.0
142
1.0
143
1.0
 70
  1712
 72
     0
 73
     0
 74
     0
  7
monochrome.ctb
 75
     0
147
1.0
148
0.0
149
0.0
100
AcDbLayout
  1
Model
 70
     1
 71
     0
 10
0.0
 20
0.0
 11
12.0
 21
9.0
 12
0.0
 22
0.0
 32
0.0
 14
0.0
 24
0.0
 34
0.0
 15
0.0
 25
0.0
 35
0.0
146
0.0
 13
0.0
 23
0.0
 33
0.0
 16
1.0
 26
0.0
 36
0.0
 17
0.0
 27
1.0
 37
0.0
 76
     0
330
2
331
3CAE
  0
LAYOUT
  5
5B
102
{ACAD_XDICTIONARY
360
3D1B
102
}
102
{ACAD_REACTORS
330
58
102
}
330
58
100
AcDbPlotSettings
  1

  2
なし
  4

  6

 40
0.0
 41
0.0
 42
0.0
 43
0.0
 44
0.0
 45
0.0
 46
0.0
 47
0.0
 48
0.0
 49
0.0
140
0.0
141
0.0
142
1.0
143
1.0
 70
   688
 72
     0
 73
     0
 74
     5
  7
monochrome.ctb
 75
    16
147
1.0
148
0.0
149
0.0
100
AcDbLayout
  1
ﾚｲｱｳﾄ1
 70
     1
 71
     1
 10
0.0
 20
0.0
 11
12.0
 21
9.0
 12
0.0
 22
0.0
 32
0.0
 14
1.000000000000000E+20
 24
1.000000000000000E+20
 34
1.000000000000000E+20
 15
-1.000000000000000E+20
 25
-1.000000000000000E+20
 35
-1.000000000000000E+20
146
0.0
 13
0.0
 23
0.0
 33
0.0
 16
1.0
 26
0.0
 36
0.0
 17
0.0
 27
1.0
 37
0.0
 76
     0
330
7
  0
MATERIAL
  5
3CC0
102
{ACAD_XDICTIONARY
360
3CC1
102
}
102
{ACAD_REACTORS
330
143
102
}
330
143
100
AcDbMaterial
  1
ByBlock
 72
     0
 43
0.0208333333333333
 43
0.0
 43
0.0
 43
0.0
 43
0.0
 43
0.0208333333333333
 43
0.0
 43
0.0
 43
0.0
 43
0.0
 43
1.0
 43
0.0
 43
0.0
 43
0.0
 43
0.0
 43
1.0
 77
     0
 47
0.0208333333333333
 47
0.0
 47
0.0
 47
0.0
 47
0.0
 47
0.0208333333333333
 47
0.0
 47
0.0
 47
0.0
 47
0.0
 47
1.0
 47
0.0
 47
0.0
 47
0.0
 47
0.0
 47
1.0
171
     0
 49
0.0208333333333333
 49
0.0
 49
0.0
 49
0.0
 49
0.0
 49
0.0208333333333333
 49
0.0
 49
0.0
 49
0.0
 49
0.0
 49
1.0
 49
0.0
 49
0.0
 49
0.0
 49
0.0
 49
1.0
175
     0
142
0.0208333333333333
142
0.0
142
0.0
142
0.0
142
0.0
142
0.0208333333333333
142
0.0
142
0.0
142
0.0
142
0.0
142
1.0
142
0.0
142
0.0
142
0.0
142
0.0
142
1.0
179
     0
144
0.0208333333333333
144
0.0
144
0.0
144
0.0
144
0.0
144
0.0208333333333333
144
0.0
144
0.0
144
0.0
144
0.0
144
1.0
144
0.0
144
0.0
144
0.0
144
0.0
144
1.0
147
0.0208333333333333
147
0.0
147
0.0
147
0.0
147
0.0
147
0.0208333333333333
147
0.0
147
0.0
147
0.0
147
0.0
147
1.0
147
0.0
147
0.0
147
0.0
147
0.0
147
1.0
  0
MATERIAL
  5
3CB8
102
{ACAD_XDICTIONARY
360
3CB9
102
}
102
{ACAD_REACTORS
330
143
102
}
330
143
100
AcDbMaterial
  1
ByLayer
 72
     0
 43
0.0208333333333333
 43
0.0
 43
0.0
 43
0.0
 43
0.0
 43
0.0208333333333333
 43
0.0
 43
0.0
 43
0.0
 43
0.0
 43
1.0
 43
0.0
 43
0.0
 43
0.0
 43
0.0
 43
1.0
 77
     0
 47
0.0208333333333333
 47
0.0
 47
0.0
 47
0.0
 47
0.0
 47
0.0208333333333333
 47
0.0
 47
0.0
 47
0.0
 47
0.0
 47
1.0
 47
0.0
 47
0.0
 47
0.0
 47
0.0
 47
1.0
171
     0
 49
0.0208333333333333
 49
0.0
 49
0.0
 49
0.0
 49
0.0
 49
0.0208333333333333
 49
0.0
 49
0.0
 49
0.0
 49
0.0
 49
1.0
 49
0.0
 49
0.0
 49
0.0
 49
0.0
 49
1.0
175
     0
142
0.0208333333333333
142
0.0
142
0.0
142
0.0
142
0.0
142
0.0208333333333333
142
0.0
142
0.0
142
0.0
142
0.0
142
1.0
142
0.0
142
0.0
142
0.0
142
0.0
142
1.0
179
     0
144
0.0208333333333333
144
0.0
144
0.0
144
0.0
144
0.0
144
0.0208333333333333
144
0.0
144
0.0
144
0.0
144
0.0
144
1.0
144
0.0
144
0.0
144
0.0
144
0.0
144
1.0
147
0.0208333333333333
147
0.0
147
0.0
147
0.0
147
0.0
147
0.0208333333333333
147
0.0
147
0.0
147
0.0
147
0.0
147
1.0
147
0.0
147
0.0
147
0.0
147
0.0
147
1.0
  0
MATERIAL
  5
3CC8
102
{ACAD_XDICTIONARY
360
3CC9
102
}
102
{ACAD_REACTORS
330
143
102
}
330
143
100
AcDbMaterial
  1
Global
 72
     0
 43
0.0208333333333333
 43
0.0
 43
0.0
 43
0.0
 43
0.0
 43
0.0208333333333333
 43
0.0
 43
0.0
 43
0.0
 43
0.0
 43
1.0
 43
0.0
 43
0.0
 43
0.0
 43
0.0
 43
1.0
 77
     0
 47
0.0208333333333333
 47
0.0
 47
0.0
 47
0.0
 47
0.0
 47
0.0208333333333333
 47
0.0
 47
0.0
 47
0.0
 47
0.0
 47
1.0
 47
0.0
 47
0.0
 47
0.0
 47
0.0
 47
1.0
171
     0
 49
0.0208333333333333
 49
0.0
 49
0.0
 49
0.0
 49
0.0
 49
0.0208333333333333
 49
0.0
 49
0.0
 49
0.0
 49
0.0
 49
1.0
 49
0.0
 49
0.0
 49
0.0
 49
0.0
 49
1.0
175
     0
142
0.0208333333333333
142
0.0
142
0.0
142
0.0
142
0.0
142
0.0208333333333333
142
0.0
142
0.0
142
0.0
142
0.0
142
1.0
142
0.0
142
0.0
142
0.0
142
0.0
142
1.0
179
     0
144
0.0208333333333333
144
0.0
144
0.0
144
0.0
144
0.0
144
0.0208333333333333
144
0.0
144
0.0
144
0.0
144
0.0
144
1.0
144
0.0
144
0.0
144
0.0
144
0.0
144
1.0
147
0.0208333333333333
147
0.0
147
0.0
147
0.0
147
0.0
147
0.0208333333333333
147
0.0
147
0.0
147
0.0
147
0.0
147
1.0
147
0.0
147
0.0
147
0.0
147
0.0
147
1.0
  0
MLEADERSTYLE
  5
3D04
102
{ACAD_REACTORS
330
3D03
102
}
330
3D03
100
AcDbMLeaderStyle
170
     2
171
     1
172
     0
 90
        2
 40
0.0
 41
0.0
173
     1
 91
-1056964608
340
E
 92
       -2
290
     1
 42
0.09
291
     1
 43
0.36
  3
Standard
 44
0.18
300

342
C
174
     1
178
     6
175
     1
176
     0
 93
-1056964608
 45
0.18
292
     0
297
     0
 46
0.18
 94
-1056964608
 47
1.0
 49
1.0
140
1.0
293
     1
141
0.0
294
     1
177
     0
142
1.0
295
     0
296
     0
143
0.125
1001
ACAD_MLEADERVER
1070
     2
  0
MLINESTYLE
  5
1D
102
{ACAD_REACTORS
330
19
102
}
330
19
100
AcDbMlineStyle
  2
STANDARD
 70
     0
  3

 62
   256
 51
90.0
 52
90.0
 71
     2
 49
0.5
 62
   256
  6
BYLAYER
 49
-0.5
 62
   256
  6
BYLAYER
  0
ACDBPLACEHOLDER
  5
57
102
{ACAD_REACTORS
330
56
102
}
330
56
  0
SCALE
  5
3CE2
102
{ACAD_REACTORS
330
3CE1
102
}
330
3CE1
100
AcDbScale
 70
     0
300
1:1
140
1.0
141
1.0
290
     1
  0
SCALE
  5
3CE3
102
{ACAD_REACTORS
330
3CE1
102
}
330
3CE1
100
AcDbScale
 70
     0
300
1:2
140
1.0
141
2.0
290
     0
  0
SCALE
  5
3CE4
102
{ACAD_REACTORS
330
3CE1
102
}
330
3CE1
100
AcDbScale
 70
     0
300
1:4
140
1.0
141
4.0
290
     0
  0
SCALE
  5
3CE5
102
{ACAD_REACTORS
330
3CE1
102
}
330
3CE1
100
AcDbScale
 70
     0
300
1:5
140
1.0
141
5.0
290
     0
  0
SCALE
  5
3CE6
102
{ACAD_REACTORS
330
3CE1
102
}
330
3CE1
100
AcDbScale
 70
     0
300
1:8
140
1.0
141
8.0
290
     0
  0
SCALE
  5
3CE7
102
{ACAD_REACTORS
330
3CE1
102
}
330
3CE1
100
AcDbScale
 70
     0
300
1:10
140
1.0
141
10.0
290
     0
  0
SCALE
  5
3CE8
102
{ACAD_REACTORS
330
3CE1
102
}
330
3CE1
100
AcDbScale
 70
     0
300
1:16
140
1.0
141
16.0
290
     0
  0
SCALE
  5
3CE9
102
{ACAD_REACTORS
330
3CE1
102
}
330
3CE1
100
AcDbScale
 70
     0
300
1:20
140
1.0
141
20.0
290
     0
  0
SCALE
  5
3CEA
102
{ACAD_REACTORS
330
3CE1
102
}
330
3CE1
100
AcDbScale
 70
     0
300
1:30
140
1.0
141
30.0
290
     0
  0
SCALE
  5
3CEB
102
{ACAD_REACTORS
330
3CE1
102
}
330
3CE1
100
AcDbScale
 70
     0
300
1:40
140
1.0
141
40.0
290
     0
  0
SCALE
  5
3CEC
102
{ACAD_REACTORS
330
3CE1
102
}
330
3CE1
100
AcDbScale
 70
     0
300
1:50
140
1.0
141
50.0
290
     0
  0
SCALE
  5
3CED
102
{ACAD_REACTORS
330
3CE1
102
}
330
3CE1
100
AcDbScale
 70
     0
300
1:100
140
1.0
141
100.0
290
     0
  0
SCALE
  5
3CEE
102
{ACAD_REACTORS
330
3CE1
102
}
330
3CE1
100
AcDbScale
 70
     0
300
2:1
140
2.0
141
1.0
290
     0
  0
SCALE
  5
3CEF
102
{ACAD_REACTORS
330
3CE1
102
}
330
3CE1
100
AcDbScale
 70
     0
300
4:1
140
4.0
141
1.0
290
     0
  0
SCALE
  5
3CF0
102
{ACAD_REACTORS
330
3CE1
102
}
330
3CE1
100
AcDbScale
 70
     0
300
8:1
140
8.0
141
1.0
290
     0
  0
SCALE
  5
3CF1
102
{ACAD_REACTORS
330
3CE1
102
}
330
3CE1
100
AcDbScale
 70
     0
300
10:1
140
10.0
141
1.0
290
     0
  0
SCALE
  5
3CF2
102
{ACAD_REACTORS
330
3CE1
102
}
330
3CE1
100
AcDbScale
 70
     0
300
100:1
140
100.0
141
1.0
290
     0
  0
SCALE
  5
3CF3
102
{ACAD_REACTORS
330
3CE1
102
}
330
3CE1
100
AcDbScale
 70
     0
300
1/128" = 1'-0"
140
0.0078125
141
12.0
290
     0
  0
SCALE
  5
3CF4
102
{ACAD_REACTORS
330
3CE1
102
}
330
3CE1
100
AcDbScale
 70
     0
300
1/64" = 1'-0"
140
0.015625
141
12.0
290
     0
  0
SCALE
  5
3CF5
102
{ACAD_REACTORS
330
3CE1
102
}
330
3CE1
100
AcDbScale
 70
     0
300
1/32" = 1'-0"
140
0.03125
141
12.0
290
     0
  0
SCALE
  5
3CF6
102
{ACAD_REACTORS
330
3CE1
102
}
330
3CE1
100
AcDbScale
 70
     0
300
1/16" = 1'-0"
140
0.0625
141
12.0
290
     0
  0
SCALE
  5
3CF7
102
{ACAD_REACTORS
330
3CE1
102
}
330
3CE1
100
AcDbScale
 70
     0
300
3/32" = 1'-0"
140
0.09375
141
12.0
290
     0
  0
SCALE
  5
3CF8
102
{ACAD_REACTORS
330
3CE1
102
}
330
3CE1
100
AcDbScale
 70
     0
300
1/8" = 1'-0"
140
0.125
141
12.0
290
     0
  0
SCALE
  5
3CF9
102
{ACAD_REACTORS
330
3CE1
102
}
330
3CE1
100
AcDbScale
 70
     0
300
3/16" = 1'-0"
140
0.1875
141
12.0
290
     0
  0
SCALE
  5
3CFA
102
{ACAD_REACTORS
330
3CE1
102
}
330
3CE1
100
AcDbScale
 70
     0
300
1/4" = 1'-0"
140
0.25
141
12.0
290
     0
  0
SCALE
  5
3CFB
102
{ACAD_REACTORS
330
3CE1
102
}
330
3CE1
100
AcDbScale
 70
     0
300
3/8" = 1'-0"
140
0.375
141
12.0
290
     0
  0
SCALE
  5
3CFC
102
{ACAD_REACTORS
330
3CE1
102
}
330
3CE1
100
AcDbScale
 70
     0
300
1/2" = 1'-0"
140
0.5
141
12.0
290
     0
  0
SCALE
  5
3CFD
102
{ACAD_REACTORS
330
3CE1
102
}
330
3CE1
100
AcDbScale
 70
     0
300
3/4" = 1'-0"
140
0.75
141
12.0
290
     0
  0
SCALE
  5
3CFE
102
{ACAD_REACTORS
330
3CE1
102
}
330
3CE1
100
AcDbScale
 70
     0
300
1" = 1'-0"
140
1.0
141
12.0
290
     0
  0
SCALE
  5
3CFF
102
{ACAD_REACTORS
330
3CE1
102
}
330
3CE1
100
AcDbScale
 70
     0
300
1-1/2" = 1'-0"
140
1.5
141
12.0
290
     0
  0
SCALE
  5
3D00
102
{ACAD_REACTORS
330
3CE1
102
}
330
3CE1
100
AcDbScale
 70
     0
300
3" = 1'-0"
140
3.0
141
12.0
290
     0
  0
SCALE
  5
3D01
102
{ACAD_REACTORS
330
3CE1
102
}
330
3CE1
100
AcDbScale
 70
     0
300
6" = 1'-0"
140
6.0
141
12.0
290
     0
  0
SCALE
  5
3D02
102
{ACAD_REACTORS
330
3CE1
102
}
330
3CE1
100
AcDbScale
 70
     0
300
1'-0" = 1'-0"
140
12.0
141
12.0
290
     0
  0
TABLESTYLE
  5
146
102
{ACAD_XDICTIONARY
360
3D15
102
}
102
{ACAD_REACTORS
330
145
102
}
330
145
100
AcDbTableStyle
  3
Standard
 70
     0
 71
     0
 40
0.06
 41
0.06
280
     0
281
     0
  7
STANDARD
140
0.18
170
     2
 62
     0
 63
     7
283
     0
274
    -2
284
     1
 64
     0
275
    -2
285
     1
 65
     0
276
    -2
286
     1
 66
     0
277
    -2
287
     1
 67
     0
278
    -2
288
     1
 68
     0
279
    -2
289
     1
 69
     0
  7
STANDARD
140
0.25
170
     5
 62
     0
 63
     7
283
     0
274
    -2
284
     1
 64
     0
275
    -2
285
     1
 65
     0
276
    -2
286
     1
 66
     0
277
    -2
287
     1
 67
     0
278
    -2
288
     1
 68
     0
279
    -2
289
     1
 69
     0
  7
STANDARD
140
0.18
170
     5
 62
     0
 63
     7
283
     0
274
    -2
284
     1
 64
     0
275
    -2
285
     1
 65
     0
276
    -2
286
     1
 66
     0
277
    -2
287
     1
 67
     0
278
    -2
288
     1
 68
     0
279
    -2
289
     1
 69
     0
  0
VISUALSTYLE
  5
3CD6
102
{ACAD_REACTORS
330
3CD0
102
}
330
3CD0
100
AcDbVisualStyle
  2
2dWireframe
 70
     4
 71
     0
 72
     2
 73
     0
 90
        0
 40
-0.6
 41
-30.0
 62
     5
 63
     7
 74
     1
 91
        4
 64
     7
 65
   257
 75
     1
175
     1
 42
1.0
 92
        0
 66
   257
 43
1.0
 76
     1
 77
     6
 78
     2
 67
     7
 79
     5
170
     0
171
     0
290
     0
174
     0
 93
        1
 44
0.0
173
     0
291
     0
 45
0.0
1001
ACAD
1000
AcDbSavedByObjectVersion
1070
     0
  0
VISUALSTYLE
  5
3CD8
102
{ACAD_REACTORS
330
3CD0
102
}
330
3CD0
100
AcDbVisualStyle
  2
3D Hidden
 70
     6
 71
     1
 72
     2
 73
     2
 90
        0
 40
-0.6
 41
-30.0
 62
     5
 63
     7
 74
     2
 91
        2
 64
     7
 65
   257
 75
     2
175
     1
 42
40.0
 92
        0
 66
   257
 43
1.0
 76
     1
 77
     6
 78
     2
 67
     7
 79
     3
170
     0
171
     0
290
     0
174
     0
 93
        1
 44
0.0
173
     0
291
     0
 45
0.0
1001
ACAD
1000
AcDbSavedByObjectVersion
1070
     0
  0
VISUALSTYLE
  5
3CD7
102
{ACAD_REACTORS
330
3CD0
102
}
330
3CD0
100
AcDbVisualStyle
  2
3dWireframe
 70
     5
 71
     0
 72
     2
 73
     0
 90
        0
 40
-0.6
 41
-30.0
 62
     5
 63
     7
 74
     1
 91
        4
 64
     7
 65
   257
 75
     1
175
     1
 42
1.0
 92
        0
 66
   257
 43
1.0
 76
     1
 77
     6
 78
     2
 67
     7
 79
     5
170
     0
171
     0
290
     0
174
     0
 93
        1
 44
0.0
173
     0
291
     0
 45
0.0
1001
ACAD
1000
AcDbSavedByObjectVersion
1070
     0
  0
VISUALSTYLE
  5
3CD5
102
{ACAD_REACTORS
330
3CD0
102
}
330
3CD0
100
AcDbVisualStyle
  2
Basic
 70
     7
 71
     1
 72
     0
 73
     1
 90
        0
 40
-0.6
 41
-30.0
 62
     5
 63
     7
 74
     0
 91
        4
 64
     7
 65
   257
 75
     1
175
     1
 42
1.0
 92
        8
 66
     7
 43
1.0
 76
     1
 77
     6
 78
     2
 67
     7
 79
     5
170
     0
171
     0
290
     0
174
     0
 93
        1
 44
0.0
173
     0
291
     1
 45
0.0
1001
ACAD
1000
AcDbSavedByObjectVersion
1070
     0
  0
VISUALSTYLE
  5
3CDC
102
{ACAD_REACTORS
330
3CD0
102
}
330
3CD0
100
AcDbVisualStyle
  2
Brighten
 70
    12
 71
     2
 72
     2
 73
     0
 90
        0
 40
-0.6
 41
-30.0
 62
     5
 63
     7
 74
     1
 91
        4
 64
     7
 65
   257
 75
     1
175
     1
 42
1.0
 92
        8
 66
     7
 43
1.0
 76
     1
 77
     6
 78
     2
 67
     7
 79
     5
170
     0
171
     0
290
     0
174
     0
 93
        1
 44
50.0
173
     0
291
     1
 45
0.0
1001
ACAD
1000
AcDbSavedByObjectVersion
1070
     0
  0
VISUALSTYLE
  5
3CE0
102
{ACAD_REACTORS
330
3CD0
102
}
330
3CD0
100
AcDbVisualStyle
  2
ColorChange
 70
    16
 71
     2
 72
     2
 73
     3
 90
        0
 40
-0.6
 41
-30.0
 62
     5
 63
     8
 74
     1
 91
        4
 64
     7
 65
   257
 75
     1
175
     1
 42
1.0
 92
        8
 66
     8
 43
1.0
 76
     1
 77
     6
 78
     2
 67
     7
 79
     5
170
     0
171
     0
290
     0
174
     0
 93
        1
 44
0.0
173
     0
291
     1
 45
0.0
1001
ACAD
1000
AcDbSavedByObjectVersion
1070
     0
  0
VISUALSTYLE
  5
3CD9
102
{ACAD_REACTORS
330
3CD0
102
}
330
3CD0
100
AcDbVisualStyle
  2
Conceptual
 70
     9
 71
     3
 72
     2
 73
     0
 90
        0
 40
-0.6
 41
-30.0
 62
     5
 63
     7
 74
     2
 91
        2
 64
     7
 65
   257
 75
     1
175
     1
 42
40.0
 92
        8
 66
     7
 43
1.0
 76
     1
 77
     6
 78
     2
 67
     7
 79
     3
170
     0
171
     0
290
     0
174
     0
 93
        1
 44
0.0
173
     0
291
     0
 45
0.0
1001
ACAD
1000
AcDbSavedByObjectVersion
1070
     0
  0
VISUALSTYLE
  5
3CDB
102
{ACAD_REACTORS
330
3CD0
102
}
330
3CD0
100
AcDbVisualStyle
  2
Dim
 70
    11
 71
     2
 72
     2
 73
     0
 90
        0
 40
-0.6
 41
-30.0
 62
     5
 63
     7
 74
     1
 91
        4
 64
     7
 65
   257
 75
     1
175
     1
 42
1.0
 92
        8
 66
     7
 43
1.0
 76
     1
 77
     6
 78
     2
 67
     7
 79
     5
170
     0
171
     0
290
     0
174
     0
 93
        1
 44
-50.0
173
     0
291
     1
 45
0.0
1001
ACAD
1000
AcDbSavedByObjectVersion
1070
     0
  0
VISUALSTYLE
  5
3CDF
102
{ACAD_REACTORS
330
3CD0
102
}
330
3CD0
100
AcDbVisualStyle
  2
Facepattern
 70
    15
 71
     2
 72
     2
 73
     0
 90
        0
 40
-0.6
 41
-30.0
 62
     5
 63
     7
 74
     1
 91
        4
 64
     7
 65
   257
 75
     1
175
     1
 42
1.0
 92
        8
 66
     7
 43
1.0
 76
     1
 77
     6
 78
     2
 67
     7
 79
     5
170
     0
171
     0
290
     0
174
     0
 93
        1
 44
0.0
173
     0
291
     1
 45
0.0
1001
ACAD
1000
AcDbSavedByObjectVersion
1070
     0
  0
VISUALSTYLE
  5
3CD1
102
{ACAD_REACTORS
330
3CD0
102
}
330
3CD0
100
AcDbVisualStyle
  2
Flat
 70
     0
 71
     2
 72
     1
 73
     1
 90
        2
 40
-0.6
 41
30.0
 62
     5
 63
     7
 74
     0
 91
        4
 64
     7
 65
   257
 75
     1
175
     1
 42
1.0
 92
        8
 66
     7
 43
1.0
 76
     1
 77
     6
 78
     2
 67
     7
 79
     5
170
     0
171
     0
290
     0
174
     0
 93
       13
 44
0.0
173
     0
291
     1
 45
0.0
1001
ACAD
1000
AcDbSavedByObjectVersion
1070
     0
  0
VISUALSTYLE
  5
3CD2
102
{ACAD_REACTORS
330
3CD0
102
}
330
3CD0
100
AcDbVisualStyle
  2
FlatWithEdges
 70
     1
 71
     2
 72
     1
 73
     1
 90
        2
 40
-0.6
 41
30.0
 62
     5
 63
     7
 74
     1
 91
        4
 64
     7
 65
   257
 75
     1
175
     1
 42
1.0
 92
        0
 66
   257
 43
1.0
 76
     1
 77
     6
 78
     2
 67
     7
 79
     5
170
     0
171
     0
290
     0
174
     0
 93
       13
 44
0.0
173
     0
291
     1
 45
0.0
1001
ACAD
1000
AcDbSavedByObjectVersion
1070
     0
  0
VISUALSTYLE
  5
3CD3
102
{ACAD_REACTORS
330
3CD0
102
}
330
3CD0
100
AcDbVisualStyle
  2
Gouraud
 70
     2
 71
     2
 72
     2
 73
     1
 90
        2
 40
-0.6
 41
30.0
 62
     5
 63
     7
 74
     0
 91
        4
 64
     7
 65
   257
 75
     1
175
     1
 42
1.0
 92
        0
 66
     7
 43
1.0
 76
     1
 77
     6
 78
     2
 67
     7
 79
     5
170
     0
171
     0
290
     0
174
     0
 93
       13
 44
0.0
173
     0
291
     1
 45
0.0
1001
ACAD
1000
AcDbSavedByObjectVersion
1070
     0
  0
VISUALSTYLE
  5
3CD4
102
{ACAD_REACTORS
330
3CD0
102
}
330
3CD0
100
AcDbVisualStyle
  2
GouraudWithEdges
 70
     3
 71
     2
 72
     2
 73
     1
 90
        2
 40
-0.6
 41
30.0
 62
     5
 63
     7
 74
     1
 91
        4
 64
     7
 65
   257
 75
     1
175
     1
 42
1.0
 92
        0
 66
   257
 43
1.0
 76
     1
 77
     6
 78
     2
 67
     7
 79
     5
170
     0
171
     0
290
     0
174
     0
 93
       13
 44
0.0
173
     0
291
     1
 45
0.0
1001
ACAD
1000
AcDbSavedByObjectVersion
1070
     0
  0
VISUALSTYLE
  5
3CDE
102
{ACAD_REACTORS
330
3CD0
102
}
330
3CD0
100
AcDbVisualStyle
  2
Linepattern
 70
    14
 71
     2
 72
     2
 73
     0
 90
        0
 40
-0.6
 41
-30.0
 62
     5
 63
     7
 74
     1
 91
        4
 64
     7
 65
   257
 75
     7
175
     7
 42
1.0
 92
        8
 66
     7
 43
1.0
 76
     1
 77
     6
 78
     2
 67
     7
 79
     5
170
     0
171
     0
290
     0
174
     0
 93
        1
 44
0.0
173
     0
291
     1
 45
0.0
1001
ACAD
1000
AcDbSavedByObjectVersion
1070
     0
  0
VISUALSTYLE
  5
3CDA
102
{ACAD_REACTORS
330
3CD0
102
}
330
3CD0
100
AcDbVisualStyle
  2
Realistic
 70
     8
 71
     2
 72
     2
 73
     0
 90
        0
 40
-0.6
 41
-30.0
 62
     5
 63
     7
 74
     1
 91
        0
 64
     7
 65
   257
 75
     1
175
     1
 42
1.0
 92
        8
 66
     8
 43
1.0
 76
     1
 77
     6
 78
     2
 67
     7
 79
     5
170
     0
171
     0
290
     0
174
     0
 93
       13
 44
0.0
173
     0
291
     0
 45
0.0
1001
ACAD
1000
AcDbSavedByObjectVersion
1070
     0
  0
VISUALSTYLE
  5
3CDD
102
{ACAD_REACTORS
330
3CD0
102
}
330
3CD0
100
AcDbVisualStyle
  2
Thicken
 70
    13
 71
     2
 72
     2
 73
     0
 90
        0
 40
-0.6
 41
-30.0
 62
     5
 63
     7
 74
     1
 91
        4
 64
     7
 65
   257
 75
     1
175
     1
 42
1.0
 92
       12
 66
     7
 43
1.0
 76
     1
 77
     6
 78
     2
 67
     7
 79
     5
170
     0
171
     0
290
     0
174
     0
 93
        1
 44
0.0
173
     0
291
     1
 45
0.0
1001
ACAD
1000
AcDbSavedByObjectVersion
1070
     0
  0
DICTIONARYVAR
  5
3D12
102
{ACAD_REACTORS
330
1D1
102
}
330
1D1
100
DictionaryVariables
280
     0
  1
1:1
  0
DICTIONARYVAR
  5
3D11
102
{ACAD_REACTORS
330
1D1
102
}
330
1D1
100
DictionaryVariables
280
     0
  1
STANDARD
  0
DICTIONARYVAR
  5
1D2
102
{ACAD_REACTORS
330
1D1
102
}
330
1D1
100
DictionaryVariables
280
     0
  1
STANDARD
  0
DICTIONARYVAR
  5
D03
102
{ACAD_REACTORS
330
1D1
102
}
330
1D1
100
DictionaryVariables
280
     0
  1
1
  0
DICTIONARYVAR
  5
3D14
102
{ACAD_REACTORS
330
1D1
102
}
330
1D1
100
DictionaryVariables
280
     0
  1
0
  0
DICTIONARYVAR
  5
D04
102
{ACAD_REACTORS
330
1D1
102
}
330
1D1
100
DictionaryVariables
280
     0
  1

  0
DICTIONARYVAR
  5
3D13
102
{ACAD_REACTORS
330
1D1
102
}
330
1D1
100
DictionaryVariables
280
     0
  1
127
  0
DICTIONARY
  5
3D19
330
5A
100
AcDbDictionary
280
     1
281
     1
  3
ACAD_XREC_ROUNDTRIP
360
3D1A
  0
DICTIONARY
  5
3D1B
330
5B
100
AcDbDictionary
280
     1
281
     1
  3
ACAD_XREC_ROUNDTRIP
360
3D1C
  0
DICTIONARY
  5
3CC1
330
3CC0
100
AcDbDictionary
280
     1
281
     1
  3
ACAD_XREC_ROUNDTRIP
360
3D1F
  3
BUMPTILE
360
3CC3
  3
DIFFUSETILE
360
3CC2
  3
OPACITYTILE
360
3CC6
  3
REFLECTIONTILE
360
3CC5
  3
REFRACTIONTILE
360
3CC7
  3
SPECULARTILE
360
3CC4
  0
DICTIONARY
  5
3CB9
330
3CB8
100
AcDbDictionary
280
     1
281
     1
  3
ACAD_XREC_ROUNDTRIP
360
3D1E
  3
BUMPTILE
360
3CBB
  3
DIFFUSETILE
360
3CBA
  3
OPACITYTILE
360
3CBE
  3
REFLECTIONTILE
360
3CBD
  3
REFRACTIONTILE
360
3CBF
  3
SPECULARTILE
360
3CBC
  0
DICTIONARY
  5
3CC9
330
3CC8
100
AcDbDictionary
280
     1
281
     1
  3
ACAD_XREC_ROUNDTRIP
360
3D20
  3
BUMPTILE
360
3CCB
  3
DIFFUSETILE
360
3CCA
  3
OPACITYTILE
360
3CCE
  3
REFLECTIONTILE
360
3CCD
  3
REFRACTIONTILE
360
3CCF
  3
SPECULARTILE
360
3CCC
  0
DICTIONARY
  5
3D15
330
146
100
AcDbDictionary
280
     1
281
     1
  3
ACAD_ROUNDTRIP_2008_TABLESTYLE_CELLSTYLEMAP
360
3D16
  3
ACAD_XREC_ROUNDTRIP
360
3D1D
  0
XRECORD
  5
3D1A
102
{ACAD_REACTORS
330
3D19
102
}
330
3D19
100
AcDbXrecord
280
     1
102
SHADEPLOT
 70
     0
102
SHADEPLOTRESLEVEL
 70
     2
102
SHADEPLOTCUSTOMDPI
 70
   300
  0
XRECORD
  5
3D1C
102
{ACAD_REACTORS
330
3D1B
102
}
330
3D1B
100
AcDbXrecord
280
     1
102
SHADEPLOT
 70
     0
102
SHADEPLOTRESLEVEL
 70
     2
102
SHADEPLOTCUSTOMDPI
 70
   300
  0
XRECORD
  5
3D1F
102
{ACAD_REACTORS
330
3CC1
102
}
330
3CC1
100
AcDbXrecord
280
     1
102
MATERIAL
148
0.0
149
0.0
149
0.0
 93
        0
 94
      127
282
     0
 72
     0
 77
     0
171
     0
175
     0
179
     0
273
     0
  0
XRECORD
  5
3CC3
102
{ACAD_REACTORS
330
3CC1
102
}
330
3CC1
100
AcDbXrecord
280
     1
270
     1
271
     1
  0
XRECORD
  5
3CC2
102
{ACAD_REACTORS
330
3CC1
102
}
330
3CC1
100
AcDbXrecord
280
     1
270
     1
271
     1
  0
XRECORD
  5
3CC6
102
{ACAD_REACTORS
330
3CC1
102
}
330
3CC1
100
AcDbXrecord
280
     1
270
     1
271
     1
  0
XRECORD
  5
3CC5
102
{ACAD_REACTORS
330
3CC1
102
}
330
3CC1
100
AcDbXrecord
280
     1
270
     1
271
     1
  0
XRECORD
  5
3CC7
102
{ACAD_REACTORS
330
3CC1
102
}
330
3CC1
100
AcDbXrecord
280
     1
270
     1
271
     1
  0
XRECORD
  5
3CC4
102
{ACAD_REACTORS
330
3CC1
102
}
330
3CC1
100
AcDbXrecord
280
     1
270
     1
271
     1
  0
XRECORD
  5
3D1E
102
{ACAD_REACTORS
330
3CB9
102
}
330
3CB9
100
AcDbXrecord
280
     1
102
MATERIAL
148
0.0
149
0.0
149
0.0
 93
        0
 94
      127
282
     0
 72
     0
 77
     0
171
     0
175
     0
179
     0
273
     0
  0
XRECORD
  5
3CBB
102
{ACAD_REACTORS
330
3CB9
102
}
330
3CB9
100
AcDbXrecord
280
     1
270
     1
271
     1
  0
XRECORD
  5
3CBA
102
{ACAD_REACTORS
330
3CB9
102
}
330
3CB9
100
AcDbXrecord
280
     1
270
     1
271
     1
  0
XRECORD
  5
3CBE
102
{ACAD_REACTORS
330
3CB9
102
}
330
3CB9
100
AcDbXrecord
280
     1
270
     1
271
     1
  0
XRECORD
  5
3CBD
102
{ACAD_REACTORS
330
3CB9
102
}
330
3CB9
100
AcDbXrecord
280
     1
270
     1
271
     1
  0
XRECORD
  5
3CBF
102
{ACAD_REACTORS
330
3CB9
102
}
330
3CB9
100
AcDbXrecord
280
     1
270
     1
271
     1
  0
XRECORD
  5
3CBC
102
{ACAD_REACTORS
330
3CB9
102
}
330
3CB9
100
AcDbXrecord
280
     1
270
     1
271
     1
  0
XRECORD
  5
3D20
102
{ACAD_REACTORS
330
3CC9
102
}
330
3CC9
100
AcDbXrecord
280
     1
102
MATERIAL
148
0.0
149
0.0
149
0.0
 93
        0
 94
      127
282
     0
 72
     0
 77
     0
171
     0
175
     0
179
     0
273
     0
  0
XRECORD
  5
3CCB
102
{ACAD_REACTORS
330
3CC9
102
}
330
3CC9
100
AcDbXrecord
280
     1
270
     1
271
     1
  0
XRECORD
  5
3CCA
102
{ACAD_REACTORS
330
3CC9
102
}
330
3CC9
100
AcDbXrecord
280
     1
270
     1
271
     1
  0
XRECORD
  5
3CCE
102
{ACAD_REACTORS
330
3CC9
102
}
330
3CC9
100
AcDbXrecord
280
     1
270
     1
271
     1
  0
XRECORD
  5
3CCD
102
{ACAD_REACTORS
330
3CC9
102
}
330
3CC9
100
AcDbXrecord
280
     1
270
     1
271
     1
  0
XRECORD
  5
3CCF
102
{ACAD_REACTORS
330
3CC9
102
}
330
3CC9
100
AcDbXrecord
280
     1
270
     1
271
     1
  0
XRECORD
  5
3CCC
102
{ACAD_REACTORS
330
3CC9
102
}
330
3CC9
100
AcDbXrecord
280
     1
270
     1
271
     1
  0
CELLSTYLEMAP
  5
3D16
102
{ACAD_REACTORS
330
3D15
102
}
330
3D15
100
AcDbCellStyleMap
 90
        3
300
CELLSTYLE
  1
TABLEFORMAT_BEGIN
 90
        5
170
     1
 91
        0
 92
    32768
 62
   257
 93
        1
300
CONTENTFORMAT
  1
CONTENTFORMAT_BEGIN
 90
        0
 91
        0
 92
        4
 93
        0
300

 40
0.0
140
1.0
 94
        5
 62
     0
340
C
144
0.25
309
CONTENTFORMAT_END
171
     0
 94
        6
 95
        1
302
GRIDFORMAT
  1
GRIDFORMAT_BEGIN
 90
        0
 91
        1
 62
     0
 92
       -2
340
0
 93
        0
 40
0.045
309
GRIDFORMAT_END
 95
        2
302
GRIDFORMAT
  1
GRIDFORMAT_BEGIN
 90
        0
 91
        1
 62
     0
 92
       -2
340
0
 93
        0
 40
0.045
309
GRIDFORMAT_END
 95
        4
302
GRIDFORMAT
  1
GRIDFORMAT_BEGIN
 90
        0
 91
        1
 62
     0
 92
       -2
340
0
 93
        0
 40
0.045
309
GRIDFORMAT_END
 95
        8
302
GRIDFORMAT
  1
GRIDFORMAT_BEGIN
 90
        0
 91
        1
 62
     0
 92
       -2
340
0
 93
        0
 40
0.045
309
GRIDFORMAT_END
 95
       16
302
GRIDFORMAT
  1
GRIDFORMAT_BEGIN
 90
        0
 91
        1
 62
     0
 92
       -2
340
0
 93
        0
 40
0.045
309
GRIDFORMAT_END
 95
       32
302
GRIDFORMAT
  1
GRIDFORMAT_BEGIN
 90
        0
 91
        1
 62
     0
 92
       -2
340
0
 93
        0
 40
0.045
309
GRIDFORMAT_END
309
TABLEFORMAT_END
  1
CELLSTYLE_BEGIN
 90
        1
 91
        1
300
_TITLE
309
CELLSTYLE_END
300
CELLSTYLE
  1
TABLEFORMAT_BEGIN
 90
        5
170
     1
 91
        0
 92
        0
 62
   257
 93
        1
300
CONTENTFORMAT
  1
CONTENTFORMAT_BEGIN
 90
        0
 91
        0
 92
        4
 93
        0
300

 40
0.0
140
1.0
 94
        5
 62
     0
340
C
144
0.18
309
CONTENTFORMAT_END
171
     0
 94
        6
 95
        1
302
GRIDFORMAT
  1
GRIDFORMAT_BEGIN
 90
        0
 91
        1
 62
     0
 92
       -2
340
0
 93
        0
 40
0.045
309
GRIDFORMAT_END
 95
        2
302
GRIDFORMAT
  1
GRIDFORMAT_BEGIN
 90
        0
 91
        1
 62
     0
 92
       -2
340
0
 93
        0
 40
0.045
309
GRIDFORMAT_END
 95
        4
302
GRIDFORMAT
  1
GRIDFORMAT_BEGIN
 90
        0
 91
        1
 62
     0
 92
       -2
340
0
 93
        0
 40
0.045
309
GRIDFORMAT_END
 95
        8
302
GRIDFORMAT
  1
GRIDFORMAT_BEGIN
 90
        0
 91
        1
 62
     0
 92
       -2
340
0
 93
        0
 40
0.045
309
GRIDFORMAT_END
 95
       16
302
GRIDFORMAT
  1
GRIDFORMAT_BEGIN
 90
        0
 91
        1
 62
     0
 92
       -2
340
0
 93
        0
 40
0.045
309
GRIDFORMAT_END
 95
       32
302
GRIDFORMAT
  1
GRIDFORMAT_BEGIN
 90
        0
 91
        1
 62
     0
 92
       -2
340
0
 93
        0
 40
0.045
309
GRIDFORMAT_END
309
TABLEFORMAT_END
  1
CELLSTYLE_BEGIN
 90
        2
 91
        1
300
_HEADER
309
CELLSTYLE_END
300
CELLSTYLE
  1
TABLEFORMAT_BEGIN
 90
        5
170
     1
 91
        0
 92
        0
 62
   257
 93
        1
300
CONTENTFORMAT
  1
CONTENTFORMAT_BEGIN
 90
        0
 91
        0
 92
        4
 93
        0
300

 40
0.0
140
1.0
 94
        2
 62
     0
340
C
144
0.18
309
CONTENTFORMAT_END
171
     0
 94
        6
 95
        1
302
GRIDFORMAT
  1
GRIDFORMAT_BEGIN
 90
        0
 91
        1
 62
     0
 92
       -2
340
0
 93
        0
 40
0.045
309
GRIDFORMAT_END
 95
        2
302
GRIDFORMAT
  1
GRIDFORMAT_BEGIN
 90
        0
 91
        1
 62
     0
 92
       -2
340
0
 93
        0
 40
0.045
309
GRIDFORMAT_END
 95
        4
302
GRIDFORMAT
  1
GRIDFORMAT_BEGIN
 90
        0
 91
        1
 62
     0
 92
       -2
340
0
 93
        0
 40
0.045
309
GRIDFORMAT_END
 95
        8
302
GRIDFORMAT
  1
GRIDFORMAT_BEGIN
 90
        0
 91
        1
 62
     0
 92
       -2
340
0
 93
        0
 40
0.045
309
GRIDFORMAT_END
 95
       16
302
GRIDFORMAT
  1
GRIDFORMAT_BEGIN
 90
        0
 91
        1
 62
     0
 92
       -2
340
0
 93
        0
 40
0.045
309
GRIDFORMAT_END
 95
       32
302
GRIDFORMAT
  1
GRIDFORMAT_BEGIN
 90
        0
 91
        1
 62
     0
 92
       -2
340
0
 93
        0
 40
0.045
309
GRIDFORMAT_END
309
TABLEFORMAT_END
  1
CELLSTYLE_BEGIN
 90
        3
 91
        2
300
_DATA
309
CELLSTYLE_END
  0
XRECORD
  5
3D1D
102
{ACAD_REACTORS
330
3D15
102
}
330
3D15
100
AcDbXrecord
280
     1
102
ACAD_ROUNDTRIP_PRE2007_TABLESTYLE
 90
        4
 91
        0
  1

 92
        4
 93
        0
  2

 94
        4
 95
        0
  3

  0
ENDSEC
  0
EOF
