  0
SECTION
  2
HEADER
  9
$ACADVER
  1
AC1015
  9
$ACADMAINTVER
 70
    20
  9
$DWGCODEPAGE
  3
ANSI_932
  9
$INSBASE
 10
922.019522
 20
-675.4306699999999
 30
0.0
  9
$EXTMIN
 10
-68.69067711517982
 20
-0.0196229894738735
 30
-0.0015258207003583
  9
$EXTMAX
 10
183.0654946664237
 20
113.7060228378229
 30
0.0000000349246037
  9
$LIMMIN
 10
0.0
 20
0.0
  9
$LIMMAX
 10
420.0
 20
297.0
  9
$ORTHOMODE
 70
     1
  9
$REGENMODE
 70
     1
  9
$FILLMODE
 70
     1
  9
$QTEXTMODE
 70
     0
  9
$MIRRTEXT
 70
     1
  9
$LTSCALE
 40
1.0
  9
$ATTMODE
 70
     1
  9
$TEXTSIZE
 40
30.0
  9
$TRACEWID
 40
0.05
  9
$TEXTSTYLE
  7
SUNPOU
  9
$CLAYER
  8
0
  9
$CELTYPE
  6
BYLAYER
  9
$CECOLOR
 62
   256
  9
$CELTSCALE
 40
1.0
  9
$DISPSILH
 70
     0
  9
$DIMSCALE
 40
1.0
  9
$DIMASZ
 40
2.0
  9
$DIMEXO
 40
10.0
  9
$DIMDLI
 40
0.38
  9
$DIMRND
 40
0.0
  9
$DIMDLE
 40
0.0
  9
$DIMEXE
 40
0.0
  9
$DIMTP
 40
0.0
  9
$DIMTM
 40
0.0
  9
$DIMTXT
 40
10.0
  9
$DIMCEN
 40
0.0
  9
$DIMTSZ
 40
0.0
  9
$DIMTOL
 70
     0
  9
$DIMLIM
 70
     0
  9
$DIMTIH
 70
     0
  9
$DIMTOH
 70
     0
  9
$DIMSE1
 70
     0
  9
$DIMSE2
 70
     0
  9
$DIMTAD
 70
     1
  9
$DIMZIN
 70
     0
  9
$DIMBLK
  1
Dot
  9
$DIMASO
 70
     1
  9
$DIMSHO
 70
     1
  9
$DIMPOST
  1

  9
$DIMAPOST
  1

  9
$DIMALT
 70
     0
  9
$DIMALTD
 70
     2
  9
$DIMALTF
 40
25.4
  9
$DIMLFAC
 40
1.0
  9
$DIMTOFL
 70
     0
  9
$DIMTVP
 40
0.0
  9
$DIMTIX
 70
     0
  9
$DIMSOXD
 70
     0
  9
$DIMSAH
 70
     0
  9
$DIMBLK1
  1

  9
$DIMBLK2
  1

  9
$DIMSTYLE
  2
STANDARD
  9
$DIMCLRD
 70
    60
  9
$DIMCLRE
 70
    70
  9
$DIMCLRT
 70
    60
  9
$DIMTFAC
 40
0.064286
  9
$DIMGAP
 40
3.0
  9
$DIMJUST
 70
     0
  9
$DIMSD1
 70
     0
  9
$DIMSD2
 70
     0
  9
$DIMTOLJ
 70
     1
  9
$DIMTZIN
 70
     0
  9
$DIMALTZ
 70
     0
  9
$DIMALTTZ
 70
     0
  9
$DIMUPT
 70
     0
  9
$DIMDEC
 70
     0
  9
$DIMTDEC
 70
     0
  9
$DIMALTU
 70
     2
  9
$DIMALTTD
 70
     2
  9
$DIMTXSTY
  7
SUNPOU
  9
$DIMAUNIT
 70
     0
  9
$DIMADEC
 70
     0
  9
$DIMALTRND
 40
0.0
  9
$DIMAZIN
 70
     0
  9
$DIMDSEP
 70
    46
  9
$DIMATFIT
 70
     3
  9
$DIMFRAC
 70
     0
  9
$DIMLDRBLK
  1

  9
$DIMLUNIT
 70
     2
  9
$DIMLWD
 70
    -2
  9
$DIMLWE
 70
    -2
  9
$DIMTMOVE
 70
     0
  9
$LUNITS
 70
     2
  9
$LUPREC
 70
     5
  9
$SKETCHINC
 40
0.1
  9
$FILLETRAD
 40
2.0
  9
$AUNITS
 70
     0
  9
$AUPREC
 70
     0
  9
$MENU
  1
acad
  9
$ELEVATION
 40
0.0
  9
$PELEVATION
 40
0.0
  9
$THICKNESS
 40
0.0
  9
$LIMCHECK
 70
     0
  9
$CHAMFERA
 40
0.0
  9
$CHAMFERB
 40
0.0
  9
$CHAMFERC
 40
0.0
  9
$CHAMFERD
 40
0.0
  9
$SKPOLY
 70
     0
  9
$TDCREATE
 40
2450623.654673033
  9
$TDUCREATE
 40
2450623.279673032
  9
$TDUPDATE
 40
2454188.863008183
  9
$TDUUPDATE
 40
2454188.488008183
  9
$TDINDWG
 40
0.1673440278
  9
$TDUSRTIMER
 40
0.1673438542
  9
$USRTIMER
 70
     1
  9
$ANGBASE
 50
0.0
  9
$ANGDIR
 70
     0
  9
$PDMODE
 70
     0
  9
$PDSIZE
 40
0.0
  9
$PLINEWID
 40
0.0
  9
$SPLFRAME
 70
     0
  9
$SPLINETYPE
 70
     6
  9
$SPLINESEGS
 70
     8
  9
$HANDSEED
  5
30A8
  9
$SURFTAB1
 70
     6
  9
$SURFTAB2
 70
     6
  9
$SURFTYPE
 70
     6
  9
$SURFU
 70
     6
  9
$SURFV
 70
     6
  9
$UCSBASE
  2

  9
$UCSNAME
  2

  9
$UCSORG
 10
0.0
 20
0.0
 30
0.0
  9
$UCSXDIR
 10
1.0
 20
0.0
 30
0.0
  9
$UCSYDIR
 10
0.0
 20
1.0
 30
0.0
  9
$UCSORTHOREF
  2

  9
$UCSORTHOVIEW
 70
     0
  9
$UCSORGTOP
 10
0.0
 20
0.0
 30
0.0
  9
$UCSORGBOTTOM
 10
0.0
 20
0.0
 30
0.0
  9
$UCSORGLEFT
 10
0.0
 20
0.0
 30
0.0
  9
$UCSORGRIGHT
 10
0.0
 20
0.0
 30
0.0
  9
$UCSORGFRONT
 10
0.0
 20
0.0
 30
0.0
  9
$UCSORGBACK
 10
0.0
 20
0.0
 30
0.0
  9
$PUCSBASE
  2

  9
$PUCSNAME
  2

  9
$PUCSORG
 10
0.0
 20
0.0
 30
0.0
  9
$PUCSXDIR
 10
1.0
 20
0.0
 30
0.0
  9
$PUCSYDIR
 10
0.0
 20
1.0
 30
0.0
  9
$PUCSORTHOREF
  2

  9
$PUCSORTHOVIEW
 70
     0
  9
$PUCSORGTOP
 10
0.0
 20
0.0
 30
0.0
  9
$PUCSORGBOTTOM
 10
0.0
 20
0.0
 30
0.0
  9
$PUCSORGLEFT
 10
0.0
 20
0.0
 30
0.0
  9
$PUCSORGRIGHT
 10
0.0
 20
0.0
 30
0.0
  9
$PUCSORGFRONT
 10
0.0
 20
0.0
 30
0.0
  9
$PUCSORGBACK
 10
0.0
 20
0.0
 30
0.0
  9
$USERI1
 70
     0
  9
$USERI2
 70
     0
  9
$USERI3
 70
     0
  9
$USERI4
 70
     0
  9
$USERI5
 70
     0
  9
$USERR1
 40
0.0
  9
$USERR2
 40
0.0
  9
$USERR3
 40
0.0
  9
$USERR4
 40
0.0
  9
$USERR5
 40
0.0
  9
$WORLDVIEW
 70
     1
  9
$SHADEDGE
 70
     3
  9
$SHADEDIF
 70
    70
  9
$TILEMODE
 70
     1
  9
$MAXACTVP
 70
    16
  9
$PINSBASE
 10
0.0
 20
0.0
 30
0.0
  9
$PLIMCHECK
 70
     0
  9
$PEXTMIN
 10
1.000000000000000E+20
 20
1.000000000000000E+20
 30
1.000000000000000E+20
  9
$PEXTMAX
 10
-1.000000000000000E+20
 20
-1.000000000000000E+20
 30
-1.000000000000000E+20
  9
$PLIMMIN
 10
0.0
 20
0.0
  9
$PLIMMAX
 10
12.0
 20
9.0
  9
$UNITMODE
 70
     0
  9
$VISRETAIN
 70
     0
  9
$PLINEGEN
 70
     0
  9
$PSLTSCALE
 70
     1
  9
$TREEDEPTH
 70
  3020
  9
$CMLSTYLE
  2
STANDARD
  9
$CMLJUST
 70
     0
  9
$CMLSCALE
 40
1.0
  9
$PROXYGRAPHICS
 70
     1
  9
$MEASUREMENT
 70
     0
  9
$CELWEIGHT
370
    -1
  9
$ENDCAPS
280
     0
  9
$JOINSTYLE
280
     0
  9
$LWDISPLAY
290
     0
  9
$INSUNITS
 70
     0
  9
$HYPERLINKBASE
  1

  9
$STYLESHEET
  1
monochrome.ctb
  9
$XEDIT
290
     1
  9
$CEPSNTYPE
380
     0
  9
$PSTYLEMODE
290
     1
  9
$FINGERPRINTGUID
  2
{FB88A696-E29C-4009-92AF-A3599A8169D5}
  9
$VERSIONGUID
  2
{8330AB3A-1995-4A7A-AD94-61FF52CC8B46}
  9
$EXTNAMES
290
     1
  9
$PSVPSCALE
 40
0.0
  9
$OLESTARTUP
290
     0
  0
ENDSEC
  0
SECTION
  2
CLASSES
  0
CLASS
  1
DICTIONARYVAR
  2
AcDbDictionaryVar
  3
ObjectDBX Classes
 90
        0
280
     0
281
     0
  0
CLASS
  1
ACDBDICTIONARYWDFLT
  2
AcDbDictionaryWithDefault
  3
ObjectDBX Classes
 90
        0
280
     0
281
     0
  0
CLASS
  1
ACDBPLACEHOLDER
  2
AcDbPlaceHolder
  3
ObjectDBX Classes
 90
        0
280
     0
281
     0
  0
CLASS
  1
LAYOUT
  2
AcDbLayout
  3
ObjectDBX Classes
 90
        0
280
     0
281
     0
  0
CLASS
  1
TABLESTYLE
  2
AcDbTableStyle
  3
ObjectDBX Classes
 90
     2047
280
     0
281
     0
  0
CLASS
  1
SORTENTSTABLE
  2
AcDbSortentsTable
  3
ObjectDBX Classes
 90
        0
280
     0
281
     0
  0
ENDSEC
  0
SECTION
  2
TABLES
  0
TABLE
  2
VPORT
  5
12
330
0
100
AcDbSymbolTable
 70
    11
  0
VPORT
  5
30A2
330
12
100
AcDbSymbolTableRecord
100
AcDbViewportTableRecord
  2
*Active
 70
     0
 10
0.0
 20
0.0
 11
1.0
 21
1.0
 12
57.18740877562197
 22
56.84319992417454
 13
0.0
 23
0.0
 14
1.0
 24
1.0
 15
0.0
 25
0.0
 16
0.0
 26
0.0
 36
1.0
 17
0.0
 27
0.0
 37
0.0
 40
159.9392043559033
 41
1.581818181818181
 42
50.0
 43
0.0
 44
0.0
 50
0.0
 51
0.0
 71
     0
 72
 20000
 73
     1
 74
     1
 75
     0
 76
     0
 77
     0
 78
     0
281
     0
 65
     1
110
0.0
120
0.0
130
0.0
111
1.0
121
0.0
131
0.0
112
0.0
122
1.0
132
0.0
 79
     0
146
0.0
  0
ENDTAB
  0
TABLE
  2
LTYPE
  5
D
330
0
100
AcDbSymbolTable
 70
     2
  0
LTYPE
  5
E
330
D
100
AcDbSymbolTableRecord
100
AcDbLinetypeTableRecord
  2
BYBLOCK
 70
     0
  3

 72
    65
 73
     0
 40
0.0
  0
LTYPE
  5
F
330
D
100
AcDbSymbolTableRecord
100
AcDbLinetypeTableRecord
  2
BYLAYER
 70
     0
  3

 72
    65
 73
     0
 40
0.0
  0
LTYPE
  5
5
330
D
100
AcDbSymbolTableRecord
100
AcDbLinetypeTableRecord
  2
CONTINUOUS
 70
     0
  3
Solid line
 72
    65
 73
     0
 40
0.0
  0
ENDTAB
  0
TABLE
  2
LAYER
  5
A
102
{ACAD_XDICTIONARY
360
1B4
102
}
330
0
100
AcDbSymbolTable
 70
     6
  0
LAYER
  5
4
330
A
100
AcDbSymbolTableRecord
100
AcDbLayerTableRecord
  2
0
 70
     0
 62
     7
  6
CONTINUOUS
370
    -3
390
57
  0
LAYER
  5
25
330
A
100
AcDbSymbolTableRecord
100
AcDbLayerTableRecord
  2
KIJUN
 70
     0
 62
     7
  6
CONTINUOUS
370
    -3
390
57
  0
LAYER
  5
22
330
A
100
AcDbSymbolTableRecord
100
AcDbLayerTableRecord
  2
HOJO
 70
     0
 62
     3
  6
CONTINUOUS
370
    -3
390
57
  0
LAYER
  5
1B
330
A
100
AcDbSymbolTableRecord
100
AcDbLayerTableRecord
  2
WAKU
 70
     0
 62
     1
  6
CONTINUOUS
370
    -3
390
57
  0
LAYER
  5
31
330
A
100
AcDbSymbolTableRecord
100
AcDbLayerTableRecord
  2
DEFPOINTS
 70
     0
 62
     7
  6
CONTINUOUS
290
     0
370
    -3
390
57
  0
LAYER
  5
28
330
A
100
AcDbSymbolTableRecord
100
AcDbLayerTableRecord
  2
SUNPOU
 70
     0
 62
    70
  6
CONTINUOUS
370
    -3
390
57
  0
ENDTAB
  0
TABLE
  2
STYLE
  5
B
330
0
100
AcDbSymbolTable
 70
     5
  0
STYLE
  5
C
330
B
100
AcDbSymbolTableRecord
100
AcDbTextStyleTableRecord
  2
STANDARD
 70
     0
 40
0.0
 41
1.0
 50
0.0
 71
     0
 42
0.2
  3
txt
  4

  0
STYLE
  5
1C
330
B
100
AcDbSymbolTableRecord
100
AcDbTextStyleTableRecord
  2
SUNPOU
 70
     0
 40
0.0
 41
1.0
 50
0.0
 71
     0
 42
30.0
  3
txt
  4
bigfont
  0
ENDTAB
  0
TABLE
  2
VIEW
  5
10
330
0
100
AcDbSymbolTable
 70
     0
  0
ENDTAB
  0
TABLE
  2
UCS
  5
11
330
0
100
AcDbSymbolTable
 70
     0
  0
ENDTAB
  0
TABLE
  2
APPID
  5
14
330
0
100
AcDbSymbolTable
 70
    11
  0
APPID
  5
15
330
14
100
AcDbSymbolTableRecord
100
AcDbRegAppTableRecord
  2
ACAD
 70
     0
  0
APPID
  5
1D3
330
14
100
AcDbSymbolTableRecord
100
AcDbRegAppTableRecord
  2
ACAD_DSTYLE_DIMTEXT_FILL
 70
     0
  0
APPID
  5
1D4
330
14
100
AcDbSymbolTableRecord
100
AcDbRegAppTableRecord
  2
ACAD_DSTYLE_DIMEXT_LENGTH
 70
     0
  0
APPID
  5
1D5
330
14
100
AcDbSymbolTableRecord
100
AcDbRegAppTableRecord
  2
ACAD_DSTYLE_DIMEXT_ENABLED
 70
     0
  0
APPID
  5
1D6
330
14
100
AcDbSymbolTableRecord
100
AcDbRegAppTableRecord
  2
ACAD_DSTYLE_DIM_LINETYPE
 70
     0
  0
APPID
  5
1D7
330
14
100
AcDbSymbolTableRecord
100
AcDbRegAppTableRecord
  2
ACAD_DSTYLE_DIM_EXT1_LINETYPE
 70
     0
  0
APPID
  5
1D8
330
14
100
AcDbSymbolTableRecord
100
AcDbRegAppTableRecord
  2
ACAD_DSTYLE_DIM_EXT2_LINETYPE
 70
     0
  0
APPID
  5
294
330
14
100
AcDbSymbolTableRecord
100
AcDbRegAppTableRecord
  2
ACAD_DSTYLE_DIMJOGGED_JOGANGLE_SYMBOL
 70
     0
  0
APPID
  5
478
330
14
100
AcDbSymbolTableRecord
100
AcDbRegAppTableRecord
  2
ACAD_DSTYLE_DIMARC_LENGTH_SYMBOL
 70
     0
  0
APPID
  5
157B
330
14
100
AcDbSymbolTableRecord
100
AcDbRegAppTableRecord
  2
ACAD_EXEMPT_FROM_CAD_STANDARDS
 70
     0
  0
APPID
  5
2F1F
330
14
100
AcDbSymbolTableRecord
100
AcDbRegAppTableRecord
  2
ACAD_PSEXT
 70
     0
  0
ENDTAB
  0
TABLE
  2
DIMSTYLE
  5
16
330
0
100
AcDbSymbolTable
 70
     4
100
AcDbDimStyleTable
 71
     1
340
1E
  0
DIMSTYLE
105
1E
102
{ACAD_REACTORS
330
2E05
330
2E12
102
}
330
16
100
AcDbSymbolTableRecord
100
AcDbDimStyleTableRecord
  2
STANDARD
 70
     0
340
C
  0
ENDTAB
  0
TABLE
  2
BLOCK_RECORD
  5
1
330
0
100
AcDbSymbolTable
 70
    58
  0
BLOCK_RECORD
  5
2
102
{ACAD_XDICTIONARY
360
1578
102
}
330
1
100
AcDbSymbolTableRecord
100
AcDbBlockTableRecord
  2
*MODEL_SPACE
340
5A
  0
BLOCK_RECORD
  5
7
330
1
100
AcDbSymbolTableRecord
100
AcDbBlockTableRecord
  2
*PAPER_SPACE
340
5B
  0
BLOCK_RECORD
  5
109
330
1
100
AcDbSymbolTableRecord
100
AcDbBlockTableRecord
  2
_Dot
340
0
102
{BLKREFS
331
CF6
331
CF7
331
15B9
331
15BA
331
15CB
331
15CC
331
1664
331
1665
331
1686
331
1687
331
1818
331
1819
331
1821
331
1822
331
18DE
331
18DF
331
18E7
331
18E8
331
19C4
331
19C5
331
19DF
331
19E0
331
1F7B
331
1F7C
331
1F84
331
1F85
331
20F9
331
20FA
331
2102
331
2103
331
2165
331
2166
331
2172
331
2173
331
2314
331
2315
331
2326
331
2327
331
232F
331
2330
331
2834
331
2835
331
2848
331
2849
331
298C
331
298D
331
2995
331
2996
331
2BF8
331
2BF9
331
2C01
331
2C02
331
2DA5
331
2DA6
331
2DAE
331
2DAF
331
2EAB
331
2EAC
331
308D
331
308E
331
3096
331
3097
102
}
  0
BLOCK_RECORD
  5
2E06
330
1
100
AcDbSymbolTableRecord
100
AcDbBlockTableRecord
  2
*D52
340
0
  0
BLOCK_RECORD
  5
2E13
330
1
100
AcDbSymbolTableRecord
100
AcDbBlockTableRecord
  2
*D53
340
0
  0
ENDTAB
  0
ENDSEC
  0
SECTION
  2
BLOCKS
  0
BLOCK
  5
3
330
2
100
AcDbEntity
  8
0
100
AcDbBlockBegin
  2
*MODEL_SPACE
 70
     0
 10
0.0
 20
0.0
 30
0.0
  3
*MODEL_SPACE
  1

  0
ENDBLK
  5
6
330
2
100
AcDbEntity
  8
0
100
AcDbBlockEnd
  0
BLOCK
  5
8
330
7
100
AcDbEntity
 67
     1
  8
0
100
AcDbBlockBegin
  2
*PAPER_SPACE
 70
     0
 10
0.0
 20
0.0
 30
0.0
  3
*PAPER_SPACE
  1

  0
ENDBLK
  5
9
330
7
100
AcDbEntity
 67
     1
  8
0
100
AcDbBlockEnd
  0
BLOCK
  5
10C
330
109
100
AcDbEntity
  8
0
100
AcDbBlockBegin
  2
_Dot
 70
     0
 10
0.0
 20
0.0
 30
0.0
  3
_Dot
  1

  0
LWPOLYLINE
  5
10A
330
109
100
AcDbEntity
  8
0
  6
ByBlock
 62
     0
100
AcDbPolyline
 90
        2
 70
     1
 43
0.5
 10
-0.25
 20
0.0
 42
1.0
 10
0.25
 20
0.0
 42
1.0
  0
LINE
  5
10B
330
109
100
AcDbEntity
  8
0
  6
ByBlock
 62
     0
370
    -2
100
AcDbLine
 10
-0.5
 20
0.0
 30
0.0
 11
-1.0
 21
0.0
 31
0.0
  0
ENDBLK
  5
10D
330
109
100
AcDbEntity
  8
0
100
AcDbBlockEnd
  0
BLOCK
  5
2E10
330
2E06
100
AcDbEntity
  8
0
100
AcDbBlockBegin
  2
*D52
 70
     1
 10
0.0
 20
0.0
 30
0.0
  3
*D52
  1

  0
LINE
  5
308A
330
2E06
100
AcDbEntity
  8
SUNPOU
 62
    70
370
    -2
100
AcDbLine
 10
-25.95586963159915
 20
79.27228638671613
 30
0.0
 11
-25.95586963159915
 21
100.7014922286896
 31
0.0
  0
LINE
  5
308B
330
2E06
100
AcDbEntity
  8
SUNPOU
 62
    70
370
    -2
100
AcDbLine
 10
182.0441303684008
 20
79.39751031616356
 30
0.0
 11
182.0441303684008
 21
100.7014922286896
 31
0.0
  0
LINE
  5
308C
330
2E06
100
AcDbEntity
  8
SUNPOU
 62
    60
370
    -2
100
AcDbLine
 10
-23.95586963159915
 20
100.7014922286896
 30
0.0
 11
180.0441303684008
 21
100.7014922286896
 31
0.0
  0
INSERT
  5
308D
330
2E06
100
AcDbEntity
  8
SUNPOU
 62
    60
370
    -2
100
AcDbBlockReference
  2
_Dot
 10
-25.95586963159915
 20
100.7014922286896
 30
0.0
 41
2.0
 42
2.0
 43
2.0
 50
180.0
  0
INSERT
  5
308E
330
2E06
100
AcDbEntity
  8
SUNPOU
 62
    60
370
    -2
100
AcDbBlockReference
  2
_Dot
 10
182.0441303684008
 20
100.7014922286896
 30
0.0
 41
2.0
 42
2.0
 43
2.0
  0
MTEXT
  5
308F
330
2E06
100
AcDbEntity
  8
SUNPOU
 62
    60
100
AcDbMText
 10
78.04413036840083
 20
108.7014922286896
 30
0.0
 40
10.0
 41
0.0
 71
     5
 72
     1
  1
\A1;208
  7
SUNPOU
 73
     1
 44
1.0
1001
ACAD
1000
MTEXTBEGIN
1070
    73
1070
     1
1070
    44
1040
1.0
1070
    74
1070
     0
1000
MTEXTEND
  0
POINT
  5
3090
330
2E06
100
AcDbEntity
  8
DEFPOINTS
 62
     0
100
AcDbPoint
 10
-25.95586963159915
 20
74.27228638671613
 30
0.0
  0
POINT
  5
3091
330
2E06
100
AcDbEntity
  8
DEFPOINTS
 62
     0
100
AcDbPoint
 10
182.0441303684008
 20
74.39751031616356
 30
0.0
  0
POINT
  5
3092
330
2E06
100
AcDbEntity
  8
DEFPOINTS
 62
     0
100
AcDbPoint
 10
182.0441303684008
 20
100.7014922286896
 30
0.0
  0
ENDBLK
  5
2E11
330
2E06
100
AcDbEntity
  8
0
100
AcDbBlockEnd
  0
BLOCK
  5
2E1D
330
2E13
100
AcDbEntity
  8
0
100
AcDbBlockBegin
  2
*D53
 70
     1
 10
0.0
 20
0.0
 30
0.0
  3
*D53
  1

  0
LINE
  5
3093
330
2E13
100
AcDbEntity
  8
SUNPOU
 62
    70
370
    -2
100
AcDbLine
 10
-30.95586963159916
 20
74.37666249263083
 30
0.0
 11
-55.6525794295269
 21
74.37666249263084
 31
0.0
  0
LINE
  5
3094
330
2E13
100
AcDbEntity
  8
SUNPOU
 62
    70
370
    -2
100
AcDbLine
 10
-30.97167390414234
 20
37.37666249263094
 30
0.0
 11
-55.6525794295269
 21
37.37666249263095
 31
0.0
  0
LINE
  5
3095
330
2E13
100
AcDbEntity
  8
SUNPOU
 62
    60
370
    -2
100
AcDbLine
 10
-55.6525794295269
 20
72.37666249263084
 30
0.0
 11
-55.6525794295269
 21
39.37666249263095
 31
0.0
  0
INSERT
  5
3096
330
2E13
100
AcDbEntity
  8
SUNPOU
 62
    60
370
    -2
100
AcDbBlockReference
  2
_Dot
 10
-55.6525794295269
 20
74.37666249263084
 30
0.0
 41
2.0
 42
2.0
 43
2.0
 50
90.0
  0
INSERT
  5
3097
330
2E13
100
AcDbEntity
  8
SUNPOU
 62
    60
370
    -2
100
AcDbBlockReference
  2
_Dot
 10
-55.6525794295269
 20
37.37666249263095
 30
0.0
 41
2.0
 42
2.0
 43
2.0
 50
270.0
  0
MTEXT
  5
3098
330
2E13
100
AcDbEntity
  8
SUNPOU
 62
    60
100
AcDbMText
 10
-63.65257942952691
 20
55.87666249263089
 30
0.0
 40
10.0
 41
0.0
 71
     5
 72
     1
  1
\A1;37
  7
SUNPOU
 11
0.0000000000000001
 21
1.0
 31
0.0
 73
     1
 44
1.0
1001
ACAD
1000
MTEXTBEGIN
1070
    73
1070
     1
1070
    44
1040
1.0
1070
    74
1070
     0
1000
MTEXTEND
  0
POINT
  5
3099
330
2E13
100
AcDbEntity
  8
DEFPOINTS
 62
     0
100
AcDbPoint
 10
-25.95586963159916
 20
74.37666249263083
 30
0.0
  0
POINT
  5
309A
330
2E13
100
AcDbEntity
  8
DEFPOINTS
 62
     0
100
AcDbPoint
 10
-25.97167390414234
 20
37.37666249263094
 30
0.0
  0
POINT
  5
309B
330
2E13
100
AcDbEntity
  8
DEFPOINTS
 62
     0
100
AcDbPoint
 10
-55.6525794295269
 20
37.37666249263095
 30
0.0
  0
ENDBLK
  5
2E1E
330
2E13
100
AcDbEntity
  8
0
100
AcDbBlockEnd
  0
ENDSEC
  0
SECTION
  2
ENTITIES
  0
LINE
  5
1F
330
2
100
AcDbEntity
  8
WAKU
100
AcDbLine
 10
0.0
 20
14.0
 30
0.0
 11
147.8933597240585
 21
13.99999999999999
 31
0.0
  0
LINE
  5
20
330
2
100
AcDbEntity
  8
WAKU
100
AcDbLine
 10
0.0
 20
0.0
 30
0.0
 11
147.8933597240585
 21
0.0
 31
0.0
  0
TEXT
  5
21
330
2
100
AcDbEntity
  8
HOJO
100
AcDbText
 10
9.653966000000025
 20
2.366626000000024
 30
0.0
 40
9.0
  1
TWC264
  7
SUNPOU
100
AcDbText
  0
TEXT
  5
23
330
2
100
AcDbEntity
  8
HOJO
100
AcDbText
 10
85.84696046283864
 20
5.044386000000031
 30
0.0
 40
6.0
  1
208×37×5
  7
SUNPOU
100
AcDbText
  0
DIMENSION
  5
2E05
330
2
100
AcDbEntity
  8
SUNPOU
100
AcDbDimension
  2
*D52
 10
182.0441303684008
 20
100.7014922286896
 30
0.0
 11
78.04413036840083
 21
108.7014922286896
 31
0.0
 70
    32
 71
     5
 42
208.0
  3
STANDARD
100
AcDbAlignedDimension
 13
-25.95586963159915
 23
74.27228638671613
 33
0.0
 14
182.0441303684008
 24
74.39751031616356
 34
0.0
100
AcDbRotatedDimension
1001
ACAD
1000
DSTYLE
1002
{
1070
    78
1070
     8
1070
    41
1040
2.0
1070
    42
1040
5.0
1070
    44
1040
0.0
1070
    73
1070
     0
1070
    74
1070
     0
1070
    77
1070
     1
1070
   140
1040
10.0
1070
   141
1040
0.0
1070
   146
1040
0.064286
1070
   147
1040
3.0
1070
   176
1070
    60
1070
   177
1070
    70
1070
   178
1070
    60
1070
   271
1070
     6
1070
   272
1070
     0
1070
   340
1005
1C
1070
   342
1005
109
1002
}
  0
DIMENSION
  5
2E12
330
2
100
AcDbEntity
  8
SUNPOU
100
AcDbDimension
  2
*D53
 10
-55.6525794295269
 20
37.37666249263095
 30
0.0
 11
-63.65257942952691
 21
55.87666249263089
 31
0.0
 70
    32
 71
     5
 42
36.99999999999989
  3
STANDARD
100
AcDbAlignedDimension
 13
-25.95586963159916
 23
74.37666249263083
 33
0.0
 14
-25.97167390414234
 24
37.37666249263094
 34
0.0
 50
90.0
100
AcDbRotatedDimension
1001
ACAD
1000
DSTYLE
1002
{
1070
    78
1070
     8
1070
    41
1040
2.0
1070
    42
1040
5.0
1070
    44
1040
0.0
1070
    73
1070
     0
1070
    74
1070
     0
1070
    77
1070
     1
1070
   140
1040
10.0
1070
   141
1040
0.0
1070
   146
1040
0.064286
1070
   147
1040
3.0
1070
   176
1070
    60
1070
   177
1070
    70
1070
   178
1070
    60
1070
   271
1070
     6
1070
   272
1070
     0
1070
   340
1005
1C
1070
   342
1005
109
1002
}
  0
ARC
  5
2EB5
102
{ACAD_REACTORS
330
2FF8
102
}
330
2
100
AcDbEntity
  8
KIJUN
100
AcDbCircle
 10
75.44149392701291
 20
66.58873958521609
 30
0.0
 40
8.211300728744259
100
AcDbArc
 50
32.47571307110535
 51
71.52095045947863
  0
ARC
  5
2EB6
102
{ACAD_REACTORS
330
2FF8
102
}
330
2
100
AcDbEntity
  8
KIJUN
100
AcDbCircle
 10
88.82887687888899
 20
60.58092452178667
 30
0.0
 40
7.77629858837679
100
AcDbArc
 50
257.2410931373104
 51
107.6566191417897
  0
ARC
  5
2EBE
102
{ACAD_REACTORS
330
2FF8
102
}
330
2
100
AcDbEntity
  8
KIJUN
100
AcDbCircle
 10
79.24473909991775
 20
69.47747232784739
 30
0.0
 40
7.376835782934201
100
AcDbArc
 50
348.374143131401
 51
3.295265801861597
  0
ARC
  5
2EC1
102
{ACAD_REACTORS
330
2FF8
102
}
330
2
100
AcDbEntity
  8
KIJUN
100
AcDbCircle
 10
88.86663443701497
 20
60.81435721468301
 30
0.0
 40
12.07990995903412
100
AcDbArc
 50
115.7985566527025
 51
122.5416217505601
  0
ARC
  5
2EC4
102
{ACAD_REACTORS
330
2FF8
102
}
330
2
100
AcDbEntity
  8
KIJUN
100
AcDbCircle
 10
84.50900325078448
 20
69.78897819656959
 30
0.0
 40
2.103386635042821
100
AcDbArc
 50
3.066646557850432
 51
115.322554585088
  0
ARC
  5
2EC5
102
{ACAD_REACTORS
330
2FF8
102
}
330
2
100
AcDbEntity
  8
KIJUN
100
AcDbCircle
 10
93.281806928202
 20
55.75037570455648
 30
0.0
 40
6.756914738925911
100
AcDbArc
 50
204.0506212009597
 51
295.3009978476386
  0
ARC
  5
2EC6
102
{ACAD_REACTORS
330
2FF8
102
}
330
2
100
AcDbEntity
  8
KIJUN
100
AcDbCircle
 10
87.43912614929973
 20
72.28913931700164
 30
0.0
 40
24.27200598499077
100
AcDbArc
 50
291.0811843387252
 51
324.6923526261501
  0
ARC
  5
2EC7
102
{ACAD_REACTORS
330
2FF8
102
}
330
2
100
AcDbEntity
  8
KIJUN
100
AcDbCircle
 10
119.7690165066823
 20
64.54207112380797
 30
0.0
 40
4.168713611019173
100
AcDbArc
 50
9.612619042690505
 51
119.3472002819361
  0
ARC
  5
2EC8
102
{ACAD_REACTORS
330
2FF8
102
}
330
2
100
AcDbEntity
  8
KIJUN
100
AcDbCircle
 10
132.5722895215526
 20
41.98902335093182
 30
0.0
 40
30.10251743664027
100
AcDbArc
 50
119.5506904729201
 51
147.2793816561976
  0
ARC
  5
2EC9
102
{ACAD_REACTORS
330
2FF8
102
}
330
2
100
AcDbEntity
  8
KIJUN
100
AcDbCircle
 10
142.7242262140386
 20
50.37666249263089
 30
0.0
 40
24.0
100
AcDbArc
 50
78.51409508100417
 51
141.7400579200468
  0
ARC
  5
2ECB
102
{ACAD_REACTORS
330
2FF8
102
}
330
2
100
AcDbEntity
  8
KIJUN
100
AcDbCircle
 10
136.8955523927722
 20
70.79276083091679
 30
0.0
 40
12.27328377947557
100
AcDbArc
 50
352.192688149882
 51
6.389738541185573
  0
ARC
  5
2ECE
102
{ACAD_REACTORS
330
2FF8
102
}
330
2
100
AcDbEntity
  8
KIJUN
100
AcDbCircle
 10
154.9709640482316
 20
55.37670971159295
 30
0.0
 40
14.96756372237619
100
AcDbArc
 50
68.83670079216869
 51
113.2814224744479
  0
ARC
  5
2ECF
102
{ACAD_REACTORS
330
2FF8
102
}
330
2
100
AcDbEntity
  8
KIJUN
100
AcDbCircle
 10
165.4454204033305
 20
65.08900371374345
 30
0.0
 40
3.018113614016828
100
AcDbArc
 50
347.46749216184
 51
83.01367793762114
  0
ARC
  5
2ED0
102
{ACAD_REACTORS
330
2FF8
102
}
330
2
100
AcDbEntity
  8
KIJUN
100
AcDbCircle
 10
168.7123388789201
 20
93.15131581063647
 30
0.0
 40
25.23378187324063
100
AcDbArc
 50
250.7058996971279
 51
263.401099201062
  0
ARC
  5
2ED1
102
{ACAD_REACTORS
330
2FF8
102
}
330
2
100
AcDbEntity
  8
KIJUN
100
AcDbCircle
 10
160.7958121012921
 20
66.23270893400622
 30
0.0
 40
7.80585305659222
100
AcDbArc
 50
321.8714056457531
 51
346.6782632636339
  0
ARC
  5
2ED2
102
{ACAD_REACTORS
330
2FF8
102
}
330
2
100
AcDbEntity
  8
KIJUN
100
AcDbCircle
 10
172.0643459161528
 20
46.25213909532749
 30
0.0
 40
9.979784452247976
100
AcDbArc
 50
305.4835637892696
 51
22.71684762500451
  0
ARC
  5
2ED3
102
{ACAD_REACTORS
330
2FF8
102
}
330
2
100
AcDbEntity
  8
KIJUN
100
AcDbCircle
 10
158.3264911411049
 20
39.43246896908561
 30
0.0
 40
25.30471412184002
100
AcDbArc
 50
24.94855065558655
 51
47.3936864167836
  0
ARC
  5
2ED4
102
{ACAD_REACTORS
330
2FF8
102
}
330
2
100
AcDbEntity
  8
KIJUN
100
AcDbCircle
 10
76.64147402161285
 20
42.90862840090788
 30
0.0
 40
5.707021257847515
100
AcDbArc
 50
284.2277751202026
 51
352.6228977977049
  0
ARC
  5
2ED5
102
{ACAD_REACTORS
330
2FF8
102
}
330
2
100
AcDbEntity
  8
KIJUN
100
AcDbCircle
 10
85.88211319509571
 20
46.81662382201705
 30
0.0
 40
5.86168170405857
100
AcDbArc
 50
232.3459344980232
 51
297.4421202568694
  0
ARC
  5
2ED6
102
{ACAD_REACTORS
330
2FF8
102
}
330
2
100
AcDbEntity
  8
KIJUN
100
AcDbCircle
 10
101.7274179998632
 20
72.45631962140199
 30
0.0
 40
33.52580818564225
100
AcDbArc
 50
246.9176194334945
 51
271.6233165858214
  0
ARC
  5
2ED7
102
{ACAD_REACTORS
330
2FF8
102
}
330
2
100
AcDbEntity
  8
KIJUN
100
AcDbCircle
 10
162.4990314431346
 20
42.53642593471243
 30
0.0
 40
9.535892016527702
100
AcDbArc
 50
9.810933973356304
 51
86.49757376846565
  0
ARC
  5
2ED8
102
{ACAD_REACTORS
330
2FF8
102
}
330
2
100
AcDbEntity
  8
KIJUN
100
AcDbCircle
 10
158.4285656180304
 20
-14.33248725402664
 30
0.0
 40
66.54985802163603
100
AcDbArc
 50
85.99073277395769
 51
116.1496859851315
  0
ARC
  5
2EDA
102
{ACAD_REACTORS
330
2FF8
102
}
330
2
100
AcDbEntity
  8
KIJUN
100
AcDbCircle
 10
101.8186466253481
 20
99.7036781480441
 30
0.0
 40
60.76577660672039
100
AcDbArc
 50
270.809507321435
 51
296.6757241736582
  0
ARC
  5
2EDB
102
{ACAD_REACTORS
330
2FF8
102
}
330
2
100
AcDbEntity
  8
KIJUN
100
AcDbCircle
 10
110.1378849587657
 20
52.56726313021125
 30
0.0
 40
33.32881021610447
100
AcDbArc
 50
146.4276788000161
 51
164.3533518626865
  0
ARC
  5
2EDC
102
{ACAD_REACTORS
330
2FF8
102
}
330
2
100
AcDbEntity
  8
KIJUN
100
AcDbCircle
 10
92.10202923414982
 20
57.71563921918184
 30
0.0
 40
11.71742042822277
100
AcDbArc
 50
118.7268393198369
 51
180.0192219784801
  0
ARC
  5
2EDD
102
{ACAD_REACTORS
330
2FF8
102
}
330
2
100
AcDbEntity
  8
KIJUN
100
AcDbCircle
 10
100.322485538982
 20
57.73019454873824
 30
0.0
 40
19.93788464391451
100
AcDbArc
 50
180.0531245477026
 51
233.9296079614256
  0
ARC
  5
2EDE
102
{ACAD_REACTORS
330
2FF8
102
}
330
2
100
AcDbEntity
  8
KIJUN
100
AcDbCircle
 10
118.6322677671308
 20
63.52049286521334
 30
0.0
 40
42.13711156855355
100
AcDbArc
 50
195.5835642469332
 51
210.4344377213074
  0
ARC
  5
2EDF
102
{ACAD_REACTORS
330
2FF8
102
}
330
2
100
AcDbEntity
  8
KIJUN
100
AcDbCircle
 10
88.58900599767332
 20
57.98556739631002
 30
0.0
 40
3.871203770166793
100
AcDbArc
 50
58.81305454297234
 51
173.695309783592
  0
ARC
  5
2EE0
102
{ACAD_REACTORS
330
2FF8
102
}
330
2
100
AcDbEntity
  8
KIJUN
100
AcDbCircle
 10
90.75786195828465
 20
57.81890009517951
 30
0.0
 40
6.045680013581146
100
AcDbArc
 50
174.3825622207228
 51
232.9050998934234
  0
ARC
  5
2EE1
102
{ACAD_REACTORS
330
2FF8
102
}
330
2
100
AcDbEntity
  8
KIJUN
100
AcDbCircle
 10
100.1802919391251
 20
69.38175365887366
 30
0.0
 40
24.05841448037546
100
AcDbArc
 50
278.4203849474435
 51
350.0825339333234
  0
ARC
  5
2EE2
102
{ACAD_REACTORS
330
2FF8
102
}
330
2
100
AcDbEntity
  8
KIJUN
100
AcDbCircle
 10
138.4950087261202
 20
74.6597326865015
 30
0.0
 40
11.92234197293683
100
AcDbArc
 50
303.8067792018379
 51
332.3423638875357
  0
ARC
  5
2EE3
102
{ACAD_REACTORS
330
2FF8
102
}
330
2
100
AcDbEntity
  8
KIJUN
100
AcDbCircle
 10
177.5823616046872
 20
9.385892121438565
 30
0.0
 40
64.17783239381141
100
AcDbArc
 50
120.3769040457139
 51
137.2654962884369
  0
ARC
  5
2EE4
102
{ACAD_REACTORS
330
2FF8
102
}
330
2
100
AcDbEntity
  8
KIJUN
100
AcDbCircle
 10
153.6143767587437
 20
94.19410224633669
 30
0.0
 40
35.38444789024298
100
AcDbArc
 50
273.0336680650669
 51
292.1161528439585
  0
ARC
  5
2EE5
102
{ACAD_REACTORS
330
2FF8
102
}
330
2
100
AcDbEntity
  8
KIJUN
100
AcDbCircle
 10
156.9260305688698
 20
25.69138843470658
 30
0.0
 40
33.19905496696178
100
AcDbArc
 50
92.48426061942904
 51
122.5108901652045
  0
ARC
  5
2EE6
102
{ACAD_REACTORS
330
2FF8
102
}
330
2
100
AcDbEntity
  8
KIJUN
100
AcDbCircle
 10
85.31833390408781
 20
80.15554827075929
 30
0.0
 40
35.38798595564341
100
AcDbArc
 50
290.4249851722594
 51
330.5802760391402
  0
ARC
  5
2EE7
102
{ACAD_REACTORS
330
2FF8
102
}
330
2
100
AcDbEntity
  8
KIJUN
100
AcDbCircle
 10
150.6585964218288
 20
45.13441199229795
 30
0.0
 40
26.12397292445864
100
AcDbArc
 50
111.1857711065717
 51
152.1363267709625
  0
ARC
  5
2EE8
102
{ACAD_REACTORS
330
2FF8
102
}
330
2
100
AcDbEntity
  8
KIJUN
100
AcDbCircle
 10
107.4397951618011
 20
68.381584259293
 30
0.0
 40
22.95186103767762
100
AcDbArc
 50
291.824172019629
 51
331.2555820819487
  0
ARC
  5
2EE9
102
{ACAD_REACTORS
330
2FF8
102
}
330
2
100
AcDbEntity
  8
KIJUN
100
AcDbCircle
 10
158.3691836281279
 20
29.38162142717212
 30
0.0
 40
34.21819186620904
100
AcDbArc
 50
88.41469928319455
 51
120.3993197938885
  0
ARC
  5
2EEA
102
{ACAD_REACTORS
330
2FF8
102
}
330
2
100
AcDbEntity
  8
KIJUN
100
AcDbCircle
 10
163.6645421547912
 20
42.84141098104015
 30
0.0
 40
11.87339861497049
100
AcDbArc
 50
7.181262005869235
 51
74.25200187173953
  0
ARC
  5
2EEB
102
{ACAD_REACTORS
330
2FF8
102
}
330
2
100
AcDbEntity
  8
KIJUN
100
AcDbCircle
 10
158.5950073931472
 20
23.75040427484652
 30
0.0
 40
31.62516907057953
100
AcDbArc
 50
74.79947612083207
 51
101.2235015286889
  0
ARC
  5
2EED
102
{ACAD_REACTORS
330
2FF8
102
}
330
2
100
AcDbEntity
  8
KIJUN
100
AcDbCircle
 10
166.4232184054063
 20
47.61597587501927
 30
0.0
 40
13.80670629424248
100
AcDbArc
 50
49.13477753929111
 51
87.87109981062284
  0
ARC
  5
2EEE
102
{ACAD_REACTORS
330
2FF8
102
}
330
2
100
AcDbEntity
  8
KIJUN
100
AcDbCircle
 10
175.7473625199334
 20
40.7226247831715
 30
0.0
 40
3.34596229054016
100
AcDbArc
 50
184.9507385076172
 51
309.093939262281
  0
ARC
  5
2EEF
102
{ACAD_REACTORS
330
2FF8
102
}
330
2
100
AcDbEntity
  8
KIJUN
100
AcDbCircle
 10
-1728.059073980224
 20
-221.9866168146428
 30
0.0
 40
1918.505140226869
100
AcDbArc
 50
7.861783010470753
 51
7.974174024174173
  0
ARC
  5
2F8E
102
{ACAD_REACTORS
330
2FF8
102
}
330
2
100
AcDbEntity
  8
KIJUN
100
AcDbCircle
 10
147.1050171659288
 20
71.93608434563607
 30
0.0
 40
2.0
100
AcDbArc
 50
6.389738541185573
 51
78.51409508100417
  0
ARC
  5
2FC4
102
{ACAD_REACTORS
330
2FF8
102
}
330
2
100
AcDbEntity
  8
KIJUN
100
AcDbCircle
 10
80.64676680978875
 20
66.58873958521609
 30
0.0
 40
8.211300728744259
100
AcDbArc
 50
108.4790495405215
 51
147.5242869288939
  0
ARC
  5
2FC5
102
{ACAD_REACTORS
330
2FF8
102
}
330
2
100
AcDbEntity
  8
KIJUN
100
AcDbCircle
 10
67.25938385791266
 20
60.58092452178667
 30
0.0
 40
7.77629858837679
100
AcDbArc
 50
72.34338085821019
 51
282.7589068626864
  0
ARC
  5
2FC6
102
{ACAD_REACTORS
330
2FF8
102
}
330
2
100
AcDbEntity
  8
KIJUN
100
AcDbCircle
 10
76.84352163688391
 20
69.47747232784739
 30
0.0
 40
7.376835782934201
100
AcDbArc
 50
176.704734198138
 51
191.6258568685986
  0
ARC
  5
2FC7
102
{ACAD_REACTORS
330
2FF8
102
}
330
2
100
AcDbEntity
  8
KIJUN
100
AcDbCircle
 10
71.57925748601718
 20
69.78897819656959
 30
0.0
 40
2.103386635042821
100
AcDbArc
 50
64.67744541491197
 51
176.9333534421495
  0
ARC
  5
2FC8
102
{ACAD_REACTORS
330
2FF8
102
}
330
2
100
AcDbEntity
  8
KIJUN
100
AcDbCircle
 10
67.22162629978669
 20
60.81435721468301
 30
0.0
 40
12.07990995903412
100
AcDbArc
 50
57.45837824944008
 51
64.20144334729764
  0
ARC
  5
2FC9
102
{ACAD_REACTORS
330
2FF8
102
}
330
2
100
AcDbEntity
  8
KIJUN
100
AcDbCircle
 10
62.80645380859965
 20
55.75037570455648
 30
0.0
 40
6.756914738925911
100
AcDbArc
 50
244.6990021523616
 51
335.9493787990407
  0
ARC
  5
2FCA
102
{ACAD_REACTORS
330
2FF8
102
}
330
2
100
AcDbEntity
  8
KIJUN
100
AcDbCircle
 10
68.64913458750192
 20
72.28913931700164
 30
0.0
 40
24.27200598499077
100
AcDbArc
 50
215.3076473738505
 51
248.9188156612712
  0
ARC
  5
2FCB
102
{ACAD_REACTORS
330
2FF8
102
}
330
2
100
AcDbEntity
  8
KIJUN
100
AcDbCircle
 10
36.31924423011935
 20
64.54207112380797
 30
0.0
 40
4.168713611019173
100
AcDbArc
 50
60.65279971806056
 51
170.3873809573095
  0
ARC
  5
2FCC
102
{ACAD_REACTORS
330
2FF8
102
}
330
2
100
AcDbEntity
  8
KIJUN
100
AcDbCircle
 10
23.51597121524901
 20
41.98902335093182
 30
0.0
 40
30.10251743664027
100
AcDbArc
 50
32.7206183438027
 51
60.44930952707634
  0
ARC
  5
2FCD
102
{ACAD_REACTORS
330
2FF8
102
}
330
2
100
AcDbEntity
  8
KIJUN
100
AcDbCircle
 10
13.36403452276306
 20
50.37666249263089
 30
0.0
 40
24.0
100
AcDbArc
 50
38.25994207995277
 51
101.4859049189992
  0
ARC
  5
2FCE
102
{ACAD_REACTORS
330
2FF8
102
}
330
2
100
AcDbEntity
  8
KIJUN
100
AcDbCircle
 10
8.983243570872843
 20
71.93608434563607
 30
0.0
 40
2.0
100
AcDbArc
 50
101.4859049189992
 51
173.6102614588144
  0
ARC
  5
2FCF
102
{ACAD_REACTORS
330
2FF8
102
}
330
2
100
AcDbEntity
  8
KIJUN
100
AcDbCircle
 10
19.19270834402948
 20
70.79276083091679
 30
0.0
 40
12.27328377947557
100
AcDbArc
 50
173.6102614588148
 51
187.8073118501183
  0
ARC
  5
2FD0
102
{ACAD_REACTORS
330
2FF8
102
}
330
2
100
AcDbEntity
  8
KIJUN
100
AcDbCircle
 10
1.117296688569979
 20
55.37670971159295
 30
0.0
 40
14.96756372237619
100
AcDbArc
 50
66.71857752555199
 51
111.1632992078314
  0
ARC
  5
2FD1
102
{ACAD_REACTORS
330
2FF8
102
}
330
2
100
AcDbEntity
  8
KIJUN
100
AcDbCircle
 10
-9.357159666528843
 20
65.08900371374345
 30
0.0
 40
3.018113614016828
100
AcDbArc
 50
96.98632206237887
 51
192.5325078381599
  0
ARC
  5
2FD2
102
{ACAD_REACTORS
330
2FF8
102
}
330
2
100
AcDbEntity
  8
KIJUN
100
AcDbCircle
 10
-12.62407814211849
 20
93.15131581063647
 30
0.0
 40
25.23378187324063
100
AcDbArc
 50
276.5989007989412
 51
289.294100302869
  0
ARC
  5
2FD3
102
{ACAD_REACTORS
330
2FF8
102
}
330
2
100
AcDbEntity
  8
KIJUN
100
AcDbCircle
 10
-4.707551364490427
 20
66.23270893400622
 30
0.0
 40
7.80585305659222
100
AcDbArc
 50
193.3217367363661
 51
218.1285943542475
  0
ARC
  5
2FD4
102
{ACAD_REACTORS
330
2FF8
102
}
330
2
100
AcDbEntity
  8
KIJUN
100
AcDbCircle
 10
-15.97608517935117
 20
46.25213909532749
 30
0.0
 40
9.979784452247976
100
AcDbArc
 50
157.2831523749951
 51
234.5164362107307
  0
ARC
  5
2FD5
102
{ACAD_REACTORS
330
2FF8
102
}
330
2
100
AcDbEntity
  8
KIJUN
100
AcDbCircle
 10
-2.238230404303237
 20
39.43246896908561
 30
0.0
 40
25.30471412184002
100
AcDbArc
 50
132.6063135832196
 51
155.0514493444135
  0
ARC
  5
2FD6
102
{ACAD_REACTORS
330
2FF8
102
}
330
2
100
AcDbEntity
  8
KIJUN
100
AcDbCircle
 10
-10.33495766860471
 20
47.61597587501927
 30
0.0
 40
13.80670629424248
100
AcDbArc
 50
92.12890018938042
 51
130.8652224607089
  0
ARC
  5
2FD7
102
{ACAD_REACTORS
330
2FF8
102
}
330
2
100
AcDbEntity
  8
KIJUN
100
AcDbCircle
 10
79.44678671518881
 20
42.90862840090788
 30
0.0
 40
5.707021257847515
100
AcDbArc
 50
187.3771022022951
 51
255.7722248797972
  0
ARC
  5
2FD8
102
{ACAD_REACTORS
330
2FF8
102
}
330
2
100
AcDbEntity
  8
KIJUN
100
AcDbCircle
 10
70.20614754170594
 20
46.81662382201705
 30
0.0
 40
5.86168170405857
100
AcDbArc
 50
242.5578797431305
 51
307.6540655019737
  0
ARC
  5
2FD9
102
{ACAD_REACTORS
330
2FF8
102
}
330
2
100
AcDbEntity
  8
KIJUN
100
AcDbCircle
 10
54.36084273693842
 20
72.45631962140199
 30
0.0
 40
33.52580818564225
100
AcDbArc
 50
268.3766834141786
 51
293.0823805665055
  0
ARC
  5
2FDA
102
{ACAD_REACTORS
330
2FF8
102
}
330
2
100
AcDbEntity
  8
KIJUN
100
AcDbCircle
 10
-6.410770706332982
 20
42.53642593471243
 30
0.0
 40
9.535892016527702
100
AcDbArc
 50
93.50242623153436
 51
170.1890660266437
  0
ARC
  5
2FDB
102
{ACAD_REACTORS
330
2FF8
102
}
330
2
100
AcDbEntity
  8
KIJUN
100
AcDbCircle
 10
-2.340304881228803
 20
-14.33248725402664
 30
0.0
 40
66.54985802163603
100
AcDbArc
 50
63.85031401486842
 51
94.00926722603905
  0
ARC
  5
2FDC
102
{ACAD_REACTORS
330
2FF8
102
}
330
2
100
AcDbEntity
  8
KIJUN
100
AcDbCircle
 10
54.26961411145356
 20
99.7036781480441
 30
0.0
 40
60.76577660672039
100
AcDbArc
 50
243.3242758263452
 51
269.190492678565
  0
ARC
  5
2FDD
102
{ACAD_REACTORS
330
2FF8
102
}
330
2
100
AcDbEntity
  8
KIJUN
100
AcDbCircle
 10
45.95037577803594
 20
52.56726313021125
 30
0.0
 40
33.32881021610447
100
AcDbArc
 50
15.64664813731385
 51
33.57232119998316
  0
ARC
  5
2FDE
102
{ACAD_REACTORS
330
2FF8
102
}
330
2
100
AcDbEntity
  8
KIJUN
100
AcDbCircle
 10
63.98623150265184
 20
57.71563921918184
 30
0.0
 40
11.71742042822277
100
AcDbArc
 50
359.9807780215199
 51
61.27316068016629
  0
ARC
  5
2FDF
102
{ACAD_REACTORS
330
2FF8
102
}
330
2
100
AcDbEntity
  8
KIJUN
100
AcDbCircle
 10
55.76577519781967
 20
57.73019454873824
 30
0.0
 40
19.93788464391451
100
AcDbArc
 50
306.0703920385711
 51
359.9468754522973
  0
ARC
  5
2FE0
102
{ACAD_REACTORS
330
2FF8
102
}
330
2
100
AcDbEntity
  8
KIJUN
100
AcDbCircle
 10
37.45599296967083
 20
63.52049286521334
 30
0.0
 40
42.13711156855355
100
AcDbArc
 50
329.5655622786914
 51
344.4164357530676
  0
ARC
  5
2FE1
102
{ACAD_REACTORS
330
2FF8
102
}
330
2
100
AcDbEntity
  8
KIJUN
100
AcDbCircle
 10
67.49925473912833
 20
57.98556739631002
 30
0.0
 40
3.871203770166793
100
AcDbArc
 50
6.304690216407903
 51
121.1869454570309
  0
ARC
  5
2FE2
102
{ACAD_REACTORS
330
2FF8
102
}
330
2
100
AcDbEntity
  8
KIJUN
100
AcDbCircle
 10
65.33039877851701
 20
57.81890009517951
 30
0.0
 40
6.045680013581146
100
AcDbArc
 50
307.0949001065768
 51
5.617437779277195
  0
ARC
  5
2FE3
102
{ACAD_REACTORS
330
2FF8
102
}
330
2
100
AcDbEntity
  8
KIJUN
100
AcDbCircle
 10
55.90796879767651
 20
69.38175365887366
 30
0.0
 40
24.05841448037546
100
AcDbArc
 50
189.9174660666766
 51
261.5796150525597
  0
ARC
  5
2FE4
102
{ACAD_REACTORS
330
2FF8
102
}
330
2
100
AcDbEntity
  8
KIJUN
100
AcDbCircle
 10
17.59325201068145
 20
74.6597326865015
 30
0.0
 40
11.92234197293683
100
AcDbArc
 50
207.6576361124654
 51
236.1932207981619
  0
ARC
  5
2FE5
102
{ACAD_REACTORS
330
2FF8
102
}
330
2
100
AcDbEntity
  8
KIJUN
100
AcDbCircle
 10
-21.49410086788555
 20
9.385892121438565
 30
0.0
 40
64.17783239381141
100
AcDbArc
 50
42.73450371156223
 51
59.62309595428626
  0
ARC
  5
2FE6
102
{ACAD_REACTORS
330
2FF8
102
}
330
2
100
AcDbEntity
  8
KIJUN
100
AcDbCircle
 10
2.473883978057926
 20
94.19410224633669
 30
0.0
 40
35.38444789024298
100
AcDbArc
 50
247.8838471560415
 51
266.9663319349363
  0
ARC
  5
2FE7
102
{ACAD_REACTORS
330
2FF8
102
}
330
2
100
AcDbEntity
  8
KIJUN
100
AcDbCircle
 10
-0.8377698320681474
 20
25.69138843470658
 30
0.0
 40
33.19905496696178
100
AcDbArc
 50
57.48910983479227
 51
87.51573938056768
  0
ARC
  5
2FE8
102
{ACAD_REACTORS
330
2FF8
102
}
330
2
100
AcDbEntity
  8
KIJUN
100
AcDbCircle
 10
70.76992683271384
 20
80.15554827075929
 30
0.0
 40
35.38798595564341
100
AcDbArc
 50
209.4197239608621
 51
249.5750148277405
  0
ARC
  5
2FE9
102
{ACAD_REACTORS
330
2FF8
102
}
330
2
100
AcDbEntity
  8
KIJUN
100
AcDbCircle
 10
5.429664314972853
 20
45.13441199229795
 30
0.0
 40
26.12397292445864
100
AcDbArc
 50
27.86367322903748
 51
68.81422889343177
  0
ARC
  5
2FEA
102
{ACAD_REACTORS
330
2FF8
102
}
330
2
100
AcDbEntity
  8
KIJUN
100
AcDbCircle
 10
48.64846557500055
 20
68.381584259293
 30
0.0
 40
22.95186103767762
100
AcDbArc
 50
208.7444179180517
 51
248.175827980371
  0
ARC
  5
2FEB
102
{ACAD_REACTORS
330
2FF8
102
}
330
2
100
AcDbEntity
  8
KIJUN
100
AcDbCircle
 10
-2.280922891326213
 20
29.38162142717212
 30
0.0
 40
34.21819186620904
100
AcDbArc
 50
59.60068020611152
 51
91.58530071680543
  0
ARC
  5
2FEC
102
{ACAD_REACTORS
330
2FF8
102
}
330
2
100
AcDbEntity
  8
KIJUN
100
AcDbCircle
 10
-7.576281417989548
 20
42.84141098104015
 30
0.0
 40
11.87339861497049
100
AcDbArc
 50
105.7479981282637
 51
172.8187379941311
  0
ARC
  5
2FED
102
{ACAD_REACTORS
330
2FF8
102
}
330
2
100
AcDbEntity
  8
KIJUN
100
AcDbCircle
 10
-2.506746656345569
 20
23.75040427484652
 30
0.0
 40
31.62516907057953
100
AcDbArc
 50
78.77649847131433
 51
105.2005238791647
  0
ARC
  5
2FEE
102
{ACAD_REACTORS
330
2FF8
102
}
330
2
100
AcDbEntity
  8
KIJUN
100
AcDbCircle
 10
-19.6591017831318
 20
40.7226247831715
 30
0.0
 40
3.34596229054016
100
AcDbArc
 50
230.906060737716
 51
355.0492614923828
  0
ARC
  5
2FEF
102
{ACAD_REACTORS
330
2FF8
102
}
330
2
100
AcDbEntity
  8
KIJUN
100
AcDbCircle
 10
1884.147334717025
 20
-221.9866168146428
 30
0.0
 40
1918.505140226869
100
AcDbArc
 50
172.0258259758254
 51
172.1382169895292
  0
ENDSEC
  0
SECTION
  2
OBJECTS
  0
DICTIONARY
  5
1A
330
0
100
AcDbDictionary
281
     1
  3
ACAD_COLOR
350
144
  3
ACAD_GROUP
350
18
  3
ACAD_LAYOUT
350
58
  3
ACAD_MATERIAL
350
143
  3
ACAD_MLINESTYLE
350
19
  3
ACAD_PLOTSETTINGS
350
59
  3
ACAD_PLOTSTYLENAME
350
56
  3
ACAD_TABLESTYLE
350
145
  3
ACDBHEADERROUNDTRIPXREC
350
30A3
  3
AcDbVariableDictionary
350
1D1
  0
DICTIONARY
  5
1B4
330
A
100
AcDbDictionary
280
     1
281
     1
  3
ACAD_LAYERFILTERS
360
1C2
  3
ACLYDICTIONARY
360
1C1
  0
DICTIONARY
  5
1578
330
2
100
AcDbDictionary
280
     1
281
     1
  3
ACAD_SORTENTS
360
1579
  0
DICTIONARY
  5
144
102
{ACAD_REACTORS
330
1A
102
}
330
1A
100
AcDbDictionary
281
     1
  0
DICTIONARY
  5
18
102
{ACAD_REACTORS
330
1A
102
}
330
1A
100
AcDbDictionary
281
     1
  3
*A1
350
CFC
  3
*A10
350
1682
  3
*A11
350
1827
  3
*A12
350
18ED
  3
*A13
350
19E5
  3
*A14
350
1F8A
  3
*A15
350
2108
  3
*A16
350
2FF8
  3
*A2
350
218C
  3
*A3
350
2335
  3
*A4
350
2862
  3
*A5
350
299B
  3
*A6
350
2C07
  3
*A7
350
2DB5
  3
*A8
350
2E88
  3
*A9
350
15D1
  0
DICTIONARY
  5
58
102
{ACAD_REACTORS
330
1A
102
}
330
1A
100
AcDbDictionary
281
     1
  3
Model
350
5A
  3
ﾚｲｱｳﾄ1
350
5B
  0
DICTIONARY
  5
143
102
{ACAD_REACTORS
330
1A
102
}
330
1A
100
AcDbDictionary
281
     1
  0
DICTIONARY
  5
19
102
{ACAD_REACTORS
330
1A
102
}
330
1A
100
AcDbDictionary
281
     1
  3
STANDARD
350
1D
  0
DICTIONARY
  5
59
102
{ACAD_REACTORS
330
1A
102
}
330
1A
100
AcDbDictionary
281
     1
  0
ACDBDICTIONARYWDFLT
  5
56
102
{ACAD_REACTORS
330
1A
102
}
330
1A
100
AcDbDictionary
281
     1
  3
Normal
350
57
100
AcDbDictionaryWithDefault
340
57
  0
DICTIONARY
  5
145
102
{ACAD_REACTORS
330
1A
102
}
330
1A
100
AcDbDictionary
281
     1
  3
Standard
350
146
  0
DICTIONARY
  5
30A3
102
{ACAD_REACTORS
330
1A
102
}
330
1A
100
AcDbDictionary
281
     1
  0
DICTIONARY
  5
1D1
102
{ACAD_REACTORS
330
1A
102
}
330
1A
100
AcDbDictionary
281
     1
  3
CTABLESTYLE
350
1D2
  3
DIMASSOC
350
D03
  3
PROJECTNAME
350
D04
  0
DICTIONARY
  5
1C2
102
{ACAD_REACTORS
330
1B4
102
}
330
1B4
100
AcDbDictionary
281
     1
  0
DICTIONARY
  5
1C1
102
{ACAD_REACTORS
330
1B4
102
}
330
1B4
100
AcDbDictionary
281
     1
1001
ACAD
1000
<All
  0
SORTENTSTABLE
  5
1579
102
{ACAD_REACTORS
330
1578
102
}
330
1578
100
AcDbSortentsTable
330
2
331
2ED2
  5
2ED4
331
2EDA
  5
2EDD
331
2EE2
  5
2EE5
331
2EEA
  5
2EEE
331
2E05
  5
2E12
331
2ECB
  5
2ECF
331
2ED3
  5
2ED5
331
2EDB
  5
2EDE
331
2EE3
  5
2EE6
331
2EEB
  5
2EEF
331
2EC4
  5
2EC1
331
2ED4
  5
2ED7
331
2EDC
  5
2EDF
331
2EE4
  5
2EE7
331
2EB5
  5
2EB5
331
1F
  5
20
331
2EC5
  5
2EC5
331
2ED5
  5
2ED8
331
2EDD
  5
2EE0
331
2EE5
  5
2EE8
331
2EED
  5
2ED6
331
2EB6
  5
2EB6
331
2EBE
  5
2EBE
331
2EC6
  5
2EC6
331
20
  5
21
331
2ECE
  5
2ED0
331
2ED6
  5
2EDA
331
2EDE
  5
2EE1
331
2EE6
  5
2EE9
331
2EEE
  5
2EF3
331
2EC7
  5
2EC7
331
21
  5
23
331
2ECF
  5
2ED1
331
2ED7
  5
2EDB
331
2EDF
  5
2EE2
331
2EE7
  5
2EEA
331
2EEF
  5
2F8E
331
2E12
  5
2E37
331
2EC8
  5
2EC8
331
2ED0
  5
2ED2
331
2ED8
  5
2EDC
331
2EE0
  5
2EE3
331
2EE8
  5
2EEB
331
2EC1
  5
2EC3
331
23
  5
2DE6
331
2EC9
  5
2EC9
331
2ED1
  5
2ED3
331
2F8E
  5
2ECE
331
2EE1
  5
2EE4
331
2EE9
  5
2EED
  0
GROUP
  5
CFC
102
{ACAD_REACTORS
330
18
102
}
330
18
100
AcDbGroup
300

 70
     1
 71
     1
  0
GROUP
  5
1682
102
{ACAD_REACTORS
330
18
102
}
330
18
100
AcDbGroup
300

 70
     1
 71
     1
  0
GROUP
  5
1827
102
{ACAD_REACTORS
330
18
102
}
330
18
100
AcDbGroup
300

 70
     1
 71
     1
  0
GROUP
  5
18ED
102
{ACAD_REACTORS
330
18
102
}
330
18
100
AcDbGroup
300

 70
     1
 71
     1
  0
GROUP
  5
19E5
102
{ACAD_REACTORS
330
18
102
}
330
18
100
AcDbGroup
300

 70
     1
 71
     1
  0
GROUP
  5
1F8A
102
{ACAD_REACTORS
330
18
102
}
330
18
100
AcDbGroup
300

 70
     1
 71
     1
  0
GROUP
  5
2108
102
{ACAD_REACTORS
330
18
102
}
330
18
100
AcDbGroup
300

 70
     1
 71
     1
  0
GROUP
  5
2FF8
102
{ACAD_REACTORS
330
18
102
}
330
18
100
AcDbGroup
300

 70
     1
 71
     1
340
2FEF
340
2FEE
340
2FED
340
2FEC
340
2FEB
340
2FEA
340
2FE9
340
2FE8
340
2FE7
340
2FE6
340
2FE5
340
2FE4
340
2FE3
340
2FE2
340
2FE1
340
2FE0
340
2FDF
340
2FDE
340
2FDD
340
2FDC
340
2FDB
340
2FDA
340
2FD9
340
2FD8
340
2FD7
340
2FD6
340
2FD5
340
2FD4
340
2FD3
340
2FD2
340
2FD1
340
2FD0
340
2FCF
340
2FCE
340
2FCD
340
2FCC
340
2FCB
340
2FCA
340
2FC9
340
2FC8
340
2FC7
340
2FC6
340
2FC5
340
2FC4
340
2EEF
340
2EEE
340
2EEB
340
2EEA
340
2EE9
340
2EE8
340
2EE7
340
2EE6
340
2EE5
340
2EE4
340
2EE3
340
2EE2
340
2EE1
340
2EE0
340
2EDF
340
2EDE
340
2EDD
340
2EDC
340
2EDB
340
2EDA
340
2ED8
340
2ED7
340
2ED6
340
2ED5
340
2ED4
340
2EED
340
2ED3
340
2ED2
340
2ED1
340
2ED0
340
2ECF
340
2ECE
340
2ECB
340
2F8E
340
2EC9
340
2EC8
340
2EC7
340
2EC6
340
2EC5
340
2EC1
340
2EC4
340
2EBE
340
2EB6
340
2EB5
  0
GROUP
  5
218C
102
{ACAD_REACTORS
330
18
102
}
330
18
100
AcDbGroup
300

 70
     1
 71
     1
  0
GROUP
  5
2335
102
{ACAD_REACTORS
330
18
102
}
330
18
100
AcDbGroup
300

 70
     1
 71
     1
  0
GROUP
  5
2862
102
{ACAD_REACTORS
330
18
102
}
330
18
100
AcDbGroup
300

 70
     1
 71
     1
  0
GROUP
  5
299B
102
{ACAD_REACTORS
330
18
102
}
330
18
100
AcDbGroup
300

 70
     1
 71
     1
  0
GROUP
  5
2C07
102
{ACAD_REACTORS
330
18
102
}
330
18
100
AcDbGroup
300

 70
     1
 71
     1
  0
GROUP
  5
2DB5
102
{ACAD_REACTORS
330
18
102
}
330
18
100
AcDbGroup
300

 70
     1
 71
     1
  0
GROUP
  5
2E88
102
{ACAD_REACTORS
330
18
102
}
330
18
100
AcDbGroup
300

 70
     1
 71
     1
  0
GROUP
  5
15D1
102
{ACAD_REACTORS
330
18
102
}
330
18
100
AcDbGroup
300

 70
     1
 71
     1
  0
LAYOUT
  5
5A
102
{ACAD_XDICTIONARY
360
30A4
102
}
102
{ACAD_REACTORS
330
58
102
}
330
58
100
AcDbPlotSettings
  1

  2
none_device
  4
Letter_(8.50_x_11.00_Inches)
  6

 40
6.349999904632568
 41
6.349999904632568
 42
6.350006103515625
 43
6.350006103515625
 44
215.8999938964844
 45
279.3999938964844
 46
0.0
 47
0.0
 48
0.0
 49
0.0
140
0.0
141
0.0
142
1.0
143
31.42690824109359
 70
 11952
 72
     0
 73
     1
 74
     0
  7
monochrome.ctb
 75
     0
147
0.0318198657127973
148
-5458.898172012973
149
493.9507553935718
100
AcDbLayout
  1
Model
 70
     1
 71
     0
 10
0.0
 20
0.0
 11
12.0
 21
9.0
 12
0.0
 22
0.0
 32
0.0
 14
0.0
 24
0.0
 34
0.0
 15
0.0
 25
0.0
 35
0.0
146
0.0
 13
0.0
 23
0.0
 33
0.0
 16
1.0
 26
0.0
 36
0.0
 17
0.0
 27
1.0
 37
0.0
 76
     0
330
2
1001
ACAD_PSEXT
1000
なし
1000
なし
1000
適切ではありません
1000
新しいプロッタ環境設定名を選択しない限り、レイアウトは印刷されません。
1070
     0
  0
LAYOUT
  5
5B
102
{ACAD_XDICTIONARY
360
30A6
102
}
102
{ACAD_REACTORS
330
58
102
}
330
58
100
AcDbPlotSettings
  1

  2
なし
  4

  6

 40
0.0
 41
0.0
 42
0.0
 43
0.0
 44
0.0
 45
0.0
 46
0.0
 47
0.0
 48
0.0
 49
0.0
140
0.0
141
0.0
142
1.0
143
1.0
 70
   688
 72
     0
 73
     0
 74
     5
  7
monochrome.ctb
 75
    16
147
1.0
148
0.0
149
0.0
100
AcDbLayout
  1
ﾚｲｱｳﾄ1
 70
     1
 71
     1
 10
0.0
 20
0.0
 11
12.0
 21
9.0
 12
0.0
 22
0.0
 32
0.0
 14
1.000000000000000E+20
 24
1.000000000000000E+20
 34
1.000000000000000E+20
 15
-1.000000000000000E+20
 25
-1.000000000000000E+20
 35
-1.000000000000000E+20
146
0.0
 13
0.0
 23
0.0
 33
0.0
 16
1.0
 26
0.0
 36
0.0
 17
0.0
 27
1.0
 37
0.0
 76
     0
330
7
  0
MLINESTYLE
  5
1D
102
{ACAD_REACTORS
330
19
102
}
330
19
100
AcDbMlineStyle
  2
STANDARD
 70
     0
  3

 62
   256
 51
90.0
 52
90.0
 71
     2
 49
0.5
 62
   256
  6
BYLAYER
 49
-0.5
 62
   256
  6
BYLAYER
  0
ACDBPLACEHOLDER
  5
57
102
{ACAD_REACTORS
330
56
102
}
330
56
  0
TABLESTYLE
  5
146
102
{ACAD_REACTORS
330
145
102
}
330
145
100
AcDbTableStyle
  3
Standard
 70
     0
 71
     0
 40
0.06
 41
0.06
280
     0
281
     0
  7
STANDARD
140
0.18
170
     2
 62
     0
 63
     7
283
     0
274
    -2
284
     1
 64
     0
275
    -2
285
     1
 65
     0
276
    -2
286
     1
 66
     0
277
    -2
287
     1
 67
     0
278
    -2
288
     1
 68
     0
279
    -2
289
     1
 69
     0
  7
STANDARD
140
0.25
170
     5
 62
     0
 63
     7
283
     0
274
    -2
284
     1
 64
     0
275
    -2
285
     1
 65
     0
276
    -2
286
     1
 66
     0
277
    -2
287
     1
 67
     0
278
    -2
288
     1
 68
     0
279
    -2
289
     1
 69
     0
  7
STANDARD
140
0.18
170
     5
 62
     0
 63
     7
283
     0
274
    -2
284
     1
 64
     0
275
    -2
285
     1
 65
     0
276
    -2
286
     1
 66
     0
277
    -2
287
     1
 67
     0
278
    -2
288
     1
 68
     0
279
    -2
289
     1
 69
     0
  0
DICTIONARYVAR
  5
1D2
102
{ACAD_REACTORS
330
1D1
102
}
330
1D1
100
DictionaryVariables
280
     0
  1
STANDARD
  0
DICTIONARYVAR
  5
D03
102
{ACAD_REACTORS
330
1D1
102
}
330
1D1
100
DictionaryVariables
280
     0
  1
1
  0
DICTIONARYVAR
  5
D04
102
{ACAD_REACTORS
330
1D1
102
}
330
1D1
100
DictionaryVariables
280
     0
  1

  0
DICTIONARY
  5
30A4
330
5A
100
AcDbDictionary
280
     1
281
     1
  3
ACAD_XREC_ROUNDTRIP
360
30A5
  0
DICTIONARY
  5
30A6
330
5B
100
AcDbDictionary
280
     1
281
     1
  3
ACAD_XREC_ROUNDTRIP
360
30A7
  0
XRECORD
  5
30A5
102
{ACAD_REACTORS
330
30A4
102
}
330
30A4
100
AcDbXrecord
280
     1
102
SHADEPLOT
 70
     0
102
SHADEPLOTRESLEVEL
 70
     2
102
SHADEPLOTCUSTOMDPI
 70
   300
  0
XRECORD
  5
30A7
102
{ACAD_REACTORS
330
30A6
102
}
330
30A6
100
AcDbXrecord
280
     1
102
SHADEPLOT
 70
     0
102
SHADEPLOTRESLEVEL
 70
     2
102
SHADEPLOTCUSTOMDPI
 70
   300
  0
ENDSEC
  0
EOF
