  0
SECTION
  2
HEADER
  9
$ACADVER
  1
AC1015
  9
$ACADMAINTVER
 70
    20
  9
$DWGCODEPAGE
  3
ANSI_932
  9
$INSBASE
 10
922.019522
 20
-675.4306699999999
 30
0.0
  9
$EXTMIN
 10
-44.32910505131576
 20
-0.0211609326183862
 30
-0.000000000000013
  9
$EXTMAX
 10
176.6529458304876
 20
100.4769355003226
 30
0.0000000000000023
  9
$LIMMIN
 10
0.0
 20
0.0
  9
$LIMMAX
 10
420.0
 20
297.0
  9
$ORTHOMODE
 70
     1
  9
$REGENMODE
 70
     1
  9
$FILLMODE
 70
     1
  9
$QTEXTMODE
 70
     0
  9
$MIRRTEXT
 70
     1
  9
$LTSCALE
 40
1.0
  9
$ATTMODE
 70
     1
  9
$TEXTSIZE
 40
30.0
  9
$TRACEWID
 40
0.05
  9
$TEXTSTYLE
  7
SUNPOU
  9
$CLAYER
  8
0
  9
$CELTYPE
  6
BYLAYER
  9
$CECOLOR
 62
   256
  9
$CELTSCALE
 40
1.0
  9
$DISPSILH
 70
     0
  9
$DIMSCALE
 40
1.0
  9
$DIMASZ
 40
2.0
  9
$DIMEXO
 40
10.0
  9
$DIMDLI
 40
0.38
  9
$DIMRND
 40
0.0
  9
$DIMDLE
 40
0.0
  9
$DIMEXE
 40
0.0
  9
$DIMTP
 40
0.0
  9
$DIMTM
 40
0.0
  9
$DIMTXT
 40
5.0
  9
$DIMCEN
 40
0.0
  9
$DIMTSZ
 40
0.0
  9
$DIMTOL
 70
     0
  9
$DIMLIM
 70
     0
  9
$DIMTIH
 70
     0
  9
$DIMTOH
 70
     0
  9
$DIMSE1
 70
     0
  9
$DIMSE2
 70
     0
  9
$DIMTAD
 70
     1
  9
$DIMZIN
 70
     0
  9
$DIMBLK
  1
Dot
  9
$DIMASO
 70
     1
  9
$DIMSHO
 70
     1
  9
$DIMPOST
  1

  9
$DIMAPOST
  1

  9
$DIMALT
 70
     0
  9
$DIMALTD
 70
     2
  9
$DIMALTF
 40
25.4
  9
$DIMLFAC
 40
1.0
  9
$DIMTOFL
 70
     0
  9
$DIMTVP
 40
0.0
  9
$DIMTIX
 70
     0
  9
$DIMSOXD
 70
     0
  9
$DIMSAH
 70
     0
  9
$DIMBLK1
  1

  9
$DIMBLK2
  1

  9
$DIMSTYLE
  2
STANDARD
  9
$DIMCLRD
 70
    60
  9
$DIMCLRE
 70
    70
  9
$DIMCLRT
 70
    60
  9
$DIMTFAC
 40
0.064286
  9
$DIMGAP
 40
3.0
  9
$DIMJUST
 70
     0
  9
$DIMSD1
 70
     0
  9
$DIMSD2
 70
     0
  9
$DIMTOLJ
 70
     1
  9
$DIMTZIN
 70
     0
  9
$DIMALTZ
 70
     0
  9
$DIMALTTZ
 70
     0
  9
$DIMUPT
 70
     0
  9
$DIMDEC
 70
     0
  9
$DIMTDEC
 70
     0
  9
$DIMALTU
 70
     2
  9
$DIMALTTD
 70
     2
  9
$DIMTXSTY
  7
SUNPOU
  9
$DIMAUNIT
 70
     0
  9
$DIMADEC
 70
     0
  9
$DIMALTRND
 40
0.0
  9
$DIMAZIN
 70
     0
  9
$DIMDSEP
 70
    46
  9
$DIMATFIT
 70
     3
  9
$DIMFRAC
 70
     0
  9
$DIMLDRBLK
  1

  9
$DIMLUNIT
 70
     2
  9
$DIMLWD
 70
    -2
  9
$DIMLWE
 70
    -2
  9
$DIMTMOVE
 70
     0
  9
$LUNITS
 70
     2
  9
$LUPREC
 70
     5
  9
$SKETCHINC
 40
0.1
  9
$FILLETRAD
 40
0.0
  9
$AUNITS
 70
     0
  9
$AUPREC
 70
     0
  9
$MENU
  1
acad
  9
$ELEVATION
 40
0.0
  9
$PELEVATION
 40
0.0
  9
$THICKNESS
 40
0.0
  9
$LIMCHECK
 70
     0
  9
$CHAMFERA
 40
0.0
  9
$CHAMFERB
 40
0.0
  9
$CHAMFERC
 40
0.0
  9
$CHAMFERD
 40
0.0
  9
$SKPOLY
 70
     0
  9
$TDCREATE
 40
2450623.654673033
  9
$TDUCREATE
 40
2450623.279673032
  9
$TDUPDATE
 40
2453866.743753912
  9
$TDUUPDATE
 40
2453866.368753912
  9
$TDINDWG
 40
0.2935479630
  9
$TDUSRTIMER
 40
0.2935477894
  9
$USRTIMER
 70
     1
  9
$ANGBASE
 50
0.0
  9
$ANGDIR
 70
     0
  9
$PDMODE
 70
     0
  9
$PDSIZE
 40
0.0
  9
$PLINEWID
 40
0.0
  9
$SPLFRAME
 70
     0
  9
$SPLINETYPE
 70
     6
  9
$SPLINESEGS
 70
     8
  9
$HANDSEED
  5
2A1E
  9
$SURFTAB1
 70
     6
  9
$SURFTAB2
 70
     6
  9
$SURFTYPE
 70
     6
  9
$SURFU
 70
     6
  9
$SURFV
 70
     6
  9
$UCSBASE
  2

  9
$UCSNAME
  2

  9
$UCSORG
 10
0.0
 20
0.0
 30
0.0
  9
$UCSXDIR
 10
1.0
 20
0.0
 30
0.0
  9
$UCSYDIR
 10
0.0
 20
1.0
 30
0.0
  9
$UCSORTHOREF
  2

  9
$UCSORTHOVIEW
 70
     0
  9
$UCSORGTOP
 10
0.0
 20
0.0
 30
0.0
  9
$UCSORGBOTTOM
 10
0.0
 20
0.0
 30
0.0
  9
$UCSORGLEFT
 10
0.0
 20
0.0
 30
0.0
  9
$UCSORGRIGHT
 10
0.0
 20
0.0
 30
0.0
  9
$UCSORGFRONT
 10
0.0
 20
0.0
 30
0.0
  9
$UCSORGBACK
 10
0.0
 20
0.0
 30
0.0
  9
$PUCSBASE
  2

  9
$PUCSNAME
  2

  9
$PUCSORG
 10
0.0
 20
0.0
 30
0.0
  9
$PUCSXDIR
 10
1.0
 20
0.0
 30
0.0
  9
$PUCSYDIR
 10
0.0
 20
1.0
 30
0.0
  9
$PUCSORTHOREF
  2

  9
$PUCSORTHOVIEW
 70
     0
  9
$PUCSORGTOP
 10
0.0
 20
0.0
 30
0.0
  9
$PUCSORGBOTTOM
 10
0.0
 20
0.0
 30
0.0
  9
$PUCSORGLEFT
 10
0.0
 20
0.0
 30
0.0
  9
$PUCSORGRIGHT
 10
0.0
 20
0.0
 30
0.0
  9
$PUCSORGFRONT
 10
0.0
 20
0.0
 30
0.0
  9
$PUCSORGBACK
 10
0.0
 20
0.0
 30
0.0
  9
$USERI1
 70
     0
  9
$USERI2
 70
     0
  9
$USERI3
 70
     0
  9
$USERI4
 70
     0
  9
$USERI5
 70
     0
  9
$USERR1
 40
0.0
  9
$USERR2
 40
0.0
  9
$USERR3
 40
0.0
  9
$USERR4
 40
0.0
  9
$USERR5
 40
0.0
  9
$WORLDVIEW
 70
     1
  9
$SHADEDGE
 70
     3
  9
$SHADEDIF
 70
    70
  9
$TILEMODE
 70
     1
  9
$MAXACTVP
 70
    16
  9
$PINSBASE
 10
0.0
 20
0.0
 30
0.0
  9
$PLIMCHECK
 70
     0
  9
$PEXTMIN
 10
1.000000000000000E+20
 20
1.000000000000000E+20
 30
1.000000000000000E+20
  9
$PEXTMAX
 10
-1.000000000000000E+20
 20
-1.000000000000000E+20
 30
-1.000000000000000E+20
  9
$PLIMMIN
 10
0.0
 20
0.0
  9
$PLIMMAX
 10
12.0
 20
9.0
  9
$UNITMODE
 70
     0
  9
$VISRETAIN
 70
     0
  9
$PLINEGEN
 70
     0
  9
$PSLTSCALE
 70
     1
  9
$TREEDEPTH
 70
  3020
  9
$CMLSTYLE
  2
STANDARD
  9
$CMLJUST
 70
     0
  9
$CMLSCALE
 40
1.0
  9
$PROXYGRAPHICS
 70
     1
  9
$MEASUREMENT
 70
     0
  9
$CELWEIGHT
370
    -1
  9
$ENDCAPS
280
     0
  9
$JOINSTYLE
280
     0
  9
$LWDISPLAY
290
     0
  9
$INSUNITS
 70
     0
  9
$HYPERLINKBASE
  1

  9
$STYLESHEET
  1

  9
$XEDIT
290
     1
  9
$CEPSNTYPE
380
     0
  9
$PSTYLEMODE
290
     1
  9
$FINGERPRINTGUID
  2
{FB88A696-E29C-4009-92AF-A3599A8169D5}
  9
$VERSIONGUID
  2
{FB24DDD4-132F-4C8E-AAE1-43E11F7E0962}
  9
$EXTNAMES
290
     1
  9
$PSVPSCALE
 40
0.0
  9
$OLESTARTUP
290
     0
  0
ENDSEC
  0
SECTION
  2
CLASSES
  0
CLASS
  1
DICTIONARYVAR
  2
AcDbDictionaryVar
  3
ObjectDBX Classes
 90
        0
280
     0
281
     0
  0
CLASS
  1
ACDBDICTIONARYWDFLT
  2
AcDbDictionaryWithDefault
  3
ObjectDBX Classes
 90
        0
280
     0
281
     0
  0
CLASS
  1
ACDBPLACEHOLDER
  2
AcDbPlaceHolder
  3
ObjectDBX Classes
 90
        0
280
     0
281
     0
  0
CLASS
  1
LAYOUT
  2
AcDbLayout
  3
ObjectDBX Classes
 90
        0
280
     0
281
     0
  0
CLASS
  1
TABLESTYLE
  2
AcDbTableStyle
  3
ObjectDBX Classes
 90
     2047
280
     0
281
     0
  0
CLASS
  1
SORTENTSTABLE
  2
AcDbSortentsTable
  3
ObjectDBX Classes
 90
        0
280
     0
281
     0
  0
ENDSEC
  0
SECTION
  2
TABLES
  0
TABLE
  2
VPORT
  5
12
330
0
100
AcDbSymbolTable
 70
     6
  0
VPORT
  5
2A18
330
12
100
AcDbSymbolTableRecord
100
AcDbViewportTableRecord
  2
*Active
 70
     0
 10
0.0
 20
0.0
 11
1.0
 21
1.0
 12
66.16192038958593
 22
50.22788728385211
 13
0.0
 23
0.0
 14
1.0
 24
1.0
 15
0.0
 25
0.0
 16
0.0
 26
0.0
 36
1.0
 17
0.0
 27
0.0
 37
0.0
 40
141.860706421623
 41
1.565384615384615
 42
50.0
 43
0.0
 44
0.0
 50
0.0
 51
0.0
 71
     0
 72
 20000
 73
     1
 74
     1
 75
     0
 76
     0
 77
     0
 78
     0
281
     0
 65
     1
110
0.0
120
0.0
130
0.0
111
1.0
121
0.0
131
0.0
112
0.0
122
1.0
132
0.0
 79
     0
146
0.0
  0
ENDTAB
  0
TABLE
  2
LTYPE
  5
D
330
0
100
AcDbSymbolTable
 70
     2
  0
LTYPE
  5
E
330
D
100
AcDbSymbolTableRecord
100
AcDbLinetypeTableRecord
  2
BYBLOCK
 70
     0
  3

 72
    65
 73
     0
 40
0.0
  0
LTYPE
  5
F
330
D
100
AcDbSymbolTableRecord
100
AcDbLinetypeTableRecord
  2
BYLAYER
 70
     0
  3

 72
    65
 73
     0
 40
0.0
  0
LTYPE
  5
5
330
D
100
AcDbSymbolTableRecord
100
AcDbLinetypeTableRecord
  2
CONTINUOUS
 70
     0
  3
Solid line
 72
    65
 73
     0
 40
0.0
  0
ENDTAB
  0
TABLE
  2
LAYER
  5
A
102
{ACAD_XDICTIONARY
360
1B4
102
}
330
0
100
AcDbSymbolTable
 70
     6
  0
LAYER
  5
4
330
A
100
AcDbSymbolTableRecord
100
AcDbLayerTableRecord
  2
0
 70
     0
 62
     7
  6
CONTINUOUS
370
    -3
390
57
  0
LAYER
  5
25
330
A
100
AcDbSymbolTableRecord
100
AcDbLayerTableRecord
  2
KIJUN
 70
     0
 62
     7
  6
CONTINUOUS
370
    -3
390
57
  0
LAYER
  5
22
330
A
100
AcDbSymbolTableRecord
100
AcDbLayerTableRecord
  2
HOJO
 70
     0
 62
     3
  6
CONTINUOUS
370
    -3
390
57
  0
LAYER
  5
1B
330
A
100
AcDbSymbolTableRecord
100
AcDbLayerTableRecord
  2
WAKU
 70
     0
 62
     1
  6
CONTINUOUS
370
    -3
390
57
  0
LAYER
  5
31
330
A
100
AcDbSymbolTableRecord
100
AcDbLayerTableRecord
  2
DEFPOINTS
 70
     0
 62
     7
  6
CONTINUOUS
290
     0
370
    -3
390
57
  0
LAYER
  5
28
330
A
100
AcDbSymbolTableRecord
100
AcDbLayerTableRecord
  2
SUNPOU
 70
     0
 62
    70
  6
CONTINUOUS
370
    -3
390
57
  0
ENDTAB
  0
TABLE
  2
STYLE
  5
B
330
0
100
AcDbSymbolTable
 70
     3
  0
STYLE
  5
C
330
B
100
AcDbSymbolTableRecord
100
AcDbTextStyleTableRecord
  2
STANDARD
 70
     0
 40
0.0
 41
1.0
 50
0.0
 71
     0
 42
0.2
  3
txt
  4

  0
STYLE
  5
1C
330
B
100
AcDbSymbolTableRecord
100
AcDbTextStyleTableRecord
  2
SUNPOU
 70
     0
 40
0.0
 41
1.0
 50
0.0
 71
     0
 42
30.0
  3
txt
  4
bigfont
  0
STYLE
  5
14A
330
B
100
AcDbSymbolTableRecord
100
AcDbTextStyleTableRecord
  2
LIFE
 70
     0
 40
0.0
 41
0.7
 50
0.0
 71
     0
 42
10.0
  3
romans
  4
extfont
  0
ENDTAB
  0
TABLE
  2
VIEW
  5
10
330
0
100
AcDbSymbolTable
 70
     0
  0
ENDTAB
  0
TABLE
  2
UCS
  5
11
330
0
100
AcDbSymbolTable
 70
     0
  0
ENDTAB
  0
TABLE
  2
APPID
  5
14
330
0
100
AcDbSymbolTable
 70
    10
  0
APPID
  5
15
330
14
100
AcDbSymbolTableRecord
100
AcDbRegAppTableRecord
  2
ACAD
 70
     0
  0
APPID
  5
1D3
330
14
100
AcDbSymbolTableRecord
100
AcDbRegAppTableRecord
  2
ACAD_DSTYLE_DIMTEXT_FILL
 70
     0
  0
APPID
  5
1D4
330
14
100
AcDbSymbolTableRecord
100
AcDbRegAppTableRecord
  2
ACAD_DSTYLE_DIMEXT_LENGTH
 70
     0
  0
APPID
  5
1D5
330
14
100
AcDbSymbolTableRecord
100
AcDbRegAppTableRecord
  2
ACAD_DSTYLE_DIMEXT_ENABLED
 70
     0
  0
APPID
  5
1D6
330
14
100
AcDbSymbolTableRecord
100
AcDbRegAppTableRecord
  2
ACAD_DSTYLE_DIM_LINETYPE
 70
     0
  0
APPID
  5
1D7
330
14
100
AcDbSymbolTableRecord
100
AcDbRegAppTableRecord
  2
ACAD_DSTYLE_DIM_EXT1_LINETYPE
 70
     0
  0
APPID
  5
1D8
330
14
100
AcDbSymbolTableRecord
100
AcDbRegAppTableRecord
  2
ACAD_DSTYLE_DIM_EXT2_LINETYPE
 70
     0
  0
APPID
  5
294
330
14
100
AcDbSymbolTableRecord
100
AcDbRegAppTableRecord
  2
ACAD_DSTYLE_DIMJOGGED_JOGANGLE_SYMBOL
 70
     0
  0
APPID
  5
478
330
14
100
AcDbSymbolTableRecord
100
AcDbRegAppTableRecord
  2
ACAD_DSTYLE_DIMARC_LENGTH_SYMBOL
 70
     0
  0
APPID
  5
F55
330
14
100
AcDbSymbolTableRecord
100
AcDbRegAppTableRecord
  2
ACAD_EXEMPT_FROM_CAD_STANDARDS
 70
     0
  0
ENDTAB
  0
TABLE
  2
DIMSTYLE
  5
16
330
0
100
AcDbSymbolTable
 70
     3
100
AcDbDimStyleTable
 71
     1
340
1E
  0
DIMSTYLE
105
1E
102
{ACAD_REACTORS
330
29C6
330
29D3
102
}
330
16
100
AcDbSymbolTableRecord
100
AcDbDimStyleTableRecord
  2
STANDARD
 70
     0
340
C
  0
DIMSTYLE
105
1005
330
16
100
AcDbSymbolTableRecord
100
AcDbDimStyleTableRecord
  2
1-100
 70
     0
 40
100.0
 41
0.7
 42
2.5
 43
5.0
 44
1.0
 77
     1
147
1.0
172
     1
176
     3
177
     3
271
     2
272
     2
279
     2
340
C
342
109
  0
ENDTAB
  0
TABLE
  2
BLOCK_RECORD
  5
1
330
0
100
AcDbSymbolTable
 70
    25
  0
BLOCK_RECORD
  5
2
102
{ACAD_XDICTIONARY
360
D13
102
}
330
1
100
AcDbSymbolTableRecord
100
AcDbBlockTableRecord
  2
*MODEL_SPACE
340
5A
  0
BLOCK_RECORD
  5
7
330
1
100
AcDbSymbolTableRecord
100
AcDbBlockTableRecord
  2
*PAPER_SPACE
340
5B
  0
BLOCK_RECORD
  5
109
330
1
100
AcDbSymbolTableRecord
100
AcDbBlockTableRecord
  2
_Dot
340
0
102
{BLKREFS
331
2010
331
2011
331
201D
331
201E
331
2117
331
2118
331
2124
331
2125
331
2295
331
2296
331
22B9
331
22BA
331
22D5
331
22D6
331
241E
331
241F
331
24E3
331
24E4
331
24F5
331
24F6
331
2580
331
2581
331
259B
331
259C
331
2645
331
2646
331
2652
331
2653
331
26B6
331
26B7
331
26C3
331
26C4
331
276B
331
276C
331
277D
331
277E
331
28F6
331
28F7
331
28FF
331
2900
331
29FF
331
2A00
331
2A11
331
2A12
102
}
  0
BLOCK_RECORD
  5
28A5
330
1
100
AcDbSymbolTableRecord
100
AcDbBlockTableRecord
  2
*D19
340
0
  0
BLOCK_RECORD
  5
28B2
330
1
100
AcDbSymbolTableRecord
100
AcDbBlockTableRecord
  2
*D20
340
0
  0
BLOCK_RECORD
  5
29C7
330
1
100
AcDbSymbolTableRecord
100
AcDbBlockTableRecord
  2
*D23
340
0
  0
BLOCK_RECORD
  5
29D4
330
1
100
AcDbSymbolTableRecord
100
AcDbBlockTableRecord
  2
*D24
340
0
  0
ENDTAB
  0
ENDSEC
  0
SECTION
  2
BLOCKS
  0
BLOCK
  5
3
330
2
100
AcDbEntity
  8
0
100
AcDbBlockBegin
  2
*MODEL_SPACE
 70
     0
 10
0.0
 20
0.0
 30
0.0
  3
*MODEL_SPACE
  1

  0
ENDBLK
  5
6
330
2
100
AcDbEntity
  8
0
100
AcDbBlockEnd
  0
BLOCK
  5
8
330
7
100
AcDbEntity
 67
     1
  8
0
100
AcDbBlockBegin
  2
*PAPER_SPACE
 70
     0
 10
0.0
 20
0.0
 30
0.0
  3
*PAPER_SPACE
  1

  0
ENDBLK
  5
9
330
7
100
AcDbEntity
 67
     1
  8
0
100
AcDbBlockEnd
  0
BLOCK
  5
10C
330
109
100
AcDbEntity
  8
0
100
AcDbBlockBegin
  2
_Dot
 70
     0
 10
0.0
 20
0.0
 30
0.0
  3
_Dot
  1

  0
LWPOLYLINE
  5
10A
330
109
100
AcDbEntity
  8
0
  6
ByBlock
 62
     0
100
AcDbPolyline
 90
        2
 70
     1
 43
0.5
 10
-0.25
 20
0.0
 42
1.0
 10
0.25
 20
0.0
 42
1.0
  0
LINE
  5
10B
330
109
100
AcDbEntity
  8
0
  6
ByBlock
 62
     0
370
    -2
100
AcDbLine
 10
-0.5
 20
0.0
 30
0.0
 11
-1.0
 21
0.0
 31
0.0
  0
ENDBLK
  5
10D
330
109
100
AcDbEntity
  8
0
100
AcDbBlockEnd
  0
BLOCK
  5
28AF
330
28A5
100
AcDbEntity
  8
0
100
AcDbBlockBegin
  2
*D19
 70
     1
 10
0.0
 20
0.0
 30
0.0
  3
*D19
  1

  0
LINE
  5
28F3
330
28A5
100
AcDbEntity
  8
SUNPOU
 62
    70
370
    -2
100
AcDbLine
 10
-24.8306364237521
 20
115.557185286975
 30
0.0
 11
-24.83063642375209
 21
183.8979766120355
 31
0.0
  0
LINE
  5
28F4
330
28A5
100
AcDbEntity
  8
SUNPOU
 62
    70
370
    -2
100
AcDbLine
 10
170.1693635762479
 20
115.557185286975
 30
0.0
 11
170.1693635762479
 21
183.8979766120355
 31
0.0
  0
LINE
  5
28F5
330
28A5
100
AcDbEntity
  8
SUNPOU
 62
    60
370
    -2
100
AcDbLine
 10
-22.83063642375209
 20
183.8979766120355
 30
0.0
 11
168.1693635762479
 21
183.8979766120355
 31
0.0
  0
INSERT
  5
28F6
330
28A5
100
AcDbEntity
  8
SUNPOU
 62
    60
370
    -2
100
AcDbBlockReference
  2
_Dot
 10
-24.83063642375209
 20
183.8979766120355
 30
0.0
 41
2.0
 42
2.0
 43
2.0
 50
180.0
  0
INSERT
  5
28F7
330
28A5
100
AcDbEntity
  8
SUNPOU
 62
    60
370
    -2
100
AcDbBlockReference
  2
_Dot
 10
170.1693635762479
 20
183.8979766120355
 30
0.0
 41
2.0
 42
2.0
 43
2.0
  0
MTEXT
  5
28F8
330
28A5
100
AcDbEntity
  8
SUNPOU
 62
    60
100
AcDbMText
 10
72.66936357624792
 20
189.3979766120355
 30
0.0
 40
5.0
 41
0.0
 71
     5
 72
     1
  1
\A1;195
  7
SUNPOU
 73
     1
 44
1.0
1001
ACAD
1000
MTEXTBEGIN
1070
    73
1070
     1
1070
    44
1040
1.0
1070
    74
1070
     0
1000
MTEXTEND
  0
POINT
  5
28F9
330
28A5
100
AcDbEntity
  8
DEFPOINTS
 62
     0
100
AcDbPoint
 10
-24.8306364237521
 20
105.557185286975
 30
0.0
  0
POINT
  5
28FA
330
28A5
100
AcDbEntity
  8
DEFPOINTS
 62
     0
100
AcDbPoint
 10
170.1693635762479
 20
105.557185286975
 30
0.0
  0
POINT
  5
28FB
330
28A5
100
AcDbEntity
  8
DEFPOINTS
 62
     0
100
AcDbPoint
 10
170.1693635762479
 20
183.8979766120355
 30
0.0
  0
ENDBLK
  5
28B0
330
28A5
100
AcDbEntity
  8
0
100
AcDbBlockEnd
  0
BLOCK
  5
28BC
330
28B2
100
AcDbEntity
  8
0
100
AcDbBlockBegin
  2
*D20
 70
     1
 10
0.0
 20
0.0
 30
0.0
  3
*D20
  1

  0
LINE
  5
28FC
330
28B2
100
AcDbEntity
  8
SUNPOU
 62
    70
370
    -2
100
AcDbLine
 10
-21.33063642375351
 20
154.1914492309566
 30
0.0
 11
-53.00898335138707
 21
154.1914492309566
 31
0.0
  0
LINE
  5
28FD
330
28B2
100
AcDbEntity
  8
SUNPOU
 62
    70
370
    -2
100
AcDbLine
 10
62.66936357624789
 20
32.19144923095685
 30
0.0
 11
-53.00898335138709
 21
32.19144923095689
 31
0.0
  0
LINE
  5
28FE
330
28B2
100
AcDbEntity
  8
SUNPOU
 62
    60
370
    -2
100
AcDbLine
 10
-53.00898335138707
 20
152.1914492309566
 30
0.0
 11
-53.00898335138709
 21
34.19144923095688
 31
0.0
  0
INSERT
  5
28FF
330
28B2
100
AcDbEntity
  8
SUNPOU
 62
    60
370
    -2
100
AcDbBlockReference
  2
_Dot
 10
-53.00898335138707
 20
154.1914492309566
 30
0.0
 41
2.0
 42
2.0
 43
2.0
 50
90.0
  0
INSERT
  5
2900
330
28B2
100
AcDbEntity
  8
SUNPOU
 62
    60
370
    -2
100
AcDbBlockReference
  2
_Dot
 10
-53.00898335138709
 20
32.19144923095689
 30
0.0
 41
2.0
 42
2.0
 43
2.0
 50
270.0
  0
MTEXT
  5
2901
330
28B2
100
AcDbEntity
  8
SUNPOU
 62
    60
100
AcDbMText
 10
-58.50898335138709
 20
93.19144923095675
 30
0.0
 40
5.0
 41
0.0
 71
     5
 72
     1
  1
\A1;122
  7
SUNPOU
 11
0.0000000000000001
 21
1.0
 31
0.0
 73
     1
 44
1.0
1001
ACAD
1000
MTEXTBEGIN
1070
    73
1070
     1
1070
    44
1040
1.0
1070
    74
1070
     0
1000
MTEXTEND
  0
POINT
  5
2902
330
28B2
100
AcDbEntity
  8
DEFPOINTS
 62
     0
100
AcDbPoint
 10
-11.3306364237535
 20
154.1914492309566
 30
0.0
  0
POINT
  5
2903
330
28B2
100
AcDbEntity
  8
DEFPOINTS
 62
     0
100
AcDbPoint
 10
72.6693635762479
 20
32.19144923095685
 30
0.0
  0
POINT
  5
2904
330
28B2
100
AcDbEntity
  8
DEFPOINTS
 62
     0
100
AcDbPoint
 10
-53.00898335138709
 20
32.19144923095689
 30
0.0
  0
ENDBLK
  5
28BD
330
28B2
100
AcDbEntity
  8
0
100
AcDbBlockEnd
  0
BLOCK
  5
29D1
330
29C7
100
AcDbEntity
  8
0
100
AcDbBlockBegin
  2
*D23
 70
     1
 10
0.0
 20
0.0
 30
0.0
  3
*D23
  1

  0
LINE
  5
2A0E
330
29C7
100
AcDbEntity
  8
SUNPOU
 62
    70
370
    -2
100
AcDbLine
 10
-14.35123912425035
 20
80.61368459387081
 30
0.0
 11
-14.35123912425035
 21
92.46364794139401
 31
0.0
  0
LINE
  5
2A0F
330
29C7
100
AcDbEntity
  8
SUNPOU
 62
    70
370
    -2
100
AcDbLine
 10
175.6487608757496
 20
81.7793531233416
 30
0.0
 11
175.6487608757496
 21
92.46364794139401
 31
0.0
  0
LINE
  5
2A10
330
29C7
100
AcDbEntity
  8
SUNPOU
 62
    60
370
    -2
100
AcDbLine
 10
-12.35123912425035
 20
92.46364794139401
 30
0.0
 11
173.6487608757496
 21
92.46364794139401
 31
0.0
  0
INSERT
  5
2A11
330
29C7
100
AcDbEntity
  8
SUNPOU
 62
    60
370
    -2
100
AcDbBlockReference
  2
_Dot
 10
-14.35123912425035
 20
92.46364794139401
 30
0.0
 41
2.0
 42
2.0
 43
2.0
 50
180.0
  0
INSERT
  5
2A12
330
29C7
100
AcDbEntity
  8
SUNPOU
 62
    60
370
    -2
100
AcDbBlockReference
  2
_Dot
 10
175.6487608757496
 20
92.46364794139401
 30
0.0
 41
2.0
 42
2.0
 43
2.0
  0
MTEXT
  5
2A13
330
29C7
100
AcDbEntity
  8
SUNPOU
 62
    60
100
AcDbMText
 10
80.64876087574964
 20
97.96364794139401
 30
0.0
 40
5.0
 41
0.0
 71
     5
 72
     1
  1
\A1;190
  7
SUNPOU
 73
     1
 44
1.0
1001
ACAD
1000
MTEXTBEGIN
1070
    73
1070
     1
1070
    44
1040
1.0
1070
    74
1070
     0
1000
MTEXTEND
  0
POINT
  5
2A14
330
29C7
100
AcDbEntity
  8
DEFPOINTS
 62
     0
100
AcDbPoint
 10
-14.35123912425035
 20
70.6136845938708
 30
0.0
  0
POINT
  5
2A15
330
29C7
100
AcDbEntity
  8
DEFPOINTS
 62
     0
100
AcDbPoint
 10
175.6487608757496
 20
71.7793531233416
 30
0.0
  0
POINT
  5
2A16
330
29C7
100
AcDbEntity
  8
DEFPOINTS
 62
     0
100
AcDbPoint
 10
175.6487608757496
 20
92.46364794139401
 30
0.0
  0
ENDBLK
  5
29D2
330
29C7
100
AcDbEntity
  8
0
100
AcDbBlockEnd
  0
BLOCK
  5
29DE
330
29D4
100
AcDbEntity
  8
0
100
AcDbBlockBegin
  2
*D24
 70
     1
 10
0.0
 20
0.0
 30
0.0
  3
*D24
  1

  0
LINE
  5
29FC
330
29D4
100
AcDbEntity
  8
SUNPOU
 62
    70
370
    -2
100
AcDbLine
 10
-24.35123912425036
 20
70.6136845938708
 30
0.0
 11
-36.30120157972692
 21
70.61368459387082
 31
0.0
  0
LINE
  5
29FD
330
29D4
100
AcDbEntity
  8
SUNPOU
 62
    70
370
    -2
100
AcDbLine
 10
-24.24874540162227
 20
35.61368459387081
 30
0.0
 11
-36.30120157972692
 21
35.61368459387081
 31
0.0
  0
LINE
  5
29FE
330
29D4
100
AcDbEntity
  8
SUNPOU
 62
    60
370
    -2
100
AcDbLine
 10
-36.30120157972692
 20
68.61368459387081
 30
0.0
 11
-36.30120157972692
 21
37.61368459387081
 31
0.0
  0
INSERT
  5
29FF
330
29D4
100
AcDbEntity
  8
SUNPOU
 62
    60
370
    -2
100
AcDbBlockReference
  2
_Dot
 10
-36.30120157972692
 20
70.61368459387082
 30
0.0
 41
2.0
 42
2.0
 43
2.0
 50
90.0
  0
INSERT
  5
2A00
330
29D4
100
AcDbEntity
  8
SUNPOU
 62
    60
370
    -2
100
AcDbBlockReference
  2
_Dot
 10
-36.30120157972692
 20
35.61368459387081
 30
0.0
 41
2.0
 42
2.0
 43
2.0
 50
270.0
  0
MTEXT
  5
2A01
330
29D4
100
AcDbEntity
  8
SUNPOU
 62
    60
100
AcDbMText
 10
-41.80120157972693
 20
53.1136845938708
 30
0.0
 40
5.0
 41
0.0
 71
     5
 72
     1
  1
\A1;35
  7
SUNPOU
 11
0.0000000000000001
 21
1.0
 31
0.0
 73
     1
 44
1.0
1001
ACAD
1000
MTEXTBEGIN
1070
    73
1070
     1
1070
    44
1040
1.0
1070
    74
1070
     0
1000
MTEXTEND
  0
POINT
  5
2A02
330
29D4
100
AcDbEntity
  8
DEFPOINTS
 62
     0
100
AcDbPoint
 10
-14.35123912425035
 20
70.6136845938708
 30
0.0
  0
POINT
  5
2A03
330
29D4
100
AcDbEntity
  8
DEFPOINTS
 62
     0
100
AcDbPoint
 10
-14.24874540162227
 20
35.6136845938708
 30
0.0
  0
POINT
  5
2A04
330
29D4
100
AcDbEntity
  8
DEFPOINTS
 62
     0
100
AcDbPoint
 10
-36.30120157972692
 20
35.61368459387081
 30
0.0
  0
ENDBLK
  5
29DF
330
29D4
100
AcDbEntity
  8
0
100
AcDbBlockEnd
  0
ENDSEC
  0
SECTION
  2
ENTITIES
  0
LINE
  5
1F
330
2
100
AcDbEntity
  8
WAKU
100
AcDbLine
 10
0.0
 20
14.0
 30
0.0
 11
148.6829221395387
 21
14.0
 31
0.0
  0
LINE
  5
20
330
2
100
AcDbEntity
  8
WAKU
100
AcDbLine
 10
0.0
 20
0.0
 30
0.0
 11
148.6829221395387
 21
0.0
 31
0.0
  0
TEXT
  5
21
330
2
100
AcDbEntity
  8
HOJO
100
AcDbText
 10
9.653966000000025
 20
2.366626000000024
 30
0.0
 40
9.0
  1
TWC257
  7
SUNPOU
100
AcDbText
  0
TEXT
  5
23
330
2
100
AcDbEntity
  8
HOJO
100
AcDbText
 10
85.84696046283864
 20
5.044386000000031
 30
0.0
 40
6.0
  1
190×35×6
  7
SUNPOU
100
AcDbText
  0
ARC
  5
294F
102
{ACAD_REACTORS
330
2A17
102
}
330
2
100
AcDbEntity
  8
KIJUN
100
AcDbCircle
 10
80.52049520550486
 20
61.73324181012708
 30
0.0
 40
5.881841498632971
100
AcDbArc
 50
29.32203848553222
 51
88.75044845032995
  0
ARC
  5
2950
102
{ACAD_REACTORS
330
2A17
102
}
330
2
100
AcDbEntity
  8
KIJUN
100
AcDbCircle
 10
88.82264494273568
 20
58.40827415342983
 30
0.0
 40
6.969982697610823
100
AcDbArc
 50
336.7764430685748
 51
117.0884020011611
  0
SPLINE
  5
2951
102
{ACAD_REACTORS
330
2A17
102
}
330
2
100
AcDbEntity
  8
KIJUN
100
AcDbSpline
210
0.0
220
0.0
230
1.0
 70
     8
 71
     3
 72
    10
 73
     6
 74
     4
 42
0.0000000001
 43
0.0000000001
 44
0.0000000001
 40
0.0
 40
0.0
 40
0.0
 40
0.0
 40
3.477627890922566
 40
6.064136354326484
 40
11.88172196210074
 40
11.88172196210074
 40
11.88172196210074
 40
11.88172196210074
 10
95.22787290097836
 20
55.6598721435447
 30
0.0
 10
96.3141135814061
 20
55.16540143091737
 30
0.0
 10
98.20825286437088
 20
54.30316489536969
 30
0.0
 10
102.5226634861757
 20
56.10756204209983
 30
0.0
 10
101.4153080841588
 20
59.36132481394754
 30
0.0
 10
100.6487608757502
 20
61.61368459387074
 30
0.0
 11
95.22787290097836
 21
55.6598721435447
 31
0.0
 11
98.58783159185122
 21
54.76289201926636
 31
0.0
 11
100.9554728275302
 21
55.80418977225178
 31
0.0
 11
100.6487608757502
 21
61.61368459387074
 31
0.0
  0
SPLINE
  5
2952
102
{ACAD_REACTORS
330
2A17
102
}
330
2
100
AcDbEntity
  8
KIJUN
100
AcDbSpline
210
0.0
220
0.0
230
1.0
 70
     8
 71
     3
 72
    12
 73
     8
 74
     6
 42
0.0000000001
 43
0.0000000001
 44
0.0000000001
 40
0.0
 40
0.0
 40
0.0
 40
0.0
 40
2.134058400923717
 40
5.018888905128603
 40
9.014505291656137
 40
13.04042489916464
 40
21.33260357814121
 40
21.33260357814121
 40
21.33260357814121
 40
21.33260357814121
 10
100.6487608757502
 20
61.61368459387074
 30
0.0
 10
101.1344677325953
 20
62.1433083370467
 30
0.0
 10
102.2767554759436
 20
63.38888002682239
 30
0.0
 10
105.1307555476746
 20
64.54021804990404
 30
0.0
 10
109.1186537470363
 20
64.40812248535038
 30
0.0
 10
112.6941046121044
 20
59.63731169295588
 30
0.0
 10
112.6670041222845
 20
55.43951614274878
 30
0.0
 10
112.6487608757502
 20
52.61368459387075
 30
0.0
 11
100.6487608757502
 21
61.61368459387074
 31
0.0
 11
102.1866440378803
 21
63.09325231391255
 31
0.0
 11
104.838405570144
 21
64.22921349898786
 31
0.0
 11
108.8160394977808
 21
63.85055977062927
 31
0.0
 11
111.4678010300444
 21
60.82133718684179
 31
0.0
 11
112.6487608757502
 21
52.61368459387075
 31
0.0
  0
SPLINE
  5
2953
102
{ACAD_REACTORS
330
2A17
102
}
330
2
100
AcDbEntity
  8
KIJUN
100
AcDbSpline
210
0.0
220
0.0
230
1.0
 70
     8
 71
     3
 72
    10
 73
     6
 74
     4
 42
0.0000000001
 43
0.0000000001
 44
0.0000000001
 40
0.0
 40
0.0
 40
0.0
 40
0.0
 40
4.101249410273093
 40
6.053131490695541
 40
9.613007186297352
 40
9.613007186297352
 40
9.613007186297352
 40
9.613007186297352
 10
112.6487608757504
 20
52.61368459387075
 30
0.0
 10
113.4209418009576
 20
53.67652348984134
 30
0.0
 10
114.5606219830938
 20
55.24519267992295
 30
0.0
 10
116.3933965035576
 20
58.39823705982652
 30
0.0
 10
118.3712960679906
 20
57.3139757785788
 30
0.0
 10
119.6487608757502
 20
56.61368459387074
 30
0.0
 11
112.6487608757504
 21
52.61368459387075
 31
0.0
 11
114.9719067105457
 21
55.99351301489139
 31
0.0
 11
116.2030835014016
 21
57.50812430678513
 31
0.0
 11
119.6487608757502
 21
56.61368459387074
 31
0.0
  0
SPLINE
  5
2954
102
{ACAD_REACTORS
330
2A17
102
}
330
2
100
AcDbEntity
  8
KIJUN
100
AcDbSpline
210
0.0
220
0.0
230
1.0
 70
     8
 71
     3
 72
     9
 73
     5
 74
     3
 42
0.0000000001
 43
0.0000000001
 44
0.0000000001
 40
0.0
 40
0.0
 40
0.0
 40
0.0
 40
3.246954526460874
 40
7.549306928198825
 40
7.549306928198825
 40
7.549306928198825
 40
7.549306928198825
 10
119.6487608757502
 20
56.61368459387074
 30
0.0
 10
120.2090340924477
 20
57.59698857491276
 30
0.0
 10
121.5116930739731
 20
59.88321201786843
 30
0.0
 10
124.1469354268724
 20
60.34851071785249
 30
0.0
 10
125.6487608757502
 20
60.61368459387074
 30
0.0
 11
119.6487608757502
 21
56.61368459387074
 31
0.0
 11
121.5760894448162
 21
59.22675142879223
 31
0.0
 11
125.6487608757502
 21
60.61368459387074
 31
0.0
  0
SPLINE
  5
2955
102
{ACAD_REACTORS
330
2A17
102
}
330
2
100
AcDbEntity
  8
KIJUN
100
AcDbSpline
210
0.0
220
0.0
230
1.0
 70
     8
 71
     3
 72
    12
 73
     8
 74
     6
 42
0.0000000001
 43
0.0000000001
 44
0.0000000001
 40
0.0
 40
0.0
 40
0.0
 40
0.0
 40
2.447773547152997
 40
3.475875872138979
 40
4.542256671912947
 40
6.624857981612983
 40
10.97936599810704
 40
10.97936599810704
 40
10.97936599810704
 40
10.97936599810704
 10
125.6487608757502
 20
60.61368459387074
 30
0.0
 10
126.4710747109867
 20
60.85021494649797
 30
0.0
 10
127.6387729331319
 20
61.18609166462073
 30
0.0
 10
128.533332272835
 20
62.43024505759497
 30
0.0
 10
130.118493255483
 20
62.91983587844757
 30
0.0
 10
131.2188099217886
 20
59.91291933159925
 30
0.0
 10
131.4752720634367
 20
57.94495345353509
 30
0.0
 10
131.6487608757502
 20
56.61368459387074
 30
0.0
 11
125.6487608757502
 21
60.61368459387074
 31
0.0
 11
127.876095544319
 21
61.62885729461357
 31
0.0
 11
128.6179177733242
 21
62.34068183141687
 31
0.0
 11
129.6487608757502
 21
62.61368459387075
 31
0.0
 11
130.8136961689829
 21
60.8873723458272
 31
0.0
 11
131.6487608757502
 21
56.61368459387074
 31
0.0
  0
ARC
  5
2956
102
{ACAD_REACTORS
330
2A17
102
}
330
2
100
AcDbEntity
  8
KIJUN
100
AcDbCircle
 10
132.3298733462627
 20
52.97590953489555
 30
0.0
 40
3.700989270072169
100
AcDbArc
 50
26.26500730777025
 51
100.604890338071
  0
ARC
  5
295C
102
{ACAD_REACTORS
330
2A17
102
}
330
2
100
AcDbEntity
  8
KIJUN
100
AcDbCircle
 10
89.64876087574998
 20
41.28631013274923
 30
0.0
 40
4.810709643188178
100
AcDbArc
 50
213.7491185202776
 51
326.2508814797224
  0
ARC
  5
295D
102
{ACAD_REACTORS
330
2A17
102
}
330
2
100
AcDbEntity
  8
KIJUN
100
AcDbCircle
 10
80.10893224559003
 20
42.18006564413792
 30
0.0
 40
6.588533603712366
100
AcDbArc
 50
274.6997732437605
 51
327.2277398203783
  0
ARC
  5
295E
102
{ACAD_REACTORS
330
2A17
102
}
330
2
100
AcDbEntity
  8
KIJUN
100
AcDbCircle
 10
105.6433367015509
 20
56.53509254027153
 30
0.0
 40
21.56494173472797
100
AcDbArc
 50
157.9993618595114
 51
236.2060960785948
  0
ARC
  5
295F
102
{ACAD_REACTORS
330
2A17
102
}
330
2
100
AcDbEntity
  8
KIJUN
100
AcDbCircle
 10
92.48384278753951
 20
58.41321707895952
 30
0.0
 40
2.969709469456294
100
AcDbArc
 50
118.0738318368078
 51
276.5912100036679
  0
SPLINE
  5
2960
102
{ACAD_REACTORS
330
2A17
102
}
330
2
100
AcDbEntity
  8
KIJUN
100
AcDbSpline
210
0.0
220
0.0
230
1.0
 70
    24
 71
     3
 72
     8
 73
     4
 74
     2
 42
0.0000000001
 43
0.0000000001
 44
0.0000000001
 40
0.0
 40
0.0
 40
0.0
 40
0.0
 40
2.411192268504375
 40
2.411192268504375
 40
2.411192268504375
 40
2.411192268504375
 10
95.22787290097836
 20
55.6598721435447
 30
0.0
 10
94.42682198430203
 20
55.5942935090469
 30
0.0
 10
93.6257710676257
 20
55.52871487454911
 30
0.0
 10
92.82472015094937
 20
55.46313624005131
 30
0.0
 11
95.22787290097836
 21
55.6598721435447
 31
0.0
 11
92.82472015094937
 21
55.46313624005131
 31
0.0
  0
SPLINE
  5
2961
102
{ACAD_REACTORS
330
2A17
102
}
330
2
100
AcDbEntity
  8
KIJUN
100
AcDbSpline
210
0.0
220
0.0
230
1.0
 70
     8
 71
     3
 72
    15
 73
    11
 74
     9
 42
0.0000000001
 43
0.0000000001
 44
0.0000000001
 40
0.0
 40
0.0
 40
0.0
 40
0.0
 40
12.15623627613256
 40
24.60354592743003
 40
38.03502804648584
 40
45.47438521306324
 40
52.5226961637934
 40
54.19871816547189
 40
57.00046837816507
 40
60.48973842854842
 40
60.48973842854842
 40
60.48973842854842
 40
60.48973842854842
 10
135.6487608757502
 20
54.61368459387063
 30
0.0
 10
132.9046489480173
 20
51.46176011559099
 30
0.0
 10
127.3507190711734
 20
45.08244032453016
 30
0.0
 10
114.3628088642625
 20
42.85167184851613
 30
0.0
 10
103.1741718081962
 20
41.48374636625783
 30
0.0
 10
94.25280721191052
 20
45.4756504529404
 30
0.0
 10
91.17884904098906
 20
50.19967972982455
 30
0.0
 10
89.80493721152511
 20
53.7566535186453
 30
0.0
 10
88.82620713328998
 20
56.32863039029704
 30
0.0
 10
89.41676539721976
 20
58.40689162167176
 30
0.0
 10
89.74431437610816
 20
59.55958456625978
 30
0.0
 11
135.6487608757502
 21
54.61368459387063
 31
0.0
 11
126.7212940408758
 21
46.36296242466755
 31
0.0
 11
114.7327643434073
 21
43.01472807680613
 31
0.0
 11
101.3025729748892
 21
42.82852464102063
 31
0.0
 11
94.62203983962968
 21
46.10182757240443
 31
0.0
 11
90.5613238633764
 21
51.86284076613901
 31
0.0
 11
89.93683632423312
 21
53.41817515576884
 31
0.0
 11
89.18108654256389
 21
56.11607184056481
 31
0.0
 11
89.74431437610816
 21
59.55958456625978
 31
0.0
  0
SPLINE
  5
2962
102
{ACAD_REACTORS
330
2A17
102
}
330
2
100
AcDbEntity
  8
KIJUN
100
AcDbSpline
210
0.0
220
0.0
230
1.0
 70
     8
 71
     3
 72
    11
 73
     7
 74
     5
 42
0.0000000001
 43
0.0000000001
 44
0.0000000001
 40
0.0
 40
0.0
 40
0.0
 40
0.0
 40
6.332546102625585
 40
11.50800486119391
 40
18.98153766336483
 40
24.0155106649424
 40
24.0155106649424
 40
24.0155106649424
 40
24.0155106649424
 10
92.82472015094937
 20
55.46313624005131
 30
0.0
 10
94.09085397223867
 20
53.73682239782699
 30
0.0
 10
96.39177273922213
 20
50.59962801087627
 30
0.0
 10
102.1302693277437
 20
47.60536205051244
 30
0.0
 10
108.8244614568357
 20
47.97456745722437
 30
0.0
 10
111.5512809974337
 20
51.2823720702115
 30
0.0
 10
112.6487608757506
 20
52.61368459387075
 30
0.0
 11
92.82472015094937
 21
55.46313624005131
 31
0.0
 11
96.97987519413437
 21
50.68445161884302
 31
0.0
 11
101.5969765089944
 21
48.34612982534259
 31
0.0
 11
109.0310328851506
 21
49.11326628077723
 31
0.0
 11
112.6487608757506
 21
52.61368459387075
 31
0.0
  0
ARC
  5
2963
102
{ACAD_REACTORS
330
2A17
102
}
330
2
100
AcDbEntity
  8
KIJUN
100
AcDbCircle
 10
98.25358655107425
 20
63.42108889747464
 30
0.0
 40
22.4520430637393
100
AcDbArc
 50
305.8240788882498
 51
342.3502433773692
  0
ARC
  5
2964
102
{ACAD_REACTORS
330
2A17
102
}
330
2
100
AcDbEntity
  8
KIJUN
100
AcDbCircle
 10
95.89899450957274
 20
96.4498055897492
 30
0.0
 40
53.52534288759439
100
AcDbArc
 50
286.8281940005354
 51
311.9054650314613
  0
ARC
  5
2965
102
{ACAD_REACTORS
330
2A17
102
}
330
2
100
AcDbEntity
  8
KIJUN
100
AcDbCircle
 10
25.90539230561172
 20
158.4699276523347
 30
0.0
 40
142.522894367559
100
AcDbArc
 50
310.0164557517206
 51
315.2696739624594
  0
ARC
  5
2966
102
{ACAD_REACTORS
330
2A17
102
}
330
2
100
AcDbEntity
  8
KIJUN
100
AcDbCircle
 10
117.492940351623
 20
69.45842299191645
 30
0.0
 40
26.6007224983806
100
AcDbArc
 50
292.5576917569673
 51
349.506261207834
  0
ARC
  5
2967
102
{ACAD_REACTORS
330
2A17
102
}
330
2
100
AcDbEntity
  8
KIJUN
100
AcDbCircle
 10
109.9326196196741
 20
94.71578469836321
 30
0.0
 40
54.46901798034565
100
AcDbArc
 50
294.6655753427418
 51
325.1796390730046
  0
ARC
  5
2968
102
{ACAD_REACTORS
330
2A17
102
}
330
2
100
AcDbEntity
  8
KIJUN
100
AcDbCircle
 10
122.9539037666011
 20
82.56013552757384
 30
0.0
 40
40.52760684449927
100
AcDbArc
 50
298.8164785402944
 51
328.8792088200568
  0
ARC
  5
2969
102
{ACAD_REACTORS
330
2A17
102
}
330
2
100
AcDbEntity
  8
KIJUN
100
AcDbCircle
 10
167.1253720823624
 20
40.49894433340421
 30
0.0
 40
18.12100915916207
100
AcDbArc
 50
91.50714343869593
 51
126.652437156017
  0
ARC
  5
296A
102
{ACAD_REACTORS
330
2A17
102
}
330
2
100
AcDbEntity
  8
KIJUN
100
AcDbCircle
 10
91.84911068803785
 20
47.96385950001433
 30
0.0
 40
11.21918484428424
100
AcDbArc
 50
176.6795194775897
 51
236.4505828765634
  0
ARC
  5
296C
102
{ACAD_REACTORS
330
2A17
102
}
330
2
100
AcDbEntity
  8
KIJUN
100
AcDbCircle
 10
135.3921294458887
 20
158.4699276523347
 30
0.0
 40
142.522894367559
100
AcDbArc
 50
224.7303260375405
 51
229.9835442482794
  0
ARC
  5
296D
102
{ACAD_REACTORS
330
2A17
102
}
330
2
100
AcDbEntity
  8
KIJUN
100
AcDbCircle
 10
65.39852724192769
 20
96.4498055897492
 30
0.0
 40
53.52534288759439
100
AcDbArc
 50
228.0945349685388
 51
253.1718059994645
  0
SPLINE
  5
296E
102
{ACAD_REACTORS
330
2A17
102
}
330
2
100
AcDbEntity
  8
KIJUN
100
AcDbSpline
210
0.0
220
0.0
230
1.0
 70
     8
 71
     3
 72
    15
 73
    11
 74
     9
 42
0.0000000001
 43
0.0000000001
 44
0.0000000001
 40
0.0
 40
0.0
 40
0.0
 40
0.0
 40
12.15623627613256
 40
24.60354592743003
 40
38.03502804648584
 40
45.47438521306324
 40
52.5226961637934
 40
54.19871816547189
 40
57.00046837816507
 40
60.48973842854842
 40
60.48973842854842
 40
60.48973842854842
 40
60.48973842854842
 10
25.64876087575021
 20
54.61368459387063
 30
0.0
 10
28.39287280348316
 20
51.46176011559099
 30
0.0
 10
33.9468026803271
 20
45.08244032453016
 30
0.0
 10
46.93471288723787
 20
42.85167184851613
 30
0.0
 10
58.12334994330422
 20
41.48374636625783
 30
0.0
 10
67.04471453958991
 20
45.4756504529404
 30
0.0
 10
70.11867271051136
 20
50.19967972982455
 30
0.0
 10
71.49258453997538
 20
53.7566535186453
 30
0.0
 10
72.47131461821044
 20
56.32863039029704
 30
0.0
 10
71.8807563542806
 20
58.40689162167176
 30
0.0
 10
71.55320737539227
 20
59.55958456625978
 30
0.0
 11
25.64876087575021
 21
54.61368459387063
 31
0.0
 11
34.57622771062461
 21
46.36296242466755
 31
0.0
 11
46.5647574080931
 21
43.01472807680613
 31
0.0
 11
59.99494877661118
 21
42.82852464102063
 31
0.0
 11
66.67548191187075
 21
46.10182757240443
 31
0.0
 11
70.73619788812402
 21
51.86284076613901
 31
0.0
 11
71.3606854272673
 21
53.41817515576884
 31
0.0
 11
72.11643520893654
 21
56.11607184056481
 31
0.0
 11
71.55320737539227
 21
59.55958456625978
 31
0.0
  0
SPLINE
  5
296F
102
{ACAD_REACTORS
330
2A17
102
}
330
2
100
AcDbEntity
  8
KIJUN
100
AcDbSpline
210
0.0
220
0.0
230
1.0
 70
     8
 71
     3
 72
     9
 73
     5
 74
     3
 42
0.0000000001
 43
0.0000000001
 44
0.0000000001
 40
0.0
 40
0.0
 40
0.0
 40
0.0
 40
3.246954526460874
 40
7.549306928198825
 40
7.549306928198825
 40
7.549306928198825
 40
7.549306928198825
 10
41.64876087575021
 20
56.61368459387074
 30
0.0
 10
41.0884876590527
 20
57.59698857491276
 30
0.0
 10
39.78582867752732
 20
59.88321201786843
 30
0.0
 10
37.15058632462797
 20
60.34851071785249
 30
0.0
 10
35.64876087575021
 20
60.61368459387074
 30
0.0
 11
41.64876087575021
 21
56.61368459387074
 31
0.0
 11
39.72143230668417
 21
59.22675142879223
 31
0.0
 11
35.64876087575021
 21
60.61368459387074
 31
0.0
  0
ARC
  5
2970
102
{ACAD_REACTORS
330
2A17
102
}
330
2
100
AcDbEntity
  8
KIJUN
100
AcDbCircle
 10
69.44841106346257
 20
47.96385950001433
 30
0.0
 40
11.21918484428424
100
AcDbArc
 50
303.5494171234363
 51
3.320480522410263
  0
ARC
  5
2971
102
{ACAD_REACTORS
330
2A17
102
}
330
2
100
AcDbEntity
  8
KIJUN
100
AcDbCircle
 10
63.04393520042617
 20
63.42108889747464
 30
0.0
 40
22.4520430637393
100
AcDbArc
 50
197.6497566226308
 51
234.1759211117501
  0
SPLINE
  5
2972
102
{ACAD_REACTORS
330
2A17
102
}
330
2
100
AcDbEntity
  8
KIJUN
100
AcDbSpline
210
0.0
220
0.0
230
1.0
 70
     8
 71
     3
 72
    11
 73
     7
 74
     5
 42
0.0000000001
 43
0.0000000001
 44
0.0000000001
 40
0.0
 40
0.0
 40
0.0
 40
0.0
 40
6.332546102625585
 40
11.50800486119391
 40
18.98153766336483
 40
24.0155106649424
 40
24.0155106649424
 40
24.0155106649424
 40
24.0155106649424
 10
68.47280160055106
 20
55.46313624005131
 30
0.0
 10
67.20666777926175
 20
53.73682239782699
 30
0.0
 10
64.9057490122783
 20
50.59962801087627
 30
0.0
 10
59.16725242375668
 20
47.60536205051244
 30
0.0
 10
52.47306029466478
 20
47.97456745722437
 30
0.0
 10
49.7462407540666
 20
51.2823720702115
 30
0.0
 10
48.64876087574976
 20
52.61368459387075
 30
0.0
 11
68.47280160055106
 21
55.46313624005131
 31
0.0
 11
64.31764655736606
 21
50.68445161884302
 31
0.0
 11
59.70054524250599
 21
48.34612982534259
 31
0.0
 11
52.26648886634984
 21
49.11326628077723
 31
0.0
 11
48.64876087574976
 21
52.61368459387075
 31
0.0
  0
SPLINE
  5
2973
102
{ACAD_REACTORS
330
2A17
102
}
330
2
100
AcDbEntity
  8
KIJUN
100
AcDbSpline
210
0.0
220
0.0
230
1.0
 70
    24
 71
     3
 72
     8
 73
     4
 74
     2
 42
0.0000000001
 43
0.0000000001
 44
0.0000000001
 40
0.0
 40
0.0
 40
0.0
 40
0.0
 40
2.411192268504375
 40
2.411192268504375
 40
2.411192268504375
 40
2.411192268504375
 10
66.06964885052207
 20
55.6598721435447
 30
0.0
 10
66.8706997671984
 20
55.5942935090469
 30
0.0
 10
67.67175068387473
 20
55.52871487454911
 30
0.0
 10
68.47280160055106
 20
55.46313624005131
 30
0.0
 11
66.06964885052207
 21
55.6598721435447
 31
0.0
 11
68.47280160055106
 21
55.46313624005131
 31
0.0
  0
ARC
  5
2974
102
{ACAD_REACTORS
330
2A17
102
}
330
2
100
AcDbEntity
  8
KIJUN
100
AcDbCircle
 10
72.47487680876474
 20
58.40827415342983
 30
0.0
 40
6.969982697610823
100
AcDbArc
 50
62.91159799883883
 51
203.2235569314252
  0
SPLINE
  5
2975
102
{ACAD_REACTORS
330
2A17
102
}
330
2
100
AcDbEntity
  8
KIJUN
100
AcDbSpline
210
0.0
220
0.0
230
1.0
 70
     8
 71
     3
 72
    10
 73
     6
 74
     4
 42
0.0000000001
 43
0.0000000001
 44
0.0000000001
 40
0.0
 40
0.0
 40
0.0
 40
0.0
 40
3.477627890922566
 40
6.064136354326484
 40
11.88172196210074
 40
11.88172196210074
 40
11.88172196210074
 40
11.88172196210074
 10
66.06964885052207
 20
55.6598721435447
 30
0.0
 10
64.98340817009432
 20
55.16540143091737
 30
0.0
 10
63.08926888712949
 20
54.30316489536969
 30
0.0
 10
58.77485826532461
 20
56.10756204209983
 30
0.0
 10
59.8822136673416
 20
59.36132481394754
 30
0.0
 10
60.64876087575021
 20
61.61368459387074
 30
0.0
 11
66.06964885052207
 21
55.6598721435447
 31
0.0
 11
62.7096901596492
 21
54.76289201926636
 31
0.0
 11
60.3420489239702
 21
55.80418977225178
 31
0.0
 11
60.64876087575021
 21
61.61368459387074
 31
0.0
  0
ARC
  5
2976
102
{ACAD_REACTORS
330
2A17
102
}
330
2
100
AcDbEntity
  8
KIJUN
100
AcDbCircle
 10
68.81367896396091
 20
58.41321707895952
 30
0.0
 40
2.969709469456294
100
AcDbArc
 50
263.4087899963189
 51
61.92616816319222
  0
ARC
  5
2977
102
{ACAD_REACTORS
330
2A17
102
}
330
2
100
AcDbEntity
  8
KIJUN
100
AcDbCircle
 10
55.65418504994955
 20
56.53509254027153
 30
0.0
 40
21.56494173472797
100
AcDbArc
 50
303.7939039214052
 51
22.00063814048858
  0
ARC
  5
2978
102
{ACAD_REACTORS
330
2A17
102
}
330
2
100
AcDbEntity
  8
KIJUN
100
AcDbCircle
 10
81.18858950591038
 20
42.18006564413792
 30
0.0
 40
6.588533603712366
100
AcDbArc
 50
212.7722601796217
 51
265.3002267562395
  0
ARC
  5
2979
102
{ACAD_REACTORS
330
2A17
102
}
330
2
100
AcDbEntity
  8
KIJUN
100
AcDbCircle
 10
71.64876087575044
 20
41.28631013274923
 30
0.0
 40
4.810709643188178
100
AcDbArc
 50
213.7491185202776
 51
326.2508814797224
  0
SPLINE
  5
297A
102
{ACAD_REACTORS
330
2A17
102
}
330
2
100
AcDbEntity
  8
KIJUN
100
AcDbSpline
210
0.0
220
0.0
230
1.0
 70
     8
 71
     3
 72
    10
 73
     6
 74
     4
 42
0.0000000001
 43
0.0000000001
 44
0.0000000001
 40
0.0
 40
0.0
 40
0.0
 40
0.0
 40
4.101249410273093
 40
6.053131490695541
 40
9.613007186297352
 40
9.613007186297352
 40
9.613007186297352
 40
9.613007186297352
 10
48.64876087574998
 20
52.61368459387075
 30
0.0
 10
47.87657995054281
 20
53.67652348984134
 30
0.0
 10
46.73689976840665
 20
55.24519267992295
 30
0.0
 10
44.90412524794277
 20
58.39823705982652
 30
0.0
 10
42.92622568350981
 20
57.3139757785788
 30
0.0
 10
41.64876087575021
 20
56.61368459387074
 30
0.0
 11
48.64876087574998
 21
52.61368459387075
 31
0.0
 11
46.32561504095474
 21
55.99351301489139
 31
0.0
 11
45.09443825009884
 21
57.50812430678513
 31
0.0
 11
41.64876087575021
 21
56.61368459387074
 31
0.0
  0
SPLINE
  5
297B
102
{ACAD_REACTORS
330
2A17
102
}
330
2
100
AcDbEntity
  8
KIJUN
100
AcDbSpline
210
0.0
220
0.0
230
1.0
 70
     8
 71
     3
 72
    12
 73
     8
 74
     6
 42
0.0000000001
 43
0.0000000001
 44
0.0000000001
 40
0.0
 40
0.0
 40
0.0
 40
0.0
 40
2.134058400923717
 40
5.018888905128603
 40
9.014505291656137
 40
13.04042489916464
 40
21.33260357814121
 40
21.33260357814121
 40
21.33260357814121
 40
21.33260357814121
 10
60.64876087575021
 20
61.61368459387074
 30
0.0
 10
60.16305401890509
 20
62.1433083370467
 30
0.0
 10
59.02076627555675
 20
63.38888002682239
 30
0.0
 10
56.16676620382583
 20
64.54021804990404
 30
0.0
 10
52.17886800446405
 20
64.40812248535038
 30
0.0
 10
48.60341713939601
 20
59.63731169295588
 30
0.0
 10
48.63051762921589
 20
55.43951614274878
 30
0.0
 10
48.64876087575021
 20
52.61368459387075
 30
0.0
 11
60.64876087575021
 21
61.61368459387074
 31
0.0
 11
59.11087771362009
 21
63.09325231391255
 31
0.0
 11
56.45911618135642
 21
64.22921349898786
 31
0.0
 11
52.4814822537196
 21
63.85055977062927
 31
0.0
 11
49.82972072145594
 21
60.82133718684179
 31
0.0
 11
48.64876087575021
 21
52.61368459387075
 31
0.0
  0
ARC
  5
297C
102
{ACAD_REACTORS
330
2A17
102
}
330
2
100
AcDbEntity
  8
KIJUN
100
AcDbCircle
 10
80.77702654599557
 20
61.73324181012708
 30
0.0
 40
5.881841498632971
100
AcDbArc
 50
91.24955154967004
 51
150.6779615144677
  0
ARC
  5
297D
102
{ACAD_REACTORS
330
2A17
102
}
330
2
100
AcDbEntity
  8
KIJUN
100
AcDbCircle
 10
-5.82785033086202
 20
40.49894433340421
 30
0.0
 40
18.12100915916207
100
AcDbArc
 50
53.34756284398295
 51
88.49285656130406
  0
ARC
  5
297F
102
{ACAD_REACTORS
330
2A17
102
}
330
2
100
AcDbEntity
  8
KIJUN
100
AcDbCircle
 10
38.34361798489931
 20
82.56013552757384
 30
0.0
 40
40.52760684449927
100
AcDbArc
 50
211.1207911799433
 51
241.1835214597056
  0
ARC
  5
2980
102
{ACAD_REACTORS
330
2A17
102
}
330
2
100
AcDbEntity
  8
KIJUN
100
AcDbCircle
 10
51.36490213182629
 20
94.71578469836321
 30
0.0
 40
54.46901798034565
100
AcDbArc
 50
214.8203609269954
 51
245.3344246572583
  0
ARC
  5
2981
102
{ACAD_REACTORS
330
2A17
102
}
330
2
100
AcDbEntity
  8
KIJUN
100
AcDbCircle
 10
43.8045813998774
 20
69.45842299191645
 30
0.0
 40
26.6007224983806
100
AcDbArc
 50
190.4937387921655
 51
247.4423082430328
  0
ARC
  5
2985
102
{ACAD_REACTORS
330
2A17
102
}
330
2
100
AcDbEntity
  8
KIJUN
100
AcDbCircle
 10
28.9676484052377
 20
52.97590953489555
 30
0.0
 40
3.700989270072169
100
AcDbArc
 50
79.39510966192901
 51
153.7349926922297
  0
SPLINE
  5
2986
102
{ACAD_REACTORS
330
2A17
102
}
330
2
100
AcDbEntity
  8
KIJUN
100
AcDbSpline
210
0.0
220
0.0
230
1.0
 70
     8
 71
     3
 72
    12
 73
     8
 74
     6
 42
0.0000000001
 43
0.0000000001
 44
0.0000000001
 40
0.0
 40
0.0
 40
0.0
 40
0.0
 40
2.447773547152997
 40
3.475875872138979
 40
4.542256671912947
 40
6.624857981612983
 40
10.97936599810704
 40
10.97936599810704
 40
10.97936599810704
 40
10.97936599810704
 10
35.64876087575021
 20
60.61368459387074
 30
0.0
 10
34.8264470405137
 20
60.85021494649797
 30
0.0
 10
33.6587488183684
 20
61.18609166462073
 30
0.0
 10
32.76418947866535
 20
62.43024505759497
 30
0.0
 10
31.1790284960174
 20
62.91983587844757
 30
0.0
 10
30.07871182971178
 20
59.91291933159925
 30
0.0
 10
29.82224968806372
 20
57.94495345353509
 30
0.0
 10
29.64876087575021
 20
56.61368459387074
 30
0.0
 11
35.64876087575021
 21
60.61368459387074
 31
0.0
 11
33.42142620718141
 21
61.62885729461357
 31
0.0
 11
32.67960397817615
 21
62.34068183141687
 31
0.0
 11
31.64876087575021
 21
62.61368459387075
 31
0.0
 11
30.48382558251751
 21
60.8873723458272
 31
0.0
 11
29.64876087575021
 21
56.61368459387074
 31
0.0
  0
ARC
  5
298C
102
{ACAD_REACTORS
330
2A17
102
}
330
2
100
AcDbEntity
  8
KIJUN
100
AcDbCircle
 10
-13.61096628124875
 20
51.68934263840402
 30
0.0
 40
1.151801065114165
100
AcDbArc
 50
243.8073858432955
 51
269.0969568701935
  0
ARC
  5
2995
102
{ACAD_REACTORS
330
2A17
102
}
330
2
100
AcDbEntity
  8
KIJUN
100
AcDbCircle
 10
-13.8830542905448
 20
51.05258342309515
 30
0.0
 40
0.4618077404511797
100
AcDbArc
 50
199.7138826047932
 51
239.2230616697152
  0
ARC
  5
2996
102
{ACAD_REACTORS
330
2A17
102
}
330
2
100
AcDbEntity
  8
KIJUN
100
AcDbCircle
 10
-13.56207927597768
 20
51.12410885478478
 30
0.0
 40
0.7891598482726714
100
AcDbArc
 50
159.6400223201572
 51
196.7402231297084
  0
ARC
  5
2999
102
{ACAD_REACTORS
330
2A17
102
}
330
2
100
AcDbEntity
  8
KIJUN
100
AcDbCircle
 10
-10.02604550807815
 20
49.93714148158863
 30
0.0
 40
4.518773430730896
100
AcDbArc
 50
141.4117229737142
 51
161.1292102690127
  0
ARC
  5
299A
102
{ACAD_REACTORS
330
2A17
102
}
330
2
100
AcDbEntity
  8
KIJUN
100
AcDbCircle
 10
-0.9131732218748167
 20
43.71840436570064
 30
0.0
 40
15.54238726931999
100
AcDbArc
 50
106.5914860297244
 51
144.4471175166179
  0
ARC
  5
299B
102
{ACAD_REACTORS
330
2A17
102
}
330
2
100
AcDbEntity
  8
KIJUN
100
AcDbCircle
 10
-13.49337800145331
 20
58.27592807516293
 30
0.0
 40
7.739433911271066
100
AcDbArc
 50
268.9950435637937
 51
280.674971573179
  0
ARC
  5
299C
102
{ACAD_REACTORS
330
2A17
102
}
330
2
100
AcDbEntity
  8
KIJUN
100
AcDbCircle
 10
-4.906224898621556
 20
7.619028377887219
 30
0.0
 40
43.64168203771537
100
AcDbArc
 50
72.10862719923207
 51
99.43420303530812
  0
ARC
  5
299D
102
{ACAD_REACTORS
330
2A17
102
}
330
2
100
AcDbEntity
  8
KIJUN
100
AcDbCircle
 10
-20.66647370074369
 20
-41.30528987993928
 30
0.0
 40
95.04181711425161
100
AcDbArc
 50
63.15099527507239
 51
72.12798401996692
  0
ARC
  5
299E
102
{ACAD_REACTORS
330
2A17
102
}
330
2
100
AcDbEntity
  8
KIJUN
100
AcDbCircle
 10
52.14358293871542
 20
107.9661520724431
 30
0.0
 40
71.06458533070875
100
AcDbArc
 50
245.1314986692437
 51
282.6024114846863
  0
ARC
  5
299F
102
{ACAD_REACTORS
330
2A17
102
}
330
2
100
AcDbEntity
  8
KIJUN
100
AcDbCircle
 10
-0.9572371818124894
 20
61.73694664370106
 30
0.0
 40
5.390920042261158
100
AcDbArc
 50
183.3111291090507
 51
215.4052621673988
  0
ARC
  5
29A0
102
{ACAD_REACTORS
330
2A17
102
}
330
2
100
AcDbEntity
  8
KIJUN
100
AcDbCircle
 10
-7.005659064442841
 20
41.34045092309784
 30
0.0
 40
22.90241619855201
100
AcDbArc
 50
62.2762232878848
 51
77.2968522638031
  0
ARC
  5
29A1
102
{ACAD_REACTORS
330
2A17
102
}
330
2
100
AcDbEntity
  8
KIJUN
100
AcDbCircle
 10
-3.585451978796257
 20
54.91510933472008
 30
0.0
 40
8.914858395477855
100
AcDbArc
 50
79.55604034697124
 51
97.87543794003852
  0
ARC
  5
29A2
102
{ACAD_REACTORS
330
2A17
102
}
330
2
100
AcDbEntity
  8
KIJUN
100
AcDbCircle
 10
-4.350699694430661
 20
61.77855696246373
 30
0.0
 40
2.019544329783203
100
AcDbArc
 50
103.0572731966204
 51
190.0659368487567
  0
ARC
  5
29A3
102
{ACAD_REACTORS
330
2A17
102
}
330
2
100
AcDbEntity
  8
KIJUN
100
AcDbCircle
 10
6.695221809027023
 20
60.29399319395335
 30
0.0
 40
3.320016507336549
100
AcDbArc
 50
90.80183405041408
 51
156.578301001496
  0
ARC
  5
29A4
102
{ACAD_REACTORS
330
2A17
102
}
330
2
100
AcDbEntity
  8
KIJUN
100
AcDbCircle
 10
18.05568384390025
 20
67.17943024048797
 30
0.0
 40
11.951252386995
100
AcDbArc
 50
183.7839742408628
 51
197.3589767569651
  0
ARC
  5
29A5
102
{ACAD_REACTORS
330
2A17
102
}
330
2
100
AcDbEntity
  8
KIJUN
100
AcDbCircle
 10
11.03632408906114
 20
66.49054646314791
 30
0.0
 40
4.906854264121779
100
AcDbArc
 50
134.0090761097817
 51
181.1658437561664
  0
ARC
  5
29A6
102
{ACAD_REACTORS
330
2A17
102
}
330
2
100
AcDbEntity
  8
KIJUN
100
AcDbCircle
 10
9.214793493685236
 20
68.19497765198715
 30
0.0
 40
2.418706941883661
100
AcDbArc
 50
61.95017071853083
 51
131.0251574421794
  0
ARC
  5
29A9
102
{ACAD_REACTORS
330
2A17
102
}
330
2
100
AcDbEntity
  8
KIJUN
100
AcDbCircle
 10
-0.7544002149699793
 20
48.6363921717829
 30
0.0
 40
24.3710937643743
100
AcDbArc
 50
40.96392587441309
 51
62.88828153022222
  0
ARC
  5
29AA
102
{ACAD_REACTORS
330
2A17
102
}
330
2
100
AcDbEntity
  8
KIJUN
100
AcDbCircle
 10
40.22504134689782
 20
71.500212810037
 30
0.0
 40
22.30746035677166
100
AcDbArc
 50
220.6133810538933
 51
229.1995716321593
  0
ARC
  5
29AB
102
{ACAD_REACTORS
330
2A17
102
}
330
2
100
AcDbEntity
  8
KIJUN
100
AcDbCircle
 10
29.27463189321647
 20
61.54870608375697
 30
0.0
 40
7.528917371410798
100
AcDbArc
 50
195.1153505216676
 51
217.3682606584773
  0
ARC
  5
29AC
102
{ACAD_REACTORS
330
2A17
102
}
330
2
100
AcDbEntity
  8
KIJUN
100
AcDbCircle
 10
2.548784082080332
 20
55.29056200450316
 30
0.0
 40
19.9257820751444
100
AcDbArc
 50
12.44743563681203
 51
24.75317118693617
  0
ARC
  5
29AD
102
{ACAD_REACTORS
330
2A17
102
}
330
2
100
AcDbEntity
  8
KIJUN
100
AcDbCircle
 10
19.37127361529289
 20
60.03163072877499
 30
0.0
 40
4.895126940185886
100
AcDbArc
 50
93.63524567794007
 51
110.6025409674713
  0
ARC
  5
29AE
102
{ACAD_REACTORS
330
2A17
102
}
330
2
100
AcDbEntity
  8
KIJUN
100
AcDbCircle
 10
18.79839360999925
 20
62.97522583873387
 30
0.0
 40
1.959346987414738
100
AcDbArc
 50
19.63707842223642
 51
82.30053821661602
  0
ARC
  5
29AF
102
{ACAD_REACTORS
330
2A17
102
}
330
2
100
AcDbEntity
  8
KIJUN
100
AcDbCircle
 10
174.908488032748
 20
51.68934263840402
 30
0.0
 40
1.151801065114165
100
AcDbArc
 50
270.9030431298058
 51
296.1926141567041
  0
ARC
  5
29B0
102
{ACAD_REACTORS
330
2A17
102
}
330
2
100
AcDbEntity
  8
KIJUN
100
AcDbCircle
 10
175.1865810346403
 20
51.04558627007719
 30
0.0
 40
0.4527260408776105
100
AcDbArc
 50
300.5771214107221
 51
340.8140849921539
  0
ARC
  5
29B1
102
{ACAD_REACTORS
330
2A17
102
}
330
2
100
AcDbEntity
  8
KIJUN
100
AcDbCircle
 10
174.8596010274769
 20
51.12410885478478
 30
0.0
 40
0.7891598482726712
100
AcDbArc
 50
343.2597768702917
 51
20.35997767984284
  0
ARC
  5
29B2
102
{ACAD_REACTORS
330
2A17
102
}
330
2
100
AcDbEntity
  8
KIJUN
100
AcDbCircle
 10
171.3235672595774
 20
49.93714148158863
 30
0.0
 40
4.518773430730895
100
AcDbArc
 50
18.87078973098721
 51
38.58827702628538
  0
ARC
  5
29B3
102
{ACAD_REACTORS
330
2A17
102
}
330
2
100
AcDbEntity
  8
KIJUN
100
AcDbCircle
 10
162.2106949733741
 20
43.71840436570064
 30
0.0
 40
15.54238726931999
100
AcDbArc
 50
35.55288248338221
 51
73.40851397027589
  0
ARC
  5
29B4
102
{ACAD_REACTORS
330
2A17
102
}
330
2
100
AcDbEntity
  8
KIJUN
100
AcDbCircle
 10
174.7908997529526
 20
58.27592807516293
 30
0.0
 40
7.739433911271064
100
AcDbArc
 50
259.3250284268215
 51
271.0049564362069
  0
ARC
  5
29B5
102
{ACAD_REACTORS
330
2A17
102
}
330
2
100
AcDbEntity
  8
KIJUN
100
AcDbCircle
 10
166.2037466501208
 20
7.619028377887219
 30
0.0
 40
43.64168203771536
100
AcDbArc
 50
80.56579696469224
 51
107.8913728007685
  0
ARC
  5
29B6
102
{ACAD_REACTORS
330
2A17
102
}
330
2
100
AcDbEntity
  8
KIJUN
100
AcDbCircle
 10
181.9639954522429
 20
-41.30528987993928
 30
0.0
 40
95.04181711425159
100
AcDbArc
 50
107.8720159800324
 51
116.8490047249271
  0
ARC
  5
29B7
102
{ACAD_REACTORS
330
2A17
102
}
330
2
100
AcDbEntity
  8
KIJUN
100
AcDbCircle
 10
109.1539388127839
 20
107.9661520724431
 30
0.0
 40
71.06458533070874
100
AcDbArc
 50
257.3975885153136
 51
294.8685013307559
  0
ARC
  5
29B8
102
{ACAD_REACTORS
330
2A17
102
}
330
2
100
AcDbEntity
  8
KIJUN
100
AcDbCircle
 10
162.2547589333118
 20
61.73694664370106
 30
0.0
 40
5.390920042261157
100
AcDbArc
 50
324.5947378326012
 51
356.6888708909493
  0
ARC
  5
29B9
102
{ACAD_REACTORS
330
2A17
102
}
330
2
100
AcDbEntity
  8
KIJUN
100
AcDbCircle
 10
168.3031808159421
 20
41.34045092309784
 30
0.0
 40
22.90241619855201
100
AcDbArc
 50
102.7031477361972
 51
117.7237767121154
  0
ARC
  5
29BA
102
{ACAD_REACTORS
330
2A17
102
}
330
2
100
AcDbEntity
  8
KIJUN
100
AcDbCircle
 10
164.8829737302955
 20
54.91510933472008
 30
0.0
 40
8.914858395477853
100
AcDbArc
 50
82.12456205996089
 51
100.443959653028
  0
ARC
  5
29BB
102
{ACAD_REACTORS
330
2A17
102
}
330
2
100
AcDbEntity
  8
KIJUN
100
AcDbCircle
 10
165.6482214459299
 20
61.77855696246373
 30
0.0
 40
2.019544329783203
100
AcDbArc
 50
349.9340631512434
 51
76.94272680337999
  0
ARC
  5
29BC
102
{ACAD_REACTORS
330
2A17
102
}
330
2
100
AcDbEntity
  8
KIJUN
100
AcDbCircle
 10
154.6022999424722
 20
60.29399319395335
 30
0.0
 40
3.320016507336548
100
AcDbArc
 50
23.42169899850422
 51
89.19816594958531
  0
ARC
  5
29BD
102
{ACAD_REACTORS
330
2A17
102
}
330
2
100
AcDbEntity
  8
KIJUN
100
AcDbCircle
 10
143.241837907599
 20
67.17943024048797
 30
0.0
 40
11.951252386995
100
AcDbArc
 50
342.6410232430348
 51
356.2160257591373
  0
ARC
  5
29BE
102
{ACAD_REACTORS
330
2A17
102
}
330
2
100
AcDbEntity
  8
KIJUN
100
AcDbCircle
 10
150.2611976624381
 20
66.49054646314791
 30
0.0
 40
4.906854264121778
100
AcDbArc
 50
358.8341562438336
 51
45.99092389021805
  0
ARC
  5
29BF
102
{ACAD_REACTORS
330
2A17
102
}
330
2
100
AcDbEntity
  8
KIJUN
100
AcDbCircle
 10
152.082728257814
 20
68.19497765198715
 30
0.0
 40
2.418706941883661
100
AcDbArc
 50
48.97484255782064
 51
118.0498292814684
  0
ARC
  5
29C0
102
{ACAD_REACTORS
330
2A17
102
}
330
2
100
AcDbEntity
  8
KIJUN
100
AcDbCircle
 10
162.0519219664693
 20
48.6363921717829
 30
0.0
 40
24.37109376437429
100
AcDbArc
 50
117.1117184697777
 51
139.0360741255869
  0
ARC
  5
29C1
102
{ACAD_REACTORS
330
2A17
102
}
330
2
100
AcDbEntity
  8
KIJUN
100
AcDbCircle
 10
121.0724804046014
 20
71.500212810037
 30
0.0
 40
22.30746035677165
100
AcDbArc
 50
310.8004283678404
 51
319.3866189461062
  0
ARC
  5
29C2
102
{ACAD_REACTORS
330
2A17
102
}
330
2
100
AcDbEntity
  8
KIJUN
100
AcDbCircle
 10
132.0228898582828
 20
61.54870608375697
 30
0.0
 40
7.528917371410797
100
AcDbArc
 50
322.6317393415222
 51
344.8846494783326
  0
ARC
  5
29C3
102
{ACAD_REACTORS
330
2A17
102
}
330
2
100
AcDbEntity
  8
KIJUN
100
AcDbCircle
 10
158.7487376694189
 20
55.29056200450316
 30
0.0
 40
19.9257820751444
100
AcDbArc
 50
155.2468288130636
 51
167.5525643631879
  0
ARC
  5
29C4
102
{ACAD_REACTORS
330
2A17
102
}
330
2
100
AcDbEntity
  8
KIJUN
100
AcDbCircle
 10
141.9262481362064
 20
60.03163072877499
 30
0.0
 40
4.895126940185885
100
AcDbArc
 50
69.39745903252933
 51
86.36475432205925
  0
ARC
  5
29C5
102
{ACAD_REACTORS
330
2A17
102
}
330
2
100
AcDbEntity
  8
KIJUN
100
AcDbCircle
 10
142.4991281415
 20
62.97522583873387
 30
0.0
 40
1.959346987414737
100
AcDbArc
 50
97.6994617833836
 51
160.3629215777635
  0
DIMENSION
  5
29C6
330
2
100
AcDbEntity
  8
SUNPOU
100
AcDbDimension
  2
*D23
 10
175.6487608757496
 20
92.46364794139401
 30
0.0
 11
80.64876087574964
 21
97.96364794139401
 31
0.0
 70
    32
 71
     5
 42
190.0
  3
STANDARD
100
AcDbAlignedDimension
 13
-14.35123912425035
 23
70.6136845938708
 33
0.0
 14
175.6487608757496
 24
71.7793531233416
 34
0.0
100
AcDbRotatedDimension
1001
ACAD
1000
DSTYLE
1002
{
1070
    41
1040
2.0
1070
    42
1040
10.0
1070
    44
1040
0.0
1070
    73
1070
     0
1070
    74
1070
     0
1070
    77
1070
     1
1070
   140
1040
5.0
1070
   141
1040
0.0
1070
   146
1040
0.064286
1070
   147
1040
3.0
1070
   176
1070
    60
1070
   177
1070
    70
1070
   178
1070
    60
1070
   271
1070
     0
1070
   272
1070
     0
1070
   340
1005
1C
1070
   342
1005
109
1002
}
  0
DIMENSION
  5
29D3
330
2
100
AcDbEntity
  8
SUNPOU
100
AcDbDimension
  2
*D24
 10
-36.30120157972692
 20
35.61368459387081
 30
0.0
 11
-41.80120157972693
 21
53.1136845938708
 31
0.0
 70
    32
 71
     5
 42
35.0
  3
STANDARD
100
AcDbAlignedDimension
 13
-14.35123912425035
 23
70.6136845938708
 33
0.0
 14
-14.24874540162227
 24
35.6136845938708
 34
0.0
 50
90.0
100
AcDbRotatedDimension
1001
ACAD
1000
DSTYLE
1002
{
1070
    41
1040
2.0
1070
    42
1040
10.0
1070
    44
1040
0.0
1070
    73
1070
     0
1070
    74
1070
     0
1070
    77
1070
     1
1070
   140
1040
5.0
1070
   141
1040
0.0
1070
   146
1040
0.064286
1070
   147
1040
3.0
1070
   176
1070
    60
1070
   177
1070
    70
1070
   178
1070
    60
1070
   271
1070
     0
1070
   272
1070
     0
1070
   340
1005
1C
1070
   342
1005
109
1002
}
  0
ENDSEC
  0
SECTION
  2
OBJECTS
  0
DICTIONARY
  5
1A
330
0
100
AcDbDictionary
281
     1
  3
ACAD_COLOR
350
144
  3
ACAD_GROUP
350
18
  3
ACAD_LAYOUT
350
58
  3
ACAD_MATERIAL
350
143
  3
ACAD_MLINESTYLE
350
19
  3
ACAD_PLOTSETTINGS
350
59
  3
ACAD_PLOTSTYLENAME
350
56
  3
ACAD_TABLESTYLE
350
145
  3
ACDBHEADERROUNDTRIPXREC
350
2A19
  3
AcDbVariableDictionary
350
1D1
  0
DICTIONARY
  5
1B4
330
A
100
AcDbDictionary
280
     1
281
     1
  3
ACAD_LAYERFILTERS
360
1A2A
  3
ACLYDICTIONARY
360
1A29
  0
DICTIONARY
  5
D13
330
2
100
AcDbDictionary
280
     1
281
     1
  3
ACAD_SORTENTS
360
D14
  0
DICTIONARY
  5
144
102
{ACAD_REACTORS
330
1A
102
}
330
1A
100
AcDbDictionary
281
     1
  0
DICTIONARY
  5
18
102
{ACAD_REACTORS
330
1A
102
}
330
1A
100
AcDbDictionary
281
     1
  3
*A1
350
E0D
  3
*A10
350
1EFE
  3
*A11
350
2037
  3
*A12
350
FF8
  3
*A13
350
136A
  3
*A14
350
1555
  3
*A15
350
17BC
  3
*A16
350
1A98
  3
*A17
350
1CBC
  3
*A18
350
2905
  3
*A19
350
2A17
  3
*A2
350
213E
  3
*A3
350
22C8
  3
*A4
350
241A
  3
*A5
350
24D6
  3
*A6
350
2573
  3
*A7
350
265A
  3
*A8
350
26DD
  3
*A9
350
275E
  0
DICTIONARY
  5
58
102
{ACAD_REACTORS
330
1A
102
}
330
1A
100
AcDbDictionary
281
     1
  3
Model
350
5A
  3
ﾚｲｱｳﾄ1
350
5B
  0
DICTIONARY
  5
143
102
{ACAD_REACTORS
330
1A
102
}
330
1A
100
AcDbDictionary
281
     1
  0
DICTIONARY
  5
19
102
{ACAD_REACTORS
330
1A
102
}
330
1A
100
AcDbDictionary
281
     1
  3
STANDARD
350
1D
  0
DICTIONARY
  5
59
102
{ACAD_REACTORS
330
1A
102
}
330
1A
100
AcDbDictionary
281
     1
  0
ACDBDICTIONARYWDFLT
  5
56
102
{ACAD_REACTORS
330
1A
102
}
330
1A
100
AcDbDictionary
281
     1
  3
Normal
350
57
100
AcDbDictionaryWithDefault
340
57
  0
DICTIONARY
  5
145
102
{ACAD_REACTORS
330
1A
102
}
330
1A
100
AcDbDictionary
281
     1
  3
Standard
350
146
  0
DICTIONARY
  5
2A19
102
{ACAD_REACTORS
330
1A
102
}
330
1A
100
AcDbDictionary
281
     1
  0
DICTIONARY
  5
1D1
102
{ACAD_REACTORS
330
1A
102
}
330
1A
100
AcDbDictionary
281
     1
  3
CTABLESTYLE
350
1D2
  3
DIMASSOC
350
D03
  3
PROJECTNAME
350
D04
  0
DICTIONARY
  5
1A2A
102
{ACAD_REACTORS
330
1B4
102
}
330
1B4
100
AcDbDictionary
281
     1
  0
DICTIONARY
  5
1A29
102
{ACAD_REACTORS
330
1B4
102
}
330
1B4
100
AcDbDictionary
281
     1
1001
ACAD
1000
<All
  0
SORTENTSTABLE
  5
D14
102
{ACAD_REACTORS
330
D13
102
}
330
D13
100
AcDbSortentsTable
330
2
331
23
  5
23
331
21
  5
21
331
1F
  5
1F
331
20
  5
20
  0
GROUP
  5
E0D
102
{ACAD_REACTORS
330
18
102
}
330
18
100
AcDbGroup
300

 70
     1
 71
     1
  0
GROUP
  5
1EFE
102
{ACAD_REACTORS
330
18
102
}
330
18
100
AcDbGroup
300

 70
     1
 71
     1
  0
GROUP
  5
2037
102
{ACAD_REACTORS
330
18
102
}
330
18
100
AcDbGroup
300

 70
     1
 71
     1
  0
GROUP
  5
FF8
102
{ACAD_REACTORS
330
18
102
}
330
18
100
AcDbGroup
300

 70
     1
 71
     1
  0
GROUP
  5
136A
102
{ACAD_REACTORS
330
18
102
}
330
18
100
AcDbGroup
300

 70
     1
 71
     1
  0
GROUP
  5
1555
102
{ACAD_REACTORS
330
18
102
}
330
18
100
AcDbGroup
300

 70
     1
 71
     1
  0
GROUP
  5
17BC
102
{ACAD_REACTORS
330
18
102
}
330
18
100
AcDbGroup
300

 70
     1
 71
     1
  0
GROUP
  5
1A98
102
{ACAD_REACTORS
330
18
102
}
330
18
100
AcDbGroup
300

 70
     1
 71
     1
  0
GROUP
  5
1CBC
102
{ACAD_REACTORS
330
18
102
}
330
18
100
AcDbGroup
300

 70
     1
 71
     1
  0
GROUP
  5
2905
102
{ACAD_REACTORS
330
18
102
}
330
18
100
AcDbGroup
300

 70
     1
 71
     1
  0
GROUP
  5
2A17
102
{ACAD_REACTORS
330
18
102
}
330
18
100
AcDbGroup
300

 70
     1
 71
     1
340
29C5
340
29C4
340
29C3
340
29C2
340
29C1
340
29C0
340
29BF
340
29BE
340
29BD
340
29BC
340
29BB
340
29BA
340
29B9
340
29B8
340
29B7
340
29B6
340
29B5
340
29B4
340
29B3
340
29B2
340
29B1
340
29B0
340
29AF
340
29AE
340
29AD
340
29AC
340
29AB
340
29AA
340
29A9
340
29A6
340
29A5
340
29A4
340
29A3
340
29A2
340
29A1
340
29A0
340
299F
340
299E
340
299D
340
299C
340
299B
340
299A
340
2999
340
2996
340
2995
340
298C
340
2986
340
2985
340
2981
340
2980
340
297F
340
297D
340
297C
340
297B
340
297A
340
2979
340
2978
340
2977
340
2976
340
2975
340
2974
340
2973
340
2972
340
2971
340
2970
340
296F
340
296E
340
296D
340
296C
340
296A
340
2969
340
2968
340
2967
340
2966
340
2965
340
2964
340
2963
340
2962
340
2961
340
2960
340
295F
340
295E
340
295D
340
295C
340
2956
340
2955
340
2954
340
2953
340
2952
340
2951
340
2950
340
294F
  0
GROUP
  5
213E
102
{ACAD_REACTORS
330
18
102
}
330
18
100
AcDbGroup
300

 70
     1
 71
     1
  0
GROUP
  5
22C8
102
{ACAD_REACTORS
330
18
102
}
330
18
100
AcDbGroup
300

 70
     1
 71
     1
  0
GROUP
  5
241A
102
{ACAD_REACTORS
330
18
102
}
330
18
100
AcDbGroup
300

 70
     1
 71
     1
  0
GROUP
  5
24D6
102
{ACAD_REACTORS
330
18
102
}
330
18
100
AcDbGroup
300

 70
     1
 71
     1
  0
GROUP
  5
2573
102
{ACAD_REACTORS
330
18
102
}
330
18
100
AcDbGroup
300

 70
     1
 71
     1
  0
GROUP
  5
265A
102
{ACAD_REACTORS
330
18
102
}
330
18
100
AcDbGroup
300

 70
     1
 71
     1
  0
GROUP
  5
26DD
102
{ACAD_REACTORS
330
18
102
}
330
18
100
AcDbGroup
300

 70
     1
 71
     1
  0
GROUP
  5
275E
102
{ACAD_REACTORS
330
18
102
}
330
18
100
AcDbGroup
300

 70
     1
 71
     1
  0
LAYOUT
  5
5A
102
{ACAD_XDICTIONARY
360
2A1A
102
}
102
{ACAD_REACTORS
330
58
102
}
330
58
100
AcDbPlotSettings
  1

  2
なし
  4

  6

 40
0.0
 41
0.0
 42
0.0
 43
0.0
 44
0.0
 45
0.0
 46
0.0
 47
0.0
 48
0.0
 49
0.0
140
0.0
141
0.0
142
1.0
143
1.0
 70
  1712
 72
     0
 73
     0
 74
     0
  7
monochrome.ctb
 75
     0
147
1.0
148
0.0
149
0.0
100
AcDbLayout
  1
Model
 70
     1
 71
     0
 10
0.0
 20
0.0
 11
12.0
 21
9.0
 12
0.0
 22
0.0
 32
0.0
 14
0.0
 24
0.0
 34
0.0
 15
0.0
 25
0.0
 35
0.0
146
0.0
 13
0.0
 23
0.0
 33
0.0
 16
1.0
 26
0.0
 36
0.0
 17
0.0
 27
1.0
 37
0.0
 76
     0
330
2
  0
LAYOUT
  5
5B
102
{ACAD_XDICTIONARY
360
2A1C
102
}
102
{ACAD_REACTORS
330
58
102
}
330
58
100
AcDbPlotSettings
  1

  2
なし
  4

  6

 40
0.0
 41
0.0
 42
0.0
 43
0.0
 44
0.0
 45
0.0
 46
0.0
 47
0.0
 48
0.0
 49
0.0
140
0.0
141
0.0
142
1.0
143
1.0
 70
   688
 72
     0
 73
     0
 74
     5
  7
monochrome.ctb
 75
    16
147
1.0
148
0.0
149
0.0
100
AcDbLayout
  1
ﾚｲｱｳﾄ1
 70
     1
 71
     1
 10
0.0
 20
0.0
 11
12.0
 21
9.0
 12
0.0
 22
0.0
 32
0.0
 14
1.000000000000000E+20
 24
1.000000000000000E+20
 34
1.000000000000000E+20
 15
-1.000000000000000E+20
 25
-1.000000000000000E+20
 35
-1.000000000000000E+20
146
0.0
 13
0.0
 23
0.0
 33
0.0
 16
1.0
 26
0.0
 36
0.0
 17
0.0
 27
1.0
 37
0.0
 76
     0
330
7
  0
MLINESTYLE
  5
1D
102
{ACAD_REACTORS
330
19
102
}
330
19
100
AcDbMlineStyle
  2
STANDARD
 70
     0
  3

 62
   256
 51
90.0
 52
90.0
 71
     2
 49
0.5
 62
   256
  6
BYLAYER
 49
-0.5
 62
   256
  6
BYLAYER
  0
ACDBPLACEHOLDER
  5
57
102
{ACAD_REACTORS
330
56
102
}
330
56
  0
TABLESTYLE
  5
146
102
{ACAD_REACTORS
330
145
102
}
330
145
100
AcDbTableStyle
  3
Standard
 70
     0
 71
     0
 40
0.06
 41
0.06
280
     0
281
     0
  7
STANDARD
140
0.18
170
     2
 62
     0
 63
     7
283
     0
274
    -2
284
     1
 64
     0
275
    -2
285
     1
 65
     0
276
    -2
286
     1
 66
     0
277
    -2
287
     1
 67
     0
278
    -2
288
     1
 68
     0
279
    -2
289
     1
 69
     0
  7
STANDARD
140
0.25
170
     5
 62
     0
 63
     7
283
     0
274
    -2
284
     1
 64
     0
275
    -2
285
     1
 65
     0
276
    -2
286
     1
 66
     0
277
    -2
287
     1
 67
     0
278
    -2
288
     1
 68
     0
279
    -2
289
     1
 69
     0
  7
STANDARD
140
0.18
170
     5
 62
     0
 63
     7
283
     0
274
    -2
284
     1
 64
     0
275
    -2
285
     1
 65
     0
276
    -2
286
     1
 66
     0
277
    -2
287
     1
 67
     0
278
    -2
288
     1
 68
     0
279
    -2
289
     1
 69
     0
  0
DICTIONARYVAR
  5
1D2
102
{ACAD_REACTORS
330
1D1
102
}
330
1D1
100
DictionaryVariables
280
     0
  1
STANDARD
  0
DICTIONARYVAR
  5
D03
102
{ACAD_REACTORS
330
1D1
102
}
330
1D1
100
DictionaryVariables
280
     0
  1
1
  0
DICTIONARYVAR
  5
D04
102
{ACAD_REACTORS
330
1D1
102
}
330
1D1
100
DictionaryVariables
280
     0
  1

  0
DICTIONARY
  5
2A1A
330
5A
100
AcDbDictionary
280
     1
281
     1
  3
ACAD_XREC_ROUNDTRIP
360
2A1B
  0
DICTIONARY
  5
2A1C
330
5B
100
AcDbDictionary
280
     1
281
     1
  3
ACAD_XREC_ROUNDTRIP
360
2A1D
  0
XRECORD
  5
2A1B
102
{ACAD_REACTORS
330
2A1A
102
}
330
2A1A
100
AcDbXrecord
280
     1
102
SHADEPLOT
 70
     0
102
SHADEPLOTRESLEVEL
 70
     2
102
SHADEPLOTCUSTOMDPI
 70
   300
  0
XRECORD
  5
2A1D
102
{ACAD_REACTORS
330
2A1C
102
}
330
2A1C
100
AcDbXrecord
280
     1
102
SHADEPLOT
 70
     0
102
SHADEPLOTRESLEVEL
 70
     2
102
SHADEPLOTCUSTOMDPI
 70
   300
  0
ENDSEC
  0
EOF
