  0
SECTION
  2
HEADER
  9
$ACADVER
  1
AC1015
  9
$ACADMAINTVER
 70
    20
  9
$DWGCODEPAGE
  3
ANSI_932
  9
$INSBASE
 10
922.019522
 20
-675.4306699999999
 30
0.0
  9
$EXTMIN
 10
-151.2106745226169
 20
-0.0150412363288979
 30
-0.0000000000000058
  9
$EXTMAX
 10
245.3411342544884
 20
220.28312444251
 30
0.0000000000000104
  9
$LIMMIN
 10
0.0
 20
0.0
  9
$LIMMAX
 10
420.0
 20
297.0
  9
$ORTHOMODE
 70
     1
  9
$REGENMODE
 70
     1
  9
$FILLMODE
 70
     1
  9
$QTEXTMODE
 70
     0
  9
$MIRRTEXT
 70
     1
  9
$LTSCALE
 40
1.0
  9
$ATTMODE
 70
     1
  9
$TEXTSIZE
 40
30.0
  9
$TRACEWID
 40
0.05
  9
$TEXTSTYLE
  7
SUNPOU
  9
$CLAYER
  8
0
  9
$CELTYPE
  6
BYLAYER
  9
$CECOLOR
 62
   256
  9
$CELTSCALE
 40
1.0
  9
$DISPSILH
 70
     0
  9
$DIMSCALE
 40
1.0
  9
$DIMASZ
 40
2.0
  9
$DIMEXO
 40
10.0
  9
$DIMDLI
 40
0.38
  9
$DIMRND
 40
0.0
  9
$DIMDLE
 40
0.0
  9
$DIMEXE
 40
0.0
  9
$DIMTP
 40
0.0
  9
$DIMTM
 40
0.0
  9
$DIMTXT
 40
10.0
  9
$DIMCEN
 40
0.0
  9
$DIMTSZ
 40
0.0
  9
$DIMTOL
 70
     0
  9
$DIMLIM
 70
     0
  9
$DIMTIH
 70
     0
  9
$DIMTOH
 70
     0
  9
$DIMSE1
 70
     0
  9
$DIMSE2
 70
     0
  9
$DIMTAD
 70
     1
  9
$DIMZIN
 70
     0
  9
$DIMBLK
  1
Dot
  9
$DIMASO
 70
     1
  9
$DIMSHO
 70
     1
  9
$DIMPOST
  1

  9
$DIMAPOST
  1

  9
$DIMALT
 70
     0
  9
$DIMALTD
 70
     2
  9
$DIMALTF
 40
25.4
  9
$DIMLFAC
 40
1.0
  9
$DIMTOFL
 70
     0
  9
$DIMTVP
 40
0.0
  9
$DIMTIX
 70
     0
  9
$DIMSOXD
 70
     0
  9
$DIMSAH
 70
     0
  9
$DIMBLK1
  1

  9
$DIMBLK2
  1

  9
$DIMSTYLE
  2
STANDARD
  9
$DIMCLRD
 70
    60
  9
$DIMCLRE
 70
    70
  9
$DIMCLRT
 70
    60
  9
$DIMTFAC
 40
0.064286
  9
$DIMGAP
 40
3.0
  9
$DIMJUST
 70
     0
  9
$DIMSD1
 70
     0
  9
$DIMSD2
 70
     0
  9
$DIMTOLJ
 70
     1
  9
$DIMTZIN
 70
     0
  9
$DIMALTZ
 70
     0
  9
$DIMALTTZ
 70
     0
  9
$DIMUPT
 70
     0
  9
$DIMDEC
 70
     0
  9
$DIMTDEC
 70
     0
  9
$DIMALTU
 70
     2
  9
$DIMALTTD
 70
     2
  9
$DIMTXSTY
  7
SUNPOU
  9
$DIMAUNIT
 70
     0
  9
$DIMADEC
 70
     0
  9
$DIMALTRND
 40
0.0
  9
$DIMAZIN
 70
     0
  9
$DIMDSEP
 70
    46
  9
$DIMATFIT
 70
     3
  9
$DIMFRAC
 70
     0
  9
$DIMLDRBLK
  1

  9
$DIMLUNIT
 70
     2
  9
$DIMLWD
 70
    -2
  9
$DIMLWE
 70
    -2
  9
$DIMTMOVE
 70
     0
  9
$LUNITS
 70
     2
  9
$LUPREC
 70
     5
  9
$SKETCHINC
 40
0.1
  9
$FILLETRAD
 40
0.0
  9
$AUNITS
 70
     0
  9
$AUPREC
 70
     0
  9
$MENU
  1
acad
  9
$ELEVATION
 40
0.0
  9
$PELEVATION
 40
0.0
  9
$THICKNESS
 40
0.0
  9
$LIMCHECK
 70
     0
  9
$CHAMFERA
 40
0.0
  9
$CHAMFERB
 40
0.0
  9
$CHAMFERC
 40
0.0
  9
$CHAMFERD
 40
0.0
  9
$SKPOLY
 70
     0
  9
$TDCREATE
 40
2450623.654673033
  9
$TDUCREATE
 40
2450623.279673032
  9
$TDUPDATE
 40
2453858.551515301
  9
$TDUUPDATE
 40
2453858.176515301
  9
$TDINDWG
 40
0.0824849884
  9
$TDUSRTIMER
 40
0.0824848148
  9
$USRTIMER
 70
     1
  9
$ANGBASE
 50
0.0
  9
$ANGDIR
 70
     0
  9
$PDMODE
 70
     0
  9
$PDSIZE
 40
0.0
  9
$PLINEWID
 40
0.0
  9
$SPLFRAME
 70
     0
  9
$SPLINETYPE
 70
     6
  9
$SPLINESEGS
 70
     8
  9
$HANDSEED
  5
2891
  9
$SURFTAB1
 70
     6
  9
$SURFTAB2
 70
     6
  9
$SURFTYPE
 70
     6
  9
$SURFU
 70
     6
  9
$SURFV
 70
     6
  9
$UCSBASE
  2

  9
$UCSNAME
  2

  9
$UCSORG
 10
0.0
 20
0.0
 30
0.0
  9
$UCSXDIR
 10
1.0
 20
0.0
 30
0.0
  9
$UCSYDIR
 10
0.0
 20
1.0
 30
0.0
  9
$UCSORTHOREF
  2

  9
$UCSORTHOVIEW
 70
     0
  9
$UCSORGTOP
 10
0.0
 20
0.0
 30
0.0
  9
$UCSORGBOTTOM
 10
0.0
 20
0.0
 30
0.0
  9
$UCSORGLEFT
 10
0.0
 20
0.0
 30
0.0
  9
$UCSORGRIGHT
 10
0.0
 20
0.0
 30
0.0
  9
$UCSORGFRONT
 10
0.0
 20
0.0
 30
0.0
  9
$UCSORGBACK
 10
0.0
 20
0.0
 30
0.0
  9
$PUCSBASE
  2

  9
$PUCSNAME
  2

  9
$PUCSORG
 10
0.0
 20
0.0
 30
0.0
  9
$PUCSXDIR
 10
1.0
 20
0.0
 30
0.0
  9
$PUCSYDIR
 10
0.0
 20
1.0
 30
0.0
  9
$PUCSORTHOREF
  2

  9
$PUCSORTHOVIEW
 70
     0
  9
$PUCSORGTOP
 10
0.0
 20
0.0
 30
0.0
  9
$PUCSORGBOTTOM
 10
0.0
 20
0.0
 30
0.0
  9
$PUCSORGLEFT
 10
0.0
 20
0.0
 30
0.0
  9
$PUCSORGRIGHT
 10
0.0
 20
0.0
 30
0.0
  9
$PUCSORGFRONT
 10
0.0
 20
0.0
 30
0.0
  9
$PUCSORGBACK
 10
0.0
 20
0.0
 30
0.0
  9
$USERI1
 70
     0
  9
$USERI2
 70
     0
  9
$USERI3
 70
     0
  9
$USERI4
 70
     0
  9
$USERI5
 70
     0
  9
$USERR1
 40
0.0
  9
$USERR2
 40
0.0
  9
$USERR3
 40
0.0
  9
$USERR4
 40
0.0
  9
$USERR5
 40
0.0
  9
$WORLDVIEW
 70
     1
  9
$SHADEDGE
 70
     3
  9
$SHADEDIF
 70
    70
  9
$TILEMODE
 70
     1
  9
$MAXACTVP
 70
    16
  9
$PINSBASE
 10
0.0
 20
0.0
 30
0.0
  9
$PLIMCHECK
 70
     0
  9
$PEXTMIN
 10
1.000000000000000E+20
 20
1.000000000000000E+20
 30
1.000000000000000E+20
  9
$PEXTMAX
 10
-1.000000000000000E+20
 20
-1.000000000000000E+20
 30
-1.000000000000000E+20
  9
$PLIMMIN
 10
0.0
 20
0.0
  9
$PLIMMAX
 10
12.0
 20
9.0
  9
$UNITMODE
 70
     0
  9
$VISRETAIN
 70
     0
  9
$PLINEGEN
 70
     0
  9
$PSLTSCALE
 70
     1
  9
$TREEDEPTH
 70
  3020
  9
$CMLSTYLE
  2
STANDARD
  9
$CMLJUST
 70
     0
  9
$CMLSCALE
 40
1.0
  9
$PROXYGRAPHICS
 70
     1
  9
$MEASUREMENT
 70
     0
  9
$CELWEIGHT
370
    -1
  9
$ENDCAPS
280
     0
  9
$JOINSTYLE
280
     0
  9
$LWDISPLAY
290
     0
  9
$INSUNITS
 70
     0
  9
$HYPERLINKBASE
  1

  9
$STYLESHEET
  1

  9
$XEDIT
290
     1
  9
$CEPSNTYPE
380
     0
  9
$PSTYLEMODE
290
     1
  9
$FINGERPRINTGUID
  2
{FB88A696-E29C-4009-92AF-A3599A8169D5}
  9
$VERSIONGUID
  2
{E254C0BD-AA9F-426B-AE9E-F0AC8139C83F}
  9
$EXTNAMES
290
     1
  9
$PSVPSCALE
 40
0.0
  9
$OLESTARTUP
290
     0
  0
ENDSEC
  0
SECTION
  2
CLASSES
  0
CLASS
  1
DICTIONARYVAR
  2
AcDbDictionaryVar
  3
ObjectDBX Classes
 90
        0
280
     0
281
     0
  0
CLASS
  1
ACDBDICTIONARYWDFLT
  2
AcDbDictionaryWithDefault
  3
ObjectDBX Classes
 90
        0
280
     0
281
     0
  0
CLASS
  1
ACDBPLACEHOLDER
  2
AcDbPlaceHolder
  3
ObjectDBX Classes
 90
        0
280
     0
281
     0
  0
CLASS
  1
LAYOUT
  2
AcDbLayout
  3
ObjectDBX Classes
 90
        0
280
     0
281
     0
  0
CLASS
  1
TABLESTYLE
  2
AcDbTableStyle
  3
ObjectDBX Classes
 90
     2047
280
     0
281
     0
  0
CLASS
  1
SORTENTSTABLE
  2
AcDbSortentsTable
  3
ObjectDBX Classes
 90
        0
280
     0
281
     0
  0
ENDSEC
  0
SECTION
  2
TABLES
  0
TABLE
  2
VPORT
  5
12
330
0
100
AcDbSymbolTable
 70
     3
  0
VPORT
  5
288B
330
12
100
AcDbSymbolTableRecord
100
AcDbViewportTableRecord
  2
*Active
 70
     0
 10
0.0
 20
0.0
 11
1.0
 21
1.0
 12
47.06522986593575
 22
110.1340416030905
 13
0.0
 23
0.0
 14
1.0
 24
1.0
 15
0.0
 25
0.0
 16
0.0
 26
0.0
 36
1.0
 17
0.0
 27
0.0
 37
0.0
 40
255.8531748939842
 41
1.557544757033248
 42
50.0
 43
0.0
 44
0.0
 50
0.0
 51
0.0
 71
     0
 72
 20000
 73
     1
 74
     1
 75
     0
 76
     0
 77
     0
 78
     0
281
     0
 65
     1
110
0.0
120
0.0
130
0.0
111
1.0
121
0.0
131
0.0
112
0.0
122
1.0
132
0.0
 79
     0
146
0.0
  0
ENDTAB
  0
TABLE
  2
LTYPE
  5
D
330
0
100
AcDbSymbolTable
 70
     2
  0
LTYPE
  5
E
330
D
100
AcDbSymbolTableRecord
100
AcDbLinetypeTableRecord
  2
BYBLOCK
 70
     0
  3

 72
    65
 73
     0
 40
0.0
  0
LTYPE
  5
F
330
D
100
AcDbSymbolTableRecord
100
AcDbLinetypeTableRecord
  2
BYLAYER
 70
     0
  3

 72
    65
 73
     0
 40
0.0
  0
LTYPE
  5
5
330
D
100
AcDbSymbolTableRecord
100
AcDbLinetypeTableRecord
  2
CONTINUOUS
 70
     0
  3
Solid line
 72
    65
 73
     0
 40
0.0
  0
ENDTAB
  0
TABLE
  2
LAYER
  5
A
102
{ACAD_XDICTIONARY
360
1B4
102
}
330
0
100
AcDbSymbolTable
 70
     6
  0
LAYER
  5
4
330
A
100
AcDbSymbolTableRecord
100
AcDbLayerTableRecord
  2
0
 70
     0
 62
     7
  6
CONTINUOUS
370
    -3
390
57
  0
LAYER
  5
25
330
A
100
AcDbSymbolTableRecord
100
AcDbLayerTableRecord
  2
KIJUN
 70
     0
 62
     7
  6
CONTINUOUS
370
    -3
390
57
  0
LAYER
  5
22
330
A
100
AcDbSymbolTableRecord
100
AcDbLayerTableRecord
  2
HOJO
 70
     0
 62
     3
  6
CONTINUOUS
370
    -3
390
57
  0
LAYER
  5
1B
330
A
100
AcDbSymbolTableRecord
100
AcDbLayerTableRecord
  2
WAKU
 70
     0
 62
     1
  6
CONTINUOUS
370
    -3
390
57
  0
LAYER
  5
31
330
A
100
AcDbSymbolTableRecord
100
AcDbLayerTableRecord
  2
DEFPOINTS
 70
     0
 62
     7
  6
CONTINUOUS
290
     0
370
    -3
390
57
  0
LAYER
  5
28
330
A
100
AcDbSymbolTableRecord
100
AcDbLayerTableRecord
  2
SUNPOU
 70
     0
 62
    70
  6
CONTINUOUS
370
    -3
390
57
  0
ENDTAB
  0
TABLE
  2
STYLE
  5
B
330
0
100
AcDbSymbolTable
 70
     3
  0
STYLE
  5
C
330
B
100
AcDbSymbolTableRecord
100
AcDbTextStyleTableRecord
  2
STANDARD
 70
     0
 40
0.0
 41
1.0
 50
0.0
 71
     0
 42
0.2
  3
txt
  4

  0
STYLE
  5
1C
330
B
100
AcDbSymbolTableRecord
100
AcDbTextStyleTableRecord
  2
SUNPOU
 70
     0
 40
0.0
 41
1.0
 50
0.0
 71
     0
 42
30.0
  3
txt
  4
bigfont
  0
STYLE
  5
14A
330
B
100
AcDbSymbolTableRecord
100
AcDbTextStyleTableRecord
  2
LIFE
 70
     0
 40
0.0
 41
0.7
 50
0.0
 71
     0
 42
10.0
  3
romans
  4
extfont
  0
ENDTAB
  0
TABLE
  2
VIEW
  5
10
330
0
100
AcDbSymbolTable
 70
     0
  0
ENDTAB
  0
TABLE
  2
UCS
  5
11
330
0
100
AcDbSymbolTable
 70
     0
  0
ENDTAB
  0
TABLE
  2
APPID
  5
14
330
0
100
AcDbSymbolTable
 70
    10
  0
APPID
  5
15
330
14
100
AcDbSymbolTableRecord
100
AcDbRegAppTableRecord
  2
ACAD
 70
     0
  0
APPID
  5
1D3
330
14
100
AcDbSymbolTableRecord
100
AcDbRegAppTableRecord
  2
ACAD_DSTYLE_DIMTEXT_FILL
 70
     0
  0
APPID
  5
1D4
330
14
100
AcDbSymbolTableRecord
100
AcDbRegAppTableRecord
  2
ACAD_DSTYLE_DIMEXT_LENGTH
 70
     0
  0
APPID
  5
1D5
330
14
100
AcDbSymbolTableRecord
100
AcDbRegAppTableRecord
  2
ACAD_DSTYLE_DIMEXT_ENABLED
 70
     0
  0
APPID
  5
1D6
330
14
100
AcDbSymbolTableRecord
100
AcDbRegAppTableRecord
  2
ACAD_DSTYLE_DIM_LINETYPE
 70
     0
  0
APPID
  5
1D7
330
14
100
AcDbSymbolTableRecord
100
AcDbRegAppTableRecord
  2
ACAD_DSTYLE_DIM_EXT1_LINETYPE
 70
     0
  0
APPID
  5
1D8
330
14
100
AcDbSymbolTableRecord
100
AcDbRegAppTableRecord
  2
ACAD_DSTYLE_DIM_EXT2_LINETYPE
 70
     0
  0
APPID
  5
294
330
14
100
AcDbSymbolTableRecord
100
AcDbRegAppTableRecord
  2
ACAD_DSTYLE_DIMJOGGED_JOGANGLE_SYMBOL
 70
     0
  0
APPID
  5
478
330
14
100
AcDbSymbolTableRecord
100
AcDbRegAppTableRecord
  2
ACAD_DSTYLE_DIMARC_LENGTH_SYMBOL
 70
     0
  0
APPID
  5
157B
330
14
100
AcDbSymbolTableRecord
100
AcDbRegAppTableRecord
  2
ACAD_EXEMPT_FROM_CAD_STANDARDS
 70
     0
  0
ENDTAB
  0
TABLE
  2
DIMSTYLE
  5
16
330
0
100
AcDbSymbolTable
 70
     2
100
AcDbDimStyleTable
 71
     1
340
1E
  0
DIMSTYLE
105
1E
102
{ACAD_REACTORS
330
282F
330
2843
102
}
330
16
100
AcDbSymbolTableRecord
100
AcDbDimStyleTableRecord
  2
STANDARD
 70
     0
340
C
  0
ENDTAB
  0
TABLE
  2
BLOCK_RECORD
  5
1
330
0
100
AcDbSymbolTable
 70
    33
  0
BLOCK_RECORD
  5
2
102
{ACAD_XDICTIONARY
360
1578
102
}
330
1
100
AcDbSymbolTableRecord
100
AcDbBlockTableRecord
  2
*MODEL_SPACE
340
5A
  0
BLOCK_RECORD
  5
7
330
1
100
AcDbSymbolTableRecord
100
AcDbBlockTableRecord
  2
*PAPER_SPACE
340
5B
  0
BLOCK_RECORD
  5
109
330
1
100
AcDbSymbolTableRecord
100
AcDbBlockTableRecord
  2
_Dot
340
0
102
{BLKREFS
331
CF6
331
CF7
331
15B9
331
15BA
331
15CB
331
15CC
331
1664
331
1665
331
1686
331
1687
331
1818
331
1819
331
1821
331
1822
331
18DE
331
18DF
331
18E7
331
18E8
331
19C4
331
19C5
331
19DF
331
19E0
331
1F7B
331
1F7C
331
1F84
331
1F85
331
20F9
331
20FA
331
2102
331
2103
331
2165
331
2166
331
2172
331
2173
331
2314
331
2315
331
2326
331
2327
331
232F
331
2330
331
2834
331
2835
331
2848
331
2849
102
}
  0
BLOCK_RECORD
  5
2342
330
1
100
AcDbSymbolTableRecord
100
AcDbBlockTableRecord
  2
*X29
340
0
  0
BLOCK_RECORD
  5
2830
330
1
100
AcDbSymbolTableRecord
100
AcDbBlockTableRecord
  2
*D30
340
0
  0
BLOCK_RECORD
  5
2844
330
1
100
AcDbSymbolTableRecord
100
AcDbBlockTableRecord
  2
*D31
340
0
  0
ENDTAB
  0
ENDSEC
  0
SECTION
  2
BLOCKS
  0
BLOCK
  5
3
330
2
100
AcDbEntity
  8
0
100
AcDbBlockBegin
  2
*MODEL_SPACE
 70
     0
 10
0.0
 20
0.0
 30
0.0
  3
*MODEL_SPACE
  1

  0
ENDBLK
  5
6
330
2
100
AcDbEntity
  8
0
100
AcDbBlockEnd
  0
BLOCK
  5
8
330
7
100
AcDbEntity
 67
     1
  8
0
100
AcDbBlockBegin
  2
*PAPER_SPACE
 70
     0
 10
0.0
 20
0.0
 30
0.0
  3
*PAPER_SPACE
  1

  0
ENDBLK
  5
9
330
7
100
AcDbEntity
 67
     1
  8
0
100
AcDbBlockEnd
  0
BLOCK
  5
10C
330
109
100
AcDbEntity
  8
0
100
AcDbBlockBegin
  2
_Dot
 70
     0
 10
0.0
 20
0.0
 30
0.0
  3
_Dot
  1

  0
LWPOLYLINE
  5
10A
330
109
100
AcDbEntity
  8
0
  6
ByBlock
 62
     0
100
AcDbPolyline
 90
        2
 70
     1
 43
0.5
 10
-0.25
 20
0.0
 42
1.0
 10
0.25
 20
0.0
 42
1.0
  0
LINE
  5
10B
330
109
100
AcDbEntity
  8
0
  6
ByBlock
 62
     0
370
    -2
100
AcDbLine
 10
-0.5
 20
0.0
 30
0.0
 11
-1.0
 21
0.0
 31
0.0
  0
ENDBLK
  5
10D
330
109
100
AcDbEntity
  8
0
100
AcDbBlockEnd
  0
BLOCK
  5
2343
330
2342
100
AcDbEntity
  8
0
100
AcDbBlockBegin
  2
*X29
 70
     1
 10
0.0
 20
0.0
 30
0.0
  3
*X29
  1

  0
LINE
  5
2344
330
2342
100
AcDbEntity
  8
0
 62
     0
100
AcDbLine
 10
4847.994858914521
 20
3100.817394121238
 30
0.0
 11
4847.994858914521
 21
3099.567394121237
 31
0.0
  0
LINE
  5
2345
330
2342
100
AcDbEntity
  8
0
 62
     0
100
AcDbLine
 10
4847.994858914521
 20
3105.817394121237
 30
0.0
 11
4847.994858914521
 21
3104.567394121237
 31
0.0
  0
LINE
  5
2346
330
2342
100
AcDbEntity
  8
0
 62
     0
100
AcDbLine
 10
4847.994858914521
 20
3109.816176389241
 30
0.0
 11
4847.994858914521
 21
3109.567394121237
 31
0.0
  0
LINE
  5
2347
330
2342
100
AcDbEntity
  8
0
 62
     0
100
AcDbLine
 10
4850.494858914522
 20
3092.809530071274
 30
0.0
 11
4850.494858914522
 21
3092.067394121237
 31
0.0
  0
LINE
  5
2348
330
2342
100
AcDbEntity
  8
0
 62
     0
100
AcDbLine
 10
4850.494858914522
 20
3098.317394121237
 30
0.0
 11
4850.494858914522
 21
3097.067394121237
 31
0.0
  0
LINE
  5
2349
330
2342
100
AcDbEntity
  8
0
 62
     0
100
AcDbLine
 10
4850.494858914522
 20
3102.93351471328
 30
0.0
 11
4850.494858914522
 21
3102.067394121237
 31
0.0
  0
LINE
  5
234A
330
2342
100
AcDbEntity
  8
0
 62
     0
100
AcDbLine
 10
4850.494858914522
 20
3103.317394121237
 30
0.0
 11
4850.494858914522
 21
3102.93351471328
 31
0.0
  0
LINE
  5
234B
330
2342
100
AcDbEntity
  8
0
 62
     0
100
AcDbLine
 10
4850.494858914522
 20
3108.317394121237
 30
0.0
 11
4850.494858914522
 21
3107.067394121238
 31
0.0
  0
LINE
  5
234C
330
2342
100
AcDbEntity
  8
0
 62
     0
100
AcDbLine
 10
4850.494858914522
 20
3113.317394121237
 30
0.0
 11
4850.494858914522
 21
3112.067394121238
 31
0.0
  0
LINE
  5
234D
330
2342
100
AcDbEntity
  8
0
 62
     0
100
AcDbLine
 10
4850.494858914522
 20
3118.317394121238
 30
0.0
 11
4850.494858914522
 21
3117.067394121237
 31
0.0
  0
LINE
  5
234E
330
2342
100
AcDbEntity
  8
0
 62
     0
100
AcDbLine
 10
4852.99485891452
 20
3095.817394121237
 30
0.0
 11
4852.99485891452
 21
3094.567394121237
 31
0.0
  0
LINE
  5
234F
330
2342
100
AcDbEntity
  8
0
 62
     0
100
AcDbLine
 10
4852.99485891452
 20
3100.817394121238
 30
0.0
 11
4852.99485891452
 21
3099.567394121237
 31
0.0
  0
LINE
  5
2350
330
2342
100
AcDbEntity
  8
0
 62
     0
100
AcDbLine
 10
4852.99485891452
 20
3085.817394121237
 30
0.0
 11
4852.99485891452
 21
3084.984188857721
 31
0.0
  0
LINE
  5
2351
330
2342
100
AcDbEntity
  8
0
 62
     0
100
AcDbLine
 10
4852.99485891452
 20
3090.817394121237
 30
0.0
 11
4852.99485891452
 21
3089.567394121238
 31
0.0
  0
LINE
  5
2352
330
2342
100
AcDbEntity
  8
0
 62
     0
100
AcDbLine
 10
4852.99485891452
 20
3105.817394121237
 30
0.0
 11
4852.99485891452
 21
3104.567394121237
 31
0.0
  0
LINE
  5
2353
330
2342
100
AcDbEntity
  8
0
 62
     0
100
AcDbLine
 10
4852.99485891452
 20
3110.817394121237
 30
0.0
 11
4852.99485891452
 21
3109.567394121237
 31
0.0
  0
LINE
  5
2354
330
2342
100
AcDbEntity
  8
0
 62
     0
100
AcDbLine
 10
4852.99485891452
 20
3115.817394121237
 30
0.0
 11
4852.99485891452
 21
3114.567394121237
 31
0.0
  0
LINE
  5
2355
330
2342
100
AcDbEntity
  8
0
 62
     0
100
AcDbLine
 10
4852.99485891452
 20
3120.817394121238
 30
0.0
 11
4852.99485891452
 21
3119.567394121237
 31
0.0
  0
LINE
  5
2356
330
2342
100
AcDbEntity
  8
0
 62
     0
100
AcDbLine
 10
4855.494858914521
 20
3098.317394121237
 30
0.0
 11
4855.494858914521
 21
3097.067394121237
 31
0.0
  0
LINE
  5
2357
330
2342
100
AcDbEntity
  8
0
 62
     0
100
AcDbLine
 10
4855.494858914521
 20
3103.317394121237
 30
0.0
 11
4855.494858914521
 21
3102.067394121237
 31
0.0
  0
LINE
  5
2358
330
2342
100
AcDbEntity
  8
0
 62
     0
100
AcDbLine
 10
4855.494858914521
 20
3083.317394121237
 30
0.0
 11
4855.494858914521
 21
3082.067394121237
 31
0.0
  0
LINE
  5
2359
330
2342
100
AcDbEntity
  8
0
 62
     0
100
AcDbLine
 10
4855.494858914521
 20
3088.317394121237
 30
0.0
 11
4855.494858914521
 21
3087.067394121238
 31
0.0
  0
LINE
  5
235A
330
2342
100
AcDbEntity
  8
0
 62
     0
100
AcDbLine
 10
4855.494858914521
 20
3093.317394121238
 30
0.0
 11
4855.494858914521
 21
3092.067394121237
 31
0.0
  0
LINE
  5
235B
330
2342
100
AcDbEntity
  8
0
 62
     0
100
AcDbLine
 10
4855.494858914521
 20
3108.317394121237
 30
0.0
 11
4855.494858914521
 21
3107.067394121238
 31
0.0
  0
LINE
  5
235C
330
2342
100
AcDbEntity
  8
0
 62
     0
100
AcDbLine
 10
4855.494858914521
 20
3113.317394121237
 30
0.0
 11
4855.494858914521
 21
3112.067394121238
 31
0.0
  0
LINE
  5
235D
330
2342
100
AcDbEntity
  8
0
 62
     0
100
AcDbLine
 10
4855.494858914521
 20
3118.317394121238
 30
0.0
 11
4855.494858914521
 21
3117.067394121237
 31
0.0
  0
LINE
  5
235E
330
2342
100
AcDbEntity
  8
0
 62
     0
100
AcDbLine
 10
4855.494858914521
 20
3123.317394121237
 30
0.0
 11
4855.494858914521
 21
3122.067394121237
 31
0.0
  0
LINE
  5
235F
330
2342
100
AcDbEntity
  8
0
 62
     0
100
AcDbLine
 10
4855.494858914521
 20
3127.189806585811
 30
0.0
 11
4855.494858914521
 21
3127.067394121237
 31
0.0
  0
LINE
  5
2360
330
2342
100
AcDbEntity
  8
0
 62
     0
100
AcDbLine
 10
4857.994858914523
 20
3095.817394121237
 30
0.0
 11
4857.994858914523
 21
3095.732040667251
 31
0.0
  0
LINE
  5
2361
330
2342
100
AcDbEntity
  8
0
 62
     0
100
AcDbLine
 10
4857.994858914523
 20
3100.817394121238
 30
0.0
 11
4857.994858914523
 21
3099.567394121237
 31
0.0
  0
LINE
  5
2362
330
2342
100
AcDbEntity
  8
0
 62
     0
100
AcDbLine
 10
4857.994858914523
 20
3105.817394121237
 30
0.0
 11
4857.994858914523
 21
3104.567394121237
 31
0.0
  0
LINE
  5
2363
330
2342
100
AcDbEntity
  8
0
 62
     0
100
AcDbLine
 10
4857.994858914523
 20
3080.817394121238
 30
0.0
 11
4857.994858914523
 21
3079.567394121237
 31
0.0
  0
LINE
  5
2364
330
2342
100
AcDbEntity
  8
0
 62
     0
100
AcDbLine
 10
4857.994858914523
 20
3085.817394121237
 30
0.0
 11
4857.994858914523
 21
3084.567394121237
 31
0.0
  0
LINE
  5
2365
330
2342
100
AcDbEntity
  8
0
 62
     0
100
AcDbLine
 10
4857.994858914523
 20
3090.817394121237
 30
0.0
 11
4857.994858914523
 21
3089.567394121238
 31
0.0
  0
LINE
  5
2366
330
2342
100
AcDbEntity
  8
0
 62
     0
100
AcDbLine
 10
4857.994858914523
 20
3095.732040667251
 30
0.0
 11
4857.994858914523
 21
3094.567394121237
 31
0.0
  0
LINE
  5
2367
330
2342
100
AcDbEntity
  8
0
 62
     0
100
AcDbLine
 10
4857.994858914523
 20
3110.817394121237
 30
0.0
 11
4857.994858914523
 21
3109.567394121237
 31
0.0
  0
LINE
  5
2368
330
2342
100
AcDbEntity
  8
0
 62
     0
100
AcDbLine
 10
4857.994858914523
 20
3115.817394121237
 30
0.0
 11
4857.994858914523
 21
3114.567394121237
 31
0.0
  0
LINE
  5
2369
330
2342
100
AcDbEntity
  8
0
 62
     0
100
AcDbLine
 10
4857.994858914523
 20
3120.817394121238
 30
0.0
 11
4857.994858914523
 21
3119.567394121237
 31
0.0
  0
LINE
  5
236A
330
2342
100
AcDbEntity
  8
0
 62
     0
100
AcDbLine
 10
4857.994858914523
 20
3125.817394121237
 30
0.0
 11
4857.994858914523
 21
3124.567394121238
 31
0.0
  0
LINE
  5
236B
330
2342
100
AcDbEntity
  8
0
 62
     0
100
AcDbLine
 10
4857.994858914523
 20
3129.591607867916
 30
0.0
 11
4857.994858914523
 21
3129.567394121237
 31
0.0
  0
LINE
  5
236C
330
2342
100
AcDbEntity
  8
0
 62
     0
100
AcDbLine
 10
4860.49485891452
 20
3098.317394121237
 30
0.0
 11
4860.49485891452
 21
3097.190945632087
 31
0.0
  0
LINE
  5
236D
330
2342
100
AcDbEntity
  8
0
 62
     0
100
AcDbLine
 10
4860.49485891452
 20
3103.317394121237
 30
0.0
 11
4860.49485891452
 21
3102.067394121237
 31
0.0
  0
LINE
  5
236E
330
2342
100
AcDbEntity
  8
0
 62
     0
100
AcDbLine
 10
4860.49485891452
 20
3108.317394121237
 30
0.0
 11
4860.49485891452
 21
3107.067394121238
 31
0.0
  0
LINE
  5
236F
330
2342
100
AcDbEntity
  8
0
 62
     0
100
AcDbLine
 10
4860.49485891452
 20
3078.317394121237
 30
0.0
 11
4860.49485891452
 21
3077.539161347639
 31
0.0
  0
LINE
  5
2370
330
2342
100
AcDbEntity
  8
0
 62
     0
100
AcDbLine
 10
4860.49485891452
 20
3083.317394121237
 30
0.0
 11
4860.49485891452
 21
3082.067394121237
 31
0.0
  0
LINE
  5
2371
330
2342
100
AcDbEntity
  8
0
 62
     0
100
AcDbLine
 10
4860.49485891452
 20
3088.317394121237
 30
0.0
 11
4860.49485891452
 21
3087.067394121238
 31
0.0
  0
LINE
  5
2372
330
2342
100
AcDbEntity
  8
0
 62
     0
100
AcDbLine
 10
4860.49485891452
 20
3093.317394121238
 30
0.0
 11
4860.49485891452
 21
3092.067394121237
 31
0.0
  0
LINE
  5
2373
330
2342
100
AcDbEntity
  8
0
 62
     0
100
AcDbLine
 10
4860.49485891452
 20
3097.190945632087
 30
0.0
 11
4860.49485891452
 21
3097.067394121237
 31
0.0
  0
LINE
  5
2374
330
2342
100
AcDbEntity
  8
0
 62
     0
100
AcDbLine
 10
4860.49485891452
 20
3113.317394121237
 30
0.0
 11
4860.49485891452
 21
3112.067394121238
 31
0.0
  0
LINE
  5
2375
330
2342
100
AcDbEntity
  8
0
 62
     0
100
AcDbLine
 10
4860.49485891452
 20
3118.317394121238
 30
0.0
 11
4860.49485891452
 21
3117.067394121237
 31
0.0
  0
LINE
  5
2376
330
2342
100
AcDbEntity
  8
0
 62
     0
100
AcDbLine
 10
4860.49485891452
 20
3123.317394121237
 30
0.0
 11
4860.49485891452
 21
3122.067394121237
 31
0.0
  0
LINE
  5
2377
330
2342
100
AcDbEntity
  8
0
 62
     0
100
AcDbLine
 10
4860.49485891452
 20
3128.317394121237
 30
0.0
 11
4860.49485891452
 21
3127.067394121237
 31
0.0
  0
LINE
  5
2378
330
2342
100
AcDbEntity
  8
0
 62
     0
100
AcDbLine
 10
4862.994858914522
 20
3100.817394121238
 30
0.0
 11
4862.994858914522
 21
3099.567394121237
 31
0.0
  0
LINE
  5
2379
330
2342
100
AcDbEntity
  8
0
 62
     0
100
AcDbLine
 10
4862.994858914522
 20
3105.817394121237
 30
0.0
 11
4862.994858914522
 21
3104.567394121237
 31
0.0
  0
LINE
  5
237A
330
2342
100
AcDbEntity
  8
0
 62
     0
100
AcDbLine
 10
4862.994858914522
 20
3110.228039537439
 30
0.0
 11
4862.994858914522
 21
3109.567394121237
 31
0.0
  0
LINE
  5
237B
330
2342
100
AcDbEntity
  8
0
 62
     0
100
AcDbLine
 10
4862.994858914522
 20
3080.817394121238
 30
0.0
 11
4862.994858914522
 21
3079.567394121237
 31
0.0
  0
LINE
  5
237C
330
2342
100
AcDbEntity
  8
0
 62
     0
100
AcDbLine
 10
4862.994858914522
 20
3085.817394121237
 30
0.0
 11
4862.994858914522
 21
3084.567394121237
 31
0.0
  0
LINE
  5
237D
330
2342
100
AcDbEntity
  8
0
 62
     0
100
AcDbLine
 10
4862.994858914522
 20
3090.817394121237
 30
0.0
 11
4862.994858914522
 21
3089.567394121238
 31
0.0
  0
LINE
  5
237E
330
2342
100
AcDbEntity
  8
0
 62
     0
100
AcDbLine
 10
4862.994858914522
 20
3095.817394121237
 30
0.0
 11
4862.994858914522
 21
3094.567394121237
 31
0.0
  0
LINE
  5
237F
330
2342
100
AcDbEntity
  8
0
 62
     0
100
AcDbLine
 10
4862.994858914522
 20
3110.817394121237
 30
0.0
 11
4862.994858914522
 21
3110.228039537439
 31
0.0
  0
LINE
  5
2380
330
2342
100
AcDbEntity
  8
0
 62
     0
100
AcDbLine
 10
4862.994858914522
 20
3115.817394121237
 30
0.0
 11
4862.994858914522
 21
3114.567394121237
 31
0.0
  0
LINE
  5
2381
330
2342
100
AcDbEntity
  8
0
 62
     0
100
AcDbLine
 10
4862.994858914522
 20
3120.817394121238
 30
0.0
 11
4862.994858914522
 21
3119.567394121237
 31
0.0
  0
LINE
  5
2382
330
2342
100
AcDbEntity
  8
0
 62
     0
100
AcDbLine
 10
4862.994858914522
 20
3125.817394121237
 30
0.0
 11
4862.994858914522
 21
3124.567394121238
 31
0.0
  0
LINE
  5
2383
330
2342
100
AcDbEntity
  8
0
 62
     0
100
AcDbLine
 10
4862.994858914522
 20
3130.817394121237
 30
0.0
 11
4862.994858914522
 21
3129.567394121237
 31
0.0
  0
LINE
  5
2384
330
2342
100
AcDbEntity
  8
0
 62
     0
100
AcDbLine
 10
4865.49485891452
 20
3103.317394121237
 30
0.0
 11
4865.49485891452
 21
3102.067394121237
 31
0.0
  0
LINE
  5
2385
330
2342
100
AcDbEntity
  8
0
 62
     0
100
AcDbLine
 10
4865.49485891452
 20
3108.317394121237
 30
0.0
 11
4865.49485891452
 21
3107.067394121238
 31
0.0
  0
LINE
  5
2386
330
2342
100
AcDbEntity
  8
0
 62
     0
100
AcDbLine
 10
4865.49485891452
 20
3078.317394121237
 30
0.0
 11
4865.49485891452
 21
3077.067394121237
 31
0.0
  0
LINE
  5
2387
330
2342
100
AcDbEntity
  8
0
 62
     0
100
AcDbLine
 10
4865.49485891452
 20
3083.317394121237
 30
0.0
 11
4865.49485891452
 21
3082.067394121237
 31
0.0
  0
LINE
  5
2388
330
2342
100
AcDbEntity
  8
0
 62
     0
100
AcDbLine
 10
4865.49485891452
 20
3088.317394121237
 30
0.0
 11
4865.49485891452
 21
3087.067394121238
 31
0.0
  0
LINE
  5
2389
330
2342
100
AcDbEntity
  8
0
 62
     0
100
AcDbLine
 10
4865.49485891452
 20
3093.317394121238
 30
0.0
 11
4865.49485891452
 21
3092.067394121237
 31
0.0
  0
LINE
  5
238A
330
2342
100
AcDbEntity
  8
0
 62
     0
100
AcDbLine
 10
4865.49485891452
 20
3098.317394121237
 30
0.0
 11
4865.49485891452
 21
3097.067394121237
 31
0.0
  0
LINE
  5
238B
330
2342
100
AcDbEntity
  8
0
 62
     0
100
AcDbLine
 10
4865.49485891452
 20
3113.317394121237
 30
0.0
 11
4865.49485891452
 21
3112.067394121238
 31
0.0
  0
LINE
  5
238C
330
2342
100
AcDbEntity
  8
0
 62
     0
100
AcDbLine
 10
4865.49485891452
 20
3118.317394121238
 30
0.0
 11
4865.49485891452
 21
3117.067394121237
 31
0.0
  0
LINE
  5
238D
330
2342
100
AcDbEntity
  8
0
 62
     0
100
AcDbLine
 10
4865.49485891452
 20
3123.317394121237
 30
0.0
 11
4865.49485891452
 21
3122.067394121237
 31
0.0
  0
LINE
  5
238E
330
2342
100
AcDbEntity
  8
0
 62
     0
100
AcDbLine
 10
4865.49485891452
 20
3128.317394121237
 30
0.0
 11
4865.49485891452
 21
3127.067394121237
 31
0.0
  0
LINE
  5
238F
330
2342
100
AcDbEntity
  8
0
 62
     0
100
AcDbLine
 10
4865.49485891452
 20
3133.317394121237
 30
0.0
 11
4865.49485891452
 21
3132.067394121238
 31
0.0
  0
LINE
  5
2390
330
2342
100
AcDbEntity
  8
0
 62
     0
100
AcDbLine
 10
4867.994858914522
 20
3105.817394121237
 30
0.0
 11
4867.994858914522
 21
3104.567394121237
 31
0.0
  0
LINE
  5
2391
330
2342
100
AcDbEntity
  8
0
 62
     0
100
AcDbLine
 10
4867.994858914522
 20
3110.817394121237
 30
0.0
 11
4867.994858914522
 21
3109.567394121237
 31
0.0
  0
LINE
  5
2392
330
2342
100
AcDbEntity
  8
0
 62
     0
100
AcDbLine
 10
4867.994858914522
 20
3075.817394121238
 30
0.0
 11
4867.994858914522
 21
3075.224235869813
 31
0.0
  0
LINE
  5
2393
330
2342
100
AcDbEntity
  8
0
 62
     0
100
AcDbLine
 10
4867.994858914522
 20
3080.817394121238
 30
0.0
 11
4867.994858914522
 21
3079.567394121237
 31
0.0
  0
LINE
  5
2394
330
2342
100
AcDbEntity
  8
0
 62
     0
100
AcDbLine
 10
4867.994858914522
 20
3085.817394121237
 30
0.0
 11
4867.994858914522
 21
3084.567394121237
 31
0.0
  0
LINE
  5
2395
330
2342
100
AcDbEntity
  8
0
 62
     0
100
AcDbLine
 10
4867.994858914522
 20
3090.817394121237
 30
0.0
 11
4867.994858914522
 21
3089.567394121238
 31
0.0
  0
LINE
  5
2396
330
2342
100
AcDbEntity
  8
0
 62
     0
100
AcDbLine
 10
4867.994858914522
 20
3095.817394121237
 30
0.0
 11
4867.994858914522
 21
3094.567394121237
 31
0.0
  0
LINE
  5
2397
330
2342
100
AcDbEntity
  8
0
 62
     0
100
AcDbLine
 10
4867.994858914522
 20
3100.817394121238
 30
0.0
 11
4867.994858914522
 21
3099.567394121237
 31
0.0
  0
LINE
  5
2398
330
2342
100
AcDbEntity
  8
0
 62
     0
100
AcDbLine
 10
4867.994858914522
 20
3115.817394121237
 30
0.0
 11
4867.994858914522
 21
3114.567394121237
 31
0.0
  0
LINE
  5
2399
330
2342
100
AcDbEntity
  8
0
 62
     0
100
AcDbLine
 10
4867.994858914522
 20
3120.817394121238
 30
0.0
 11
4867.994858914522
 21
3119.567394121237
 31
0.0
  0
LINE
  5
239A
330
2342
100
AcDbEntity
  8
0
 62
     0
100
AcDbLine
 10
4867.994858914522
 20
3125.817394121237
 30
0.0
 11
4867.994858914522
 21
3124.567394121238
 31
0.0
  0
LINE
  5
239B
330
2342
100
AcDbEntity
  8
0
 62
     0
100
AcDbLine
 10
4867.994858914522
 20
3130.817394121237
 30
0.0
 11
4867.994858914522
 21
3129.567394121237
 31
0.0
  0
LINE
  5
239C
330
2342
100
AcDbEntity
  8
0
 62
     0
100
AcDbLine
 10
4870.494858914522
 20
3103.317394121237
 30
0.0
 11
4870.494858914522
 21
3103.026565491411
 31
0.0
  0
LINE
  5
239D
330
2342
100
AcDbEntity
  8
0
 62
     0
100
AcDbLine
 10
4870.494858914522
 20
3108.317394121237
 30
0.0
 11
4870.494858914522
 21
3107.067394121238
 31
0.0
  0
LINE
  5
239E
330
2342
100
AcDbEntity
  8
0
 62
     0
100
AcDbLine
 10
4870.494858914522
 20
3113.317394121237
 30
0.0
 11
4870.494858914522
 21
3112.067394121238
 31
0.0
  0
LINE
  5
239F
330
2342
100
AcDbEntity
  8
0
 62
     0
100
AcDbLine
 10
4870.494858914522
 20
3078.317394121237
 30
0.0
 11
4870.494858914522
 21
3077.067394121237
 31
0.0
  0
LINE
  5
23A0
330
2342
100
AcDbEntity
  8
0
 62
     0
100
AcDbLine
 10
4870.494858914522
 20
3083.317394121237
 30
0.0
 11
4870.494858914522
 21
3082.067394121237
 31
0.0
  0
LINE
  5
23A1
330
2342
100
AcDbEntity
  8
0
 62
     0
100
AcDbLine
 10
4870.494858914522
 20
3088.317394121237
 30
0.0
 11
4870.494858914522
 21
3087.067394121238
 31
0.0
  0
LINE
  5
23A2
330
2342
100
AcDbEntity
  8
0
 62
     0
100
AcDbLine
 10
4870.494858914522
 20
3093.317394121238
 30
0.0
 11
4870.494858914522
 21
3092.067394121237
 31
0.0
  0
LINE
  5
23A3
330
2342
100
AcDbEntity
  8
0
 62
     0
100
AcDbLine
 10
4870.494858914522
 20
3098.317394121237
 30
0.0
 11
4870.494858914522
 21
3097.067394121237
 31
0.0
  0
LINE
  5
23A4
330
2342
100
AcDbEntity
  8
0
 62
     0
100
AcDbLine
 10
4870.494858914522
 20
3103.026565491411
 30
0.0
 11
4870.494858914522
 21
3102.067394121237
 31
0.0
  0
LINE
  5
23A5
330
2342
100
AcDbEntity
  8
0
 62
     0
100
AcDbLine
 10
4870.494858914522
 20
3118.317394121238
 30
0.0
 11
4870.494858914522
 21
3117.067394121237
 31
0.0
  0
LINE
  5
23A6
330
2342
100
AcDbEntity
  8
0
 62
     0
100
AcDbLine
 10
4870.494858914522
 20
3123.317394121237
 30
0.0
 11
4870.494858914522
 21
3122.067394121237
 31
0.0
  0
LINE
  5
23A7
330
2342
100
AcDbEntity
  8
0
 62
     0
100
AcDbLine
 10
4870.494858914522
 20
3128.317394121237
 30
0.0
 11
4870.494858914522
 21
3127.067394121237
 31
0.0
  0
LINE
  5
23A8
330
2342
100
AcDbEntity
  8
0
 62
     0
100
AcDbLine
 10
4870.494858914522
 20
3133.317394121237
 30
0.0
 11
4870.494858914522
 21
3132.067394121238
 31
0.0
  0
LINE
  5
23A9
330
2342
100
AcDbEntity
  8
0
 62
     0
100
AcDbLine
 10
4872.994858914521
 20
3105.817394121237
 30
0.0
 11
4872.994858914521
 21
3104.567394121237
 31
0.0
  0
LINE
  5
23AA
330
2342
100
AcDbEntity
  8
0
 62
     0
100
AcDbLine
 10
4872.994858914521
 20
3110.817394121237
 30
0.0
 11
4872.994858914521
 21
3109.567394121237
 31
0.0
  0
LINE
  5
23AB
330
2342
100
AcDbEntity
  8
0
 62
     0
100
AcDbLine
 10
4872.994858914521
 20
3115.817394121237
 30
0.0
 11
4872.994858914521
 21
3114.567394121237
 31
0.0
  0
LINE
  5
23AC
330
2342
100
AcDbEntity
  8
0
 62
     0
100
AcDbLine
 10
4872.994858914521
 20
3075.817394121238
 30
0.0
 11
4872.994858914521
 21
3075.793944817036
 31
0.0
  0
LINE
  5
23AD
330
2342
100
AcDbEntity
  8
0
 62
     0
100
AcDbLine
 10
4872.994858914521
 20
3080.817394121238
 30
0.0
 11
4872.994858914521
 21
3079.567394121237
 31
0.0
  0
LINE
  5
23AE
330
2342
100
AcDbEntity
  8
0
 62
     0
100
AcDbLine
 10
4872.994858914521
 20
3085.817394121237
 30
0.0
 11
4872.994858914521
 21
3084.567394121237
 31
0.0
  0
LINE
  5
23AF
330
2342
100
AcDbEntity
  8
0
 62
     0
100
AcDbLine
 10
4872.994858914521
 20
3090.817394121237
 30
0.0
 11
4872.994858914521
 21
3089.567394121238
 31
0.0
  0
LINE
  5
23B0
330
2342
100
AcDbEntity
  8
0
 62
     0
100
AcDbLine
 10
4872.994858914521
 20
3095.817394121237
 30
0.0
 11
4872.994858914521
 21
3094.567394121237
 31
0.0
  0
LINE
  5
23B1
330
2342
100
AcDbEntity
  8
0
 62
     0
100
AcDbLine
 10
4872.994858914521
 20
3100.817394121238
 30
0.0
 11
4872.994858914521
 21
3099.567394121237
 31
0.0
  0
LINE
  5
23B2
330
2342
100
AcDbEntity
  8
0
 62
     0
100
AcDbLine
 10
4872.994858914521
 20
3120.817394121238
 30
0.0
 11
4872.994858914521
 21
3119.567394121237
 31
0.0
  0
LINE
  5
23B3
330
2342
100
AcDbEntity
  8
0
 62
     0
100
AcDbLine
 10
4872.994858914521
 20
3125.817394121237
 30
0.0
 11
4872.994858914521
 21
3124.567394121238
 31
0.0
  0
LINE
  5
23B4
330
2342
100
AcDbEntity
  8
0
 62
     0
100
AcDbLine
 10
4872.994858914521
 20
3130.817394121237
 30
0.0
 11
4872.994858914521
 21
3129.567394121237
 31
0.0
  0
LINE
  5
23B5
330
2342
100
AcDbEntity
  8
0
 62
     0
100
AcDbLine
 10
4875.494858914521
 20
3108.317394121237
 30
0.0
 11
4875.494858914521
 21
3107.067394121238
 31
0.0
  0
LINE
  5
23B6
330
2342
100
AcDbEntity
  8
0
 62
     0
100
AcDbLine
 10
4875.494858914521
 20
3113.317394121237
 30
0.0
 11
4875.494858914521
 21
3112.067394121238
 31
0.0
  0
LINE
  5
23B7
330
2342
100
AcDbEntity
  8
0
 62
     0
100
AcDbLine
 10
4875.494858914521
 20
3117.522564361599
 30
0.0
 11
4875.494858914521
 21
3117.067394121237
 31
0.0
  0
LINE
  5
23B8
330
2342
100
AcDbEntity
  8
0
 62
     0
100
AcDbLine
 10
4875.494858914521
 20
3078.317394121237
 30
0.0
 11
4875.494858914521
 21
3077.067394121237
 31
0.0
  0
LINE
  5
23B9
330
2342
100
AcDbEntity
  8
0
 62
     0
100
AcDbLine
 10
4875.494858914521
 20
3083.317394121237
 30
0.0
 11
4875.494858914521
 21
3082.067394121237
 31
0.0
  0
LINE
  5
23BA
330
2342
100
AcDbEntity
  8
0
 62
     0
100
AcDbLine
 10
4875.494858914521
 20
3088.317394121237
 30
0.0
 11
4875.494858914521
 21
3087.067394121238
 31
0.0
  0
LINE
  5
23BB
330
2342
100
AcDbEntity
  8
0
 62
     0
100
AcDbLine
 10
4875.494858914521
 20
3093.317394121238
 30
0.0
 11
4875.494858914521
 21
3092.067394121237
 31
0.0
  0
LINE
  5
23BC
330
2342
100
AcDbEntity
  8
0
 62
     0
100
AcDbLine
 10
4875.494858914521
 20
3098.317394121237
 30
0.0
 11
4875.494858914521
 21
3097.067394121237
 31
0.0
  0
LINE
  5
23BD
330
2342
100
AcDbEntity
  8
0
 62
     0
100
AcDbLine
 10
4875.494858914521
 20
3103.317394121237
 30
0.0
 11
4875.494858914521
 21
3102.067394121237
 31
0.0
  0
LINE
  5
23BE
330
2342
100
AcDbEntity
  8
0
 62
     0
100
AcDbLine
 10
4875.494858914521
 20
3118.317394121238
 30
0.0
 11
4875.494858914521
 21
3117.522564361599
 31
0.0
  0
LINE
  5
23BF
330
2342
100
AcDbEntity
  8
0
 62
     0
100
AcDbLine
 10
4875.494858914521
 20
3123.317394121237
 30
0.0
 11
4875.494858914521
 21
3122.067394121237
 31
0.0
  0
LINE
  5
23C0
330
2342
100
AcDbEntity
  8
0
 62
     0
100
AcDbLine
 10
4875.494858914521
 20
3128.317394121237
 30
0.0
 11
4875.494858914521
 21
3127.067394121237
 31
0.0
  0
LINE
  5
23C1
330
2342
100
AcDbEntity
  8
0
 62
     0
100
AcDbLine
 10
4875.494858914521
 20
3132.158747710303
 30
0.0
 11
4875.494858914521
 21
3132.067394121238
 31
0.0
  0
LINE
  5
23C2
330
2342
100
AcDbEntity
  8
0
 62
     0
100
AcDbLine
 10
4877.994858914521
 20
3110.817394121237
 30
0.0
 11
4877.994858914521
 21
3109.567394121237
 31
0.0
  0
LINE
  5
23C3
330
2342
100
AcDbEntity
  8
0
 62
     0
100
AcDbLine
 10
4877.994858914521
 20
3115.817394121237
 30
0.0
 11
4877.994858914521
 21
3114.567394121237
 31
0.0
  0
LINE
  5
23C4
330
2342
100
AcDbEntity
  8
0
 62
     0
100
AcDbLine
 10
4877.994858914521
 20
3080.817394121238
 30
0.0
 11
4877.994858914521
 21
3079.567394121237
 31
0.0
  0
LINE
  5
23C5
330
2342
100
AcDbEntity
  8
0
 62
     0
100
AcDbLine
 10
4877.994858914521
 20
3085.817394121237
 30
0.0
 11
4877.994858914521
 21
3084.567394121237
 31
0.0
  0
LINE
  5
23C6
330
2342
100
AcDbEntity
  8
0
 62
     0
100
AcDbLine
 10
4877.994858914521
 20
3090.817394121237
 30
0.0
 11
4877.994858914521
 21
3089.567394121238
 31
0.0
  0
LINE
  5
23C7
330
2342
100
AcDbEntity
  8
0
 62
     0
100
AcDbLine
 10
4877.994858914521
 20
3095.817394121237
 30
0.0
 11
4877.994858914521
 21
3094.567394121237
 31
0.0
  0
LINE
  5
23C8
330
2342
100
AcDbEntity
  8
0
 62
     0
100
AcDbLine
 10
4877.994858914521
 20
3100.817394121238
 30
0.0
 11
4877.994858914521
 21
3099.567394121237
 31
0.0
  0
LINE
  5
23C9
330
2342
100
AcDbEntity
  8
0
 62
     0
100
AcDbLine
 10
4877.994858914521
 20
3105.817394121237
 30
0.0
 11
4877.994858914521
 21
3104.567394121237
 31
0.0
  0
LINE
  5
23CA
330
2342
100
AcDbEntity
  8
0
 62
     0
100
AcDbLine
 10
4877.994858914521
 20
3120.817394121238
 30
0.0
 11
4877.994858914521
 21
3119.567394121237
 31
0.0
  0
LINE
  5
23CB
330
2342
100
AcDbEntity
  8
0
 62
     0
100
AcDbLine
 10
4877.994858914521
 20
3125.817394121237
 30
0.0
 11
4877.994858914521
 21
3124.567394121238
 31
0.0
  0
LINE
  5
23CC
330
2342
100
AcDbEntity
  8
0
 62
     0
100
AcDbLine
 10
4877.994858914521
 20
3130.747003476106
 30
0.0
 11
4877.994858914521
 21
3129.567394121237
 31
0.0
  0
LINE
  5
23CD
330
2342
100
AcDbEntity
  8
0
 62
     0
100
AcDbLine
 10
4880.494858914523
 20
3113.317394121237
 30
0.0
 11
4880.494858914523
 21
3112.067394121238
 31
0.0
  0
LINE
  5
23CE
330
2342
100
AcDbEntity
  8
0
 62
     0
100
AcDbLine
 10
4880.494858914523
 20
3118.317394121238
 30
0.0
 11
4880.494858914523
 21
3117.067394121237
 31
0.0
  0
LINE
  5
23CF
330
2342
100
AcDbEntity
  8
0
 62
     0
100
AcDbLine
 10
4880.494858914523
 20
3083.317394121237
 30
0.0
 11
4880.494858914523
 21
3082.067394121237
 31
0.0
  0
LINE
  5
23D0
330
2342
100
AcDbEntity
  8
0
 62
     0
100
AcDbLine
 10
4880.494858914523
 20
3088.317394121237
 30
0.0
 11
4880.494858914523
 21
3087.067394121238
 31
0.0
  0
LINE
  5
23D1
330
2342
100
AcDbEntity
  8
0
 62
     0
100
AcDbLine
 10
4880.494858914523
 20
3093.317394121238
 30
0.0
 11
4880.494858914523
 21
3092.067394121237
 31
0.0
  0
LINE
  5
23D2
330
2342
100
AcDbEntity
  8
0
 62
     0
100
AcDbLine
 10
4880.494858914523
 20
3098.317394121237
 30
0.0
 11
4880.494858914523
 21
3097.067394121237
 31
0.0
  0
LINE
  5
23D3
330
2342
100
AcDbEntity
  8
0
 62
     0
100
AcDbLine
 10
4880.494858914523
 20
3103.317394121237
 30
0.0
 11
4880.494858914523
 21
3102.067394121237
 31
0.0
  0
LINE
  5
23D4
330
2342
100
AcDbEntity
  8
0
 62
     0
100
AcDbLine
 10
4880.494858914523
 20
3108.317394121237
 30
0.0
 11
4880.494858914523
 21
3107.067394121238
 31
0.0
  0
LINE
  5
23D5
330
2342
100
AcDbEntity
  8
0
 62
     0
100
AcDbLine
 10
4880.494858914523
 20
3123.317394121237
 30
0.0
 11
4880.494858914523
 21
3122.067394121237
 31
0.0
  0
LINE
  5
23D6
330
2342
100
AcDbEntity
  8
0
 62
     0
100
AcDbLine
 10
4880.494858914523
 20
3128.317394121237
 30
0.0
 11
4880.494858914523
 21
3127.067394121237
 31
0.0
  0
LINE
  5
23D7
330
2342
100
AcDbEntity
  8
0
 62
     0
100
AcDbLine
 10
4882.99485891452
 20
3110.817394121237
 30
0.0
 11
4882.99485891452
 21
3110.32109031557
 31
0.0
  0
LINE
  5
23D8
330
2342
100
AcDbEntity
  8
0
 62
     0
100
AcDbLine
 10
4882.99485891452
 20
3115.817394121237
 30
0.0
 11
4882.99485891452
 21
3114.567394121237
 31
0.0
  0
LINE
  5
23D9
330
2342
100
AcDbEntity
  8
0
 62
     0
100
AcDbLine
 10
4882.99485891452
 20
3120.817394121238
 30
0.0
 11
4882.99485891452
 21
3119.567394121237
 31
0.0
  0
LINE
  5
23DA
330
2342
100
AcDbEntity
  8
0
 62
     0
100
AcDbLine
 10
4882.99485891452
 20
3085.817394121237
 30
0.0
 11
4882.99485891452
 21
3084.567394121237
 31
0.0
  0
LINE
  5
23DB
330
2342
100
AcDbEntity
  8
0
 62
     0
100
AcDbLine
 10
4882.99485891452
 20
3090.817394121237
 30
0.0
 11
4882.99485891452
 21
3089.567394121238
 31
0.0
  0
LINE
  5
23DC
330
2342
100
AcDbEntity
  8
0
 62
     0
100
AcDbLine
 10
4882.99485891452
 20
3095.817394121237
 30
0.0
 11
4882.99485891452
 21
3094.567394121237
 31
0.0
  0
LINE
  5
23DD
330
2342
100
AcDbEntity
  8
0
 62
     0
100
AcDbLine
 10
4882.99485891452
 20
3100.817394121238
 30
0.0
 11
4882.99485891452
 21
3099.567394121237
 31
0.0
  0
LINE
  5
23DE
330
2342
100
AcDbEntity
  8
0
 62
     0
100
AcDbLine
 10
4882.99485891452
 20
3105.817394121237
 30
0.0
 11
4882.99485891452
 21
3104.567394121237
 31
0.0
  0
LINE
  5
23DF
330
2342
100
AcDbEntity
  8
0
 62
     0
100
AcDbLine
 10
4882.99485891452
 20
3110.32109031557
 30
0.0
 11
4882.99485891452
 21
3109.567394121237
 31
0.0
  0
LINE
  5
23E0
330
2342
100
AcDbEntity
  8
0
 62
     0
100
AcDbLine
 10
4882.99485891452
 20
3125.817394121237
 30
0.0
 11
4882.99485891452
 21
3124.567394121238
 31
0.0
  0
LINE
  5
23E1
330
2342
100
AcDbEntity
  8
0
 62
     0
100
AcDbLine
 10
4885.494858914523
 20
3088.317394121237
 30
0.0
 11
4885.494858914523
 21
3087.067394121238
 31
0.0
  0
LINE
  5
23E2
330
2342
100
AcDbEntity
  8
0
 62
     0
100
AcDbLine
 10
4885.494858914523
 20
3093.317394121238
 30
0.0
 11
4885.494858914523
 21
3092.067394121237
 31
0.0
  0
LINE
  5
23E3
330
2342
100
AcDbEntity
  8
0
 62
     0
100
AcDbLine
 10
4885.494858914523
 20
3098.317394121237
 30
0.0
 11
4885.494858914523
 21
3097.067394121237
 31
0.0
  0
LINE
  5
23E4
330
2342
100
AcDbEntity
  8
0
 62
     0
100
AcDbLine
 10
4885.494858914523
 20
3103.317394121237
 30
0.0
 11
4885.494858914523
 21
3102.067394121237
 31
0.0
  0
LINE
  5
23E5
330
2342
100
AcDbEntity
  8
0
 62
     0
100
AcDbLine
 10
4885.494858914523
 20
3108.317394121237
 30
0.0
 11
4885.494858914523
 21
3107.067394121238
 31
0.0
  0
LINE
  5
23E6
330
2342
100
AcDbEntity
  8
0
 62
     0
100
AcDbLine
 10
4885.494858914523
 20
3113.317394121237
 30
0.0
 11
4885.494858914523
 21
3112.067394121238
 31
0.0
  0
LINE
  5
23E7
330
2342
100
AcDbEntity
  8
0
 62
     0
100
AcDbLine
 10
4885.494858914523
 20
3118.317394121238
 30
0.0
 11
4885.494858914523
 21
3117.067394121237
 31
0.0
  0
LINE
  5
23E8
330
2342
100
AcDbEntity
  8
0
 62
     0
100
AcDbLine
 10
4885.494858914523
 20
3122.321683222965
 30
0.0
 11
4885.494858914523
 21
3122.067394121237
 31
0.0
  0
LINE
  5
23E9
330
2342
100
AcDbEntity
  8
0
 62
     0
100
AcDbLine
 10
4887.99485891452
 20
3095.817394121237
 30
0.0
 11
4887.99485891452
 21
3094.588775963799
 31
0.0
  0
LINE
  5
23EA
330
2342
100
AcDbEntity
  8
0
 62
     0
100
AcDbLine
 10
4887.99485891452
 20
3100.817394121238
 30
0.0
 11
4887.99485891452
 21
3099.567394121237
 31
0.0
  0
LINE
  5
23EB
330
2342
100
AcDbEntity
  8
0
 62
     0
100
AcDbLine
 10
4887.99485891452
 20
3105.817394121237
 30
0.0
 11
4887.99485891452
 21
3104.567394121237
 31
0.0
  0
LINE
  5
23EC
330
2342
100
AcDbEntity
  8
0
 62
     0
100
AcDbLine
 10
4887.99485891452
 20
3110.817394121237
 30
0.0
 11
4887.99485891452
 21
3109.567394121237
 31
0.0
  0
LINE
  5
23ED
330
2342
100
AcDbEntity
  8
0
 62
     0
100
AcDbLine
 10
4887.99485891452
 20
3115.817394121237
 30
0.0
 11
4887.99485891452
 21
3114.567394121237
 31
0.0
  0
LINE
  5
23EE
330
2342
100
AcDbEntity
  8
0
 62
     0
100
AcDbLine
 10
4874.869858912236
 20
3077.692394121243
 30
0.0
 11
4876.119858912236
 21
3077.692394121243
 31
0.0
  0
LINE
  5
23EF
330
2342
100
AcDbEntity
  8
0
 62
     0
100
AcDbLine
 10
4869.869858912236
 20
3077.692394121243
 30
0.0
 11
4871.119858912236
 21
3077.692394121243
 31
0.0
  0
LINE
  5
23F0
330
2342
100
AcDbEntity
  8
0
 62
     0
100
AcDbLine
 10
4864.869858912236
 20
3077.692394121243
 30
0.0
 11
4866.119858912236
 21
3077.692394121243
 31
0.0
  0
LINE
  5
23F1
330
2342
100
AcDbEntity
  8
0
 62
     0
100
AcDbLine
 10
4860.239223952625
 20
3077.692394121243
 30
0.0
 11
4861.119858912235
 21
3077.692394121243
 31
0.0
  0
LINE
  5
23F2
330
2342
100
AcDbEntity
  8
0
 62
     0
100
AcDbLine
 10
4877.369858912236
 20
3080.192394121243
 30
0.0
 11
4878.619858912236
 21
3080.192394121243
 31
0.0
  0
LINE
  5
23F3
330
2342
100
AcDbEntity
  8
0
 62
     0
100
AcDbLine
 10
4872.369858912236
 20
3080.192394121243
 30
0.0
 11
4873.619858912236
 21
3080.192394121243
 31
0.0
  0
LINE
  5
23F4
330
2342
100
AcDbEntity
  8
0
 62
     0
100
AcDbLine
 10
4867.369858912236
 20
3080.192394121243
 30
0.0
 11
4868.619858912236
 21
3080.192394121243
 31
0.0
  0
LINE
  5
23F5
330
2342
100
AcDbEntity
  8
0
 62
     0
100
AcDbLine
 10
4862.369858912236
 20
3080.192394121243
 30
0.0
 11
4863.619858912236
 21
3080.192394121243
 31
0.0
  0
LINE
  5
23F6
330
2342
100
AcDbEntity
  8
0
 62
     0
100
AcDbLine
 10
4857.369858912235
 20
3080.192394121243
 30
0.0
 11
4858.619858912236
 21
3080.192394121243
 31
0.0
  0
LINE
  5
23F7
330
2342
100
AcDbEntity
  8
0
 62
     0
100
AcDbLine
 10
4879.869858912243
 20
3082.692394121243
 30
0.0
 11
4881.119858912243
 21
3082.692394121243
 31
0.0
  0
LINE
  5
23F8
330
2342
100
AcDbEntity
  8
0
 62
     0
100
AcDbLine
 10
4874.869858912243
 20
3082.692394121243
 30
0.0
 11
4876.119858912243
 21
3082.692394121243
 31
0.0
  0
LINE
  5
23F9
330
2342
100
AcDbEntity
  8
0
 62
     0
100
AcDbLine
 10
4869.869858912243
 20
3082.692394121243
 30
0.0
 11
4871.119858912243
 21
3082.692394121243
 31
0.0
  0
LINE
  5
23FA
330
2342
100
AcDbEntity
  8
0
 62
     0
100
AcDbLine
 10
4864.869858912243
 20
3082.692394121243
 30
0.0
 11
4866.119858912243
 21
3082.692394121243
 31
0.0
  0
LINE
  5
23FB
330
2342
100
AcDbEntity
  8
0
 62
     0
100
AcDbLine
 10
4859.869858912244
 20
3082.692394121243
 30
0.0
 11
4861.119858912243
 21
3082.692394121243
 31
0.0
  0
LINE
  5
23FC
330
2342
100
AcDbEntity
  8
0
 62
     0
100
AcDbLine
 10
4854.869858912243
 20
3082.692394121243
 30
0.0
 11
4856.119858912244
 21
3082.692394121243
 31
0.0
  0
LINE
  5
23FD
330
2342
100
AcDbEntity
  8
0
 62
     0
100
AcDbLine
 10
4882.369858912252
 20
3085.192394121243
 30
0.0
 11
4883.619858912251
 21
3085.192394121243
 31
0.0
  0
LINE
  5
23FE
330
2342
100
AcDbEntity
  8
0
 62
     0
100
AcDbLine
 10
4877.369858912249
 20
3085.192394121243
 30
0.0
 11
4878.619858912252
 21
3085.192394121243
 31
0.0
  0
LINE
  5
23FF
330
2342
100
AcDbEntity
  8
0
 62
     0
100
AcDbLine
 10
4872.36985891225
 20
3085.192394121243
 30
0.0
 11
4873.619858912253
 21
3085.192394121243
 31
0.0
  0
LINE
  5
2400
330
2342
100
AcDbEntity
  8
0
 62
     0
100
AcDbLine
 10
4867.369858912251
 20
3085.192394121243
 30
0.0
 11
4868.61985891225
 21
3085.192394121243
 31
0.0
  0
LINE
  5
2401
330
2342
100
AcDbEntity
  8
0
 62
     0
100
AcDbLine
 10
4862.369858912249
 20
3085.192394121243
 30
0.0
 11
4863.619858912251
 21
3085.192394121243
 31
0.0
  0
LINE
  5
2402
330
2342
100
AcDbEntity
  8
0
 62
     0
100
AcDbLine
 10
4857.36985891225
 20
3085.192394121243
 30
0.0
 11
4858.619858912249
 21
3085.192394121243
 31
0.0
  0
LINE
  5
2403
330
2342
100
AcDbEntity
  8
0
 62
     0
100
AcDbLine
 10
4852.861925838981
 20
3085.192394121243
 30
0.0
 11
4853.619858912249
 21
3085.192394121243
 31
0.0
  0
LINE
  5
2404
330
2342
100
AcDbEntity
  8
0
 62
     0
100
AcDbLine
 10
4884.869858912236
 20
3087.692394121243
 30
0.0
 11
4886.096940045085
 21
3087.692394121243
 31
0.0
  0
LINE
  5
2405
330
2342
100
AcDbEntity
  8
0
 62
     0
100
AcDbLine
 10
4879.869858912236
 20
3087.692394121243
 30
0.0
 11
4881.119858912236
 21
3087.692394121243
 31
0.0
  0
LINE
  5
2406
330
2342
100
AcDbEntity
  8
0
 62
     0
100
AcDbLine
 10
4874.869858912236
 20
3087.692394121243
 30
0.0
 11
4876.119858912236
 21
3087.692394121243
 31
0.0
  0
LINE
  5
2407
330
2342
100
AcDbEntity
  8
0
 62
     0
100
AcDbLine
 10
4869.869858912236
 20
3087.692394121243
 30
0.0
 11
4871.119858912236
 21
3087.692394121243
 31
0.0
  0
LINE
  5
2408
330
2342
100
AcDbEntity
  8
0
 62
     0
100
AcDbLine
 10
4864.869858912236
 20
3087.692394121243
 30
0.0
 11
4866.119858912236
 21
3087.692394121243
 31
0.0
  0
LINE
  5
2409
330
2342
100
AcDbEntity
  8
0
 62
     0
100
AcDbLine
 10
4859.869858912237
 20
3087.692394121243
 30
0.0
 11
4861.119858912235
 21
3087.692394121243
 31
0.0
  0
LINE
  5
240A
330
2342
100
AcDbEntity
  8
0
 62
     0
100
AcDbLine
 10
4854.869858912236
 20
3087.692394121243
 30
0.0
 11
4856.119858912236
 21
3087.692394121243
 31
0.0
  0
LINE
  5
240B
330
2342
100
AcDbEntity
  8
0
 62
     0
100
AcDbLine
 10
4882.369858912259
 20
3090.192394121243
 30
0.0
 11
4883.619858912259
 21
3090.192394121243
 31
0.0
  0
LINE
  5
240C
330
2342
100
AcDbEntity
  8
0
 62
     0
100
AcDbLine
 10
4877.369858912259
 20
3090.192394121243
 30
0.0
 11
4878.619858912259
 21
3090.192394121243
 31
0.0
  0
LINE
  5
240D
330
2342
100
AcDbEntity
  8
0
 62
     0
100
AcDbLine
 10
4872.369858912257
 20
3090.192394121243
 30
0.0
 11
4873.619858912259
 21
3090.192394121243
 31
0.0
  0
LINE
  5
240E
330
2342
100
AcDbEntity
  8
0
 62
     0
100
AcDbLine
 10
4867.369858912258
 20
3090.192394121243
 30
0.0
 11
4868.619858912257
 21
3090.192394121243
 31
0.0
  0
LINE
  5
240F
330
2342
100
AcDbEntity
  8
0
 62
     0
100
AcDbLine
 10
4862.369858912257
 20
3090.192394121243
 30
0.0
 11
4863.619858912258
 21
3090.192394121243
 31
0.0
  0
LINE
  5
2410
330
2342
100
AcDbEntity
  8
0
 62
     0
100
AcDbLine
 10
4857.369858912258
 20
3090.192394121243
 30
0.0
 11
4858.619858912259
 21
3090.192394121243
 31
0.0
  0
LINE
  5
2411
330
2342
100
AcDbEntity
  8
0
 62
     0
100
AcDbLine
 10
4852.369858912259
 20
3090.192394121243
 30
0.0
 11
4853.619858912257
 21
3090.192394121243
 31
0.0
  0
LINE
  5
2412
330
2342
100
AcDbEntity
  8
0
 62
     0
100
AcDbLine
 10
4884.869858912236
 20
3092.692394121244
 30
0.0
 11
4886.119858912236
 21
3092.692394121244
 31
0.0
  0
LINE
  5
2413
330
2342
100
AcDbEntity
  8
0
 62
     0
100
AcDbLine
 10
4879.869858912236
 20
3092.692394121244
 30
0.0
 11
4881.119858912236
 21
3092.692394121244
 31
0.0
  0
LINE
  5
2414
330
2342
100
AcDbEntity
  8
0
 62
     0
100
AcDbLine
 10
4874.869858912236
 20
3092.692394121244
 30
0.0
 11
4876.119858912236
 21
3092.692394121244
 31
0.0
  0
LINE
  5
2415
330
2342
100
AcDbEntity
  8
0
 62
     0
100
AcDbLine
 10
4869.869858912236
 20
3092.692394121244
 30
0.0
 11
4871.119858912236
 21
3092.692394121244
 31
0.0
  0
LINE
  5
2416
330
2342
100
AcDbEntity
  8
0
 62
     0
100
AcDbLine
 10
4864.869858912236
 20
3092.692394121244
 30
0.0
 11
4866.119858912236
 21
3092.692394121244
 31
0.0
  0
LINE
  5
2417
330
2342
100
AcDbEntity
  8
0
 62
     0
100
AcDbLine
 10
4859.869858912237
 20
3092.692394121244
 30
0.0
 11
4861.119858912235
 21
3092.692394121244
 31
0.0
  0
LINE
  5
2418
330
2342
100
AcDbEntity
  8
0
 62
     0
100
AcDbLine
 10
4854.869858912236
 20
3092.692394121244
 30
0.0
 11
4856.119858912236
 21
3092.692394121244
 31
0.0
  0
LINE
  5
2419
330
2342
100
AcDbEntity
  8
0
 62
     0
100
AcDbLine
 10
4850.338280780444
 20
3092.692394121244
 30
0.0
 11
4851.119858912252
 21
3092.692394121244
 31
0.0
  0
LINE
  5
241A
330
2342
100
AcDbEntity
  8
0
 62
     0
100
AcDbLine
 10
4887.369858912244
 20
3095.192394121243
 30
0.0
 11
4888.619858912243
 21
3095.192394121243
 31
0.0
  0
LINE
  5
241B
330
2342
100
AcDbEntity
  8
0
 62
     0
100
AcDbLine
 10
4882.369858912245
 20
3095.192394121243
 30
0.0
 11
4883.619858912243
 21
3095.192394121243
 31
0.0
  0
LINE
  5
241C
330
2342
100
AcDbEntity
  8
0
 62
     0
100
AcDbLine
 10
4877.369858912243
 20
3095.192394121243
 30
0.0
 11
4878.619858912244
 21
3095.192394121243
 31
0.0
  0
LINE
  5
241D
330
2342
100
AcDbEntity
  8
0
 62
     0
100
AcDbLine
 10
4872.369858912243
 20
3095.192394121243
 30
0.0
 11
4873.619858912243
 21
3095.192394121243
 31
0.0
  0
LINE
  5
241E
330
2342
100
AcDbEntity
  8
0
 62
     0
100
AcDbLine
 10
4867.369858912243
 20
3095.192394121243
 30
0.0
 11
4868.619858912243
 21
3095.192394121243
 31
0.0
  0
LINE
  5
241F
330
2342
100
AcDbEntity
  8
0
 62
     0
100
AcDbLine
 10
4862.369858912243
 20
3095.192394121243
 30
0.0
 11
4863.619858912244
 21
3095.192394121243
 31
0.0
  0
LINE
  5
2420
330
2342
100
AcDbEntity
  8
0
 62
     0
100
AcDbLine
 10
4857.369858912243
 20
3095.192394121243
 30
0.0
 11
4858.619858912243
 21
3095.192394121243
 31
0.0
  0
LINE
  5
2421
330
2342
100
AcDbEntity
  8
0
 62
     0
100
AcDbLine
 10
4852.369858912243
 20
3095.192394121243
 30
0.0
 11
4853.619858912243
 21
3095.192394121243
 31
0.0
  0
LINE
  5
2422
330
2342
100
AcDbEntity
  8
0
 62
     0
100
AcDbLine
 10
4884.869858912249
 20
3097.692394121243
 30
0.0
 11
4886.119858912252
 21
3097.692394121243
 31
0.0
  0
LINE
  5
2423
330
2342
100
AcDbEntity
  8
0
 62
     0
100
AcDbLine
 10
4879.86985891225
 20
3097.692394121243
 30
0.0
 11
4881.119858912249
 21
3097.692394121243
 31
0.0
  0
LINE
  5
2424
330
2342
100
AcDbEntity
  8
0
 62
     0
100
AcDbLine
 10
4874.86985891225
 20
3097.692394121243
 30
0.0
 11
4876.11985891225
 21
3097.692394121243
 31
0.0
  0
LINE
  5
2425
330
2342
100
AcDbEntity
  8
0
 62
     0
100
AcDbLine
 10
4869.869858912251
 20
3097.692394121243
 30
0.0
 11
4871.119858912249
 21
3097.692394121243
 31
0.0
  0
LINE
  5
2426
330
2342
100
AcDbEntity
  8
0
 62
     0
100
AcDbLine
 10
4864.86985891225
 20
3097.692394121243
 30
0.0
 11
4866.11985891225
 21
3097.692394121243
 31
0.0
  0
LINE
  5
2427
330
2342
100
AcDbEntity
  8
0
 62
     0
100
AcDbLine
 10
4859.869858912244
 20
3097.692394121243
 30
0.0
 11
4861.119858912243
 21
3097.692394121243
 31
0.0
  0
LINE
  5
2428
330
2342
100
AcDbEntity
  8
0
 62
     0
100
AcDbLine
 10
4854.869858912243
 20
3097.692394121243
 30
0.0
 11
4856.119858912244
 21
3097.692394121243
 31
0.0
  0
LINE
  5
2429
330
2342
100
AcDbEntity
  8
0
 62
     0
100
AcDbLine
 10
4849.869858912243
 20
3097.692394121243
 30
0.0
 11
4851.119858912245
 21
3097.692394121243
 31
0.0
  0
LINE
  5
242A
330
2342
100
AcDbEntity
  8
0
 62
     0
100
AcDbLine
 10
4887.369858912251
 20
3100.192394121243
 30
0.0
 11
4888.61985891225
 21
3100.192394121243
 31
0.0
  0
LINE
  5
242B
330
2342
100
AcDbEntity
  8
0
 62
     0
100
AcDbLine
 10
4882.369858912252
 20
3100.192394121243
 30
0.0
 11
4883.619858912251
 21
3100.192394121243
 31
0.0
  0
LINE
  5
242C
330
2342
100
AcDbEntity
  8
0
 62
     0
100
AcDbLine
 10
4877.369858912249
 20
3100.192394121243
 30
0.0
 11
4878.619858912252
 21
3100.192394121243
 31
0.0
  0
LINE
  5
242D
330
2342
100
AcDbEntity
  8
0
 62
     0
100
AcDbLine
 10
4872.36985891225
 20
3100.192394121243
 30
0.0
 11
4873.619858912253
 21
3100.192394121243
 31
0.0
  0
LINE
  5
242E
330
2342
100
AcDbEntity
  8
0
 62
     0
100
AcDbLine
 10
4867.369858912251
 20
3100.192394121243
 30
0.0
 11
4868.61985891225
 21
3100.192394121243
 31
0.0
  0
LINE
  5
242F
330
2342
100
AcDbEntity
  8
0
 62
     0
100
AcDbLine
 10
4862.369858912257
 20
3100.192394121243
 30
0.0
 11
4863.619858912258
 21
3100.192394121243
 31
0.0
  0
LINE
  5
2430
330
2342
100
AcDbEntity
  8
0
 62
     0
100
AcDbLine
 10
4857.369858912258
 20
3100.192394121243
 30
0.0
 11
4858.619858912259
 21
3100.192394121243
 31
0.0
  0
LINE
  5
2431
330
2342
100
AcDbEntity
  8
0
 62
     0
100
AcDbLine
 10
4852.369858912259
 20
3100.192394121243
 30
0.0
 11
4853.619858912257
 21
3100.192394121243
 31
0.0
  0
LINE
  5
2432
330
2342
100
AcDbEntity
  8
0
 62
     0
100
AcDbLine
 10
4847.858869341848
 20
3100.192394121243
 30
0.0
 11
4848.619858912257
 21
3100.192394121243
 31
0.0
  0
LINE
  5
2433
330
2342
100
AcDbEntity
  8
0
 62
     0
100
AcDbLine
 10
4869.869858912265
 20
3102.692394121243
 30
0.0
 11
4869.922218169915
 21
3102.692394121243
 31
0.0
  0
LINE
  5
2434
330
2342
100
AcDbEntity
  8
0
 62
     0
100
AcDbLine
 10
4864.869858912265
 20
3102.692394121243
 30
0.0
 11
4866.119858912265
 21
3102.692394121243
 31
0.0
  0
LINE
  5
2435
330
2342
100
AcDbEntity
  8
0
 62
     0
100
AcDbLine
 10
4859.869858912265
 20
3102.692394121243
 30
0.0
 11
4861.119858912265
 21
3102.692394121243
 31
0.0
  0
LINE
  5
2436
330
2342
100
AcDbEntity
  8
0
 62
     0
100
AcDbLine
 10
4854.869858912265
 20
3102.692394121243
 30
0.0
 11
4856.119858912265
 21
3102.692394121243
 31
0.0
  0
LINE
  5
2437
330
2342
100
AcDbEntity
  8
0
 62
     0
100
AcDbLine
 10
4850.081671287785
 20
3102.692394121243
 30
0.0
 11
4851.119858912265
 21
3102.692394121243
 31
0.0
  0
LINE
  5
2438
330
2342
100
AcDbEntity
  8
0
 62
     0
100
AcDbLine
 10
4889.869858912249
 20
3102.692394121243
 30
0.0
 11
4889.871182319621
 21
3102.692394121243
 31
0.0
  0
LINE
  5
2439
330
2342
100
AcDbEntity
  8
0
 62
     0
100
AcDbLine
 10
4884.869858912249
 20
3102.692394121243
 30
0.0
 11
4886.119858912252
 21
3102.692394121243
 31
0.0
  0
LINE
  5
243A
330
2342
100
AcDbEntity
  8
0
 62
     0
100
AcDbLine
 10
4879.86985891225
 20
3102.692394121243
 30
0.0
 11
4881.119858912249
 21
3102.692394121243
 31
0.0
  0
LINE
  5
243B
330
2342
100
AcDbEntity
  8
0
 62
     0
100
AcDbLine
 10
4874.86985891225
 20
3102.692394121243
 30
0.0
 11
4876.11985891225
 21
3102.692394121243
 31
0.0
  0
LINE
  5
243C
330
2342
100
AcDbEntity
  8
0
 62
     0
100
AcDbLine
 10
4869.9222181699
 20
3102.692394121243
 30
0.0
 11
4871.119858912249
 21
3102.692394121243
 31
0.0
  0
LINE
  5
243D
330
2342
100
AcDbEntity
  8
0
 62
     0
100
AcDbLine
 10
4849.869858912265
 20
3102.692394121243
 30
0.0
 11
4850.081671287785
 21
3102.692394121243
 31
0.0
  0
LINE
  5
243E
330
2342
100
AcDbEntity
  8
0
 62
     0
100
AcDbLine
 10
4872.369858912243
 20
3105.192394121243
 30
0.0
 11
4873.619858912243
 21
3105.192394121243
 31
0.0
  0
LINE
  5
243F
330
2342
100
AcDbEntity
  8
0
 62
     0
100
AcDbLine
 10
4867.369858912243
 20
3105.192394121243
 30
0.0
 11
4868.619858912243
 21
3105.192394121243
 31
0.0
  0
LINE
  5
2440
330
2342
100
AcDbEntity
  8
0
 62
     0
100
AcDbLine
 10
4862.369858912243
 20
3105.192394121243
 30
0.0
 11
4863.619858912244
 21
3105.192394121243
 31
0.0
  0
LINE
  5
2441
330
2342
100
AcDbEntity
  8
0
 62
     0
100
AcDbLine
 10
4857.369858912243
 20
3105.192394121243
 30
0.0
 11
4858.619858912243
 21
3105.192394121243
 31
0.0
  0
LINE
  5
2442
330
2342
100
AcDbEntity
  8
0
 62
     0
100
AcDbLine
 10
4887.369858912259
 20
3105.192394121242
 30
0.0
 11
4888.619858912258
 21
3105.192394121242
 31
0.0
  0
LINE
  5
2443
330
2342
100
AcDbEntity
  8
0
 62
     0
100
AcDbLine
 10
4882.369858912259
 20
3105.192394121242
 30
0.0
 11
4883.619858912259
 21
3105.192394121242
 31
0.0
  0
LINE
  5
2444
330
2342
100
AcDbEntity
  8
0
 62
     0
100
AcDbLine
 10
4877.369858912259
 20
3105.192394121242
 30
0.0
 11
4878.619858912259
 21
3105.192394121242
 31
0.0
  0
LINE
  5
2445
330
2342
100
AcDbEntity
  8
0
 62
     0
100
AcDbLine
 10
4852.369858912251
 20
3105.192394121243
 30
0.0
 11
4853.619858912249
 21
3105.192394121243
 31
0.0
  0
LINE
  5
2446
330
2342
100
AcDbEntity
  8
0
 62
     0
100
AcDbLine
 10
4847.641503439138
 20
3105.192394121243
 30
0.0
 11
4848.61985891225
 21
3105.192394121243
 31
0.0
  0
LINE
  5
2447
330
2342
100
AcDbEntity
  8
0
 62
     0
100
AcDbLine
 10
4874.86985891225
 20
3107.692394121243
 30
0.0
 11
4876.11985891225
 21
3107.692394121243
 31
0.0
  0
LINE
  5
2448
330
2342
100
AcDbEntity
  8
0
 62
     0
100
AcDbLine
 10
4869.869858912251
 20
3107.692394121243
 30
0.0
 11
4871.119858912249
 21
3107.692394121243
 31
0.0
  0
LINE
  5
2449
330
2342
100
AcDbEntity
  8
0
 62
     0
100
AcDbLine
 10
4864.86985891225
 20
3107.692394121243
 30
0.0
 11
4866.11985891225
 21
3107.692394121243
 31
0.0
  0
LINE
  5
244A
330
2342
100
AcDbEntity
  8
0
 62
     0
100
AcDbLine
 10
4859.869858912251
 20
3107.692394121243
 30
0.0
 11
4861.119858912251
 21
3107.692394121243
 31
0.0
  0
LINE
  5
244B
330
2342
100
AcDbEntity
  8
0
 62
     0
100
AcDbLine
 10
4884.869858912264
 20
3107.692394121242
 30
0.0
 11
4886.119858912265
 21
3107.692394121242
 31
0.0
  0
LINE
  5
244C
330
2342
100
AcDbEntity
  8
0
 62
     0
100
AcDbLine
 10
4879.869858912265
 20
3107.692394121242
 30
0.0
 11
4881.119858912265
 21
3107.692394121242
 31
0.0
  0
LINE
  5
244D
330
2342
100
AcDbEntity
  8
0
 62
     0
100
AcDbLine
 10
4854.869858912243
 20
3107.692394121243
 30
0.0
 11
4856.119858912244
 21
3107.692394121243
 31
0.0
  0
LINE
  5
244E
330
2342
100
AcDbEntity
  8
0
 62
     0
100
AcDbLine
 10
4849.869858912243
 20
3107.692394121243
 30
0.0
 11
4851.119858912245
 21
3107.692394121243
 31
0.0
  0
LINE
  5
244F
330
2342
100
AcDbEntity
  8
0
 62
     0
100
AcDbLine
 10
4882.369858912259
 20
3110.192394121243
 30
0.0
 11
4882.774323311758
 21
3110.192394121243
 31
0.0
  0
LINE
  5
2450
330
2342
100
AcDbEntity
  8
0
 62
     0
100
AcDbLine
 10
4877.369858912259
 20
3110.192394121243
 30
0.0
 11
4878.619858912259
 21
3110.192394121243
 31
0.0
  0
LINE
  5
2451
330
2342
100
AcDbEntity
  8
0
 62
     0
100
AcDbLine
 10
4872.369858912257
 20
3110.192394121243
 30
0.0
 11
4873.619858912259
 21
3110.192394121243
 31
0.0
  0
LINE
  5
2452
330
2342
100
AcDbEntity
  8
0
 62
     0
100
AcDbLine
 10
4867.369858912258
 20
3110.192394121243
 30
0.0
 11
4868.619858912257
 21
3110.192394121243
 31
0.0
  0
LINE
  5
2453
330
2342
100
AcDbEntity
  8
0
 62
     0
100
AcDbLine
 10
4862.933776429658
 20
3110.192394121243
 30
0.0
 11
4863.619858912258
 21
3110.192394121243
 31
0.0
  0
LINE
  5
2454
330
2342
100
AcDbEntity
  8
0
 62
     0
100
AcDbLine
 10
4887.369858912265
 20
3110.192394121242
 30
0.0
 11
4888.619858912265
 21
3110.192394121242
 31
0.0
  0
LINE
  5
2455
330
2342
100
AcDbEntity
  8
0
 62
     0
100
AcDbLine
 10
4882.774323311765
 20
3110.192394121242
 30
0.0
 11
4883.619858912265
 21
3110.192394121242
 31
0.0
  0
LINE
  5
2456
330
2342
100
AcDbEntity
  8
0
 62
     0
100
AcDbLine
 10
4862.369858912249
 20
3110.192394121243
 30
0.0
 11
4862.933776429651
 21
3110.192394121243
 31
0.0
  0
LINE
  5
2457
330
2342
100
AcDbEntity
  8
0
 62
     0
100
AcDbLine
 10
4857.36985891225
 20
3110.192394121243
 30
0.0
 11
4858.619858912249
 21
3110.192394121243
 31
0.0
  0
LINE
  5
2458
330
2342
100
AcDbEntity
  8
0
 62
     0
100
AcDbLine
 10
4852.369858912251
 20
3110.192394121243
 30
0.0
 11
4853.619858912249
 21
3110.192394121243
 31
0.0
  0
LINE
  5
2459
330
2342
100
AcDbEntity
  8
0
 62
     0
100
AcDbLine
 10
4848.047583314852
 20
3110.192394121243
 30
0.0
 11
4848.61985891225
 21
3110.192394121243
 31
0.0
  0
LINE
  5
245A
330
2342
100
AcDbEntity
  8
0
 62
     0
100
AcDbLine
 10
4884.869858912264
 20
3112.692394121243
 30
0.0
 11
4886.119858912265
 21
3112.692394121243
 31
0.0
  0
LINE
  5
245B
330
2342
100
AcDbEntity
  8
0
 62
     0
100
AcDbLine
 10
4879.869858912265
 20
3112.692394121243
 30
0.0
 11
4881.119858912265
 21
3112.692394121243
 31
0.0
  0
LINE
  5
245C
330
2342
100
AcDbEntity
  8
0
 62
     0
100
AcDbLine
 10
4874.869858912266
 20
3112.692394121243
 30
0.0
 11
4876.119858912264
 21
3112.692394121243
 31
0.0
  0
LINE
  5
245D
330
2342
100
AcDbEntity
  8
0
 62
     0
100
AcDbLine
 10
4869.869858912265
 20
3112.692394121243
 30
0.0
 11
4871.119858912265
 21
3112.692394121243
 31
0.0
  0
LINE
  5
245E
330
2342
100
AcDbEntity
  8
0
 62
     0
100
AcDbLine
 10
4864.869858912259
 20
3112.692394121243
 30
0.0
 11
4866.119858912259
 21
3112.692394121243
 31
0.0
  0
LINE
  5
245F
330
2342
100
AcDbEntity
  8
0
 62
     0
100
AcDbLine
 10
4859.869858912259
 20
3112.692394121243
 30
0.0
 11
4861.119858912259
 21
3112.692394121243
 31
0.0
  0
LINE
  5
2460
330
2342
100
AcDbEntity
  8
0
 62
     0
100
AcDbLine
 10
4854.869858912259
 20
3112.692394121243
 30
0.0
 11
4856.119858912259
 21
3112.692394121243
 31
0.0
  0
LINE
  5
2461
330
2342
100
AcDbEntity
  8
0
 62
     0
100
AcDbLine
 10
4849.869858912256
 20
3112.692394121243
 30
0.0
 11
4851.119858912259
 21
3112.692394121243
 31
0.0
  0
LINE
  5
2462
330
2342
100
AcDbEntity
  8
0
 62
     0
100
AcDbLine
 10
4887.369858912244
 20
3115.192394121243
 30
0.0
 11
4888.427818109857
 21
3115.192394121243
 31
0.0
  0
LINE
  5
2463
330
2342
100
AcDbEntity
  8
0
 62
     0
100
AcDbLine
 10
4882.369858912245
 20
3115.192394121243
 30
0.0
 11
4883.619858912243
 21
3115.192394121243
 31
0.0
  0
LINE
  5
2464
330
2342
100
AcDbEntity
  8
0
 62
     0
100
AcDbLine
 10
4877.369858912243
 20
3115.192394121243
 30
0.0
 11
4878.619858912244
 21
3115.192394121243
 31
0.0
  0
LINE
  5
2465
330
2342
100
AcDbEntity
  8
0
 62
     0
100
AcDbLine
 10
4872.369858912243
 20
3115.192394121243
 30
0.0
 11
4873.619858912243
 21
3115.192394121243
 31
0.0
  0
LINE
  5
2466
330
2342
100
AcDbEntity
  8
0
 62
     0
100
AcDbLine
 10
4867.369858912258
 20
3115.192394121243
 30
0.0
 11
4868.619858912257
 21
3115.192394121243
 31
0.0
  0
LINE
  5
2467
330
2342
100
AcDbEntity
  8
0
 62
     0
100
AcDbLine
 10
4862.369858912257
 20
3115.192394121243
 30
0.0
 11
4863.619858912258
 21
3115.192394121243
 31
0.0
  0
LINE
  5
2468
330
2342
100
AcDbEntity
  8
0
 62
     0
100
AcDbLine
 10
4857.369858912258
 20
3115.192394121243
 30
0.0
 11
4858.619858912259
 21
3115.192394121243
 31
0.0
  0
LINE
  5
2469
330
2342
100
AcDbEntity
  8
0
 62
     0
100
AcDbLine
 10
4852.369858912259
 20
3115.192394121243
 30
0.0
 11
4853.619858912257
 21
3115.192394121243
 31
0.0
  0
LINE
  5
246A
330
2342
100
AcDbEntity
  8
0
 62
     0
100
AcDbLine
 10
4884.869858912249
 20
3117.692394121242
 30
0.0
 11
4886.119858912252
 21
3117.692394121242
 31
0.0
  0
LINE
  5
246B
330
2342
100
AcDbEntity
  8
0
 62
     0
100
AcDbLine
 10
4879.86985891225
 20
3117.692394121242
 30
0.0
 11
4881.119858912249
 21
3117.692394121242
 31
0.0
  0
LINE
  5
246C
330
2342
100
AcDbEntity
  8
0
 62
     0
100
AcDbLine
 10
4875.78588157153
 20
3117.692394121242
 30
0.0
 11
4876.11985891225
 21
3117.692394121242
 31
0.0
  0
LINE
  5
246D
330
2342
100
AcDbEntity
  8
0
 62
     0
100
AcDbLine
 10
4874.869858912243
 20
3117.692394121243
 30
0.0
 11
4875.785881571522
 21
3117.692394121243
 31
0.0
  0
LINE
  5
246E
330
2342
100
AcDbEntity
  8
0
 62
     0
100
AcDbLine
 10
4869.869858912243
 20
3117.692394121243
 30
0.0
 11
4871.119858912243
 21
3117.692394121243
 31
0.0
  0
LINE
  5
246F
330
2342
100
AcDbEntity
  8
0
 62
     0
100
AcDbLine
 10
4864.869858912243
 20
3117.692394121243
 30
0.0
 11
4866.119858912243
 21
3117.692394121243
 31
0.0
  0
LINE
  5
2470
330
2342
100
AcDbEntity
  8
0
 62
     0
100
AcDbLine
 10
4859.869858912244
 20
3117.692394121243
 30
0.0
 11
4861.119858912243
 21
3117.692394121243
 31
0.0
  0
LINE
  5
2471
330
2342
100
AcDbEntity
  8
0
 62
     0
100
AcDbLine
 10
4854.869858912243
 20
3117.692394121243
 30
0.0
 11
4856.119858912244
 21
3117.692394121243
 31
0.0
  0
LINE
  5
2472
330
2342
100
AcDbEntity
  8
0
 62
     0
100
AcDbLine
 10
4849.930474747693
 20
3117.692394121243
 30
0.0
 11
4851.119858912245
 21
3117.692394121243
 31
0.0
  0
LINE
  5
2473
330
2342
100
AcDbEntity
  8
0
 62
     0
100
AcDbLine
 10
4882.369858912252
 20
3120.192394121243
 30
0.0
 11
4883.619858912251
 21
3120.192394121243
 31
0.0
  0
LINE
  5
2474
330
2342
100
AcDbEntity
  8
0
 62
     0
100
AcDbLine
 10
4877.369858912243
 20
3120.192394121243
 30
0.0
 11
4878.619858912244
 21
3120.192394121243
 31
0.0
  0
LINE
  5
2475
330
2342
100
AcDbEntity
  8
0
 62
     0
100
AcDbLine
 10
4872.369858912243
 20
3120.192394121243
 30
0.0
 11
4873.619858912243
 21
3120.192394121243
 31
0.0
  0
LINE
  5
2476
330
2342
100
AcDbEntity
  8
0
 62
     0
100
AcDbLine
 10
4867.369858912243
 20
3120.192394121243
 30
0.0
 11
4868.619858912243
 21
3120.192394121243
 31
0.0
  0
LINE
  5
2477
330
2342
100
AcDbEntity
  8
0
 62
     0
100
AcDbLine
 10
4862.369858912243
 20
3120.192394121243
 30
0.0
 11
4863.619858912244
 21
3120.192394121243
 31
0.0
  0
LINE
  5
2478
330
2342
100
AcDbEntity
  8
0
 62
     0
100
AcDbLine
 10
4857.369858912243
 20
3120.192394121243
 30
0.0
 11
4858.619858912243
 21
3120.192394121243
 31
0.0
  0
LINE
  5
2479
330
2342
100
AcDbEntity
  8
0
 62
     0
100
AcDbLine
 10
4852.369858912243
 20
3120.192394121243
 30
0.0
 11
4853.619858912243
 21
3120.192394121243
 31
0.0
  0
LINE
  5
247A
330
2342
100
AcDbEntity
  8
0
 62
     0
100
AcDbLine
 10
4884.869858912257
 20
3122.692394121242
 30
0.0
 11
4885.284198128189
 21
3122.692394121242
 31
0.0
  0
LINE
  5
247B
330
2342
100
AcDbEntity
  8
0
 62
     0
100
AcDbLine
 10
4879.869858912257
 20
3122.692394121242
 30
0.0
 11
4881.119858912256
 21
3122.692394121242
 31
0.0
  0
LINE
  5
247C
330
2342
100
AcDbEntity
  8
0
 62
     0
100
AcDbLine
 10
4874.869858912258
 20
3122.692394121242
 30
0.0
 11
4876.119858912257
 21
3122.692394121242
 31
0.0
  0
LINE
  5
247D
330
2342
100
AcDbEntity
  8
0
 62
     0
100
AcDbLine
 10
4869.869858912259
 20
3122.692394121242
 30
0.0
 11
4871.119858912258
 21
3122.692394121242
 31
0.0
  0
LINE
  5
247E
330
2342
100
AcDbEntity
  8
0
 62
     0
100
AcDbLine
 10
4864.869858912259
 20
3122.692394121242
 30
0.0
 11
4866.119858912259
 21
3122.692394121242
 31
0.0
  0
LINE
  5
247F
330
2342
100
AcDbEntity
  8
0
 62
     0
100
AcDbLine
 10
4859.869858912259
 20
3122.692394121242
 30
0.0
 11
4861.119858912259
 21
3122.692394121242
 31
0.0
  0
LINE
  5
2480
330
2342
100
AcDbEntity
  8
0
 62
     0
100
AcDbLine
 10
4854.869858912259
 20
3122.692394121242
 30
0.0
 11
4856.119858912259
 21
3122.692394121242
 31
0.0
  0
LINE
  5
2481
330
2342
100
AcDbEntity
  8
0
 62
     0
100
AcDbLine
 10
4882.369858912265
 20
3125.192394121243
 30
0.0
 11
4883.619858912265
 21
3125.192394121243
 31
0.0
  0
LINE
  5
2482
330
2342
100
AcDbEntity
  8
0
 62
     0
100
AcDbLine
 10
4877.369858912265
 20
3125.192394121243
 30
0.0
 11
4878.619858912265
 21
3125.192394121243
 31
0.0
  0
LINE
  5
2483
330
2342
100
AcDbEntity
  8
0
 62
     0
100
AcDbLine
 10
4872.369858912264
 20
3125.192394121243
 30
0.0
 11
4873.619858912265
 21
3125.192394121243
 31
0.0
  0
LINE
  5
2484
330
2342
100
AcDbEntity
  8
0
 62
     0
100
AcDbLine
 10
4867.369858912265
 20
3125.192394121243
 30
0.0
 11
4868.619858912265
 21
3125.192394121243
 31
0.0
  0
LINE
  5
2485
330
2342
100
AcDbEntity
  8
0
 62
     0
100
AcDbLine
 10
4862.369858912265
 20
3125.192394121243
 30
0.0
 11
4863.619858912265
 21
3125.192394121243
 31
0.0
  0
LINE
  5
2486
330
2342
100
AcDbEntity
  8
0
 62
     0
100
AcDbLine
 10
4857.369858912265
 20
3125.192394121243
 30
0.0
 11
4858.619858912265
 21
3125.192394121243
 31
0.0
  0
LINE
  5
2487
330
2342
100
AcDbEntity
  8
0
 62
     0
100
AcDbLine
 10
4879.869858912257
 20
3127.692394121243
 30
0.0
 11
4881.119858912256
 21
3127.692394121243
 31
0.0
  0
LINE
  5
2488
330
2342
100
AcDbEntity
  8
0
 62
     0
100
AcDbLine
 10
4874.869858912258
 20
3127.692394121243
 30
0.0
 11
4876.119858912257
 21
3127.692394121243
 31
0.0
  0
LINE
  5
2489
330
2342
100
AcDbEntity
  8
0
 62
     0
100
AcDbLine
 10
4869.869858912259
 20
3127.692394121243
 30
0.0
 11
4871.119858912258
 21
3127.692394121243
 31
0.0
  0
LINE
  5
248A
330
2342
100
AcDbEntity
  8
0
 62
     0
100
AcDbLine
 10
4864.869858912259
 20
3127.692394121243
 30
0.0
 11
4866.119858912259
 21
3127.692394121243
 31
0.0
  0
LINE
  5
248B
330
2342
100
AcDbEntity
  8
0
 62
     0
100
AcDbLine
 10
4859.869858912259
 20
3127.692394121243
 30
0.0
 11
4861.119858912259
 21
3127.692394121243
 31
0.0
  0
LINE
  5
248C
330
2342
100
AcDbEntity
  8
0
 62
     0
100
AcDbLine
 10
4855.958032247007
 20
3127.692394121243
 30
0.0
 11
4856.119858912259
 21
3127.692394121243
 31
0.0
  0
LINE
  5
248D
330
2342
100
AcDbEntity
  8
0
 62
     0
100
AcDbLine
 10
4877.369858912243
 20
3130.192394121243
 30
0.0
 11
4878.619858912244
 21
3130.192394121243
 31
0.0
  0
LINE
  5
248E
330
2342
100
AcDbEntity
  8
0
 62
     0
100
AcDbLine
 10
4872.369858912243
 20
3130.192394121243
 30
0.0
 11
4873.619858912243
 21
3130.192394121243
 31
0.0
  0
LINE
  5
248F
330
2342
100
AcDbEntity
  8
0
 62
     0
100
AcDbLine
 10
4867.369858912243
 20
3130.192394121243
 30
0.0
 11
4868.619858912243
 21
3130.192394121243
 31
0.0
  0
LINE
  5
2490
330
2342
100
AcDbEntity
  8
0
 62
     0
100
AcDbLine
 10
4862.369858912243
 20
3130.192394121243
 30
0.0
 11
4863.619858912244
 21
3130.192394121243
 31
0.0
  0
LINE
  5
2491
330
2342
100
AcDbEntity
  8
0
 62
     0
100
AcDbLine
 10
4869.869858912259
 20
3132.692394121243
 30
0.0
 11
4871.119858912258
 21
3132.692394121243
 31
0.0
  0
LINE
  5
2492
330
2342
100
AcDbEntity
  8
0
 62
     0
100
AcDbLine
 10
4864.869858912259
 20
3132.692394121243
 30
0.0
 11
4866.119858912259
 21
3132.692394121243
 31
0.0
  0
ENDBLK
  5
2493
330
2342
100
AcDbEntity
  8
0
100
AcDbBlockEnd
  0
BLOCK
  5
283A
330
2830
100
AcDbEntity
  8
0
100
AcDbBlockBegin
  2
*D30
 70
     1
 10
0.0
 20
0.0
 30
0.0
  3
*D30
  1

  0
LINE
  5
2831
330
2830
100
AcDbEntity
  8
SUNPOU
 62
    70
370
    -2
100
AcDbLine
 10
-105.6801792200693
 20
154.0269531020411
 30
0.0
 11
-105.6801792200693
 21
207.2662447325473
 31
0.0
  0
LINE
  5
2832
330
2830
100
AcDbEntity
  8
SUNPOU
 62
    70
370
    -2
100
AcDbLine
 10
244.3198207799325
 20
154.0269531020557
 30
0.0
 11
244.3198207799325
 21
207.2662447325473
 31
0.0
  0
LINE
  5
2833
330
2830
100
AcDbEntity
  8
SUNPOU
 62
    60
370
    -2
100
AcDbLine
 10
-103.6801792200693
 20
207.2662447325473
 30
0.0
 11
242.3198207799325
 21
207.2662447325473
 31
0.0
  0
INSERT
  5
2834
330
2830
100
AcDbEntity
  8
SUNPOU
 62
    60
370
    -2
100
AcDbBlockReference
  2
_Dot
 10
-105.6801792200693
 20
207.2662447325473
 30
0.0
 41
2.0
 42
2.0
 43
2.0
 50
180.0
  0
INSERT
  5
2835
330
2830
100
AcDbEntity
  8
SUNPOU
 62
    60
370
    -2
100
AcDbBlockReference
  2
_Dot
 10
244.3198207799325
 20
207.2662447325473
 30
0.0
 41
2.0
 42
2.0
 43
2.0
  0
MTEXT
  5
2836
330
2830
100
AcDbEntity
  8
SUNPOU
 62
    60
100
AcDbMText
 10
69.31982077993154
 20
215.2662447325473
 30
0.0
 40
10.0
 41
0.0
 71
     5
 72
     1
  1
\A1;350
  7
SUNPOU
 73
     1
 44
1.0
1001
ACAD
1000
MTEXTBEGIN
1070
    73
1070
     1
1070
    44
1040
1.0
1070
    74
1070
     0
1000
MTEXTEND
  0
POINT
  5
2837
330
2830
100
AcDbEntity
  8
DEFPOINTS
 62
     0
100
AcDbPoint
 10
-105.6801792200693
 20
144.0269531020411
 30
0.0
  0
POINT
  5
2838
330
2830
100
AcDbEntity
  8
DEFPOINTS
 62
     0
100
AcDbPoint
 10
244.3198207799325
 20
144.0269531020557
 30
0.0
  0
POINT
  5
2839
330
2830
100
AcDbEntity
  8
DEFPOINTS
 62
     0
100
AcDbPoint
 10
244.3198207799325
 20
207.2662447325473
 30
0.0
  0
ENDBLK
  5
283B
330
2830
100
AcDbEntity
  8
0
100
AcDbBlockEnd
  0
BLOCK
  5
284E
330
2844
100
AcDbEntity
  8
0
100
AcDbBlockBegin
  2
*D31
 70
     1
 10
0.0
 20
0.0
 30
0.0
  3
*D31
  1

  0
LINE
  5
2845
330
2844
100
AcDbEntity
  8
SUNPOU
 62
    70
370
    -2
100
AcDbLine
 10
-59.62732378989028
 20
156.7358680336609
 30
0.0
 11
-138.208073651026
 21
156.7358680336609
 31
0.0
  0
LINE
  5
2846
330
2844
100
AcDbEntity
  8
SUNPOU
 62
    70
370
    -2
100
AcDbLine
 10
59.31982077993993
 20
51.73586803366095
 30
0.0
 11
-138.208073651026
 21
51.73586803366101
 31
0.0
  0
LINE
  5
2847
330
2844
100
AcDbEntity
  8
SUNPOU
 62
    60
370
    -2
100
AcDbLine
 10
-138.208073651026
 20
154.7358680336609
 30
0.0
 11
-138.208073651026
 21
53.73586803366102
 31
0.0
  0
INSERT
  5
2848
330
2844
100
AcDbEntity
  8
SUNPOU
 62
    60
370
    -2
100
AcDbBlockReference
  2
_Dot
 10
-138.208073651026
 20
156.7358680336609
 30
0.0
 41
2.0
 42
2.0
 43
2.0
 50
90.0
  0
INSERT
  5
2849
330
2844
100
AcDbEntity
  8
SUNPOU
 62
    60
370
    -2
100
AcDbBlockReference
  2
_Dot
 10
-138.208073651026
 20
51.73586803366101
 30
0.0
 41
2.0
 42
2.0
 43
2.0
 50
270.0
  0
MTEXT
  5
284A
330
2844
100
AcDbEntity
  8
SUNPOU
 62
    60
100
AcDbMText
 10
-146.208073651026
 20
104.235868033661
 30
0.0
 40
10.0
 41
0.0
 71
     5
 72
     1
  1
\A1;105
  7
SUNPOU
 11
0.0000000000000001
 21
1.0
 31
0.0
 73
     1
 44
1.0
1001
ACAD
1000
MTEXTBEGIN
1070
    73
1070
     1
1070
    44
1040
1.0
1070
    74
1070
     0
1000
MTEXTEND
  0
POINT
  5
284B
330
2844
100
AcDbEntity
  8
DEFPOINTS
 62
     0
100
AcDbPoint
 10
-49.62732378989028
 20
156.7358680336609
 30
0.0
  0
POINT
  5
284C
330
2844
100
AcDbEntity
  8
DEFPOINTS
 62
     0
100
AcDbPoint
 10
69.31982077993993
 20
51.73586803366095
 30
0.0
  0
POINT
  5
284D
330
2844
100
AcDbEntity
  8
DEFPOINTS
 62
     0
100
AcDbPoint
 10
-138.208073651026
 20
51.73586803366101
 30
0.0
  0
ENDBLK
  5
284F
330
2844
100
AcDbEntity
  8
0
100
AcDbBlockEnd
  0
ENDSEC
  0
SECTION
  2
ENTITIES
  0
LINE
  5
1F
330
2
100
AcDbEntity
  8
WAKU
100
AcDbLine
 10
0.0
 20
14.0
 30
0.0
 11
147.8933597240585
 21
13.99999999999999
 31
0.0
  0
LINE
  5
20
330
2
100
AcDbEntity
  8
WAKU
100
AcDbLine
 10
0.0
 20
0.0
 30
0.0
 11
147.8933597240585
 21
0.0
 31
0.0
  0
TEXT
  5
21
330
2
100
AcDbEntity
  8
HOJO
100
AcDbText
 10
9.653966000000025
 20
2.366626000000024
 30
0.0
 40
9.0
  1
TWC250
  7
SUNPOU
100
AcDbText
  0
TEXT
  5
23
330
2
100
AcDbEntity
  8
HOJO
100
AcDbText
 10
85.84696046283864
 20
5.044386000000031
 30
0.0
 40
6.0
  1
350×105×7
  7
SUNPOU
100
AcDbText
  0
ELLIPSE
  5
2666
102
{ACAD_REACTORS
330
2884
102
}
330
2
100
AcDbEntity
  8
KIJUN
100
AcDbEllipse
 10
54.89338809416506
 20
150.3329607439758
 30
0.0
 11
14.42643268576648
 21
0.0000000000005436
 31
0.0
210
0.0
220
0.0
230
1.0
 40
0.4385971930907017
 41
1.570796326794896
 42
2.78879071946183
  0
ELLIPSE
  5
2667
102
{ACAD_REACTORS
330
2884
102
}
330
2
100
AcDbEntity
  8
KIJUN
100
AcDbEllipse
 10
69.31982077993154
 20
109.417438143016
 30
0.0
 11
0.0000000000011015
 21
-29.23628719759289
 31
0.0
210
0.0
220
0.0
230
1.0
 40
0.7229798794648535
 41
4.353425512744966
 42
8.212945101614206
  0
ELLIPSE
  5
2668
102
{ACAD_REACTORS
330
2884
102
}
330
2
100
AcDbEntity
  8
KIJUN
100
AcDbEllipse
 10
69.31982077993154
 20
109.417438143016
 30
0.0
 11
0.0000000000011015
 21
-29.23628719759289
 31
0.0
210
0.0
220
0.0
230
1.0
 40
0.7229798794648535
 41
2.008099668493013
 42
4.27508563868657
  0
ELLIPSE
  5
266F
102
{ACAD_REACTORS
330
2884
102
}
330
2
100
AcDbEntity
  8
KIJUN
100
AcDbEllipse
 10
84.09077827278464
 20
157.6410786614968
 30
0.0
 11
18.95290926041416
 21
0.3392656178209325
 31
0.0
210
0.0
220
0.0
230
-1.0
 40
0.322570246506882
 41
0.858272214561034
 42
2.47052398011306
  0
ELLIPSE
  5
2670
102
{ACAD_REACTORS
330
2884
102
}
330
2
100
AcDbEntity
  8
KIJUN
100
AcDbEllipse
 10
54.53613261294425
 20
157.652121428804
 30
0.0
 11
-18.97126449693593
 21
0.3428458939295704
 31
0.0
210
0.0
220
0.0
230
0.9999999999999998
 40
0.322658761631148
 41
0.860064993542438
 42
2.46975682189464
  0
ELLIPSE
  5
2671
102
{ACAD_REACTORS
330
2884
102
}
330
2
100
AcDbEntity
  8
KIJUN
100
AcDbEllipse
 10
69.30952727161923
 20
146.1137493060922
 30
0.0
 11
-0.000000000000281
 21
7.460028472662087
 31
0.0
210
0.0
220
0.0
230
1.0
 40
0.7895024749739579
 41
-1.555141739833425
 42
4.728043567346158
  0
ELLIPSE
  5
2672
102
{ACAD_REACTORS
330
2884
102
}
330
2
100
AcDbEntity
  8
KIJUN
100
AcDbEllipse
 10
83.62981581176166
 20
147.5396973350397
 30
0.0
 11
-13.58673487882366
 21
5.410507942845858
 31
0.0
210
0.0
220
0.0
230
-1.0
 40
0.3613282417362505
 41
2.698370465579962
 42
5.241688081123781
  0
ELLIPSE
  5
2673
102
{ACAD_REACTORS
330
2884
102
}
330
2
100
AcDbEntity
  8
KIJUN
100
AcDbEllipse
 10
54.89338809416506
 20
147.7358974121997
 30
0.0
 11
13.65934606509676
 21
5.224483318086821
 31
0.0
210
0.0
220
0.0
230
1.0
 40
0.3613282417362506
 41
2.698370465579962
 42
5.241688081123781
  0
ELLIPSE
  5
2674
102
{ACAD_REACTORS
330
2884
102
}
330
2
100
AcDbEntity
  8
KIJUN
100
AcDbEllipse
 10
83.74625346569713
 20
150.3329607439758
 30
0.0
 11
-14.42643268576648
 21
-0.0000000000005436
 31
0.0
210
0.0
220
0.0
230
-1.0
 40
0.4385971930907017
 41
1.570796326794896
 42
2.78879071946183
  0
LINE
  5
2675
102
{ACAD_REACTORS
330
2884
102
}
330
2
100
AcDbEntity
  8
KIJUN
100
AcDbLine
 10
119.9418146626159
 20
130.2401939825471
 30
0.0
 11
118.332661892022
 21
126.1085173252462
 31
0.0
  0
LINE
  5
2676
102
{ACAD_REACTORS
330
2884
102
}
330
2
100
AcDbEntity
  8
KIJUN
100
AcDbLine
 10
116.1386350541753
 20
132.0707514822378
 30
0.0
 11
118.332661892022
 21
126.1085173252462
 31
0.0
  0
LINE
  5
2677
102
{ACAD_REACTORS
330
2884
102
}
330
2
100
AcDbEntity
  8
KIJUN
100
AcDbLine
 10
118.332661892022
 20
126.1085173252462
 30
0.0
 11
118.7511538165155
 21
132.4295979546103
 31
0.0
  0
LINE
  5
2678
102
{ACAD_REACTORS
330
2884
102
}
330
2
100
AcDbEntity
  8
KIJUN
100
AcDbLine
 10
118.332661892022
 20
126.1085173252462
 30
0.0
 11
115.5823905421013
 21
129.6413986782962
 31
0.0
  0
LINE
  5
2679
102
{ACAD_REACTORS
330
2884
102
}
330
2
100
AcDbEntity
  8
KIJUN
100
AcDbLine
 10
20.30697966784294
 20
126.1085173252462
 30
0.0
 11
19.88848774334758
 21
132.4295979546103
 31
0.0
  0
LINE
  5
267A
102
{ACAD_REACTORS
330
2884
102
}
330
2
100
AcDbEntity
  8
KIJUN
100
AcDbLine
 10
22.50100650568868
 20
132.0707514822378
 30
0.0
 11
20.30697966784294
 21
126.1085173252462
 31
0.0
  0
LINE
  5
267B
102
{ACAD_REACTORS
330
2884
102
}
330
2
100
AcDbEntity
  8
KIJUN
100
AcDbLine
 10
20.30697966784294
 20
126.1085173252462
 30
0.0
 11
23.05725101776181
 21
129.6413986782962
 31
0.0
  0
LINE
  5
267C
102
{ACAD_REACTORS
330
2884
102
}
330
2
100
AcDbEntity
  8
KIJUN
100
AcDbLine
 10
18.697826897249
 20
130.2401939825471
 30
0.0
 11
20.30697966784294
 21
126.1085173252462
 31
0.0
  0
LINE
  5
267D
102
{ACAD_REACTORS
330
2884
102
}
330
2
100
AcDbEntity
  8
KIJUN
100
AcDbLine
 10
161.3600944656529
 20
107.6179244486519
 30
0.0
 11
161.3600944656529
 21
135.5031073429658
 31
0.0
  0
LINE
  5
267E
102
{ACAD_REACTORS
330
2884
102
}
330
2
100
AcDbEntity
  8
KIJUN
100
AcDbLine
 10
151.2005239131578
 20
117.5247065412508
 30
0.0
 11
151.2005239131578
 21
135.6365884596993
 31
0.0
  0
ARC
  5
267F
102
{ACAD_REACTORS
330
2884
102
}
330
2
100
AcDbEntity
  8
KIJUN
100
AcDbCircle
 10
136.046853649782
 20
122.3921007589478
 30
0.0
 40
4.732980610508342
100
AcDbArc
 50
266.5542407194841
 51
62.50708567466112
  0
ARC
  5
2680
102
{ACAD_REACTORS
330
2884
102
}
330
2
100
AcDbEntity
  8
KIJUN
100
AcDbCircle
 10
135.1964636150106
 20
132.7222664471731
 30
0.0
 40
15.06649011067976
100
AcDbArc
 50
359.2402654013199
 51
272.2774044631655
  0
ARC
  5
2681
102
{ACAD_REACTORS
330
2884
102
}
330
2
100
AcDbEntity
  8
KIJUN
100
AcDbCircle
 10
136.743816098383
 20
121.8944691958121
 30
0.0
 40
4.926201515438579
100
AcDbArc
 50
72.41914916826958
 51
157.783721019223
  0
ARC
  5
2682
102
{ACAD_REACTORS
330
2884
102
}
330
2
100
AcDbEntity
  8
KIJUN
100
AcDbCircle
 10
134.2902321367247
 20
129.4265023293509
 30
0.0
 40
7.098780153224486
100
AcDbArc
 50
111.2006943310042
 51
240.1811567379898
  0
ARC
  5
2683
102
{ACAD_REACTORS
330
2884
102
}
330
2
100
AcDbEntity
  8
KIJUN
100
AcDbCircle
 10
132.9197739107795
 20
131.3415346633509
 30
0.0
 40
7.94592912602886
100
AcDbArc
 50
101.6115303283957
 51
244.8469014542967
  0
ARC
  5
2684
102
{ACAD_REACTORS
330
2884
102
}
330
2
100
AcDbEntity
  8
KIJUN
100
AcDbCircle
 10
54.00194579604715
 20
126.883721302754
 30
0.0
 40
10.32336353139396
100
AcDbArc
 50
163.8591960805035
 51
187.5204095008305
  0
ARC
  5
2685
102
{ACAD_REACTORS
330
2884
102
}
330
2
100
AcDbEntity
  8
KIJUN
100
AcDbCircle
 10
55.13381940925603
 20
126.6802940248548
 30
0.0
 40
8.960647820375845
100
AcDbArc
 50
165.6500890049212
 51
238.5091008924632
  0
ARC
  5
2686
102
{ACAD_REACTORS
330
2884
102
}
330
2
100
AcDbEntity
  8
KIJUN
100
AcDbCircle
 10
51.7524152148427
 20
129.4236630227937
 30
0.0
 40
4.754451750972993
100
AcDbArc
 50
184.2307956694791
 51
264.4957489969044
  0
ARC
  5
2687
102
{ACAD_REACTORS
330
2884
102
}
330
2
100
AcDbEntity
  8
KIJUN
100
AcDbCircle
 10
83.50582215060706
 20
126.6802940248548
 30
0.0
 40
8.960647820375845
100
AcDbArc
 50
301.4908991075368
 51
14.3499109950788
  0
ARC
  5
2688
102
{ACAD_REACTORS
330
2884
102
}
330
2
100
AcDbEntity
  8
KIJUN
100
AcDbCircle
 10
84.63769576381684
 20
126.883721302754
 30
0.0
 40
10.32336353139396
100
AcDbArc
 50
352.4795904991695
 51
16.14080391949651
  0
ARC
  5
2689
102
{ACAD_REACTORS
330
2884
102
}
330
2
100
AcDbEntity
  8
KIJUN
100
AcDbCircle
 10
86.8872263450204
 20
129.4236630227937
 30
0.0
 40
4.754451750972993
100
AcDbArc
 50
275.5042510030956
 51
355.7692043305209
  0
ARC
  5
268A
102
{ACAD_REACTORS
330
2884
102
}
330
2
100
AcDbEntity
  8
KIJUN
100
AcDbCircle
 10
67.59832915140862
 20
122.3395549778169
 30
0.0
 40
19.88448729965028
100
AcDbArc
 50
6.791807771316738
 51
71.8672501499485
  0
ARC
  5
268B
102
{ACAD_REACTORS
330
2884
102
}
330
2
100
AcDbEntity
  8
KIJUN
100
AcDbCircle
 10
86.8872263450204
 20
129.4236630227937
 30
0.0
 40
4.754451750972993
100
AcDbArc
 50
275.5042510030956
 51
355.7692043305209
  0
ARC
  5
268C
102
{ACAD_REACTORS
330
2884
102
}
330
2
100
AcDbEntity
  8
KIJUN
100
AcDbCircle
 10
71.04131240845447
 20
122.3395549778169
 30
0.0
 40
19.88448729965028
100
AcDbArc
 50
108.1327498500515
 51
173.2081922286832
  0
ARC
  5
268D
102
{ACAD_REACTORS
330
2884
102
}
330
2
100
AcDbEntity
  8
KIJUN
100
AcDbCircle
 10
4.349409423138354
 20
129.4265023293509
 30
0.0
 40
7.098780153224486
100
AcDbArc
 50
299.8188432620103
 51
68.79930566899574
  0
ARC
  5
268E
102
{ACAD_REACTORS
330
2884
102
}
330
2
100
AcDbEntity
  8
KIJUN
100
AcDbCircle
 10
1.895825461480058
 20
121.8944691958121
 30
0.0
 40
4.926201515438579
100
AcDbArc
 50
22.21627898077701
 51
107.5808508317304
  0
ARC
  5
268F
102
{ACAD_REACTORS
330
2884
102
}
330
2
100
AcDbEntity
  8
KIJUN
100
AcDbCircle
 10
2.592787910081028
 20
122.3921007589477
 30
0.0
 40
4.732980610508342
100
AcDbArc
 50
117.4929143253389
 51
273.4457592805159
  0
LINE
  5
2690
102
{ACAD_REACTORS
330
2884
102
}
330
2
100
AcDbEntity
  8
KIJUN
100
AcDbLine
 10
-12.56088235329287
 20
117.5247065412508
 30
0.0
 11
-12.56088235329287
 21
135.6365884596993
 31
0.0
  0
LINE
  5
2691
102
{ACAD_REACTORS
330
2884
102
}
330
2
100
AcDbEntity
  8
KIJUN
100
AcDbLine
 10
-22.72045290579161
 20
107.6179244486519
 30
0.0
 11
-22.72045290579161
 21
135.5031073429658
 31
0.0
  0
ARC
  5
2692
102
{ACAD_REACTORS
330
2884
102
}
330
2
100
AcDbEntity
  8
KIJUN
100
AcDbCircle
 10
5.719867649083539
 20
131.3415346633509
 30
0.0
 40
7.94592912602886
100
AcDbArc
 50
295.1530985457033
 51
78.38846967160424
  0
ARC
  5
2693
102
{ACAD_REACTORS
330
2884
102
}
330
2
100
AcDbEntity
  8
KIJUN
100
AcDbCircle
 10
3.443177944852436
 20
132.7222664471731
 30
0.0
 40
15.06649011067976
100
AcDbArc
 50
267.7225955368345
 51
180.7597345986801
  0
CIRCLE
  5
2694
102
{ACAD_REACTORS
330
2884
102
}
330
2
100
AcDbEntity
  8
KIJUN
100
AcDbCircle
 10
206.4199389787419
 20
130.1244932503422
 30
0.0
 40
5.371760308684315
  0
ARC
  5
2695
102
{ACAD_REACTORS
330
2884
102
}
330
2
100
AcDbEntity
  8
KIJUN
100
AcDbCircle
 10
208.75231593606
 20
136.7489036777937
 30
0.0
 40
12.22080580819285
100
AcDbArc
 50
258.9974338770845
 51
42.122834667447
  0
ARC
  5
2696
102
{ACAD_REACTORS
330
2884
102
}
330
2
100
AcDbEntity
  8
KIJUN
100
AcDbCircle
 10
-70.11267437619778
 20
136.7489036777937
 30
0.0
 40
12.22080580819285
100
AcDbArc
 50
137.877165332553
 51
281.0025661229155
  0
CIRCLE
  5
2697
102
{ACAD_REACTORS
330
2884
102
}
330
2
100
AcDbEntity
  8
KIJUN
100
AcDbCircle
 10
-67.78029741887974
 20
130.1244932503422
 30
0.0
 40
5.371760308684315
  0
ARC
  5
2699
102
{ACAD_REACTORS
330
2884
102
}
330
2
100
AcDbEntity
  8
KIJUN
100
AcDbCircle
 10
134.8056793089373
 20
131.0527125745819
 30
0.0
 40
8.792391888027239
100
AcDbArc
 50
6.2006742305677
 51
70.20680373717801
  0
ARC
  5
269A
102
{ACAD_REACTORS
330
2884
102
}
330
2
100
AcDbEntity
  8
KIJUN
100
AcDbCircle
 10
136.1419816623776
 20
132.2115962548517
 30
0.0
 40
10.41912054679499
100
AcDbArc
 50
14.62279330154143
 51
87.68617680940058
  0
ARC
  5
269B
102
{ACAD_REACTORS
330
2884
102
}
330
2
100
AcDbEntity
  8
KIJUN
100
AcDbCircle
 10
130.3118840227354
 20
138.434032503846
 30
0.0
 40
7.524145964722339
100
AcDbArc
 50
350.0393905978273
 51
134.3238560695217
  0
ARC
  5
269C
102
{ACAD_REACTORS
330
2884
102
}
330
2
100
AcDbEntity
  8
KIJUN
100
AcDbCircle
 10
-49.62732378989028
 20
113.8108358734138
 30
0.0
 40
42.92503216024715
100
AcDbArc
 50
30.70605328374171
 51
133.5036526566549
  0
ARC
  5
269D
102
{ACAD_REACTORS
330
2884
102
}
330
2
100
AcDbEntity
  8
KIJUN
100
AcDbCircle
 10
-123.3511384784186
 20
101.5928005221602
 30
0.0
 40
51.61477529204026
100
AcDbArc
 50
34.38494989216325
 51
60.46391470467051
  0
ARC
  5
269E
102
{ACAD_REACTORS
330
2884
102
}
330
2
100
AcDbEntity
  8
KIJUN
100
AcDbCircle
 10
-99.11654919781438
 20
131.0441539548441
 30
0.0
 40
17.41336809114416
100
AcDbArc
 50
7.722230002097653
 51
97.53492384207342
  0
CIRCLE
  5
269F
102
{ACAD_REACTORS
330
2884
102
}
330
2
100
AcDbEntity
  8
KIJUN
100
AcDbCircle
 10
-101.399972675992
 20
144.0269531020411
 30
0.0
 40
4.280206544077373
  0
ARC
  5
26A0
102
{ACAD_REACTORS
330
2884
102
}
330
2
100
AcDbEntity
  8
KIJUN
100
AcDbCircle
 10
-81.7074290127465
 20
146.8909432968611
 30
0.0
 40
3.263274570059957
100
AcDbArc
 50
338.6459440338898
 51
214.3343854503185
  0
ARC
  5
26A1
102
{ACAD_REACTORS
330
2884
102
}
330
2
100
AcDbEntity
  8
KIJUN
100
AcDbCircle
 10
-102.3258877707166
 20
135.9193639077669
 30
0.0
 40
20.11559965029325
100
AcDbArc
 50
357.7511452858201
 51
31.44228783482347
  0
ARC
  5
26A2
102
{ACAD_REACTORS
330
2884
102
}
330
2
100
AcDbEntity
  8
KIJUN
100
AcDbCircle
 10
-95.13719053205376
 20
142.98907449262
 30
0.0
 40
10.54444054786991
100
AcDbArc
 50
18.94510357855727
 51
179.0491912018464
  0
ARC
  5
26A3
102
{ACAD_REACTORS
330
2884
102
}
330
2
100
AcDbEntity
  8
KIJUN
100
AcDbCircle
 10
-47.85740630402585
 20
113.0847056855081
 30
0.0
 40
33.57676932433824
100
AcDbArc
 50
41.5072721683561
 51
137.914271194808
  0
ARC
  5
26A4
102
{ACAD_REACTORS
330
2884
102
}
330
2
100
AcDbEntity
  8
KIJUN
100
AcDbCircle
 10
-60.93302021454736
 20
132.029318663869
 30
0.0
 40
12.36661787234458
100
AcDbArc
 50
163.269701928191
 51
202.2312597855207
  0
ARC
  5
26A5
102
{ACAD_REACTORS
330
2884
102
}
330
2
100
AcDbEntity
  8
KIJUN
100
AcDbCircle
 10
22.319714071151
 20
130.7508837305312
 30
0.0
 40
1.332260420788465
100
AcDbArc
 50
303.6142152074885
 51
163.944262691975
  0
ARC
  5
26A6
102
{ACAD_REACTORS
330
2884
102
}
330
2
100
AcDbEntity
  8
KIJUN
100
AcDbCircle
 10
21.17268083225929
 20
139.1925351902999
 30
0.0
 40
1.332260420788465
100
AcDbArc
 50
320.2077011006257
 51
180.537748584737
  0
LINE
  5
26A7
102
{ACAD_REACTORS
330
2884
102
}
330
2
100
AcDbEntity
  8
KIJUN
100
AcDbLine
 10
20.62085161992047
 20
134.6227300228737
 30
0.0
 11
18.36329658598981
 21
140.1070312590558
 31
0.0
  0
LINE
  5
26A8
102
{ACAD_REACTORS
330
2884
102
}
330
2
100
AcDbEntity
  8
KIJUN
100
AcDbLine
 10
20.96949629663425
 20
140.5092105007887
 30
0.0
 11
20.62085161992047
 21
134.6227300228737
 31
0.0
  0
LINE
  5
26A9
102
{ACAD_REACTORS
330
2884
102
}
330
2
100
AcDbEntity
  8
KIJUN
100
AcDbLine
 10
14.75806093952553
 20
148.2221030044851
 30
0.0
 11
16.12677044123404
 21
142.7343121030238
 31
0.0
  0
LINE
  5
26AA
102
{ACAD_REACTORS
330
2884
102
}
330
2
100
AcDbEntity
  8
KIJUN
100
AcDbLine
 10
16.12677044123404
 20
142.7343121030238
 30
0.0
 11
16.42826181698467
 21
146.3723484174646
 31
0.0
  0
LINE
  5
26AB
102
{ACAD_REACTORS
330
2884
102
}
330
2
100
AcDbEntity
  8
KIJUN
100
AcDbLine
 10
17.84746945012478
 20
137.6687766847279
 30
0.0
 11
20.62085161992047
 21
134.6227300228737
 31
0.0
  0
LINE
  5
26AC
102
{ACAD_REACTORS
330
2884
102
}
330
2
100
AcDbEntity
  8
KIJUN
100
AcDbLine
 10
20.62085161992047
 20
134.6227300228737
 30
0.0
 11
22.19634917695942
 21
138.3398799558307
 31
0.0
  0
ARC
  5
26AD
102
{ACAD_REACTORS
330
2884
102
}
330
2
100
AcDbEntity
  8
KIJUN
100
AcDbCircle
 10
19.70719530882536
 20
131.1097302029042
 30
0.0
 40
1.332260420788465
100
AcDbArc
 50
0.41372168774219
 51
220.7437691716798
  0
ARC
  5
26AE
102
{ACAD_REACTORS
330
2884
102
}
330
2
100
AcDbEntity
  8
KIJUN
100
AcDbCircle
 10
18.56648112162941
 20
138.790355948567
 30
0.0
 40
1.332260420788465
100
AcDbArc
 50
17.00720758007534
 51
237.3372550641628
  0
ARC
  5
26AF
102
{ACAD_REACTORS
330
2884
102
}
330
2
100
AcDbEntity
  8
KIJUN
100
AcDbCircle
 10
8.336062446806977
 20
138.9508648296859
 30
0.0
 40
3.234183595536062
100
AcDbArc
 50
190.3957268602681
 51
243.9663547178578
  0
ARC
  5
26B0
102
{ACAD_REACTORS
330
2884
102
}
330
2
100
AcDbEntity
  8
KIJUN
100
AcDbCircle
 10
2.335318496932927
 20
137.3816511710419
 30
0.0
 40
1.439999999999999
100
AcDbArc
 50
189.9606094021727
 51
331.1022983717144
  0
ARC
  5
26B1
102
{ACAD_REACTORS
330
2884
102
}
330
2
100
AcDbEntity
  8
KIJUN
100
AcDbCircle
 10
2.497659897485505
 20
132.2115962548517
 30
0.0
 40
10.41912054679499
100
AcDbArc
 50
92.31382319059941
 51
165.3772066984585
  0
ARC
  5
26B2
102
{ACAD_REACTORS
330
2884
102
}
330
2
100
AcDbEntity
  8
KIJUN
100
AcDbCircle
 10
3.833962250925765
 20
131.0527125745819
 30
0.0
 40
8.792391888027239
100
AcDbArc
 50
109.793196262822
 51
173.7993257694323
  0
ARC
  5
26B3
102
{ACAD_REACTORS
330
2884
102
}
330
2
100
AcDbEntity
  8
KIJUN
100
AcDbCircle
 10
7.763509551639913
 20
134.3854128172487
 30
0.0
 40
4.760217931581887
100
AcDbArc
 50
95.35585542987853
 51
151.1022983717144
  0
ARC
  5
26B4
102
{ACAD_REACTORS
330
2884
102
}
330
2
100
AcDbEntity
  8
KIJUN
100
AcDbCircle
 10
8.327757537126785
 20
138.434032503846
 30
0.0
 40
7.524145964722339
100
AcDbArc
 50
45.67614393047827
 51
189.9606094021727
  0
ARC
  5
26B5
102
{ACAD_REACTORS
330
2884
102
}
330
2
100
AcDbEntity
  8
KIJUN
100
AcDbCircle
 10
-3.278450395930917
 20
137.171813042917
 30
0.0
 40
9.551481280380619
100
AcDbArc
 50
84.53951994377231
 51
209.1281317138003
  0
ARC
  5
26B6
102
{ACAD_REACTORS
330
2884
102
}
330
2
100
AcDbEntity
  8
KIJUN
100
AcDbCircle
 10
-9.355363146182639
 20
132.0558563824701
 30
0.0
 40
2.31415989920915
100
AcDbArc
 50
168.3668939714987
 51
357.9879456042838
  0
ARC
  5
26B7
102
{ACAD_REACTORS
330
2884
102
}
330
2
100
AcDbEntity
  8
KIJUN
100
AcDbCircle
 10
-5.996513789567757
 20
133.656881911443
 30
0.0
 40
1.981012047664734
100
AcDbArc
 50
143.2580131652201
 51
303.3658257584844
  0
ARC
  5
26B8
102
{ACAD_REACTORS
330
2884
102
}
330
2
100
AcDbEntity
  8
KIJUN
100
AcDbCircle
 10
-9.681133337652568
 20
143.3703399044419
 30
0.0
 40
3.312323937402525
100
AcDbArc
 50
134.1865508377499
 51
225.1097929100537
  0
ARC
  5
26B9
102
{ACAD_REACTORS
330
2884
102
}
330
2
100
AcDbEntity
  8
KIJUN
100
AcDbCircle
 10
-10.21749662507943
 20
144.0133725143631
 30
0.0
 40
4.036408806166388
100
AcDbArc
 50
108.9268140812446
 51
240.1481446494912
  0
CIRCLE
  5
26BA
102
{ACAD_REACTORS
330
2884
102
}
330
2
100
AcDbEntity
  8
KIJUN
100
AcDbCircle
 10
-10.28401239494712
 20
146.4612699769303
 30
0.0
 40
1.84987815217464
  0
ARC
  5
26BB
102
{ACAD_REACTORS
330
2884
102
}
330
2
100
AcDbEntity
  8
KIJUN
100
AcDbCircle
 10
-12.59210543866163
 20
144.2728381445307
 30
0.0
 40
5.029647334350117
100
AcDbArc
 50
44.29276388316278
 51
269.8802194113807
  0
LINE
  5
26BC
102
{ACAD_REACTORS
330
2884
102
}
330
2
100
AcDbEntity
  8
KIJUN
100
AcDbLine
 10
16.12677044123404
 20
142.7343121030238
 30
0.0
 11
12.30218810912731
 21
147.2615231196358
 31
0.0
  0
LINE
  5
26BD
102
{ACAD_REACTORS
330
2884
102
}
330
2
100
AcDbEntity
  8
KIJUN
100
AcDbLine
 10
12.33022761025052
 20
144.7694603616791
 30
0.0
 11
16.12677044123404
 21
142.7343121030238
 31
0.0
  0
ARC
  5
26BE
102
{ACAD_REACTORS
330
2884
102
}
330
2
100
AcDbEntity
  8
KIJUN
100
AcDbCircle
 10
12.78748162403928
 20
146.0207942881928
 30
0.0
 40
1.332260420788465
100
AcDbArc
 50
29.59697857880609
 51
249.9270260625177
  0
ARC
  5
26BF
102
{ACAD_REACTORS
330
2884
102
}
330
2
100
AcDbEntity
  8
KIJUN
100
AcDbCircle
 10
15.24335445443569
 20
146.981374173043
 30
0.0
 40
1.332260420788465
100
AcDbArc
 50
332.7974720992514
 51
193.127519583096
  0
ARC
  5
26C0
102
{ACAD_REACTORS
330
2884
102
}
330
2
100
AcDbEntity
  8
KIJUN
100
AcDbCircle
 10
76.49612048334723
 20
129.4634859571773
 30
0.0
 40
14.69910773544228
100
AcDbArc
 50
1.597425879567106
 51
54.8901922381315
  0
ARC
  5
26C1
102
{ACAD_REACTORS
330
2884
102
}
330
2
100
AcDbEntity
  8
KIJUN
100
AcDbCircle
 10
43.81590473890821
 20
130.8242568579543
 30
0.0
 40
1.0
100
AcDbArc
 50
185.3491496921328
 51
240.6310563230591
  0
ARC
  5
26C2
102
{ACAD_REACTORS
330
2884
102
}
330
2
100
AcDbEntity
  8
KIJUN
100
AcDbCircle
 10
44.08551462306252
 20
131.3033443194398
 30
0.0
 40
1.549740198075904
100
AcDbArc
 50
240.6310563230591
 51
338.6548285773384
  0
ARC
  5
26C3
102
{ACAD_REACTORS
330
2884
102
}
330
2
100
AcDbEntity
  8
KIJUN
100
AcDbCircle
 10
52.53043295360396
 20
131.6402196634543
 30
0.0
 40
9.752645160444496
100
AcDbArc
 50
110.850996092442
 51
185.3491496921328
  0
ARC
  5
26C4
102
{ACAD_REACTORS
330
2884
102
}
330
2
100
AcDbEntity
  8
KIJUN
100
AcDbCircle
 10
46.45051450982566
 20
129.9011257343758
 30
0.0
 40
1.0
100
AcDbArc
 50
178.402574121267
 51
358.4025741195989
  0
ARC
  5
26C5
102
{ACAD_REACTORS
330
2884
102
}
330
2
100
AcDbEntity
  8
KIJUN
100
AcDbCircle
 10
46.45051450982566
 20
129.9011257343758
 30
0.0
 40
1.0
100
AcDbArc
 50
178.4025741204329
 51
178.402574121267
  0
ARC
  5
26C6
102
{ACAD_REACTORS
330
2884
102
}
330
2
100
AcDbEntity
  8
KIJUN
100
AcDbCircle
 10
47.45012587215945
 20
129.8732490052169
 30
0.0
 40
2.0
100
AcDbArc
 50
178.402574121267
 51
178.402574121267
  0
ARC
  5
26C7
102
{ACAD_REACTORS
330
2884
102
}
330
2
100
AcDbEntity
  8
KIJUN
100
AcDbCircle
 10
62.14352107651314
 20
129.4634859571773
 30
0.0
 40
16.69910773544228
100
AcDbArc
 50
136.8016836296086
 51
178.4025741204329
  0
ARC
  5
26C8
102
{ACAD_REACTORS
330
2884
102
}
330
2
100
AcDbEntity
  8
KIJUN
100
AcDbCircle
 10
55.0975580353944
 20
149.539175262685
 30
0.0
 40
14.06146895171142
100
AcDbArc
 50
167.7643829846104
 51
198.2619918956954
  0
ARC
  5
26C9
102
{ACAD_REACTORS
330
2884
102
}
330
2
100
AcDbEntity
  8
KIJUN
100
AcDbCircle
 10
76.49612048334723
 20
129.4634859571773
 30
0.0
 40
14.69910773544228
100
AcDbArc
 50
81.81116944356785
 51
94.38333074454094
  0
ARC
  5
26CA
102
{ACAD_REACTORS
330
2884
102
}
330
2
100
AcDbEntity
  8
KIJUN
100
AcDbCircle
 10
62.14352107651314
 20
129.4634859571773
 30
0.0
 40
14.69910773544228
100
AcDbArc
 50
85.61666925545907
 51
178.4025741204329
  0
LINE
  5
26CB
102
{ACAD_REACTORS
330
2884
102
}
330
2
100
AcDbEntity
  8
KIJUN
100
AcDbLine
 10
54.89338809416506
 20
156.6603536262658
 30
0.0
 11
83.74625346569713
 21
156.6603536262658
 31
0.0
  0
ARC
  5
26CC
102
{ACAD_REACTORS
330
2884
102
}
330
2
100
AcDbEntity
  8
KIJUN
100
AcDbCircle
 10
123.3962871054274
 20
146.981374173043
 30
0.0
 40
1.332260420788465
100
AcDbArc
 50
346.872480416904
 51
207.2025279007486
  0
ARC
  5
26CD
102
{ACAD_REACTORS
330
2884
102
}
330
2
100
AcDbEntity
  8
KIJUN
100
AcDbCircle
 10
125.8521599358238
 20
146.0207942881928
 30
0.0
 40
1.332260420788465
100
AcDbArc
 50
290.0729739374824
 51
150.4030214211939
  0
LINE
  5
26CE
102
{ACAD_REACTORS
330
2884
102
}
330
2
100
AcDbEntity
  8
KIJUN
100
AcDbLine
 10
126.3094139496125
 20
144.7694603616791
 30
0.0
 11
122.512871118629
 21
142.7343121030238
 31
0.0
  0
LINE
  5
26CF
102
{ACAD_REACTORS
330
2884
102
}
330
2
100
AcDbEntity
  8
KIJUN
100
AcDbLine
 10
122.512871118629
 20
142.7343121030238
 30
0.0
 11
122.2113797428784
 21
146.3723484174646
 31
0.0
  0
LINE
  5
26D0
102
{ACAD_REACTORS
330
2884
102
}
330
2
100
AcDbEntity
  8
KIJUN
100
AcDbLine
 10
123.8815806203375
 20
148.2221030044851
 30
0.0
 11
122.512871118629
 21
142.7343121030238
 31
0.0
  0
LINE
  5
26D1
102
{ACAD_REACTORS
330
2884
102
}
330
2
100
AcDbEntity
  8
KIJUN
100
AcDbLine
 10
122.512871118629
 20
142.7343121030238
 30
0.0
 11
126.3374534507321
 21
147.2615231196358
 31
0.0
  0
ARC
  5
26D2
102
{ACAD_REACTORS
330
2884
102
}
330
2
100
AcDbEntity
  8
KIJUN
100
AcDbCircle
 10
120.0731604382346
 20
138.790355948567
 30
0.0
 40
1.332260420788465
100
AcDbArc
 50
302.6627449358372
 51
162.9927924199247
  0
ARC
  5
26D3
102
{ACAD_REACTORS
330
2884
102
}
330
2
100
AcDbEntity
  8
KIJUN
100
AcDbCircle
 10
118.9324462510359
 20
131.1097302029042
 30
0.0
 40
1.332260420788465
100
AcDbArc
 50
319.2562308283203
 51
179.5862783122578
  0
LINE
  5
26D4
102
{ACAD_REACTORS
330
2884
102
}
330
2
100
AcDbEntity
  8
KIJUN
100
AcDbLine
 10
118.0187899399417
 20
134.6227300228737
 30
0.0
 11
116.4432923829036
 21
138.3398799558307
 31
0.0
  0
LINE
  5
26D5
102
{ACAD_REACTORS
330
2884
102
}
330
2
100
AcDbEntity
  8
KIJUN
100
AcDbLine
 10
120.7921721097401
 20
137.6687766847279
 30
0.0
 11
118.0187899399417
 21
134.6227300228737
 31
0.0
  0
LINE
  5
26D6
102
{ACAD_REACTORS
330
2884
102
}
330
2
100
AcDbEntity
  8
KIJUN
100
AcDbLine
 10
117.6701452632279
 20
140.5092105007887
 30
0.0
 11
118.0187899399417
 21
134.6227300228737
 31
0.0
  0
LINE
  5
26D7
102
{ACAD_REACTORS
330
2884
102
}
330
2
100
AcDbEntity
  8
KIJUN
100
AcDbLine
 10
118.0187899399417
 20
134.6227300228737
 30
0.0
 11
120.2763449738732
 21
140.1070312590558
 31
0.0
  0
ARC
  5
26D8
102
{ACAD_REACTORS
330
2884
102
}
330
2
100
AcDbEntity
  8
KIJUN
100
AcDbCircle
 10
117.4669607276047
 20
139.1925351902999
 30
0.0
 40
1.332260420788465
100
AcDbArc
 50
359.462251415263
 51
219.7922988993743
  0
ARC
  5
26D9
102
{ACAD_REACTORS
330
2884
102
}
330
2
100
AcDbEntity
  8
KIJUN
100
AcDbCircle
 10
116.3199274887121
 20
130.7508837305312
 30
0.0
 40
1.332260420788465
100
AcDbArc
 50
16.055737308025
 51
236.3857847925115
  0
ARC
  5
26DA
102
{ACAD_REACTORS
330
2884
102
}
330
2
100
AcDbEntity
  8
KIJUN
100
AcDbCircle
 10
130.8761320082223
 20
134.3854128172487
 30
0.0
 40
4.760217931581887
100
AcDbArc
 50
28.89770162828557
 51
84.64414457012146
  0
ARC
  5
26DB
102
{ACAD_REACTORS
330
2884
102
}
330
2
100
AcDbEntity
  8
KIJUN
100
AcDbCircle
 10
136.3043230629292
 20
137.3816511710419
 30
0.0
 40
1.439999999999999
100
AcDbArc
 50
208.8977016282855
 51
350.0393905978273
  0
ARC
  5
26DC
102
{ACAD_REACTORS
330
2884
102
}
330
2
100
AcDbEntity
  8
KIJUN
100
AcDbCircle
 10
130.3035791130561
 20
138.9508648296859
 30
0.0
 40
3.234183595536062
100
AcDbArc
 50
296.0336452821422
 51
349.6042731397318
  0
ARC
  5
26DD
102
{ACAD_REACTORS
330
2884
102
}
330
2
100
AcDbEntity
  8
KIJUN
100
AcDbCircle
 10
91.18951568770183
 20
129.8732490052169
 30
0.0
 40
2.0
100
AcDbArc
 50
1.597425879567106
 51
1.597425879567106
  0
ARC
  5
26DE
102
{ACAD_REACTORS
330
2884
102
}
330
2
100
AcDbEntity
  8
KIJUN
100
AcDbCircle
 10
92.18912705003743
 20
129.9011257343758
 30
0.0
 40
1.0
100
AcDbArc
 50
1.597425878733005
 51
1.597425879567106
  0
ARC
  5
26DF
102
{ACAD_REACTORS
330
2884
102
}
330
2
100
AcDbEntity
  8
KIJUN
100
AcDbCircle
 10
92.18912705003743
 20
129.9011257343758
 30
0.0
 40
1.0
100
AcDbArc
 50
181.5974258804012
 51
1.597425878733005
  0
ARC
  5
26E0
102
{ACAD_REACTORS
330
2884
102
}
330
2
100
AcDbEntity
  8
KIJUN
100
AcDbCircle
 10
94.55412693679965
 20
131.3033443194398
 30
0.0
 40
1.549740198075904
100
AcDbArc
 50
201.3451714226616
 51
299.3689436769409
  0
ARC
  5
26E1
102
{ACAD_REACTORS
330
2884
102
}
330
2
100
AcDbEntity
  8
KIJUN
100
AcDbCircle
 10
94.82373682095397
 20
130.8242568579543
 30
0.0
 40
1.0
100
AcDbArc
 50
299.3689436769409
 51
354.6508503078671
  0
ARC
  5
26E2
102
{ACAD_REACTORS
330
2884
102
}
330
2
100
AcDbEntity
  8
KIJUN
100
AcDbCircle
 10
86.10920860625913
 20
131.6402196634543
 30
0.0
 40
9.752645160444496
100
AcDbArc
 50
354.6508503078671
 51
63.02816310343836
  0
ARC
  5
26E3
102
{ACAD_REACTORS
330
2884
102
}
330
2
100
AcDbEntity
  8
KIJUN
100
AcDbCircle
 10
76.49612048334723
 20
129.4634859571773
 30
0.0
 40
16.69910773544228
100
AcDbArc
 50
1.597425879567106
 51
41.54223593533425
  0
ARC
  5
26E4
102
{ACAD_REACTORS
330
2884
102
}
330
2
100
AcDbEntity
  8
KIJUN
100
AcDbCircle
 10
91.18951568770183
 20
129.8732490052169
 30
0.0
 40
2.0
100
AcDbArc
 50
1.597425879567106
 51
1.597425879567106
  0
ARC
  5
26E5
102
{ACAD_REACTORS
330
2884
102
}
330
2
100
AcDbEntity
  8
KIJUN
100
AcDbCircle
 10
92.18912705003743
 20
129.9011257343758
 30
0.0
 40
1.0
100
AcDbArc
 50
1.597425878733005
 51
1.597425879567106
  0
ARC
  5
26E6
102
{ACAD_REACTORS
330
2884
102
}
330
2
100
AcDbEntity
  8
KIJUN
100
AcDbCircle
 10
92.18912705003743
 20
129.9011257343758
 30
0.0
 40
1.0
100
AcDbArc
 50
181.5974258804012
 51
1.597425878733005
  0
ARC
  5
26E7
102
{ACAD_REACTORS
330
2884
102
}
330
2
100
AcDbEntity
  8
KIJUN
100
AcDbCircle
 10
94.55412693679965
 20
131.3033443194398
 30
0.0
 40
1.549740198075904
100
AcDbArc
 50
201.3451714226616
 51
299.3689436769409
  0
ARC
  5
26E8
102
{ACAD_REACTORS
330
2884
102
}
330
2
100
AcDbEntity
  8
KIJUN
100
AcDbCircle
 10
94.82373682095397
 20
130.8242568579543
 30
0.0
 40
1.0
100
AcDbArc
 50
299.3689436769409
 51
354.6508503078671
  0
ARC
  5
26E9
102
{ACAD_REACTORS
330
2884
102
}
330
2
100
AcDbEntity
  8
KIJUN
100
AcDbCircle
 10
83.5420835244705
 20
149.539175262685
 30
0.0
 40
14.06146895171142
100
AcDbArc
 50
341.7380081043047
 51
12.23561701538952
  0
ARC
  5
26EA
102
{ACAD_REACTORS
330
2884
102
}
330
2
100
AcDbEntity
  8
KIJUN
100
AcDbCircle
 10
188.2669653497534
 20
113.8108358734138
 30
0.0
 40
42.92503216024715
100
AcDbArc
 50
46.49634734334506
 51
149.2939467162583
  0
ARC
  5
26EB
102
{ACAD_REACTORS
330
2884
102
}
330
2
100
AcDbEntity
  8
KIJUN
100
AcDbCircle
 10
186.4970478638889
 20
113.0847056855081
 30
0.0
 40
33.57676932433824
100
AcDbArc
 50
42.08572880519197
 51
138.4927278316439
  0
ARC
  5
26EC
102
{ACAD_REACTORS
330
2884
102
}
330
2
100
AcDbEntity
  8
KIJUN
100
AcDbCircle
 10
151.2317469985247
 20
144.2728381445308
 30
0.0
 40
5.029647334350117
100
AcDbArc
 50
270.1197805886193
 51
135.7072361168372
  0
CIRCLE
  5
26ED
102
{ACAD_REACTORS
330
2884
102
}
330
2
100
AcDbEntity
  8
KIJUN
100
AcDbCircle
 10
148.9236539548093
 20
146.4612699769303
 30
0.0
 40
1.84987815217464
  0
ARC
  5
26EE
102
{ACAD_REACTORS
330
2884
102
}
330
2
100
AcDbEntity
  8
KIJUN
100
AcDbCircle
 10
148.8571381849425
 20
144.0133725143631
 30
0.0
 40
4.036408806166388
100
AcDbArc
 50
299.8518553505088
 51
71.07318591875532
  0
ARC
  5
26EF
102
{ACAD_REACTORS
330
2884
102
}
330
2
100
AcDbEntity
  8
KIJUN
100
AcDbCircle
 10
148.3207748975138
 20
143.370339904442
 30
0.0
 40
3.312323937402525
100
AcDbArc
 50
314.8902070899463
 51
45.81344916225005
  0
ARC
  5
26F0
102
{ACAD_REACTORS
330
2884
102
}
330
2
100
AcDbEntity
  8
KIJUN
100
AcDbCircle
 10
144.6361553494308
 20
133.656881911443
 30
0.0
 40
1.981012047664734
100
AcDbArc
 50
236.6341742415156
 51
36.74198683477989
  0
ARC
  5
26F1
102
{ACAD_REACTORS
330
2884
102
}
330
2
100
AcDbEntity
  8
KIJUN
100
AcDbCircle
 10
147.995004706043
 20
132.0558563824701
 30
0.0
 40
2.31415989920915
100
AcDbArc
 50
182.0120543957162
 51
11.6331060285013
  0
ARC
  5
26F2
102
{ACAD_REACTORS
330
2884
102
}
330
2
100
AcDbEntity
  8
KIJUN
100
AcDbCircle
 10
141.918091955794
 20
137.171813042917
 30
0.0
 40
9.551481280380619
100
AcDbArc
 50
330.8718682861997
 51
95.46048005622768
  0
ARC
  5
26F3
102
{ACAD_REACTORS
330
2884
102
}
330
2
100
AcDbEntity
  8
KIJUN
100
AcDbCircle
 10
199.5726617744104
 20
132.0293186638691
 30
0.0
 40
12.36661787234458
100
AcDbArc
 50
337.7687402144793
 51
16.73029807180894
  0
ARC
  5
26F4
102
{ACAD_REACTORS
330
2884
102
}
330
2
100
AcDbEntity
  8
KIJUN
100
AcDbCircle
 10
220.3470705726096
 20
146.8909432968757
 30
0.0
 40
3.263274570059957
100
AcDbArc
 50
325.6656145496815
 51
201.3540559661103
  0
CIRCLE
  5
26F5
102
{ACAD_REACTORS
330
2884
102
}
330
2
100
AcDbEntity
  8
KIJUN
100
AcDbCircle
 10
240.0396142358551
 20
144.0269531020557
 30
0.0
 40
4.280206544077373
  0
ARC
  5
26F6
102
{ACAD_REACTORS
330
2884
102
}
330
2
100
AcDbEntity
  8
KIJUN
100
AcDbCircle
 10
240.9655293305797
 20
135.9193639077811
 30
0.0
 40
20.11559965029325
100
AcDbArc
 50
148.5577121651765
 51
182.2488547141799
  0
ARC
  5
26F7
102
{ACAD_REACTORS
330
2884
102
}
330
2
100
AcDbEntity
  8
KIJUN
100
AcDbCircle
 10
233.776832091915
 20
142.9890744926332
 30
0.0
 40
10.54444054786991
100
AcDbArc
 50
0.9508087981535698
 51
161.0548964214427
  0
ARC
  5
26F8
102
{ACAD_REACTORS
330
2884
102
}
330
2
100
AcDbEntity
  8
KIJUN
100
AcDbCircle
 10
237.7561907576775
 20
131.0441539548582
 30
0.0
 40
17.41336809114416
100
AcDbArc
 50
82.46507615792657
 51
172.2777699979023
  0
ARC
  5
26F9
102
{ACAD_REACTORS
330
2884
102
}
330
2
100
AcDbEntity
  8
KIJUN
100
AcDbCircle
 10
261.9907800382817
 20
101.5928005221748
 30
0.0
 40
51.61477529204026
100
AcDbArc
 50
119.5360852953294
 51
145.6150501078368
  0
ARC
  5
26FA
102
{ACAD_REACTORS
330
2884
102
}
330
2
100
AcDbEntity
  8
KIJUN
100
AcDbCircle
 10
120.9994627247971
 20
91.28574864996599
 30
0.0
 40
21.11297499627454
100
AcDbArc
 50
176.5426977250694
 51
89.43774971438918
  0
LINE
  5
26FB
102
{ACAD_REACTORS
330
2884
102
}
330
2
100
AcDbEntity
  8
KIJUN
100
AcDbLine
 10
151.2005239131578
 20
117.5247065412508
 30
0.0
 11
126.3440962117412
 21
117.5247065412367
 31
0.0
  0
LINE
  5
26FC
102
{ACAD_REACTORS
330
2884
102
}
330
2
100
AcDbEntity
  8
KIJUN
100
AcDbLine
 10
161.3600944656529
 20
107.6179244486519
 30
0.0
 11
134.3792141004552
 21
107.6179244486365
 31
0.0
  0
ARC
  5
26FD
102
{ACAD_REACTORS
330
2884
102
}
330
2
100
AcDbEntity
  8
KIJUN
100
AcDbCircle
 10
28.53428284483573
 20
90.03229496949177
 30
0.0
 40
10.48930464283307
100
AcDbArc
 50
13.93849310893271
 51
186.3930710893403
  0
ARC
  5
26FE
102
{ACAD_REACTORS
330
2884
102
}
330
2
100
AcDbEntity
  8
KIJUN
100
AcDbCircle
 10
35.63445015918489
 20
129.8848884213165
 30
0.0
 40
9.224257141933835
100
AcDbArc
 50
232.7172081865245
 51
331.8468416273443
  0
ARC
  5
26FF
102
{ACAD_REACTORS
330
2884
102
}
330
2
100
AcDbEntity
  8
KIJUN
100
AcDbCircle
 10
30.86337655312957
 20
123.1791010827827
 30
0.0
 40
1.994389180777941
100
AcDbArc
 50
300.5178287680853
 51
234.5686827176752
  0
ARC
  5
2700
102
{ACAD_REACTORS
330
2884
102
}
330
2
100
AcDbEntity
  8
KIJUN
100
AcDbCircle
 10
35.63445015918489
 20
129.8848884213165
 30
0.0
 40
10.22425714193383
100
AcDbArc
 50
234.5686827176752
 51
325.5154022973879
  0
ARC
  5
2701
102
{ACAD_REACTORS
330
2884
102
}
330
2
100
AcDbEntity
  8
KIJUN
100
AcDbCircle
 10
21.49185854426026
 20
96.79316623782177
 30
0.0
 40
17.50326721633093
100
AcDbArc
 50
52.06275535130329
 51
121.4225364312366
  0
ARC
  5
2702
102
{ACAD_REACTORS
330
2884
102
}
330
2
100
AcDbEntity
  8
KIJUN
100
AcDbCircle
 10
22.01024095540663
 20
105.9015153615577
 30
0.0
 40
11.26787695714297
100
AcDbArc
 50
24.631364042429
 51
148.8539277405483
  0
ARC
  5
2703
102
{ACAD_REACTORS
330
2884
102
}
330
2
100
AcDbEntity
  8
KIJUN
100
AcDbCircle
 10
17.64017883506506
 20
91.28574864996597
 30
0.0
 40
21.11297499627454
100
AcDbArc
 50
90.56225028561083
 51
3.457302274930571
  0
ARC
  5
2704
102
{ACAD_REACTORS
330
2884
102
}
330
2
100
AcDbEntity
  8
KIJUN
100
AcDbCircle
 10
17.86479850763419
 20
92.7870854873139
 30
0.0
 40
14.47100075943748
100
AcDbArc
 50
104.622793302065
 51
332.0636884562256
  0
ARC
  5
2705
102
{ACAD_REACTORS
330
2884
102
}
330
2
100
AcDbEntity
  8
KIJUN
100
AcDbCircle
 10
19.47435917472751
 20
90.93110999643512
 30
0.0
 40
12.21165540003783
100
AcDbArc
 50
96.20067423022531
 51
340.6583416336956
  0
ARC
  5
2706
102
{ACAD_REACTORS
330
2884
102
}
330
2
100
AcDbEntity
  8
KIJUN
100
AcDbCircle
 10
23.16764550940945
 20
108.0549684877577
 30
0.0
 40
14.59958511215967
100
AcDbArc
 50
28.25990276194657
 51
170.5878185632524
  0
LINE
  5
2707
102
{ACAD_REACTORS
330
2884
102
}
330
2
100
AcDbEntity
  8
KIJUN
100
AcDbLine
 10
-22.72045290579161
 20
107.6179244486519
 30
0.0
 11
4.260427459407878
 21
107.6179244486364
 31
0.0
  0
ARC
  5
2708
102
{ACAD_REACTORS
330
2884
102
}
330
2
100
AcDbEntity
  8
KIJUN
100
AcDbCircle
 10
18.08110388598572
 20
109.2496174923829
 30
0.0
 40
3.214110971123823
100
AcDbArc
 50
272.0120543957179
 51
101.6331060285813
  0
ARC
  5
2709
102
{ACAD_REACTORS
330
2884
102
}
330
2
100
AcDbEntity
  8
KIJUN
100
AcDbCircle
 10
15.85745731796044
 20
104.5845489415468
 30
0.0
 40
2.751405621756575
100
AcDbArc
 50
326.6341742420803
 51
126.7419868347646
  0
CIRCLE
  5
270A
102
{ACAD_REACTORS
330
2884
102
}
330
2
100
AcDbEntity
  8
KIJUN
100
AcDbCircle
 10
24.70526194178376
 20
88.86432398031582
 30
0.0
 40
6.595054866949793
  0
ARC
  5
270B
102
{ACAD_REACTORS
330
2884
102
}
330
2
100
AcDbEntity
  8
KIJUN
100
AcDbCircle
 10
7.382084708459956
 20
124.135188695563
 30
0.0
 40
1.0
100
AcDbArc
 50
202.216278980777
 51
299.8188432623706
  0
LINE
  5
270D
102
{ACAD_REACTORS
330
2884
102
}
330
2
100
AcDbEntity
  8
KIJUN
100
AcDbLine
 10
-12.56088235329287
 20
117.5247065412508
 30
0.0
 11
12.29554534812189
 21
117.5247065412367
 31
0.0
  0
ARC
  5
270E
102
{ACAD_REACTORS
330
2884
102
}
330
2
100
AcDbEntity
  8
KIJUN
100
AcDbCircle
 10
-8.651115591940538
 20
94.95128084696977
 30
0.0
 40
5.475280810311713
100
AcDbArc
 50
10.5911041113042
 51
132.105836493625
  0
ARC
  5
270F
102
{ACAD_REACTORS
330
2884
102
}
330
2
100
AcDbEntity
  8
KIJUN
100
AcDbCircle
 10
-9.487880027827372
 20
95.95763053556799
 30
0.0
 40
6.218767804163621
100
AcDbArc
 50
353.3042688849348
 51
157.1721519798791
  0
CIRCLE
  5
2710
102
{ACAD_REACTORS
330
2884
102
}
330
2
100
AcDbEntity
  8
KIJUN
100
AcDbCircle
 10
-13.31639773986251
 20
96.64426613090734
 30
0.0
 40
2.569275211353668
  0
ARC
  5
2711
102
{ACAD_REACTORS
330
2884
102
}
330
2
100
AcDbEntity
  8
KIJUN
100
AcDbCircle
 10
-9.546206695614159
 20
99.54708470019603
 30
0.0
 40
7.316068912745846
100
AcDbArc
 50
346.2756735917655
 51
219.9451216499018
  0
LINE
  5
2714
102
{ACAD_REACTORS
330
2884
102
}
330
2
100
AcDbEntity
  8
KIJUN
100
AcDbLine
 10
89.36457600494225
 20
100.1398158816549
 30
0.0
 11
50.52818059387494
 21
122.8032599141983
 31
0.0
  0
LINE
  5
2715
102
{ACAD_REACTORS
330
2884
102
}
330
2
100
AcDbEntity
  8
KIJUN
100
AcDbLine
 10
84.33169073324382
 20
76.99159726190089
 30
0.0
 11
85.89235830401879
 21
80.43027109440016
 31
0.0
  0
LINE
  5
2716
102
{ACAD_REACTORS
330
2884
102
}
330
2
100
AcDbEntity
  8
KIJUN
100
AcDbLine
 10
87.79217056828485
 20
78.14804369487217
 30
0.0
 11
84.69530426361155
 21
76.57677910744212
 31
0.0
  0
ARC
  5
2717
102
{ACAD_REACTORS
330
2884
102
}
330
2
100
AcDbEntity
  8
KIJUN
100
AcDbCircle
 10
85.80042025128397
 20
80.57005475002586
 30
0.0
 40
0.1673083259222354
100
AcDbArc
 50
303.3335897295186
 51
147.4314698362216
  0
LINE
  5
2718
102
{ACAD_REACTORS
330
2884
102
}
330
2
100
AcDbEntity
  8
KIJUN
100
AcDbLine
 10
87.97828932761706
 20
77.57764049764489
 30
0.0
 11
83.54834937678527
 21
75.57140286953188
 31
0.0
  0
ARC
  5
2719
102
{ACAD_REACTORS
330
2884
102
}
330
2
100
AcDbEntity
  8
KIJUN
100
AcDbCircle
 10
34.06086620927283
 20
112.8509093270949
 30
0.0
 40
2.888915371591651
100
AcDbArc
 50
231.2552408408677
 51
47.10868773207209
  0
ARC
  5
271A
102
{ACAD_REACTORS
330
2884
102
}
330
2
100
AcDbEntity
  8
KIJUN
100
AcDbCircle
 10
54.00194579604715
 20
126.883721302754
 30
0.0
 40
10.32336353139396
100
AcDbArc
 50
195.6662406730046
 51
215.9394980397074
  0
ARC
  5
271B
102
{ACAD_REACTORS
330
2884
102
}
330
2
100
AcDbEntity
  8
KIJUN
100
AcDbCircle
 10
48.27167499807012
 20
122.5985438154988
 30
0.0
 40
3.170599077310483
100
AcDbArc
 50
214.0205866941119
 51
293.3795008334017
  0
ARC
  5
271C
102
{ACAD_REACTORS
330
2884
102
}
330
2
100
AcDbEntity
  8
KIJUN
100
AcDbCircle
 10
51.01836021186693
 20
119.865791905638
 30
0.0
 40
1.001264110062828
100
AcDbArc
 50
235.6297045271924
 51
61.38849725800649
  0
ARC
  5
271D
102
{ACAD_REACTORS
330
2884
102
}
330
2
100
AcDbEntity
  8
KIJUN
100
AcDbCircle
 10
55.13381940925603
 20
126.6802940248548
 30
0.0
 40
6.960647820375844
100
AcDbArc
 50
183.2877282596318
 51
238.5091008924632
  0
LINE
  5
271E
102
{ACAD_REACTORS
330
2884
102
}
330
2
100
AcDbEntity
  8
KIJUN
100
AcDbLine
 10
41.90703470951405
 20
115.663016883754
 30
0.0
 11
42.59813749568559
 21
119.0308132850008
 31
0.0
  0
LINE
  5
271F
102
{ACAD_REACTORS
330
2884
102
}
330
2
100
AcDbEntity
  8
KIJUN
100
AcDbLine
 10
38.95658484014996
 20
119.7624822741153
 30
0.0
 11
41.36927377793847
 21
115.540126358533
 31
0.0
  0
ARC
  5
2720
102
{ACAD_REACTORS
330
2884
102
}
330
2
100
AcDbEntity
  8
KIJUN
100
AcDbCircle
 10
41.61186269233178
 20
115.716621736933
 30
0.0
 40
0.3
100
AcDbArc
 50
216.0377339188577
 51
349.7069514136736
  0
LINE
  5
2721
102
{ACAD_REACTORS
330
2884
102
}
330
2
100
AcDbEntity
  8
KIJUN
100
AcDbLine
 10
41.56724753535956
 20
117.1499034189445
 30
0.0
 11
42.31881070001247
 21
120.8506214306502
 31
0.0
  0
LINE
  5
2722
102
{ACAD_REACTORS
330
2884
102
}
330
2
100
AcDbEntity
  8
KIJUN
100
AcDbLine
 10
39.44176266894931
 20
120.1154730309603
 30
0.0
 11
41.02948660376853
 21
117.027012893708
 31
0.0
  0
LINE
  5
2723
102
{ACAD_REACTORS
330
2884
102
}
330
2
100
AcDbEntity
  8
KIJUN
100
AcDbLine
 10
44.50555895315858
 20
117.3581012664748
 30
0.0
 11
42.64226750348837
 21
120.9002696038331
 31
0.0
  0
ARC
  5
2724
102
{ACAD_REACTORS
330
2884
102
}
330
2
100
AcDbEntity
  8
KIJUN
100
AcDbCircle
 10
42.47524041333429
 20
120.9099663605692
 30
0.0
 40
0.1673083259222354
100
AcDbArc
 50
356.67742328849
 51
200.7753033947828
  0
LINE
  5
2725
102
{ACAD_REACTORS
330
2884
102
}
330
2
100
AcDbEntity
  8
KIJUN
100
AcDbLine
 10
38.95658484014996
 20
119.7624822741153
 30
0.0
 11
39.44176266894931
 21
120.1154730309603
 31
0.0
  0
LINE
  5
2726
102
{ACAD_REACTORS
330
2884
102
}
330
2
100
AcDbEntity
  8
KIJUN
100
AcDbLine
 10
44.62735921255364
 20
115.837755390933
 30
0.0
 11
42.92159429915329
 21
119.0804614581242
 31
0.0
  0
ARC
  5
2727
102
{ACAD_REACTORS
330
2884
102
}
330
2
100
AcDbEntity
  8
KIJUN
100
AcDbCircle
 10
44.77106554328486
 20
117.4977660458197
 30
0.0
 40
0.3
100
AcDbArc
 50
207.7457752957001
 51
341.4149927648612
  0
LINE
  5
2728
102
{ACAD_REACTORS
330
2884
102
}
330
2
100
AcDbEntity
  8
KIJUN
100
AcDbLine
 10
46.13104780167043
 20
120.2596522585621
 30
0.0
 11
45.17722135509586
 21
115.8818067820197
 31
0.0
  0
ARC
  5
2729
102
{ACAD_REACTORS
330
2884
102
}
330
2
100
AcDbEntity
  8
KIJUN
100
AcDbCircle
 10
42.75456720903014
 20
119.0901582148898
 30
0.0
 40
0.1673083259222354
100
AcDbArc
 50
356.67742328849
 51
200.7753033947828
  0
ARC
  5
272A
102
{ACAD_REACTORS
330
2884
102
}
330
2
100
AcDbEntity
  8
KIJUN
100
AcDbCircle
 10
41.2720755181682
 20
117.203508272093
 30
0.0
 40
0.3
100
AcDbArc
 50
216.0377339188577
 51
349.7069514136736
  0
LINE
  5
272B
102
{ACAD_REACTORS
330
2884
102
}
330
2
100
AcDbEntity
  8
KIJUN
100
AcDbLine
 10
45.64376644551805
 20
120.8246229749737
 30
0.0
 11
45.05542109548343
 21
117.4021526579548
 31
0.0
  0
ARC
  5
272C
102
{ACAD_REACTORS
330
2884
102
}
330
2
100
AcDbEntity
  8
KIJUN
100
AcDbCircle
 10
44.89286580289911
 20
115.97742016987
 30
0.0
 40
0.3
100
AcDbArc
 50
207.7457752108543
 51
341.4149927648612
  0
LINE
  5
272D
102
{ACAD_REACTORS
330
2884
102
}
330
2
100
AcDbEntity
  8
KIJUN
100
AcDbLine
 10
45.71878419651705
 20
120.7182653615408
 30
0.0
 11
45.62816095439678
 21
120.7338440980191
 31
0.0
  0
LINE
  5
272E
102
{ACAD_REACTORS
330
2884
102
}
330
2
100
AcDbEntity
  8
KIJUN
100
AcDbLine
 10
40.31802739090664
 20
107.446809244076
 30
0.0
 11
41.00913017707637
 21
110.8146056453214
 31
0.0
  0
LINE
  5
272F
102
{ACAD_REACTORS
330
2884
102
}
330
2
100
AcDbEntity
  8
KIJUN
100
AcDbLine
 10
37.36757752154074
 20
111.5462746344382
 30
0.0
 11
39.78026645932835
 21
107.323918718855
 31
0.0
  0
ARC
  5
2730
102
{ACAD_REACTORS
330
2884
102
}
330
2
100
AcDbEntity
  8
KIJUN
100
AcDbCircle
 10
40.02285537371983
 20
107.5004140972549
 30
0.0
 40
0.3
100
AcDbArc
 50
216.0377339188577
 51
349.7069514136736
  0
LINE
  5
2731
102
{ACAD_REACTORS
330
2884
102
}
330
2
100
AcDbEntity
  8
KIJUN
100
AcDbLine
 10
39.97824021675035
 20
108.9336957792646
 30
0.0
 11
40.72980338140325
 21
112.6344137909717
 31
0.0
  0
LINE
  5
2732
102
{ACAD_REACTORS
330
2884
102
}
330
2
100
AcDbEntity
  8
KIJUN
100
AcDbLine
 10
37.852755350341
 20
111.8992653912818
 30
0.0
 11
39.44047928515931
 21
108.8108052540291
 31
0.0
  0
LINE
  5
2733
102
{ACAD_REACTORS
330
2884
102
}
330
2
100
AcDbEntity
  8
KIJUN
100
AcDbLine
 10
42.91655163454845
 20
109.1418936267981
 30
0.0
 11
41.05326018487915
 21
112.6840619641542
 31
0.0
  0
ARC
  5
2734
102
{ACAD_REACTORS
330
2884
102
}
330
2
100
AcDbEntity
  8
KIJUN
100
AcDbCircle
 10
40.88623309472416
 20
112.6937587208921
 30
0.0
 40
0.1673083259222354
100
AcDbArc
 50
356.67742328849
 51
200.7753033947828
  0
LINE
  5
2735
102
{ACAD_REACTORS
330
2884
102
}
330
2
100
AcDbEntity
  8
KIJUN
100
AcDbLine
 10
37.36757752154074
 20
111.5462746344382
 30
0.0
 11
37.852755350341
 21
111.8992653912818
 31
0.0
  0
LINE
  5
2736
102
{ACAD_REACTORS
330
2884
102
}
330
2
100
AcDbEntity
  8
KIJUN
100
AcDbLine
 10
43.03835189394351
 20
107.621547751255
 30
0.0
 11
41.33258698054499
 21
110.8642538184462
 31
0.0
  0
ARC
  5
2737
102
{ACAD_REACTORS
330
2884
102
}
330
2
100
AcDbEntity
  8
KIJUN
100
AcDbCircle
 10
43.18205822467655
 20
109.2815584061421
 30
0.0
 40
0.3
100
AcDbArc
 50
207.7457752957001
 51
341.4149927648612
  0
LINE
  5
2738
102
{ACAD_REACTORS
330
2884
102
}
330
2
100
AcDbEntity
  8
KIJUN
100
AcDbLine
 10
44.62347023128233
 20
112.4171885595668
 30
0.0
 11
43.58821403648756
 21
107.6655991423421
 31
0.0
  0
ARC
  5
2739
102
{ACAD_REACTORS
330
2884
102
}
330
2
100
AcDbEntity
  8
KIJUN
100
AcDbCircle
 10
41.16555989042092
 20
110.8739505752122
 30
0.0
 40
0.1673083259222354
100
AcDbArc
 50
356.67742328849
 51
200.7753033947828
  0
ARC
  5
273A
102
{ACAD_REACTORS
330
2884
102
}
330
2
100
AcDbEntity
  8
KIJUN
100
AcDbCircle
 10
39.68306819955808
 20
108.987300632415
 30
0.0
 40
0.3
100
AcDbArc
 50
216.0377339188577
 51
349.7069514136736
  0
LINE
  5
273B
102
{ACAD_REACTORS
330
2884
102
}
330
2
100
AcDbEntity
  8
KIJUN
100
AcDbLine
 10
44.05475912690883
 20
112.6084153352961
 30
0.0
 11
43.46641377687331
 21
109.1859450182772
 31
0.0
  0
ARC
  5
273C
102
{ACAD_REACTORS
330
2884
102
}
330
2
100
AcDbEntity
  8
KIJUN
100
AcDbCircle
 10
43.30385848428988
 20
107.761212530192
 30
0.0
 40
0.3
100
AcDbArc
 50
207.7457752108543
 51
341.4149927648612
  0
LINE
  5
273D
102
{ACAD_REACTORS
330
2884
102
}
330
2
100
AcDbEntity
  8
KIJUN
100
AcDbLine
 10
44.62347023128233
 20
112.4171885595668
 30
0.0
 11
44.03915363578846
 21
112.517636458342
 31
0.0
  0
LINE
  5
273E
102
{ACAD_REACTORS
330
2884
102
}
330
2
100
AcDbEntity
  8
KIJUN
100
AcDbLine
 10
45.04770819930411
 20
105.8869569190091
 30
0.0
 11
44.46319128408788
 21
105.7876813431602
 31
0.0
  0
ARC
  5
273F
102
{ACAD_REACTORS
330
2884
102
}
330
2
100
AcDbEntity
  8
KIJUN
100
AcDbCircle
 10
45.34900152811508
 20
101.0569765589133
 30
0.0
 40
0.3
100
AcDbArc
 50
227.1392123656184
 51
0.808429920001253
  0
LINE
  5
2740
102
{ACAD_REACTORS
330
2884
102
}
330
2
100
AcDbEntity
  8
KIJUN
100
AcDbLine
 10
44.44776792394543
 20
105.8784913416119
 30
0.0
 11
45.02924672197252
 21
102.4548477081069
 31
0.0
  0
ARC
  5
2741
102
{ACAD_REACTORS
330
2884
102
}
330
2
100
AcDbEntity
  8
KIJUN
100
AcDbCircle
 10
41.52652601189323
 20
101.01120267677
 30
0.0
 40
0.3
100
AcDbArc
 50
235.4311710739954
 51
9.100388568426916
  0
ARC
  5
2742
102
{ACAD_REACTORS
330
2884
102
}
330
2
100
AcDbEntity
  8
KIJUN
100
AcDbCircle
 10
42.29843421674297
 20
103.2830713664979
 30
0.0
 40
0.1673083259222354
100
AcDbArc
 50
16.07086044336151
 51
220.1687405498628
  0
LINE
  5
2743
102
{ACAD_REACTORS
330
2884
102
}
330
2
100
AcDbEntity
  8
KIJUN
100
AcDbLine
 10
45.04770819930411
 20
105.8869569190091
 30
0.0
 11
45.64897166579078
 21
101.0612093476332
 31
0.0
  0
ARC
  5
2744
102
{ACAD_REACTORS
330
2884
102
}
330
2
100
AcDbEntity
  8
KIJUN
100
AcDbCircle
 10
44.72927658428955
 20
102.450614919387
 30
0.0
 40
0.3
100
AcDbArc
 50
227.1392124502789
 51
0.808429920001253
  0
LINE
  5
2745
102
{ACAD_REACTORS
330
2884
102
}
330
2
100
AcDbEntity
  8
KIJUN
100
AcDbLine
 10
45.14493571761898
 20
100.8370739782502
 30
0.0
 11
42.45920414450313
 21
103.329386658307
 31
0.0
  0
LINE
  5
2746
102
{ACAD_REACTORS
330
2884
102
}
330
2
100
AcDbEntity
  8
KIJUN
100
AcDbLine
 10
38.49269943300453
 20
102.6561164472322
 30
0.0
 11
38.83313693921366
 21
103.150183552348
 31
0.0
  0
ARC
  5
2747
102
{ACAD_REACTORS
330
2884
102
}
330
2
100
AcDbEntity
  8
KIJUN
100
AcDbCircle
 10
41.43068331049483
 20
104.9068735436548
 30
0.0
 40
0.1673083259222354
100
AcDbArc
 50
16.07086044336151
 51
220.1687405498628
  0
LINE
  5
2748
102
{ACAD_REACTORS
330
2884
102
}
330
2
100
AcDbEntity
  8
KIJUN
100
AcDbLine
 10
44.52521077414269
 20
102.2307123384047
 30
0.0
 11
41.59145323826225
 21
104.9531888354926
 31
0.0
  0
LINE
  5
2749
102
{ACAD_REACTORS
330
2884
102
}
330
2
100
AcDbEntity
  8
KIJUN
100
AcDbLine
 10
38.83313693921366
 20
103.150183552348
 30
0.0
 11
41.35630725877319
 21
100.7641691242269
 31
0.0
  0
LINE
  5
274A
102
{ACAD_REACTORS
330
2884
102
}
330
2
100
AcDbEntity
  8
KIJUN
100
AcDbLine
 10
41.82274983213858
 20
101.0586521058966
 30
0.0
 11
41.30283497716675
 21
104.7989528339497
 31
0.0
  0
ARC
  5
274B
102
{ACAD_REACTORS
330
2884
102
}
330
2
100
AcDbEntity
  8
KIJUN
100
AcDbCircle
 10
42.34075916750874
 20
99.72150842599091
 30
0.0
 40
0.3
100
AcDbArc
 50
235.4311710739954
 51
9.100388568426916
  0
LINE
  5
274C
102
{ACAD_REACTORS
330
2884
102
}
330
2
100
AcDbEntity
  8
KIJUN
100
AcDbLine
 10
38.49269943300453
 20
102.6561164472322
 30
0.0
 11
42.17054041440326
 21
99.47447487346279
 31
0.0
  0
LINE
  5
274D
102
{ACAD_REACTORS
330
2884
102
}
330
2
100
AcDbEntity
  8
KIJUN
100
AcDbLine
 10
42.63698298776865
 20
99.76895785508794
 30
0.0
 11
42.17058588340489
 21
103.1751506567929
 31
0.0
  0
LINE
  5
274E
102
{ACAD_REACTORS
330
2884
102
}
330
2
100
AcDbEntity
  8
KIJUN
100
AcDbLine
 10
48.88923346583135
 20
82.37707974607008
 30
0.0
 11
48.22023729753266
 21
85.74933711879783
 31
0.0
  0
LINE
  5
274F
102
{ACAD_REACTORS
330
2884
102
}
330
2
100
AcDbEntity
  8
KIJUN
100
AcDbLine
 10
44.57991497029718
 20
85.01157116236106
 30
0.0
 11
48.44121124231981
 21
82.05526460041699
 31
0.0
  0
ARC
  5
2750
102
{ACAD_REACTORS
330
2884
102
}
330
2
100
AcDbEntity
  8
KIJUN
100
AcDbCircle
 10
48.59637229896463
 20
82.31202333251292
 30
0.0
 40
0.3
100
AcDbArc
 50
238.8551444662034
 51
12.52436196082462
  0
LINE
  5
2751
102
{ACAD_REACTORS
330
2884
102
}
330
2
100
AcDbEntity
  8
KIJUN
100
AcDbLine
 10
47.99942801730151
 20
83.61584249818031
 30
0.0
 11
47.25705535422014
 21
87.31841509324601
 31
0.0
  0
LINE
  5
2752
102
{ACAD_REACTORS
330
2884
102
}
330
2
100
AcDbEntity
  8
KIJUN
100
AcDbLine
 10
44.89023708354409
 20
85.52508862652292
 30
0.0
 11
47.55140579379997
 21
83.29402735251177
 31
0.0
  0
LINE
  5
2753
102
{ACAD_REACTORS
330
2884
102
}
330
2
100
AcDbEntity
  8
KIJUN
100
AcDbLine
 10
51.3289170971567
 20
83.59307428827277
 30
0.0
 11
48.49912875550592
 21
85.92053524810387
 31
0.0
  0
ARC
  5
2754
102
{ACAD_REACTORS
330
2884
102
}
330
2
100
AcDbEntity
  8
KIJUN
100
AcDbCircle
 10
50.81763275197875
 20
85.178910093843
 30
0.0
 40
0.3
100
AcDbArc
 50
230.5631858427044
 51
4.232403312193995
  0
LINE
  5
2755
102
{ACAD_REACTORS
330
2884
102
}
330
2
100
AcDbEntity
  8
KIJUN
100
AcDbLine
 10
50.93026369352094
 20
88.62813599292337
 30
0.0
 11
51.81866703258413
 21
83.84691262582316
 31
0.0
  0
ARC
  5
2756
102
{ACAD_REACTORS
330
2884
102
}
330
2
100
AcDbEntity
  8
KIJUN
100
AcDbCircle
 10
48.34141195063705
 20
85.86470080187098
 30
0.0
 40
0.1673083259222354
100
AcDbArc
 50
19.49483383560966
 51
223.5927139421187
  0
ARC
  5
2757
102
{ACAD_REACTORS
330
2884
102
}
330
2
100
AcDbEntity
  8
KIJUN
100
AcDbCircle
 10
47.70656685044662
 20
83.55078608459313
 30
0.0
 40
0.3
100
AcDbArc
 50
238.8551444662034
 51
12.52436196082462
  0
LINE
  5
2758
102
{ACAD_REACTORS
330
2884
102
}
330
2
100
AcDbEntity
  8
KIJUN
100
AcDbLine
 10
50.62706468638783
 20
84.94721241932381
 30
0.0
 11
47.53594681219249
 21
87.4896132225507
 31
0.0
  0
ARC
  5
2759
102
{ACAD_REACTORS
330
2884
102
}
330
2
100
AcDbEntity
  8
KIJUN
100
AcDbCircle
 10
47.37823000733271
 20
87.43377877630189
 30
0.0
 40
0.1673083259222354
100
AcDbArc
 50
19.49483383560966
 51
223.5927139421187
  0
LINE
  5
275A
102
{ACAD_REACTORS
330
2884
102
}
330
2
100
AcDbEntity
  8
KIJUN
100
AcDbLine
 10
44.57991497029718
 20
85.01157116236106
 30
0.0
 11
44.89023708354409
 21
85.52508862652292
 31
0.0
  0
LINE
  5
275B
102
{ACAD_REACTORS
330
2884
102
}
330
2
100
AcDbEntity
  8
KIJUN
100
AcDbLine
 10
50.33189995456098
 20
88.58385466628204
 30
0.0
 11
51.116814621466
 21
85.2010507571639
 31
0.0
  0
ARC
  5
275C
102
{ACAD_REACTORS
330
2884
102
}
330
2
100
AcDbEntity
  8
KIJUN
100
AcDbCircle
 10
51.51948516310415
 20
83.82477196250226
 30
0.0
 40
0.3
100
AcDbArc
 50
230.563185758238
 51
4.232403312193995
  0
LINE
  5
275D
102
{ACAD_REACTORS
330
2884
102
}
330
2
100
AcDbEntity
  8
KIJUN
100
AcDbLine
 10
50.93026369352094
 20
88.62813599292337
 30
0.0
 11
50.35271932342141
 21
88.49412791587736
 31
0.0
  0
LINE
  5
275E
102
{ACAD_REACTORS
330
2884
102
}
330
2
100
AcDbEntity
  8
KIJUN
100
AcDbLine
 10
43.85067721715507
 20
91.61195997468428
 30
0.0
 11
43.33076236218324
 21
95.35226070273564
 31
0.0
  0
LINE
  5
275F
102
{ACAD_REACTORS
330
2884
102
}
330
2
100
AcDbEntity
  8
KIJUN
100
AcDbLine
 10
40.86106432423195
 20
93.70349142113481
 30
0.0
 11
43.38423464379149
 21
91.31747699301456
 31
0.0
  0
LINE
  5
2760
102
{ACAD_REACTORS
330
2884
102
}
330
2
100
AcDbEntity
  8
KIJUN
100
AcDbLine
 10
46.55313815916009
 20
92.78402020719193
 30
0.0
 11
43.61938062327965
 21
95.50649670428118
 31
0.0
  0
ARC
  5
2761
102
{ACAD_REACTORS
330
2884
102
}
330
2
100
AcDbEntity
  8
KIJUN
100
AcDbCircle
 10
43.45861069551221
 20
95.46018141244292
 30
0.0
 40
0.1673083259222354
100
AcDbArc
 50
16.07086044336151
 51
220.1687405498628
  0
LINE
  5
2762
102
{ACAD_REACTORS
330
2884
102
}
330
2
100
AcDbEntity
  8
KIJUN
100
AcDbLine
 10
40.5206268180201
 20
93.20942431602032
 30
0.0
 11
40.86106432423195
 21
93.70349142113481
 31
0.0
  0
LINE
  5
2763
102
{ACAD_REACTORS
330
2884
102
}
330
2
100
AcDbEntity
  8
KIJUN
100
AcDbLine
 10
44.66491037278603
 20
90.32226572387605
 30
0.0
 11
44.19851326842229
 21
93.72845852557873
 31
0.0
  0
LINE
  5
2764
102
{ACAD_REACTORS
330
2884
102
}
330
2
100
AcDbEntity
  8
KIJUN
100
AcDbLine
 10
40.5206268180201
 20
93.20942431602032
 30
0.0
 11
44.19846779942156
 21
90.02778274224999
 31
0.0
  0
LINE
  5
2765
102
{ACAD_REACTORS
330
2884
102
}
330
2
100
AcDbEntity
  8
KIJUN
100
AcDbLine
 10
47.17286310263728
 20
91.39038184703839
 30
0.0
 11
44.48713152951961
 21
93.88269452709607
 31
0.0
  0
ARC
  5
2766
102
{ACAD_REACTORS
330
2884
102
}
330
2
100
AcDbEntity
  8
KIJUN
100
AcDbCircle
 10
46.75720396930603
 20
93.00392278817424
 30
0.0
 40
0.3
100
AcDbArc
 50
227.1392124502789
 51
0.808429920001253
  0
LINE
  5
2767
102
{ACAD_REACTORS
330
2884
102
}
330
2
100
AcDbEntity
  8
KIJUN
100
AcDbLine
 10
47.0756355843215
 20
96.44026478779677
 30
0.0
 11
47.67689905080908
 21
91.61451721642094
 31
0.0
  0
ARC
  5
2768
102
{ACAD_REACTORS
330
2884
102
}
330
2
100
AcDbEntity
  8
KIJUN
100
AcDbCircle
 10
44.32636160176037
 20
93.83637923528601
 30
0.0
 40
0.1673083259222354
100
AcDbArc
 50
16.07086044336151
 51
220.1687405498628
  0
ARC
  5
2769
102
{ACAD_REACTORS
330
2884
102
}
330
2
100
AcDbEntity
  8
KIJUN
100
AcDbCircle
 10
43.55445339691152
 20
91.56451054555816
 30
0.0
 40
0.3
100
AcDbArc
 50
235.4311710739954
 51
9.100388568426916
  0
ARC
  5
276A
102
{ACAD_REACTORS
330
2884
102
}
330
2
100
AcDbEntity
  8
KIJUN
100
AcDbCircle
 10
44.36868655252704
 20
90.27481629477813
 30
0.0
 40
0.3
100
AcDbArc
 50
235.4311710739954
 51
9.100388568426916
  0
LINE
  5
276B
102
{ACAD_REACTORS
330
2884
102
}
330
2
100
AcDbEntity
  8
KIJUN
100
AcDbLine
 10
46.47569530896283
 20
96.43179921040008
 30
0.0
 11
47.05717410698901
 21
93.00815557689464
 31
0.0
  0
ARC
  5
276C
102
{ACAD_REACTORS
330
2884
102
}
330
2
100
AcDbEntity
  8
KIJUN
100
AcDbCircle
 10
47.37692891313338
 20
91.61028442769964
 30
0.0
 40
0.3
100
AcDbArc
 50
227.1392123656184
 51
0.808429920001253
  0
LINE
  5
276D
102
{ACAD_REACTORS
330
2884
102
}
330
2
100
AcDbEntity
  8
KIJUN
100
AcDbLine
 10
47.0756355843215
 20
96.44026478779677
 30
0.0
 11
46.49111866910527
 21
96.34098921194789
 31
0.0
  0
LINE
  5
276E
102
{ACAD_REACTORS
330
2884
102
}
330
2
100
AcDbEntity
  8
KIJUN
100
AcDbLine
 10
56.02901743358518
 20
82.53693887192264
 30
0.0
 11
55.49675624400254
 21
82.27576136483765
 31
0.0
  0
ARC
  5
276F
102
{ACAD_REACTORS
330
2884
102
}
330
2
100
AcDbEntity
  8
KIJUN
100
AcDbCircle
 10
57.68950708815475
 20
77.99136277465311
 30
0.0
 40
0.3
100
AcDbArc
 50
243.6368820864039
 51
17.30609964021763
  0
LINE
  5
2770
102
{ACAD_REACTORS
330
2884
102
}
330
2
100
AcDbEntity
  8
KIJUN
100
AcDbLine
 10
55.45617995203349
 20
82.35845296288232
 30
0.0
 11
56.98595383210625
 21
79.24088256309585
 31
0.0
  0
LINE
  5
2771
102
{ACAD_REACTORS
330
2884
102
}
330
2
100
AcDbEntity
  8
KIJUN
100
AcDbLine
 10
50.66135223218783
 20
77.57764049754303
 30
0.0
 11
50.84747099152093
 21
78.14804369477122
 31
0.0
  0
ARC
  5
2772
102
{ACAD_REACTORS
330
2884
102
}
330
2
100
AcDbEntity
  8
KIJUN
100
AcDbCircle
 10
55.184351562708
 20
75.85660446807321
 30
0.0
 40
0.3
100
AcDbArc
 50
251.9288407944123
 51
25.59805828927829
  0
ARC
  5
2773
102
{ACAD_REACTORS
330
2884
102
}
330
2
100
AcDbEntity
  8
KIJUN
100
AcDbCircle
 10
52.83922130850545
 20
80.570054749939
 30
0.0
 40
0.1673083259222354
100
AcDbArc
 50
32.56853016401915
 51
236.66641027084
  0
LINE
  5
2774
102
{ACAD_REACTORS
330
2884
102
}
330
2
100
AcDbEntity
  8
KIJUN
100
AcDbLine
 10
56.56631754021702
 20
78.88284027063798
 30
0.0
 11
52.98022009752742
 21
80.6601181577388
 31
0.0
  0
ARC
  5
2775
102
{ACAD_REACTORS
330
2884
102
}
330
2
100
AcDbEntity
  8
KIJUN
100
AcDbCircle
 10
54.03739667588808
 20
76.861980705983
 30
0.0
 40
0.3
100
AcDbArc
 50
251.9288407944123
 51
25.59805828927829
  0
ARC
  5
2776
102
{ACAD_REACTORS
330
2884
102
}
330
2
100
AcDbEntity
  8
KIJUN
100
AcDbCircle
 10
54.13236943780351
 20
79.25952315494612
 30
0.0
 40
0.1673083259222354
100
AcDbArc
 50
32.56853016401915
 51
236.66641027084
  0
LINE
  5
2777
102
{ACAD_REACTORS
330
2884
102
}
330
2
100
AcDbEntity
  8
KIJUN
100
AcDbLine
 10
56.02901743358518
 20
82.53693887192264
 30
0.0
 11
57.97592582891514
 21
78.08060572918782
 31
0.0
  0
ARC
  5
2778
102
{ACAD_REACTORS
330
2884
102
}
330
2
100
AcDbEntity
  8
KIJUN
100
AcDbCircle
 10
56.69953509133041
 20
79.15163960857388
 30
0.0
 40
0.3
100
AcDbArc
 50
243.6368821710395
 51
17.30609964021763
  0
LINE
  5
2779
102
{ACAD_REACTORS
330
2884
102
}
330
2
100
AcDbEntity
  8
KIJUN
100
AcDbLine
 10
57.55628953661937
 20
77.72256343691958
 30
0.0
 11
54.27336822683276
 21
79.34958656271499
 31
0.0
  0
LINE
  5
277A
102
{ACAD_REACTORS
330
2884
102
}
330
2
100
AcDbEntity
  8
KIJUN
100
AcDbLine
 10
50.84747099152093
 20
78.14804369477122
 30
0.0
 11
53.94433729620061
 21
76.5767791073689
 31
0.0
  0
LINE
  5
277B
102
{ACAD_REACTORS
330
2884
102
}
330
2
100
AcDbEntity
  8
KIJUN
100
AcDbLine
 10
50.66135223218783
 20
77.57764049754303
 30
0.0
 11
55.09129218303417
 21
75.57140286946003
 31
0.0
  0
LINE
  5
277C
102
{ACAD_REACTORS
330
2884
102
}
330
2
100
AcDbEntity
  8
KIJUN
100
AcDbLine
 10
54.30795082656834
 20
76.99159726182813
 30
0.0
 11
52.74728325577155
 21
80.43027109431102
 31
0.0
  0
LINE
  5
277D
102
{ACAD_REACTORS
330
2884
102
}
330
2
100
AcDbEntity
  8
KIJUN
100
AcDbLine
 10
55.45490571341645
 20
75.98622102388879
 30
0.0
 11
54.0404313850787
 21
79.11973949931724
 31
0.0
  0
LINE
  5
277E
102
{ACAD_REACTORS
330
2884
102
}
330
2
100
AcDbEntity
  8
KIJUN
100
AcDbLine
 10
56.84517781868283
 20
74.5784719653119
 30
0.0
 11
57.15549993192974
 21
75.09198942947421
 31
0.0
  0
LINE
  5
277F
102
{ACAD_REACTORS
330
2884
102
}
330
2
100
AcDbEntity
  8
KIJUN
100
AcDbLine
 10
85.59448550280933
 20
90.76170844170963
 30
0.0
 11
48.30224126084352
 21
112.5240445514308
 31
0.0
  0
ARC
  5
2780
102
{ACAD_REACTORS
330
2884
102
}
330
2
100
AcDbEntity
  8
KIJUN
100
AcDbCircle
 10
69.31982077990245
 20
77.66316524818364
 30
0.0
 40
2.535771310499385
100
AcDbArc
 50
353.0205526205196
 51
186.9794473794804
  0
LINE
  5
2781
102
{ACAD_REACTORS
330
2884
102
}
330
2
100
AcDbEntity
  8
KIJUN
100
AcDbLine
 10
77.48514524561699
 20
71.94398054906503
 30
0.0
 11
78.15414141390204
 21
75.31623792179278
 31
0.0
  0
LINE
  5
2782
102
{ACAD_REACTORS
330
2884
102
}
330
2
100
AcDbEntity
  8
KIJUN
100
AcDbLine
 10
78.37495069414046
 20
73.1827433011739
 30
0.0
 11
79.11732335720728
 21
76.88531589624005
 31
0.0
  0
LINE
  5
2783
102
{ACAD_REACTORS
330
2884
102
}
330
2
100
AcDbEntity
  8
KIJUN
100
AcDbLine
 10
81.79446374113751
 20
74.57847196537011
 30
0.0
 11
77.93316746913763
 21
71.62216540341103
 31
0.0
  0
LINE
  5
2784
102
{ACAD_REACTORS
330
2884
102
}
330
2
100
AcDbEntity
  8
KIJUN
100
AcDbLine
 10
81.4841416278897
 20
75.09198942953196
 30
0.0
 11
78.82297291764837
 21
72.86092815550808
 31
0.0
  0
LINE
  5
2785
102
{ACAD_REACTORS
330
2884
102
}
330
2
100
AcDbEntity
  8
KIJUN
100
AcDbLine
 10
75.04546161428436
 20
73.15997509125316
 30
0.0
 11
77.87524995592969
 21
75.48743605109883
 31
0.0
  0
ARC
  5
2786
102
{ACAD_REACTORS
330
2884
102
}
330
2
100
AcDbEntity
  8
KIJUN
100
AcDbCircle
 10
75.55674595945595
 20
74.7458108968234
 30
0.0
 40
0.3
100
AcDbArc
 50
175.7675966886404
 51
309.4368141576327
  0
LINE
  5
2787
102
{ACAD_REACTORS
330
2884
102
}
330
2
100
AcDbEntity
  8
KIJUN
100
AcDbLine
 10
75.44411501790012
 20
78.19503679590287
 30
0.0
 11
74.55571167885785
 21
73.4138134288031
 31
0.0
  0
ARC
  5
2788
102
{ACAD_REACTORS
330
2884
102
}
330
2
100
AcDbEntity
  8
KIJUN
100
AcDbCircle
 10
78.66781186100263
 20
73.11768688758809
 30
0.0
 40
0.3
100
AcDbArc
 50
167.4756380399726
 51
301.1448555345958
  0
LINE
  5
2789
102
{ACAD_REACTORS
330
2884
102
}
330
2
100
AcDbEntity
  8
KIJUN
100
AcDbLine
 10
75.74731402505415
 20
74.51411322230285
 30
0.0
 11
78.83843189923585
 21
77.05651402554519
 31
0.0
  0
ARC
  5
278A
102
{ACAD_REACTORS
330
2884
102
}
330
2
100
AcDbEntity
  8
KIJUN
100
AcDbCircle
 10
77.77800641248461
 20
71.87892413550788
 30
0.0
 40
0.3
100
AcDbArc
 50
167.4756380399726
 51
301.1448555345958
  0
LINE
  5
278B
102
{ACAD_REACTORS
330
2884
102
}
330
2
100
AcDbEntity
  8
KIJUN
100
AcDbLine
 10
81.79446374113751
 20
74.57847196537011
 30
0.0
 11
81.4841416278897
 21
75.09198942953196
 31
0.0
  0
LINE
  5
278C
102
{ACAD_REACTORS
330
2884
102
}
330
2
100
AcDbEntity
  8
KIJUN
100
AcDbLine
 10
76.04247875685735
 20
78.15075546926107
 30
0.0
 11
75.25756408996961
 21
74.76795156014429
 31
0.0
  0
ARC
  5
278D
102
{ACAD_REACTORS
330
2884
102
}
330
2
100
AcDbEntity
  8
KIJUN
100
AcDbCircle
 10
74.85489354833783
 20
73.39167276548176
 30
0.0
 40
0.3
100
AcDbArc
 50
175.7675966886404
 51
309.4368142425796
  0
LINE
  5
278E
102
{ACAD_REACTORS
330
2884
102
}
330
2
100
AcDbEntity
  8
KIJUN
100
AcDbLine
 10
75.44411501790012
 20
78.19503679590287
 30
0.0
 11
76.02165938799783
 21
78.06102871885684
 31
0.0
  0
ARC
  5
278F
102
{ACAD_REACTORS
330
2884
102
}
330
2
100
AcDbEntity
  8
KIJUN
100
AcDbCircle
 10
78.03296676079765
 20
75.43160160486547
 30
0.0
 40
0.1673083259222354
100
AcDbArc
 50
316.4072860578813
 51
160.5051661643903
  0
ARC
  5
2790
102
{ACAD_REACTORS
330
2884
102
}
330
2
100
AcDbEntity
  8
KIJUN
100
AcDbCircle
 10
78.99614870409561
 20
77.00067957929729
 30
0.0
 40
0.1673083259222354
100
AcDbArc
 50
316.4072860578813
 51
160.5051661643903
  0
LINE
  5
2791
102
{ACAD_REACTORS
330
2884
102
}
330
2
100
AcDbEntity
  8
KIJUN
100
AcDbLine
 10
82.07332401957968
 20
78.88284027070984
 30
0.0
 11
85.65942146226291
 21
80.6601181578261
 31
0.0
  0
LINE
  5
2792
102
{ACAD_REACTORS
330
2884
102
}
330
2
100
AcDbEntity
  8
KIJUN
100
AcDbLine
 10
83.18473584639571
 20
75.986221023962
 30
0.0
 11
84.59921017472073
 21
79.11973949939
 31
0.0
  0
LINE
  5
2793
102
{ACAD_REACTORS
330
2884
102
}
330
2
100
AcDbEntity
  8
KIJUN
100
AcDbLine
 10
81.0833520231846
 20
77.7225634369778
 30
0.0
 11
84.36627333296485
 21
79.3495865627882
 31
0.0
  0
ARC
  5
2794
102
{ACAD_REACTORS
330
2884
102
}
330
2
100
AcDbEntity
  8
KIJUN
100
AcDbCircle
 10
81.9401064684672
 20
79.15163960863435
 30
0.0
 40
0.3
100
AcDbArc
 50
162.6939003597823
 51
296.3631178289605
  0
LINE
  5
2795
102
{ACAD_REACTORS
330
2884
102
}
330
2
100
AcDbEntity
  8
KIJUN
100
AcDbLine
 10
82.61062412619788
 20
82.53693887199403
 30
0.0
 11
80.66371573088975
 21
78.08060572924603
 31
0.0
  0
ARC
  5
2796
102
{ACAD_REACTORS
330
2884
102
}
330
2
100
AcDbEntity
  8
KIJUN
100
AcDbCircle
 10
84.5072721219941
 20
79.25952315501797
 30
0.0
 40
0.1673083259222354
100
AcDbArc
 50
303.3335897295186
 51
147.4314698362216
  0
ARC
  5
2797
102
{ACAD_REACTORS
330
2884
102
}
330
2
100
AcDbEntity
  8
KIJUN
100
AcDbCircle
 10
84.60224488392498
 20
76.86198070605621
 30
0.0
 40
0.3
100
AcDbArc
 50
154.4019417114676
 51
288.0711592059714
  0
ARC
  5
2798
102
{ACAD_REACTORS
330
2884
102
}
330
2
100
AcDbEntity
  8
KIJUN
100
AcDbCircle
 10
83.45528999711143
 20
75.85660446814597
 30
0.0
 40
0.3
100
AcDbArc
 50
154.4019417114676
 51
288.0711592059714
  0
LINE
  5
2799
102
{ACAD_REACTORS
330
2884
102
}
330
2
100
AcDbEntity
  8
KIJUN
100
AcDbLine
 10
83.18346160774865
 20
82.35845296295417
 30
0.0
 11
81.65368772769136
 21
79.24088256315314
 31
0.0
  0
ARC
  5
279A
102
{ACAD_REACTORS
330
2884
102
}
330
2
100
AcDbEntity
  8
KIJUN
100
AcDbCircle
 10
80.95013447164921
 20
77.99136277471086
 30
0.0
 40
0.3
100
AcDbArc
 50
162.6939003597823
 51
296.3631179139451
  0
LINE
  5
279B
102
{ACAD_REACTORS
330
2884
102
}
330
2
100
AcDbEntity
  8
KIJUN
100
AcDbLine
 10
82.61062412619788
 20
82.53693887199403
 30
0.0
 11
83.14288531577961
 21
82.27576136491222
 31
0.0
  0
LINE
  5
279C
102
{ACAD_REACTORS
330
2884
102
}
330
2
100
AcDbEntity
  8
KIJUN
100
AcDbLine
 10
63.19552654190658
 20
78.19503679587285
 30
0.0
 11
62.61798217180615
 21
78.0610287188291
 31
0.0
  0
ARC
  5
279D
102
{ACAD_REACTORS
330
2884
102
}
330
2
100
AcDbEntity
  8
KIJUN
100
AcDbCircle
 10
63.78474801148979
 20
73.3916727654531
 30
0.0
 40
0.3
100
AcDbArc
 50
230.563185758238
 51
4.232403312193995
  0
LINE
  5
279E
102
{ACAD_REACTORS
330
2884
102
}
330
2
100
AcDbEntity
  8
KIJUN
100
AcDbLine
 10
62.59716280294663
 20
78.15075546923196
 30
0.0
 11
63.38207746984983
 21
74.76795156011474
 31
0.0
  0
ARC
  5
279F
102
{ACAD_REACTORS
330
2884
102
}
330
2
100
AcDbEntity
  8
KIJUN
100
AcDbCircle
 10
60.86163514734938
 20
71.87892413546421
 30
0.0
 40
0.3
100
AcDbArc
 50
238.8551444662034
 51
12.52436196082462
  0
ARC
  5
27A0
102
{ACAD_REACTORS
330
2884
102
}
330
2
100
AcDbEntity
  8
KIJUN
100
AcDbCircle
 10
59.64349285571654
 20
77.00067957925319
 30
0.0
 40
0.1673083259222354
100
AcDbArc
 50
19.49483383560966
 51
223.5927139421187
  0
LINE
  5
27A1
102
{ACAD_REACTORS
330
2884
102
}
330
2
100
AcDbEntity
  8
KIJUN
100
AcDbLine
 10
62.89232753477165
 20
74.51411322227329
 30
0.0
 11
59.80120966057723
 21
77.05651402550154
 31
0.0
  0
ARC
  5
27A2
102
{ACAD_REACTORS
330
2884
102
}
330
2
100
AcDbEntity
  8
KIJUN
100
AcDbCircle
 10
59.97182969883136
 20
73.11768688754398
 30
0.0
 40
0.3
100
AcDbArc
 50
238.8551444662034
 51
12.52436196082462
  0
ARC
  5
27A3
102
{ACAD_REACTORS
330
2884
102
}
330
2
100
AcDbEntity
  8
KIJUN
100
AcDbCircle
 10
60.60667479902088
 20
75.43160160482091
 30
0.0
 40
0.1673083259222354
100
AcDbArc
 50
19.49483383560966
 51
223.5927139421187
  0
LINE
  5
27A4
102
{ACAD_REACTORS
330
2884
102
}
330
2
100
AcDbEntity
  8
KIJUN
100
AcDbLine
 10
63.19552654190658
 20
78.19503679587285
 30
0.0
 11
64.08392988096796
 21
73.41381342877401
 31
0.0
  0
ARC
  5
27A5
102
{ACAD_REACTORS
330
2884
102
}
330
2
100
AcDbEntity
  8
KIJUN
100
AcDbCircle
 10
63.08289560036257
 20
74.74581089679384
 30
0.0
 40
0.3
100
AcDbArc
 50
230.5631858427044
 51
4.232403312193995
  0
LINE
  5
27A6
102
{ACAD_REACTORS
330
2884
102
}
330
2
100
AcDbEntity
  8
KIJUN
100
AcDbLine
 10
63.59417994554235
 20
73.15997509122405
 30
0.0
 11
60.76439160388975
 21
75.48743605105471
 31
0.0
  0
LINE
  5
27A7
102
{ACAD_REACTORS
330
2884
102
}
330
2
100
AcDbEntity
  8
KIJUN
100
AcDbLine
 10
57.15549993192974
 20
75.09198942947421
 30
0.0
 11
59.81666864218562
 21
72.86092815546306
 31
0.0
  0
LINE
  5
27A8
102
{ACAD_REACTORS
330
2884
102
}
330
2
100
AcDbEntity
  8
KIJUN
100
AcDbLine
 10
56.84517781868283
 20
74.5784719653119
 30
0.0
 11
60.70647409070364
 21
71.62216540336828
 31
0.0
  0
LINE
  5
27A9
102
{ACAD_REACTORS
330
2884
102
}
330
2
100
AcDbEntity
  8
KIJUN
100
AcDbLine
 10
60.26469086568534
 20
73.18274330112979
 30
0.0
 11
59.52231820260488
 21
76.88531589619731
 31
0.0
  0
LINE
  5
27AA
102
{ACAD_REACTORS
330
2884
102
}
330
2
100
AcDbEntity
  8
KIJUN
100
AcDbLine
 10
61.15449631421791
 20
71.94398054902183
 30
0.0
 11
60.48550014591739
 21
75.31623792174866
 31
0.0
  0
CIRCLE
  5
27AB
102
{ACAD_REACTORS
330
2884
102
}
330
2
100
AcDbEntity
  8
KIJUN
100
AcDbCircle
 10
69.31982077993882
 20
63.99100707398099
 30
0.0
 40
5.328236420183887
  0
LINE
  5
27AC
102
{ACAD_REACTORS
330
2884
102
}
330
2
100
AcDbEntity
  8
KIJUN
100
AcDbLine
 10
79.5159439311493
 20
63.73591288519207
 30
0.0
 11
74.59601089895489
 21
64.73392105107985
 31
0.0
  0
LINE
  5
27AD
102
{ACAD_REACTORS
330
2884
102
}
330
2
100
AcDbEntity
  8
KIJUN
100
AcDbLine
 10
78.23012744216533
 20
60.174181281512
 30
0.0
 11
74.38979967042826
 21
62.35228275325278
 31
0.0
  0
LINE
  5
27AE
102
{ACAD_REACTORS
330
2884
102
}
330
2
100
AcDbEntity
  8
KIJUN
100
AcDbLine
 10
76.95556842975668
 20
56.25949695391625
 30
0.0
 11
73.13186390936983
 21
60.46779117913217
 31
0.0
  0
LINE
  5
27AF
102
{ACAD_REACTORS
330
2884
102
}
330
2
100
AcDbEntity
  8
KIJUN
100
AcDbLine
 10
73.22992382303448
 20
54.40001332525105
 30
0.0
 11
70.81496499204888
 21
58.87684564376411
 31
0.0
  0
LINE
  5
27B0
102
{ACAD_REACTORS
330
2884
102
}
330
2
100
AcDbEntity
  8
KIJUN
100
AcDbLine
 10
65.40971773682679
 20
54.40001332525105
 30
0.0
 11
67.82467656781602
 21
58.87684564376411
 31
0.0
  0
LINE
  5
27B1
102
{ACAD_REACTORS
330
2884
102
}
330
2
100
AcDbEntity
  8
KIJUN
100
AcDbLine
 10
61.68407313010823
 20
56.25949695391625
 30
0.0
 11
65.41503195002144
 21
60.36571707963265
 31
0.0
  0
LINE
  5
27B2
102
{ACAD_REACTORS
330
2884
102
}
330
2
100
AcDbEntity
  8
KIJUN
100
AcDbLine
 10
60.40951411769686
 20
60.174181281512
 30
0.0
 11
64.24984188944939
 21
62.35228275323868
 31
0.0
  0
LINE
  5
27B3
102
{ACAD_REACTORS
330
2884
102
}
330
2
100
AcDbEntity
  8
KIJUN
100
AcDbLine
 10
59.12369762871378
 20
63.73591288519207
 30
0.0
 11
64.04363066093003
 21
64.73392105110804
 31
0.0
  0
ARC
  5
27B4
102
{ACAD_REACTORS
330
2884
102
}
330
2
100
AcDbEntity
  8
KIJUN
100
AcDbCircle
 10
77.35715431244455
 20
65.90005706466979
 30
0.0
 40
3.056778148258303
100
AcDbArc
 50
314.9290311646782
 51
73.08355009126636
  0
ARC
  5
27B5
102
{ACAD_REACTORS
330
2884
102
}
330
2
100
AcDbEntity
  8
KIJUN
100
AcDbCircle
 10
77.276181271469
 20
62.34439357481813
 30
0.0
 40
2.636828163323794
100
AcDbArc
 50
288.4238089828524
 51
31.85184943841504
  0
ARC
  5
27B6
102
{ACAD_REACTORS
330
2884
102
}
330
2
100
AcDbEntity
  8
KIJUN
100
AcDbCircle
 10
76.72771590276909
 20
58.348723699174
 30
0.0
 40
2.035051337416228
100
AcDbArc
 50
273.7339075185853
 51
47.233783366677
  0
ARC
  5
27B7
102
{ACAD_REACTORS
330
2884
102
}
330
2
100
AcDbEntity
  8
KIJUN
100
AcDbCircle
 10
61.91192565710946
 20
58.34872369918901
 30
0.0
 40
2.035051337416228
100
AcDbArc
 50
132.7662166330297
 51
266.2660924809969
  0
ARC
  5
27B8
102
{ACAD_REACTORS
330
2884
102
}
330
2
100
AcDbEntity
  8
KIJUN
100
AcDbCircle
 10
61.36346028841592
 20
62.34439357483177
 30
0.0
 40
2.636828163323794
100
AcDbArc
 50
148.1481505615849
 51
251.5761910171477
  0
ARC
  5
27B9
102
{ACAD_REACTORS
330
2884
102
}
330
2
100
AcDbEntity
  8
KIJUN
100
AcDbCircle
 10
61.28248724744764
 20
65.90005706468526
 30
0.0
 40
3.056778148258303
100
AcDbArc
 50
106.9164499087336
 51
225.0709688353218
  0
CIRCLE
  5
27BA
102
{ACAD_REACTORS
330
2884
102
}
330
2
100
AcDbEntity
  8
KIJUN
100
AcDbCircle
 10
63.2395022971715
 20
70.31708255747287
 30
0.0
 40
1.635528436020627
  0
ARC
  5
27BB
102
{ACAD_REACTORS
330
2884
102
}
330
2
100
AcDbEntity
  8
KIJUN
100
AcDbCircle
 10
63.31529200150828
 20
68.86819435498489
 30
0.0
 40
2.922582166467312
100
AcDbArc
 50
112.9463517431855
 51
248.7642316002909
  0
ARC
  5
27BC
102
{ACAD_REACTORS
330
2884
102
}
330
2
100
AcDbEntity
  8
KIJUN
100
AcDbCircle
 10
62.43781692795448
 20
66.61011068766936
 30
0.0
 40
0.5
100
AcDbArc
 50
248.7642316002909
 51
289.1146182871629
  0
ARC
  5
27BD
102
{ACAD_REACTORS
330
2884
102
}
330
2
100
AcDbEntity
  8
KIJUN
100
AcDbCircle
 10
76.20182463190861
 20
66.61011068766936
 30
0.0
 40
0.5
100
AcDbArc
 50
250.8853817128371
 51
291.2357683997091
  0
CIRCLE
  5
27BE
102
{ACAD_REACTORS
330
2884
102
}
330
2
100
AcDbEntity
  8
KIJUN
100
AcDbCircle
 10
75.4001392626916
 20
70.31708255747287
 30
0.0
 40
1.635528436020627
  0
ARC
  5
27BF
102
{ACAD_REACTORS
330
2884
102
}
330
2
100
AcDbEntity
  8
KIJUN
100
AcDbCircle
 10
75.32434955835481
 20
68.86819435498489
 30
0.0
 40
2.922582166467312
100
AcDbArc
 50
291.2357683997091
 51
67.05364825681444
  0
ARC
  5
27C0
102
{ACAD_REACTORS
330
2884
102
}
330
2
100
AcDbEntity
  8
KIJUN
100
AcDbCircle
 10
58.88169076506449
 20
75.23181009452298
 30
0.0
 40
8.200773807752602
100
AcDbArc
 50
310.7589774170373
 51
15.00512667216048
  0
ARC
  5
27C1
102
{ACAD_REACTORS
330
2884
102
}
330
2
100
AcDbEntity
  8
KIJUN
100
AcDbCircle
 10
59.42310466277842
 20
75.30890190167326
 30
0.0
 40
9.706381407833989
100
AcDbArc
 50
289.1146182871629
 51
14.90032646906932
  0
ARC
  5
27C2
102
{ACAD_REACTORS
330
2884
102
}
330
2
100
AcDbEntity
  8
KIJUN
100
AcDbCircle
 10
79.21653689708557
 20
75.30890190167326
 30
0.0
 40
9.706381407833989
100
AcDbArc
 50
165.0996735309306
 51
250.8853817128371
  0
ARC
  5
27C3
102
{ACAD_REACTORS
330
2884
102
}
330
2
100
AcDbEntity
  8
KIJUN
100
AcDbCircle
 10
79.7579507947977
 20
75.23181009452298
 30
0.0
 40
8.200773807752602
100
AcDbArc
 50
164.9948733278395
 51
229.2410225829627
  0
ARC
  5
27C4
102
{ACAD_REACTORS
330
2884
102
}
330
2
100
AcDbEntity
  8
KIJUN
100
AcDbCircle
 10
69.31982077990245
 20
77.66316524818364
 30
0.0
 40
0.5357713104993879
100
AcDbArc
 50
15.32699348859266
 51
164.6730065028096
  0
ARC
  5
27C5
102
{ACAD_REACTORS
330
2884
102
}
330
2
100
AcDbEntity
  8
KIJUN
100
AcDbCircle
 10
74.62203537176731
 20
56.25421259563371
 30
0.0
 40
2.239117440309145
100
AcDbArc
 50
230.8085992321055
 51
1.63225021406814
  0
ARC
  5
27C6
102
{ACAD_REACTORS
330
2884
102
}
330
2
100
AcDbEntity
  8
KIJUN
100
AcDbCircle
 10
64.01760618810851
 20
56.25421259565007
 30
0.0
 40
2.239117440309145
100
AcDbArc
 50
178.3677497850978
 51
309.1914007675585
  0
CIRCLE
  5
27C7
102
{ACAD_REACTORS
330
2884
102
}
330
2
100
AcDbEntity
  8
KIJUN
100
AcDbCircle
 10
113.9343796180793
 20
88.86432398031585
 30
0.0
 40
6.595054866949793
  0
ARC
  5
27C8
102
{ACAD_REACTORS
330
2884
102
}
330
2
100
AcDbEntity
  8
KIJUN
100
AcDbCircle
 10
104.5787753505884
 20
112.8509093270949
 30
0.0
 40
2.888915371591651
100
AcDbArc
 50
132.8913122679279
 51
308.7447591591323
  0
ARC
  5
27C9
102
{ACAD_REACTORS
330
2884
102
}
330
2
100
AcDbEntity
  8
KIJUN
100
AcDbCircle
 10
115.4719960504545
 20
108.0549684877577
 30
0.0
 40
14.59958511215967
100
AcDbArc
 50
9.412181436747633
 51
151.7400972380534
  0
ARC
  5
27CA
102
{ACAD_REACTORS
330
2884
102
}
330
2
100
AcDbEntity
  8
KIJUN
100
AcDbCircle
 10
119.1652823851356
 20
90.93110999643513
 30
0.0
 40
12.21165540003783
100
AcDbArc
 50
199.3416583663043
 51
83.7993257697747
  0
ARC
  5
27CB
102
{ACAD_REACTORS
330
2884
102
}
330
2
100
AcDbEntity
  8
KIJUN
100
AcDbCircle
 10
120.7748430522289
 20
92.78708548731392
 30
0.0
 40
14.47100075943748
100
AcDbArc
 50
207.9363115437744
 51
75.37720669794165
  0
ARC
  5
27CC
102
{ACAD_REACTORS
330
2884
102
}
330
2
100
AcDbEntity
  8
KIJUN
100
AcDbCircle
 10
110.1053587150273
 20
90.03229496949179
 30
0.0
 40
10.48930464283307
100
AcDbArc
 50
353.6069289106597
 51
166.0615068910673
  0
ARC
  5
27CD
102
{ACAD_REACTORS
330
2884
102
}
330
2
100
AcDbEntity
  8
KIJUN
100
AcDbCircle
 10
116.6294006044582
 20
105.9015153615577
 30
0.0
 40
11.26787695714297
100
AcDbArc
 50
31.1460722594517
 51
155.368635957571
  0
ARC
  5
27CE
102
{ACAD_REACTORS
330
2884
102
}
330
2
100
AcDbEntity
  8
KIJUN
100
AcDbCircle
 10
117.1477830156028
 20
96.79316623782179
 30
0.0
 40
17.50326721633093
100
AcDbArc
 50
58.57746356876337
 51
127.9372446486971
  0
ARC
  5
27CF
102
{ACAD_REACTORS
330
2884
102
}
330
2
100
AcDbEntity
  8
KIJUN
100
AcDbCircle
 10
122.7821842419026
 20
104.5845489415468
 30
0.0
 40
2.751405621756575
100
AcDbArc
 50
53.25801316523534
 51
213.3658257579197
  0
ARC
  5
27D0
102
{ACAD_REACTORS
330
2884
102
}
330
2
100
AcDbEntity
  8
KIJUN
100
AcDbCircle
 10
120.5585376738773
 20
109.249617492383
 30
0.0
 40
3.214110971123823
100
AcDbArc
 50
78.36689397141867
 51
267.9879456042821
  0
ARC
  5
27D1
102
{ACAD_REACTORS
330
2884
102
}
330
2
100
AcDbEntity
  8
KIJUN
100
AcDbCircle
 10
131.2575568514031
 20
124.135188695563
 30
0.0
 40
1.0
100
AcDbArc
 50
240.1811567376294
 51
337.783721019223
  0
ARC
  5
27D2
102
{ACAD_REACTORS
330
2884
102
}
330
2
100
AcDbEntity
  8
KIJUN
100
AcDbCircle
 10
83.50582215060706
 20
126.6802940248548
 30
0.0
 40
6.960647820375844
100
AcDbArc
 50
301.4908991075368
 51
356.7122717403681
  0
ARC
  5
27D3
102
{ACAD_REACTORS
330
2884
102
}
330
2
100
AcDbEntity
  8
KIJUN
100
AcDbCircle
 10
87.62128134799798
 20
119.865791905638
 30
0.0
 40
1.001264110062828
100
AcDbArc
 50
118.6115027419935
 51
304.3702954728076
  0
LINE
  5
27D4
102
{ACAD_REACTORS
330
2884
102
}
330
2
100
AcDbEntity
  8
KIJUN
100
AcDbLine
 10
93.47253524245127
 20
119.7518948219321
 30
0.0
 11
92.89637266786497
 21
119.7518948219321
 31
0.0
  0
LINE
  5
27D5
102
{ACAD_REACTORS
330
2884
102
}
330
2
100
AcDbEntity
  8
KIJUN
100
AcDbLine
 10
92.89637266786497
 20
119.7518948219321
 30
0.0
 11
93.81114001085654
 21
115.5533217074802
 31
0.0
  0
ARC
  5
27D6
102
{ACAD_REACTORS
330
2884
102
}
330
2
100
AcDbEntity
  8
KIJUN
100
AcDbCircle
 10
84.63769576381684
 20
126.883721302754
 30
0.0
 40
10.32336353139396
100
AcDbArc
 50
324.0605019602928
 51
344.3337593269954
  0
LINE
  5
27D7
102
{ACAD_REACTORS
330
2884
102
}
330
2
100
AcDbEntity
  8
KIJUN
100
AcDbLine
 10
93.47253524245127
 20
119.7518948219321
 30
0.0
 11
93.93294027046351
 21
117.0736675834149
 31
0.0
  0
LINE
  5
27D8
102
{ACAD_REACTORS
330
2884
102
}
330
2
100
AcDbEntity
  8
KIJUN
100
AcDbLine
 10
97.08132665643928
 20
115.3345318092282
 30
0.0
 11
96.39022387025319
 21
118.7023282104736
 31
0.0
  0
LINE
  5
27D9
102
{ACAD_REACTORS
330
2884
102
}
330
2
100
AcDbEntity
  8
KIJUN
100
AcDbLine
 10
100.0317765257815
 20
119.4339971996054
 30
0.0
 11
97.61908758801485
 21
115.2116412840213
 31
0.0
  0
ARC
  5
27DA
102
{ACAD_REACTORS
330
2884
102
}
330
2
100
AcDbEntity
  8
KIJUN
100
AcDbCircle
 10
97.37649867362335
 20
115.3881366624081
 30
0.0
 40
0.3
100
AcDbArc
 50
190.2930485871488
 51
323.9622660818302
  0
LINE
  5
27DB
102
{ACAD_REACTORS
330
2884
102
}
330
2
100
AcDbEntity
  8
KIJUN
100
AcDbLine
 10
97.42111383058649
 20
116.8214183444169
 30
0.0
 11
96.66955066591174
 21
120.522136356124
 31
0.0
  0
LINE
  5
27DC
102
{ACAD_REACTORS
330
2884
102
}
330
2
100
AcDbEntity
  8
KIJUN
100
AcDbLine
 10
99.54659869698218
 20
119.786987956449
 30
0.0
 11
97.95887476217751
 21
116.6985278191959
 31
0.0
  0
LINE
  5
27DD
102
{ACAD_REACTORS
330
2884
102
}
330
2
100
AcDbEntity
  8
KIJUN
100
AcDbLine
 10
94.48280241278837
 20
117.0296161919349
 30
0.0
 11
96.34609386243585
 21
120.5717845293083
 31
0.0
  0
ARC
  5
27DE
102
{ACAD_REACTORS
330
2884
102
}
330
2
100
AcDbEntity
  8
KIJUN
100
AcDbCircle
 10
96.51312095258901
 20
120.5814812860434
 30
0.0
 40
0.1673083259222354
100
AcDbArc
 50
339.2246966052172
 51
183.3225767123433
  0
LINE
  5
27DF
102
{ACAD_REACTORS
330
2884
102
}
330
2
100
AcDbEntity
  8
KIJUN
100
AcDbLine
 10
100.0317765257815
 20
119.4339971996054
 30
0.0
 11
99.54659869698218
 21
119.786987956449
 31
0.0
  0
LINE
  5
27E0
102
{ACAD_REACTORS
330
2884
102
}
330
2
100
AcDbEntity
  8
KIJUN
100
AcDbLine
 10
94.36100215339877
 20
115.5092703163945
 30
0.0
 11
96.06676706677911
 21
118.7519763835988
 31
0.0
  0
ARC
  5
27E1
102
{ACAD_REACTORS
330
2884
102
}
330
2
100
AcDbEntity
  8
KIJUN
100
AcDbCircle
 10
94.21729582266118
 20
117.1692809712803
 30
0.0
 40
0.3
100
AcDbArc
 50
198.5850072351388
 51
332.2542247052326
  0
ARC
  5
27E2
102
{ACAD_REACTORS
330
2884
102
}
330
2
100
AcDbEntity
  8
KIJUN
100
AcDbCircle
 10
96.23379415690136
 20
118.761673140364
 30
0.0
 40
0.1673083259222354
100
AcDbArc
 50
339.2246966052172
 51
183.3225767123433
  0
ARC
  5
27E3
102
{ACAD_REACTORS
330
2884
102
}
330
2
100
AcDbEntity
  8
KIJUN
100
AcDbCircle
 10
97.71628584777694
 20
116.8750231975822
 30
0.0
 40
0.3
100
AcDbArc
 50
190.2930485871488
 51
323.9622660818302
  0
ARC
  5
27E4
102
{ACAD_REACTORS
330
2884
102
}
330
2
100
AcDbEntity
  8
KIJUN
100
AcDbCircle
 10
94.09549556305421
 20
115.6489350953296
 30
0.0
 40
0.3
100
AcDbArc
 50
198.5850072351388
 51
332.2542247891457
  0
ARC
  5
27E5
102
{ACAD_REACTORS
330
2884
102
}
330
2
100
AcDbEntity
  8
KIJUN
100
AcDbCircle
 10
103.0051914006791
 20
129.8848884213165
 30
0.0
 40
10.22425714193383
100
AcDbArc
 50
214.4845977026121
 51
305.4313172823248
  0
ARC
  5
27E6
102
{ACAD_REACTORS
330
2884
102
}
330
2
100
AcDbEntity
  8
KIJUN
100
AcDbCircle
 10
107.7762650067335
 20
123.1791010827827
 30
0.0
 40
1.994389180777941
100
AcDbArc
 50
305.4313172823248
 51
239.4821712319147
  0
ARC
  5
27E7
102
{ACAD_REACTORS
330
2884
102
}
330
2
100
AcDbEntity
  8
KIJUN
100
AcDbCircle
 10
103.0051914006791
 20
129.8848884213165
 30
0.0
 40
9.224257141933835
100
AcDbArc
 50
208.1531583726557
 51
307.2827918134756
  0
ARC
  5
27E8
102
{ACAD_REACTORS
330
2884
102
}
330
2
100
AcDbEntity
  8
KIJUN
100
AcDbCircle
 10
90.36796656179205
 20
122.5985438154988
 30
0.0
 40
3.170599077310483
100
AcDbArc
 50
246.6204991665982
 51
325.9794133058881
  0
LINE
  5
27E9
102
{ACAD_REACTORS
330
2884
102
}
330
2
100
AcDbEntity
  8
KIJUN
100
AcDbLine
 10
98.32161416874544
 20
108.6848723140391
 30
0.0
 11
97.63051138256116
 21
112.0526687152841
 31
0.0
  0
LINE
  5
27EA
102
{ACAD_REACTORS
330
2884
102
}
330
2
100
AcDbEntity
  8
KIJUN
100
AcDbLine
 10
101.2720640380895
 20
112.784337704415
 30
0.0
 11
98.85937510032375
 21
108.5619817888331
 31
0.0
  0
ARC
  5
27EB
102
{ACAD_REACTORS
330
2884
102
}
330
2
100
AcDbEntity
  8
KIJUN
100
AcDbCircle
 10
98.61678618593135
 20
108.7384771672181
 30
0.0
 40
0.3
100
AcDbArc
 50
190.2930485871488
 51
323.9622660818302
  0
LINE
  5
27EC
102
{ACAD_REACTORS
330
2884
102
}
330
2
100
AcDbEntity
  8
KIJUN
100
AcDbLine
 10
98.66140134289446
 20
110.1717588492292
 30
0.0
 11
97.90983817822155
 21
113.8724768609353
 31
0.0
  0
LINE
  5
27ED
102
{ACAD_REACTORS
330
2884
102
}
330
2
100
AcDbEntity
  8
KIJUN
100
AcDbLine
 10
100.7868862092901
 20
113.1373284612599
 30
0.0
 11
99.19916227448551
 21
110.0488683240072
 31
0.0
  0
LINE
  5
27EE
102
{ACAD_REACTORS
330
2884
102
}
330
2
100
AcDbEntity
  8
KIJUN
100
AcDbLine
 10
95.72308992509636
 20
110.3799566967458
 30
0.0
 11
97.58638137474475
 21
113.9221250341169
 31
0.0
  0
ARC
  5
27EF
102
{ACAD_REACTORS
330
2884
102
}
330
2
100
AcDbEntity
  8
KIJUN
100
AcDbCircle
 10
97.75340846489791
 20
113.9318217908543
 30
0.0
 40
0.1673083259222354
100
AcDbArc
 50
339.2246966052172
 51
183.3225767123433
  0
LINE
  5
27F0
102
{ACAD_REACTORS
330
2884
102
}
330
2
100
AcDbEntity
  8
KIJUN
100
AcDbLine
 10
101.2720640380895
 20
112.784337704415
 30
0.0
 11
100.7868862092901
 21
113.1373284612599
 31
0.0
  0
LINE
  5
27F1
102
{ACAD_REACTORS
330
2884
102
}
330
2
100
AcDbEntity
  8
KIJUN
100
AcDbLine
 10
95.60128966570857
 20
108.859610821204
 30
0.0
 11
97.30705457908619
 21
112.1023168884079
 31
0.0
  0
ARC
  5
27F2
102
{ACAD_REACTORS
330
2884
102
}
330
2
100
AcDbEntity
  8
KIJUN
100
AcDbCircle
 10
95.45758333496825
 20
110.5196214760907
 30
0.0
 40
0.3
100
AcDbArc
 50
198.5850072351388
 51
332.2542247052326
  0
LINE
  5
27F3
102
{ACAD_REACTORS
330
2884
102
}
330
2
100
AcDbEntity
  8
KIJUN
100
AcDbLine
 10
94.01617132834156
 20
113.655251629515
 30
0.0
 11
95.05142752316453
 21
108.9036622122902
 31
0.0
  0
ARC
  5
27F4
102
{ACAD_REACTORS
330
2884
102
}
330
2
100
AcDbEntity
  8
KIJUN
100
AcDbCircle
 10
97.47408166920934
 20
112.1120136451749
 30
0.0
 40
0.1673083259222354
100
AcDbArc
 50
339.2246966052172
 51
183.3225767123433
  0
ARC
  5
27F5
102
{ACAD_REACTORS
330
2884
102
}
330
2
100
AcDbEntity
  8
KIJUN
100
AcDbCircle
 10
98.95657336008582
 20
110.2253637023922
 30
0.0
 40
0.3
100
AcDbArc
 50
190.2930485871488
 51
323.9622660818302
  0
LINE
  5
27F6
102
{ACAD_REACTORS
330
2884
102
}
330
2
100
AcDbEntity
  8
KIJUN
100
AcDbLine
 10
94.58488243271416
 20
113.8464784052438
 30
0.0
 11
95.17322778277151
 21
110.4240080882258
 31
0.0
  0
ARC
  5
27F7
102
{ACAD_REACTORS
330
2884
102
}
330
2
100
AcDbEntity
  8
KIJUN
100
AcDbCircle
 10
95.33578307536311
 20
108.9992756001401
 30
0.0
 40
0.3
100
AcDbArc
 50
198.5850072351388
 51
332.2542247891457
  0
LINE
  5
27F8
102
{ACAD_REACTORS
330
2884
102
}
330
2
100
AcDbEntity
  8
KIJUN
100
AcDbLine
 10
94.01617132834156
 20
113.655251629515
 30
0.0
 11
94.60048792383451
 21
113.7556995282888
 31
0.0
  0
LINE
  5
27F9
102
{ACAD_REACTORS
330
2884
102
}
330
2
100
AcDbEntity
  8
KIJUN
100
AcDbLine
 10
87.97828932761706
 20
77.57764049764489
 30
0.0
 11
87.79217056828485
 21
78.14804369487217
 31
0.0
  0
LINE
  5
27FA
102
{ACAD_REACTORS
330
2884
102
}
330
2
100
AcDbEntity
  8
KIJUN
100
AcDbLine
 10
87.70937786622665
 20
88.62813599302388
 30
0.0
 11
88.28692223632527
 21
88.49412791597785
 31
0.0
  0
ARC
  5
27FB
102
{ACAD_REACTORS
330
2884
102
}
330
2
100
AcDbEntity
  8
KIJUN
100
AcDbCircle
 10
87.12015639667072
 20
83.82477196259003
 30
0.0
 40
0.3
100
AcDbArc
 50
175.7675966886404
 51
309.4368142425796
  0
LINE
  5
27FC
102
{ACAD_REACTORS
330
2884
102
}
330
2
100
AcDbEntity
  8
KIJUN
100
AcDbLine
 10
88.30774160518478
 20
88.5838546663839
 30
0.0
 11
87.52282693830341
 21
85.20105075725167
 31
0.0
  0
LINE
  5
27FD
102
{ACAD_REACTORS
330
2884
102
}
330
2
100
AcDbEntity
  8
KIJUN
100
AcDbLine
 10
94.05972658947133
 20
85.01157116249297
 30
0.0
 11
93.7494044762235
 21
85.52508862665437
 31
0.0
  0
ARC
  5
27FE
102
{ACAD_REACTORS
330
2884
102
}
330
2
100
AcDbEntity
  8
KIJUN
100
AcDbCircle
 10
91.26141155242306
 20
87.4337787764197
 30
0.0
 40
0.1673083259222354
100
AcDbArc
 50
316.4072860578813
 51
160.5051661643903
  0
LINE
  5
27FF
102
{ACAD_REACTORS
330
2884
102
}
330
2
100
AcDbEntity
  8
KIJUN
100
AcDbLine
 10
88.01257687338068
 20
84.94721241942523
 30
0.0
 11
91.10369474756145
 21
87.48961322266669
 31
0.0
  0
ARC
  5
2800
102
{ACAD_REACTORS
330
2884
102
}
330
2
100
AcDbEntity
  8
KIJUN
100
AcDbCircle
 10
90.93307470932916
 20
83.55078608470913
 30
0.0
 40
0.3
100
AcDbArc
 50
167.4756380399726
 51
301.1448555345958
  0
ARC
  5
2801
102
{ACAD_REACTORS
330
2884
102
}
330
2
100
AcDbEntity
  8
KIJUN
100
AcDbCircle
 10
90.29822960912417
 20
85.86470080197106
 30
0.0
 40
0.1673083259222354
100
AcDbArc
 50
316.4072860578813
 51
160.5051661643903
  0
LINE
  5
2802
102
{ACAD_REACTORS
330
2884
102
}
330
2
100
AcDbEntity
  8
KIJUN
100
AcDbLine
 10
87.70937786622665
 20
88.62813599302388
 30
0.0
 11
86.82097452719256
 21
83.84691262591093
 31
0.0
  0
ARC
  5
2803
102
{ACAD_REACTORS
330
2884
102
}
330
2
100
AcDbEntity
  8
KIJUN
100
AcDbCircle
 10
87.82200880778976
 20
85.17891009394487
 30
0.0
 40
0.3
100
AcDbArc
 50
175.7675966886404
 51
309.4368141576327
  0
LINE
  5
2804
102
{ACAD_REACTORS
330
2884
102
}
330
2
100
AcDbEntity
  8
KIJUN
100
AcDbLine
 10
87.31072446261725
 20
83.59307428836007
 30
0.0
 11
90.14051280425622
 21
85.92053524820531
 31
0.0
  0
LINE
  5
2805
102
{ACAD_REACTORS
330
2884
102
}
330
2
100
AcDbEntity
  8
KIJUN
100
AcDbLine
 10
93.7494044762235
 20
85.52508862665437
 30
0.0
 11
91.08823576597671
 21
83.29402735262911
 31
0.0
  0
LINE
  5
2806
102
{ACAD_REACTORS
330
2884
102
}
330
2
100
AcDbEntity
  8
KIJUN
100
AcDbLine
 10
90.64021354247518
 20
83.61584249829631
 30
0.0
 11
91.38258620553381
 21
87.318415093362
 31
0.0
  0
ARC
  5
2807
102
{ACAD_REACTORS
330
2884
102
}
330
2
100
AcDbEntity
  8
KIJUN
100
AcDbCircle
 10
90.04326926081843
 20
82.31202333261391
 30
0.0
 40
0.3
100
AcDbArc
 50
167.4756380399726
 51
301.1448555345958
  0
LINE
  5
2808
102
{ACAD_REACTORS
330
2884
102
}
330
2
100
AcDbEntity
  8
KIJUN
100
AcDbLine
 10
94.05972658947133
 20
85.01157116249297
 30
0.0
 11
90.19843031746324
 21
82.05526460051888
 31
0.0
  0
LINE
  5
2809
102
{ACAD_REACTORS
330
2884
102
}
330
2
100
AcDbEntity
  8
KIJUN
100
AcDbLine
 10
89.75040809394897
 20
82.37707974617197
 30
0.0
 11
90.41940426222856
 21
85.74933711890109
 31
0.0
  0
LINE
  5
280A
102
{ACAD_REACTORS
330
2884
102
}
330
2
100
AcDbEntity
  8
KIJUN
100
AcDbLine
 10
91.5640059753888
 20
96.44026478791275
 30
0.0
 11
92.14852289060411
 21
96.34098921206387
 31
0.0
  0
ARC
  5
280B
102
{ACAD_REACTORS
330
2884
102
}
330
2
100
AcDbEntity
  8
KIJUN
100
AcDbCircle
 10
91.26271264659875
 20
91.61028442781699
 30
0.0
 40
0.3
100
AcDbArc
 50
179.1915700799988
 51
312.8607876343817
  0
LINE
  5
280C
102
{ACAD_REACTORS
330
2884
102
}
330
2
100
AcDbEntity
  8
KIJUN
100
AcDbLine
 10
92.16394625074746
 20
96.43179921051606
 30
0.0
 11
91.58246745273492
 21
93.00815557701154
 31
0.0
  0
ARC
  5
280D
102
{ACAD_REACTORS
330
2884
102
}
330
2
100
AcDbEntity
  8
KIJUN
100
AcDbCircle
 10
95.08518816282151
 20
91.56451054568917
 30
0.0
 40
0.3
100
AcDbArc
 50
170.8996114315731
 51
304.5688289263765
  0
ARC
  5
280E
102
{ACAD_REACTORS
330
2884
102
}
330
2
100
AcDbEntity
  8
KIJUN
100
AcDbCircle
 10
94.31327995796449
 20
93.83637923541702
 30
0.0
 40
0.1673083259222354
100
AcDbArc
 50
319.8312594501372
 51
163.9291395566385
  0
LINE
  5
280F
102
{ACAD_REACTORS
330
2884
102
}
330
2
100
AcDbEntity
  8
KIJUN
100
AcDbLine
 10
91.5640059753888
 20
96.44026478791275
 30
0.0
 11
90.96274250892486
 21
91.61451721653694
 31
0.0
  0
ARC
  5
2810
102
{ACAD_REACTORS
330
2884
102
}
330
2
100
AcDbEntity
  8
KIJUN
100
AcDbCircle
 10
91.88243759041791
 20
93.00392278829113
 30
0.0
 40
0.3
100
AcDbArc
 50
179.1915700799988
 51
312.8607875497211
  0
LINE
  5
2811
102
{ACAD_REACTORS
330
2884
102
}
330
2
100
AcDbEntity
  8
KIJUN
100
AcDbLine
 10
91.46677845709575
 20
91.39038184715483
 30
0.0
 11
94.15251003020523
 21
93.88269452722752
 31
0.0
  0
LINE
  5
2812
102
{ACAD_REACTORS
330
2884
102
}
330
2
100
AcDbEntity
  8
KIJUN
100
AcDbLine
 10
98.11901474170383
 20
93.20942431616586
 30
0.0
 11
97.77857723549471
 21
93.70349142128125
 31
0.0
  0
ARC
  5
2813
102
{ACAD_REACTORS
330
2884
102
}
330
2
100
AcDbEntity
  8
KIJUN
100
AcDbCircle
 10
95.18103086420444
 20
95.46018141257391
 30
0.0
 40
0.1673083259222354
100
AcDbArc
 50
319.8312594501372
 51
163.9291395566385
  0
LINE
  5
2814
102
{ACAD_REACTORS
330
2884
102
}
330
2
100
AcDbEntity
  8
KIJUN
100
AcDbLine
 10
92.08650340056568
 20
92.78402020730974
 30
0.0
 11
95.02026093643065
 21
95.50649670441172
 31
0.0
  0
LINE
  5
2815
102
{ACAD_REACTORS
330
2884
102
}
330
2
100
AcDbEntity
  8
KIJUN
100
AcDbLine
 10
97.77857723549471
 20
93.70349142128125
 30
0.0
 11
95.25540691594063
 21
91.31747699314601
 31
0.0
  0
LINE
  5
2816
102
{ACAD_REACTORS
330
2884
102
}
330
2
100
AcDbEntity
  8
KIJUN
100
AcDbLine
 10
94.78896434257615
 20
91.61195997481527
 30
0.0
 11
95.30887919753434
 21
95.35226070286709
 31
0.0
  0
ARC
  5
2817
102
{ACAD_REACTORS
330
2884
102
}
330
2
100
AcDbEntity
  8
KIJUN
100
AcDbCircle
 10
94.27095500721327
 20
90.27481629490912
 30
0.0
 40
0.3
100
AcDbArc
 50
170.8996114315731
 51
304.5688289263765
  0
LINE
  5
2818
102
{ACAD_REACTORS
330
2884
102
}
330
2
100
AcDbEntity
  8
KIJUN
100
AcDbLine
 10
98.11901474170383
 20
93.20942431616586
 30
0.0
 11
94.44117376031783
 21
90.0277827423819
 31
0.0
  0
LINE
  5
2819
102
{ACAD_REACTORS
330
2884
102
}
330
2
100
AcDbEntity
  8
KIJUN
100
AcDbLine
 10
93.97473118695335
 20
90.32226572400706
 30
0.0
 11
94.44112829130165
 21
93.72845852571018
 31
0.0
  0
LINE
  5
281A
102
{ACAD_REACTORS
330
2884
102
}
330
2
100
AcDbEntity
  8
KIJUN
100
AcDbLine
 10
96.00265857191983
 20
99.76895785521984
 30
0.0
 11
96.46905567626811
 21
103.175150656937
 31
0.0
  0
LINE
  5
281B
102
{ACAD_REACTORS
330
2884
102
}
330
2
100
AcDbEntity
  8
KIJUN
100
AcDbLine
 10
100.1469421266703
 20
102.6561164473927
 30
0.0
 11
96.46910114529157
 21
99.47447487360742
 31
0.0
  0
ARC
  5
281C
102
{ACAD_REACTORS
330
2884
102
}
330
2
100
AcDbEntity
  8
KIJUN
100
AcDbCircle
 10
96.29888239217974
 20
99.72150842613601
 30
0.0
 40
0.3
100
AcDbArc
 50
170.8996114315731
 51
304.5688289263765
  0
LINE
  5
281D
102
{ACAD_REACTORS
330
2884
102
}
330
2
100
AcDbEntity
  8
KIJUN
100
AcDbLine
 10
96.81689172754261
 20
101.0586521060421
 30
0.0
 11
97.33680658249989
 21
104.7989528340939
 31
0.0
  0
LINE
  5
281E
102
{ACAD_REACTORS
330
2884
102
}
330
2
100
AcDbEntity
  8
KIJUN
100
AcDbLine
 10
99.80650462045936
 20
103.1501835525086
 30
0.0
 11
97.28333430091437
 21
100.7641691243729
 31
0.0
  0
LINE
  5
281F
102
{ACAD_REACTORS
330
2884
102
}
330
2
100
AcDbEntity
  8
KIJUN
100
AcDbLine
 10
94.11443078553849
 20
102.2307123385348
 30
0.0
 11
97.04818832140439
 21
104.9531888356399
 31
0.0
  0
ARC
  5
2820
102
{ACAD_REACTORS
330
2884
102
}
330
2
100
AcDbEntity
  8
KIJUN
100
AcDbCircle
 10
97.20895824917091
 20
104.9068735438008
 30
0.0
 40
0.1673083259222354
100
AcDbArc
 50
319.8312594501372
 51
163.9291395566385
  0
LINE
  5
2821
102
{ACAD_REACTORS
330
2884
102
}
330
2
100
AcDbEntity
  8
KIJUN
100
AcDbLine
 10
100.1469421266703
 20
102.6561164473927
 30
0.0
 11
99.80650462045936
 21
103.1501835525086
 31
0.0
  0
LINE
  5
2822
102
{ACAD_REACTORS
330
2884
102
}
330
2
100
AcDbEntity
  8
KIJUN
100
AcDbLine
 10
93.49470584206859
 20
100.8370739783808
 30
0.0
 11
96.18043741517169
 21
103.329386658453
 31
0.0
  0
ARC
  5
2823
102
{ACAD_REACTORS
330
2884
102
}
330
2
100
AcDbEntity
  8
KIJUN
100
AcDbCircle
 10
93.91036497538436
 20
102.4506149195194
 30
0.0
 40
0.3
100
AcDbArc
 50
179.1915700799988
 51
312.8607875497211
  0
LINE
  5
2824
102
{ACAD_REACTORS
330
2884
102
}
330
2
100
AcDbEntity
  8
KIJUN
100
AcDbLine
 10
93.59193336035344
 20
105.8869569191401
 30
0.0
 11
92.99066989388951
 21
101.0612093477492
 31
0.0
  0
ARC
  5
2825
102
{ACAD_REACTORS
330
2884
102
}
330
2
100
AcDbEntity
  8
KIJUN
100
AcDbCircle
 10
96.34120734293004
 20
103.2830713666434
 30
0.0
 40
0.1673083259222354
100
AcDbArc
 50
319.8312594501372
 51
163.9291395566385
  0
ARC
  5
2826
102
{ACAD_REACTORS
330
2884
102
}
330
2
100
AcDbEntity
  8
KIJUN
100
AcDbCircle
 10
97.11311554779525
 20
101.011202676916
 30
0.0
 40
0.3
100
AcDbArc
 50
170.8996114315731
 51
304.5688289263765
  0
LINE
  5
2827
102
{ACAD_REACTORS
330
2884
102
}
330
2
100
AcDbEntity
  8
KIJUN
100
AcDbLine
 10
94.19187363571394
 20
105.8784913417429
 30
0.0
 11
93.6103948377014
 21
102.4548477082379
 31
0.0
  0
ARC
  5
2828
102
{ACAD_REACTORS
330
2884
102
}
330
2
100
AcDbEntity
  8
KIJUN
100
AcDbCircle
 10
93.2906400315643
 20
101.0569765590439
 30
0.0
 40
0.3
100
AcDbArc
 50
179.1915700799988
 51
312.8607876343817
  0
LINE
  5
2829
102
{ACAD_REACTORS
330
2884
102
}
330
2
100
AcDbEntity
  8
KIJUN
100
AcDbLine
 10
93.59193336035344
 20
105.8869569191401
 30
0.0
 11
94.1764502755724
 21
105.7876813432912
 31
0.0
  0
ARC
  5
282A
102
{ACAD_REACTORS
330
2884
102
}
330
2
100
AcDbEntity
  8
KIJUN
100
AcDbCircle
 10
148.1858482554772
 20
99.54708470019605
 30
0.0
 40
7.316068912745846
100
AcDbArc
 50
320.0548783500982
 51
193.7243264082344
  0
CIRCLE
  5
282B
102
{ACAD_REACTORS
330
2884
102
}
330
2
100
AcDbEntity
  8
KIJUN
100
AcDbCircle
 10
151.9560392997256
 20
96.64426613090737
 30
0.0
 40
2.569275211353668
  0
ARC
  5
282C
102
{ACAD_REACTORS
330
2884
102
}
330
2
100
AcDbEntity
  8
KIJUN
100
AcDbCircle
 10
148.1275215876913
 20
95.95763053556803
 30
0.0
 40
6.218767804163621
100
AcDbArc
 50
22.82784802012086
 51
186.6957311150653
  0
ARC
  5
282D
102
{ACAD_REACTORS
330
2884
102
}
330
2
100
AcDbEntity
  8
KIJUN
100
AcDbCircle
 10
147.2907571518027
 20
94.95128084696981
 30
0.0
 40
5.475280810311713
100
AcDbArc
 50
47.89416350637497
 51
169.4088958886958
  0
DIMENSION
  5
282F
330
2
100
AcDbEntity
  8
SUNPOU
100
AcDbDimension
  2
*D30
 10
244.3198207799325
 20
207.2662447325473
 30
0.0
 11
69.31982077993154
 21
215.2662447325473
 31
0.0
 70
    32
 71
     5
 42
350.0000000000018
  3
STANDARD
100
AcDbAlignedDimension
 13
-105.6801792200693
 23
144.0269531020411
 33
0.0
 14
244.3198207799325
 24
144.0269531020557
 34
0.0
100
AcDbRotatedDimension
1001
ACAD
1000
DSTYLE
1002
{
1070
    41
1040
2.0
1070
    42
1040
10.0
1070
    44
1040
0.0
1070
    73
1070
     0
1070
    74
1070
     0
1070
    77
1070
     1
1070
   140
1040
10.0
1070
   141
1040
0.0
1070
   146
1040
0.064286
1070
   147
1040
3.0
1070
   176
1070
    60
1070
   177
1070
    70
1070
   178
1070
    60
1070
   271
1070
     0
1070
   272
1070
     0
1070
   340
1005
1C
1070
   342
1005
109
1002
}
  0
ARC
  5
2842
102
{ACAD_REACTORS
330
2884
102
}
330
2
100
AcDbEntity
  8
KIJUN
100
AcDbCircle
 10
69.31982077993993
 20
55.84227269719566
 30
0.0
 40
4.106404663534712
100
AcDbArc
 50
198.8016337884786
 51
341.1983662113438
  0
DIMENSION
  5
2843
330
2
100
AcDbEntity
  8
SUNPOU
100
AcDbDimension
  2
*D31
 10
-138.208073651026
 20
51.73586803366101
 30
0.0
 11
-146.208073651026
 21
104.235868033661
 31
0.0
 70
    32
 71
     5
 42
105.0
  3
STANDARD
100
AcDbAlignedDimension
 13
-49.62732378989028
 23
156.7358680336609
 33
0.0
 14
69.31982077993993
 24
51.73586803366095
 34
0.0
 50
90.0
100
AcDbRotatedDimension
1001
ACAD
1000
DSTYLE
1002
{
1070
    41
1040
2.0
1070
    42
1040
10.0
1070
    44
1040
0.0
1070
    73
1070
     0
1070
    74
1070
     0
1070
    77
1070
     1
1070
   140
1040
10.0
1070
   141
1040
0.0
1070
   146
1040
0.064286
1070
   147
1040
3.0
1070
   176
1070
    60
1070
   177
1070
    70
1070
   178
1070
    60
1070
   271
1070
     0
1070
   272
1070
     0
1070
   340
1005
1C
1070
   342
1005
109
1002
}
  0
LINE
  5
2875
102
{ACAD_REACTORS
330
2884
102
}
330
2
100
AcDbEntity
  8
KIJUN
100
AcDbLine
 10
48.55395860540932
 20
125.9058957238111
 30
0.0
 11
48.29785762798213
 21
125.3687130688444
 31
0.0
  0
ARC
  5
2876
102
{ACAD_REACTORS
330
2884
102
}
330
2
100
AcDbEntity
  8
KIJUN
100
AcDbCircle
 10
88.19738270573605
 20
109.8277423422143
 30
0.0
 40
43.04697499266189
100
AcDbArc
 50
166.2596465695415
 51
205.8982088823532
  0
ARC
  5
287E
102
{ACAD_REACTORS
330
2884
102
}
330
2
100
AcDbEntity
  8
KIJUN
100
AcDbCircle
 10
74.63133692917454
 20
103.521401399182
 30
0.0
 40
28.0900370565101
100
AcDbArc
 50
206.4128111824379
 51
233.6477931043196
  0
ARC
  5
287F
102
{ACAD_REACTORS
330
2884
102
}
330
2
100
AcDbEntity
  8
KIJUN
100
AcDbCircle
 10
69.61306601765874
 20
97.10663570938626
 30
0.0
 40
19.95052749046154
100
AcDbArc
 50
234.3351191817509
 51
261.902411028392
  0
LINE
  5
2880
102
{ACAD_REACTORS
330
2884
102
}
330
2
100
AcDbEntity
  8
KIJUN
100
AcDbLine
 10
90.08568295446833
 20
125.9058957238111
 30
0.0
 11
90.34178393189552
 21
125.3687130688444
 31
0.0
  0
ARC
  5
2881
102
{ACAD_REACTORS
330
2884
102
}
330
2
100
AcDbEntity
  8
KIJUN
100
AcDbCircle
 10
50.4422588541416
 20
109.8277423422143
 30
0.0
 40
43.04697499266189
100
AcDbArc
 50
334.1017911176469
 51
13.7403534304587
  0
ARC
  5
2882
102
{ACAD_REACTORS
330
2884
102
}
330
2
100
AcDbEntity
  8
KIJUN
100
AcDbCircle
 10
64.00830463070311
 20
103.521401399182
 30
0.0
 40
28.0900370565101
100
AcDbArc
 50
306.3522068956809
 51
333.5871888175625
  0
ARC
  5
2883
102
{ACAD_REACTORS
330
2884
102
}
330
2
100
AcDbEntity
  8
KIJUN
100
AcDbCircle
 10
69.02657554221891
 20
97.10663570938626
 30
0.0
 40
19.95052749046154
100
AcDbArc
 50
278.0975889716072
 51
305.6648808182492
  0
ENDSEC
  0
SECTION
  2
OBJECTS
  0
DICTIONARY
  5
1A
330
0
100
AcDbDictionary
281
     1
  3
ACAD_COLOR
350
144
  3
ACAD_GROUP
350
18
  3
ACAD_LAYOUT
350
58
  3
ACAD_MATERIAL
350
143
  3
ACAD_MLINESTYLE
350
19
  3
ACAD_PLOTSETTINGS
350
59
  3
ACAD_PLOTSTYLENAME
350
56
  3
ACAD_TABLESTYLE
350
145
  3
ACDBHEADERROUNDTRIPXREC
350
288C
  3
AcDbVariableDictionary
350
1D1
  0
DICTIONARY
  5
1B4
330
A
100
AcDbDictionary
280
     1
281
     1
  3
ACAD_LAYERFILTERS
360
1C2
  3
ACLYDICTIONARY
360
1C1
  0
DICTIONARY
  5
1578
330
2
100
AcDbDictionary
280
     1
281
     1
  3
ACAD_SORTENTS
360
1579
  0
DICTIONARY
  5
144
102
{ACAD_REACTORS
330
1A
102
}
330
1A
100
AcDbDictionary
281
     1
  0
DICTIONARY
  5
18
102
{ACAD_REACTORS
330
1A
102
}
330
1A
100
AcDbDictionary
281
     1
  3
*A1
350
CFC
  3
*A10
350
1F8A
  3
*A11
350
2108
  3
*A12
350
2884
  3
*A2
350
218C
  3
*A3
350
2335
  3
*A5
350
15D1
  3
*A6
350
1682
  3
*A7
350
1827
  3
*A8
350
18ED
  3
*A9
350
19E5
  0
DICTIONARY
  5
58
102
{ACAD_REACTORS
330
1A
102
}
330
1A
100
AcDbDictionary
281
     1
  3
Model
350
5A
  3
ﾚｲｱｳﾄ1
350
5B
  0
DICTIONARY
  5
143
102
{ACAD_REACTORS
330
1A
102
}
330
1A
100
AcDbDictionary
281
     1
  0
DICTIONARY
  5
19
102
{ACAD_REACTORS
330
1A
102
}
330
1A
100
AcDbDictionary
281
     1
  3
STANDARD
350
1D
  0
DICTIONARY
  5
59
102
{ACAD_REACTORS
330
1A
102
}
330
1A
100
AcDbDictionary
281
     1
  0
ACDBDICTIONARYWDFLT
  5
56
102
{ACAD_REACTORS
330
1A
102
}
330
1A
100
AcDbDictionary
281
     1
  3
Normal
350
57
100
AcDbDictionaryWithDefault
340
57
  0
DICTIONARY
  5
145
102
{ACAD_REACTORS
330
1A
102
}
330
1A
100
AcDbDictionary
281
     1
  3
Standard
350
146
  0
DICTIONARY
  5
288C
102
{ACAD_REACTORS
330
1A
102
}
330
1A
100
AcDbDictionary
281
     1
  0
DICTIONARY
  5
1D1
102
{ACAD_REACTORS
330
1A
102
}
330
1A
100
AcDbDictionary
281
     1
  3
CTABLESTYLE
350
1D2
  3
DIMASSOC
350
D03
  3
PROJECTNAME
350
D04
  0
DICTIONARY
  5
1C2
102
{ACAD_REACTORS
330
1B4
102
}
330
1B4
100
AcDbDictionary
281
     1
  0
DICTIONARY
  5
1C1
102
{ACAD_REACTORS
330
1B4
102
}
330
1B4
100
AcDbDictionary
281
     1
1001
ACAD
1000
<All
  0
SORTENTSTABLE
  5
1579
102
{ACAD_REACTORS
330
1578
102
}
330
1578
100
AcDbSortentsTable
330
2
331
20
  5
20
331
21
  5
21
331
23
  5
23
331
1F
  5
1F
  0
GROUP
  5
CFC
102
{ACAD_REACTORS
330
18
102
}
330
18
100
AcDbGroup
300

 70
     1
 71
     1
  0
GROUP
  5
1F8A
102
{ACAD_REACTORS
330
18
102
}
330
18
100
AcDbGroup
300

 70
     1
 71
     1
  0
GROUP
  5
2108
102
{ACAD_REACTORS
330
18
102
}
330
18
100
AcDbGroup
300

 70
     1
 71
     1
  0
GROUP
  5
2884
102
{ACAD_REACTORS
330
18
102
}
330
18
100
AcDbGroup
300

 70
     1
 71
     1
340
2883
340
2882
340
2881
340
2880
340
287F
340
287E
340
2876
340
2875
340
2842
340
282D
340
282C
340
282B
340
282A
340
2829
340
2828
340
2827
340
2826
340
2825
340
2824
340
2823
340
2822
340
2821
340
2820
340
281F
340
281E
340
281D
340
281C
340
281B
340
281A
340
2819
340
2818
340
2817
340
2816
340
2815
340
2814
340
2813
340
2812
340
2811
340
2810
340
280F
340
280E
340
280D
340
280C
340
280B
340
280A
340
2809
340
2808
340
2807
340
2806
340
2805
340
2804
340
2803
340
2802
340
2801
340
2800
340
27FF
340
27FE
340
27FD
340
27FC
340
27FB
340
27FA
340
27F9
340
27F8
340
27F7
340
27F6
340
27F5
340
27F4
340
27F3
340
27F2
340
27F1
340
27F0
340
27EF
340
27EE
340
27ED
340
27EC
340
27EB
340
27EA
340
27E9
340
27E8
340
27E7
340
27E6
340
27E5
340
27E4
340
27E3
340
27E2
340
27E1
340
27E0
340
27DF
340
27DE
340
27DD
340
27DC
340
27DB
340
27DA
340
27D9
340
27D8
340
27D7
340
27D6
340
27D5
340
27D4
340
27D3
340
27D2
340
27D1
340
27D0
340
27CF
340
27CE
340
27CD
340
27CC
340
27CB
340
27CA
340
27C9
340
27C8
340
27C7
340
27C6
340
27C5
340
27C4
340
27C3
340
27C2
340
27C1
340
27C0
340
27BF
340
27BE
340
27BD
340
27BC
340
27BB
340
27BA
340
27B9
340
27B8
340
27B7
340
27B6
340
27B5
340
27B4
340
27B3
340
27B2
340
27B1
340
27B0
340
27AF
340
27AE
340
27AD
340
27AC
340
27AB
340
27AA
340
27A9
340
27A8
340
27A7
340
27A6
340
27A5
340
27A4
340
27A3
340
27A2
340
27A1
340
27A0
340
279F
340
279E
340
279D
340
279C
340
279B
340
279A
340
2799
340
2798
340
2797
340
2796
340
2795
340
2794
340
2793
340
2792
340
2791
340
2790
340
278F
340
278E
340
278D
340
278C
340
278B
340
278A
340
2789
340
2788
340
2787
340
2786
340
2785
340
2784
340
2783
340
2782
340
2781
340
2780
340
277F
340
277E
340
277D
340
277C
340
277B
340
277A
340
2779
340
2778
340
2777
340
2776
340
2775
340
2774
340
2773
340
2772
340
2771
340
2770
340
276F
340
276E
340
276D
340
276C
340
276B
340
276A
340
2769
340
2768
340
2767
340
2766
340
2765
340
2764
340
2763
340
2762
340
2761
340
2760
340
275F
340
275E
340
275D
340
275C
340
275B
340
275A
340
2759
340
2758
340
2757
340
2756
340
2755
340
2754
340
2753
340
2752
340
2751
340
2750
340
274F
340
274E
340
274D
340
274C
340
274B
340
274A
340
2749
340
2748
340
2747
340
2746
340
2745
340
2744
340
2743
340
2742
340
2741
340
2740
340
273F
340
273E
340
273D
340
273C
340
273B
340
273A
340
2739
340
2738
340
2737
340
2736
340
2735
340
2734
340
2733
340
2732
340
2731
340
2730
340
272F
340
272E
340
272D
340
272C
340
272B
340
272A
340
2729
340
2728
340
2727
340
2726
340
2725
340
2724
340
2723
340
2722
340
2721
340
2720
340
271F
340
271E
340
271D
340
271C
340
271B
340
271A
340
2719
340
2718
340
2717
340
2716
340
2715
340
2714
340
2711
340
2710
340
270F
340
270E
340
270D
340
270B
340
270A
340
2709
340
2708
340
2707
340
2706
340
2705
340
2704
340
2703
340
2702
340
2701
340
2700
340
26FF
340
26FE
340
26FD
340
26FC
340
26FB
340
26FA
340
26F9
340
26F8
340
26F7
340
26F6
340
26F5
340
26F4
340
26F3
340
26F2
340
26F1
340
26F0
340
26EF
340
26EE
340
26ED
340
26EC
340
26EB
340
26EA
340
26E9
340
26E8
340
26E7
340
26E6
340
26E5
340
26E4
340
26E3
340
26E2
340
26E1
340
26E0
340
26DF
340
26DE
340
26DD
340
26DC
340
26DB
340
26DA
340
26D9
340
26D8
340
26D7
340
26D6
340
26D5
340
26D4
340
26D3
340
26D2
340
26D1
340
26D0
340
26CF
340
26CE
340
26CD
340
26CC
340
26CB
340
26CA
340
26C9
340
26C8
340
26C7
340
26C6
340
26C5
340
26C4
340
26C3
340
26C2
340
26C1
340
26C0
340
26BF
340
26BE
340
26BD
340
26BC
340
26BB
340
26BA
340
26B9
340
26B8
340
26B7
340
26B6
340
26B5
340
26B4
340
26B3
340
26B2
340
26B1
340
26B0
340
26AF
340
26AE
340
26AD
340
26AC
340
26AB
340
26AA
340
26A9
340
26A8
340
26A7
340
26A6
340
26A5
340
26A4
340
26A3
340
26A2
340
26A1
340
26A0
340
269F
340
269E
340
269D
340
269C
340
269B
340
269A
340
2699
340
2697
340
2696
340
2695
340
2694
340
2693
340
2692
340
2691
340
2690
340
268F
340
268E
340
268D
340
268C
340
268B
340
268A
340
2689
340
2688
340
2687
340
2686
340
2685
340
2684
340
2683
340
2682
340
2681
340
2680
340
267F
340
267E
340
267D
340
267C
340
267B
340
267A
340
2679
340
2678
340
2677
340
2676
340
2675
340
2674
340
2673
340
2672
340
2671
340
2670
340
266F
340
2668
340
2667
340
2666
  0
GROUP
  5
218C
102
{ACAD_REACTORS
330
18
102
}
330
18
100
AcDbGroup
300

 70
     1
 71
     1
  0
GROUP
  5
2335
102
{ACAD_REACTORS
330
18
102
}
330
18
100
AcDbGroup
300

 70
     1
 71
     1
  0
GROUP
  5
15D1
102
{ACAD_REACTORS
330
18
102
}
330
18
100
AcDbGroup
300

 70
     1
 71
     1
  0
GROUP
  5
1682
102
{ACAD_REACTORS
330
18
102
}
330
18
100
AcDbGroup
300

 70
     1
 71
     1
  0
GROUP
  5
1827
102
{ACAD_REACTORS
330
18
102
}
330
18
100
AcDbGroup
300

 70
     1
 71
     1
  0
GROUP
  5
18ED
102
{ACAD_REACTORS
330
18
102
}
330
18
100
AcDbGroup
300

 70
     1
 71
     1
  0
GROUP
  5
19E5
102
{ACAD_REACTORS
330
18
102
}
330
18
100
AcDbGroup
300

 70
     1
 71
     1
  0
LAYOUT
  5
5A
102
{ACAD_XDICTIONARY
360
288D
102
}
102
{ACAD_REACTORS
330
58
102
}
330
58
100
AcDbPlotSettings
  1

  2
なし
  4

  6

 40
0.0
 41
0.0
 42
0.0
 43
0.0
 44
0.0
 45
0.0
 46
0.0
 47
0.0
 48
0.0
 49
0.0
140
0.0
141
0.0
142
1.0
143
1.0
 70
  1712
 72
     0
 73
     0
 74
     0
  7
monochrome.ctb
 75
     0
147
1.0
148
0.0
149
0.0
100
AcDbLayout
  1
Model
 70
     1
 71
     0
 10
0.0
 20
0.0
 11
12.0
 21
9.0
 12
0.0
 22
0.0
 32
0.0
 14
0.0
 24
0.0
 34
0.0
 15
0.0
 25
0.0
 35
0.0
146
0.0
 13
0.0
 23
0.0
 33
0.0
 16
1.0
 26
0.0
 36
0.0
 17
0.0
 27
1.0
 37
0.0
 76
     0
330
2
  0
LAYOUT
  5
5B
102
{ACAD_XDICTIONARY
360
288F
102
}
102
{ACAD_REACTORS
330
58
102
}
330
58
100
AcDbPlotSettings
  1

  2
なし
  4

  6

 40
0.0
 41
0.0
 42
0.0
 43
0.0
 44
0.0
 45
0.0
 46
0.0
 47
0.0
 48
0.0
 49
0.0
140
0.0
141
0.0
142
1.0
143
1.0
 70
   688
 72
     0
 73
     0
 74
     5
  7
monochrome.ctb
 75
    16
147
1.0
148
0.0
149
0.0
100
AcDbLayout
  1
ﾚｲｱｳﾄ1
 70
     1
 71
     1
 10
0.0
 20
0.0
 11
12.0
 21
9.0
 12
0.0
 22
0.0
 32
0.0
 14
1.000000000000000E+20
 24
1.000000000000000E+20
 34
1.000000000000000E+20
 15
-1.000000000000000E+20
 25
-1.000000000000000E+20
 35
-1.000000000000000E+20
146
0.0
 13
0.0
 23
0.0
 33
0.0
 16
1.0
 26
0.0
 36
0.0
 17
0.0
 27
1.0
 37
0.0
 76
     0
330
7
  0
MLINESTYLE
  5
1D
102
{ACAD_REACTORS
330
19
102
}
330
19
100
AcDbMlineStyle
  2
STANDARD
 70
     0
  3

 62
   256
 51
90.0
 52
90.0
 71
     2
 49
0.5
 62
   256
  6
BYLAYER
 49
-0.5
 62
   256
  6
BYLAYER
  0
ACDBPLACEHOLDER
  5
57
102
{ACAD_REACTORS
330
56
102
}
330
56
  0
TABLESTYLE
  5
146
102
{ACAD_REACTORS
330
145
102
}
330
145
100
AcDbTableStyle
  3
Standard
 70
     0
 71
     0
 40
0.06
 41
0.06
280
     0
281
     0
  7
STANDARD
140
0.18
170
     2
 62
     0
 63
     7
283
     0
274
    -2
284
     1
 64
     0
275
    -2
285
     1
 65
     0
276
    -2
286
     1
 66
     0
277
    -2
287
     1
 67
     0
278
    -2
288
     1
 68
     0
279
    -2
289
     1
 69
     0
  7
STANDARD
140
0.25
170
     5
 62
     0
 63
     7
283
     0
274
    -2
284
     1
 64
     0
275
    -2
285
     1
 65
     0
276
    -2
286
     1
 66
     0
277
    -2
287
     1
 67
     0
278
    -2
288
     1
 68
     0
279
    -2
289
     1
 69
     0
  7
STANDARD
140
0.18
170
     5
 62
     0
 63
     7
283
     0
274
    -2
284
     1
 64
     0
275
    -2
285
     1
 65
     0
276
    -2
286
     1
 66
     0
277
    -2
287
     1
 67
     0
278
    -2
288
     1
 68
     0
279
    -2
289
     1
 69
     0
  0
DICTIONARYVAR
  5
1D2
102
{ACAD_REACTORS
330
1D1
102
}
330
1D1
100
DictionaryVariables
280
     0
  1
STANDARD
  0
DICTIONARYVAR
  5
D03
102
{ACAD_REACTORS
330
1D1
102
}
330
1D1
100
DictionaryVariables
280
     0
  1
1
  0
DICTIONARYVAR
  5
D04
102
{ACAD_REACTORS
330
1D1
102
}
330
1D1
100
DictionaryVariables
280
     0
  1

  0
DICTIONARY
  5
288D
330
5A
100
AcDbDictionary
280
     1
281
     1
  3
ACAD_XREC_ROUNDTRIP
360
288E
  0
DICTIONARY
  5
288F
330
5B
100
AcDbDictionary
280
     1
281
     1
  3
ACAD_XREC_ROUNDTRIP
360
2890
  0
XRECORD
  5
288E
102
{ACAD_REACTORS
330
288D
102
}
330
288D
100
AcDbXrecord
280
     1
102
SHADEPLOT
 70
     0
102
SHADEPLOTRESLEVEL
 70
     2
102
SHADEPLOTCUSTOMDPI
 70
   300
  0
XRECORD
  5
2890
102
{ACAD_REACTORS
330
288F
102
}
330
288F
100
AcDbXrecord
280
     1
102
SHADEPLOT
 70
     0
102
SHADEPLOTRESLEVEL
 70
     2
102
SHADEPLOTCUSTOMDPI
 70
   300
  0
ENDSEC
  0
EOF
