  0
SECTION
  2
HEADER
  9
$ACADVER
  1
AC1015
  9
$ACADMAINTVER
 70
    20
  9
$DWGCODEPAGE
  3
ANSI_932
  9
$INSBASE
 10
922.019522
 20
-675.4306699999999
 30
0.0
  9
$EXTMIN
 10
-34.78044235164941
 20
-0.0120975342524616
 30
-0.0000000000000058
  9
$EXTMAX
 10
173.6706917035537
 20
115.0983312407555
 30
0.0000000000000104
  9
$LIMMIN
 10
0.0
 20
0.0
  9
$LIMMAX
 10
420.0
 20
297.0
  9
$ORTHOMODE
 70
     1
  9
$REGENMODE
 70
     1
  9
$FILLMODE
 70
     1
  9
$QTEXTMODE
 70
     0
  9
$MIRRTEXT
 70
     1
  9
$LTSCALE
 40
1.0
  9
$ATTMODE
 70
     1
  9
$TEXTSIZE
 40
30.0
  9
$TRACEWID
 40
0.05
  9
$TEXTSTYLE
  7
SUNPOU
  9
$CLAYER
  8
0
  9
$CELTYPE
  6
BYLAYER
  9
$CECOLOR
 62
   256
  9
$CELTSCALE
 40
1.0
  9
$DISPSILH
 70
     0
  9
$DIMSCALE
 40
1.0
  9
$DIMASZ
 40
2.0
  9
$DIMEXO
 40
10.0
  9
$DIMDLI
 40
0.38
  9
$DIMRND
 40
0.0
  9
$DIMDLE
 40
0.0
  9
$DIMEXE
 40
0.0
  9
$DIMTP
 40
0.0
  9
$DIMTM
 40
0.0
  9
$DIMTXT
 40
5.0
  9
$DIMCEN
 40
0.0
  9
$DIMTSZ
 40
0.0
  9
$DIMTOL
 70
     0
  9
$DIMLIM
 70
     0
  9
$DIMTIH
 70
     0
  9
$DIMTOH
 70
     0
  9
$DIMSE1
 70
     0
  9
$DIMSE2
 70
     0
  9
$DIMTAD
 70
     1
  9
$DIMZIN
 70
     0
  9
$DIMBLK
  1
Dot
  9
$DIMASO
 70
     1
  9
$DIMSHO
 70
     1
  9
$DIMPOST
  1

  9
$DIMAPOST
  1

  9
$DIMALT
 70
     0
  9
$DIMALTD
 70
     2
  9
$DIMALTF
 40
25.4
  9
$DIMLFAC
 40
1.0
  9
$DIMTOFL
 70
     0
  9
$DIMTVP
 40
0.0
  9
$DIMTIX
 70
     0
  9
$DIMSOXD
 70
     0
  9
$DIMSAH
 70
     0
  9
$DIMBLK1
  1

  9
$DIMBLK2
  1

  9
$DIMSTYLE
  2
STANDARD
  9
$DIMCLRD
 70
    60
  9
$DIMCLRE
 70
    70
  9
$DIMCLRT
 70
    60
  9
$DIMTFAC
 40
0.064286
  9
$DIMGAP
 40
3.0
  9
$DIMJUST
 70
     0
  9
$DIMSD1
 70
     0
  9
$DIMSD2
 70
     0
  9
$DIMTOLJ
 70
     1
  9
$DIMTZIN
 70
     0
  9
$DIMALTZ
 70
     0
  9
$DIMALTTZ
 70
     0
  9
$DIMUPT
 70
     0
  9
$DIMDEC
 70
     0
  9
$DIMTDEC
 70
     0
  9
$DIMALTU
 70
     2
  9
$DIMALTTD
 70
     2
  9
$DIMTXSTY
  7
SUNPOU
  9
$DIMAUNIT
 70
     0
  9
$DIMADEC
 70
     0
  9
$DIMALTRND
 40
0.0
  9
$DIMAZIN
 70
     0
  9
$DIMDSEP
 70
    46
  9
$DIMATFIT
 70
     3
  9
$DIMFRAC
 70
     0
  9
$DIMLDRBLK
  1

  9
$DIMLUNIT
 70
     2
  9
$DIMLWD
 70
    -2
  9
$DIMLWE
 70
    -2
  9
$DIMTMOVE
 70
     0
  9
$LUNITS
 70
     2
  9
$LUPREC
 70
     5
  9
$SKETCHINC
 40
0.1
  9
$FILLETRAD
 40
0.0
  9
$AUNITS
 70
     0
  9
$AUPREC
 70
     0
  9
$MENU
  1
acad
  9
$ELEVATION
 40
0.0
  9
$PELEVATION
 40
0.0
  9
$THICKNESS
 40
0.0
  9
$LIMCHECK
 70
     0
  9
$CHAMFERA
 40
0.0
  9
$CHAMFERB
 40
0.0
  9
$CHAMFERC
 40
0.0
  9
$CHAMFERD
 40
0.0
  9
$SKPOLY
 70
     0
  9
$TDCREATE
 40
2450623.654673033
  9
$TDUCREATE
 40
2450623.279673032
  9
$TDUPDATE
 40
2453866.638456169
  9
$TDUUPDATE
 40
2453866.263456169
  9
$TDINDWG
 40
0.2157810532
  9
$TDUSRTIMER
 40
0.2157808796
  9
$USRTIMER
 70
     1
  9
$ANGBASE
 50
0.0
  9
$ANGDIR
 70
     0
  9
$PDMODE
 70
     0
  9
$PDSIZE
 40
0.0
  9
$PLINEWID
 40
0.0
  9
$SPLFRAME
 70
     0
  9
$SPLINETYPE
 70
     6
  9
$SPLINESEGS
 70
     8
  9
$HANDSEED
  5
22E1
  9
$SURFTAB1
 70
     6
  9
$SURFTAB2
 70
     6
  9
$SURFTYPE
 70
     6
  9
$SURFU
 70
     6
  9
$SURFV
 70
     6
  9
$UCSBASE
  2

  9
$UCSNAME
  2

  9
$UCSORG
 10
0.0
 20
0.0
 30
0.0
  9
$UCSXDIR
 10
1.0
 20
0.0
 30
0.0
  9
$UCSYDIR
 10
0.0
 20
1.0
 30
0.0
  9
$UCSORTHOREF
  2

  9
$UCSORTHOVIEW
 70
     0
  9
$UCSORGTOP
 10
0.0
 20
0.0
 30
0.0
  9
$UCSORGBOTTOM
 10
0.0
 20
0.0
 30
0.0
  9
$UCSORGLEFT
 10
0.0
 20
0.0
 30
0.0
  9
$UCSORGRIGHT
 10
0.0
 20
0.0
 30
0.0
  9
$UCSORGFRONT
 10
0.0
 20
0.0
 30
0.0
  9
$UCSORGBACK
 10
0.0
 20
0.0
 30
0.0
  9
$PUCSBASE
  2

  9
$PUCSNAME
  2

  9
$PUCSORG
 10
0.0
 20
0.0
 30
0.0
  9
$PUCSXDIR
 10
1.0
 20
0.0
 30
0.0
  9
$PUCSYDIR
 10
0.0
 20
1.0
 30
0.0
  9
$PUCSORTHOREF
  2

  9
$PUCSORTHOVIEW
 70
     0
  9
$PUCSORGTOP
 10
0.0
 20
0.0
 30
0.0
  9
$PUCSORGBOTTOM
 10
0.0
 20
0.0
 30
0.0
  9
$PUCSORGLEFT
 10
0.0
 20
0.0
 30
0.0
  9
$PUCSORGRIGHT
 10
0.0
 20
0.0
 30
0.0
  9
$PUCSORGFRONT
 10
0.0
 20
0.0
 30
0.0
  9
$PUCSORGBACK
 10
0.0
 20
0.0
 30
0.0
  9
$USERI1
 70
     0
  9
$USERI2
 70
     0
  9
$USERI3
 70
     0
  9
$USERI4
 70
     0
  9
$USERI5
 70
     0
  9
$USERR1
 40
0.0
  9
$USERR2
 40
0.0
  9
$USERR3
 40
0.0
  9
$USERR4
 40
0.0
  9
$USERR5
 40
0.0
  9
$WORLDVIEW
 70
     1
  9
$SHADEDGE
 70
     3
  9
$SHADEDIF
 70
    70
  9
$TILEMODE
 70
     1
  9
$MAXACTVP
 70
    16
  9
$PINSBASE
 10
0.0
 20
0.0
 30
0.0
  9
$PLIMCHECK
 70
     0
  9
$PEXTMIN
 10
1.000000000000000E+20
 20
1.000000000000000E+20
 30
1.000000000000000E+20
  9
$PEXTMAX
 10
-1.000000000000000E+20
 20
-1.000000000000000E+20
 30
-1.000000000000000E+20
  9
$PLIMMIN
 10
0.0
 20
0.0
  9
$PLIMMAX
 10
12.0
 20
9.0
  9
$UNITMODE
 70
     0
  9
$VISRETAIN
 70
     0
  9
$PLINEGEN
 70
     0
  9
$PSLTSCALE
 70
     1
  9
$TREEDEPTH
 70
  3020
  9
$CMLSTYLE
  2
STANDARD
  9
$CMLJUST
 70
     0
  9
$CMLSCALE
 40
1.0
  9
$PROXYGRAPHICS
 70
     1
  9
$MEASUREMENT
 70
     0
  9
$CELWEIGHT
370
    -1
  9
$ENDCAPS
280
     0
  9
$JOINSTYLE
280
     0
  9
$LWDISPLAY
290
     0
  9
$INSUNITS
 70
     0
  9
$HYPERLINKBASE
  1

  9
$STYLESHEET
  1

  9
$XEDIT
290
     1
  9
$CEPSNTYPE
380
     0
  9
$PSTYLEMODE
290
     1
  9
$FINGERPRINTGUID
  2
{FB88A696-E29C-4009-92AF-A3599A8169D5}
  9
$VERSIONGUID
  2
{586A911E-56C3-4DEE-98AA-891F256E444A}
  9
$EXTNAMES
290
     1
  9
$PSVPSCALE
 40
0.0
  9
$OLESTARTUP
290
     0
  0
ENDSEC
  0
SECTION
  2
CLASSES
  0
CLASS
  1
DICTIONARYVAR
  2
AcDbDictionaryVar
  3
ObjectDBX Classes
 90
        0
280
     0
281
     0
  0
CLASS
  1
ACDBDICTIONARYWDFLT
  2
AcDbDictionaryWithDefault
  3
ObjectDBX Classes
 90
        0
280
     0
281
     0
  0
CLASS
  1
ACDBPLACEHOLDER
  2
AcDbPlaceHolder
  3
ObjectDBX Classes
 90
        0
280
     0
281
     0
  0
CLASS
  1
LAYOUT
  2
AcDbLayout
  3
ObjectDBX Classes
 90
        0
280
     0
281
     0
  0
CLASS
  1
TABLESTYLE
  2
AcDbTableStyle
  3
ObjectDBX Classes
 90
     2047
280
     0
281
     0
  0
CLASS
  1
SORTENTSTABLE
  2
AcDbSortentsTable
  3
ObjectDBX Classes
 90
        0
280
     0
281
     0
  0
ENDSEC
  0
SECTION
  2
TABLES
  0
TABLE
  2
VPORT
  5
12
330
0
100
AcDbSymbolTable
 70
     6
  0
VPORT
  5
22DB
330
12
100
AcDbSymbolTableRecord
100
AcDbViewportTableRecord
  2
*Active
 70
     0
 10
0.0
 20
0.0
 11
1.0
 21
1.0
 12
69.44512467595219
 22
57.54311685325155
 13
0.0
 23
0.0
 14
1.0
 24
1.0
 15
0.0
 25
0.0
 16
0.0
 26
0.0
 36
1.0
 17
0.0
 27
0.0
 37
0.0
 40
133.8164118463911
 41
1.565384615384615
 42
50.0
 43
0.0
 44
0.0
 50
0.0
 51
0.0
 71
     0
 72
 20000
 73
     1
 74
     1
 75
     0
 76
     0
 77
     0
 78
     0
281
     0
 65
     1
110
0.0
120
0.0
130
0.0
111
1.0
121
0.0
131
0.0
112
0.0
122
1.0
132
0.0
 79
     0
146
0.0
  0
ENDTAB
  0
TABLE
  2
LTYPE
  5
D
330
0
100
AcDbSymbolTable
 70
     2
  0
LTYPE
  5
E
330
D
100
AcDbSymbolTableRecord
100
AcDbLinetypeTableRecord
  2
BYBLOCK
 70
     0
  3

 72
    65
 73
     0
 40
0.0
  0
LTYPE
  5
F
330
D
100
AcDbSymbolTableRecord
100
AcDbLinetypeTableRecord
  2
BYLAYER
 70
     0
  3

 72
    65
 73
     0
 40
0.0
  0
LTYPE
  5
5
330
D
100
AcDbSymbolTableRecord
100
AcDbLinetypeTableRecord
  2
CONTINUOUS
 70
     0
  3
Solid line
 72
    65
 73
     0
 40
0.0
  0
ENDTAB
  0
TABLE
  2
LAYER
  5
A
102
{ACAD_XDICTIONARY
360
1B4
102
}
330
0
100
AcDbSymbolTable
 70
     6
  0
LAYER
  5
4
330
A
100
AcDbSymbolTableRecord
100
AcDbLayerTableRecord
  2
0
 70
     0
 62
     7
  6
CONTINUOUS
370
    -3
390
57
  0
LAYER
  5
25
330
A
100
AcDbSymbolTableRecord
100
AcDbLayerTableRecord
  2
KIJUN
 70
     0
 62
     7
  6
CONTINUOUS
370
    -3
390
57
  0
LAYER
  5
22
330
A
100
AcDbSymbolTableRecord
100
AcDbLayerTableRecord
  2
HOJO
 70
     0
 62
     3
  6
CONTINUOUS
370
    -3
390
57
  0
LAYER
  5
1B
330
A
100
AcDbSymbolTableRecord
100
AcDbLayerTableRecord
  2
WAKU
 70
     0
 62
     1
  6
CONTINUOUS
370
    -3
390
57
  0
LAYER
  5
31
330
A
100
AcDbSymbolTableRecord
100
AcDbLayerTableRecord
  2
DEFPOINTS
 70
     0
 62
     7
  6
CONTINUOUS
290
     0
370
    -3
390
57
  0
LAYER
  5
28
330
A
100
AcDbSymbolTableRecord
100
AcDbLayerTableRecord
  2
SUNPOU
 70
     0
 62
    70
  6
CONTINUOUS
370
    -3
390
57
  0
ENDTAB
  0
TABLE
  2
STYLE
  5
B
330
0
100
AcDbSymbolTable
 70
     3
  0
STYLE
  5
C
330
B
100
AcDbSymbolTableRecord
100
AcDbTextStyleTableRecord
  2
STANDARD
 70
     0
 40
0.0
 41
1.0
 50
0.0
 71
     0
 42
0.2
  3
txt
  4

  0
STYLE
  5
1C
330
B
100
AcDbSymbolTableRecord
100
AcDbTextStyleTableRecord
  2
SUNPOU
 70
     0
 40
0.0
 41
1.0
 50
0.0
 71
     0
 42
30.0
  3
txt
  4
bigfont
  0
STYLE
  5
14A
330
B
100
AcDbSymbolTableRecord
100
AcDbTextStyleTableRecord
  2
LIFE
 70
     0
 40
0.0
 41
0.7
 50
0.0
 71
     0
 42
10.0
  3
romans
  4
extfont
  0
ENDTAB
  0
TABLE
  2
VIEW
  5
10
330
0
100
AcDbSymbolTable
 70
     0
  0
ENDTAB
  0
TABLE
  2
UCS
  5
11
330
0
100
AcDbSymbolTable
 70
     0
  0
ENDTAB
  0
TABLE
  2
APPID
  5
14
330
0
100
AcDbSymbolTable
 70
    10
  0
APPID
  5
15
330
14
100
AcDbSymbolTableRecord
100
AcDbRegAppTableRecord
  2
ACAD
 70
     0
  0
APPID
  5
1D3
330
14
100
AcDbSymbolTableRecord
100
AcDbRegAppTableRecord
  2
ACAD_DSTYLE_DIMTEXT_FILL
 70
     0
  0
APPID
  5
1D4
330
14
100
AcDbSymbolTableRecord
100
AcDbRegAppTableRecord
  2
ACAD_DSTYLE_DIMEXT_LENGTH
 70
     0
  0
APPID
  5
1D5
330
14
100
AcDbSymbolTableRecord
100
AcDbRegAppTableRecord
  2
ACAD_DSTYLE_DIMEXT_ENABLED
 70
     0
  0
APPID
  5
1D6
330
14
100
AcDbSymbolTableRecord
100
AcDbRegAppTableRecord
  2
ACAD_DSTYLE_DIM_LINETYPE
 70
     0
  0
APPID
  5
1D7
330
14
100
AcDbSymbolTableRecord
100
AcDbRegAppTableRecord
  2
ACAD_DSTYLE_DIM_EXT1_LINETYPE
 70
     0
  0
APPID
  5
1D8
330
14
100
AcDbSymbolTableRecord
100
AcDbRegAppTableRecord
  2
ACAD_DSTYLE_DIM_EXT2_LINETYPE
 70
     0
  0
APPID
  5
294
330
14
100
AcDbSymbolTableRecord
100
AcDbRegAppTableRecord
  2
ACAD_DSTYLE_DIMJOGGED_JOGANGLE_SYMBOL
 70
     0
  0
APPID
  5
478
330
14
100
AcDbSymbolTableRecord
100
AcDbRegAppTableRecord
  2
ACAD_DSTYLE_DIMARC_LENGTH_SYMBOL
 70
     0
  0
APPID
  5
F55
330
14
100
AcDbSymbolTableRecord
100
AcDbRegAppTableRecord
  2
ACAD_EXEMPT_FROM_CAD_STANDARDS
 70
     0
  0
ENDTAB
  0
TABLE
  2
DIMSTYLE
  5
16
330
0
100
AcDbSymbolTable
 70
     3
100
AcDbDimStyleTable
 71
     1
340
1E
  0
DIMSTYLE
105
1E
102
{ACAD_REACTORS
330
2261
330
22A0
102
}
330
16
100
AcDbSymbolTableRecord
100
AcDbDimStyleTableRecord
  2
STANDARD
 70
     0
340
C
  0
DIMSTYLE
105
1005
330
16
100
AcDbSymbolTableRecord
100
AcDbDimStyleTableRecord
  2
1-100
 70
     0
 40
100.0
 41
0.7
 42
2.5
 43
5.0
 44
1.0
 77
     1
147
1.0
172
     1
176
     3
177
     3
271
     2
272
     2
279
     2
340
C
342
109
  0
ENDTAB
  0
TABLE
  2
BLOCK_RECORD
  5
1
330
0
100
AcDbSymbolTable
 70
    18
  0
BLOCK_RECORD
  5
2
102
{ACAD_XDICTIONARY
360
D13
102
}
330
1
100
AcDbSymbolTableRecord
100
AcDbBlockTableRecord
  2
*MODEL_SPACE
340
5A
  0
BLOCK_RECORD
  5
7
330
1
100
AcDbSymbolTableRecord
100
AcDbBlockTableRecord
  2
*PAPER_SPACE
340
5B
  0
BLOCK_RECORD
  5
109
330
1
100
AcDbSymbolTableRecord
100
AcDbBlockTableRecord
  2
_Dot
340
0
102
{BLKREFS
331
1795
331
1796
331
17B6
331
17B7
331
1AD5
331
1AD6
331
1AF0
331
1AF1
331
1D52
331
1D53
331
1D5B
331
1D5C
331
1EF8
331
1EF9
331
2010
331
2011
331
201D
331
201E
331
2117
331
2118
331
2124
331
2125
331
2295
331
2296
331
22B9
331
22BA
331
22D5
331
22D6
102
}
  0
BLOCK_RECORD
  5
200C
330
1
100
AcDbSymbolTableRecord
100
AcDbBlockTableRecord
  2
*D8
340
0
  0
BLOCK_RECORD
  5
2019
330
1
100
AcDbSymbolTableRecord
100
AcDbBlockTableRecord
  2
*D9
340
0
  0
BLOCK_RECORD
  5
2113
330
1
100
AcDbSymbolTableRecord
100
AcDbBlockTableRecord
  2
*D12
340
0
  0
BLOCK_RECORD
  5
2120
330
1
100
AcDbSymbolTableRecord
100
AcDbBlockTableRecord
  2
*D13
340
0
  0
BLOCK_RECORD
  5
2262
330
1
100
AcDbSymbolTableRecord
100
AcDbBlockTableRecord
  2
*D15
340
0
  0
BLOCK_RECORD
  5
226F
330
1
100
AcDbSymbolTableRecord
100
AcDbBlockTableRecord
  2
*D16
340
0
  0
BLOCK_RECORD
  5
22A1
330
1
100
AcDbSymbolTableRecord
100
AcDbBlockTableRecord
  2
*D17
340
0
  0
ENDTAB
  0
ENDSEC
  0
SECTION
  2
BLOCKS
  0
BLOCK
  5
3
330
2
100
AcDbEntity
  8
0
100
AcDbBlockBegin
  2
*MODEL_SPACE
 70
     0
 10
0.0
 20
0.0
 30
0.0
  3
*MODEL_SPACE
  1

  0
ENDBLK
  5
6
330
2
100
AcDbEntity
  8
0
100
AcDbBlockEnd
  0
BLOCK
  5
8
330
7
100
AcDbEntity
 67
     1
  8
0
100
AcDbBlockBegin
  2
*PAPER_SPACE
 70
     0
 10
0.0
 20
0.0
 30
0.0
  3
*PAPER_SPACE
  1

  0
ENDBLK
  5
9
330
7
100
AcDbEntity
 67
     1
  8
0
100
AcDbBlockEnd
  0
BLOCK
  5
10C
330
109
100
AcDbEntity
  8
0
100
AcDbBlockBegin
  2
_Dot
 70
     0
 10
0.0
 20
0.0
 30
0.0
  3
_Dot
  1

  0
LWPOLYLINE
  5
10A
330
109
100
AcDbEntity
  8
0
  6
ByBlock
 62
     0
100
AcDbPolyline
 90
        2
 70
     1
 43
0.5
 10
-0.25
 20
0.0
 42
1.0
 10
0.25
 20
0.0
 42
1.0
  0
LINE
  5
10B
330
109
100
AcDbEntity
  8
0
  6
ByBlock
 62
     0
370
    -2
100
AcDbLine
 10
-0.5
 20
0.0
 30
0.0
 11
-1.0
 21
0.0
 31
0.0
  0
ENDBLK
  5
10D
330
109
100
AcDbEntity
  8
0
100
AcDbBlockEnd
  0
BLOCK
  5
2016
330
200C
100
AcDbEntity
  8
0
100
AcDbBlockBegin
  2
*D8
 70
     1
 10
0.0
 20
0.0
 30
0.0
  3
*D8
  1

  0
LINE
  5
200D
330
200C
100
AcDbEntity
  8
SUNPOU
 62
    70
370
    -2
100
AcDbLine
 10
22.51437757324076
 20
144.7541953297892
 30
0.0
 11
22.51437757324076
 21
183.0787779421861
 31
0.0
  0
LINE
  5
200E
330
200C
100
AcDbEntity
  8
SUNPOU
 62
    70
370
    -2
100
AcDbLine
 10
131.5143775732407
 20
144.7541953297892
 30
0.0
 11
131.5143775732407
 21
183.0787779421861
 31
0.0
  0
LINE
  5
200F
330
200C
100
AcDbEntity
  8
SUNPOU
 62
    60
370
    -2
100
AcDbLine
 10
24.51437757324076
 20
183.0787779421861
 30
0.0
 11
129.5143775732407
 21
183.0787779421861
 31
0.0
  0
INSERT
  5
2010
330
200C
100
AcDbEntity
  8
SUNPOU
 62
    60
370
    -2
100
AcDbBlockReference
  2
_Dot
 10
22.51437757324076
 20
183.0787779421861
 30
0.0
 41
2.0
 42
2.0
 43
2.0
 50
180.0
  0
INSERT
  5
2011
330
200C
100
AcDbEntity
  8
SUNPOU
 62
    60
370
    -2
100
AcDbBlockReference
  2
_Dot
 10
131.5143775732407
 20
183.0787779421861
 30
0.0
 41
2.0
 42
2.0
 43
2.0
  0
MTEXT
  5
2012
330
200C
100
AcDbEntity
  8
SUNPOU
 62
    60
100
AcDbMText
 10
77.01437757324075
 20
188.5787779421861
 30
0.0
 40
5.0
 41
0.0
 71
     5
 72
     1
  1
\A1;109
  7
SUNPOU
 73
     1
 44
1.0
1001
ACAD
1000
MTEXTBEGIN
1070
    73
1070
     1
1070
    44
1040
1.0
1070
    74
1070
     0
1000
MTEXTEND
  0
POINT
  5
2013
330
200C
100
AcDbEntity
  8
DEFPOINTS
 62
     0
100
AcDbPoint
 10
22.51437757324076
 20
134.7541953297892
 30
0.0
  0
POINT
  5
2014
330
200C
100
AcDbEntity
  8
DEFPOINTS
 62
     0
100
AcDbPoint
 10
131.5143775732407
 20
134.7541953297892
 30
0.0
  0
POINT
  5
2015
330
200C
100
AcDbEntity
  8
DEFPOINTS
 62
     0
100
AcDbPoint
 10
131.5143775732407
 20
183.0787779421861
 30
0.0
  0
ENDBLK
  5
2017
330
200C
100
AcDbEntity
  8
0
100
AcDbBlockEnd
  0
BLOCK
  5
2023
330
2019
100
AcDbEntity
  8
0
100
AcDbBlockBegin
  2
*D9
 70
     1
 10
0.0
 20
0.0
 30
0.0
  3
*D9
  1

  0
LINE
  5
201A
330
2019
100
AcDbEntity
  8
SUNPOU
 62
    70
370
    -2
100
AcDbLine
 10
67.01437757324367
 20
166.9747915768655
 30
0.0
 11
-1.227023507856392
 21
166.9747915768656
 31
0.0
  0
LINE
  5
201B
330
2019
100
AcDbEntity
  8
SUNPOU
 62
    70
370
    -2
100
AcDbLine
 10
67.01437757324156
 20
34.97479157686509
 30
0.0
 11
-1.227023507856422
 21
34.97479157686511
 31
0.0
  0
LINE
  5
201C
330
2019
100
AcDbEntity
  8
SUNPOU
 62
    60
370
    -2
100
AcDbLine
 10
-1.227023507856399
 20
164.9747915768656
 30
0.0
 11
-1.227023507856428
 21
36.97479157686511
 31
0.0
  0
INSERT
  5
201D
330
2019
100
AcDbEntity
  8
SUNPOU
 62
    60
370
    -2
100
AcDbBlockReference
  2
_Dot
 10
-1.227023507856399
 20
166.9747915768656
 30
0.0
 41
2.0
 42
2.0
 43
2.0
 50
90.0
  0
INSERT
  5
201E
330
2019
100
AcDbEntity
  8
SUNPOU
 62
    60
370
    -2
100
AcDbBlockReference
  2
_Dot
 10
-1.227023507856428
 20
34.97479157686511
 30
0.0
 41
2.0
 42
2.0
 43
2.0
 50
270.0
  0
MTEXT
  5
201F
330
2019
100
AcDbEntity
  8
SUNPOU
 62
    60
100
AcDbMText
 10
-6.72702350785643
 20
100.9747915768653
 30
0.0
 40
5.0
 41
0.0
 71
     5
 72
     1
  1
\A1;132
  7
SUNPOU
 11
0.0000000000000001
 21
1.0
 31
0.0
 73
     1
 44
1.0
1001
ACAD
1000
MTEXTBEGIN
1070
    73
1070
     1
1070
    44
1040
1.0
1070
    74
1070
     0
1000
MTEXTEND
  0
POINT
  5
2020
330
2019
100
AcDbEntity
  8
DEFPOINTS
 62
     0
100
AcDbPoint
 10
77.01437757324367
 20
166.9747915768655
 30
0.0
  0
POINT
  5
2021
330
2019
100
AcDbEntity
  8
DEFPOINTS
 62
     0
100
AcDbPoint
 10
77.01437757324156
 20
34.97479157686509
 30
0.0
  0
POINT
  5
2022
330
2019
100
AcDbEntity
  8
DEFPOINTS
 62
     0
100
AcDbPoint
 10
-1.227023507856428
 20
34.97479157686511
 30
0.0
  0
ENDBLK
  5
2024
330
2019
100
AcDbEntity
  8
0
100
AcDbBlockEnd
  0
BLOCK
  5
211D
330
2113
100
AcDbEntity
  8
0
100
AcDbBlockBegin
  2
*D12
 70
     1
 10
0.0
 20
0.0
 30
0.0
  3
*D12
  1

  0
LINE
  5
2114
330
2113
100
AcDbEntity
  8
SUNPOU
 62
    70
370
    -2
100
AcDbLine
 10
2.779070082985527
 20
120.8652279046092
 30
0.0
 11
2.779070082985528
 21
141.7579726964636
 31
0.0
  0
LINE
  5
2115
330
2113
100
AcDbEntity
  8
SUNPOU
 62
    70
370
    -2
100
AcDbLine
 10
144.7790700829855
 20
120.8652279046092
 30
0.0
 11
144.7790700829855
 21
141.7579726964636
 31
0.0
  0
LINE
  5
2116
330
2113
100
AcDbEntity
  8
SUNPOU
 62
    60
370
    -2
100
AcDbLine
 10
4.779070082985528
 20
141.7579726964636
 30
0.0
 11
142.7790700829855
 21
141.7579726964636
 31
0.0
  0
INSERT
  5
2117
330
2113
100
AcDbEntity
  8
SUNPOU
 62
    60
370
    -2
100
AcDbBlockReference
  2
_Dot
 10
2.779070082985528
 20
141.7579726964636
 30
0.0
 41
2.0
 42
2.0
 43
2.0
 50
180.0
  0
INSERT
  5
2118
330
2113
100
AcDbEntity
  8
SUNPOU
 62
    60
370
    -2
100
AcDbBlockReference
  2
_Dot
 10
144.7790700829855
 20
141.7579726964636
 30
0.0
 41
2.0
 42
2.0
 43
2.0
  0
MTEXT
  5
2119
330
2113
100
AcDbEntity
  8
SUNPOU
 62
    60
100
AcDbMText
 10
73.77907008298554
 20
147.2579726964636
 30
0.0
 40
5.0
 41
0.0
 71
     5
 72
     1
  1
\A1;142
  7
SUNPOU
 73
     1
 44
1.0
1001
ACAD
1000
MTEXTBEGIN
1070
    73
1070
     1
1070
    44
1040
1.0
1070
    74
1070
     0
1000
MTEXTEND
  0
POINT
  5
211A
330
2113
100
AcDbEntity
  8
DEFPOINTS
 62
     0
100
AcDbPoint
 10
2.779070082985526
 20
110.8652279046092
 30
0.0
  0
POINT
  5
211B
330
2113
100
AcDbEntity
  8
DEFPOINTS
 62
     0
100
AcDbPoint
 10
144.7790700829855
 20
110.8652279046092
 30
0.0
  0
POINT
  5
211C
330
2113
100
AcDbEntity
  8
DEFPOINTS
 62
     0
100
AcDbPoint
 10
144.7790700829855
 20
141.7579726964636
 30
0.0
  0
ENDBLK
  5
211E
330
2113
100
AcDbEntity
  8
0
100
AcDbBlockEnd
  0
BLOCK
  5
212A
330
2120
100
AcDbEntity
  8
0
100
AcDbBlockBegin
  2
*D13
 70
     1
 10
0.0
 20
0.0
 30
0.0
  3
*D13
  1

  0
LINE
  5
2121
330
2120
100
AcDbEntity
  8
SUNPOU
 62
    70
370
    -2
100
AcDbLine
 10
0.5022286815299496
 20
120.5525004428493
 30
0.0
 11
-16.88829499430675
 21
120.5525004428493
 31
0.0
  0
LINE
  5
2122
330
2120
100
AcDbEntity
  8
SUNPOU
 62
    70
370
    -2
100
AcDbLine
 10
63.77907008298552
 20
40.55250044284929
 30
0.0
 11
-16.88829499430676
 21
40.55250044284932
 31
0.0
  0
LINE
  5
2123
330
2120
100
AcDbEntity
  8
SUNPOU
 62
    60
370
    -2
100
AcDbLine
 10
-16.88829499430675
 20
118.5525004428493
 30
0.0
 11
-16.88829499430677
 21
42.55250044284932
 31
0.0
  0
INSERT
  5
2124
330
2120
100
AcDbEntity
  8
SUNPOU
 62
    60
370
    -2
100
AcDbBlockReference
  2
_Dot
 10
-16.88829499430675
 20
120.5525004428493
 30
0.0
 41
2.0
 42
2.0
 43
2.0
 50
90.0
  0
INSERT
  5
2125
330
2120
100
AcDbEntity
  8
SUNPOU
 62
    60
370
    -2
100
AcDbBlockReference
  2
_Dot
 10
-16.88829499430677
 20
40.55250044284932
 30
0.0
 41
2.0
 42
2.0
 43
2.0
 50
270.0
  0
MTEXT
  5
2126
330
2120
100
AcDbEntity
  8
SUNPOU
 62
    60
100
AcDbMText
 10
-22.38829499430678
 20
80.5525004428493
 30
0.0
 40
5.0
 41
0.0
 71
     5
 72
     1
  1
\A1;80
  7
SUNPOU
 11
0.0000000000000001
 21
1.0
 31
0.0
 73
     1
 44
1.0
1001
ACAD
1000
MTEXTBEGIN
1070
    73
1070
     1
1070
    44
1040
1.0
1070
    74
1070
     0
1000
MTEXTEND
  0
POINT
  5
2127
330
2120
100
AcDbEntity
  8
DEFPOINTS
 62
     0
100
AcDbPoint
 10
10.50222868152995
 20
120.5525004428493
 30
0.0
  0
POINT
  5
2128
330
2120
100
AcDbEntity
  8
DEFPOINTS
 62
     0
100
AcDbPoint
 10
73.77907008298553
 20
40.55250044284929
 30
0.0
  0
POINT
  5
2129
330
2120
100
AcDbEntity
  8
DEFPOINTS
 62
     0
100
AcDbPoint
 10
-16.88829499430677
 20
40.55250044284932
 30
0.0
  0
ENDBLK
  5
212B
330
2120
100
AcDbEntity
  8
0
100
AcDbBlockEnd
  0
BLOCK
  5
226C
330
2262
100
AcDbEntity
  8
0
100
AcDbBlockBegin
  2
*D15
 70
     1
 10
0.0
 20
0.0
 30
0.0
  3
*D15
  1

  0
LINE
  5
22B6
330
2262
100
AcDbEntity
  8
SUNPOU
 62
    70
370
    -2
100
AcDbLine
 10
-12.35953431951998
 20
79.89014174287508
 30
0.0
 11
-12.35953431951998
 21
107.0807606510202
 31
0.0
  0
LINE
  5
22B7
330
2262
100
AcDbEntity
  8
SUNPOU
 62
    70
370
    -2
100
AcDbLine
 10
172.64046568048
 20
79.89014174287508
 30
0.0
 11
172.64046568048
 21
107.0807606510202
 31
0.0
  0
LINE
  5
22B8
330
2262
100
AcDbEntity
  8
SUNPOU
 62
    60
370
    -2
100
AcDbLine
 10
-10.35953431951998
 20
107.0807606510202
 30
0.0
 11
170.64046568048
 21
107.0807606510202
 31
0.0
  0
INSERT
  5
22B9
330
2262
100
AcDbEntity
  8
SUNPOU
 62
    60
370
    -2
100
AcDbBlockReference
  2
_Dot
 10
-12.35953431951998
 20
107.0807606510202
 30
0.0
 41
2.0
 42
2.0
 43
2.0
 50
180.0
  0
INSERT
  5
22BA
330
2262
100
AcDbEntity
  8
SUNPOU
 62
    60
370
    -2
100
AcDbBlockReference
  2
_Dot
 10
172.64046568048
 20
107.0807606510202
 30
0.0
 41
2.0
 42
2.0
 43
2.0
  0
MTEXT
  5
22BB
330
2262
100
AcDbEntity
  8
SUNPOU
 62
    60
100
AcDbMText
 10
80.14046568048001
 20
112.5807606510202
 30
0.0
 40
5.0
 41
0.0
 71
     5
 72
     1
  1
\A1;185
  7
SUNPOU
 73
     1
 44
1.0
1001
ACAD
1000
MTEXTBEGIN
1070
    73
1070
     1
1070
    44
1040
1.0
1070
    74
1070
     0
1000
MTEXTEND
  0
POINT
  5
22BC
330
2262
100
AcDbEntity
  8
DEFPOINTS
 62
     0
100
AcDbPoint
 10
-12.35953431951998
 20
69.89014174287508
 30
0.0
  0
POINT
  5
22BD
330
2262
100
AcDbEntity
  8
DEFPOINTS
 62
     0
100
AcDbPoint
 10
172.64046568048
 20
69.89014174287508
 30
0.0
  0
POINT
  5
22BE
330
2262
100
AcDbEntity
  8
DEFPOINTS
 62
     0
100
AcDbPoint
 10
172.64046568048
 20
107.0807606510202
 30
0.0
  0
ENDBLK
  5
226D
330
2262
100
AcDbEntity
  8
0
100
AcDbBlockEnd
  0
BLOCK
  5
2279
330
226F
100
AcDbEntity
  8
0
100
AcDbBlockBegin
  2
*D16
 70
     1
 10
0.0
 20
0.0
 30
0.0
  3
*D16
  1

  0
LINE
  5
2291
330
226F
100
AcDbEntity
  8
SUNPOU
 62
    70
370
    -2
100
AcDbLine
 10
46.56116634836663
 20
82.23301491498432
 30
0.0
 11
-28.38907316638914
 21
82.23301491498434
 31
0.0
  0
LINE
  5
2292
330
226F
100
AcDbEntity
  8
SUNPOU
 62
    70
370
    -2
100
AcDbLine
 10
70.13931669693898
 20
38.23332696735998
 30
0.0
 11
-28.38907316638916
 21
38.23332696736001
 31
0.0
  0
LINE
  5
2293
330
226F
100
AcDbEntity
  8
SUNPOU
 62
    60
370
    -2
100
AcDbLine
 10
-28.38907316638915
 20
80.23301491498434
 30
0.0
 11
-28.38907316638916
 21
40.23332696736001
 31
0.0
  0
LINE
  5
2294
330
226F
100
AcDbEntity
  8
SUNPOU
 62
    60
370
    -2
100
AcDbLine
 10
-28.38907316638916
 20
38.23332696736001
 30
0.0
 11
-28.38907316638917
 21
-9.766673032639999
 31
0.0
  0
INSERT
  5
2295
330
226F
100
AcDbEntity
  8
SUNPOU
 62
    60
370
    -2
100
AcDbBlockReference
  2
_Dot
 10
-28.38907316638915
 20
82.23301491498434
 30
0.0
 41
2.0
 42
2.0
 43
2.0
 50
90.0
  0
INSERT
  5
2296
330
226F
100
AcDbEntity
  8
SUNPOU
 62
    60
370
    -2
100
AcDbBlockReference
  2
_Dot
 10
-28.38907316638916
 20
38.23332696736001
 30
0.0
 41
2.0
 42
2.0
 43
2.0
 50
270.0
  0
MTEXT
  5
2297
330
226F
100
AcDbEntity
  8
SUNPOU
 62
    60
100
AcDbMText
 10
-33.88907316638917
 20
13.23332696736
 30
0.0
 40
5.0
 41
0.0
 71
     5
 72
     1
  1
\A1;43.999688
  7
SUNPOU
 11
0.0000000000000001
 21
1.0
 31
0.0
 73
     1
 44
1.0
1001
ACAD
1000
MTEXTBEGIN
1070
    73
1070
     1
1070
    44
1040
1.0
1070
    74
1070
     0
1000
MTEXTEND
  0
POINT
  5
2298
330
226F
100
AcDbEntity
  8
DEFPOINTS
 62
     0
100
AcDbPoint
 10
56.56116634836663
 20
82.23301491498432
 30
0.0
  0
POINT
  5
2299
330
226F
100
AcDbEntity
  8
DEFPOINTS
 62
     0
100
AcDbPoint
 10
80.13931669693898
 20
38.23332696735997
 30
0.0
  0
POINT
  5
229A
330
226F
100
AcDbEntity
  8
DEFPOINTS
 62
     0
100
AcDbPoint
 10
-28.38907316638916
 20
38.23332696736001
 30
0.0
  0
ENDBLK
  5
227A
330
226F
100
AcDbEntity
  8
0
100
AcDbBlockEnd
  0
BLOCK
  5
22AB
330
22A1
100
AcDbEntity
  8
0
100
AcDbBlockBegin
  2
*D17
 70
     1
 10
0.0
 20
0.0
 30
0.0
  3
*D17
  1

  0
LINE
  5
22D2
330
22A1
100
AcDbEntity
  8
SUNPOU
 62
    70
370
    -2
100
AcDbLine
 10
-22.35953431951997
 20
82.23301491498434
 30
0.0
 11
-26.76614305780549
 21
82.23301491498434
 31
0.0
  0
LINE
  5
22D3
330
22A1
100
AcDbEntity
  8
SUNPOU
 62
    70
370
    -2
100
AcDbLine
 10
-21.46122218202436
 20
38.23301491498433
 30
0.0
 11
-26.7661430578055
 21
38.23301491498433
 31
0.0
  0
LINE
  5
22D4
330
22A1
100
AcDbEntity
  8
SUNPOU
 62
    60
370
    -2
100
AcDbLine
 10
-26.76614305780549
 20
80.23301491498434
 30
0.0
 11
-26.7661430578055
 21
40.23301491498433
 31
0.0
  0
INSERT
  5
22D5
330
22A1
100
AcDbEntity
  8
SUNPOU
 62
    60
370
    -2
100
AcDbBlockReference
  2
_Dot
 10
-26.76614305780549
 20
82.23301491498434
 30
0.0
 41
2.0
 42
2.0
 43
2.0
 50
90.0
  0
INSERT
  5
22D6
330
22A1
100
AcDbEntity
  8
SUNPOU
 62
    60
370
    -2
100
AcDbBlockReference
  2
_Dot
 10
-26.7661430578055
 20
38.23301491498433
 30
0.0
 41
2.0
 42
2.0
 43
2.0
 50
270.0
  0
MTEXT
  5
22D7
330
22A1
100
AcDbEntity
  8
SUNPOU
 62
    60
100
AcDbMText
 10
-32.2661430578055
 20
60.23301491498433
 30
0.0
 40
5.0
 41
0.0
 71
     5
 72
     1
  1
\A1;44
  7
SUNPOU
 11
0.0000000000000001
 21
1.0
 31
0.0
 73
     1
 44
1.0
1001
ACAD
1000
MTEXTBEGIN
1070
    73
1070
     1
1070
    44
1040
1.0
1070
    74
1070
     0
1000
MTEXTEND
  0
POINT
  5
22D8
330
22A1
100
AcDbEntity
  8
DEFPOINTS
 62
     0
100
AcDbPoint
 10
-12.35953431951996
 20
82.23301491498434
 30
0.0
  0
POINT
  5
22D9
330
22A1
100
AcDbEntity
  8
DEFPOINTS
 62
     0
100
AcDbPoint
 10
-11.46122218202435
 20
38.23301491498432
 30
0.0
  0
POINT
  5
22DA
330
22A1
100
AcDbEntity
  8
DEFPOINTS
 62
     0
100
AcDbPoint
 10
-26.7661430578055
 20
38.23301491498433
 30
0.0
  0
ENDBLK
  5
22AC
330
22A1
100
AcDbEntity
  8
0
100
AcDbBlockEnd
  0
ENDSEC
  0
SECTION
  2
ENTITIES
  0
LINE
  5
1F
330
2
100
AcDbEntity
  8
WAKU
100
AcDbLine
 10
0.0
 20
14.0
 30
0.0
 11
148.6829221395387
 21
14.0
 31
0.0
  0
LINE
  5
20
330
2
100
AcDbEntity
  8
WAKU
100
AcDbLine
 10
0.0
 20
0.0
 30
0.0
 11
148.6829221395387
 21
0.0
 31
0.0
  0
TEXT
  5
21
330
2
100
AcDbEntity
  8
HOJO
100
AcDbText
 10
9.653966000000025
 20
2.366626000000024
 30
0.0
 40
9.0
  1
TWC225
  7
SUNPOU
100
AcDbText
  0
TEXT
  5
23
330
2
100
AcDbEntity
  8
HOJO
100
AcDbText
 10
85.84696046283864
 20
5.044386000000031
 30
0.0
 40
6.0
  1
185×44×5
  7
SUNPOU
100
AcDbText
  0
ARC
  5
21C1
102
{ACAD_REACTORS
330
22C8
102
}
330
2
100
AcDbEntity
  8
KIJUN
100
AcDbCircle
 10
80.96827091375894
 20
68.24130764249924
 30
0.0
 40
11.02283552277731
100
AcDbArc
 50
94.30691744897728
 51
153.0732176029855
  0
ARC
  5
21C2
102
{ACAD_REACTORS
330
22C8
102
}
330
2
100
AcDbEntity
  8
KIJUN
100
AcDbCircle
 10
68.47609889804312
 20
66.96744079418454
 30
0.0
 40
6.808544385585785
100
AcDbArc
 50
66.96290981919023
 51
162.8369506008135
  0
SPLINE
  5
21C4
102
{ACAD_REACTORS
330
22C8
102
}
330
2
100
AcDbEntity
  8
KIJUN
100
AcDbSpline
210
0.0
220
0.0
230
1.0
 70
     8
 71
     3
 72
    10
 73
     6
 74
     4
 42
0.0000000001
 43
0.0000000001
 44
0.0000000001
 40
0.0
 40
0.0
 40
0.0
 40
0.0
 40
1.145183670103161
 40
2.930920587736562
 40
4.827592176845032
 40
4.827592176845032
 40
4.827592176845032
 40
4.827592176845032
 10
59.83912247001331
 20
72.48579872559594
 30
0.0
 10
60.15252554197326
 20
72.20899793689756
 30
0.0
 10
60.95463226061383
 20
71.5005691044949
 30
0.0
 10
59.63926999801021
 20
69.47992914910106
 30
0.0
 10
61.17813473680797
 20
69.14770402844076
 30
0.0
 10
61.97074669830408
 20
68.97658723181405
 30
0.0
 11
59.83912247001331
 21
72.48579872559594
 31
0.0
 11
60.53496120492332
 21
71.57626362826886
 31
0.0
 11
60.26733064964742
 21
69.81069566727683
 31
0.0
 11
61.97074669830408
 21
68.97658723181405
 31
0.0
  0
ARC
  5
21C6
102
{ACAD_REACTORS
330
22C8
102
}
330
2
100
AcDbEntity
  8
KIJUN
100
AcDbCircle
 10
44.20436763244175
 20
70.96360887322953
 30
0.0
 40
3.799670419027653
100
AcDbArc
 50
59.36656072464059
 51
122.9003243869179
  0
SPLINE
  5
21C7
102
{ACAD_REACTORS
330
22C8
102
}
330
2
100
AcDbEntity
  8
KIJUN
100
AcDbSpline
210
0.0
220
0.0
230
1.0
 70
     8
 71
     3
 72
    12
 73
     8
 74
     6
 42
0.0000000001
 43
0.0000000001
 44
0.0000000001
 40
0.0
 40
0.0
 40
0.0
 40
0.0
 40
3.436038901327851
 40
6.68196896941347
 40
10.49552420185156
 40
13.7139634216426
 40
17.8528145520531
 40
17.8528145520531
 40
17.8528145520531
 40
17.8528145520531
 10
42.14046568048025
 20
74.15387595075185
 30
0.0
 10
41.61483214375016
 20
75.20646744558276
 30
0.0
 10
40.59264727257295
 20
77.25341275321901
 30
0.0
 10
37.69332796641857
 20
79.11611840634829
 30
0.0
 10
34.15493838566943
 20
81.04752536761635
 30
0.0
 10
31.18459166102207
 20
77.85457439772386
 30
0.0
 10
30.51637284917183
 20
75.53685236623774
 30
0.0
 10
30.14046568048002
 20
74.23301549241762
 30
0.0
 11
42.14046568048025
 21
74.15387595075185
 31
0.0
 11
40.3457650935527
 21
77.08396351509532
 31
0.0
 11
37.74860185724651
 21
79.03096252148486
 31
0.0
 11
34.11213625814776
 21
80.17957971508213
 31
0.0
 11
31.67582309398654
 21
78.07655114237468
 31
0.0
 11
30.14046568048002
 21
74.23301549241762
 31
0.0
  0
SPLINE
  5
21C8
102
{ACAD_REACTORS
330
22C8
102
}
330
2
100
AcDbEntity
  8
KIJUN
100
AcDbSpline
210
0.0
220
0.0
230
1.0
 70
     8
 71
     3
 72
     9
 73
     5
 74
     3
 42
0.0000000001
 43
0.0000000001
 44
0.0000000001
 40
0.0
 40
0.0
 40
0.0
 40
0.0
 40
4.028330530073445
 40
9.118709991590414
 40
9.118709991590414
 40
9.118709991590414
 40
9.118709991590414
 10
30.14046568047979
 20
74.23301549241774
 30
0.0
 10
29.25076793509669
 20
75.35202620819275
 30
0.0
 10
27.23680814213679
 20
77.8850691445797
 30
0.0
 10
23.96622074249785
 20
77.46661248184661
 30
0.0
 10
22.14046568048002
 20
77.23301549241762
 30
0.0
 11
30.14046568047979
 21
74.23301549241774
 31
0.0
 11
27.22613319137963
 21
77.01404282103158
 31
0.0
 11
22.14046568048002
 21
77.23301549241762
 31
0.0
  0
ARC
  5
21C9
102
{ACAD_REACTORS
330
22C8
102
}
330
2
100
AcDbEntity
  8
KIJUN
100
AcDbCircle
 10
19.33017872994787
 20
74.80394808164715
 30
0.0
 40
3.714576857516671
100
AcDbArc
 50
40.83844766315232
 51
173.3670102749575
  0
CIRCLE
  5
21CE
102
{ACAD_REACTORS
330
22C8
102
}
330
2
100
AcDbEntity
  8
KIJUN
100
AcDbCircle
 10
80.14046568048001
 20
59.23301549241762
 30
0.0
 40
7.0
  0
LINE
  5
21D0
102
{ACAD_REACTORS
330
22C8
102
}
330
2
100
AcDbEntity
  8
KIJUN
100
AcDbLine
 10
76.14046568048002
 20
53.48845284587958
 30
0.0
 11
70.63726385090785
 21
42.92647763487048
 31
0.0
  0
LINE
  5
21D1
102
{ACAD_REACTORS
330
22C8
102
}
330
2
100
AcDbEntity
  8
KIJUN
100
AcDbLine
 10
76.14046568048002
 20
64.97757813895566
 30
0.0
 11
71.14046568048002
 21
73.23301549241762
 31
0.0
  0
ARC
  5
21D2
102
{ACAD_REACTORS
330
22C8
102
}
330
2
100
AcDbEntity
  8
KIJUN
100
AcDbCircle
 10
67.24382633022059
 20
64.66951074700659
 30
0.0
 40
6.808544385585785
100
AcDbArc
 50
140.7578870803557
 51
236.631927861974
  0
LINE
  5
21D3
102
{ACAD_REACTORS
330
22C8
102
}
330
2
100
AcDbEntity
  8
KIJUN
100
AcDbLine
 10
63.49902180276467
 20
58.98332435350539
 30
0.0
 11
73.14125348591961
 21
59.12799808664499
 31
0.0
  0
ARC
  5
21D4
102
{ACAD_REACTORS
330
22C8
102
}
330
2
100
AcDbEntity
  8
KIJUN
100
AcDbCircle
 10
70.63726385090785
 20
52.54159171966955
 30
0.0
 40
9.615114084799087
100
AcDbArc
 50
137.9360961733064
 51
270.0
  0
LINE
  5
21D5
102
{ACAD_REACTORS
330
22C8
102
}
330
2
100
AcDbEntity
  8
KIJUN
100
AcDbLine
 10
70.63726385090785
 20
42.92647763487048
 30
0.0
 11
72.14046568048002
 21
40.23301549241762
 31
0.0
  0
LINE
  5
21D6
102
{ACAD_REACTORS
330
22C8
102
}
330
2
100
AcDbEntity
  8
KIJUN
100
AcDbLine
 10
77.45952074395086
 20
65.69927671875996
 30
0.0
 11
74.2690879305992
 21
71.22526844961988
 31
0.0
  0
SPLINE
  5
21D7
102
{ACAD_REACTORS
330
22C8
102
}
330
2
100
AcDbEntity
  8
KIJUN
100
AcDbSpline
210
0.0
220
0.0
230
1.0
 70
     8
 71
     3
 72
    11
 73
     7
 74
     5
 42
0.0000000001
 43
0.0000000001
 44
0.0000000001
 40
0.0
 40
0.0
 40
0.0
 40
0.0
 40
2.015092676388163
 40
5.700149874406355
 40
8.073387978155489
 40
9.063554547923544
 40
9.063554547923544
 40
9.063554547923544
 40
9.063554547923544
 10
74.2690879305992
 20
71.22526844961988
 30
0.0
 10
74.14504086227584
 20
71.91379471335387
 30
0.0
 10
73.79414539766054
 20
73.86144850701629
 30
0.0
 10
76.63558368421525
 20
76.03090586262204
 30
0.0
 10
79.02915536989803
 20
75.27366807299023
 30
0.0
 10
79.91660191527751
 20
74.59064814123806
 30
0.0
 10
80.17786096287592
 20
74.38957108731369
 30
0.0
 11
74.2690879305992
 21
71.22526844961988
 31
0.0
 11
74.19151769966219
 21
73.23886755413536
 31
0.0
 11
77.06956751582424
 21
75.54027490798546
 31
0.0
 11
79.37200736875411
 21
74.96492299764963
 31
0.0
 11
80.17786096287592
 21
74.38957108731369
 31
0.0
  0
LINE
  5
21D8
102
{ACAD_REACTORS
330
22C8
102
}
330
2
100
AcDbEntity
  8
KIJUN
100
AcDbLine
 10
82.82141061700917
 20
65.69927671875996
 30
0.0
 11
86.01184343036084
 21
71.22526844961988
 31
0.0
  0
SPLINE
  5
21D9
102
{ACAD_REACTORS
330
22C8
102
}
330
2
100
AcDbEntity
  8
KIJUN
100
AcDbSpline
210
0.0
220
0.0
230
1.0
 70
     8
 71
     3
 72
    11
 73
     7
 74
     5
 42
0.0000000001
 43
0.0000000001
 44
0.0000000001
 40
0.0
 40
0.0
 40
0.0
 40
0.0
 40
2.015092676388163
 40
5.700149874406355
 40
8.073387978155489
 40
9.063554547923544
 40
9.063554547923544
 40
9.063554547923544
 40
9.063554547923544
 10
86.01184343036084
 20
71.22526844961988
 30
0.0
 10
86.13589049868426
 20
71.91379471335387
 30
0.0
 10
86.48678596329956
 20
73.86144850701629
 30
0.0
 10
83.64534767674479
 20
76.03090586262204
 30
0.0
 10
81.251775991062
 20
75.27366807299023
 30
0.0
 10
80.36432944568247
 20
74.59064814123806
 30
0.0
 10
80.10307039808413
 20
74.38957108731369
 30
0.0
 11
86.01184343036084
 21
71.22526844961988
 31
0.0
 11
86.08941366129784
 21
73.23886755413536
 31
0.0
 11
83.21136384513579
 21
75.54027490798546
 31
0.0
 11
80.90892399220592
 21
74.96492299764963
 31
0.0
 11
80.10307039808413
 21
74.38957108731369
 31
0.0
  0
SPLINE
  5
21DA
102
{ACAD_REACTORS
330
22C8
102
}
330
2
100
AcDbEntity
  8
KIJUN
100
AcDbSpline
210
0.0
220
0.0
230
1.0
 70
     8
 71
     3
 72
    11
 73
     7
 74
     5
 42
0.0000000001
 43
0.0000000001
 44
0.0000000001
 40
0.0
 40
0.0
 40
0.0
 40
0.0
 40
2.015092676388163
 40
5.700149874406355
 40
8.073387978155489
 40
9.063554547923544
 40
9.063554547923544
 40
9.063554547923544
 40
9.063554547923544
 10
74.2690879305992
 20
47.24076253521537
 30
0.0
 10
74.14504086227584
 20
46.55223627148138
 30
0.0
 10
73.79414539766054
 20
44.60458247781895
 30
0.0
 10
76.63558368421525
 20
42.43512512221321
 30
0.0
 10
79.02915536989803
 20
43.19236291184501
 30
0.0
 10
79.91660191527751
 20
43.87538284359719
 30
0.0
 10
80.17786096287592
 20
44.07645989752154
 30
0.0
 11
74.2690879305992
 21
47.24076253521537
 31
0.0
 11
74.19151769966219
 21
45.22716343069987
 31
0.0
 11
77.06956751582424
 21
42.92575607684978
 31
0.0
 11
79.37200736875411
 21
43.5011079871856
 31
0.0
 11
80.17786096287592
 21
44.07645989752154
 31
0.0
  0
LINE
  5
21DB
102
{ACAD_REACTORS
330
22C8
102
}
330
2
100
AcDbEntity
  8
KIJUN
100
AcDbLine
 10
77.45952074395086
 20
52.76675426607528
 30
0.0
 11
74.2690879305992
 21
47.24076253521537
 31
0.0
  0
SPLINE
  5
21DC
102
{ACAD_REACTORS
330
22C8
102
}
330
2
100
AcDbEntity
  8
KIJUN
100
AcDbSpline
210
0.0
220
0.0
230
1.0
 70
     8
 71
     3
 72
    11
 73
     7
 74
     5
 42
0.0000000001
 43
0.0000000001
 44
0.0000000001
 40
0.0
 40
0.0
 40
0.0
 40
0.0
 40
2.015092676388163
 40
5.700149874406355
 40
8.073387978155489
 40
9.063554547923544
 40
9.063554547923544
 40
9.063554547923544
 40
9.063554547923544
 10
86.01184343036084
 20
47.24076253521537
 30
0.0
 10
86.13589049868426
 20
46.55223627148138
 30
0.0
 10
86.48678596329956
 20
44.60458247781895
 30
0.0
 10
83.64534767674479
 20
42.43512512221321
 30
0.0
 10
81.251775991062
 20
43.19236291184501
 30
0.0
 10
80.36432944568247
 20
43.87538284359719
 30
0.0
 10
80.10307039808413
 20
44.07645989752154
 30
0.0
 11
86.01184343036084
 21
47.24076253521537
 31
0.0
 11
86.08941366129784
 21
45.22716343069987
 31
0.0
 11
83.21136384513579
 21
42.92575607684978
 31
0.0
 11
80.90892399220592
 21
43.5011079871856
 31
0.0
 11
80.10307039808413
 21
44.07645989752154
 31
0.0
  0
LINE
  5
21DD
102
{ACAD_REACTORS
330
22C8
102
}
330
2
100
AcDbEntity
  8
KIJUN
100
AcDbLine
 10
82.82141061700917
 20
52.76675426607528
 30
0.0
 11
86.01184343036084
 21
47.24076253521537
 31
0.0
  0
SPLINE
  5
21DE
102
{ACAD_REACTORS
330
22C8
102
}
330
2
100
AcDbEntity
  8
KIJUN
100
AcDbSpline
210
0.0
220
0.0
230
1.0
 70
     8
 71
     3
 72
    11
 73
     7
 74
     5
 42
0.0000000001
 43
0.0000000001
 44
0.0000000001
 40
0.0
 40
0.0
 40
0.0
 40
0.0
 40
1.813583408749638
 40
5.130134886965898
 40
7.266049180340084
 40
8.157199093131334
 40
8.157199093131334
 40
8.157199093131334
 40
8.157199093131334
 10
66.83622123866848
 20
60.81250985832799
 30
0.0
 10
66.24374694591302
 20
61.02566155581852
 30
0.0
 10
64.56779809005604
 20
61.62860981517987
 30
0.0
 10
64.15552065486281
 20
64.81954759070051
 30
0.0
 10
65.82283635969384
 20
66.34439508238855
 30
0.0
 10
66.75454865608429
 20
66.72873224061959
 30
0.0
 10
67.02883928063852
 20
66.84187884132348
 30
0.0
 11
66.83622123866848
 21
60.81250985832799
 31
0.0
 11
65.23186945495331
 21
61.658169443848
 31
0.0
 11
64.73322236262515
 21
64.93702058181861
 31
0.0
 11
66.21776272986358
 21
66.47268648515819
 31
0.0
 11
67.02883928063852
 21
66.84187884132348
 31
0.0
  0
LINE
  5
21DF
102
{ACAD_REACTORS
330
22C8
102
}
330
2
100
AcDbEntity
  8
KIJUN
100
AcDbLine
 10
73.32099373992218
 20
60.81250985832809
 30
0.0
 11
66.83622123866848
 21
60.81250985832799
 31
0.0
  0
SPLINE
  5
21E0
102
{ACAD_REACTORS
330
22C8
102
}
330
2
100
AcDbEntity
  8
KIJUN
100
AcDbSpline
210
0.0
220
0.0
230
1.0
 70
     8
 71
     3
 72
    11
 73
     7
 74
     5
 42
0.0000000001
 43
0.0000000001
 44
0.0000000001
 40
0.0
 40
0.0
 40
0.0
 40
0.0
 40
1.813583408749265
 40
5.130134886965417
 40
7.266049180339531
 40
8.157199093130795
 40
8.157199093130795
 40
8.157199093130795
 40
8.157199093130795
 10
72.12046121356093
 20
69.96508197422873
 30
0.0
 10
71.63962928229671
 20
70.37160391409876
 30
0.0
 10
70.27948634459381
 20
71.52154406903348
 30
0.0
 10
67.3099144515009
 20
70.28311791355799
 30
0.0
 10
66.82301563921794
 20
68.07675641120147
 30
0.0
 10
66.95602604476653
 20
67.07770131439352
 30
0.0
 10
66.99518352648215
 20
66.7835853651577
 30
0.0
 11
72.12046121356093
 21
69.96508197422873
 31
0.0
 11
70.58592263768947
 21
70.93166158277267
 31
0.0
 11
67.49703071081535
 21
69.72407706326703
 31
0.0
 11
66.90937521041701
 21
67.67059444062534
 31
0.0
 11
66.99518352648215
 21
66.7835853651577
 31
0.0
  0
LINE
  5
21E1
102
{ACAD_REACTORS
330
22C8
102
}
330
2
100
AcDbEntity
  8
KIJUN
100
AcDbLine
 10
75.362847464188
 20
64.34910425038061
 30
0.0
 11
72.12046121356093
 21
69.96508197422873
 31
0.0
  0
SPLINE
  5
21E2
102
{ACAD_REACTORS
330
22C8
102
}
330
2
100
AcDbEntity
  8
KIJUN
100
AcDbSpline
210
0.0
220
0.0
230
1.0
 70
     8
 71
     3
 72
    11
 73
     7
 74
     5
 42
0.0000000001
 43
0.0000000001
 44
0.0000000001
 40
0.0
 40
0.0
 40
0.0
 40
0.0
 40
1.813583408749073
 40
5.130134886965901
 40
7.266049180339859
 40
8.157199093131278
 40
8.157199093131278
 40
8.157199093131278
 40
8.157199093131278
 10
72.12482307554956
 20
48.49914929752765
 30
0.0
 10
71.64399114428539
 20
48.09262735765763
 30
0.0
 10
70.28384820658238
 20
46.94268720272275
 30
0.0
 10
67.31427631348953
 20
48.18111335819828
 30
0.0
 10
66.82737750120555
 20
50.38747486055491
 30
0.0
 10
66.9603879067547
 20
51.38652995736282
 30
0.0
 10
66.99954538847055
 20
51.68064590659867
 30
0.0
 11
72.12482307554956
 21
48.49914929752765
 31
0.0
 11
70.59028449967832
 21
47.53256968898369
 31
0.0
 11
67.50139257280352
 21
48.74015420848945
 31
0.0
 11
66.91373707240495
 21
50.79363683113093
 31
0.0
 11
66.99954538847055
 21
51.68064590659867
 31
0.0
  0
LINE
  5
21E3
102
{ACAD_REACTORS
330
22C8
102
}
330
2
100
AcDbEntity
  8
KIJUN
100
AcDbLine
 10
75.3663573323704
 20
54.11365132481728
 30
0.0
 11
72.12482307554956
 21
48.49914929752765
 31
0.0
  0
SPLINE
  5
21E4
102
{ACAD_REACTORS
330
22C8
102
}
330
2
100
AcDbEntity
  8
KIJUN
100
AcDbSpline
210
0.0
220
0.0
230
1.0
 70
     8
 71
     3
 72
    11
 73
     7
 74
     5
 42
0.0000000001
 43
0.0000000001
 44
0.0000000001
 40
0.0
 40
0.0
 40
0.0
 40
0.0
 40
1.813583408749236
 40
5.130134886965789
 40
7.266049180339971
 40
8.157199093131268
 40
8.157199093131268
 40
8.157199093131268
 40
8.157199093131268
 10
66.84058310065665
 20
57.65172141342839
 30
0.0
 10
66.24810880790142
 20
57.43856971593782
 30
0.0
 10
64.57215995204467
 20
56.83562145657623
 30
0.0
 10
64.15988251685064
 20
53.64468368105557
 30
0.0
 10
65.82719822168235
 20
52.1198361893679
 30
0.0
 10
66.75891051807269
 20
51.73549903113672
 30
0.0
 10
67.03320114262692
 20
51.62235243043278
 30
0.0
 11
66.84058310065665
 21
57.65172141342839
 31
0.0
 11
65.23623131694193
 21
56.80606182790836
 31
0.0
 11
64.73758422461333
 21
53.52721068993753
 31
0.0
 11
66.22212459185198
 21
51.99154478659818
 31
0.0
 11
67.03320114262692
 21
51.62235243043278
 31
0.0
  0
LINE
  5
21E5
102
{ACAD_REACTORS
330
22C8
102
}
330
2
100
AcDbEntity
  8
KIJUN
100
AcDbLine
 10
73.32141083132729
 20
57.65172141342827
 30
0.0
 11
66.84058310065643
 21
57.65172141342839
 31
0.0
  0
ARC
  5
21E6
102
{ACAD_REACTORS
330
22C8
102
}
330
2
100
AcDbEntity
  8
KIJUN
100
AcDbCircle
 10
69.84636240738336
 20
65.43488096934357
 30
0.0
 40
9.220306806228364
100
AcDbArc
 50
4.422399673713409
 51
34.62339411100125
  0
ARC
  5
21E7
102
{ACAD_REACTORS
330
22C8
102
}
330
2
100
AcDbEntity
  8
KIJUN
100
AcDbCircle
 10
73.49859691333017
 20
70.0029079511852
 30
0.0
 40
8.640806475061422
100
AcDbArc
 50
333.5004134480489
 51
10.81618846103518
  0
ARC
  5
21E8
102
{ACAD_REACTORS
330
22C8
102
}
330
2
100
AcDbEntity
  8
KIJUN
100
AcDbCircle
 10
69.84636240738336
 20
53.03115001549167
 30
0.0
 40
9.220306806228364
100
AcDbArc
 50
325.3766058889987
 51
355.5776003262861
  0
ARC
  5
21E9
102
{ACAD_REACTORS
330
22C8
102
}
330
2
100
AcDbEntity
  8
KIJUN
100
AcDbCircle
 10
73.49859691333017
 20
48.46312303365005
 30
0.0
 40
8.640806475061422
100
AcDbArc
 50
349.1838115389648
 51
26.49958655195113
  0
ARC
  5
21EA
102
{ACAD_REACTORS
330
22C8
102
}
330
2
100
AcDbEntity
  8
KIJUN
100
AcDbCircle
 10
78.8469893674212
 20
71.87918163645599
 30
0.0
 40
9.490731424079582
100
AcDbArc
 50
205.7667042361334
 51
242.97345257827
  0
ARC
  5
21EB
102
{ACAD_REACTORS
330
22C8
102
}
330
2
100
AcDbEntity
  8
KIJUN
100
AcDbCircle
 10
67.565696931611
 20
52.47466821009152
 30
0.0
 40
11.22573280196059
100
AcDbArc
 50
57.07497815217861
 51
86.44558047074738
  0
ARC
  5
21EC
102
{ACAD_REACTORS
330
22C8
102
}
330
2
100
AcDbEntity
  8
KIJUN
100
AcDbCircle
 10
72.48277509548689
 20
38.06976271049109
 30
0.0
 40
18.23683668015881
100
AcDbArc
 50
85.84603312488757
 51
106.0316066103369
  0
ARC
  5
21ED
102
{ACAD_REACTORS
330
22C8
102
}
330
2
100
AcDbEntity
  8
KIJUN
100
AcDbCircle
 10
76.14903259437188
 20
49.60934297943641
 30
0.0
 40
5.392203696848104
100
AcDbArc
 50
105.4048336166024
 51
169.7168369907346
  0
ARC
  5
21EE
102
{ACAD_REACTORS
330
22C8
102
}
330
2
100
AcDbEntity
  8
KIJUN
100
AcDbCircle
 10
64.60710298334629
 20
59.36924358770546
 30
0.0
 40
4.889296722637708
100
AcDbArc
 50
140.9853548111743
 51
230.7765238259326
  0
SPLINE
  5
21EF
102
{ACAD_REACTORS
330
22C8
102
}
330
2
100
AcDbEntity
  8
KIJUN
100
AcDbSpline
210
0.0
220
0.0
230
1.0
 70
     8
 71
     3
 72
    13
 73
     9
 74
     7
 42
0.0000000001
 43
0.0000000001
 44
0.0000000001
 40
0.0
 40
0.0
 40
0.0
 40
0.0
 40
7.984963435275312
 40
17.28111088738099
 40
26.74519345251262
 40
33.43989873056719
 40
37.52510535301319
 40
43.71427304612161
 40
43.71427304612161
 40
43.71427304612161
 40
43.71427304612161
 10
42.14046568048025
 20
74.15387595075185
 30
0.0
 10
42.01619056818077
 20
71.47135874383415
 30
0.0
 10
41.74723354494619
 20
65.6658371925067
 30
0.0
 10
45.20097922736346
 20
57.14636321862569
 30
0.0
 10
50.50716210465004
 20
50.46690348488958
 30
0.0
 10
55.59301175546585
 20
45.96489908760772
 30
0.0
 10
60.84274453568958
 20
43.50828898293025
 30
0.0
 10
64.32739663818461
 20
43.75119530898303
 30
0.0
 10
66.42651192755398
 20
43.89751935164338
 30
0.0
 11
42.14046568048025
 21
74.15387595075185
 31
0.0
 11
42.3015149166008
 21
66.17053678682873
 31
0.0
 11
45.54467223301503
 21
57.45845964803573
 31
0.0
 11
51.32154567681027
 21
49.96202102599648
 31
0.0
 11
56.49032762215779
 21
45.70728578611829
 31
0.0
 11
60.24022807544747
 21
44.08643423878447
 31
0.0
 11
66.42651192755398
 21
43.89751935164338
 31
0.0
  0
SPLINE
  5
21F0
102
{ACAD_REACTORS
330
22C8
102
}
330
2
100
AcDbEntity
  8
KIJUN
100
AcDbSpline
210
0.0
220
0.0
230
1.0
 70
     8
 71
     3
 72
    10
 73
     6
 74
     4
 42
0.0000000001
 43
0.0000000001
 44
0.0000000001
 40
0.0
 40
0.0
 40
0.0
 40
0.0
 40
7.555972498077995
 40
16.270762548273
 40
23.35211492007582
 40
23.35211492007582
 40
23.35211492007582
 40
23.35211492007582
 10
46.14046568047979
 20
74.23301549241762
 30
0.0
 10
45.99921643846477
 20
71.70631067730955
 30
0.0
 10
45.69505534238681
 20
66.26539435758246
 30
0.0
 10
48.16044062594198
 20
58.61721865502587
 30
0.0
 10
51.32276763661185
 20
54.38975699760956
 30
0.0
 10
52.7404271688681
 20
52.49460153276891
 30
0.0
 11
46.14046568047979
 21
74.23301549241762
 31
0.0
 11
46.15276417446716
 21
66.67705300318061
 31
0.0
 11
48.78782954942948
 21
58.37018860747434
 31
0.0
 11
52.7404271688681
 21
52.49460153276891
 31
0.0
  0
SPLINE
  5
21F1
102
{ACAD_REACTORS
330
22C8
102
}
330
2
100
AcDbEntity
  8
KIJUN
100
AcDbSpline
210
0.0
220
0.0
230
1.0
 70
     8
 71
     3
 72
    13
 73
     9
 74
     7
 42
0.0000000001
 43
0.0000000001
 44
0.0000000001
 40
0.0
 40
0.0
 40
0.0
 40
0.0
 40
3.076138234693654
 40
7.789780502293467
 40
11.86852772405634
 40
18.0488554018854
 40
23.71938484501084
 40
28.42066574366588
 40
28.42066574366588
 40
28.42066574366588
 40
28.42066574366588
 10
53.24717030574356
 20
77.11128487507926
 30
0.0
 10
53.64189054308463
 20
76.14117149734932
 30
0.0
 10
54.64145030734403
 20
73.68452953320582
 30
0.0
 10
53.50662238910382
 20
69.67335458952901
 30
0.0
 10
52.09839851798609
 20
64.93753588525343
 30
0.0
 10
51.97862318164869
 20
59.51063065346324
 30
0.0
 10
53.70418387102677
 20
54.10925072239861
 30
0.0
 10
55.97002289067768
 20
51.46465818675509
 30
0.0
 10
56.99707075903302
 20
50.26593087080494
 30
0.0
 11
53.24717030574356
 21
77.11128487507926
 31
0.0
 11
54.15930821792176
 21
74.17349133772654
 31
0.0
 11
53.44986791489714
 21
69.51354306726819
 31
0.0
 11
52.43638119814227
 21
65.56271738470513
 31
0.0
 11
52.33503239356537
 21
59.38322075268479
 31
0.0
 11
54.15930821792176
 21
54.01414989433124
 31
0.0
 11
56.99707075903302
 21
50.26593087080494
 31
0.0
  0
SPLINE
  5
21F2
102
{ACAD_REACTORS
330
22C8
102
}
330
2
100
AcDbEntity
  8
KIJUN
100
AcDbSpline
210
0.0
220
0.0
230
1.0
 70
     8
 71
     3
 72
     9
 73
     5
 74
     3
 42
0.0000000001
 43
0.0000000001
 44
0.0000000001
 40
0.0
 40
0.0
 40
0.0
 40
0.0
 40
4.599671500866834
 40
9.902420982179084
 40
9.902420982179084
 40
9.902420982179084
 40
9.902420982179084
 10
54.37147441019897
 20
81.56902198387797
 30
0.0
 10
55.53399016485389
 20
80.46624121440448
 30
0.0
 10
58.03671680497126
 20
78.09211527338454
 30
0.0
 10
57.95367668239089
 20
74.61646041010998
 30
0.0
 10
57.90920867121122
 20
72.75524616193592
 30
0.0
 11
54.37147441019897
 21
81.56902198387797
 31
0.0
 11
57.30111672975908
 21
78.02301383451776
 31
0.0
 11
57.90920867121122
 21
72.75524616193592
 31
0.0
  0
SPLINE
  5
21F3
102
{ACAD_REACTORS
330
22C8
102
}
330
2
100
AcDbEntity
  8
KIJUN
100
AcDbSpline
210
0.0
220
0.0
230
1.0
 70
     8
 71
     3
 72
    13
 73
     9
 74
     7
 42
0.0000000001
 43
0.0000000001
 44
0.0000000001
 40
0.0
 40
0.0
 40
0.0
 40
0.0
 40
1.935751721441231
 40
6.354353725176876
 40
11.76932118936562
 40
18.84758880859276
 40
23.96185006523536
 40
27.97062729438839
 40
27.97062729438839
 40
27.97062729438839
 40
27.97062729438839
 10
59.83912247001331
 20
72.48579872559594
 30
0.0
 10
59.13779557600986
 20
72.59735656732387
 30
0.0
 10
56.83559994207826
 20
72.96355951541102
 30
0.0
 10
55.93955585265831
 20
67.86049239842471
 30
0.0
 10
53.51760166933326
 20
63.16232282045817
 30
0.0
 10
54.7834628384615
 20
56.85267619154724
 30
0.0
 10
57.7257013086986
 20
52.21614592429463
 30
0.0
 10
60.29509001148284
 20
50.53101517548454
 30
0.0
 10
61.42411154752062
 20
49.79054764545129
 30
0.0
 11
59.83912247001331
 21
72.48579872559594
 31
0.0
 11
57.90389393532564
 21
72.53080145432784
 31
0.0
 11
55.88223568070566
 21
68.60181410782956
 31
0.0
 11
54.26065702249866
 21
63.43534962101944
 31
0.0
 11
55.37549210082602
 21
56.44542721533207
 31
0.0
 11
58.21325464193728
 21
52.19069197545389
 31
0.0
 11
61.42411154752062
 21
49.79054764545129
 31
0.0
  0
SPLINE
  5
21F4
102
{ACAD_REACTORS
330
22C8
102
}
330
2
100
AcDbEntity
  8
KIJUN
100
AcDbSpline
210
0.0
220
0.0
230
1.0
 70
     8
 71
     3
 72
    11
 73
     7
 74
     5
 42
0.0000000001
 43
0.0000000001
 44
0.0000000001
 40
0.0
 40
0.0
 40
0.0
 40
0.0
 40
6.168155897675249
 40
10.51956573039545
 40
15.52387389103844
 40
19.01728632349843
 40
19.01728632349843
 40
19.01728632349843
 40
19.01728632349843
 10
60.2983884891089
 20
70.29967388345983
 30
0.0
 10
59.23937396161358
 20
68.53643318643228
 30
0.0
 10
57.43326316995387
 20
65.52929025447742
 30
0.0
 10
55.97460578920288
 20
60.42047958598473
 30
0.0
 10
57.65199820639452
 20
55.96027598368713
 30
0.0
 10
60.10320527628755
 20
54.46121378271389
 30
0.0
 10
61.11089635752273
 20
53.84494940069112
 30
0.0
 11
60.2983884891089
 21
70.29967388345983
 31
0.0
 11
57.40246553433599
 21
64.85359479680994
 31
0.0
 11
56.49032762215779
 21
60.59885955693175
 31
0.0
 11
58.31460344651418
 21
55.93891128647351
 31
0.0
 11
61.11089635752273
 21
53.84494940069112
 31
0.0
  0
SPLINE
  5
21F5
102
{ACAD_REACTORS
330
22C8
102
}
330
2
100
AcDbEntity
  8
KIJUN
100
AcDbSpline
210
0.0
220
0.0
230
1.0
 70
     8
 71
     3
 72
    10
 73
     6
 74
     4
 42
0.0000000001
 43
0.0000000001
 44
0.0000000001
 40
0.0
 40
0.0
 40
0.0
 40
0.0
 40
6.112787698189445
 40
16.7357878432382
 40
30.76000774654285
 40
30.76000774654285
 40
30.76000774654285
 40
30.76000774654285
 10
30.14046568047957
 20
74.23301549241762
 30
0.0
 10
30.40316836483709
 20
72.1820968868237
 30
0.0
 10
31.12240426968595
 20
66.56702560320361
 30
0.0
 10
38.10604206531298
 20
58.43337754944812
 30
0.0
 10
44.08912430725075
 20
52.91551343265871
 30
0.0
 10
47.49348637712637
 20
49.77585956424696
 30
0.0
 11
30.14046568047957
 21
74.23301549241762
 31
0.0
 11
31.33952727941482
 21
68.23898306632123
 31
0.0
 11
37.40578191494751
 21
59.51839324804723
 31
0.0
 11
47.49348637712637
 21
49.77585956424696
 31
0.0
  0
SPLINE
  5
21F6
102
{ACAD_REACTORS
330
22C8
102
}
330
2
100
AcDbEntity
  8
KIJUN
100
AcDbSpline
210
0.0
220
0.0
230
1.0
 70
     8
 71
     3
 72
    10
 73
     6
 74
     4
 42
0.0000000001
 43
0.0000000001
 44
0.0000000001
 40
0.0
 40
0.0
 40
0.0
 40
0.0
 40
6.375408744935858
 40
14.81302697865667
 40
26.44291960223474
 40
26.44291960223474
 40
26.44291960223474
 40
26.44291960223474
 10
15.64046568048002
 20
75.23301549241773
 30
0.0
 10
16.96047338924183
 20
73.54878579342425
 30
0.0
 10
20.02746259482882
 20
69.63554023261806
 30
0.0
 10
27.62221534149353
 20
64.95128500178065
 30
0.0
 10
32.99626866665591
 20
60.99414969133582
 30
0.0
 10
36.11073879548553
 20
58.7008379256315
 30
0.0
 11
15.64046568048002
 21
75.23301549241773
 31
0.0
 11
19.82045922951352
 21
70.41913030526973
 31
0.0
 11
26.63647599747469
 21
65.44566904806766
 31
0.0
 11
36.11073879548553
 21
58.7008379256315
 31
0.0
  0
SPLINE
  5
21F7
102
{ACAD_REACTORS
330
22C8
102
}
330
2
100
AcDbEntity
  8
KIJUN
100
AcDbSpline
210
0.0
220
0.0
230
1.0
 70
     8
 71
     3
 72
    14
 73
    10
 74
     8
 42
0.0000000001
 43
0.0000000001
 44
0.0000000001
 40
0.0
 40
0.0
 40
0.0
 40
0.0
 40
3.923422351948948
 40
7.71245588303268
 40
12.21309004058281
 40
17.55744804209556
 40
23.3081078476454
 40
28.18481492126856
 40
33.36600276404033
 40
33.36600276404033
 40
33.36600276404033
 40
33.36600276404033
 10
2.640465680477518
 20
62.23301549241774
 30
0.0
 10
2.934710045056277
 20
63.47892308159683
 30
0.0
 10
3.513120034365073
 20
65.92806223968572
 30
0.0
 10
5.931563795667443
 20
69.92859057771346
 30
0.0
 10
10.95793090306364
 20
68.82810716273286
 30
0.0
 10
16.23658102706949
 20
69.3010164556899
 30
0.0
 10
20.41525977150664
 20
65.38611858431901
 30
0.0
 10
25.38882483423169
 20
63.59424823872095
 30
0.0
 10
28.03422213916559
 20
61.48871500444125
 30
0.0
 10
29.39696260022197
 20
60.40407818066421
 30
0.0
 11
2.640465680477518
 21
62.23301549241774
 31
0.0
 11
3.768741147504215
 21
65.99070592967814
 31
0.0
 11
6.086186449907017
 21
68.98840877853558
 31
0.0
 11
10.58475747246098
 21
69.12466799893832
 31
0.0
 11
15.90125041856913
 21
68.57963111732783
 31
0.0
 11
20.8087819598959
 21
65.58192826847016
 31
0.0
 11
25.17103251418916
 21
63.40178102952177
 31
0.0
 11
29.39696260022197
 21
60.40407818066421
 31
0.0
  0
SPLINE
  5
21F8
102
{ACAD_REACTORS
330
22C8
102
}
330
2
100
AcDbEntity
  8
KIJUN
100
AcDbSpline
210
0.0
220
0.0
230
1.0
 70
     8
 71
     3
 72
    14
 73
    10
 74
     8
 42
0.0000000001
 43
0.0000000001
 44
0.0000000001
 40
0.0
 40
0.0
 40
0.0
 40
0.0
 40
3.111245590674612
 40
6.174272450808947
 40
9.591645761625056
 40
12.52789410640861
 40
17.50305911698301
 40
23.40429271868673
 40
26.81218142715907
 40
26.81218142715907
 40
26.81218142715907
 40
26.81218142715907
 10
-1.956712760381378
 20
68.71589033773034
 30
0.0
 10
-2.825007178526448
 20
67.97790275545354
 30
0.0
 10
-4.548139007531858
 20
66.51336507577048
 30
0.0
 10
-7.968482121552341
 20
68.61328603726002
 30
0.0
 10
-7.626043423727509
 20
72.73310534480156
 30
0.0
 10
-3.466837093861016
 20
73.46775535973541
 30
0.0
 10
0.8594858281646509
 20
74.53038243595355
 30
0.0
 10
5.734899986739009
 20
73.79098633938167
 30
0.0
 10
8.686362499425854
 20
72.8687580647431
 30
0.0
 10
9.766835548906556
 20
72.53114822151019
 30
0.0
 11
-1.956712760381378
 21
68.71589033773034
 31
0.0
 11
-4.683119467565802
 21
67.21703891330162
 31
0.0
 11
-7.273205706489761
 21
68.85214955813308
 31
0.0
 11
-7.000565212973242
 21
72.25862978070495
 31
0.0
 11
-4.274158505788591
 21
73.34870354392592
 31
0.0
 11
0.6333734785425805
 21
74.16625886634164
 31
0.0
 11
6.495147411684229
 21
73.48496276432865
 31
0.0
 11
9.766835548906556
 21
72.53114822151019
 31
0.0
  0
SPLINE
  5
21F9
102
{ACAD_REACTORS
330
22C8
102
}
330
2
100
AcDbEntity
  8
KIJUN
100
AcDbSpline
210
0.0
220
0.0
230
1.0
 70
     8
 71
     3
 72
    10
 73
     6
 74
     4
 42
0.0000000001
 43
0.0000000001
 44
0.0000000001
 40
0.0
 40
0.0
 40
0.0
 40
0.0
 40
3.954568330985568
 40
6.467541434799251
 40
9.613340145753547
 40
9.613340145753547
 40
9.613340145753547
 40
9.613340145753547
 10
-3.625811317296211
 20
73.48087432324416
 30
0.0
 10
-2.319240521260411
 20
73.18089646867429
 30
0.0
 10
-0.182395218917577
 20
72.69029445055989
 30
0.0
 10
2.175568960867025
 20
70.13791972292318
 30
0.0
 10
2.060529208481966
 20
68.17307001388181
 30
0.0
 10
1.996576832134678
 20
67.080779692899
 30
0.0
 11
-3.625811317296211
 21
73.48087432324416
 31
0.0
 11
0.0880920485046772
 21
72.12237056030244
 31
0.0
 11
1.723935895613522
 21
70.21474147466574
 31
0.0
 11
1.996576832134678
 21
67.080779692899
 31
0.0
  0
SPLINE
  5
21FA
102
{ACAD_REACTORS
330
22C8
102
}
330
2
100
AcDbEntity
  8
KIJUN
100
AcDbSpline
210
0.0
220
0.0
230
1.0
 70
     8
 71
     3
 72
     9
 73
     5
 74
     3
 42
0.0000000001
 43
0.0000000001
 44
0.0000000001
 40
0.0
 40
0.0
 40
0.0
 40
0.0
 40
2.783548322867596
 40
4.749316849776753
 40
4.749316849776753
 40
4.749316849776753
 40
4.749316849776753
 10
6.989574729125479
 20
69.28027037939727
 30
0.0
 10
6.238906812526153
 20
69.82591324920523
 30
0.0
 10
4.958110012411992
 20
70.75689434777287
 30
0.0
 10
3.634845679543587
 20
71.6262713765459
 30
0.0
 10
3.087139249205847
 20
71.98611133989982
 30
0.0
 11
6.989574729125479
 21
69.28027037939727
 31
0.0
 11
4.722983096314692
 21
70.89603757667885
 31
0.0
 11
3.087139249205847
 21
71.98611133989982
 31
0.0
  0
SPLINE
  5
21FB
102
{ACAD_REACTORS
330
22C8
102
}
330
2
100
AcDbEntity
  8
KIJUN
100
AcDbSpline
210
0.0
220
0.0
230
1.0
 70
     8
 71
     3
 72
    12
 73
     8
 74
     6
 42
0.0000000001
 43
0.0000000001
 44
0.0000000001
 40
0.0
 40
0.0
 40
0.0
 40
0.0
 40
3.025398860440039
 40
5.35392591772878
 40
7.811353319471884
 40
13.26416673384096
 40
16.42606957799547
 40
16.42606957799547
 40
16.42606957799547
 40
16.42606957799547
 10
6.581991494745352
 20
59.01950046508545
 30
0.0
 10
6.601154339166043
 20
60.00225694923035
 30
0.0
 10
6.635066049368276
 20
61.74140132456537
 30
0.0
 10
7.27080026725352
 20
64.60512713902701
 30
0.0
 10
11.04493686467768
 20
65.29922279565986
 30
0.0
 10
14.58029904806966
 20
65.19019653308193
 30
0.0
 10
17.44126270732016
 20
64.77902726135923
 30
0.0
 10
18.49133665749309
 20
64.62811372565193
 30
0.0
 11
6.581991494745352
 21
59.01950046508545
 31
0.0
 11
6.767788348205385
 21
62.03918882549555
 31
0.0
 11
7.585710271759808
 21
64.21933606444406
 31
0.0
 11
9.903155574162383
 21
65.03689138685968
 31
0.0
 11
15.35596898853146
 21
65.03689138685968
 31
0.0
 11
18.49133665749309
 21
64.62811372565193
 31
0.0
  0
SPLINE
  5
21FC
102
{ACAD_REACTORS
330
22C8
102
}
330
2
100
AcDbEntity
  8
KIJUN
100
AcDbSpline
210
0.0
220
0.0
230
1.0
 70
     8
 71
     3
 72
    10
 73
     6
 74
     4
 42
0.0000000001
 43
0.0000000001
 44
0.0000000001
 40
0.0
 40
0.0
 40
0.0
 40
0.0
 40
1.981899636761066
 40
4.17975615793686
 40
8.575924387287219
 40
8.575924387287219
 40
8.575924387287219
 40
8.575924387287219
 10
10.36341432265203
 20
58.83985667136392
 30
0.0
 10
10.1465162762482
 20
59.56919367702503
 30
0.0
 10
9.689085976405976
 20
61.10733959727213
 30
0.0
 10
12.97646020892108
 20
62.30112646859172
 30
0.0
 10
15.05847418255223
 20
62.38922926310763
 30
0.0
 10
16.44653140560263
 20
62.44796648670342
 30
0.0
 11
10.36341432265203
 21
58.83985667136392
 31
0.0
 11
10.17579651068377
 21
60.81285584187208
 31
0.0
 11
12.08428085130913
 21
61.90292960509305
 31
0.0
 11
16.44653140560263
 21
62.44796648670342
 31
0.0
  0
LINE
  5
21FD
102
{ACAD_REACTORS
330
22C8
102
}
330
2
100
AcDbEntity
  8
KIJUN
100
AcDbLine
 10
22.14046568048002
 20
77.23301549241762
 30
0.0
 11
22.44462625000938
 21
75.25633234206918
 31
0.0
  0
LINE
  5
21FE
102
{ACAD_REACTORS
330
22C8
102
}
330
2
100
AcDbEntity
  8
KIJUN
100
AcDbLine
 10
22.44462625000938
 20
75.25633234206918
 30
0.0
 11
23.12622770530311
 21
73.62122198473116
 31
0.0
  0
SPLINE
  5
21FF
102
{ACAD_REACTORS
330
22C8
102
}
330
2
100
AcDbEntity
  8
KIJUN
100
AcDbSpline
210
0.0
220
0.0
230
1.0
 70
     8
 71
     3
 72
    14
 73
    10
 74
     8
 42
0.0000000001
 43
0.0000000001
 44
0.0000000001
 40
0.0
 40
0.0
 40
0.0
 40
0.0
 40
4.638047505590863
 40
8.345786351448801
 40
9.899814599715618
 40
14.04402692821629
 40
19.92703284763898
 40
24.80655042310441
 40
30.91501218574644
 40
30.91501218574644
 40
30.91501218574644
 40
30.91501218574644
 10
42.08202067656384
 20
72.84273064143917
 30
0.0
 10
40.73010459906249
 20
73.42267831050452
 30
0.0
 10
38.29744242078277
 20
74.46624660841556
 30
0.0
 10
35.77741856113903
 20
78.29191845109392
 30
0.0
 10
32.9987189155533
 20
75.85076839389396
 30
0.0
 10
33.17425203682029
 20
71.74278550716751
 30
0.0
 10
33.97489960540367
 20
66.76275647462844
 30
0.0
 10
37.75781306557451
 20
62.40918935306078
 30
0.0
 10
40.0066519140517
 20
59.54415097129055
 30
0.0
 10
41.25683137777037
 20
57.95141250091046
 30
0.0
 11
42.08202067656384
 21
72.84273064143917
 31
0.0
 11
38.12146370880873
 21
75.25633234206918
 31
0.0
 11
35.12241650810756
 21
77.43647986851101
 31
0.0
 11
33.89553362277593
 21
76.48266532569278
 31
0.0
 11
33.2139321674822
 21
72.39488900110768
 31
0.0
 11
34.5771355210743
 21
66.67200203169113
 31
0.0
 11
37.43986225351477
 21
62.72048492750866
 31
0.0
 11
41.25683137777037
 21
57.95141250091046
 31
0.0
  0
SPLINE
  5
2200
102
{ACAD_REACTORS
330
22C8
102
}
330
2
100
AcDbEntity
  8
KIJUN
100
AcDbSpline
210
0.0
220
0.0
230
1.0
 70
     8
 71
     3
 72
     9
 73
     5
 74
     3
 42
0.0000000001
 43
0.0000000001
 44
0.0000000001
 40
0.0
 40
0.0
 40
0.0
 40
0.0
 40
4.59967150086689
 40
9.902420982179211
 40
9.902420982179211
 40
9.902420982179211
 40
9.902420982179211
 10
106.1218060598348
 20
81.32165621941794
 30
0.0
 10
104.9488011185636
 20
80.2300392018267
 30
0.0
 10
102.4234927915548
 20
77.87994718819873
 30
0.0
 10
102.4733027285078
 20
74.40365730374671
 30
0.0
 10
102.4999759650645
 20
72.54210300153681
 30
0.0
 11
106.1218060598348
 21
81.32165621941794
 31
0.0
 11
103.1583986607186
 21
77.80381675424189
 31
0.0
 11
102.4999759650645
 21
72.54210300153681
 31
0.0
  0
SPLINE
  5
2202
102
{ACAD_REACTORS
330
22C8
102
}
330
2
100
AcDbEntity
  8
KIJUN
100
AcDbSpline
210
0.0
220
0.0
230
1.0
 70
     8
 71
     3
 72
    12
 73
     8
 74
     6
 42
0.0000000001
 43
0.0000000001
 44
0.0000000001
 40
0.0
 40
0.0
 40
0.0
 40
0.0
 40
3.436038901327818
 40
6.681968969413472
 40
10.49552420185158
 40
13.71396342164269
 40
17.85281455205319
 40
17.85281455205319
 40
17.85281455205319
 40
17.85281455205319
 10
118.2813689468657
 20
73.78992364082887
 30
0.0
 10
118.8170409759224
 20
74.83744211188891
 30
0.0
 10
119.858747423005
 20
76.87452205175976
 30
0.0
 10
122.7757412435467
 20
78.70942582039756
 30
0.0
 10
126.3324329033981
 20
80.60691840587248
 30
0.0
 10
129.2721200841392
 20
77.38571756765276
 30
0.0
 10
129.9181515185764
 20
75.06171344083501
 30
0.0
 10
130.2815771556559
 20
73.75434256793005
 30
0.0
 11
118.2813689468657
 21
73.78992364082887
 31
0.0
 11
120.1039984283029
 21
76.70272042482088
 31
0.0
 11
122.7196558095263
 21
78.6248022313406
 31
0.0
 11
126.3669357317321
 21
79.7386032368754
 31
0.0
 11
128.7830331403697
 21
77.61238021859526
 31
0.0
 11
130.2815771556559
 21
73.75434256793005
 31
0.0
  0
SPLINE
  5
2205
102
{ACAD_REACTORS
330
22C8
102
}
330
2
100
AcDbEntity
  8
KIJUN
100
AcDbSpline
210
0.0
220
0.0
230
1.0
 70
     8
 71
     3
 72
    12
 73
     8
 74
     6
 42
0.0000000001
 43
0.0000000001
 44
0.0000000001
 40
0.0
 40
0.0
 40
0.0
 40
0.0
 40
2.330606345239778
 40
4.659133402528537
 40
7.116560804271789
 40
12.5693742186408
 40
15.73127706279533
 40
15.73127706279533
 40
15.73127706279533
 40
15.73127706279533
 10
153.6849687605589
 20
59.01175620248893
 30
0.0
 10
153.6623373841294
 20
59.77025007269787
 30
0.0
 10
153.6170948222169
 20
61.28656111060507
 30
0.0
 10
153.0568472000926
 20
63.91028754884766
 30
0.0
 10
149.2916999998249
 20
64.63706491440456
 30
0.0
 10
145.7544339732588
 20
64.56341961113785
 30
0.0
 10
142.8897813408067
 20
64.17944798750411
 30
0.0
 10
141.8383534081567
 20
64.0385169420224
 30
0.0
 11
153.6849687605589
 21
59.01175620248893
 31
0.0
 11
153.5366165301614
 21
61.33763615472378
 31
0.0
 11
152.7395736441688
 21
63.52550289984662
 31
0.0
 11
150.4300498628522
 21
64.36517506109282
 31
0.0
 11
144.9774856172605
 21
64.41730259333439
 31
0.0
 11
141.8383534081567
 21
64.0385169420224
 31
0.0
  0
SPLINE
  5
2206
102
{ACAD_REACTORS
330
22C8
102
}
330
2
100
AcDbEntity
  8
KIJUN
100
AcDbSpline
210
0.0
220
0.0
230
1.0
 70
     8
 71
     3
 72
    14
 73
    10
 74
     8
 42
0.0000000001
 43
0.0000000001
 44
0.0000000001
 40
0.0
 40
0.0
 40
0.0
 40
0.0
 40
3.11124559067479
 40
6.174272450808985
 40
9.591645761625214
 40
12.52789410640867
 40
17.50305911698313
 40
23.40429271868696
 40
26.81218142715924
 40
26.81218142715924
 40
26.81218142715924
 40
26.81218142715924
 10
162.324546565027
 20
67.93062852386197
 30
0.0
 10
163.1857463293838
 20
67.18437398682475
 30
0.0
 10
164.8947988052309
 20
65.70343052060332
 30
0.0
 10
168.3350603442293
 20
67.77055790066916
 30
0.0
 10
168.0320217363195
 20
71.89346257949413
 30
0.0
 10
163.8800285336418
 20
72.66783999636726
 30
0.0
 10
159.5640617539372
 20
73.77177708028241
 30
0.0
 10
154.6818019378935
 20
73.07902251054006
 30
0.0
 10
151.7216580220085
 20
72.18505162086455
 30
0.0
 10
150.6380068795833
 20
71.8577862569432
 30
0.0
 11
162.324546565027
 21
67.93062852386197
 31
0.0
 11
165.0365000431373
 21
66.40578182400679
 31
0.0
 11
167.6420991756461
 21
68.01605717517282
 31
0.0
 11
167.4020362393705
 21
71.42498811200709
 31
0.0
 11
164.6861749490733
 21
72.54107582993469
 31
0.0
 11
159.7866828410117
 21
73.40550857196046
 31
0.0
 11
153.9186637439716
 21
72.78028069458241
 31
0.0
 11
150.6380068795833
 21
71.8577862569432
 31
0.0
  0
SPLINE
  5
2207
102
{ACAD_REACTORS
330
22C8
102
}
330
2
100
AcDbEntity
  8
KIJUN
100
AcDbSpline
210
0.0
220
0.0
230
1.0
 70
     8
 71
     3
 72
    14
 73
    10
 74
     8
 42
0.0000000001
 43
0.0000000001
 44
0.0000000001
 40
0.0
 40
0.0
 40
0.0
 40
0.0
 40
3.209876138664571
 40
6.99890966974836
 40
11.49954382729825
 40
16.84390182881107
 40
22.59456163436079
 40
27.47126870798401
 40
32.65245655075577
 40
32.65245655075577
 40
32.65245655075577
 40
32.65245655075577
 10
157.6404656804824
 20
62.23301549241776
 30
0.0
 10
157.3312551815948
 20
63.23203061040413
 30
0.0
 10
156.6570433873813
 20
65.41031297004948
 30
0.0
 10
154.4593270095943
 20
69.22556831218013
 30
0.0
 10
149.407717838499
 20
68.16391493680848
 30
0.0
 10
144.1388815912501
 20
68.69039769601844
 30
0.0
 10
139.9214897908586
 20
64.81470901723042
 30
0.0
 10
134.931365540591
 20
63.07067950997842
 30
0.0
 10
132.2659154570984
 20
60.99050374198448
 30
0.0
 10
130.8928450797577
 20
59.91892947226427
 30
0.0
 11
157.6404656804824
 21
62.23301549241776
 31
0.0
 11
156.5733022031027
 21
65.26030255150465
 31
0.0
 11
154.2846200867834
 21
68.28002261636459
 31
0.0
 11
149.7875572325313
 21
68.45928082401633
 31
0.0
 11
144.4660968097255
 21
67.96509319077802
 31
0.0
 11
139.5301322309026
 21
65.01444209724446
 31
0.0
 11
135.1472393493738
 21
62.8760965052104
 31
0.0
 11
130.8928450797577
 21
59.91892947226427
 31
0.0
  0
SPLINE
  5
2209
102
{ACAD_REACTORS
330
22C8
102
}
330
2
100
AcDbEntity
  8
KIJUN
100
AcDbSpline
210
0.0
220
0.0
230
1.0
 70
     8
 71
     3
 72
     9
 73
     5
 74
     3
 42
0.0000000001
 43
0.0000000001
 44
0.0000000001
 40
0.0
 40
0.0
 40
0.0
 40
0.0
 40
2.783548322867565
 40
4.74931684977676
 40
4.74931684977676
 40
4.74931684977676
 40
4.74931684977676
 10
153.3840632121978
 20
68.58050704644859
 30
0.0
 10
154.1399130360318
 20
69.11894878535251
 30
0.0
 10
155.4295512559775
 20
70.03764324529462
 30
0.0
 10
156.761066148607
 20
70.89433047147796
 30
0.0
 10
157.3121875312886
 20
71.24891805531444
 30
0.0
 11
153.3840632121978
 21
68.58050704644859
 31
0.0
 11
155.6659976023061
 21
70.17453236148594
 31
0.0
 11
157.3121875312886
 21
71.24891805531444
 31
0.0
  0
SPLINE
  5
220A
102
{ACAD_REACTORS
330
22C8
102
}
330
2
100
AcDbEntity
  8
KIJUN
100
AcDbSpline
210
0.0
220
0.0
230
1.0
 70
     8
 71
     3
 72
    10
 73
     6
 74
     4
 42
0.0000000001
 43
0.0000000001
 44
0.0000000001
 40
0.0
 40
0.0
 40
0.0
 40
0.0
 40
3.954568330985308
 40
6.467541434798954
 40
9.613340145753152
 40
9.613340145753152
 40
9.613340145753152
 40
9.613340145753152
 10
164.0391209066872
 20
72.67943860658988
 30
0.0
 10
162.7297421017441
 20
72.39196494962044
 30
0.0
 10
160.5883044109437
 20
71.92181305635433
 30
0.0
 10
158.2060479154701
 20
69.3920965083595
 30
0.0
 10
158.3022989393425
 20
67.42623683275901
 30
0.0
 10
158.3558063711205
 20
66.33338505575648
 30
0.0
 11
164.0391209066872
 21
72.67943860658988
 31
0.0
 11
160.3124002932327
 21
71.35650090825141
 31
0.0
 11
158.6583947398762
 21
69.46459725056775
 31
0.0
 11
158.3558063711205
 21
66.33338505575648
 31
0.0
  0
SPLINE
  5
220B
102
{ACAD_REACTORS
330
22C8
102
}
330
2
100
AcDbEntity
  8
KIJUN
100
AcDbSpline
210
0.0
220
0.0
230
1.0
 70
     8
 71
     3
 72
    10
 73
     6
 74
     4
 42
0.0000000001
 43
0.0000000001
 44
0.0000000001
 40
0.0
 40
0.0
 40
0.0
 40
0.0
 40
7.881424952127706
 40
16.5962150023227
 40
23.67756737412564
 40
23.67756737412564
 40
23.67756737412564
 40
23.67756737412564
 10
114.14046568048
 20
74.23301549241765
 30
0.0
 10
114.3266905554635
 20
71.59586564780943
 30
0.0
 10
114.7188313273138
 20
66.04271934745106
 30
0.0
 10
112.1066153864993
 20
58.31138702915093
 30
0.0
 10
108.9085261770815
 20
54.11444538774486
 30
0.0
 10
107.4748345830623
 20
52.23297193348549
 30
0.0
 11
114.14046568048
 21
74.23301549241765
 31
0.0
 11
114.1977772395937
 21
66.35179892000872
 31
0.0
 11
111.4834207294429
 21
58.07050467606472
 31
0.0
 11
107.4748345830623
 21
52.23297193348549
 31
0.0
  0
SPLINE
  5
220C
102
{ACAD_REACTORS
330
22C8
102
}
330
2
100
AcDbEntity
  8
KIJUN
100
AcDbSpline
210
0.0
220
0.0
230
1.0
 70
     8
 71
     3
 72
    13
 73
     9
 74
     7
 42
0.0000000001
 43
0.0000000001
 44
0.0000000001
 40
0.0
 40
0.0
 40
0.0
 40
0.0
 40
7.984963435275312
 40
17.28111088738103
 40
26.74519345251272
 40
33.43989873056724
 40
37.52510535301316
 40
43.71427304612167
 40
43.71427304612167
 40
43.71427304612167
 40
43.71427304612167
 10
118.2813689468657
 20
73.78992364082887
 30
0.0
 10
118.3799941868807
 20
71.10634097376257
 30
0.0
 10
118.5934395862
 20
65.2985135465068
 30
0.0
 10
115.0584076841774
 20
56.81244581862865
 30
0.0
 10
109.6886133111054
 20
50.18401708681481
 30
0.0
 10
104.5599580246122
 20
45.73083786111847
 30
0.0
 10
99.28698055521488
 20
43.32452614453074
 30
0.0
 10
95.80480980919015
 20
43.6007337732969
 30
0.0
 10
93.70718926108953
 20
43.76711814669488
 30
0.0
 11
118.2813689468657
 21
73.78992364082887
 31
0.0
 11
118.0440083445567
 21
65.80848886961416
 31
0.0
 11
114.7177139475288
 21
57.12781360581164
 31
0.0
 11
108.8694404025584
 21
49.68694300198922
 31
0.0
 11
103.6602204424537
 21
45.48181444661099
 31
0.0
 11
99.89499640721987
 21
43.89688507513301
 31
0.0
 11
93.70718926108953
 21
43.76711814669488
 31
0.0
  0
SPLINE
  5
220E
102
{ACAD_REACTORS
330
22C8
102
}
330
2
100
AcDbEntity
  8
KIJUN
100
AcDbSpline
210
0.0
220
0.0
230
1.0
 70
     8
 71
     3
 72
    14
 73
    10
 74
     8
 42
0.0000000001
 43
0.0000000001
 44
0.0000000001
 40
0.0
 40
0.0
 40
0.0
 40
0.0
 40
4.638047505590844
 40
8.345786351448726
 40
9.899814599715623
 40
14.04402692821624
 40
19.92703284763893
 40
24.80655042310428
 40
30.91501218574647
 40
30.91501218574647
 40
30.91501218574647
 40
30.91501218574647
 10
118.3272770589319
 20
72.478279525277
 30
0.0
 10
119.6846755146608
 20
73.04527671384666
 30
0.0
 10
122.1272027832245
 20
74.06554168352847
 30
0.0
 10
124.6836839550766
 20
77.86694791267573
 30
0.0
 10
127.4389198428216
 20
75.3993457314019
 30
0.0
 10
127.2241234538182
 20
71.29322861354322
 30
0.0
 10
126.3759046393718
 20
66.32108113616208
 30
0.0
 10
122.5515450284895
 20
62.00387665921294
 30
0.0
 10
120.2754198914696
 20
59.1604675335219
 30
0.0
 10
119.0100713739077
 20
57.57975324699294
 30
0.0
 11
118.3272770589319
 21
72.478279525277
 31
0.0
 11
122.3107264757486
 21
74.85390900139066
 31
0.0
 11
125.3304782986279
 21
77.00528676396539
 31
0.0
 11
126.5481868925544
 21
76.03978711265063
 31
0.0
 11
127.190679082639
 21
71.94568164144243
 31
0.0
 11
125.7728286533713
 21
66.23608806499692
 31
0.0
 11
122.8724572194653
 21
62.3121184786396
 31
0.0
 11
119.0100713739077
 21
57.57975324699294
 31
0.0
  0
LINE
  5
220F
102
{ACAD_REACTORS
330
22C8
102
}
330
2
100
AcDbEntity
  8
KIJUN
100
AcDbLine
 10
137.986847574364
 20
74.70404235678358
 30
0.0
 11
137.2896460191575
 21
73.07552265596609
 31
0.0
  0
LINE
  5
2210
102
{ACAD_REACTORS
330
22C8
102
}
330
2
100
AcDbEntity
  8
KIJUN
100
AcDbLine
 10
138.3098908415963
 20
76.67772748274046
 30
0.0
 11
137.986847574364
 21
74.70404235678358
 31
0.0
  0
SPLINE
  5
2211
102
{ACAD_REACTORS
330
22C8
102
}
330
2
100
AcDbEntity
  8
KIJUN
100
AcDbSpline
210
0.0
220
0.0
230
1.0
 70
     8
 71
     3
 72
    10
 73
     6
 74
     4
 42
0.0000000001
 43
0.0000000001
 44
0.0000000001
 40
0.0
 40
0.0
 40
0.0
 40
0.0
 40
1.349715572318615
 40
3.547572093494391
 40
7.94374032284467
 40
7.94374032284467
 40
7.94374032284467
 40
7.94374032284467
 10
150.0924380972872
 20
58.79444758808944
 30
0.0
 10
150.1782979493164
 20
59.28342529699581
 30
0.0
 10
150.4039706919722
 20
60.56864694667805
 30
0.0
 10
147.3052981502333
 20
61.62977438373261
 30
0.0
 10
145.2394819165422
 20
61.75526092052869
 30
0.0
 10
143.8622235594964
 20
61.83892149918063
 30
0.0
 11
150.0924380972872
 21
58.79444758808944
 31
0.0
 11
150.1170406615974
 21
60.14393891447458
 31
0.0
 11
148.2190643625267
 21
61.2522074991781
 31
0.0
 11
143.8622235594964
 21
61.83892149918063
 31
0.0
  0
SPLINE
  5
2212
102
{ACAD_REACTORS
330
22C8
102
}
330
2
100
AcDbEntity
  8
KIJUN
100
AcDbSpline
210
0.0
220
0.0
230
1.0
 70
     8
 71
     3
 72
    10
 73
     6
 74
     4
 42
0.0000000001
 43
0.0000000001
 44
0.0000000001
 40
0.0
 40
0.0
 40
0.0
 40
0.0
 40
6.758370589442171
 40
15.19598882316307
 40
26.82588144674102
 40
26.82588144674102
 40
26.82588144674102
 40
26.82588144674102
 10
144.6404656804808
 20
75.23301549241792
 30
0.0
 10
143.3930074618747
 20
73.32215846561076
 30
0.0
 10
140.5881359478866
 20
69.02565509431205
 30
0.0
 10
132.6607443204121
 20
64.48901921288154
 30
0.0
 10
127.2809122539353
 20
60.55807948749006
 30
0.0
 10
124.1630931227573
 20
58.27994906856805
 30
0.0
 11
144.6404656804808
 21
75.23301549241792
 31
0.0
 11
140.5646522408951
 21
69.84197497782986
 31
0.0
 11
133.7014018883783
 21
64.93390040049337
 31
0.0
 11
124.1630931227573
 21
58.27994906856805
 31
0.0
  0
SPLINE
  5
2213
102
{ACAD_REACTORS
330
22C8
102
}
330
2
100
AcDbEntity
  8
KIJUN
100
AcDbSpline
210
0.0
220
0.0
230
1.0
 70
     8
 71
     3
 72
    10
 73
     6
 74
     4
 42
0.0000000001
 43
0.0000000001
 44
0.0000000001
 40
0.0
 40
0.0
 40
0.0
 40
0.0
 40
6.112787698189475
 40
16.73578784323827
 40
30.76000774654271
 40
30.76000774654271
 40
30.76000774654271
 40
30.76000774654271
 10
130.2815771556563
 20
73.75434256793005
 30
0.0
 10
129.9992802067767
 20
71.70602905193861
 30
0.0
 10
129.2263984908545
 20
66.09809006687891
 30
0.0
 10
122.1653241749237
 20
58.03157551425009
 30
0.0
 10
116.1297659319529
 20
52.57116030834777
 30
0.0
 10
112.6955451203332
 20
49.46419475764106
 30
0.0
 11
130.2815771556563
 21
73.75434256793005
 31
0.0
 11
129.0252688977737
 21
67.77204677080397
 31
0.0
 11
122.8759248052508
 21
59.1098473206954
 31
0.0
 11
112.6955451203332
 21
49.46419475764106
 31
0.0
  0
ARC
  5
2214
102
{ACAD_REACTORS
330
22C8
102
}
330
2
100
AcDbEntity
  8
KIJUN
100
AcDbCircle
 10
141.0873719845047
 20
74.25604548140539
 30
0.0
 40
3.684962037091132
100
AcDbArc
 50
15.37429096597457
 51
138.9148713235744
  0
SPLINE
  5
2215
102
{ACAD_REACTORS
330
22C8
102
}
330
2
100
AcDbEntity
  8
KIJUN
100
AcDbSpline
210
0.0
220
0.0
230
1.0
 70
     8
 71
     3
 72
     9
 73
     5
 74
     3
 42
0.0000000001
 43
0.0000000001
 44
0.0000000001
 40
0.0
 40
0.0
 40
0.0
 40
0.0
 40
4.028330530073437
 40
9.118709991590508
 40
9.118709991590508
 40
9.118709991590508
 40
9.118709991590508
 10
130.2815771556561
 20
73.75434256793017
 30
0.0
 10
131.1819317084247
 20
74.86479686211254
 30
0.0
 10
133.2200147294213
 20
77.37847109811939
 30
0.0
 10
136.4864523370681
 20
76.9287675595368
 30
0.0
 10
138.3098908415963
 20
76.67772748274046
 30
0.0
 11
130.2815771556561
 21
73.75434256793017
 31
0.0
 11
133.2223623986124
 21
76.5073825266544
 31
0.0
 11
138.3098908415963
 21
76.67772748274046
 31
0.0
  0
ARC
  5
2216
102
{ACAD_REACTORS
330
22C8
102
}
330
2
100
AcDbEntity
  8
KIJUN
100
AcDbCircle
 10
115.6748015096998
 20
69.00121339541795
 30
0.0
 40
5.452149999678854
100
AcDbArc
 50
61.43987864318756
 51
106.3448829746254
  0
SPLINE
  5
2217
102
{ACAD_REACTORS
330
22C8
102
}
330
2
100
AcDbEntity
  8
KIJUN
100
AcDbSpline
210
0.0
220
0.0
230
1.0
 70
     8
 71
     3
 72
    11
 73
     7
 74
     5
 42
0.0000000001
 43
0.0000000001
 44
0.0000000001
 40
0.0
 40
0.0
 40
0.0
 40
0.0
 40
6.168155897675188
 40
10.51956573039538
 40
15.52387389103835
 40
19.01728632349837
 40
19.01728632349837
 40
19.01728632349837
 40
19.01728632349837
 10
100.0874306650896
 20
70.10948289296277
 30
0.0
 10
101.1295406604408
 20
68.33619885404248
 30
0.0
 10
102.9068213868457
 20
65.31192736746837
 30
0.0
 10
104.3165731615453
 20
60.18940574870923
 30
0.0
 10
102.5966189628238
 20
55.74544140934952
 30
0.0
 10
100.1311932422906
 20
54.26988063513053
 30
0.0
 10
99.11765687461958
 20
53.66327768825431
 30
0.0
 11
100.0874306650896
 21
70.10948289296277
 31
0.0
 11
102.9311581355989
 21
64.63596836831811
 31
0.0
 11
103.8025801626343
 21
60.37270774021999
 31
0.0
 11
101.9338397595895
 21
55.73041202875288
 31
0.0
 11
99.11765687461958
 21
53.66327768825431
 31
0.0
  0
SPLINE
  5
2218
102
{ACAD_REACTORS
330
22C8
102
}
330
2
100
AcDbEntity
  8
KIJUN
100
AcDbSpline
210
0.0
220
0.0
230
1.0
 70
     8
 71
     3
 72
    13
 73
     9
 74
     7
 42
0.0000000001
 43
0.0000000001
 44
0.0000000001
 40
0.0
 40
0.0
 40
0.0
 40
0.0
 40
2.068185356091888
 40
6.486787359827506
 40
11.90175482401621
 40
18.98002244324343
 40
24.09428369988607
 40
28.10306092903901
 40
28.10306092903901
 40
28.10306092903901
 40
28.10306092903901
 10
100.4418088909468
 20
72.48579872559566
 30
0.0
 10
101.1923459650435
 20
72.52553056093794
 30
0.0
 10
103.5463779143521
 20
72.65014800227216
 30
0.0
 10
104.4311354887191
 20
67.6918312395632
 30
0.0
 10
106.7963703259831
 20
62.88277411919384
 30
0.0
 10
105.4742446168693
 20
56.61556897688871
 30
0.0
 10
102.4870147614907
 20
52.00134839207771
 30
0.0
 10
99.90171151580506
 20
50.34143997956659
 30
0.0
 10
98.7656969305442
 20
49.6120554596049
 30
0.0
 11
100.4418088909468
 21
72.48579872559566
 31
0.0
 11
102.5031448228301
 21
72.31761774248571
 31
0.0
 11
104.4871505606491
 21
68.36948338563843
 31
0.0
 11
106.059265011962
 21
63.18775309642081
 31
0.0
 11
104.8776589668314
 21
56.20880764287903
 31
0.0
 11
101.9993518939759
 21
51.98139512509158
 31
0.0
 11
98.7656969305442
 21
49.6120554596049
 31
0.0
  0
SPLINE
  5
2219
102
{ACAD_REACTORS
330
22C8
102
}
330
2
100
AcDbEntity
  8
KIJUN
100
AcDbSpline
210
0.0
220
0.0
230
1.0
 70
     8
 71
     3
 72
    13
 73
     9
 74
     7
 42
0.0000000001
 43
0.0000000001
 44
0.0000000001
 40
0.0
 40
0.0
 40
0.0
 40
0.0
 40
3.076138234693594
 40
7.789780502293361
 40
11.86852772405619
 40
18.04885540188538
 40
23.7193848450108
 40
28.42066574366594
 40
28.42066574366594
 40
28.42066574366594
 40
28.42066574366594
 10
107.2034439370304
 20
76.85337474293589
 30
0.0
 10
106.7994676953882
 20
75.88707912170722
 30
0.0
 10
105.7764687238067
 20
73.44010495624079
 30
0.0
 10
106.8728989564895
 20
69.41826463399315
 30
0.0
 10
108.2357852360132
 20
64.66920006715074
 30
0.0
 10
108.3036752426659
 20
59.24139779799766
 30
0.0
 10
106.5265575625574
 20
53.85676061398223
 30
0.0
 10
104.2355404383397
 20
51.23394977842897
 30
0.0
 10
103.197079968118
 20
50.04509555957565
 30
0.0
 11
107.2034439370304
 21
76.85337474293589
 31
0.0
 11
106.2632631340673
 21
73.92443525966155
 31
0.0
 11
106.9281230790982
 21
69.25791785581566
 31
0.0
 11
107.9037945788768
 21
65.29758402852815
 31
0.0
 11
107.9460643102491
 21
59.11740090218382
 31
0.0
 11
106.0705448726482
 21
53.76601500649906
 31
0.0
 11
103.197079968118
 21
50.04509555957565
 31
0.0
  0
ARC
  5
221A
102
{ACAD_REACTORS
330
22C8
102
}
330
2
100
AcDbEntity
  8
KIJUN
100
AcDbCircle
 10
95.67442088008807
 20
59.22074230092573
 30
0.0
 40
4.889296722637708
100
AcDbArc
 50
308.6757345111131
 51
38.46690352586794
  0
ARC
  5
221B
102
{ACAD_REACTORS
330
22C8
102
}
330
2
100
AcDbEntity
  8
KIJUN
100
AcDbCircle
 10
84.03971647434628
 20
49.57162563564634
 30
0.0
 40
5.392203696848104
100
AcDbArc
 50
9.735421346304974
 51
74.0474247204378
  0
ARC
  5
221C
102
{ACAD_REACTORS
330
22C8
102
}
330
2
100
AcDbEntity
  8
KIJUN
100
AcDbCircle
 10
87.5954909411446
 20
37.99752416845547
 30
0.0
 40
18.23683668015881
100
AcDbArc
 50
73.42065172671002
 51
93.60622521215372
  0
ARC
  5
221D
102
{ACAD_REACTORS
330
22C8
102
}
330
2
100
AcDbEntity
  8
KIJUN
100
AcDbCircle
 10
92.65005171015378
 20
52.35476539211948
 30
0.0
 40
11.22573280196059
100
AcDbArc
 50
93.00667786629624
 51
122.3772801848647
  0
ARC
  5
221E
102
{ACAD_REACTORS
330
22C8
102
}
330
2
100
AcDbEntity
  8
KIJUN
100
AcDbCircle
 10
81.55477707250202
 20
71.86623845417455
 30
0.0
 40
9.490731424079582
100
AcDbArc
 50
296.4788057587695
 51
333.6855541009105
  0
LINE
  5
221F
102
{ACAD_REACTORS
330
22C8
102
}
330
2
100
AcDbEntity
  8
KIJUN
100
AcDbLine
 10
84.86541603269415
 20
54.06824597489674
 30
0.0
 11
88.05312893120435
 21
48.42301224818061
 31
0.0
  0
LINE
  5
2220
102
{ACAD_REACTORS
330
22C8
102
}
330
2
100
AcDbEntity
  8
KIJUN
100
AcDbLine
 10
86.94409215399423
 20
57.58660521277874
 30
0.0
 11
93.42462374030811
 21
57.52465012082712
 31
0.0
  0
LINE
  5
2221
102
{ACAD_REACTORS
330
22C8
102
}
330
2
100
AcDbEntity
  8
KIJUN
100
AcDbLine
 10
86.97472557321452
 20
60.74724523673035
 30
0.0
 11
93.4592017498535
 21
60.68525243375848
 31
0.0
  0
LINE
  5
2222
102
{ACAD_REACTORS
330
22C8
102
}
330
2
100
AcDbEntity
  8
KIJUN
100
AcDbLine
 10
84.96677411010182
 20
64.30319763334342
 30
0.0
 11
88.26269954064697
 21
69.88792233106142
 31
0.0
  0
SPLINE
  5
2223
102
{ACAD_REACTORS
330
22C8
102
}
330
2
100
AcDbEntity
  8
KIJUN
100
AcDbSpline
210
0.0
220
0.0
230
1.0
 70
     8
 71
     3
 72
    11
 73
     7
 74
     5
 42
0.0000000001
 43
0.0000000001
 44
0.0000000001
 40
0.0
 40
0.0
 40
0.0
 40
0.0
 40
1.81358340874917
 40
5.13013488696564
 40
7.266049180340042
 40
8.157199093131088
 40
8.157199093131088
 40
8.157199093131088
 40
8.157199093131088
 10
93.42462374030787
 20
57.52465012082712
 30
0.0
 10
94.01503328277312
 20
57.30584425736619
 30
0.0
 10
95.68514152085374
 20
56.68690189816822
 30
0.0
 10
96.06689554991049
 20
53.49216866484283
 30
0.0
 10
94.38507887323863
 20
51.98332997281731
 30
0.0
 10
93.44973498477116
 20
51.60791731353588
 30
0.0
 10
93.17437524085177
 20
51.49739803287514
 30
0.0
 11
93.42462374030787
 21
57.52465012082712
 31
0.0
 11
95.02081791834234
 21
56.66369197637459
 31
0.0
 11
95.48809722807915
 21
53.3802237255228
 31
0.0
 11
93.98894411568926
 21
51.85881982969078
 31
0.0
 11
93.17437524085177
 21
51.49739803287514
 31
0.0
  0
SPLINE
  5
2224
102
{ACAD_REACTORS
330
22C8
102
}
330
2
100
AcDbEntity
  8
KIJUN
100
AcDbSpline
210
0.0
220
0.0
230
1.0
 70
     8
 71
     3
 72
    11
 73
     7
 74
     5
 42
0.0000000001
 43
0.0000000001
 44
0.0000000001
 40
0.0
 40
0.0
 40
0.0
 40
0.0
 40
1.813583408749167
 40
5.130134886966096
 40
7.266049180339965
 40
8.157199093131389
 40
8.157199093131389
 40
8.157199093131389
 40
8.157199093131389
 10
88.05312893120435
 20
48.42301224818061
 30
0.0
 10
88.53005264258047
 20
48.01191225152994
 30
0.0
 10
89.87914028770802
 20
46.84902201738079
 30
0.0
 10
92.86041552912815
 20
48.0590032179414
 30
0.0
 10
93.36838435640004
 20
50.26060926876079
 30
0.0
 10
93.24493074563759
 20
51.26089025949882
 30
0.0
 10
93.20858672814347
 20
51.55536710470335
 30
0.0
 11
88.05312893120435
 21
48.42301224818061
 31
0.0
 11
89.57835712636915
 21
47.44180700300273
 31
0.0
 11
92.67865211086315
 21
48.61980730724053
 31
0.0
 11
93.28591153827938
 21
50.66757825547984
 31
0.0
 11
93.20858672814347
 21
51.55536710470335
 31
0.0
  0
SPLINE
  5
2225
102
{ACAD_REACTORS
330
22C8
102
}
330
2
100
AcDbEntity
  8
KIJUN
100
AcDbSpline
210
0.0
220
0.0
230
1.0
 70
     8
 71
     3
 72
    11
 73
     7
 74
     5
 42
0.0000000001
 43
0.0000000001
 44
0.0000000001
 40
0.0
 40
0.0
 40
0.0
 40
0.0
 40
1.813583408749329
 40
5.130134886965515
 40
7.266049180339719
 40
8.157199093131119
 40
8.157199093131119
 40
8.157199093131119
 40
8.157199093131119
 10
93.4592017498535
 20
60.68525243375848
 30
0.0
 10
94.05368664613673
 20
60.89273048515211
 30
0.0
 10
95.73532295328623
 20
61.47962954068995
 30
0.0
 10
96.17808611620922
 20
64.66648023571323
 30
0.0
 10
94.52542376071006
 20
66.20719716987093
 30
0.0
 10
93.59742820642692
 20
66.60042370213074
 30
0.0
 10
93.32423176890642
 20
66.71618728230749
 30
0.0
 11
93.4592017498535
 21
60.68525243375848
 31
0.0
 11
95.07156451608649
 21
61.51553617475087
 31
0.0
 11
95.60153381919759
 21
64.78947054266632
 31
0.0
 11
94.13174187059849
 21
66.33925810761628
 31
0.0
 11
93.32423176890642
 21
66.71618728230749
 31
0.0
  0
SPLINE
  5
2226
102
{ACAD_REACTORS
330
22C8
102
}
330
2
100
AcDbEntity
  8
KIJUN
100
AcDbSpline
210
0.0
220
0.0
230
1.0
 70
     8
 71
     3
 72
    11
 73
     7
 74
     5
 42
0.0000000001
 43
0.0000000001
 44
0.0000000001
 40
0.0
 40
0.0
 40
0.0
 40
0.0
 40
1.813583408749249
 40
5.130134886965226
 40
7.266049180339349
 40
8.157199093130586
 40
8.157199093130586
 40
8.157199093130586
 40
8.157199093130586
 10
88.26269954064697
 20
69.88792233106142
 30
0.0
 10
88.74739574813373
 20
70.28982906174275
 30
0.0
 10
90.11846967371752
 20
71.42671404339154
 30
0.0
 10
93.07606682661958
 20
70.15995611388834
 30
0.0
 10
93.54185112579063
 20
67.94904080136993
 30
0.0
 10
93.39929608139721
 20
66.95130290304186
 30
0.0
 10
93.35732871409778
 20
66.65757472929761
 30
0.0
 11
88.26269954064697
 21
69.88792233106142
 31
0.0
 11
89.80640825435513
 21
70.8397879663861
 31
0.0
 11
92.8836148269802
 21
69.60272959385486
 31
0.0
 11
93.4516126939925
 21
67.54372296644703
 31
0.0
 11
93.35732871409778
 21
66.65757472929761
 31
0.0
  0
LINE
  5
2227
102
{ACAD_REACTORS
330
22C8
102
}
330
2
100
AcDbEntity
  8
KIJUN
100
AcDbLine
 10
82.75947227020287
 20
52.74142058184361
 30
0.0
 11
85.89693219664059
 21
47.18518162405587
 31
0.0
  0
LINE
  5
2228
102
{ACAD_REACTORS
330
22C8
102
}
330
2
100
AcDbEntity
  8
KIJUN
100
AcDbLine
 10
82.88310394983113
 20
65.6733520770606
 30
0.0
 11
86.12621807355299
 21
71.16859155560553
 31
0.0
  0
ARC
  5
2229
102
{ACAD_REACTORS
330
22C8
102
}
330
2
100
AcDbEntity
  8
KIJUN
100
AcDbCircle
 10
89.57926491950866
 20
52.4510492550055
 30
0.0
 40
9.615114084799087
100
AcDbArc
 50
269.4522583370438
 51
41.5161621637397
  0
LINE
  5
222A
102
{ACAD_REACTORS
330
22C8
102
}
330
2
100
AcDbEntity
  8
KIJUN
100
AcDbLine
 10
89.48734683404087
 20
42.836374537197
 30
0.0
 11
88.1404656804799
 21
40.23301549241767
 31
0.0
  0
LINE
  5
222B
102
{ACAD_REACTORS
330
22C8
102
}
330
2
100
AcDbEntity
  8
KIJUN
100
AcDbLine
 10
84.08536631674838
 20
53.45047634685432
 30
0.0
 11
89.48734683404087
 21
42.836374537197
 31
0.0
  0
LINE
  5
222C
102
{ACAD_REACTORS
330
22C8
102
}
330
2
100
AcDbEntity
  8
KIJUN
100
AcDbLine
 10
96.77876213505555
 20
58.82424772257548
 30
0.0
 11
87.13835410274146
 21
59.06109216770812
 31
0.0
  0
ARC
  5
222D
102
{ACAD_REACTORS
330
22C8
102
}
330
2
100
AcDbEntity
  8
KIJUN
100
AcDbCircle
 10
93.08848724768267
 20
64.54597367774988
 30
0.0
 40
6.808544385585785
100
AcDbArc
 50
302.8203304750682
 51
38.6943712566857
  0
LINE
  5
222E
102
{ACAD_REACTORS
330
22C8
102
}
330
2
100
AcDbEntity
  8
KIJUN
100
AcDbLine
 10
84.19519948059088
 20
64.93907663914933
 30
0.0
 11
89.27389091936152
 21
73.14633800739466
 31
0.0
  0
ARC
  5
222F
102
{ACAD_REACTORS
330
22C8
102
}
330
2
100
AcDbEntity
  8
KIJUN
100
AcDbCircle
 10
91.87823862554592
 20
66.85557893747443
 30
0.0
 40
6.808544385585785
100
AcDbArc
 50
16.61530773622529
 51
112.4893485178479
  0
SPLINE
  5
2230
102
{ACAD_REACTORS
330
22C8
102
}
330
2
100
AcDbEntity
  8
KIJUN
100
AcDbSpline
210
0.0
220
0.0
230
1.0
 70
     8
 71
     3
 72
    10
 73
     6
 74
     4
 42
0.0000000001
 43
0.0000000001
 44
0.0000000001
 40
0.0
 40
0.0
 40
0.0
 40
0.0
 40
1.240762688084094
 40
3.026499605717453
 40
4.923171194826137
 40
4.923171194826137
 40
4.923171194826137
 40
4.923171194826137
 10
100.4418088909468
 20
72.48579872559566
 30
0.0
 10
100.170400572378
 20
72.14196895212424
 30
0.0
 10
99.50837456448326
 20
71.30329070701036
 30
0.0
 10
100.7106423705981
 20
69.29991714206565
 30
0.0
 10
99.18717951978003
 20
68.97156565738763
 30
0.0
 10
98.40250049763495
 20
68.80244402650657
 30
0.0
 11
100.4418088909468
 21
72.48579872559566
 31
0.0
 11
99.86307263819913
 21
71.38827587941102
 31
0.0
 11
100.1138125759184
 21
69.62023011568454
 31
0.0
 11
98.40250049763495
 21
68.80244402650657
 31
0.0
  0
ARC
  5
2231
102
{ACAD_REACTORS
330
22C8
102
}
330
2
100
AcDbEntity
  8
KIJUN
100
AcDbCircle
 10
79.3126604472011
 20
68.24130764249924
 30
0.0
 40
11.02283552277731
100
AcDbArc
 50
26.92678239701443
 51
85.69308255102273
  0
ARC
  5
2236
102
{ACAD_REACTORS
330
22C8
102
}
330
2
100
AcDbEntity
  8
KIJUN
100
AcDbCircle
 10
-4.142809861798889
 20
69.89014174287508
 30
0.0
 40
8.21672445772109
100
AcDbArc
 50
139.5059474234159
 51
260.7221641464864
  0
ARC
  5
2238
102
{ACAD_REACTORS
330
22C8
102
}
330
2
100
AcDbEntity
  8
KIJUN
100
AcDbCircle
 10
0.1099761227980111
 20
66.94462873295681
 30
0.0
 40
13.37375737395937
100
AcDbArc
 50
96.95572882537938
 51
141.741337372121
  0
ARC
  5
2239
102
{ACAD_REACTORS
330
22C8
102
}
330
2
100
AcDbEntity
  8
KIJUN
100
AcDbCircle
 10
-0.4836637466717903
 20
66.39797733861462
 30
0.0
 40
13.86000227461195
100
AcDbArc
 50
76.13687561472821
 51
94.24506816445136
  0
ARC
  5
223A
102
{ACAD_REACTORS
330
22C8
102
}
330
2
100
AcDbEntity
  8
KIJUN
100
AcDbCircle
 10
-25.63041192029239
 20
-19.0623977256225
 30
0.0
 40
102.9315806344139
100
AcDbArc
 50
66.36213927745719
 51
73.94448194726679
  0
ARC
  5
223B
102
{ACAD_REACTORS
330
22C8
102
}
330
2
100
AcDbEntity
  8
KIJUN
100
AcDbCircle
 10
-2.455680275801686
 20
80.6966007217253
 30
0.0
 40
19.15397303766518
100
AcDbArc
 50
260.9530374655005
 51
285.4300714657854
  0
ARC
  5
223C
102
{ACAD_REACTORS
330
22C8
102
}
330
2
100
AcDbEntity
  8
KIJUN
100
AcDbCircle
 10
164.4237412227589
 20
69.89014174287508
 30
0.0
 40
8.21672445772109
100
AcDbArc
 50
279.277835853513
 51
40.49405257658444
  0
ARC
  5
223D
102
{ACAD_REACTORS
330
22C8
102
}
330
2
100
AcDbEntity
  8
KIJUN
100
AcDbCircle
 10
160.170955238162
 20
66.94462873295681
 30
0.0
 40
13.37375737395937
100
AcDbArc
 50
38.25866262787878
 51
83.04427117462109
  0
ARC
  5
223E
102
{ACAD_REACTORS
330
22C8
102
}
330
2
100
AcDbEntity
  8
KIJUN
100
AcDbCircle
 10
160.7645951076318
 20
66.39797733861462
 30
0.0
 40
13.86000227461195
100
AcDbArc
 50
85.75493183554886
 51
103.8631243852718
  0
ARC
  5
223F
102
{ACAD_REACTORS
330
22C8
102
}
330
2
100
AcDbEntity
  8
KIJUN
100
AcDbCircle
 10
185.9113432812524
 20
-19.0623977256225
 30
0.0
 40
102.9315806344139
100
AcDbArc
 50
106.055518052733
 51
113.6378607225423
  0
ARC
  5
2240
102
{ACAD_REACTORS
330
22C8
102
}
330
2
100
AcDbEntity
  8
KIJUN
100
AcDbCircle
 10
162.7366116367617
 20
80.6966007217253
 30
0.0
 40
19.15397303766518
100
AcDbArc
 50
254.5699285342144
 51
279.0469625344999
  0
ARC
  5
2241
102
{ACAD_REACTORS
330
22C8
102
}
330
2
100
AcDbEntity
  8
KIJUN
100
AcDbCircle
 10
14.74217854861523
 20
71.59051789949669
 30
0.0
 40
15.29752612814693
100
AcDbArc
 50
217.7125526622026
 51
229.9975990884914
  0
ARC
  5
2242
102
{ACAD_REACTORS
330
22C8
102
}
330
2
100
AcDbEntity
  8
KIJUN
100
AcDbCircle
 10
8.408837064021886
 20
64.65066724444977
 30
0.0
 40
5.923160605614764
100
AcDbArc
 50
233.7765304986553
 51
265.9029082975668
  0
ARC
  5
2243
102
{ACAD_REACTORS
330
22C8
102
}
330
2
100
AcDbEntity
  8
KIJUN
100
AcDbCircle
 10
8.836999780359009
 20
69.40224336651469
 30
0.0
 40
10.69354318793432
100
AcDbArc
 50
265.4336323431061
 51
301.1445405727683
  0
ARC
  5
2244
102
{ACAD_REACTORS
330
22C8
102
}
330
2
100
AcDbEntity
  8
KIJUN
100
AcDbCircle
 10
25.79299436189283
 20
41.22669064139127
 30
0.0
 40
22.19063654529271
100
AcDbArc
 50
108.8034033126331
 51
120.988807124849
  0
ARC
  5
2245
102
{ACAD_REACTORS
330
22C8
102
}
330
2
100
AcDbEntity
  8
KIJUN
100
AcDbCircle
 10
19.2879769013403
 20
49.30141385863469
 30
0.0
 40
12.94780257788932
100
AcDbArc
 50
60.93034033595685
 51
92.86652050213779
  0
ARC
  5
2247
102
{ACAD_REACTORS
330
22C8
102
}
330
2
100
AcDbEntity
  8
KIJUN
100
AcDbCircle
 10
341.1230378657304
 20
535.6227706955839
 30
0.0
 40
570.2608432528185
100
AcDbArc
 50
236.404035278443
 51
240.1451044729871
  0
ARC
  5
2248
102
{ACAD_REACTORS
330
22C8
102
}
330
2
100
AcDbEntity
  8
KIJUN
100
AcDbCircle
 10
65.59800111554597
 20
57.31608431091625
 30
0.0
 40
18.29303372437108
100
AcDbArc
 50
242.8280365684246
 51
290.9558138101089
  0
ARC
  5
2249
102
{ACAD_REACTORS
330
22C8
102
}
330
2
100
AcDbEntity
  8
KIJUN
100
AcDbCircle
 10
145.5387528123448
 20
71.59051789949669
 30
0.0
 40
15.29752612814693
100
AcDbArc
 50
310.002400911508
 51
322.2874473377975
  0
ARC
  5
224A
102
{ACAD_REACTORS
330
22C8
102
}
330
2
100
AcDbEntity
  8
KIJUN
100
AcDbCircle
 10
151.8720942969381
 20
64.65066724444977
 30
0.0
 40
5.923160605614764
100
AcDbArc
 50
274.0970917024327
 51
306.2234695013444
  0
ARC
  5
224B
102
{ACAD_REACTORS
330
22C8
102
}
330
2
100
AcDbEntity
  8
KIJUN
100
AcDbCircle
 10
151.443931580601
 20
69.40224336651469
 30
0.0
 40
10.69354318793432
100
AcDbArc
 50
238.8554594272318
 51
274.5663676568945
  0
ARC
  5
224C
102
{ACAD_REACTORS
330
22C8
102
}
330
2
100
AcDbEntity
  8
KIJUN
100
AcDbCircle
 10
134.4879369990672
 20
41.22669064139127
 30
0.0
 40
22.19063654529271
100
AcDbArc
 50
59.01119287515056
 51
71.19659668736749
  0
ARC
  5
224D
102
{ACAD_REACTORS
330
22C8
102
}
330
2
100
AcDbEntity
  8
KIJUN
100
AcDbCircle
 10
140.9929544596197
 20
49.30141385863469
 30
0.0
 40
12.94780257788932
100
AcDbArc
 50
87.13347949786289
 51
119.0696596640429
  0
ARC
  5
224E
102
{ACAD_REACTORS
330
22C8
102
}
330
2
100
AcDbEntity
  8
KIJUN
100
AcDbCircle
 10
-180.8421065047704
 20
535.6227706955839
 30
0.0
 40
570.2608432528185
100
AcDbArc
 50
299.8548955270134
 51
303.5959647215575
  0
ARC
  5
224F
102
{ACAD_REACTORS
330
22C8
102
}
330
2
100
AcDbEntity
  8
KIJUN
100
AcDbCircle
 10
94.68293024541408
 20
57.31608431091625
 30
0.0
 40
18.29303372437108
100
AcDbArc
 50
249.0441861898907
 51
297.1719634315748
  0
ARC
  5
2250
102
{ACAD_REACTORS
330
22C8
102
}
330
2
100
AcDbEntity
  8
KIJUN
100
AcDbCircle
 10
56.34054794665631
 20
76.76372268099109
 30
0.0
 40
5.526360200315222
100
AcDbArc
 50
309.2770088965709
 51
356.9374064833703
  0
ARC
  5
2251
102
{ACAD_REACTORS
330
22C8
102
}
330
2
100
AcDbEntity
  8
KIJUN
100
AcDbCircle
 10
56.18531727902945
 20
76.55671915629628
 30
0.0
 40
5.67438425111779
100
AcDbArc
 50
359.1088527204508
 51
65.89276168556795
  0
ARC
  5
2252
102
{ACAD_REACTORS
330
22C8
102
}
330
2
100
AcDbEntity
  8
KIJUN
100
AcDbCircle
 10
56.56116634836663
 20
78.18974503074755
 30
0.0
 40
4.043269884236785
100
AcDbArc
 50
61.29747949967313
 51
122.8933080189117
  0
ARC
  5
2254
102
{ACAD_REACTORS
330
22C8
102
}
330
2
100
AcDbEntity
  8
KIJUN
100
AcDbCircle
 10
59.59017242698282
 20
75.9744519762443
 30
0.0
 40
7.666470846960945
100
AcDbArc
 50
132.9620990381316
 51
143.8163582748243
  0
ARC
  5
2255
102
{ACAD_REACTORS
330
22C8
102
}
330
2
100
AcDbEntity
  8
KIJUN
100
AcDbCircle
 10
49.64473441203232
 20
83.01721903867749
 30
0.0
 40
4.522527677826677
100
AcDbArc
 50
273.8103024595576
 51
326.1876487172136
  0
ARC
  5
2256
102
{ACAD_REACTORS
330
22C8
102
}
330
2
100
AcDbEntity
  8
KIJUN
100
AcDbCircle
 10
49.9233110839031
 20
60.55459128643816
 30
0.0
 40
17.95011039525459
100
AcDbArc
 50
89.92990393239223
 51
95.08250125058124
  0
ARC
  5
2257
102
{ACAD_REACTORS
330
22C8
102
}
330
2
100
AcDbEntity
  8
KIJUN
100
AcDbCircle
 10
57.81407550492973
 20
73.31182488352268
 30
0.0
 40
11.7099000197015
100
AcDbArc
 50
161.581243601653
 51
175.4880122359273
  0
ARC
  5
2258
102
{ACAD_REACTORS
330
22C8
102
}
330
2
100
AcDbEntity
  8
KIJUN
100
AcDbCircle
 10
48.56639476328474
 20
76.522879430088
 30
0.0
 40
1.925430157111991
100
AcDbArc
 50
96.95906844819193
 51
165.2935976286669
  0
ARC
  5
2259
102
{ACAD_REACTORS
330
22C8
102
}
330
2
100
AcDbEntity
  8
KIJUN
100
AcDbCircle
 10
103.9403834143037
 20
76.76372268099109
 30
0.0
 40
5.526360200315222
100
AcDbArc
 50
183.0625935166297
 51
230.7229911034296
  0
ARC
  5
225A
102
{ACAD_REACTORS
330
22C8
102
}
330
2
100
AcDbEntity
  8
KIJUN
100
AcDbCircle
 10
104.0956140819306
 20
76.55671915629628
 30
0.0
 40
5.67438425111779
100
AcDbArc
 50
114.1072383144324
 51
180.8911472795492
  0
ARC
  5
225B
102
{ACAD_REACTORS
330
22C8
102
}
330
2
100
AcDbEntity
  8
KIJUN
100
AcDbCircle
 10
103.7197650125934
 20
78.18974503074755
 30
0.0
 40
4.043269884236785
100
AcDbArc
 50
57.10669198108758
 51
118.702520500327
  0
ARC
  5
225C
102
{ACAD_REACTORS
330
22C8
102
}
330
2
100
AcDbEntity
  8
KIJUN
100
AcDbCircle
 10
100.6907589339772
 20
75.9744519762443
 30
0.0
 40
7.666470846960945
100
AcDbArc
 50
36.18364172517548
 51
47.03790096186837
  0
ARC
  5
225D
102
{ACAD_REACTORS
330
22C8
102
}
330
2
100
AcDbEntity
  8
KIJUN
100
AcDbCircle
 10
110.6361969489277
 20
83.01721903867749
 30
0.0
 40
4.522527677826677
100
AcDbArc
 50
213.8123512827867
 51
266.1896975404428
  0
ARC
  5
225E
102
{ACAD_REACTORS
330
22C8
102
}
330
2
100
AcDbEntity
  8
KIJUN
100
AcDbCircle
 10
110.3576202770569
 20
60.55459128643816
 30
0.0
 40
17.95011039525459
100
AcDbArc
 50
84.91749874941833
 51
90.07009606760753
  0
ARC
  5
225F
102
{ACAD_REACTORS
330
22C8
102
}
330
2
100
AcDbEntity
  8
KIJUN
100
AcDbCircle
 10
102.4668558560303
 20
73.31182488352268
 30
0.0
 40
11.7099000197015
100
AcDbArc
 50
4.511987764072746
 51
18.41875639834715
  0
ARC
  5
2260
102
{ACAD_REACTORS
330
22C8
102
}
330
2
100
AcDbEntity
  8
KIJUN
100
AcDbCircle
 10
111.7145365976753
 20
76.522879430088
 30
0.0
 40
1.925430157111991
100
AcDbArc
 50
14.70640237133324
 51
83.0409315518078
  0
DIMENSION
  5
2261
330
2
100
AcDbEntity
  8
SUNPOU
100
AcDbDimension
  2
*D15
 10
172.64046568048
 20
107.0807606510202
 30
0.0
 11
80.14046568048001
 21
112.5807606510202
 31
0.0
 70
    32
 71
     5
 42
185.0
  3
STANDARD
100
AcDbAlignedDimension
 13
-12.35953431951998
 23
69.89014174287508
 33
0.0
 14
172.64046568048
 24
69.89014174287508
 34
0.0
100
AcDbRotatedDimension
1001
ACAD
1000
DSTYLE
1002
{
1070
    41
1040
2.0
1070
    42
1040
10.0
1070
    44
1040
0.0
1070
    73
1070
     0
1070
    74
1070
     0
1070
    77
1070
     1
1070
   140
1040
5.0
1070
   141
1040
0.0
1070
   146
1040
0.064286
1070
   147
1040
3.0
1070
   176
1070
    60
1070
   177
1070
    70
1070
   178
1070
    60
1070
   271
1070
     0
1070
   272
1070
     0
1070
   340
1005
1C
1070
   342
1005
109
1002
}
  0
ARC
  5
229F
102
{ACAD_REACTORS
330
22C8
102
}
330
2
100
AcDbEntity
  8
KIJUN
100
AcDbCircle
 10
80.14046568047989
 20
55.23301058423546
 30
0.0
 40
16.99999566925113
100
AcDbArc
 50
241.9275052795607
 51
298.0724947204397
  0
DIMENSION
  5
22A0
330
2
100
AcDbEntity
  8
SUNPOU
100
AcDbDimension
  2
*D17
 10
-26.7661430578055
 20
38.23301491498433
 30
0.0
 11
-32.2661430578055
 21
60.23301491498433
 31
0.0
 70
    32
 71
     5
 42
44.00000000000001
  3
STANDARD
100
AcDbAlignedDimension
 13
-12.35953431951996
 23
82.23301491498434
 33
0.0
 14
-11.46122218202435
 24
38.23301491498432
 34
0.0
 50
90.0
100
AcDbRotatedDimension
1001
ACAD
1000
DSTYLE
1002
{
1070
    41
1040
2.0
1070
    42
1040
10.0
1070
    44
1040
0.0
1070
    73
1070
     0
1070
    74
1070
     0
1070
    77
1070
     1
1070
   140
1040
5.0
1070
   141
1040
0.0
1070
   146
1040
0.064286
1070
   147
1040
3.0
1070
   176
1070
    60
1070
   177
1070
    70
1070
   178
1070
    60
1070
   271
1070
     0
1070
   272
1070
     0
1070
   340
1005
1C
1070
   342
1005
109
1002
}
  0
ENDSEC
  0
SECTION
  2
OBJECTS
  0
DICTIONARY
  5
1A
330
0
100
AcDbDictionary
281
     1
  3
ACAD_COLOR
350
144
  3
ACAD_GROUP
350
18
  3
ACAD_LAYOUT
350
58
  3
ACAD_MATERIAL
350
143
  3
ACAD_MLINESTYLE
350
19
  3
ACAD_PLOTSETTINGS
350
59
  3
ACAD_PLOTSTYLENAME
350
56
  3
ACAD_TABLESTYLE
350
145
  3
ACDBHEADERROUNDTRIPXREC
350
22DC
  3
AcDbVariableDictionary
350
1D1
  0
DICTIONARY
  5
1B4
330
A
100
AcDbDictionary
280
     1
281
     1
  3
ACAD_LAYERFILTERS
360
1A2A
  3
ACLYDICTIONARY
360
1A29
  0
DICTIONARY
  5
D13
330
2
100
AcDbDictionary
280
     1
281
     1
  3
ACAD_SORTENTS
360
D14
  0
DICTIONARY
  5
144
102
{ACAD_REACTORS
330
1A
102
}
330
1A
100
AcDbDictionary
281
     1
  0
DICTIONARY
  5
18
102
{ACAD_REACTORS
330
1A
102
}
330
1A
100
AcDbDictionary
281
     1
  3
*A1
350
E0D
  3
*A10
350
213E
  3
*A11
350
22C8
  3
*A2
350
1EFE
  3
*A3
350
2037
  3
*A4
350
FF8
  3
*A5
350
136A
  3
*A6
350
1555
  3
*A7
350
17BC
  3
*A8
350
1A98
  3
*A9
350
1CBC
  0
DICTIONARY
  5
58
102
{ACAD_REACTORS
330
1A
102
}
330
1A
100
AcDbDictionary
281
     1
  3
Model
350
5A
  3
ﾚｲｱｳﾄ1
350
5B
  0
DICTIONARY
  5
143
102
{ACAD_REACTORS
330
1A
102
}
330
1A
100
AcDbDictionary
281
     1
  0
DICTIONARY
  5
19
102
{ACAD_REACTORS
330
1A
102
}
330
1A
100
AcDbDictionary
281
     1
  3
STANDARD
350
1D
  0
DICTIONARY
  5
59
102
{ACAD_REACTORS
330
1A
102
}
330
1A
100
AcDbDictionary
281
     1
  0
ACDBDICTIONARYWDFLT
  5
56
102
{ACAD_REACTORS
330
1A
102
}
330
1A
100
AcDbDictionary
281
     1
  3
Normal
350
57
100
AcDbDictionaryWithDefault
340
57
  0
DICTIONARY
  5
145
102
{ACAD_REACTORS
330
1A
102
}
330
1A
100
AcDbDictionary
281
     1
  3
Standard
350
146
  0
DICTIONARY
  5
22DC
102
{ACAD_REACTORS
330
1A
102
}
330
1A
100
AcDbDictionary
281
     1
  0
DICTIONARY
  5
1D1
102
{ACAD_REACTORS
330
1A
102
}
330
1A
100
AcDbDictionary
281
     1
  3
CTABLESTYLE
350
1D2
  3
DIMASSOC
350
D03
  3
PROJECTNAME
350
D04
  0
DICTIONARY
  5
1A2A
102
{ACAD_REACTORS
330
1B4
102
}
330
1B4
100
AcDbDictionary
281
     1
  0
DICTIONARY
  5
1A29
102
{ACAD_REACTORS
330
1B4
102
}
330
1B4
100
AcDbDictionary
281
     1
1001
ACAD
1000
<All
  0
SORTENTSTABLE
  5
D14
102
{ACAD_REACTORS
330
D13
102
}
330
D13
100
AcDbSortentsTable
330
2
331
23
  5
23
331
1F
  5
1F
331
20
  5
20
331
21
  5
21
  0
GROUP
  5
E0D
102
{ACAD_REACTORS
330
18
102
}
330
18
100
AcDbGroup
300

 70
     1
 71
     1
  0
GROUP
  5
213E
102
{ACAD_REACTORS
330
18
102
}
330
18
100
AcDbGroup
300

 70
     1
 71
     1
  0
GROUP
  5
22C8
102
{ACAD_REACTORS
330
18
102
}
330
18
100
AcDbGroup
300

 70
     1
 71
     1
340
229F
340
2260
340
225F
340
225E
340
225D
340
225C
340
225B
340
225A
340
2259
340
2258
340
2257
340
2256
340
2255
340
2254
340
2252
340
2251
340
2250
340
224F
340
224E
340
224D
340
224C
340
224B
340
224A
340
2249
340
2248
340
2247
340
2245
340
2244
340
2243
340
2242
340
2241
340
2240
340
223F
340
223E
340
223D
340
223C
340
223B
340
223A
340
2239
340
2238
340
2236
340
2231
340
2230
340
222F
340
222E
340
222D
340
222C
340
222B
340
222A
340
2229
340
2228
340
2227
340
2226
340
2225
340
2224
340
2223
340
2222
340
2221
340
2220
340
221F
340
221E
340
221D
340
221C
340
221B
340
221A
340
2219
340
2218
340
2217
340
2216
340
2215
340
2214
340
2213
340
2212
340
2211
340
2210
340
220F
340
220E
340
220C
340
220B
340
220A
340
2209
340
2207
340
2206
340
2205
340
2202
340
2200
340
21FF
340
21FE
340
21FD
340
21FC
340
21FB
340
21FA
340
21F9
340
21F8
340
21F7
340
21F6
340
21F5
340
21F4
340
21F3
340
21F2
340
21F1
340
21F0
340
21EF
340
21EE
340
21ED
340
21EC
340
21EB
340
21EA
340
21E9
340
21E8
340
21E7
340
21E6
340
21E5
340
21E4
340
21E3
340
21E2
340
21E1
340
21E0
340
21DF
340
21DE
340
21DD
340
21DC
340
21DB
340
21DA
340
21D9
340
21D8
340
21D7
340
21D6
340
21D5
340
21D4
340
21D3
340
21D2
340
21D1
340
21D0
340
21CE
340
21C9
340
21C8
340
21C7
340
21C6
340
21C4
340
21C2
340
21C1
  0
GROUP
  5
1EFE
102
{ACAD_REACTORS
330
18
102
}
330
18
100
AcDbGroup
300

 70
     1
 71
     1
  0
GROUP
  5
2037
102
{ACAD_REACTORS
330
18
102
}
330
18
100
AcDbGroup
300

 70
     1
 71
     1
  0
GROUP
  5
FF8
102
{ACAD_REACTORS
330
18
102
}
330
18
100
AcDbGroup
300

 70
     1
 71
     1
  0
GROUP
  5
136A
102
{ACAD_REACTORS
330
18
102
}
330
18
100
AcDbGroup
300

 70
     1
 71
     1
  0
GROUP
  5
1555
102
{ACAD_REACTORS
330
18
102
}
330
18
100
AcDbGroup
300

 70
     1
 71
     1
  0
GROUP
  5
17BC
102
{ACAD_REACTORS
330
18
102
}
330
18
100
AcDbGroup
300

 70
     1
 71
     1
  0
GROUP
  5
1A98
102
{ACAD_REACTORS
330
18
102
}
330
18
100
AcDbGroup
300

 70
     1
 71
     1
  0
GROUP
  5
1CBC
102
{ACAD_REACTORS
330
18
102
}
330
18
100
AcDbGroup
300

 70
     1
 71
     1
  0
LAYOUT
  5
5A
102
{ACAD_XDICTIONARY
360
22DD
102
}
102
{ACAD_REACTORS
330
58
102
}
330
58
100
AcDbPlotSettings
  1

  2
なし
  4

  6

 40
0.0
 41
0.0
 42
0.0
 43
0.0
 44
0.0
 45
0.0
 46
0.0
 47
0.0
 48
0.0
 49
0.0
140
0.0
141
0.0
142
1.0
143
1.0
 70
  1712
 72
     0
 73
     0
 74
     0
  7
monochrome.ctb
 75
     0
147
1.0
148
0.0
149
0.0
100
AcDbLayout
  1
Model
 70
     1
 71
     0
 10
0.0
 20
0.0
 11
12.0
 21
9.0
 12
0.0
 22
0.0
 32
0.0
 14
0.0
 24
0.0
 34
0.0
 15
0.0
 25
0.0
 35
0.0
146
0.0
 13
0.0
 23
0.0
 33
0.0
 16
1.0
 26
0.0
 36
0.0
 17
0.0
 27
1.0
 37
0.0
 76
     0
330
2
  0
LAYOUT
  5
5B
102
{ACAD_XDICTIONARY
360
22DF
102
}
102
{ACAD_REACTORS
330
58
102
}
330
58
100
AcDbPlotSettings
  1

  2
なし
  4

  6

 40
0.0
 41
0.0
 42
0.0
 43
0.0
 44
0.0
 45
0.0
 46
0.0
 47
0.0
 48
0.0
 49
0.0
140
0.0
141
0.0
142
1.0
143
1.0
 70
   688
 72
     0
 73
     0
 74
     5
  7
monochrome.ctb
 75
    16
147
1.0
148
0.0
149
0.0
100
AcDbLayout
  1
ﾚｲｱｳﾄ1
 70
     1
 71
     1
 10
0.0
 20
0.0
 11
12.0
 21
9.0
 12
0.0
 22
0.0
 32
0.0
 14
1.000000000000000E+20
 24
1.000000000000000E+20
 34
1.000000000000000E+20
 15
-1.000000000000000E+20
 25
-1.000000000000000E+20
 35
-1.000000000000000E+20
146
0.0
 13
0.0
 23
0.0
 33
0.0
 16
1.0
 26
0.0
 36
0.0
 17
0.0
 27
1.0
 37
0.0
 76
     0
330
7
  0
MLINESTYLE
  5
1D
102
{ACAD_REACTORS
330
19
102
}
330
19
100
AcDbMlineStyle
  2
STANDARD
 70
     0
  3

 62
   256
 51
90.0
 52
90.0
 71
     2
 49
0.5
 62
   256
  6
BYLAYER
 49
-0.5
 62
   256
  6
BYLAYER
  0
ACDBPLACEHOLDER
  5
57
102
{ACAD_REACTORS
330
56
102
}
330
56
  0
TABLESTYLE
  5
146
102
{ACAD_REACTORS
330
145
102
}
330
145
100
AcDbTableStyle
  3
Standard
 70
     0
 71
     0
 40
0.06
 41
0.06
280
     0
281
     0
  7
STANDARD
140
0.18
170
     2
 62
     0
 63
     7
283
     0
274
    -2
284
     1
 64
     0
275
    -2
285
     1
 65
     0
276
    -2
286
     1
 66
     0
277
    -2
287
     1
 67
     0
278
    -2
288
     1
 68
     0
279
    -2
289
     1
 69
     0
  7
STANDARD
140
0.25
170
     5
 62
     0
 63
     7
283
     0
274
    -2
284
     1
 64
     0
275
    -2
285
     1
 65
     0
276
    -2
286
     1
 66
     0
277
    -2
287
     1
 67
     0
278
    -2
288
     1
 68
     0
279
    -2
289
     1
 69
     0
  7
STANDARD
140
0.18
170
     5
 62
     0
 63
     7
283
     0
274
    -2
284
     1
 64
     0
275
    -2
285
     1
 65
     0
276
    -2
286
     1
 66
     0
277
    -2
287
     1
 67
     0
278
    -2
288
     1
 68
     0
279
    -2
289
     1
 69
     0
  0
DICTIONARYVAR
  5
1D2
102
{ACAD_REACTORS
330
1D1
102
}
330
1D1
100
DictionaryVariables
280
     0
  1
STANDARD
  0
DICTIONARYVAR
  5
D03
102
{ACAD_REACTORS
330
1D1
102
}
330
1D1
100
DictionaryVariables
280
     0
  1
1
  0
DICTIONARYVAR
  5
D04
102
{ACAD_REACTORS
330
1D1
102
}
330
1D1
100
DictionaryVariables
280
     0
  1

  0
DICTIONARY
  5
22DD
330
5A
100
AcDbDictionary
280
     1
281
     1
  3
ACAD_XREC_ROUNDTRIP
360
22DE
  0
DICTIONARY
  5
22DF
330
5B
100
AcDbDictionary
280
     1
281
     1
  3
ACAD_XREC_ROUNDTRIP
360
22E0
  0
XRECORD
  5
22DE
102
{ACAD_REACTORS
330
22DD
102
}
330
22DD
100
AcDbXrecord
280
     1
102
SHADEPLOT
 70
     0
102
SHADEPLOTRESLEVEL
 70
     2
102
SHADEPLOTCUSTOMDPI
 70
   300
  0
XRECORD
  5
22E0
102
{ACAD_REACTORS
330
22DF
102
}
330
22DF
100
AcDbXrecord
280
     1
102
SHADEPLOT
 70
     0
102
SHADEPLOTRESLEVEL
 70
     2
102
SHADEPLOTCUSTOMDPI
 70
   300
  0
ENDSEC
  0
EOF
