  0
SECTION
  2
HEADER
  9
$ACADVER
  1
AC1015
  9
$ACADMAINTVER
 70
    20
  9
$DWGCODEPAGE
  3
ANSI_932
  9
$INSBASE
 10
922.019522
 20
-675.4306699999999
 30
0.0
  9
$EXTMIN
 10
-76.03961956515945
 20
-0.0023742692845872
 30
-0.0000000000000053
  9
$EXTMAX
 10
191.4899742733025
 20
131.825412208137
 30
0.0000000000000099
  9
$LIMMIN
 10
0.0
 20
0.0
  9
$LIMMAX
 10
420.0
 20
297.0
  9
$ORTHOMODE
 70
     1
  9
$REGENMODE
 70
     1
  9
$FILLMODE
 70
     1
  9
$QTEXTMODE
 70
     0
  9
$MIRRTEXT
 70
     1
  9
$LTSCALE
 40
1.0
  9
$ATTMODE
 70
     1
  9
$TEXTSIZE
 40
30.0
  9
$TRACEWID
 40
0.05
  9
$TEXTSTYLE
  7
SUNPOU
  9
$CLAYER
  8
0
  9
$CELTYPE
  6
BYLAYER
  9
$CECOLOR
 62
   256
  9
$CELTSCALE
 40
1.0
  9
$DISPSILH
 70
     0
  9
$DIMSCALE
 40
1.0
  9
$DIMASZ
 40
2.0
  9
$DIMEXO
 40
10.0
  9
$DIMDLI
 40
0.38
  9
$DIMRND
 40
0.0
  9
$DIMDLE
 40
0.0
  9
$DIMEXE
 40
0.0
  9
$DIMTP
 40
0.0
  9
$DIMTM
 40
0.0
  9
$DIMTXT
 40
5.0
  9
$DIMCEN
 40
0.0
  9
$DIMTSZ
 40
0.0
  9
$DIMTOL
 70
     0
  9
$DIMLIM
 70
     0
  9
$DIMTIH
 70
     0
  9
$DIMTOH
 70
     0
  9
$DIMSE1
 70
     0
  9
$DIMSE2
 70
     0
  9
$DIMTAD
 70
     1
  9
$DIMZIN
 70
     0
  9
$DIMBLK
  1
Dot
  9
$DIMASO
 70
     1
  9
$DIMSHO
 70
     1
  9
$DIMPOST
  1

  9
$DIMAPOST
  1

  9
$DIMALT
 70
     0
  9
$DIMALTD
 70
     2
  9
$DIMALTF
 40
25.4
  9
$DIMLFAC
 40
1.0
  9
$DIMTOFL
 70
     0
  9
$DIMTVP
 40
0.0
  9
$DIMTIX
 70
     0
  9
$DIMSOXD
 70
     0
  9
$DIMSAH
 70
     0
  9
$DIMBLK1
  1

  9
$DIMBLK2
  1

  9
$DIMSTYLE
  2
STANDARD
  9
$DIMCLRD
 70
    60
  9
$DIMCLRE
 70
    70
  9
$DIMCLRT
 70
    60
  9
$DIMTFAC
 40
0.064286
  9
$DIMGAP
 40
3.0
  9
$DIMJUST
 70
     0
  9
$DIMSD1
 70
     0
  9
$DIMSD2
 70
     0
  9
$DIMTOLJ
 70
     1
  9
$DIMTZIN
 70
     0
  9
$DIMALTZ
 70
     0
  9
$DIMALTTZ
 70
     0
  9
$DIMUPT
 70
     0
  9
$DIMDEC
 70
     0
  9
$DIMTDEC
 70
     0
  9
$DIMALTU
 70
     2
  9
$DIMALTTD
 70
     2
  9
$DIMTXSTY
  7
SUNPOU
  9
$DIMAUNIT
 70
     0
  9
$DIMADEC
 70
     0
  9
$DIMALTRND
 40
0.0
  9
$DIMAZIN
 70
     0
  9
$DIMDSEP
 70
    46
  9
$DIMATFIT
 70
     3
  9
$DIMFRAC
 70
     0
  9
$DIMLDRBLK
  1

  9
$DIMLUNIT
 70
     2
  9
$DIMLWD
 70
    -2
  9
$DIMLWE
 70
    -2
  9
$DIMTMOVE
 70
     0
  9
$LUNITS
 70
     2
  9
$LUPREC
 70
     5
  9
$SKETCHINC
 40
0.1
  9
$FILLETRAD
 40
1.0
  9
$AUNITS
 70
     0
  9
$AUPREC
 70
     0
  9
$MENU
  1
acad
  9
$ELEVATION
 40
0.0
  9
$PELEVATION
 40
0.0
  9
$THICKNESS
 40
0.0
  9
$LIMCHECK
 70
     0
  9
$CHAMFERA
 40
0.0
  9
$CHAMFERB
 40
0.0
  9
$CHAMFERC
 40
0.0
  9
$CHAMFERD
 40
0.0
  9
$SKPOLY
 70
     0
  9
$TDCREATE
 40
2450623.654673033
  9
$TDUCREATE
 40
2450623.279673032
  9
$TDUPDATE
 40
2453865.763893658
  9
$TDUUPDATE
 40
2453865.388893657
  9
$TDINDWG
 40
0.1428287153
  9
$TDUSRTIMER
 40
0.1428285417
  9
$USRTIMER
 70
     1
  9
$ANGBASE
 50
0.0
  9
$ANGDIR
 70
     0
  9
$PDMODE
 70
     0
  9
$PDSIZE
 40
0.0
  9
$PLINEWID
 40
0.0
  9
$SPLFRAME
 70
     0
  9
$SPLINETYPE
 70
     6
  9
$SPLINESEGS
 70
     8
  9
$HANDSEED
  5
17E1
  9
$SURFTAB1
 70
     6
  9
$SURFTAB2
 70
     6
  9
$SURFTYPE
 70
     6
  9
$SURFU
 70
     6
  9
$SURFV
 70
     6
  9
$UCSBASE
  2

  9
$UCSNAME
  2

  9
$UCSORG
 10
0.0
 20
0.0
 30
0.0
  9
$UCSXDIR
 10
1.0
 20
0.0
 30
0.0
  9
$UCSYDIR
 10
0.0
 20
1.0
 30
0.0
  9
$UCSORTHOREF
  2

  9
$UCSORTHOVIEW
 70
     0
  9
$UCSORGTOP
 10
0.0
 20
0.0
 30
0.0
  9
$UCSORGBOTTOM
 10
0.0
 20
0.0
 30
0.0
  9
$UCSORGLEFT
 10
0.0
 20
0.0
 30
0.0
  9
$UCSORGRIGHT
 10
0.0
 20
0.0
 30
0.0
  9
$UCSORGFRONT
 10
0.0
 20
0.0
 30
0.0
  9
$UCSORGBACK
 10
0.0
 20
0.0
 30
0.0
  9
$PUCSBASE
  2

  9
$PUCSNAME
  2

  9
$PUCSORG
 10
0.0
 20
0.0
 30
0.0
  9
$PUCSXDIR
 10
1.0
 20
0.0
 30
0.0
  9
$PUCSYDIR
 10
0.0
 20
1.0
 30
0.0
  9
$PUCSORTHOREF
  2

  9
$PUCSORTHOVIEW
 70
     0
  9
$PUCSORGTOP
 10
0.0
 20
0.0
 30
0.0
  9
$PUCSORGBOTTOM
 10
0.0
 20
0.0
 30
0.0
  9
$PUCSORGLEFT
 10
0.0
 20
0.0
 30
0.0
  9
$PUCSORGRIGHT
 10
0.0
 20
0.0
 30
0.0
  9
$PUCSORGFRONT
 10
0.0
 20
0.0
 30
0.0
  9
$PUCSORGBACK
 10
0.0
 20
0.0
 30
0.0
  9
$USERI1
 70
     0
  9
$USERI2
 70
     0
  9
$USERI3
 70
     0
  9
$USERI4
 70
     0
  9
$USERI5
 70
     0
  9
$USERR1
 40
0.0
  9
$USERR2
 40
0.0
  9
$USERR3
 40
0.0
  9
$USERR4
 40
0.0
  9
$USERR5
 40
0.0
  9
$WORLDVIEW
 70
     1
  9
$SHADEDGE
 70
     3
  9
$SHADEDIF
 70
    70
  9
$TILEMODE
 70
     1
  9
$MAXACTVP
 70
    16
  9
$PINSBASE
 10
0.0
 20
0.0
 30
0.0
  9
$PLIMCHECK
 70
     0
  9
$PEXTMIN
 10
1.000000000000000E+20
 20
1.000000000000000E+20
 30
1.000000000000000E+20
  9
$PEXTMAX
 10
-1.000000000000000E+20
 20
-1.000000000000000E+20
 30
-1.000000000000000E+20
  9
$PLIMMIN
 10
0.0
 20
0.0
  9
$PLIMMAX
 10
12.0
 20
9.0
  9
$UNITMODE
 70
     0
  9
$VISRETAIN
 70
     0
  9
$PLINEGEN
 70
     0
  9
$PSLTSCALE
 70
     1
  9
$TREEDEPTH
 70
  3020
  9
$CMLSTYLE
  2
STANDARD
  9
$CMLJUST
 70
     0
  9
$CMLSCALE
 40
1.0
  9
$PROXYGRAPHICS
 70
     1
  9
$MEASUREMENT
 70
     0
  9
$CELWEIGHT
370
    -1
  9
$ENDCAPS
280
     0
  9
$JOINSTYLE
280
     0
  9
$LWDISPLAY
290
     0
  9
$INSUNITS
 70
     0
  9
$HYPERLINKBASE
  1

  9
$STYLESHEET
  1

  9
$XEDIT
290
     1
  9
$CEPSNTYPE
380
     0
  9
$PSTYLEMODE
290
     1
  9
$FINGERPRINTGUID
  2
{FB88A696-E29C-4009-92AF-A3599A8169D5}
  9
$VERSIONGUID
  2
{92897C15-9245-4894-9C89-7D70BF91F794}
  9
$EXTNAMES
290
     1
  9
$PSVPSCALE
 40
0.0
  9
$OLESTARTUP
290
     0
  0
ENDSEC
  0
SECTION
  2
CLASSES
  0
CLASS
  1
DICTIONARYVAR
  2
AcDbDictionaryVar
  3
ObjectDBX Classes
 90
        0
280
     0
281
     0
  0
CLASS
  1
ACDBDICTIONARYWDFLT
  2
AcDbDictionaryWithDefault
  3
ObjectDBX Classes
 90
        0
280
     0
281
     0
  0
CLASS
  1
ACDBPLACEHOLDER
  2
AcDbPlaceHolder
  3
ObjectDBX Classes
 90
        0
280
     0
281
     0
  0
CLASS
  1
LAYOUT
  2
AcDbLayout
  3
ObjectDBX Classes
 90
        0
280
     0
281
     0
  0
CLASS
  1
TABLESTYLE
  2
AcDbTableStyle
  3
ObjectDBX Classes
 90
     2047
280
     0
281
     0
  0
CLASS
  1
SORTENTSTABLE
  2
AcDbSortentsTable
  3
ObjectDBX Classes
 90
        0
280
     0
281
     0
  0
ENDSEC
  0
SECTION
  2
TABLES
  0
TABLE
  2
VPORT
  5
12
330
0
100
AcDbSymbolTable
 70
     4
  0
VPORT
  5
17DB
330
12
100
AcDbSymbolTableRecord
100
AcDbViewportTableRecord
  2
*Active
 70
     0
 10
0.0
 20
0.0
 11
1.0
 21
1.0
 12
57.72517735407153
 22
65.91151896942618
 13
0.0
 23
0.0
 14
1.0
 24
1.0
 15
0.0
 25
0.0
 16
0.0
 26
0.0
 36
1.0
 17
0.0
 27
0.0
 37
0.0
 40
171.7421710006368
 41
1.565384615384615
 42
50.0
 43
0.0
 44
0.0
 50
0.0
 51
0.0
 71
     0
 72
 20000
 73
     1
 74
     1
 75
     0
 76
     0
 77
     0
 78
     0
281
     0
 65
     1
110
0.0
120
0.0
130
0.0
111
1.0
121
0.0
131
0.0
112
0.0
122
1.0
132
0.0
 79
     0
146
0.0
  0
ENDTAB
  0
TABLE
  2
LTYPE
  5
D
330
0
100
AcDbSymbolTable
 70
     2
  0
LTYPE
  5
E
330
D
100
AcDbSymbolTableRecord
100
AcDbLinetypeTableRecord
  2
BYBLOCK
 70
     0
  3

 72
    65
 73
     0
 40
0.0
  0
LTYPE
  5
F
330
D
100
AcDbSymbolTableRecord
100
AcDbLinetypeTableRecord
  2
BYLAYER
 70
     0
  3

 72
    65
 73
     0
 40
0.0
  0
LTYPE
  5
5
330
D
100
AcDbSymbolTableRecord
100
AcDbLinetypeTableRecord
  2
CONTINUOUS
 70
     0
  3
Solid line
 72
    65
 73
     0
 40
0.0
  0
ENDTAB
  0
TABLE
  2
LAYER
  5
A
102
{ACAD_XDICTIONARY
360
1B4
102
}
330
0
100
AcDbSymbolTable
 70
     6
  0
LAYER
  5
4
330
A
100
AcDbSymbolTableRecord
100
AcDbLayerTableRecord
  2
0
 70
     0
 62
     7
  6
CONTINUOUS
370
    -3
390
57
  0
LAYER
  5
25
330
A
100
AcDbSymbolTableRecord
100
AcDbLayerTableRecord
  2
KIJUN
 70
     0
 62
     7
  6
CONTINUOUS
370
    -3
390
57
  0
LAYER
  5
22
330
A
100
AcDbSymbolTableRecord
100
AcDbLayerTableRecord
  2
HOJO
 70
     0
 62
     3
  6
CONTINUOUS
370
    -3
390
57
  0
LAYER
  5
1B
330
A
100
AcDbSymbolTableRecord
100
AcDbLayerTableRecord
  2
WAKU
 70
     0
 62
     1
  6
CONTINUOUS
370
    -3
390
57
  0
LAYER
  5
31
330
A
100
AcDbSymbolTableRecord
100
AcDbLayerTableRecord
  2
DEFPOINTS
 70
     0
 62
     7
  6
CONTINUOUS
290
     0
370
    -3
390
57
  0
LAYER
  5
28
330
A
100
AcDbSymbolTableRecord
100
AcDbLayerTableRecord
  2
SUNPOU
 70
     0
 62
    70
  6
CONTINUOUS
370
    -3
390
57
  0
ENDTAB
  0
TABLE
  2
STYLE
  5
B
330
0
100
AcDbSymbolTable
 70
     3
  0
STYLE
  5
C
330
B
100
AcDbSymbolTableRecord
100
AcDbTextStyleTableRecord
  2
STANDARD
 70
     0
 40
0.0
 41
1.0
 50
0.0
 71
     0
 42
0.2
  3
txt
  4

  0
STYLE
  5
1C
330
B
100
AcDbSymbolTableRecord
100
AcDbTextStyleTableRecord
  2
SUNPOU
 70
     0
 40
0.0
 41
1.0
 50
0.0
 71
     0
 42
30.0
  3
txt
  4
bigfont
  0
STYLE
  5
14A
330
B
100
AcDbSymbolTableRecord
100
AcDbTextStyleTableRecord
  2
LIFE
 70
     0
 40
0.0
 41
0.7
 50
0.0
 71
     0
 42
10.0
  3
romans
  4
extfont
  0
ENDTAB
  0
TABLE
  2
VIEW
  5
10
330
0
100
AcDbSymbolTable
 70
     0
  0
ENDTAB
  0
TABLE
  2
UCS
  5
11
330
0
100
AcDbSymbolTable
 70
     0
  0
ENDTAB
  0
TABLE
  2
APPID
  5
14
330
0
100
AcDbSymbolTable
 70
    10
  0
APPID
  5
15
330
14
100
AcDbSymbolTableRecord
100
AcDbRegAppTableRecord
  2
ACAD
 70
     0
  0
APPID
  5
1D3
330
14
100
AcDbSymbolTableRecord
100
AcDbRegAppTableRecord
  2
ACAD_DSTYLE_DIMTEXT_FILL
 70
     0
  0
APPID
  5
1D4
330
14
100
AcDbSymbolTableRecord
100
AcDbRegAppTableRecord
  2
ACAD_DSTYLE_DIMEXT_LENGTH
 70
     0
  0
APPID
  5
1D5
330
14
100
AcDbSymbolTableRecord
100
AcDbRegAppTableRecord
  2
ACAD_DSTYLE_DIMEXT_ENABLED
 70
     0
  0
APPID
  5
1D6
330
14
100
AcDbSymbolTableRecord
100
AcDbRegAppTableRecord
  2
ACAD_DSTYLE_DIM_LINETYPE
 70
     0
  0
APPID
  5
1D7
330
14
100
AcDbSymbolTableRecord
100
AcDbRegAppTableRecord
  2
ACAD_DSTYLE_DIM_EXT1_LINETYPE
 70
     0
  0
APPID
  5
1D8
330
14
100
AcDbSymbolTableRecord
100
AcDbRegAppTableRecord
  2
ACAD_DSTYLE_DIM_EXT2_LINETYPE
 70
     0
  0
APPID
  5
294
330
14
100
AcDbSymbolTableRecord
100
AcDbRegAppTableRecord
  2
ACAD_DSTYLE_DIMJOGGED_JOGANGLE_SYMBOL
 70
     0
  0
APPID
  5
478
330
14
100
AcDbSymbolTableRecord
100
AcDbRegAppTableRecord
  2
ACAD_DSTYLE_DIMARC_LENGTH_SYMBOL
 70
     0
  0
APPID
  5
F55
330
14
100
AcDbSymbolTableRecord
100
AcDbRegAppTableRecord
  2
ACAD_EXEMPT_FROM_CAD_STANDARDS
 70
     0
  0
ENDTAB
  0
TABLE
  2
DIMSTYLE
  5
16
330
0
100
AcDbSymbolTable
 70
     3
100
AcDbDimStyleTable
 71
     1
340
1E
  0
DIMSTYLE
105
1E
102
{ACAD_REACTORS
330
1790
330
179D
102
}
330
16
100
AcDbSymbolTableRecord
100
AcDbDimStyleTableRecord
  2
STANDARD
 70
     0
340
C
  0
DIMSTYLE
105
1005
330
16
100
AcDbSymbolTableRecord
100
AcDbDimStyleTableRecord
  2
1-100
 70
     0
 40
100.0
 41
0.7
 42
2.5
 43
5.0
 44
1.0
 77
     1
147
1.0
172
     1
176
     3
177
     3
271
     2
272
     2
279
     2
340
C
342
109
  0
ENDTAB
  0
TABLE
  2
BLOCK_RECORD
  5
1
330
0
100
AcDbSymbolTable
 70
     4
  0
BLOCK_RECORD
  5
2
102
{ACAD_XDICTIONARY
360
D13
102
}
330
1
100
AcDbSymbolTableRecord
100
AcDbBlockTableRecord
  2
*MODEL_SPACE
340
5A
  0
BLOCK_RECORD
  5
7
330
1
100
AcDbSymbolTableRecord
100
AcDbBlockTableRecord
  2
*PAPER_SPACE
340
5B
  0
BLOCK_RECORD
  5
109
330
1
100
AcDbSymbolTableRecord
100
AcDbBlockTableRecord
  2
_Dot
340
0
102
{BLKREFS
331
1795
331
1796
331
17B6
331
17B7
102
}
  0
BLOCK_RECORD
  5
1791
330
1
100
AcDbSymbolTableRecord
100
AcDbBlockTableRecord
  2
*D2
340
0
  0
BLOCK_RECORD
  5
179E
330
1
100
AcDbSymbolTableRecord
100
AcDbBlockTableRecord
  2
*D3
340
0
  0
ENDTAB
  0
ENDSEC
  0
SECTION
  2
BLOCKS
  0
BLOCK
  5
3
330
2
100
AcDbEntity
  8
0
100
AcDbBlockBegin
  2
*MODEL_SPACE
 70
     0
 10
0.0
 20
0.0
 30
0.0
  3
*MODEL_SPACE
  1

  0
ENDBLK
  5
6
330
2
100
AcDbEntity
  8
0
100
AcDbBlockEnd
  0
BLOCK
  5
8
330
7
100
AcDbEntity
 67
     1
  8
0
100
AcDbBlockBegin
  2
*PAPER_SPACE
 70
     0
 10
0.0
 20
0.0
 30
0.0
  3
*PAPER_SPACE
  1

  0
ENDBLK
  5
9
330
7
100
AcDbEntity
 67
     1
  8
0
100
AcDbBlockEnd
  0
BLOCK
  5
10C
330
109
100
AcDbEntity
  8
0
100
AcDbBlockBegin
  2
_Dot
 70
     0
 10
0.0
 20
0.0
 30
0.0
  3
_Dot
  1

  0
LWPOLYLINE
  5
10A
330
109
100
AcDbEntity
  8
0
  6
ByBlock
 62
     0
100
AcDbPolyline
 90
        2
 70
     1
 43
0.5
 10
-0.25
 20
0.0
 42
1.0
 10
0.25
 20
0.0
 42
1.0
  0
LINE
  5
10B
330
109
100
AcDbEntity
  8
0
  6
ByBlock
 62
     0
370
    -2
100
AcDbLine
 10
-0.5
 20
0.0
 30
0.0
 11
-1.0
 21
0.0
 31
0.0
  0
ENDBLK
  5
10D
330
109
100
AcDbEntity
  8
0
100
AcDbBlockEnd
  0
BLOCK
  5
179B
330
1791
100
AcDbEntity
  8
0
100
AcDbBlockBegin
  2
*D2
 70
     1
 10
0.0
 20
0.0
 30
0.0
  3
*D2
  1

  0
LINE
  5
1792
330
1791
100
AcDbEntity
  8
SUNPOU
 62
    70
370
    -2
100
AcDbLine
 10
-46.52890652674415
 20
109.7967704641167
 30
0.0
 11
-46.52890652674415
 21
123.8043186415536
 31
0.0
  0
LINE
  5
1793
330
1791
100
AcDbEntity
  8
SUNPOU
 62
    70
370
    -2
100
AcDbLine
 10
190.4710934732558
 20
109.7967704641167
 30
0.0
 11
190.4710934732558
 21
123.8043186415536
 31
0.0
  0
LINE
  5
1794
330
1791
100
AcDbEntity
  8
SUNPOU
 62
    60
370
    -2
100
AcDbLine
 10
-44.52890652674414
 20
123.8043186415536
 30
0.0
 11
188.4710934732558
 21
123.8043186415536
 31
0.0
  0
INSERT
  5
1795
330
1791
100
AcDbEntity
  8
SUNPOU
 62
    60
370
    -2
100
AcDbBlockReference
  2
_Dot
 10
-46.52890652674415
 20
123.8043186415536
 30
0.0
 41
2.0
 42
2.0
 43
2.0
 50
180.0
  0
INSERT
  5
1796
330
1791
100
AcDbEntity
  8
SUNPOU
 62
    60
370
    -2
100
AcDbBlockReference
  2
_Dot
 10
190.4710934732558
 20
123.8043186415536
 30
0.0
 41
2.0
 42
2.0
 43
2.0
  0
MTEXT
  5
1797
330
1791
100
AcDbEntity
  8
SUNPOU
 62
    60
100
AcDbMText
 10
71.97109347325583
 20
129.3043186415536
 30
0.0
 40
5.0
 41
0.0
 71
     5
 72
     1
  1
\A1;237
  7
SUNPOU
 73
     1
 44
1.0
1001
ACAD
1000
MTEXTBEGIN
1070
    73
1070
     1
1070
    44
1040
1.0
1070
    74
1070
     0
1000
MTEXTEND
  0
POINT
  5
1798
330
1791
100
AcDbEntity
  8
DEFPOINTS
 62
     0
100
AcDbPoint
 10
-46.52890652674415
 20
99.79677046411669
 30
0.0
  0
POINT
  5
1799
330
1791
100
AcDbEntity
  8
DEFPOINTS
 62
     0
100
AcDbPoint
 10
190.4710934732558
 20
99.79677046411669
 30
0.0
  0
POINT
  5
179A
330
1791
100
AcDbEntity
  8
DEFPOINTS
 62
     0
100
AcDbPoint
 10
190.4710934732558
 20
123.8043186415536
 30
0.0
  0
ENDBLK
  5
179C
330
1791
100
AcDbEntity
  8
0
100
AcDbBlockEnd
  0
BLOCK
  5
17A8
330
179E
100
AcDbEntity
  8
0
100
AcDbBlockBegin
  2
*D3
 70
     1
 10
0.0
 20
0.0
 30
0.0
  3
*D3
  1

  0
LINE
  5
17B3
330
179E
100
AcDbEntity
  8
SUNPOU
 62
    70
370
    -2
100
AcDbLine
 10
-56.47599811229554
 20
104.5730595009246
 30
0.0
 11
-68.00703225063078
 21
104.5730595009246
 31
0.0
  0
LINE
  5
17B4
330
179E
100
AcDbEntity
  8
SUNPOU
 62
    70
370
    -2
100
AcDbLine
 10
-55.69794902962382
 20
35.57305950092451
 30
0.0
 11
-68.0070322506308
 21
35.57305950092451
 31
0.0
  0
LINE
  5
17B5
330
179E
100
AcDbEntity
  8
SUNPOU
 62
    60
370
    -2
100
AcDbLine
 10
-68.00703225063078
 20
102.5730595009246
 30
0.0
 11
-68.0070322506308
 21
37.57305950092451
 31
0.0
  0
INSERT
  5
17B6
330
179E
100
AcDbEntity
  8
SUNPOU
 62
    60
370
    -2
100
AcDbBlockReference
  2
_Dot
 10
-68.00703225063078
 20
104.5730595009246
 30
0.0
 41
2.0
 42
2.0
 43
2.0
 50
90.0
  0
INSERT
  5
17B7
330
179E
100
AcDbEntity
  8
SUNPOU
 62
    60
370
    -2
100
AcDbBlockReference
  2
_Dot
 10
-68.0070322506308
 20
35.57305950092451
 30
0.0
 41
2.0
 42
2.0
 43
2.0
 50
270.0
  0
MTEXT
  5
17B8
330
179E
100
AcDbEntity
  8
SUNPOU
 62
    60
100
AcDbMText
 10
-73.50703225063082
 20
70.07305950092455
 30
0.0
 40
5.0
 41
0.0
 71
     5
 72
     1
  1
\A1;69
  7
SUNPOU
 11
0.0000000000000001
 21
1.0
 31
0.0
 73
     1
 44
1.0
1001
ACAD
1000
MTEXTBEGIN
1070
    73
1070
     1
1070
    44
1040
1.0
1070
    74
1070
     0
1000
MTEXTEND
  0
POINT
  5
17B9
330
179E
100
AcDbEntity
  8
DEFPOINTS
 62
     0
100
AcDbPoint
 10
-46.47599811229554
 20
104.5730595009246
 30
0.0
  0
POINT
  5
17BA
330
179E
100
AcDbEntity
  8
DEFPOINTS
 62
     0
100
AcDbPoint
 10
-45.69794902962382
 20
35.5730595009245
 30
0.0
  0
POINT
  5
17BB
330
179E
100
AcDbEntity
  8
DEFPOINTS
 62
     0
100
AcDbPoint
 10
-68.0070322506308
 20
35.57305950092451
 30
0.0
  0
ENDBLK
  5
17A9
330
179E
100
AcDbEntity
  8
0
100
AcDbBlockEnd
  0
ENDSEC
  0
SECTION
  2
ENTITIES
  0
LINE
  5
1F
330
2
100
AcDbEntity
  8
WAKU
100
AcDbLine
 10
0.0
 20
14.0
 30
0.0
 11
148.6829221395387
 21
14.0
 31
0.0
  0
LINE
  5
20
330
2
100
AcDbEntity
  8
WAKU
100
AcDbLine
 10
0.0
 20
0.0
 30
0.0
 11
148.6829221395387
 21
0.0
 31
0.0
  0
TEXT
  5
21
330
2
100
AcDbEntity
  8
HOJO
100
AcDbText
 10
9.653966000000025
 20
2.366626000000024
 30
0.0
 40
9.0
  1
TWC213
  7
SUNPOU
100
AcDbText
  0
TEXT
  5
23
330
2
100
AcDbEntity
  8
HOJO
100
AcDbText
 10
85.84696046283864
 20
5.044386000000031
 30
0.0
 40
6.0
  1
237×69×4
  7
SUNPOU
100
AcDbText
  0
ARC
  5
15D7
102
{ACAD_REACTORS
330
17BC
102
}
330
2
100
AcDbEntity
  8
KIJUN
100
AcDbCircle
 10
74.11432949283926
 20
98.53095081141077
 30
0.0
 40
6.410970133414958
100
AcDbArc
 50
109.5304387827475
 51
151.6721505072658
  0
ARC
  5
15D8
102
{ACAD_REACTORS
330
17BC
102
}
330
2
100
AcDbEntity
  8
KIJUN
100
AcDbCircle
 10
61.19412760677779
 20
91.67446436775618
 30
0.0
 40
12.28561833333079
100
AcDbArc
 50
28.69336760500285
 51
53.67848272641319
  0
SPLINE
  5
15D9
102
{ACAD_REACTORS
330
17BC
102
}
330
2
100
AcDbEntity
  8
KIJUN
100
AcDbSpline
210
0.0
220
0.0
230
1.0
 70
     8
 71
     3
 72
    11
 73
     7
 74
     5
 42
0.0000000001
 43
0.0000000001
 44
0.0000000001
 40
0.0
 40
0.0
 40
0.0
 40
0.0
 40
7.783565331345448
 40
10.80487052654683
 40
13.57211582191412
 40
16.75335701612339
 40
16.75335701612339
 40
16.75335701612339
 40
16.75335701612339
 10
71.9710934732559
 20
86.57305950092462
 30
0.0
 10
70.58809359946621
 20
84.38822252742591
 30
0.0
 10
68.66826201350265
 20
81.35530899547447
 30
0.0
 10
67.00616119219077
 20
77.02223407635009
 30
0.0
 10
69.11501745563137
 20
73.58180447521407
 30
0.0
 10
70.98482097711687
 20
75.12542963256904
 30
0.0
 10
71.98478895183621
 20
75.95095793251562
 30
0.0
 11
71.9710934732559
 21
86.57305950092462
 31
0.0
 11
68.13170432844322
 21
79.80231506164637
 31
0.0
 11
67.53892117585315
 21
76.8397328743381
 31
0.0
 11
69.1196742932791
 21
74.56841913412507
 31
0.0
 11
71.98478895183621
 21
75.95095793251562
 31
0.0
  0
ARC
  5
15DA
102
{ACAD_REACTORS
330
17BC
102
}
330
2
100
AcDbEntity
  8
KIJUN
100
AcDbCircle
 10
69.3306870278584
 20
71.0730595009245
 30
0.0
 40
8.149455030181307
100
AcDbArc
 50
154.56565340265
 51
205.4343465973499
  0
LINE
  5
15DB
102
{ACAD_REACTORS
330
17BC
102
}
330
2
100
AcDbEntity
  8
KIJUN
100
AcDbLine
 10
61.9710934732559
 20
74.57305950092461
 30
0.0
 11
67.84795239882601
 21
79.12736443939502
 31
0.0
  0
SPLINE
  5
15DC
102
{ACAD_REACTORS
330
17BC
102
}
330
2
100
AcDbEntity
  8
KIJUN
100
AcDbSpline
210
0.0
220
0.0
230
1.0
 70
     8
 71
     3
 72
    10
 73
     6
 74
     4
 42
0.0000000001
 43
0.0000000001
 44
0.0000000001
 40
0.0
 40
0.0
 40
0.0
 40
0.0
 40
3.623594046659342
 40
7.302447274283458
 40
11.52430715051481
 40
11.52430715051481
 40
11.52430715051481
 40
11.52430715051481
 10
67.84795239882578
 20
79.12736443939514
 30
0.0
 10
67.29835636493537
 20
78.04787809670525
 30
0.0
 10
66.19078305292484
 20
75.87244343175719
 30
0.0
 10
67.38170222797077
 20
71.25953471051989
 30
0.0
 10
70.37277216088893
 20
71.46386999676671
 30
0.0
 10
71.9710934732559
 20
71.57305950092461
 30
0.0
 11
67.84795239882578
 21
79.12736443939514
 31
0.0
 11
66.65769671996486
 21
75.70483244773686
 31
0.0
 11
67.79707984675951
 21
72.2068663014204
 31
0.0
 11
71.9710934732559
 21
71.57305950092461
 31
0.0
  0
SPLINE
  5
15DD
102
{ACAD_REACTORS
330
17BC
102
}
330
2
100
AcDbEntity
  8
KIJUN
100
AcDbSpline
210
0.0
220
0.0
230
1.0
 70
     8
 71
     3
 72
    15
 73
    11
 74
     9
 42
0.0000000001
 43
0.0000000001
 44
0.0000000001
 40
0.0
 40
0.0
 40
0.0
 40
0.0
 40
2.207288488463994
 40
3.930917964721598
 40
8.7297853385059
 40
11.08895524235598
 40
13.63616944724556
 40
16.50706443138766
 40
18.12219519158959
 40
18.32556754684248
 40
18.32556754684248
 40
18.32556754684248
 40
18.32556754684248
 10
71.9710934732559
 20
67.57305950092462
 30
0.0
 10
71.17122572750426
 20
67.5365616304851
 30
0.0
 10
69.74675651670143
 20
67.47156326922208
 30
0.0
 10
68.3477174154277
 20
64.55205926497152
 30
0.0
 10
68.20888468406895
 20
62.1411707354305
 30
0.0
 10
69.39500402827079
 20
57.51668193271942
 30
0.0
 10
71.66426496444981
 20
61.03417740505386
 30
0.0
 10
71.45988378361059
 20
62.66898855782532
 30
0.0
 10
71.25044968039543
 20
65.10387338163773
 30
0.0
 10
71.88323416038923
 20
65.06731127237934
 30
0.0
 10
71.95400163335648
 20
65.06322234769744
 30
0.0
 11
71.9710934732559
 21
67.57305950092462
 31
0.0
 11
69.8219992678512
 21
67.06955521335442
 31
0.0
 11
68.90643268420626
 21
65.6092003241796
 31
0.0
 11
68.61423117613049
 21
60.81923723978639
 31
0.0
 11
69.56437462524741
 21
58.65986000054999
 31
0.0
 11
71.18560826168664
 21
60.62452325456309
 31
0.0
 11
71.39472728963347
 21
63.48779188361675
 31
0.0
 11
71.75062927810358
 21
65.06322234769744
 31
0.0
 11
71.95400163335648
 21
65.06322234769744
 31
0.0
  0
ARC
  5
15DE
102
{ACAD_REACTORS
330
17BC
102
}
330
2
100
AcDbEntity
  8
KIJUN
100
AcDbCircle
 10
72.05451936941313
 20
41.37876932785309
 30
0.0
 40
5.806309195577247
100
AcDbArc
 50
208.8957493683622
 51
269.1767375674852
  0
ARC
  5
15DF
102
{ACAD_REACTORS
330
17BC
102
}
330
2
100
AcDbEntity
  8
KIJUN
100
AcDbCircle
 10
62.11608733128855
 20
41.06232252525569
 30
0.0
 40
5.455961422411635
100
AcDbArc
 50
234.9311525782952
 51
332.8548383387704
  0
SPLINE
  5
15E8
102
{ACAD_REACTORS
330
17BC
102
}
330
2
100
AcDbEntity
  8
KIJUN
100
AcDbSpline
210
0.0
220
0.0
230
1.0
 70
     8
 71
     3
 72
    12
 73
     8
 74
     6
 42
0.0000000001
 43
0.0000000001
 44
0.0000000001
 40
0.0
 40
0.0
 40
0.0
 40
0.0
 40
2.445827030138108
 40
5.019774033063929
 40
7.793505056714105
 40
11.99975718823571
 40
18.10365851260065
 40
18.10365851260065
 40
18.10365851260065
 40
18.10365851260065
 10
69.05017998418111
 20
65.95944316599775
 30
0.0
 10
68.37197105998993
 20
66.40664205042054
 30
0.0
 10
66.98002653378406
 20
67.32446547782533
 30
0.0
 10
64.71456578286836
 20
68.69388554101426
 30
0.0
 10
60.92438571237456
 20
67.78970871224534
 30
0.0
 10
61.41265727255251
 20
62.37047286393044
 30
0.0
 10
63.0240294960598
 20
59.49325828068484
 30
0.0
 10
63.97800725121101
 20
57.78986618469935
 30
0.0
 11
69.05017998418111
 21
65.95944316599775
 31
0.0
 11
66.99959220238179
 21
67.29254466644306
 31
0.0
 11
64.64128213972276
 21
68.32384327607655
 31
0.0
 11
61.9710934732559
 21
67.57305950092462
 31
0.0
 11
61.54599834859414
 21
63.38834312715221
 31
0.0
 11
63.97800725121101
 21
57.78986618469935
 31
0.0
  0
SPLINE
  5
15E9
102
{ACAD_REACTORS
330
17BC
102
}
330
2
100
AcDbEntity
  8
KIJUN
100
AcDbSpline
210
0.0
220
0.0
230
1.0
 70
     8
 71
     3
 72
    16
 73
    12
 74
    10
 42
0.0000000001
 43
0.0000000001
 44
0.0000000001
 40
0.0
 40
0.0
 40
0.0
 40
0.0
 40
1.303567015001525
 40
4.021328585713042
 40
5.916032789556133
 40
9.605872078175785
 40
12.86727021748987
 40
17.43979778388882
 40
22.45762860393329
 40
24.73187455478373
 40
25.10765091140274
 40
25.10765091140274
 40
25.10765091140274
 40
25.10765091140274
 10
63.97800725121101
 20
57.78986618469935
 30
0.0
 10
64.28280776390583
 20
58.11345224434548
 30
0.0
 10
65.22307627372097
 20
59.11167163515423
 30
0.0
 10
67.21763201577212
 20
59.36516196744065
 30
0.0
 10
70.50430368321975
 20
59.00917418069141
 30
0.0
 10
69.02397185127208
 20
54.98347460761026
 30
0.0
 10
71.21648081016383
 20
51.79519931310997
 30
0.0
 10
70.98702387882841
 20
47.16151936582422
 30
0.0
 10
70.28850148327187
 20
43.72625513146039
 30
0.0
 10
70.91140248974387
 20
40.47533777906709
 30
0.0
 10
71.80989814648952
 20
40.34932453707866
 30
0.0
 10
71.93730591335179
 20
40.33145570751196
 30
0.0
 11
63.97800725121101
 21
57.78986618469935
 31
0.0
 11
64.93607016399983
 21
58.67383587747088
 31
0.0
 11
67.5891697180466
 21
59.26314964071855
 31
0.0
 11
69.43160110499866
 21
58.82116479433284
 31
0.0
 11
69.65269175642879
 21
55.13795520218479
 31
0.0
 11
70.68445350917523
 21
52.04406032538452
 31
0.0
 11
70.90554562771604
 21
47.47688104046505
 31
0.0
 11
70.61075613632829
 21
42.46771690915977
 31
0.0
 11
71.56882051622779
 21
40.4051196898929
 31
0.0
 11
71.93730591335179
 21
40.33145570751196
 31
0.0
  0
SPLINE
  5
15EA
102
{ACAD_REACTORS
330
17BC
102
}
330
2
100
AcDbEntity
  8
KIJUN
100
AcDbSpline
210
0.0
220
0.0
230
1.0
 70
     8
 71
     3
 72
     9
 73
     5
 74
     3
 42
0.0000000001
 43
0.0000000001
 44
0.0000000001
 40
0.0
 40
0.0
 40
0.0
 40
0.0
 40
3.896471813099232
 40
13.03112767882052
 40
13.03112767882052
 40
13.03112767882052
 40
13.03112767882052
 10
66.97109347325613
 20
38.57305950092462
 30
0.0
 10
66.92396959098977
 20
39.87119453518655
 30
0.0
 10
66.76637129283955
 20
44.2125998339361
 30
0.0
 10
66.86015419793182
 20
48.55682707123844
 30
0.0
 10
66.92589482953485
 20
51.60207547899881
 30
0.0
 11
66.97109347325613
 21
38.57305950092462
 31
0.0
 11
66.85219745668792
 21
42.46771690915977
 31
0.0
 11
66.92589482953485
 21
51.60207547899881
 31
0.0
  0
SPLINE
  5
15EB
102
{ACAD_REACTORS
330
17BC
102
}
330
2
100
AcDbEntity
  8
KIJUN
100
AcDbSpline
210
0.0
220
0.0
230
1.0
 70
     8
 71
     3
 72
    12
 73
     8
 74
     6
 42
0.0000000001
 43
0.0000000001
 44
0.0000000001
 40
0.0
 40
0.0
 40
0.0
 40
0.0
 40
3.673451975081411
 40
8.472580966538714
 40
16.44059088345522
 40
19.24854750862426
 40
22.6291416119865
 40
22.6291416119865
 40
22.6291416119865
 40
22.6291416119865
 10
58.9813083537042
 20
36.59682414270765
 30
0.0
 10
59.96626415966288
 20
37.37931058615141
 30
0.0
 10
62.23800144411785
 20
39.18406529433002
 30
0.0
 10
63.3793245727013
 20
44.83880564624043
 30
0.0
 10
63.89335024217387
 20
49.94668195974382
 30
0.0
 10
63.09231250636182
 20
54.67779436602526
 30
0.0
 10
63.66510839928471
 20
56.69043130057215
 30
0.0
 10
63.97800725121101
 20
57.78986618469935
 30
0.0
 11
58.9813083537042
 21
36.59682414270765
 31
0.0
 11
61.61969572144108
 21
39.15282913311671
 31
0.0
 11
63.09364024415845
 21
43.72000841803617
 31
0.0
 11
63.53582301412939
 21
51.67573946137975
 31
0.0
 11
63.31473089558858
 21
54.47497840865628
 31
0.0
 11
63.97800725121101
 21
57.78986618469935
 31
0.0
  0
ARC
  5
15EC
102
{ACAD_REACTORS
330
17BC
102
}
330
2
100
AcDbEntity
  8
KIJUN
100
AcDbCircle
 10
54.56376996707309
 20
54.3750010574322
 30
0.0
 40
10.01216785050629
100
AcDbArc
 50
20.01733934137718
 51
123.8075195593308
  0
SPLINE
  5
15ED
102
{ACAD_REACTORS
330
17BC
102
}
330
2
100
AcDbEntity
  8
KIJUN
100
AcDbSpline
210
0.0
220
0.0
230
1.0
 70
     8
 71
     3
 72
    11
 73
     7
 74
     5
 42
0.0000000001
 43
0.0000000001
 44
0.0000000001
 40
0.0
 40
0.0
 40
0.0
 40
0.0
 40
4.933342977151472
 40
10.26254080690877
 40
16.88528016888468
 40
19.56092425631853
 40
19.56092425631853
 40
19.56092425631853
 40
19.56092425631853
 10
57.55500678453973
 20
56.14667571076893
 30
0.0
 10
56.66019779204894
 20
54.56428749865114
 30
0.0
 10
54.79877971462025
 20
51.27253914982524
 30
0.0
 10
47.71313510726165
 20
53.22692330805698
 30
0.0
 10
47.06430222018649
 20
59.21626924865403
 30
0.0
 10
48.561988324976
 20
61.91706272552001
 30
0.0
 10
48.99295301823849
 20
62.69422599664915
 30
0.0
 11
57.55500678453973
 21
56.14667571076893
 31
0.0
 11
54.30555313040804
 21
52.43467842091809
 31
0.0
 11
49.1476891859802
 21
53.77512201893376
 31
0.0
 11
47.85822209954017
 21
60.27111703814774
 31
0.0
 11
48.99295301823849
 21
62.69422599664915
 31
0.0
  0
SPLINE
  5
15EE
102
{ACAD_REACTORS
330
17BC
102
}
330
2
100
AcDbEntity
  8
KIJUN
100
AcDbSpline
210
0.0
220
0.0
230
1.0
 70
     8
 71
     3
 72
    15
 73
    11
 74
     9
 42
0.0000000001
 43
0.0000000001
 44
0.0000000001
 40
0.0
 40
0.0
 40
0.0
 40
0.0
 40
2.290292313656773
 40
5.8055404008766
 40
10.0097398356084
 40
16.46639194863684
 40
27.30207805002561
 40
34.07875451357267
 40
37.18187130124851
 40
44.18728454360356
 40
44.18728454360356
 40
44.18728454360356
 40
44.18728454360356
 10
57.55500678453995
 20
56.14667571076893
 30
0.0
 10
58.00801302204611
 20
55.51732871100651
 30
0.0
 10
59.15631448470618
 20
53.92203041152548
 30
0.0
 10
59.22280171435183
 20
50.38412570525591
 30
0.0
 10
57.37737826907071
 20
45.85325134515593
 30
0.0
 10
50.40527133073596
 20
42.11984170198294
 30
0.0
 10
42.64101324017042
 20
43.76670186373938
 30
0.0
 10
37.07915833521489
 20
55.2714348606084
 30
0.0
 10
43.620037411262
 20
51.05306589990438
 30
0.0
 10
46.70220980859055
 20
52.84358740199492
 30
0.0
 10
48.83821685049679
 20
54.0844545710296
 30
0.0
 11
57.55500678453995
 21
56.14667571076893
 31
0.0
 11
58.74131544774491
 21
54.1875660564616
 31
0.0
 11
58.99920857161077
 21
50.68179078537458
 31
0.0
 11
57.34869287229139
 21
46.81512674342582
 31
0.0
 11
51.82977738076283
 21
43.46401822443681
 31
0.0
 11
41.69226904766924
 21
47.29063789253655
 31
0.0
 11
39.14143216549701
 21
53.56890000016972
 31
0.0
 11
42.02983573963888
 21
52.43467842091809
 31
0.0
 11
48.83821685049679
 21
54.0844545710296
 31
0.0
  0
ARC
  5
15EF
102
{ACAD_REACTORS
330
17BC
102
}
330
2
100
AcDbEntity
  8
KIJUN
100
AcDbCircle
 10
58.92965707830104
 20
80.29682300400486
 30
0.0
 40
6.481651331547352
100
AcDbArc
 50
163.2024205715933
 51
297.9848376969667
  0
SPLINE
  5
15F0
102
{ACAD_REACTORS
330
17BC
102
}
330
2
100
AcDbEntity
  8
KIJUN
100
AcDbSpline
210
0.0
220
0.0
230
1.0
 70
     8
 71
     3
 72
    11
 73
     7
 74
     5
 42
0.0000000001
 43
0.0000000001
 44
0.0000000001
 40
0.0
 40
0.0
 40
0.0
 40
0.0
 40
3.118094604017875
 40
6.978147744654645
 40
12.72560710472601
 40
24.1064177715985
 40
24.1064177715985
 40
24.1064177715985
 40
24.1064177715985
 10
52.72456674237765
 20
82.16996419109637
 30
0.0
 10
51.40781773358062
 20
82.24277816256678
 30
0.0
 10
48.46099594242225
 20
82.40573237509797
 30
0.0
 10
50.93717984992224
 20
76.94547577915826
 30
0.0
 10
50.71797140682368
 20
70.54494834586384
 30
0.0
 10
49.17383429824575
 20
64.87280460661885
 30
0.0
 10
48.14783855852579
 20
61.10397133448532
 30
0.0
 11
52.72456674237765
 21
82.16996419109637
 31
0.0
 11
49.63380018515863
 21
81.75804666490705
 31
0.0
 11
50.25195261633598
 21
77.94781073778006
 31
0.0
 11
50.62308614831113
 21
72.21234658942069
 31
0.0
 11
48.14783855852579
 21
61.10397133448532
 31
0.0
  0
ARC
  5
15F6
102
{ACAD_REACTORS
330
17BC
102
}
330
2
100
AcDbEntity
  8
KIJUN
100
AcDbCircle
 10
12.74926023385524
 20
92.69469609747284
 30
0.0
 40
2.230630102515217
100
AcDbArc
 50
303.2129620356574
 51
56.78703796434254
  0
ARC
  5
15FE
102
{ACAD_REACTORS
330
17BC
102
}
330
2
100
AcDbEntity
  8
KIJUN
100
AcDbCircle
 10
-8.764772521001873
 20
163.1402639274287
 30
0.0
 40
87.06259182902847
100
AcDbArc
 50
305.4674756090354
 51
312.4320330543408
  0
SPLINE
  5
1601
102
{ACAD_REACTORS
330
17BC
102
}
330
2
100
AcDbEntity
  8
KIJUN
100
AcDbSpline
210
0.0
220
0.0
230
1.0
 70
     8
 71
     3
 72
    10
 73
     6
 74
     4
 42
0.0000000001
 43
0.0000000001
 44
0.0000000001
 40
0.0
 40
0.0
 40
0.0
 40
0.0
 40
2.096694217312686
 40
3.88844511923568
 40
4.988266667470761
 40
4.988266667470761
 40
4.988266667470761
 40
4.988266667470761
 10
49.60008475880022
 20
81.70895030853854
 30
0.0
 10
49.64182282258
 20
82.43640458534255
 30
0.0
 10
49.71922856398506
 20
83.78551215131428
 30
0.0
 10
48.40746563198867
 20
85.09828951781143
 30
0.0
 10
48.48491625275659
 20
86.09111079488782
 30
0.0
 10
48.51437491689626
 20
86.46873447643008
 30
0.0
 11
49.60008475880022
 21
81.70895030853854
 31
0.0
 11
49.4054898818706
 21
83.79659478851715
 31
0.0
 11
48.5472095705477
 21
85.36940316900643
 31
0.0
 11
48.51437491689626
 21
86.46873447643008
 31
0.0
  0
ARC
  5
1603
102
{ACAD_REACTORS
330
17BC
102
}
330
2
100
AcDbEntity
  8
KIJUN
100
AcDbCircle
 10
26.95468242418451
 20
93.41455056295137
 30
0.0
 40
21.23933505537285
100
AcDbArc
 50
258.3473262670706
 51
309.2720621084695
  0
ARC
  5
1604
102
{ACAD_REACTORS
330
17BC
102
}
330
2
100
AcDbEntity
  8
KIJUN
100
AcDbCircle
 10
29.05690306588031
 20
86.97125345886673
 30
0.0
 40
17.20192869753895
100
AcDbArc
 50
250.6677814767858
 51
317.7997836569582
  0
SPLINE
  5
1605
102
{ACAD_REACTORS
330
17BC
102
}
330
2
100
AcDbEntity
  8
KIJUN
100
AcDbSpline
210
0.0
220
0.0
230
1.0
 70
     8
 71
     3
 72
    25
 73
    21
 74
    19
 42
0.0000000001
 43
0.0000000001
 44
0.0000000001
 40
0.0
 40
0.0
 40
0.0
 40
0.0
 40
4.391028940668656
 40
10.58641361419585
 40
13.42072395961546
 40
15.34238070070452
 40
18.73071504371255
 40
22.92046445550139
 40
27.31149454029929
 40
31.95636920388078
 40
37.52316192674634
 40
41.1673809223826
 40
45.63224253812991
 40
50.24168293721235
 40
52.37902405882953
 40
55.3896847273267
 40
59.39945327889754
 40
64.64801817009814
 40
68.16016134962298
 40
72.8934549625435
 40
72.8934549625435
 40
72.8934549625435
 40
72.8934549625435
 10
42.5783884382131
 20
74.22351612343096
 30
0.0
 10
41.49591512948269
 20
73.22252085421266
 30
0.0
 10
38.886160029394
 20
70.80920268004814
 30
0.0
 10
34.27392702551277
 20
69.62406951978843
 30
0.0
 10
31.88989815683265
 20
66.84138412100958
 30
0.0
 10
31.82714052554232
 20
63.22573930204895
 30
0.0
 10
36.00545388807478
 20
65.74390166073476
 30
0.0
 10
39.82646473187359
 20
65.06658776681939
 30
0.0
 10
43.13565569454704
 20
67.78749588236365
 30
0.0
 10
46.60602821826643
 20
75.08911679906937
 30
0.0
 10
42.95588819935358
 20
67.45977319285173
 30
0.0
 10
40.93196929400935
 20
64.11063805472965
 30
0.0
 10
41.22229151915559
 20
59.43527448760375
 30
0.0
 10
43.12007874869858
 20
56.14156942626785
 30
0.0
 10
47.58408567564796
 20
55.31035498741292
 30
0.0
 10
45.46741768265998
 20
59.48400596503727
 30
0.0
 10
45.52423597931349
 20
63.10068296709599
 30
0.0
 10
46.47356240003293
 20
67.44329800601295
 30
0.0
 10
48.01942946160738
 20
71.66537760269739
 30
0.0
 10
48.05670738895217
 20
74.44373187134414
 30
0.0
 10
48.07810678595751
 20
76.03864634892102
 30
0.0
 11
42.5783884382131
 21
74.22351612343096
 31
0.0
 11
39.15403611370107
 21
71.47488986375162
 31
0.0
 11
33.65431776595642
 21
68.62254182249569
 31
0.0
 11
32.04590961143981
 21
66.28880268912258
 31
0.0
 11
32.14967835273478
 21
64.36994972995581
 31
0.0
 11
35.47026193595184
 21
65.0441413102036
 31
0.0
 11
39.6209925153064
 21
65.61461110887478
 31
0.0
 11
43.0453463069291
 21
68.36323736855423
 31
0.0
 11
45.32824834564076
 21
72.40838494584079
 31
0.0
 11
42.83780882433939
 21
67.42974133436496
 31
0.0
 11
41.33316941111774
 21
64.11064622811443
 31
0.0
 11
41.54070542659678
 21
59.65061057242144
 31
0.0
 11
44.446216978856
 21
56.07221101222956
 31
0.0
 11
46.57346737273587
 21
55.86476744907634
 31
0.0
 11
46.0027407627249
 21
58.82083727190888
 31
0.0
 11
45.63955310241453
 21
62.81412395840721
 31
0.0
 11
46.72911901756743
 21
67.9483502422479
 31
0.0
 11
47.71491765853625
 21
71.31930719138665
 31
0.0
 11
48.07810678595751
 21
76.03864634892102
 31
0.0
  0
SPLINE
  5
1606
102
{ACAD_REACTORS
330
17BC
102
}
330
2
100
AcDbEntity
  8
KIJUN
100
AcDbSpline
210
0.0
220
0.0
230
1.0
 70
     8
 71
     3
 72
    17
 73
    13
 74
    11
 42
0.0000000001
 43
0.0000000001
 44
0.0000000001
 40
0.0
 40
0.0
 40
0.0
 40
0.0
 40
5.021644712942142
 40
12.12881165470363
 40
20.20440464769163
 40
26.00945837616071
 40
27.73701314076795
 40
35.77081181536892
 40
42.96291052927013
 40
50.79362388799542
 40
54.25428521564175
 40
57.32143348362825
 40
57.32143348362825
 40
57.32143348362825
 40
57.32143348362825
 10
33.75891641864132
 20
64.39913304256037
 30
0.0
 10
33.73396867180411
 20
62.72351855595651
 30
0.0
 10
33.67371221403084
 20
58.67639581516747
 30
0.0
 10
34.62003572122539
 20
51.98618797495198
 30
0.0
 10
37.28561088767532
 20
45.29838631715485
 30
0.0
 10
41.34811505558607
 20
41.75168397792555
 30
0.0
 10
46.09251102698331
 20
39.61444258546587
 30
0.0
 10
52.06848651325117
 20
39.55170248038223
 30
0.0
 10
59.37658145704059
 20
43.32959922687652
 30
0.0
 10
61.40008261239042
 20
49.58418184060009
 30
0.0
 10
60.73202940520035
 20
54.8643622359165
 30
0.0
 10
58.57058179454181
 20
55.73676817294409
 30
0.0
 10
57.55500678453995
 20
56.14667571076893
 30
0.0
 11
33.75891641864132
 21
64.39913304256037
 31
0.0
 11
33.79178163918004
 21
59.37759587747848
 31
0.0
 11
34.84139079384704
 21
52.34836102861288
 31
0.0
 11
38.20014272958133
 21
45.00438474715622
 31
0.0
 11
42.60850528709329
 21
41.22748279556424
 31
0.0
 11
44.18505366519298
 21
40.52112546656679
 31
0.0
 11
52.21456971355064
 21
40.25884093940772
 31
0.0
 11
58.45974902528542
 21
43.8259152692724
 31
0.0
 11
61.03129482857458
 21
51.22234845616083
 31
0.0
 11
60.19160574430793
 21
54.57959421219811
 31
0.0
 11
57.55500678453995
 21
56.14667571076893
 31
0.0
  0
ARC
  5
164B
102
{ACAD_REACTORS
330
17BC
102
}
330
2
100
AcDbEntity
  8
KIJUN
100
AcDbCircle
 10
52.83608844465872
 20
54.57536508238991
 30
0.0
 40
49.5301591245384
100
AcDbArc
 50
71.59895399777841
 51
100.1532950342256
  0
ARC
  5
164C
102
{ACAD_REACTORS
330
17BC
102
}
330
2
100
AcDbEntity
  8
KIJUN
100
AcDbCircle
 10
49.71324573906602
 20
128.8333487943439
 30
0.0
 40
27.99392261157302
100
AcDbArc
 50
254.2828248915099
 51
277.1963462417422
  0
ARC
  5
164D
102
{ACAD_REACTORS
330
17BC
102
}
330
2
100
AcDbEntity
  8
KIJUN
100
AcDbCircle
 10
53.09874359093136
 20
28.81939116906281
 30
0.0
 40
72.44671397287814
100
AcDbArc
 50
79.34733696782948
 51
87.39985266939577
  0
ARC
  5
164E
102
{ACAD_REACTORS
330
17BC
102
}
330
2
100
AcDbEntity
  8
KIJUN
100
AcDbCircle
 10
55.61493256882446
 20
81.58559663200607
 30
0.0
 40
19.62105139499086
100
AcDbArc
 50
87.74977298060253
 51
97.01083993539441
  0
ARC
  5
164F
102
{ACAD_REACTORS
330
17BC
102
}
330
2
100
AcDbEntity
  8
KIJUN
100
AcDbCircle
 10
64.58002700911304
 20
92.87350381049645
 30
0.0
 40
7.395177920953492
100
AcDbArc
 50
1.910650736175119
 51
75.02549305926246
  0
ARC
  5
1650
102
{ACAD_REACTORS
330
17BC
102
}
330
2
100
AcDbEntity
  8
KIJUN
100
AcDbCircle
 10
46.45666545359836
 20
91.58890496325003
 30
0.0
 40
11.97419801161285
100
AcDbArc
 50
101.3272039561528
 51
111.5330531645978
  0
ARC
  5
1651
102
{ACAD_REACTORS
330
17BC
102
}
330
2
100
AcDbEntity
  8
KIJUN
100
AcDbCircle
 10
42.1944632097206
 20
102.3147481149578
 30
0.0
 40
0.4334658045098855
100
AcDbArc
 50
107.8380313594671
 51
261.4474464329262
  0
ARC
  5
1652
102
{ACAD_REACTORS
330
17BC
102
}
330
2
100
AcDbEntity
  8
KIJUN
100
AcDbCircle
 10
40.9904995611163
 20
120.4605024946666
 30
0.0
 40
18.05281896888906
100
AcDbArc
 50
249.7476520547431
 51
272.3065918124789
  0
ARC
  5
1653
102
{ACAD_REACTORS
330
17BC
102
}
330
2
100
AcDbEntity
  8
KIJUN
100
AcDbCircle
 10
30.85199225493749
 20
95.3369550259649
 30
0.0
 40
9.063741143950201
100
AcDbArc
 50
64.58832940439002
 51
111.9481375831695
  0
ARC
  5
1654
102
{ACAD_REACTORS
330
17BC
102
}
330
2
100
AcDbEntity
  8
KIJUN
100
AcDbCircle
 10
41.36194240605655
 20
47.08486797010368
 30
0.0
 40
51.95667612532854
100
AcDbArc
 50
84.57532352474268
 51
94.42715376206416
  0
ARC
  5
1656
102
{ACAD_REACTORS
330
17BC
102
}
330
2
100
AcDbEntity
  8
KIJUN
100
AcDbCircle
 10
35.34123015557075
 20
114.3455250484159
 30
0.0
 40
15.58914121279025
100
AcDbArc
 50
248.2726843553417
 51
277.4084628580563
  0
ARC
  5
1657
102
{ACAD_REACTORS
330
17BC
102
}
330
2
100
AcDbEntity
  8
KIJUN
100
AcDbCircle
 10
32.81865874646554
 20
106.7041458301862
 30
0.0
 40
7.572378303578818
100
AcDbArc
 50
220.5556845629826
 51
244.5974147120648
  0
ARC
  5
1658
102
{ACAD_REACTORS
330
17BC
102
}
330
2
100
AcDbEntity
  8
KIJUN
100
AcDbCircle
 10
28.14672749413846
 20
102.5830257210935
 30
0.0
 40
1.34651642719562
100
AcDbArc
 50
120.4533662285483
 51
216.5742159608827
  0
ARC
  5
1659
102
{ACAD_REACTORS
330
17BC
102
}
330
2
100
AcDbEntity
  8
KIJUN
100
AcDbCircle
 10
38.58421672013579
 20
127.69514379584
 30
0.0
 40
27.1492740948422
100
AcDbArc
 50
249.2146399234324
 51
273.5187273284118
  0
ARC
  5
165A
102
{ACAD_REACTORS
330
17BC
102
}
330
2
100
AcDbEntity
  8
KIJUN
100
AcDbCircle
 10
10.72800009808586
 20
67.53593333631224
 30
0.0
 40
37.49631984260888
100
AcDbArc
 50
62.39724812189294
 51
76.7454065801213
  0
ARC
  5
165B
102
{ACAD_REACTORS
330
17BC
102
}
330
2
100
AcDbEntity
  8
KIJUN
100
AcDbCircle
 10
16.26378755259528
 20
88.84124669975618
 30
0.0
 40
15.4975049598383
100
AcDbArc
 50
78.60711244803734
 51
105.8421855009746
  0
ARC
  5
165C
102
{ACAD_REACTORS
330
17BC
102
}
330
2
100
AcDbEntity
  8
KIJUN
100
AcDbCircle
 10
13.08739713674106
 20
100.6890723123786
 30
0.0
 40
3.23750269476627
100
AcDbArc
 50
109.0042015356438
 51
195.8530879690342
  0
ARC
  5
165D
102
{ACAD_REACTORS
330
17BC
102
}
330
2
100
AcDbEntity
  8
KIJUN
100
AcDbCircle
 10
16.54422293447731
 20
100.6892178079222
 30
0.0
 40
6.630457139335298
100
AcDbArc
 50
187.6664286866536
 51
272.369982639349
  0
ARC
  5
165E
102
{ACAD_REACTORS
330
17BC
102
}
330
2
100
AcDbEntity
  8
KIJUN
100
AcDbCircle
 10
36.96117148546994
 20
-283.301432121607
 30
0.0
 40
377.9030649268592
100
AcDbArc
 50
91.66050852221893
 51
93.05539349562037
  0
ARC
  5
165F
102
{ACAD_REACTORS
330
17BC
102
}
330
2
100
AcDbEntity
  8
KIJUN
100
AcDbCircle
 10
24.61618344561083
 20
199.1128678852031
 30
0.0
 40
104.6792151708991
100
AcDbArc
 50
270.763233226009
 51
278.8719795178959
  0
ARC
  5
1660
102
{ACAD_REACTORS
330
17BC
102
}
330
2
100
AcDbEntity
  8
KIJUN
100
AcDbCircle
 10
26.38921613625499
 20
225.5575924607755
 30
0.0
 40
129.4225082507027
100
AcDbArc
 50
269.8176546795274
 51
276.1482282703493
  0
ARC
  5
166D
102
{ACAD_REACTORS
330
17BC
102
}
330
2
100
AcDbEntity
  8
KIJUN
100
AcDbCircle
 10
-5.927354637786501
 20
52.01310810292373
 30
0.0
 40
52.39354742217992
100
AcDbArc
 50
72.21221016398537
 51
105.4833145427314
  0
ARC
  5
1675
102
{ACAD_REACTORS
330
17BC
102
}
330
2
100
AcDbEntity
  8
KIJUN
100
AcDbCircle
 10
-28.31993327238758
 20
125.6803974319507
 30
0.0
 40
24.65250030496169
100
AcDbArc
 50
255.2023882499791
 51
289.9358655285474
  0
ARC
  5
1676
102
{ACAD_REACTORS
330
17BC
102
}
330
2
100
AcDbEntity
  8
KIJUN
100
AcDbCircle
 10
-38.68130617391573
 20
89.11451247066668
 30
0.0
 40
13.3642329383576
100
AcDbArc
 50
72.29180421631538
 51
108.7603467829084
  0
ARC
  5
1677
102
{ACAD_REACTORS
330
17BC
102
}
330
2
100
AcDbEntity
  8
KIJUN
100
AcDbCircle
 10
-35.89994699105967
 20
99.79677046411669
 30
0.0
 40
10.62895953568448
100
AcDbArc
 50
157.3471005277414
 51
208.2708166699534
  0
ARC
  5
1678
102
{ACAD_REACTORS
330
17BC
102
}
330
2
100
AcDbEntity
  8
KIJUN
100
AcDbCircle
 10
-44.77137315172931
 20
103.1988107128716
 30
0.0
 40
1.165092617552464
100
AcDbArc
 50
28.62121526991646
 51
143.5823218816611
  0
ARC
  5
1679
102
{ACAD_REACTORS
330
17BC
102
}
330
2
100
AcDbEntity
  8
KIJUN
100
AcDbCircle
 10
-25.38812309348002
 20
101.7995446486897
 30
0.0
 40
21.08208746725299
100
AcDbArc
 50
199.4992093968523
 51
206.2407437500511
  0
ARC
  5
167A
102
{ACAD_REACTORS
330
17BC
102
}
330
2
100
AcDbEntity
  8
KIJUN
100
AcDbCircle
 10
-42.18085397234031
 20
93.40348606601533
 30
0.0
 40
2.310112940916466
100
AcDbArc
 50
203.6109364170897
 51
275.2841631538518
  0
ARC
  5
167B
102
{ACAD_REACTORS
330
17BC
102
}
330
2
100
AcDbEntity
  8
KIJUN
100
AcDbCircle
 10
-32.55046091030477
 20
19.67466200785621
 30
0.0
 40
72.04669800649857
100
AcDbArc
 50
96.47867241785908
 51
97.51095809601558
  0
ARC
  5
167C
102
{ACAD_REACTORS
330
17BC
102
}
330
2
100
AcDbEntity
  8
KIJUN
100
AcDbCircle
 10
-40.59108394093345
 20
90.58563573274541
 30
0.0
 40
0.6814195520808184
100
AcDbArc
 50
12.67929807985329
 51
97.47498568097761
  0
ARC
  5
167D
102
{ACAD_REACTORS
330
17BC
102
}
330
2
100
AcDbEntity
  8
KIJUN
100
AcDbCircle
 10
-47.52055715870333
 20
89.45213728126438
 30
0.0
 40
7.701901054173262
100
AcDbArc
 50
2.342933036541424
 51
9.589659008598665
  0
ARC
  5
167E
102
{ACAD_REACTORS
330
17BC
102
}
330
2
100
AcDbEntity
  8
KIJUN
100
AcDbCircle
 10
-38.15899931786515
 20
89.74261969750706
 30
0.0
 40
1.66627354130139
100
AcDbArc
 50
179.1618163774179
 51
249.8633816683899
  0
ARC
  5
167F
102
{ACAD_REACTORS
330
17BC
102
}
330
2
100
AcDbEntity
  8
KIJUN
100
AcDbCircle
 10
-36.32512782779747
 20
96.85272656992324
 30
0.0
 40
9.002417047948556
100
AcDbArc
 50
254.4886978037084
 51
306.0372455859296
  0
ARC
  5
1680
102
{ACAD_REACTORS
330
17BC
102
}
330
2
100
AcDbEntity
  8
KIJUN
100
AcDbCircle
 10
-40.24941266816956
 20
103.0011322847676
 30
0.0
 40
11.81313590846582
100
AcDbArc
 50
270.675283877993
 51
298.2171650958552
  0
ARC
  5
1681
102
{ACAD_REACTORS
330
17BC
102
}
330
2
100
AcDbEntity
  8
KIJUN
100
AcDbCircle
 10
-61.65134870857467
 20
95.68709546211115
 30
0.0
 40
19.63742821863933
100
AcDbArc
 50
12.89837680620675
 51
24.26392847104822
  0
ARC
  5
1682
102
{ACAD_REACTORS
330
17BC
102
}
330
2
100
AcDbEntity
  8
KIJUN
100
AcDbCircle
 10
-70.26090526988555
 20
243.8508960467601
 30
0.0
 40
153.8560679139195
100
AcDbArc
 50
288.0540091933879
 51
292.3487219157988
  0
ARC
  5
1683
102
{ACAD_REACTORS
330
17BC
102
}
330
2
100
AcDbEntity
  8
KIJUN
100
AcDbCircle
 10
-32.20469043632825
 20
126.4326362730342
 30
0.0
 40
30.42549398500507
100
AcDbArc
 50
258.1350742629697
 51
288.4437823942763
  0
ARC
  5
1684
102
{ACAD_REACTORS
330
17BC
102
}
330
2
100
AcDbEntity
  8
KIJUN
100
AcDbCircle
 10
-37.18350564652905
 20
102.2800614813176
 30
0.0
 40
5.766025507165458
100
AcDbArc
 50
202.5310626883193
 51
257.2064349726262
  0
ARC
  5
1685
102
{ACAD_REACTORS
330
17BC
102
}
330
2
100
AcDbEntity
  8
KIJUN
100
AcDbCircle
 10
-11.68494800485385
 20
80.25970149296549
 30
0.0
 40
21.46921909807025
100
AcDbArc
 50
138.2484645469403
 51
154.2910075515336
  0
ARC
  5
1686
102
{ACAD_REACTORS
330
17BC
102
}
330
2
100
AcDbEntity
  8
KIJUN
100
AcDbCircle
 10
-16.45378120385921
 20
95.45705681025458
 30
0.0
 40
15.71800567864774
100
AcDbArc
 50
201.9839947321555
 51
233.5010203745119
  0
ARC
  5
1687
102
{ACAD_REACTORS
330
17BC
102
}
330
2
100
AcDbEntity
  8
KIJUN
100
AcDbCircle
 10
-29.74433405858708
 20
99.08078538425122
 30
0.0
 40
18.03592241877104
100
AcDbArc
 50
295.3791098461152
 51
306.4496292913557
  0
ARC
  5
1688
102
{ACAD_REACTORS
330
17BC
102
}
330
2
100
AcDbEntity
  8
KIJUN
100
AcDbCircle
 10
-23.87873241759922
 20
85.90463055504741
 30
0.0
 40
3.634033115009907
100
AcDbArc
 50
238.0277425330779
 51
300.8719361881003
  0
ARC
  5
1689
102
{ACAD_REACTORS
330
17BC
102
}
330
2
100
AcDbEntity
  8
KIJUN
100
AcDbCircle
 10
27.77095233584845
 20
46.37877084994617
 30
0.0
 40
67.8718169859
100
AcDbArc
 50
125.6202007644453
 51
130.6291774153278
  0
ARC
  5
168B
102
{ACAD_REACTORS
330
17BC
102
}
330
2
100
AcDbEntity
  8
KIJUN
100
AcDbCircle
 10
-9.619377271674112
 20
89.64560441886893
 30
0.0
 40
10.68971247258674
100
AcDbArc
 50
129.5392072464093
 51
208.3284827854533
  0
ARC
  5
168C
102
{ACAD_REACTORS
330
17BC
102
}
330
2
100
AcDbEntity
  8
KIJUN
100
AcDbCircle
 10
-3400.47839295762
 20
5708.033302734579
 30
0.0
 40
6551.035250061193
100
AcDbArc
 50
301.0642185718804
 51
301.1499819576058
  0
ARC
  5
168D
102
{ACAD_REACTORS
330
17BC
102
}
330
2
100
AcDbEntity
  8
KIJUN
100
AcDbCircle
 10
-14.90813790718189
 20
89.30614580943643
 30
0.0
 40
8.891625651628553
100
AcDbArc
 50
126.1564011014433
 51
217.9589469611292
  0
ARC
  5
168E
102
{ACAD_REACTORS
330
17BC
102
}
330
2
100
AcDbEntity
  8
KIJUN
100
AcDbCircle
 10
-20.64489831676485
 20
90.34138736776041
 30
0.0
 40
6.628015976898372
100
AcDbArc
 50
127.2685703452506
 51
258.9192203647598
  0
ARC
  5
168F
102
{ACAD_REACTORS
330
17BC
102
}
330
2
100
AcDbEntity
  8
KIJUN
100
AcDbCircle
 10
79.27306208166695
 20
-113.2844876146798
 30
0.0
 40
233.3263486169495
100
AcDbArc
 50
112.9635753216054
 51
116.4511311444777
  0
ARC
  5
1690
102
{ACAD_REACTORS
330
17BC
102
}
330
2
100
AcDbEntity
  8
KIJUN
100
AcDbCircle
 10
-0.4390111040675468
 20
84.19449008575403
 30
0.0
 40
18.59374966563098
100
AcDbArc
 50
68.67455939700116
 51
178.8333752486068
  0
ARC
  5
1691
102
{ACAD_REACTORS
330
17BC
102
}
330
2
100
AcDbEntity
  8
KIJUN
100
AcDbCircle
 10
28.03371664138709
 20
94.01054117816407
 30
0.0
 40
47.99954749655197
100
AcDbArc
 50
191.3391445200531
 51
210.7746655216454
  0
ARC
  5
1692
102
{ACAD_REACTORS
330
17BC
102
}
330
2
100
AcDbEntity
  8
KIJUN
100
AcDbCircle
 10
9.302769729205213
 20
152.8165973451479
 30
0.0
 40
91.60561474790855
100
AcDbArc
 50
264.8635133926453
 51
283.0395091600284
  0
ARC
  5
1693
102
{ACAD_REACTORS
330
17BC
102
}
330
2
100
AcDbEntity
  8
KIJUN
100
AcDbCircle
 10
2.548290719147396
 20
81.14799177296815
 30
0.0
 40
19.62255737984237
100
AcDbArc
 50
216.5912230133445
 51
265.7715420485837
  0
ARC
  5
1694
102
{ACAD_REACTORS
330
17BC
102
}
330
2
100
AcDbEntity
  8
KIJUN
100
AcDbCircle
 10
50.69707458600871
 20
75.93081419968325
 30
0.0
 40
40.19690663372105
100
AcDbArc
 50
259.3009903680311
 51
281.8933916608366
  0
ARC
  5
1695
102
{ACAD_REACTORS
330
17BC
102
}
330
2
100
AcDbEntity
  8
KIJUN
100
AcDbCircle
 10
97.74496634153486
 20
67.00627292646506
 30
0.0
 40
67.86077510602829
100
AcDbArc
 50
182.8999469911516
 51
196.9667526893032
  0
ARC
  5
1696
102
{ACAD_REACTORS
330
17BC
102
}
330
2
100
AcDbEntity
  8
KIJUN
100
AcDbCircle
 10
49.8438774606853
 20
53.21566423883543
 30
0.0
 40
18.03750639354512
100
AcDbArc
 50
199.4705436294414
 51
248.5048631227916
  0
ARC
  5
1697
102
{ACAD_REACTORS
330
17BC
102
}
330
2
100
AcDbEntity
  8
KIJUN
100
AcDbCircle
 10
31.48640672250783
 20
135.3092759418897
 30
0.0
 40
37.49457154579327
100
AcDbArc
 50
248.3009461673643
 51
278.6159184864478
  0
ARC
  5
1698
102
{ACAD_REACTORS
330
17BC
102
}
330
2
100
AcDbEntity
  8
KIJUN
100
AcDbCircle
 10
27.84172181614673
 20
132.3153208015328
 30
0.0
 40
36.22758705672408
100
AcDbArc
 50
252.5842778526039
 51
267.0500601401784
  0
ARC
  5
1699
102
{ACAD_REACTORS
330
17BC
102
}
330
2
100
AcDbEntity
  8
KIJUN
100
AcDbCircle
 10
14.81721038553715
 20
91.12740988677568
 30
0.0
 40
9.756507145440261
100
AcDbArc
 50
73.28381042198185
 51
84.49413809514602
  0
ARC
  5
169A
102
{ACAD_REACTORS
330
17BC
102
}
330
2
100
AcDbEntity
  8
KIJUN
100
AcDbCircle
 10
20.66390804804672
 20
105.3700155588708
 30
0.0
 40
8.457046201662798
100
AcDbArc
 50
227.8261269434467
 51
244.3171164404915
  0
ARC
  5
169B
102
{ACAD_REACTORS
330
17BC
102
}
330
2
100
AcDbEntity
  8
KIJUN
100
AcDbCircle
 10
15.65737614773868
 20
99.84351789896614
 30
0.0
 40
1.0
100
AcDbArc
 50
84.494138095146
 51
227.8261269434468
  0
ARC
  5
169C
102
{ACAD_REACTORS
330
17BC
102
}
330
2
100
AcDbEntity
  8
KIJUN
100
AcDbCircle
 10
-5.011636680173045
 20
89.33565234796674
 30
0.0
 40
12.85326263838414
100
AcDbArc
 50
345.0669384685123
 51
354.9771627878693
  0
ARC
  5
169D
102
{ACAD_REACTORS
330
17BC
102
}
330
2
100
AcDbEntity
  8
KIJUN
100
AcDbCircle
 10
-1.193721940503166
 20
88.1070604447934
 30
0.0
 40
8.986583016730152
100
AcDbArc
 50
0.6583231288311887
 51
104.4781502847741
  0
ARC
  5
169F
102
{ACAD_REACTORS
330
17BC
102
}
330
2
100
AcDbEntity
  8
KIJUN
100
AcDbCircle
 10
-2.011341811315879
 20
88.18880837163241
 30
0.0
 40
8.737121199060847
100
AcDbArc
 50
99.41411891324992
 51
189.2976706156409
  0
ARC
  5
16A0
102
{ACAD_REACTORS
330
17BC
102
}
330
2
100
AcDbEntity
  8
KIJUN
100
AcDbCircle
 10
18.66163493505817
 20
88.97061438892295
 30
0.0
 40
29.37731013303661
100
AcDbArc
 50
184.2818779922143
 51
212.597450463352
  0
ARC
  5
16A1
102
{ACAD_REACTORS
330
17BC
102
}
330
2
100
AcDbEntity
  8
KIJUN
100
AcDbCircle
 10
6.076344757057451
 20
141.0280735971187
 30
0.0
 40
72.38315902303148
100
AcDbArc
 50
268.459557090789
 51
283.8164162019224
  0
ARC
  5
16A2
102
{ACAD_REACTORS
330
17BC
102
}
330
2
100
AcDbEntity
  8
KIJUN
100
AcDbCircle
 10
4.45143385047546
 20
83.31286259299229
 30
0.0
 40
14.64530550332381
100
AcDbArc
 50
223.9744400948997
 51
268.744333029618
  0
ARC
  5
16A3
102
{ACAD_REACTORS
330
17BC
102
}
330
2
100
AcDbEntity
  8
KIJUN
100
AcDbCircle
 10
4.162235475286554
 20
85.51184308866529
 30
0.0
 40
3.28538922994372
100
AcDbArc
 50
8.959373775096155
 51
148.1775324967718
  0
ARC
  5
16A4
102
{ACAD_REACTORS
330
17BC
102
}
330
2
100
AcDbEntity
  8
KIJUN
100
AcDbCircle
 10
4.736122813692324
 20
84.59188938209177
 30
0.0
 40
4.284959323487661
100
AcDbArc
 50
141.7583255850612
 51
217.786153801118
  0
ARC
  5
16A5
102
{ACAD_REACTORS
330
17BC
102
}
330
2
100
AcDbEntity
  8
KIJUN
100
AcDbCircle
 10
8.125301709364242
 20
89.58306048654412
 30
0.0
 40
10.1942051129606
100
AcDbArc
 50
228.3443912087142
 51
301.9502683231228
  0
ARC
  5
16A6
102
{ACAD_REACTORS
330
17BC
102
}
330
2
100
AcDbEntity
  8
KIJUN
100
AcDbCircle
 10
141.5464315139985
 20
-32.50556197692322
 30
0.0
 40
161.4873166002267
100
AcDbArc
 50
124.329030666304
 51
129.4107143670161
  0
ARC
  5
16A7
102
{ACAD_REACTORS
330
17BC
102
}
330
2
100
AcDbEntity
  8
KIJUN
100
AcDbCircle
 10
60.99921828348592
 20
88.23202909369072
 30
0.0
 40
13.96147877318257
100
AcDbArc
 50
111.672929825519
 51
139.4535779537417
  0
ARC
  5
16A8
102
{ACAD_REACTORS
330
17BC
102
}
330
2
100
AcDbEntity
  8
KIJUN
100
AcDbCircle
 10
34.79379311077777
 20
107.8791351455154
 30
0.0
 40
18.84140517741681
100
AcDbArc
 50
288.0274901555824
 51
325.8705209247476
  0
ARC
  5
16A9
102
{ACAD_REACTORS
330
17BC
102
}
330
2
100
AcDbEntity
  8
KIJUN
100
AcDbCircle
 10
44.38630927796167
 20
90.46187710595189
 30
0.0
 40
5.658109773102661
100
AcDbArc
 50
161.4496173374583
 51
185.3280092875966
  0
ARC
  5
16AA
102
{ACAD_REACTORS
330
17BC
102
}
330
2
100
AcDbEntity
  8
KIJUN
100
AcDbCircle
 10
38.93708430341004
 20
94.56318967551418
 30
0.0
 40
4.900271721081028
100
AcDbArc
 50
271.4233059806819
 51
290.1447565466264
  0
ARC
  5
16AB
102
{ACAD_REACTORS
330
17BC
102
}
330
2
100
AcDbEntity
  8
KIJUN
100
AcDbCircle
 10
39.05134962829667
 20
89.96433728135036
 30
0.0
 40
0.3
100
AcDbArc
 50
185.3280092875976
 51
271.4233059806817
  0
ARC
  5
16AC
102
{ACAD_REACTORS
330
17BC
102
}
330
2
100
AcDbEntity
  8
KIJUN
100
AcDbCircle
 10
22.93565183403044
 20
95.84743188066399
 30
0.0
 40
5.664426743852802
100
AcDbArc
 50
198.6089064449345
 51
253.000357804052
  0
ARC
  5
16AD
102
{ACAD_REACTORS
330
17BC
102
}
330
2
100
AcDbEntity
  8
KIJUN
100
AcDbCircle
 10
28.25555795335935
 20
109.7076352396136
 30
0.0
 40
20.50054286273375
100
AcDbArc
 50
250.1058707206682
 51
301.6808137305168
  0
ARC
  5
16AE
102
{ACAD_REACTORS
330
17BC
102
}
330
2
100
AcDbEntity
  8
KIJUN
100
AcDbCircle
 10
26.12038768430149
 20
112.052666269965
 30
0.0
 40
20.64101416976421
100
AcDbArc
 50
256.0768924555579
 51
304.0434049901441
  0
ARC
  5
16AF
102
{ACAD_REACTORS
330
17BC
102
}
330
2
100
AcDbEntity
  8
KIJUN
100
AcDbCircle
 10
17.68948912463249
 20
85.05767398382145
 30
0.0
 40
7.216133324999864
100
AcDbArc
 50
82.22357853357262
 51
110.0286833108791
  0
ARC
  5
16B0
102
{ACAD_REACTORS
330
17BC
102
}
330
2
100
AcDbEntity
  8
KIJUN
100
AcDbCircle
 10
16.24578603104934
 20
89.26241253710314
 30
0.0
 40
2.772500847921564
100
AcDbArc
 50
111.7585309481238
 51
163.2400367475933
  0
ARC
  5
16B1
102
{ACAD_REACTORS
330
17BC
102
}
330
2
100
AcDbEntity
  8
KIJUN
100
AcDbCircle
 10
31.35250628520324
 20
85.455844399424
 30
0.0
 40
18.34897256933894
100
AcDbArc
 50
165.4618145291676
 51
197.817185784906
  0
ARC
  5
16B2
102
{ACAD_REACTORS
330
17BC
102
}
330
2
100
AcDbEntity
  8
KIJUN
100
AcDbCircle
 10
23.31019058372059
 20
83.07198875762052
 30
0.0
 40
9.964806848627116
100
AcDbArc
 50
198.9170460289232
 51
254.8635148771533
  0
ARC
  5
16B3
102
{ACAD_REACTORS
330
17BC
102
}
330
2
100
AcDbEntity
  8
KIJUN
100
AcDbCircle
 10
18.17665596316069
 20
70.29757063719237
 30
0.0
 40
5.204409896230996
100
AcDbArc
 50
4.868411344972283
 51
22.2280770261353
  0
ARC
  5
16B4
102
{ACAD_REACTORS
330
17BC
102
}
330
2
100
AcDbEntity
  8
KIJUN
100
AcDbCircle
 10
17.6662956483842
 20
62.47315762860437
 30
0.0
 40
11.3933203827554
100
AcDbArc
 50
64.93968284413425
 51
74.51482285576567
  0
ARC
  5
16B6
102
{ACAD_REACTORS
330
17BC
102
}
330
2
100
AcDbEntity
  8
KIJUN
100
AcDbCircle
 10
22.06861647434327
 20
71.88807557428643
 30
0.0
 40
1.0
100
AcDbArc
 50
22.22807702613537
 51
64.93968284413412
  0
ARC
  5
16B7
102
{ACAD_REACTORS
330
17BC
102
}
330
2
100
AcDbEntity
  8
KIJUN
100
AcDbCircle
 10
11.89870571455509
 20
84.34935711850055
 30
0.0
 40
11.37696185973604
100
AcDbArc
 50
10.75736821062911
 51
31.70553355450046
  0
ARC
  5
16B9
102
{ACAD_REACTORS
330
17BC
102
}
330
2
100
AcDbEntity
  8
KIJUN
100
AcDbCircle
 10
14.95286243023575
 20
93.31288660082398
 30
0.0
 40
11.01798278099369
100
AcDbArc
 50
305.343926300852
 51
315.4601442208846
  0
ARC
  5
16BA
102
{ACAD_REACTORS
330
17BC
102
}
330
2
100
AcDbEntity
  8
KIJUN
100
AcDbCircle
 10
22.09330702534359
 20
86.28622096309213
 30
0.0
 40
1.0
100
AcDbArc
 50
315.4601442208844
 51
10.75736821062896
  0
ARC
  5
16BB
102
{ACAD_REACTORS
330
17BC
102
}
330
2
100
AcDbEntity
  8
KIJUN
100
AcDbCircle
 10
29.6120380271375
 20
104.6018691395849
 30
0.0
 40
23.45593928501155
100
AcDbArc
 50
249.9277816905296
 51
289.822993360458
  0
ARC
  5
16BC
102
{ACAD_REACTORS
330
17BC
102
}
330
2
100
AcDbEntity
  8
KIJUN
100
AcDbCircle
 10
21.90506300670204
 20
83.50988617907336
 30
0.0
 40
1.0
100
AcDbArc
 50
125.3439263008517
 51
249.9277816905295
  0
ARC
  5
16BD
102
{ACAD_REACTORS
330
17BC
102
}
330
2
100
AcDbEntity
  8
KIJUN
100
AcDbCircle
 10
-6.511060162795945
 20
242.7371578201102
 30
0.0
 40
166.1543982937797
100
AcDbArc
 50
285.3835665910048
 51
287.6320618314116
  0
ARC
  5
16BE
102
{ACAD_REACTORS
330
17BC
102
}
330
2
100
AcDbEntity
  8
KIJUN
100
AcDbCircle
 10
50.23130729710874
 20
90.91900496406001
 30
0.0
 40
5.334820237407453
100
AcDbArc
 50
168.8241780880416
 51
219.7466931664885
  0
ARC
  5
16BF
102
{ACAD_REACTORS
330
17BC
102
}
330
2
100
AcDbEntity
  8
KIJUN
100
AcDbCircle
 10
41.09159636325191
 20
91.5349325720903
 30
0.0
 40
7.64873869547522
100
AcDbArc
 50
290.879573099743
 51
310.9630843163467
  0
ARC
  5
16C0
102
{ACAD_REACTORS
330
17BC
102
}
330
2
100
AcDbEntity
  8
KIJUN
100
AcDbCircle
 10
44.93687358048698
 20
86.64945644945387
 30
0.0
 40
1.46946059392441
100
AcDbArc
 50
322.7070536508702
 51
35.74813869089754
  0
ARC
  5
16C1
102
{ACAD_REACTORS
330
17BC
102
}
330
2
100
AcDbEntity
  8
KIJUN
100
AcDbCircle
 10
20.93044587415345
 20
124.932154786955
 30
0.0
 40
50.62788631050287
100
AcDbArc
 50
277.8381673233514
 51
290.4585377803527
  0
ARC
  5
16C2
102
{ACAD_REACTORS
330
17BC
102
}
330
2
100
AcDbEntity
  8
KIJUN
100
AcDbCircle
 10
26.3936495793298
 20
84.98705174671533
 30
0.0
 40
10.3109952084754
100
AcDbArc
 50
182.2397673810125
 51
278.0347227878358
  0
ARC
  5
16C3
102
{ACAD_REACTORS
330
17BC
102
}
330
2
100
AcDbEntity
  8
KIJUN
100
AcDbCircle
 10
23.00657114547208
 20
85.70190645719392
 30
0.0
 40
7.005792558632524
100
AcDbArc
 50
156.5169868450397
 51
189.1811770861065
  0
ARC
  5
16C4
102
{ACAD_REACTORS
330
17BC
102
}
330
2
100
AcDbEntity
  8
KIJUN
100
AcDbCircle
 10
18.52027648861856
 20
87.25553970139383
 30
0.0
 40
2.300746347751274
100
AcDbArc
 50
20.132902789933
 51
147.4460963996511
  0
ARC
  5
16C5
102
{ACAD_REACTORS
330
17BC
102
}
330
2
100
AcDbEntity
  8
KIJUN
100
AcDbCircle
 10
18.74560876875994
 20
87.62272221475731
 30
0.0
 40
1.98090083371887
100
AcDbArc
 50
263.5164281205938
 51
12.38112160839137
  0
ARC
  5
16C6
102
{ACAD_REACTORS
330
17BC
102
}
330
2
100
AcDbEntity
  8
KIJUN
100
AcDbCircle
 10
18.65878913372367
 20
91.46370880561102
 30
0.0
 40
5.810830058596015
100
AcDbArc
 50
244.3029892560677
 51
268.6504084797495
  0
ARC
  5
16C7
102
{ACAD_REACTORS
330
17BC
102
}
330
2
100
AcDbEntity
  8
KIJUN
100
AcDbCircle
 10
60.94242192046719
 20
91.676084811031
 30
0.0
 40
11.21011182928579
100
AcDbArc
 50
157.982584775045
 51
175.7474019563308
  0
ARC
  5
16C8
102
{ACAD_REACTORS
330
17BC
102
}
330
2
100
AcDbEntity
  8
KIJUN
100
AcDbCircle
 10
49.57088136344528
 20
94.74416374637575
 30
0.0
 40
8.382328165188724
100
AcDbArc
 50
247.2547512168935
 51
259.6305478701907
  0
ARC
  5
16C9
102
{ACAD_REACTORS
330
17BC
102
}
330
2
100
AcDbEntity
  8
KIJUN
100
AcDbCircle
 10
48.45214106504908
 20
87.83396314989902
 30
0.0
 40
1.39102465916776
100
AcDbArc
 50
253.716299100491
 51
340.7243192076375
  0
ARC
  5
16CA
102
{ACAD_REACTORS
330
17BC
102
}
330
2
100
AcDbEntity
  8
KIJUN
100
AcDbCircle
 10
44.75663068119397
 20
89.30742872139346
 30
0.0
 40
5.368501979915672
100
AcDbArc
 50
338.8997896978351
 51
10.77018841232582
  0
ARC
  5
16CB
102
{ACAD_REACTORS
330
17BC
102
}
330
2
100
AcDbEntity
  8
KIJUN
100
AcDbCircle
 10
62.57918814033012
 20
92.95273033002734
 30
0.0
 40
12.82375098157926
100
AcDbArc
 50
181.9903062124344
 51
191.8898519661366
  0
ARC
  5
16CC
102
{ACAD_REACTORS
330
17BC
102
}
330
2
100
AcDbEntity
  8
KIJUN
100
AcDbCircle
 10
50.4249468144049
 20
107.6039331150484
 30
0.0
 40
17.23423524237201
100
AcDbArc
 50
268.7507212460159
 51
277.0881461114966
  0
ARC
  5
16CD
102
{ACAD_REACTORS
330
17BC
102
}
330
2
100
AcDbEntity
  8
KIJUN
100
AcDbCircle
 10
64.67474368365897
 20
86.67960649838235
 30
0.0
 40
13.38322276653265
100
AcDbArc
 50
120.4452222879188
 51
139.2035432077597
  0
ARC
  5
16CE
102
{ACAD_REACTORS
330
17BC
102
}
330
2
100
AcDbEntity
  8
KIJUN
100
AcDbCircle
 10
56.77422859150288
 20
93.7243706386778
 30
0.0
 40
2.804615267529388
100
AcDbArc
 50
142.7020925797081
 51
191.2783390423092
  0
ARC
  5
16D0
102
{ACAD_REACTORS
330
17BC
102
}
330
2
100
AcDbEntity
  8
KIJUN
100
AcDbCircle
 10
45.39077732291531
 20
91.14450229501514
 30
0.0
 40
8.868767458120997
100
AcDbArc
 50
4.81709339880698
 51
13.24090478652725
  0
ARC
  5
16D1
102
{ACAD_REACTORS
330
17BC
102
}
330
2
100
AcDbEntity
  8
KIJUN
100
AcDbCircle
 10
52.17233012794786
 20
93.80439539149952
 30
0.0
 40
3.324686809833298
100
AcDbArc
 50
276.5501310332161
 51
296.1327739840823
  0
ARC
  5
16D2
102
{ACAD_REACTORS
330
17BC
102
}
330
2
100
AcDbEntity
  8
KIJUN
100
AcDbCircle
 10
53.12842415739176
 20
91.79903468119952
 30
0.0
 40
1.103489426119265
100
AcDbArc
 50
297.4261994830536
 51
4.6898530734445
  0
ARC
  5
16D3
102
{ACAD_REACTORS
330
17BC
102
}
330
2
100
AcDbEntity
  8
KIJUN
100
AcDbCircle
 10
60.04126753750452
 20
93.93578593726612
 30
0.0
 40
4.790271730815305
100
AcDbArc
 50
77.08911938107009
 51
116.6415749110617
  0
ARC
  5
16D4
102
{ACAD_REACTORS
330
17BC
102
}
330
2
100
AcDbEntity
  8
KIJUN
100
AcDbCircle
 10
55.99665614864812
 20
75.28319155995411
 30
0.0
 40
23.87607732380113
100
AcDbArc
 50
66.50986171842004
 51
77.62975409068896
  0
ARC
  5
16D5
102
{ACAD_REACTORS
330
17BC
102
}
330
2
100
AcDbEntity
  8
KIJUN
100
AcDbCircle
 10
64.49711519253191
 20
94.36861588537672
 30
0.0
 40
2.990041085696767
100
AcDbArc
 50
348.5150140941377
 51
70.12879536262357
  0
ARC
  5
16D6
102
{ACAD_REACTORS
330
17BC
102
}
330
2
100
AcDbEntity
  8
KIJUN
100
AcDbCircle
 10
58.67324717503947
 20
94.85525876805624
 30
0.0
 40
8.820652637252468
100
AcDbArc
 50
287.3848520257993
 51
352.9540150917108
  0
ARC
  5
16D7
102
{ACAD_REACTORS
330
17BC
102
}
330
2
100
AcDbEntity
  8
KIJUN
100
AcDbCircle
 10
53.70430697609714
 20
109.585064333918
 30
0.0
 40
24.36463779332366
100
AcDbArc
 50
277.4649505535871
 51
288.1864415460766
  0
ARC
  5
16D8
102
{ACAD_REACTORS
330
17BC
102
}
330
2
100
AcDbEntity
  8
KIJUN
100
AcDbCircle
 10
56.86233327304714
 20
81.17006983542559
 30
0.0
 40
4.256865112360475
100
AcDbArc
 50
89.90013660390269
 51
166.4148708208811
  0
ARC
  5
16D9
102
{ACAD_REACTORS
330
17BC
102
}
330
2
100
AcDbEntity
  8
KIJUN
100
AcDbCircle
 10
64.6193220273938
 20
81.82520465152441
 30
0.0
 40
15.51952197277671
100
AcDbArc
 50
115.0327332974067
 51
132.9944270861763
  0
ARC
  5
16DA
102
{ACAD_REACTORS
330
17BC
102
}
330
2
100
AcDbEntity
  8
KIJUN
100
AcDbCircle
 10
60.90523879540961
 20
89.50010218185335
 30
0.0
 40
6.994984519179672
100
AcDbArc
 50
89.87248286408492
 51
114.0687728274511
  0
ARC
  5
16DB
102
{ACAD_REACTORS
330
17BC
102
}
330
2
100
AcDbEntity
  8
KIJUN
100
AcDbCircle
 10
61.01169203155457
 20
92.77495307961499
 30
0.0
 40
3.721226329544095
100
AcDbArc
 50
21.27027602171547
 51
91.39950082868619
  0
ARC
  5
16DC
102
{ACAD_REACTORS
330
17BC
102
}
330
2
100
AcDbEntity
  8
KIJUN
100
AcDbCircle
 10
60.46058562763365
 20
93.53890558810963
 30
0.0
 40
4.061338048399409
100
AcDbArc
 50
323.291628487852
 51
8.295856794733412
  0
ARC
  5
16EA
102
{ACAD_REACTORS
330
17BC
102
}
330
2
100
AcDbEntity
  8
KIJUN
100
AcDbCircle
 10
58.10210373262487
 20
95.02197646792748
 30
0.0
 40
6.842163322011227
100
AcDbArc
 50
274.4278051580006
 51
325.140944313201
  0
ARC
  5
16F2
102
{ACAD_REACTORS
330
17BC
102
}
330
2
100
AcDbEntity
  8
KIJUN
100
AcDbCircle
 10
57.43499498037081
 20
102.0430042689953
 30
0.0
 40
13.89428400651172
100
AcDbArc
 50
259.1594070450195
 51
274.9353318922342
  0
ARC
  5
16F3
102
{ACAD_REACTORS
330
17BC
102
}
330
2
100
AcDbEntity
  8
KIJUN
100
AcDbCircle
 10
53.87711569558994
 20
85.41197787020697
 30
0.0
 40
3.130628517621643
100
AcDbArc
 50
72.43698658850881
 51
154.8715272504961
  0
ARC
  5
16F4
102
{ACAD_REACTORS
330
17BC
102
}
330
2
100
AcDbEntity
  8
KIJUN
100
AcDbCircle
 10
57.68677572006875
 20
84.34668119316533
 30
0.0
 40
7.062392746847639
100
AcDbArc
 50
160.1791671733132
 51
197.6137168000827
  0
ARC
  5
16FA
102
{ACAD_REACTORS
330
17BC
102
}
330
2
100
AcDbEntity
  8
KIJUN
100
AcDbCircle
 10
69.82785745367241
 20
98.53095081141077
 30
0.0
 40
6.410970133414958
100
AcDbArc
 50
28.32784949273406
 51
70.46956121725249
  0
ARC
  5
16FB
102
{ACAD_REACTORS
330
17BC
102
}
330
2
100
AcDbEntity
  8
KIJUN
100
AcDbCircle
 10
82.74805933973388
 20
91.67446436775618
 30
0.0
 40
12.28561833333079
100
AcDbArc
 50
126.3215172735871
 51
151.3066323949974
  0
SPLINE
  5
16FC
102
{ACAD_REACTORS
330
17BC
102
}
330
2
100
AcDbEntity
  8
KIJUN
100
AcDbSpline
210
0.0
220
0.0
230
1.0
 70
     8
 71
     3
 72
    11
 73
     7
 74
     5
 42
0.0000000001
 43
0.0000000001
 44
0.0000000001
 40
0.0
 40
0.0
 40
0.0
 40
0.0
 40
7.783565331345448
 40
10.80487052654683
 40
13.57211582191412
 40
16.75335701612339
 40
16.75335701612339
 40
16.75335701612339
 40
16.75335701612339
 10
71.97109347325576
 20
86.57305950092462
 30
0.0
 10
73.35409334704545
 20
84.38822252742591
 30
0.0
 10
75.27392493300901
 20
81.35530899547447
 30
0.0
 10
76.93602575432089
 20
77.02223407635009
 30
0.0
 10
74.82716949088029
 20
73.58180447521407
 30
0.0
 10
72.9573659693948
 20
75.12542963256904
 30
0.0
 10
71.95739799467546
 20
75.95095793251562
 30
0.0
 11
71.97109347325576
 21
86.57305950092462
 31
0.0
 11
75.81048261806845
 21
79.80231506164637
 31
0.0
 11
76.40326577065852
 21
76.8397328743381
 31
0.0
 11
74.82251265323256
 21
74.56841913412507
 31
0.0
 11
71.95739799467546
 21
75.95095793251562
 31
0.0
  0
ARC
  5
16FD
102
{ACAD_REACTORS
330
17BC
102
}
330
2
100
AcDbEntity
  8
KIJUN
100
AcDbCircle
 10
74.61149991865326
 20
71.0730595009245
 30
0.0
 40
8.149455030181307
100
AcDbArc
 50
334.5656534026503
 51
25.43434659734976
  0
LINE
  5
16FE
102
{ACAD_REACTORS
330
17BC
102
}
330
2
100
AcDbEntity
  8
KIJUN
100
AcDbLine
 10
81.97109347325577
 20
74.57305950092461
 30
0.0
 11
76.09423454768566
 21
79.12736443939502
 31
0.0
  0
SPLINE
  5
16FF
102
{ACAD_REACTORS
330
17BC
102
}
330
2
100
AcDbEntity
  8
KIJUN
100
AcDbSpline
210
0.0
220
0.0
230
1.0
 70
     8
 71
     3
 72
    10
 73
     6
 74
     4
 42
0.0000000001
 43
0.0000000001
 44
0.0000000001
 40
0.0
 40
0.0
 40
0.0
 40
0.0
 40
3.623594046659342
 40
7.302447274283458
 40
11.52430715051481
 40
11.52430715051481
 40
11.52430715051481
 40
11.52430715051481
 10
76.09423454768588
 20
79.12736443939514
 30
0.0
 10
76.64383058157629
 20
78.04787809670525
 30
0.0
 10
77.75140389358682
 20
75.87244343175719
 30
0.0
 10
76.56048471854089
 20
71.25953471051989
 30
0.0
 10
73.56941478562274
 20
71.46386999676671
 30
0.0
 10
71.97109347325576
 20
71.57305950092461
 30
0.0
 11
76.09423454768588
 21
79.12736443939514
 31
0.0
 11
77.28449022654681
 21
75.70483244773686
 31
0.0
 11
76.14510709975215
 21
72.2068663014204
 31
0.0
 11
71.97109347325576
 21
71.57305950092461
 31
0.0
  0
SPLINE
  5
1700
102
{ACAD_REACTORS
330
17BC
102
}
330
2
100
AcDbEntity
  8
KIJUN
100
AcDbSpline
210
0.0
220
0.0
230
1.0
 70
     8
 71
     3
 72
    15
 73
    11
 74
     9
 42
0.0000000001
 43
0.0000000001
 44
0.0000000001
 40
0.0
 40
0.0
 40
0.0
 40
0.0
 40
2.207288488463994
 40
3.930917964721598
 40
8.7297853385059
 40
11.08895524235598
 40
13.63616944724556
 40
16.50706443138766
 40
18.12219519158959
 40
18.32556754684248
 40
18.32556754684248
 40
18.32556754684248
 40
18.32556754684248
 10
71.97109347325576
 20
67.57305950092462
 30
0.0
 10
72.7709612190074
 20
67.5365616304851
 30
0.0
 10
74.19543042981024
 20
67.47156326922208
 30
0.0
 10
75.59446953108397
 20
64.55205926497152
 30
0.0
 10
75.73330226244272
 20
62.1411707354305
 30
0.0
 10
74.54718291824088
 20
57.51668193271942
 30
0.0
 10
72.27792198206185
 20
61.03417740505386
 30
0.0
 10
72.48230316290108
 20
62.66898855782532
 30
0.0
 10
72.69173726611623
 20
65.10387338163773
 30
0.0
 10
72.05895278612243
 20
65.06731127237934
 30
0.0
 10
71.98818531315518
 20
65.06322234769744
 30
0.0
 11
71.97109347325576
 21
67.57305950092462
 31
0.0
 11
74.12018767866047
 21
67.06955521335442
 31
0.0
 11
75.0357542623054
 21
65.6092003241796
 31
0.0
 11
75.32795577038118
 21
60.81923723978639
 31
0.0
 11
74.37781232126425
 21
58.65986000054999
 31
0.0
 11
72.75657868482503
 21
60.62452325456309
 31
0.0
 11
72.54745965687821
 21
63.48779188361675
 31
0.0
 11
72.19155766840808
 21
65.06322234769744
 31
0.0
 11
71.98818531315518
 21
65.06322234769744
 31
0.0
  0
ARC
  5
1701
102
{ACAD_REACTORS
330
17BC
102
}
330
2
100
AcDbEntity
  8
KIJUN
100
AcDbCircle
 10
71.88766757709854
 20
41.37876932785309
 30
0.0
 40
5.806309195577247
100
AcDbArc
 50
270.8232624325148
 51
331.1042506316381
  0
ARC
  5
1702
102
{ACAD_REACTORS
330
17BC
102
}
330
2
100
AcDbEntity
  8
KIJUN
100
AcDbCircle
 10
81.82609961522311
 20
41.06232252525569
 30
0.0
 40
5.455961422411635
100
AcDbArc
 50
207.1451616612299
 51
305.0688474217051
  0
SPLINE
  5
1703
102
{ACAD_REACTORS
330
17BC
102
}
330
2
100
AcDbEntity
  8
KIJUN
100
AcDbSpline
210
0.0
220
0.0
230
1.0
 70
     8
 71
     3
 72
    12
 73
     8
 74
     6
 42
0.0000000001
 43
0.0000000001
 44
0.0000000001
 40
0.0
 40
0.0
 40
0.0
 40
0.0
 40
2.445827030138108
 40
5.019774033063929
 40
7.793505056714105
 40
11.99975718823571
 40
18.10365851260065
 40
18.10365851260065
 40
18.10365851260065
 40
18.10365851260065
 10
74.89200696233055
 20
65.95944316599775
 30
0.0
 10
75.57021588652173
 20
66.40664205042054
 30
0.0
 10
76.96216041272761
 20
67.32446547782533
 30
0.0
 10
79.22762116364331
 20
68.69388554101426
 30
0.0
 10
83.0178012341371
 20
67.78970871224534
 30
0.0
 10
82.52952967395916
 20
62.37047286393044
 30
0.0
 10
80.91815745045186
 20
59.49325828068484
 30
0.0
 10
79.96417969530066
 20
57.78986618469935
 30
0.0
 11
74.89200696233055
 21
65.95944316599775
 31
0.0
 11
76.94259474412987
 21
67.29254466644306
 31
0.0
 11
79.30090480678891
 21
68.32384327607655
 31
0.0
 11
81.97109347325577
 21
67.57305950092462
 31
0.0
 11
82.39618859791752
 21
63.38834312715221
 31
0.0
 11
79.96417969530066
 21
57.78986618469935
 31
0.0
  0
SPLINE
  5
1704
102
{ACAD_REACTORS
330
17BC
102
}
330
2
100
AcDbEntity
  8
KIJUN
100
AcDbSpline
210
0.0
220
0.0
230
1.0
 70
     8
 71
     3
 72
    16
 73
    12
 74
    10
 42
0.0000000001
 43
0.0000000001
 44
0.0000000001
 40
0.0
 40
0.0
 40
0.0
 40
0.0
 40
1.303567015001525
 40
4.021328585713042
 40
5.916032789556133
 40
9.605872078175785
 40
12.86727021748987
 40
17.43979778388882
 40
22.45762860393329
 40
24.73187455478373
 40
25.10765091140274
 40
25.10765091140274
 40
25.10765091140274
 40
25.10765091140274
 10
79.96417969530066
 20
57.78986618469935
 30
0.0
 10
79.65937918260583
 20
58.11345224434548
 30
0.0
 10
78.71911067279069
 20
59.11167163515423
 30
0.0
 10
76.72455493073954
 20
59.36516196744065
 30
0.0
 10
73.43788326329192
 20
59.00917418069141
 30
0.0
 10
74.91821509523958
 20
54.98347460761026
 30
0.0
 10
72.72570613634783
 20
51.79519931310997
 30
0.0
 10
72.95516306768326
 20
47.16151936582422
 30
0.0
 10
73.65368546323979
 20
43.72625513146039
 30
0.0
 10
73.0307844567678
 20
40.47533777906709
 30
0.0
 10
72.13228880002215
 20
40.34932453707866
 30
0.0
 10
72.00488103315987
 20
40.33145570751196
 30
0.0
 11
79.96417969530066
 21
57.78986618469935
 31
0.0
 11
79.00611678251184
 21
58.67383587747088
 31
0.0
 11
76.35301722846506
 21
59.26314964071855
 31
0.0
 11
74.51058584151301
 21
58.82116479433284
 31
0.0
 11
74.28949519008288
 21
55.13795520218479
 31
0.0
 11
73.25773343733644
 21
52.04406032538452
 31
0.0
 11
73.03664131879563
 21
47.47688104046505
 31
0.0
 11
73.33143081018338
 21
42.46771690915977
 31
0.0
 11
72.37336643028388
 21
40.4051196898929
 31
0.0
 11
72.00488103315987
 21
40.33145570751196
 31
0.0
  0
SPLINE
  5
1705
102
{ACAD_REACTORS
330
17BC
102
}
330
2
100
AcDbEntity
  8
KIJUN
100
AcDbSpline
210
0.0
220
0.0
230
1.0
 70
     8
 71
     3
 72
     9
 73
     5
 74
     3
 42
0.0000000001
 43
0.0000000001
 44
0.0000000001
 40
0.0
 40
0.0
 40
0.0
 40
0.0
 40
3.896471813099232
 40
13.03112767882052
 40
13.03112767882052
 40
13.03112767882052
 40
13.03112767882052
 10
76.97109347325554
 20
38.57305950092462
 30
0.0
 10
77.0182173555219
 20
39.87119453518655
 30
0.0
 10
77.17581565367211
 20
44.2125998339361
 30
0.0
 10
77.08203274857985
 20
48.55682707123844
 30
0.0
 10
77.01629211697682
 20
51.60207547899881
 30
0.0
 11
76.97109347325554
 21
38.57305950092462
 31
0.0
 11
77.08998948982375
 21
42.46771690915977
 31
0.0
 11
77.01629211697682
 21
51.60207547899881
 31
0.0
  0
SPLINE
  5
1706
102
{ACAD_REACTORS
330
17BC
102
}
330
2
100
AcDbEntity
  8
KIJUN
100
AcDbSpline
210
0.0
220
0.0
230
1.0
 70
     8
 71
     3
 72
    12
 73
     8
 74
     6
 42
0.0000000001
 43
0.0000000001
 44
0.0000000001
 40
0.0
 40
0.0
 40
0.0
 40
0.0
 40
3.673451975081411
 40
8.472580966538714
 40
16.44059088345522
 40
19.24854750862426
 40
22.6291416119865
 40
22.6291416119865
 40
22.6291416119865
 40
22.6291416119865
 10
84.96087859280747
 20
36.59682414270765
 30
0.0
 10
83.9759227868488
 20
37.37931058615141
 30
0.0
 10
81.7041855023938
 20
39.18406529433002
 30
0.0
 10
80.56286237381035
 20
44.83880564624043
 30
0.0
 10
80.0488367043378
 20
49.94668195974382
 30
0.0
 10
80.84987444014984
 20
54.67779436602526
 30
0.0
 10
80.27707854722695
 20
56.69043130057215
 30
0.0
 10
79.96417969530066
 20
57.78986618469935
 30
0.0
 11
84.96087859280747
 21
36.59682414270765
 31
0.0
 11
82.32249122507059
 21
39.15282913311671
 31
0.0
 11
80.84854670235321
 21
43.72000841803617
 31
0.0
 11
80.40636393238228
 21
51.67573946137975
 31
0.0
 11
80.62745605092308
 21
54.47497840865628
 31
0.0
 11
79.96417969530066
 21
57.78986618469935
 31
0.0
  0
ARC
  5
1707
102
{ACAD_REACTORS
330
17BC
102
}
330
2
100
AcDbEntity
  8
KIJUN
100
AcDbCircle
 10
89.37841697943857
 20
54.3750010574322
 30
0.0
 40
10.01216785050629
100
AcDbArc
 50
56.19248044066916
 51
159.982660658623
  0
SPLINE
  5
1708
102
{ACAD_REACTORS
330
17BC
102
}
330
2
100
AcDbEntity
  8
KIJUN
100
AcDbSpline
210
0.0
220
0.0
230
1.0
 70
     8
 71
     3
 72
    11
 73
     7
 74
     5
 42
0.0000000001
 43
0.0000000001
 44
0.0000000001
 40
0.0
 40
0.0
 40
0.0
 40
0.0
 40
4.933342977151472
 40
10.26254080690877
 40
16.88528016888468
 40
19.56092425631853
 40
19.56092425631853
 40
19.56092425631853
 40
19.56092425631853
 10
86.38718016197193
 20
56.14667571076893
 30
0.0
 10
87.28198915446274
 20
54.56428749865114
 30
0.0
 10
89.14340723189141
 20
51.27253914982524
 30
0.0
 10
96.22905183925002
 20
53.22692330805698
 30
0.0
 10
96.87788472632517
 20
59.21626924865403
 30
0.0
 10
95.38019862153566
 20
61.91706272552001
 30
0.0
 10
94.94923392827317
 20
62.69422599664915
 30
0.0
 11
86.38718016197193
 21
56.14667571076893
 31
0.0
 11
89.63663381610363
 21
52.43467842091809
 31
0.0
 11
94.79449776053147
 21
53.77512201893376
 31
0.0
 11
96.0839648469715
 21
60.27111703814774
 31
0.0
 11
94.94923392827317
 21
62.69422599664915
 31
0.0
  0
SPLINE
  5
1709
102
{ACAD_REACTORS
330
17BC
102
}
330
2
100
AcDbEntity
  8
KIJUN
100
AcDbSpline
210
0.0
220
0.0
230
1.0
 70
     8
 71
     3
 72
    15
 73
    11
 74
     9
 42
0.0000000001
 43
0.0000000001
 44
0.0000000001
 40
0.0
 40
0.0
 40
0.0
 40
0.0
 40
2.290292313656773
 40
5.8055404008766
 40
10.0097398356084
 40
16.46639194863684
 40
27.30207805002561
 40
34.07875451357267
 40
37.18187130124851
 40
44.18728454360356
 40
44.18728454360356
 40
44.18728454360356
 40
44.18728454360356
 10
86.38718016197172
 20
56.14667571076893
 30
0.0
 10
85.93417392446555
 20
55.51732871100651
 30
0.0
 10
84.7858724618055
 20
53.92203041152548
 30
0.0
 10
84.71938523215985
 20
50.38412570525591
 30
0.0
 10
86.56480867744097
 20
45.85325134515593
 30
0.0
 10
93.53691561577571
 20
42.11984170198294
 30
0.0
 10
101.3011737063412
 20
43.76670186373938
 30
0.0
 10
106.8630286112968
 20
55.2714348606084
 30
0.0
 10
100.3221495352496
 20
51.05306589990438
 30
0.0
 10
97.23997713792112
 20
52.84358740199492
 30
0.0
 10
95.10397009601488
 20
54.0844545710296
 30
0.0
 11
86.38718016197172
 21
56.14667571076893
 31
0.0
 11
85.20087149876676
 21
54.1875660564616
 31
0.0
 11
84.94297837490089
 21
50.68179078537458
 31
0.0
 11
86.59349407422027
 21
46.81512674342582
 31
0.0
 11
92.11240956574883
 21
43.46401822443681
 31
0.0
 11
102.2499178988424
 21
47.29063789253655
 31
0.0
 11
104.8007547810146
 21
53.56890000016972
 31
0.0
 11
101.9123512068728
 21
52.43467842091809
 31
0.0
 11
95.10397009601488
 21
54.0844545710296
 31
0.0
  0
ARC
  5
170A
102
{ACAD_REACTORS
330
17BC
102
}
330
2
100
AcDbEntity
  8
KIJUN
100
AcDbCircle
 10
85.01252986821063
 20
80.29682300400486
 30
0.0
 40
6.481651331547352
100
AcDbArc
 50
242.0151623030334
 51
16.79757942840678
  0
SPLINE
  5
170B
102
{ACAD_REACTORS
330
17BC
102
}
330
2
100
AcDbEntity
  8
KIJUN
100
AcDbSpline
210
0.0
220
0.0
230
1.0
 70
     8
 71
     3
 72
    11
 73
     7
 74
     5
 42
0.0000000001
 43
0.0000000001
 44
0.0000000001
 40
0.0
 40
0.0
 40
0.0
 40
0.0
 40
3.118094604017875
 40
6.978147744654645
 40
12.72560710472601
 40
24.1064177715985
 40
24.1064177715985
 40
24.1064177715985
 40
24.1064177715985
 10
91.21762020413402
 20
82.16996419109637
 30
0.0
 10
92.53436921293104
 20
82.24277816256678
 30
0.0
 10
95.48119100408941
 20
82.40573237509797
 30
0.0
 10
93.00500709658942
 20
76.94547577915826
 30
0.0
 10
93.224215539688
 20
70.54494834586384
 30
0.0
 10
94.76835264826593
 20
64.87280460661885
 30
0.0
 10
95.79434838798588
 20
61.10397133448532
 30
0.0
 11
91.21762020413402
 21
82.16996419109637
 31
0.0
 11
94.30838676135303
 21
81.75804666490705
 31
0.0
 11
93.69023433017568
 21
77.94781073778006
 31
0.0
 11
93.31910079820053
 21
72.21234658942069
 31
0.0
 11
95.79434838798588
 21
61.10397133448532
 31
0.0
  0
ARC
  5
170C
102
{ACAD_REACTORS
330
17BC
102
}
330
2
100
AcDbEntity
  8
KIJUN
100
AcDbCircle
 10
131.1929267126564
 20
92.69469609747284
 30
0.0
 40
2.230630102515217
100
AcDbArc
 50
123.2129620356578
 51
236.7870379643422
  0
ARC
  5
170D
102
{ACAD_REACTORS
330
17BC
102
}
330
2
100
AcDbEntity
  8
KIJUN
100
AcDbCircle
 10
152.7069594675135
 20
163.1402639274287
 30
0.0
 40
87.06259182902847
100
AcDbArc
 50
227.5679669456597
 51
234.5325243909646
  0
SPLINE
  5
170E
102
{ACAD_REACTORS
330
17BC
102
}
330
2
100
AcDbEntity
  8
KIJUN
100
AcDbSpline
210
0.0
220
0.0
230
1.0
 70
     8
 71
     3
 72
    10
 73
     6
 74
     4
 42
0.0000000001
 43
0.0000000001
 44
0.0000000001
 40
0.0
 40
0.0
 40
0.0
 40
0.0
 40
2.096694217312686
 40
3.88844511923568
 40
4.988266667470761
 40
4.988266667470761
 40
4.988266667470761
 40
4.988266667470761
 10
94.34210218771145
 20
81.70895030853854
 30
0.0
 10
94.30036412393167
 20
82.43640458534255
 30
0.0
 10
94.2229583825266
 20
83.78551215131428
 30
0.0
 10
95.534721314523
 20
85.09828951781143
 30
0.0
 10
95.45727069375507
 20
86.09111079488782
 30
0.0
 10
95.4278120296154
 20
86.46873447643008
 30
0.0
 11
94.34210218771145
 21
81.70895030853854
 31
0.0
 11
94.53669706464106
 21
83.79659478851715
 31
0.0
 11
95.39497737596397
 21
85.36940316900643
 31
0.0
 11
95.4278120296154
 21
86.46873447643008
 31
0.0
  0
ARC
  5
170F
102
{ACAD_REACTORS
330
17BC
102
}
330
2
100
AcDbEntity
  8
KIJUN
100
AcDbCircle
 10
116.9875045223271
 20
93.41455056295137
 30
0.0
 40
21.23933505537285
100
AcDbArc
 50
230.7279378915306
 51
281.6526737329294
  0
ARC
  5
1710
102
{ACAD_REACTORS
330
17BC
102
}
330
2
100
AcDbEntity
  8
KIJUN
100
AcDbCircle
 10
114.8852838806313
 20
86.97125345886673
 30
0.0
 40
17.20192869753895
100
AcDbArc
 50
222.2002163430418
 51
289.3322185232142
  0
SPLINE
  5
1711
102
{ACAD_REACTORS
330
17BC
102
}
330
2
100
AcDbEntity
  8
KIJUN
100
AcDbSpline
210
0.0
220
0.0
230
1.0
 70
     8
 71
     3
 72
    25
 73
    21
 74
    19
 42
0.0000000001
 43
0.0000000001
 44
0.0000000001
 40
0.0
 40
0.0
 40
0.0
 40
0.0
 40
4.391028940668656
 40
10.58641361419585
 40
13.42072395961546
 40
15.34238070070452
 40
18.73071504371255
 40
22.92046445550139
 40
27.31149454029929
 40
31.95636920388078
 40
37.52316192674634
 40
41.1673809223826
 40
45.63224253812991
 40
50.24168293721235
 40
52.37902405882953
 40
55.3896847273267
 40
59.39945327889754
 40
64.64801817009814
 40
68.16016134962298
 40
72.8934549625435
 40
72.8934549625435
 40
72.8934549625435
 40
72.8934549625435
 10
101.3637985082985
 20
74.22351612343096
 30
0.0
 10
102.4462718170289
 20
73.22252085421266
 30
0.0
 10
105.0560269171176
 20
70.80920268004814
 30
0.0
 10
109.6682599209989
 20
69.62406951978843
 30
0.0
 10
112.052288789679
 20
66.84138412100958
 30
0.0
 10
112.1150464209693
 20
63.22573930204895
 30
0.0
 10
107.9367330584369
 20
65.74390166073476
 30
0.0
 10
104.1157222146381
 20
65.06658776681939
 30
0.0
 10
100.8065312519646
 20
67.78749588236365
 30
0.0
 10
97.33615872824524
 20
75.08911679906937
 30
0.0
 10
100.9862987471581
 20
67.45977319285173
 30
0.0
 10
103.0102176525023
 20
64.11063805472965
 30
0.0
 10
102.7198954273561
 20
59.43527448760375
 30
0.0
 10
100.822108197813
 20
56.14156942626785
 30
0.0
 10
96.3581012708637
 20
55.31035498741292
 30
0.0
 10
98.47476926385169
 20
59.48400596503727
 30
0.0
 10
98.41795096719819
 20
63.10068296709599
 30
0.0
 10
97.46862454647875
 20
67.44329800601295
 30
0.0
 10
95.92275748490427
 20
71.66537760269739
 30
0.0
 10
95.8854795575595
 20
74.44373187134414
 30
0.0
 10
95.86408016055415
 20
76.03864634892102
 30
0.0
 11
101.3637985082985
 21
74.22351612343096
 31
0.0
 11
104.7881508328106
 21
71.47488986375162
 31
0.0
 11
110.2878691805552
 21
68.62254182249569
 31
0.0
 11
111.8962773350718
 21
66.28880268912258
 31
0.0
 11
111.7925085937769
 21
64.36994972995581
 31
0.0
 11
108.4719250105598
 21
65.0441413102036
 31
0.0
 11
104.3211944312052
 21
65.61461110887478
 31
0.0
 11
100.8968406395825
 21
68.36323736855423
 31
0.0
 11
98.6139386008709
 21
72.40838494584079
 31
0.0
 11
101.1043781221723
 21
67.42974133436496
 31
0.0
 11
102.6090175353939
 21
64.11064622811443
 31
0.0
 11
102.4014815199149
 21
59.65061057242144
 31
0.0
 11
99.49596996765567
 21
56.07221101222956
 31
0.0
 11
97.3687195737758
 21
55.86476744907634
 31
0.0
 11
97.93944618378677
 21
58.82083727190888
 31
0.0
 11
98.30263384409713
 21
62.81412395840721
 31
0.0
 11
97.21306792894424
 21
67.9483502422479
 31
0.0
 11
96.22726928797542
 21
71.31930719138665
 31
0.0
 11
95.86408016055415
 21
76.03864634892102
 31
0.0
  0
SPLINE
  5
1712
102
{ACAD_REACTORS
330
17BC
102
}
330
2
100
AcDbEntity
  8
KIJUN
100
AcDbSpline
210
0.0
220
0.0
230
1.0
 70
     8
 71
     3
 72
    17
 73
    13
 74
    11
 42
0.0000000001
 43
0.0000000001
 44
0.0000000001
 40
0.0
 40
0.0
 40
0.0
 40
0.0
 40
5.021644712942142
 40
12.12881165470363
 40
20.20440464769163
 40
26.00945837616071
 40
27.73701314076795
 40
35.77081181536892
 40
42.96291052927013
 40
50.79362388799542
 40
54.25428521564175
 40
57.32143348362825
 40
57.32143348362825
 40
57.32143348362825
 40
57.32143348362825
 10
110.1832705278703
 20
64.39913304256037
 30
0.0
 10
110.2082182747075
 20
62.72351855595651
 30
0.0
 10
110.2684747324808
 20
58.67639581516747
 30
0.0
 10
109.3221512252863
 20
51.98618797495198
 30
0.0
 10
106.6565760588363
 20
45.29838631715485
 30
0.0
 10
102.5940718909256
 20
41.75168397792555
 30
0.0
 10
97.84967591952835
 20
39.61444258546587
 30
0.0
 10
91.87370043326049
 20
39.55170248038223
 30
0.0
 10
84.56560548947107
 20
43.32959922687652
 30
0.0
 10
82.54210433412124
 20
49.58418184060009
 30
0.0
 10
83.21015754131131
 20
54.8643622359165
 30
0.0
 10
85.37160515196985
 20
55.73676817294409
 30
0.0
 10
86.38718016197172
 20
56.14667571076893
 30
0.0
 11
110.1832705278703
 21
64.39913304256037
 31
0.0
 11
110.1504053073316
 21
59.37759587747848
 31
0.0
 11
109.1007961526646
 21
52.34836102861288
 31
0.0
 11
105.7420442169303
 21
45.00438474715622
 31
0.0
 11
101.3336816594184
 21
41.22748279556424
 31
0.0
 11
99.75713328131869
 21
40.52112546656679
 31
0.0
 11
91.72761723296103
 21
40.25884093940772
 31
0.0
 11
85.48243792122624
 21
43.8259152692724
 31
0.0
 11
82.91089211793709
 21
51.22234845616083
 31
0.0
 11
83.75058120220373
 21
54.57959421219811
 31
0.0
 11
86.38718016197172
 21
56.14667571076893
 31
0.0
  0
ARC
  5
1713
102
{ACAD_REACTORS
330
17BC
102
}
330
2
100
AcDbEntity
  8
KIJUN
100
AcDbCircle
 10
91.10609850185296
 20
54.57536508238991
 30
0.0
 40
49.5301591245384
100
AcDbArc
 50
79.84670496577503
 51
108.4010460022216
  0
ARC
  5
1714
102
{ACAD_REACTORS
330
17BC
102
}
330
2
100
AcDbEntity
  8
KIJUN
100
AcDbCircle
 10
94.22894120744564
 20
128.8333487943439
 30
0.0
 40
27.99392261157302
100
AcDbArc
 50
262.8036537582577
 51
285.7171751084907
  0
ARC
  5
1715
102
{ACAD_REACTORS
330
17BC
102
}
330
2
100
AcDbEntity
  8
KIJUN
100
AcDbCircle
 10
90.8434433555803
 20
28.81939116906281
 30
0.0
 40
72.44671397287814
100
AcDbArc
 50
92.60014733060492
 51
100.6526630321703
  0
ARC
  5
1716
102
{ACAD_REACTORS
330
17BC
102
}
330
2
100
AcDbEntity
  8
KIJUN
100
AcDbCircle
 10
88.3272543776872
 20
81.58559663200607
 30
0.0
 40
19.62105139499086
100
AcDbArc
 50
82.98916006460576
 51
92.25022701939726
  0
ARC
  5
1717
102
{ACAD_REACTORS
330
17BC
102
}
330
2
100
AcDbEntity
  8
KIJUN
100
AcDbCircle
 10
79.36215993739863
 20
92.87350381049645
 30
0.0
 40
7.395177920953492
100
AcDbArc
 50
104.974506940737
 51
178.0893492638249
  0
ARC
  5
1718
102
{ACAD_REACTORS
330
17BC
102
}
330
2
100
AcDbEntity
  8
KIJUN
100
AcDbCircle
 10
97.48552149291331
 20
91.58890496325003
 30
0.0
 40
11.97419801161285
100
AcDbArc
 50
68.46694683540194
 51
78.67279604384711
  0
ARC
  5
1719
102
{ACAD_REACTORS
330
17BC
102
}
330
2
100
AcDbEntity
  8
KIJUN
100
AcDbCircle
 10
101.7477237367911
 20
102.3147481149578
 30
0.0
 40
0.4334658045098855
100
AcDbArc
 50
278.5525535670733
 51
72.16196864053296
  0
ARC
  5
171A
102
{ACAD_REACTORS
330
17BC
102
}
330
2
100
AcDbEntity
  8
KIJUN
100
AcDbCircle
 10
102.9516873853953
 20
120.4605024946666
 30
0.0
 40
18.05281896888906
100
AcDbArc
 50
267.6934081875215
 51
290.252347945257
  0
ARC
  5
171B
102
{ACAD_REACTORS
330
17BC
102
}
330
2
100
AcDbEntity
  8
KIJUN
100
AcDbCircle
 10
113.0901946915741
 20
95.3369550259649
 30
0.0
 40
9.063741143950201
100
AcDbArc
 50
68.0518624168306
 51
115.4116705956095
  0
ARC
  5
171C
102
{ACAD_REACTORS
330
17BC
102
}
330
2
100
AcDbEntity
  8
KIJUN
100
AcDbCircle
 10
102.5802445404551
 20
47.08486797010368
 30
0.0
 40
51.95667612532854
100
AcDbArc
 50
85.57284623793567
 51
95.42467647525766
  0
ARC
  5
171D
102
{ACAD_REACTORS
330
17BC
102
}
330
2
100
AcDbEntity
  8
KIJUN
100
AcDbCircle
 10
108.6009567909409
 20
114.3455250484159
 30
0.0
 40
15.58914121279025
100
AcDbArc
 50
262.5915371419442
 51
291.7273156446585
  0
ARC
  5
171E
102
{ACAD_REACTORS
330
17BC
102
}
330
2
100
AcDbEntity
  8
KIJUN
100
AcDbCircle
 10
111.1235282000461
 20
106.7041458301862
 30
0.0
 40
7.572378303578818
100
AcDbArc
 50
295.4025852879354
 51
319.4443154370177
  0
ARC
  5
171F
102
{ACAD_REACTORS
330
17BC
102
}
330
2
100
AcDbEntity
  8
KIJUN
100
AcDbCircle
 10
115.7954594523732
 20
102.5830257210935
 30
0.0
 40
1.34651642719562
100
AcDbArc
 50
323.4257840391175
 51
59.54663377145123
  0
ARC
  5
1720
102
{ACAD_REACTORS
330
17BC
102
}
330
2
100
AcDbEntity
  8
KIJUN
100
AcDbCircle
 10
105.3579702263758
 20
127.69514379584
 30
0.0
 40
27.1492740948422
100
AcDbArc
 50
266.4812726715875
 51
290.7853600765682
  0
ARC
  5
1721
102
{ACAD_REACTORS
330
17BC
102
}
330
2
100
AcDbEntity
  8
KIJUN
100
AcDbCircle
 10
133.2141868484258
 20
67.53593333631224
 30
0.0
 40
37.49631984260888
100
AcDbArc
 50
103.2545934198787
 51
117.6027518781071
  0
ARC
  5
1722
102
{ACAD_REACTORS
330
17BC
102
}
330
2
100
AcDbEntity
  8
KIJUN
100
AcDbCircle
 10
127.6783993939164
 20
88.84124669975618
 30
0.0
 40
15.4975049598383
100
AcDbArc
 50
74.15781449902507
 51
101.3928875519629
  0
ARC
  5
1723
102
{ACAD_REACTORS
330
17BC
102
}
330
2
100
AcDbEntity
  8
KIJUN
100
AcDbCircle
 10
130.8547898097706
 20
100.6890723123786
 30
0.0
 40
3.23750269476627
100
AcDbArc
 50
344.1469120309659
 51
70.99579846435564
  0
ARC
  5
1724
102
{ACAD_REACTORS
330
17BC
102
}
330
2
100
AcDbEntity
  8
KIJUN
100
AcDbCircle
 10
127.3979640120343
 20
100.6892178079222
 30
0.0
 40
6.630457139335298
100
AcDbArc
 50
267.6300173606503
 51
352.3335713133463
  0
ARC
  5
1725
102
{ACAD_REACTORS
330
17BC
102
}
330
2
100
AcDbEntity
  8
KIJUN
100
AcDbCircle
 10
106.9810154610417
 20
-283.301432121607
 30
0.0
 40
377.9030649268592
100
AcDbArc
 50
86.94460650437994
 51
88.33949147778143
  0
ARC
  5
1726
102
{ACAD_REACTORS
330
17BC
102
}
330
2
100
AcDbEntity
  8
KIJUN
100
AcDbCircle
 10
119.3260035009008
 20
199.1128678852031
 30
0.0
 40
104.6792151708991
100
AcDbArc
 50
261.1280204821047
 51
269.2367667739904
  0
ARC
  5
1727
102
{ACAD_REACTORS
330
17BC
102
}
330
2
100
AcDbEntity
  8
KIJUN
100
AcDbCircle
 10
117.5529708102567
 20
225.5575924607755
 30
0.0
 40
129.4225082507027
100
AcDbArc
 50
263.8517717296512
 51
270.1823453204718
  0
ARC
  5
1728
102
{ACAD_REACTORS
330
17BC
102
}
330
2
100
AcDbEntity
  8
KIJUN
100
AcDbCircle
 10
149.8695415842981
 20
52.01310810292373
 30
0.0
 40
52.39354742217992
100
AcDbArc
 50
74.51668545726815
 51
107.7877898360145
  0
ARC
  5
1729
102
{ACAD_REACTORS
330
17BC
102
}
330
2
100
AcDbEntity
  8
KIJUN
100
AcDbCircle
 10
172.2621202188992
 20
125.6803974319507
 30
0.0
 40
24.65250030496169
100
AcDbArc
 50
250.0641344714524
 51
284.7976117500209
  0
ARC
  5
172A
102
{ACAD_REACTORS
330
17BC
102
}
330
2
100
AcDbEntity
  8
KIJUN
100
AcDbCircle
 10
182.6234931204274
 20
89.11451247066668
 30
0.0
 40
13.3642329383576
100
AcDbArc
 50
71.23965321709121
 51
107.7081957836853
  0
ARC
  5
172B
102
{ACAD_REACTORS
330
17BC
102
}
330
2
100
AcDbEntity
  8
KIJUN
100
AcDbCircle
 10
179.8421339375713
 20
99.79677046411669
 30
0.0
 40
10.62895953568448
100
AcDbArc
 50
331.7291833300469
 51
22.65289947225843
  0
ARC
  5
172C
102
{ACAD_REACTORS
330
17BC
102
}
330
2
100
AcDbEntity
  8
KIJUN
100
AcDbCircle
 10
188.713560098241
 20
103.1988107128716
 30
0.0
 40
1.165092617552464
100
AcDbArc
 50
36.41767811833905
 51
151.3787847300834
  0
ARC
  5
172D
102
{ACAD_REACTORS
330
17BC
102
}
330
2
100
AcDbEntity
  8
KIJUN
100
AcDbCircle
 10
169.3303100399917
 20
101.7995446486897
 30
0.0
 40
21.08208746725299
100
AcDbArc
 50
333.7592562499491
 51
340.5007906031479
  0
ARC
  5
172E
102
{ACAD_REACTORS
330
17BC
102
}
330
2
100
AcDbEntity
  8
KIJUN
100
AcDbCircle
 10
186.123040918852
 20
93.40348606601533
 30
0.0
 40
2.310112940916466
100
AcDbArc
 50
264.7158368461483
 51
336.3890635829106
  0
ARC
  5
172F
102
{ACAD_REACTORS
330
17BC
102
}
330
2
100
AcDbEntity
  8
KIJUN
100
AcDbCircle
 10
176.4926478568164
 20
19.67466200785621
 30
0.0
 40
72.04669800649857
100
AcDbArc
 50
82.48904190398491
 51
83.5213275821412
  0
ARC
  5
1730
102
{ACAD_REACTORS
330
17BC
102
}
330
2
100
AcDbEntity
  8
KIJUN
100
AcDbCircle
 10
184.5332708874451
 20
90.58563573274541
 30
0.0
 40
0.6814195520808184
100
AcDbArc
 50
82.52501431902219
 51
167.3207019201468
  0
ARC
  5
1731
102
{ACAD_REACTORS
330
17BC
102
}
330
2
100
AcDbEntity
  8
KIJUN
100
AcDbCircle
 10
191.462744105215
 20
89.45213728126438
 30
0.0
 40
7.701901054173262
100
AcDbArc
 50
170.4103409914014
 51
177.6570669634586
  0
ARC
  5
1732
102
{ACAD_REACTORS
330
17BC
102
}
330
2
100
AcDbEntity
  8
KIJUN
100
AcDbCircle
 10
182.1011862643768
 20
89.74261969750706
 30
0.0
 40
1.66627354130139
100
AcDbArc
 50
290.1366183316103
 51
0.8381836225821167
  0
ARC
  5
1733
102
{ACAD_REACTORS
330
17BC
102
}
330
2
100
AcDbEntity
  8
KIJUN
100
AcDbCircle
 10
180.2673147743091
 20
96.85272656992324
 30
0.0
 40
9.002417047948556
100
AcDbArc
 50
233.9627544140703
 51
285.5113021962909
  0
ARC
  5
1734
102
{ACAD_REACTORS
330
17BC
102
}
330
2
100
AcDbEntity
  8
KIJUN
100
AcDbCircle
 10
184.1915996146812
 20
103.0011322847676
 30
0.0
 40
11.81313590846582
100
AcDbArc
 50
241.782834904145
 51
269.3247161220069
  0
ARC
  5
1735
102
{ACAD_REACTORS
330
17BC
102
}
330
2
100
AcDbEntity
  8
KIJUN
100
AcDbCircle
 10
205.5935356550863
 20
95.68709546211115
 30
0.0
 40
19.63742821863933
100
AcDbArc
 50
155.7360715289519
 51
167.1016231937932
  0
ARC
  5
1736
102
{ACAD_REACTORS
330
17BC
102
}
330
2
100
AcDbEntity
  8
KIJUN
100
AcDbCircle
 10
214.2030922163972
 20
243.8508960467601
 30
0.0
 40
153.8560679139195
100
AcDbArc
 50
247.6512780842009
 51
251.9459908066124
  0
ARC
  5
1737
102
{ACAD_REACTORS
330
17BC
102
}
330
2
100
AcDbEntity
  8
KIJUN
100
AcDbCircle
 10
176.1468773828399
 20
126.4326362730342
 30
0.0
 40
30.42549398500507
100
AcDbArc
 50
251.5562176057234
 51
281.8649257370309
  0
ARC
  5
1738
102
{ACAD_REACTORS
330
17BC
102
}
330
2
100
AcDbEntity
  8
KIJUN
100
AcDbCircle
 10
181.1256925930407
 20
102.2800614813176
 30
0.0
 40
5.766025507165458
100
AcDbArc
 50
282.7935650273742
 51
337.4689373116805
  0
ARC
  5
1739
102
{ACAD_REACTORS
330
17BC
102
}
330
2
100
AcDbEntity
  8
KIJUN
100
AcDbCircle
 10
155.6271349513655
 20
80.25970149296549
 30
0.0
 40
21.46921909807025
100
AcDbArc
 50
25.70899244846666
 51
41.75153545305962
  0
ARC
  5
173A
102
{ACAD_REACTORS
330
17BC
102
}
330
2
100
AcDbEntity
  8
KIJUN
100
AcDbCircle
 10
160.3959681503709
 20
95.45705681025458
 30
0.0
 40
15.71800567864774
100
AcDbArc
 50
306.4989796254885
 51
338.0160052678446
  0
ARC
  5
173B
102
{ACAD_REACTORS
330
17BC
102
}
330
2
100
AcDbEntity
  8
KIJUN
100
AcDbCircle
 10
173.6865210050987
 20
99.08078538425122
 30
0.0
 40
18.03592241877104
100
AcDbArc
 50
233.5503707086437
 51
244.6208901538849
  0
ARC
  5
173C
102
{ACAD_REACTORS
330
17BC
102
}
330
2
100
AcDbEntity
  8
KIJUN
100
AcDbCircle
 10
167.8209193641109
 20
85.90463055504741
 30
0.0
 40
3.634033115009907
100
AcDbArc
 50
239.1280638118996
 51
301.9722574669215
  0
ARC
  5
173D
102
{ACAD_REACTORS
330
17BC
102
}
330
2
100
AcDbEntity
  8
KIJUN
100
AcDbCircle
 10
116.1712346106632
 20
46.37877084994617
 30
0.0
 40
67.8718169859
100
AcDbArc
 50
49.37082258467161
 51
54.37979923555529
  0
ARC
  5
173E
102
{ACAD_REACTORS
330
17BC
102
}
330
2
100
AcDbEntity
  8
KIJUN
100
AcDbCircle
 10
153.5615642181858
 20
89.64560441886893
 30
0.0
 40
10.68971247258674
100
AcDbArc
 50
331.6715172145471
 51
50.46079275359007
  0
ARC
  5
173F
102
{ACAD_REACTORS
330
17BC
102
}
330
2
100
AcDbEntity
  8
KIJUN
100
AcDbCircle
 10
3544.420579904132
 20
5708.033302734579
 30
0.0
 40
6551.035250061193
100
AcDbArc
 50
238.8500180423946
 51
238.93578142812
  0
ARC
  5
1740
102
{ACAD_REACTORS
330
17BC
102
}
330
2
100
AcDbEntity
  8
KIJUN
100
AcDbCircle
 10
158.8503248536935
 20
89.30614580943643
 30
0.0
 40
8.891625651628553
100
AcDbArc
 50
322.0410530388708
 51
53.84359889855609
  0
ARC
  5
1741
102
{ACAD_REACTORS
330
17BC
102
}
330
2
100
AcDbEntity
  8
KIJUN
100
AcDbCircle
 10
164.5870852632765
 20
90.34138736776041
 30
0.0
 40
6.628015976898372
100
AcDbArc
 50
281.0807796352403
 51
52.73142965474896
  0
ARC
  5
1742
102
{ACAD_REACTORS
330
17BC
102
}
330
2
100
AcDbEntity
  8
KIJUN
100
AcDbCircle
 10
64.66912486484472
 20
-113.2844876146798
 30
0.0
 40
233.3263486169495
100
AcDbArc
 50
63.54886885552179
 51
67.03642467839479
  0
ARC
  5
1743
102
{ACAD_REACTORS
330
17BC
102
}
330
2
100
AcDbEntity
  8
KIJUN
100
AcDbCircle
 10
144.3811980505792
 20
84.19449008575403
 30
0.0
 40
18.59374966563098
100
AcDbArc
 50
1.166624751393176
 51
111.3254406029988
  0
ARC
  5
1744
102
{ACAD_REACTORS
330
17BC
102
}
330
2
100
AcDbEntity
  8
KIJUN
100
AcDbCircle
 10
115.9084703051246
 20
94.01054117816407
 30
0.0
 40
47.99954749655197
100
AcDbArc
 50
329.2253344783548
 51
348.6608554799467
  0
ARC
  5
1745
102
{ACAD_REACTORS
330
17BC
102
}
330
2
100
AcDbEntity
  8
KIJUN
100
AcDbCircle
 10
134.6394172173064
 20
152.8165973451479
 30
0.0
 40
91.60561474790855
100
AcDbArc
 50
256.9604908399715
 51
275.1364866073541
  0
ARC
  5
1746
102
{ACAD_REACTORS
330
17BC
102
}
330
2
100
AcDbEntity
  8
KIJUN
100
AcDbCircle
 10
141.3938962273643
 20
81.14799177296815
 30
0.0
 40
19.62255737984237
100
AcDbArc
 50
274.228457951416
 51
323.4087769866554
  0
ARC
  5
1747
102
{ACAD_REACTORS
330
17BC
102
}
330
2
100
AcDbEntity
  8
KIJUN
100
AcDbCircle
 10
93.24511236050296
 20
75.93081419968325
 30
0.0
 40
40.19690663372105
100
AcDbArc
 50
258.106608339164
 51
280.699009631969
  0
ARC
  5
1748
102
{ACAD_REACTORS
330
17BC
102
}
330
2
100
AcDbEntity
  8
KIJUN
100
AcDbCircle
 10
46.1972206049768
 20
67.00627292646506
 30
0.0
 40
67.86077510602829
100
AcDbArc
 50
343.0332473106966
 51
357.1000530088484
  0
ARC
  5
1749
102
{ACAD_REACTORS
330
17BC
102
}
330
2
100
AcDbEntity
  8
KIJUN
100
AcDbCircle
 10
94.09830948582637
 20
53.21566423883543
 30
0.0
 40
18.03750639354512
100
AcDbArc
 50
291.4951368772084
 51
340.5294563705585
  0
ARC
  5
174A
102
{ACAD_REACTORS
330
17BC
102
}
330
2
100
AcDbEntity
  8
KIJUN
100
AcDbCircle
 10
112.4557802240038
 20
135.3092759418897
 30
0.0
 40
37.49457154579327
100
AcDbArc
 50
261.384081513553
 51
291.6990538326357
  0
ARC
  5
174B
102
{ACAD_REACTORS
330
17BC
102
}
330
2
100
AcDbEntity
  8
KIJUN
100
AcDbCircle
 10
116.1004651303649
 20
132.3153208015328
 30
0.0
 40
36.22758705672408
100
AcDbArc
 50
272.9499398598217
 51
287.4157221473961
  0
ARC
  5
174C
102
{ACAD_REACTORS
330
17BC
102
}
330
2
100
AcDbEntity
  8
KIJUN
100
AcDbCircle
 10
129.1249765609745
 20
91.12740988677568
 30
0.0
 40
9.756507145440261
100
AcDbArc
 50
95.5058619048537
 51
106.716189578018
  0
ARC
  5
174D
102
{ACAD_REACTORS
330
17BC
102
}
330
2
100
AcDbEntity
  8
KIJUN
100
AcDbCircle
 10
128.284810798773
 20
99.84351789896614
 30
0.0
 40
1.0
100
AcDbArc
 50
312.1738730565531
 51
95.5058619048537
  0
ARC
  5
174E
102
{ACAD_REACTORS
330
17BC
102
}
330
2
100
AcDbEntity
  8
KIJUN
100
AcDbCircle
 10
123.2782788984649
 20
105.3700155588708
 30
0.0
 40
8.457046201662798
100
AcDbArc
 50
295.6828835595087
 51
312.1738730565531
  0
ARC
  5
174F
102
{ACAD_REACTORS
330
17BC
102
}
330
2
100
AcDbEntity
  8
KIJUN
100
AcDbCircle
 10
148.9538236266847
 20
89.33565234796674
 30
0.0
 40
12.85326263838414
100
AcDbArc
 50
185.0228372121307
 51
194.9330615314878
  0
ARC
  5
1750
102
{ACAD_REACTORS
330
17BC
102
}
330
2
100
AcDbEntity
  8
KIJUN
100
AcDbCircle
 10
145.1359088870148
 20
88.1070604447934
 30
0.0
 40
8.986583016730152
100
AcDbArc
 50
75.52184971522513
 51
179.3416768711688
  0
ARC
  5
1751
102
{ACAD_REACTORS
330
17BC
102
}
330
2
100
AcDbEntity
  8
KIJUN
100
AcDbCircle
 10
145.9535287578275
 20
88.18880837163241
 30
0.0
 40
8.737121199060847
100
AcDbArc
 50
350.7023293843591
 51
80.58588108675021
  0
ARC
  5
1752
102
{ACAD_REACTORS
330
17BC
102
}
330
2
100
AcDbEntity
  8
KIJUN
100
AcDbCircle
 10
125.2805520114535
 20
88.97061438892295
 30
0.0
 40
29.37731013303661
100
AcDbArc
 50
327.4025495366482
 51
355.7181220077857
  0
ARC
  5
1753
102
{ACAD_REACTORS
330
17BC
102
}
330
2
100
AcDbEntity
  8
KIJUN
100
AcDbCircle
 10
137.8658421894542
 20
141.0280735971187
 30
0.0
 40
72.38315902303148
100
AcDbArc
 50
256.1835837980779
 51
271.540442909211
  0
ARC
  5
1754
102
{ACAD_REACTORS
330
17BC
102
}
330
2
100
AcDbEntity
  8
KIJUN
100
AcDbCircle
 10
139.4907530960362
 20
83.31286259299229
 30
0.0
 40
14.64530550332381
100
AcDbArc
 50
271.2556669703824
 51
316.0255599051005
  0
ARC
  5
1755
102
{ACAD_REACTORS
330
17BC
102
}
330
2
100
AcDbEntity
  8
KIJUN
100
AcDbCircle
 10
139.7799514712251
 20
85.51184308866529
 30
0.0
 40
3.28538922994372
100
AcDbArc
 50
31.82246750322843
 51
171.0406262249039
  0
ARC
  5
1756
102
{ACAD_REACTORS
330
17BC
102
}
330
2
100
AcDbEntity
  8
KIJUN
100
AcDbCircle
 10
139.2060641328193
 20
84.59188938209177
 30
0.0
 40
4.284959323487661
100
AcDbArc
 50
322.2138461988819
 51
38.24167441493894
  0
ARC
  5
1757
102
{ACAD_REACTORS
330
17BC
102
}
330
2
100
AcDbEntity
  8
KIJUN
100
AcDbCircle
 10
135.8168852371474
 20
89.58306048654412
 30
0.0
 40
10.1942051129606
100
AcDbArc
 50
238.0497316768769
 51
311.6556087912863
  0
ARC
  5
1758
102
{ACAD_REACTORS
330
17BC
102
}
330
2
100
AcDbEntity
  8
KIJUN
100
AcDbCircle
 10
2.395755432513112
 20
-32.50556197692322
 30
0.0
 40
161.4873166002267
100
AcDbArc
 50
50.58928563298396
 51
55.67096933369572
  0
ARC
  5
1759
102
{ACAD_REACTORS
330
17BC
102
}
330
2
100
AcDbEntity
  8
KIJUN
100
AcDbCircle
 10
82.94296866302573
 20
88.23202909369072
 30
0.0
 40
13.96147877318257
100
AcDbArc
 50
40.54642204625799
 51
68.32707017448107
  0
ARC
  5
175A
102
{ACAD_REACTORS
330
17BC
102
}
330
2
100
AcDbEntity
  8
KIJUN
100
AcDbCircle
 10
109.1483938357339
 20
107.8791351455154
 30
0.0
 40
18.84140517741681
100
AcDbArc
 50
214.1294790752527
 51
251.9725098444181
  0
ARC
  5
175B
102
{ACAD_REACTORS
330
17BC
102
}
330
2
100
AcDbEntity
  8
KIJUN
100
AcDbCircle
 10
99.55587766855
 20
90.46187710595189
 30
0.0
 40
5.658109773102661
100
AcDbArc
 50
354.6719907124034
 51
18.55038266254185
  0
ARC
  5
175C
102
{ACAD_REACTORS
330
17BC
102
}
330
2
100
AcDbEntity
  8
KIJUN
100
AcDbCircle
 10
104.890837318215
 20
89.96433728135036
 30
0.0
 40
0.3
100
AcDbArc
 50
268.5766940193178
 51
354.6719907124025
  0
ARC
  5
175D
102
{ACAD_REACTORS
330
17BC
102
}
330
2
100
AcDbEntity
  8
KIJUN
100
AcDbCircle
 10
105.0051026431016
 20
94.56318967551418
 30
0.0
 40
4.900271721081028
100
AcDbArc
 50
249.855243453373
 51
268.5766940193178
  0
ARC
  5
175E
102
{ACAD_REACTORS
330
17BC
102
}
330
2
100
AcDbEntity
  8
KIJUN
100
AcDbCircle
 10
121.0065351124812
 20
95.84743188066399
 30
0.0
 40
5.664426743852802
100
AcDbArc
 50
286.9996421959481
 51
341.3910935550653
  0
ARC
  5
175F
102
{ACAD_REACTORS
330
17BC
102
}
330
2
100
AcDbEntity
  8
KIJUN
100
AcDbCircle
 10
115.6866289931523
 20
109.7076352396136
 30
0.0
 40
20.50054286273375
100
AcDbArc
 50
238.3191862694833
 51
289.8941292793324
  0
ARC
  5
1760
102
{ACAD_REACTORS
330
17BC
102
}
330
2
100
AcDbEntity
  8
KIJUN
100
AcDbCircle
 10
117.8217992622101
 20
112.052666269965
 30
0.0
 40
20.64101416976421
100
AcDbArc
 50
235.9565950098554
 51
283.9231075444417
  0
ARC
  5
1761
102
{ACAD_REACTORS
330
17BC
102
}
330
2
100
AcDbEntity
  8
KIJUN
100
AcDbCircle
 10
126.2526978218792
 20
85.05767398382145
 30
0.0
 40
7.216133324999864
100
AcDbArc
 50
69.97131668912067
 51
97.77642146642669
  0
ARC
  5
1762
102
{ACAD_REACTORS
330
17BC
102
}
330
2
100
AcDbEntity
  8
KIJUN
100
AcDbCircle
 10
127.6964009154623
 20
89.26241253710314
 30
0.0
 40
2.772500847921564
100
AcDbArc
 50
16.75996325240685
 51
68.24146905187671
  0
ARC
  5
1763
102
{ACAD_REACTORS
330
17BC
102
}
330
2
100
AcDbEntity
  8
KIJUN
100
AcDbCircle
 10
112.5896806613084
 20
85.455844399424
 30
0.0
 40
18.34897256933894
100
AcDbArc
 50
342.1828142150939
 51
14.53818547083238
  0
ARC
  5
1764
102
{ACAD_REACTORS
330
17BC
102
}
330
2
100
AcDbEntity
  8
KIJUN
100
AcDbCircle
 10
120.6319963627911
 20
83.07198875762052
 30
0.0
 40
9.964806848627116
100
AcDbArc
 50
285.1364851228467
 51
341.0829539710769
  0
ARC
  5
1765
102
{ACAD_REACTORS
330
17BC
102
}
330
2
100
AcDbEntity
  8
KIJUN
100
AcDbCircle
 10
125.7655309833509
 20
70.29757063719237
 30
0.0
 40
5.204409896230996
100
AcDbArc
 50
157.7719229738645
 51
175.1315886550277
  0
ARC
  5
1766
102
{ACAD_REACTORS
330
17BC
102
}
330
2
100
AcDbEntity
  8
KIJUN
100
AcDbCircle
 10
126.2758912981274
 20
62.47315762860437
 30
0.0
 40
11.3933203827554
100
AcDbArc
 50
105.4851771442338
 51
115.0603171558663
  0
ARC
  5
1767
102
{ACAD_REACTORS
330
17BC
102
}
330
2
100
AcDbEntity
  8
KIJUN
100
AcDbCircle
 10
121.8735704721684
 20
71.88807557428643
 30
0.0
 40
1.0
100
AcDbArc
 50
115.0603171558663
 51
157.7719229738644
  0
ARC
  5
1768
102
{ACAD_REACTORS
330
17BC
102
}
330
2
100
AcDbEntity
  8
KIJUN
100
AcDbCircle
 10
132.0434812319565
 20
84.34935711850055
 30
0.0
 40
11.37696185973604
100
AcDbArc
 50
148.2944664454999
 51
169.242631789371
  0
ARC
  5
1769
102
{ACAD_REACTORS
330
17BC
102
}
330
2
100
AcDbEntity
  8
KIJUN
100
AcDbCircle
 10
128.9893245162759
 20
93.31288660082398
 30
0.0
 40
11.01798278099369
100
AcDbArc
 50
224.5398557791152
 51
234.6560736991476
  0
ARC
  5
176A
102
{ACAD_REACTORS
330
17BC
102
}
330
2
100
AcDbEntity
  8
KIJUN
100
AcDbCircle
 10
122.0371239398096
 20
83.50988617907336
 30
0.0
 40
1.0
100
AcDbArc
 50
290.0722183094704
 51
54.65607369914768
  0
ARC
  5
176B
102
{ACAD_REACTORS
330
17BC
102
}
330
2
100
AcDbEntity
  8
KIJUN
100
AcDbCircle
 10
121.8488799211681
 20
86.28622096309213
 30
0.0
 40
1.0
100
AcDbArc
 50
169.2426317893711
 51
224.5398557791153
  0
ARC
  5
176C
102
{ACAD_REACTORS
330
17BC
102
}
330
2
100
AcDbEntity
  8
KIJUN
100
AcDbCircle
 10
114.3301489193741
 20
104.6018691395849
 30
0.0
 40
23.45593928501155
100
AcDbArc
 50
250.1770066395417
 51
290.0722183094704
  0
ARC
  5
176D
102
{ACAD_REACTORS
330
17BC
102
}
330
2
100
AcDbEntity
  8
KIJUN
100
AcDbCircle
 10
150.4532471093076
 20
242.7371578201102
 30
0.0
 40
166.1543982937797
100
AcDbArc
 50
252.3679381685878
 51
254.6164334089955
  0
ARC
  5
176E
102
{ACAD_REACTORS
330
17BC
102
}
330
2
100
AcDbEntity
  8
KIJUN
100
AcDbCircle
 10
93.71087964940292
 20
90.91900496406001
 30
0.0
 40
5.334820237407453
100
AcDbArc
 50
320.2533068335117
 51
11.17582191195829
  0
ARC
  5
176F
102
{ACAD_REACTORS
330
17BC
102
}
330
2
100
AcDbEntity
  8
KIJUN
100
AcDbCircle
 10
102.8505905832597
 20
91.5349325720903
 30
0.0
 40
7.64873869547522
100
AcDbArc
 50
229.0369156836538
 51
249.1204269002563
  0
ARC
  5
1770
102
{ACAD_REACTORS
330
17BC
102
}
330
2
100
AcDbEntity
  8
KIJUN
100
AcDbCircle
 10
99.00531336602469
 20
86.64945644945387
 30
0.0
 40
1.46946059392441
100
AcDbArc
 50
144.2518613091022
 51
217.2929463491294
  0
ARC
  5
1771
102
{ACAD_REACTORS
330
17BC
102
}
330
2
100
AcDbEntity
  8
KIJUN
100
AcDbCircle
 10
123.0117410723582
 20
124.932154786955
 30
0.0
 40
50.62788631050287
100
AcDbArc
 50
249.5414622196473
 51
262.1618326766489
  0
ARC
  5
1772
102
{ACAD_REACTORS
330
17BC
102
}
330
2
100
AcDbEntity
  8
KIJUN
100
AcDbCircle
 10
117.5485373671818
 20
84.98705174671533
 30
0.0
 40
10.3109952084754
100
AcDbArc
 50
261.9652772121642
 51
357.7602326189875
  0
ARC
  5
1773
102
{ACAD_REACTORS
330
17BC
102
}
330
2
100
AcDbEntity
  8
KIJUN
100
AcDbCircle
 10
120.9356158010396
 20
85.70190645719392
 30
0.0
 40
7.005792558632524
100
AcDbArc
 50
350.8188229138936
 51
23.48301315496006
  0
ARC
  5
1774
102
{ACAD_REACTORS
330
17BC
102
}
330
2
100
AcDbEntity
  8
KIJUN
100
AcDbCircle
 10
125.4219104578931
 20
87.25553970139383
 30
0.0
 40
2.300746347751274
100
AcDbArc
 50
32.55390360034891
 51
159.8670972100668
  0
ARC
  5
1775
102
{ACAD_REACTORS
330
17BC
102
}
330
2
100
AcDbEntity
  8
KIJUN
100
AcDbCircle
 10
125.1965781777517
 20
87.62272221475731
 30
0.0
 40
1.98090083371887
100
AcDbArc
 50
167.6188783916085
 51
276.4835718794069
  0
ARC
  5
1776
102
{ACAD_REACTORS
330
17BC
102
}
330
2
100
AcDbEntity
  8
KIJUN
100
AcDbCircle
 10
125.283397812788
 20
91.46370880561102
 30
0.0
 40
5.810830058596015
100
AcDbArc
 50
271.3495915202499
 51
295.6970107439322
  0
ARC
  5
1777
102
{ACAD_REACTORS
330
17BC
102
}
330
2
100
AcDbEntity
  8
KIJUN
100
AcDbCircle
 10
82.99976502604449
 20
91.676084811031
 30
0.0
 40
11.21011182928579
100
AcDbArc
 50
4.252598043669164
 51
22.01741522495526
  0
ARC
  5
1778
102
{ACAD_REACTORS
330
17BC
102
}
330
2
100
AcDbEntity
  8
KIJUN
100
AcDbCircle
 10
94.37130558306639
 20
94.74416374637575
 30
0.0
 40
8.382328165188724
100
AcDbArc
 50
280.3694521298096
 51
292.7452487831061
  0
ARC
  5
1779
102
{ACAD_REACTORS
330
17BC
102
}
330
2
100
AcDbEntity
  8
KIJUN
100
AcDbCircle
 10
95.49004588146258
 20
87.83396314989902
 30
0.0
 40
1.39102465916776
100
AcDbArc
 50
199.2756807923623
 51
286.2837008995096
  0
ARC
  5
177A
102
{ACAD_REACTORS
330
17BC
102
}
330
2
100
AcDbEntity
  8
KIJUN
100
AcDbCircle
 10
99.1855562653177
 20
89.30742872139346
 30
0.0
 40
5.368501979915672
100
AcDbArc
 50
169.2298115876741
 51
201.1002103021651
  0
ARC
  5
177B
102
{ACAD_REACTORS
330
17BC
102
}
330
2
100
AcDbEntity
  8
KIJUN
100
AcDbCircle
 10
81.36299880618153
 20
92.95273033002734
 30
0.0
 40
12.82375098157926
100
AcDbArc
 50
348.1101480338634
 51
358.0096937875656
  0
ARC
  5
177C
102
{ACAD_REACTORS
330
17BC
102
}
330
2
100
AcDbEntity
  8
KIJUN
100
AcDbCircle
 10
93.51724013210676
 20
107.6039331150484
 30
0.0
 40
17.23423524237201
100
AcDbArc
 50
262.9118538885032
 51
271.2492787539844
  0
ARC
  5
177D
102
{ACAD_REACTORS
330
17BC
102
}
330
2
100
AcDbEntity
  8
KIJUN
100
AcDbCircle
 10
79.2674432628527
 20
86.67960649838235
 30
0.0
 40
13.38322276653265
100
AcDbArc
 50
40.79645679224032
 51
59.55477771208183
  0
ARC
  5
177E
102
{ACAD_REACTORS
330
17BC
102
}
330
2
100
AcDbEntity
  8
KIJUN
100
AcDbCircle
 10
87.16795835500878
 20
93.7243706386778
 30
0.0
 40
2.804615267529388
100
AcDbArc
 50
348.7216609576908
 51
37.29790742029223
  0
ARC
  5
177F
102
{ACAD_REACTORS
330
17BC
102
}
330
2
100
AcDbEntity
  8
KIJUN
100
AcDbCircle
 10
98.55140962359635
 20
91.14450229501514
 30
0.0
 40
8.868767458120997
100
AcDbArc
 50
166.7590952134728
 51
175.182906601193
  0
ARC
  5
1780
102
{ACAD_REACTORS
330
17BC
102
}
330
2
100
AcDbEntity
  8
KIJUN
100
AcDbCircle
 10
91.76985681856379
 20
93.80439539149952
 30
0.0
 40
3.324686809833298
100
AcDbArc
 50
243.8672260159175
 51
263.4498689667835
  0
ARC
  5
1781
102
{ACAD_REACTORS
330
17BC
102
}
330
2
100
AcDbEntity
  8
KIJUN
100
AcDbCircle
 10
90.81376278911992
 20
91.79903468119952
 30
0.0
 40
1.103489426119265
100
AcDbArc
 50
175.3101469265555
 51
242.5738005169464
  0
ARC
  5
1782
102
{ACAD_REACTORS
330
17BC
102
}
330
2
100
AcDbEntity
  8
KIJUN
100
AcDbCircle
 10
83.90091940900715
 20
93.93578593726612
 30
0.0
 40
4.790271730815305
100
AcDbArc
 50
63.35842508893901
 51
102.9108806189304
  0
ARC
  5
1783
102
{ACAD_REACTORS
330
17BC
102
}
330
2
100
AcDbEntity
  8
KIJUN
100
AcDbCircle
 10
87.94553079786354
 20
75.28319155995411
 30
0.0
 40
23.87607732380113
100
AcDbArc
 50
102.3702459093106
 51
113.4901382815796
  0
ARC
  5
1784
102
{ACAD_REACTORS
330
17BC
102
}
330
2
100
AcDbEntity
  8
KIJUN
100
AcDbCircle
 10
79.44507175397976
 20
94.36861588537672
 30
0.0
 40
2.990041085696767
100
AcDbArc
 50
109.8712046373759
 51
191.4849859058624
  0
ARC
  5
1785
102
{ACAD_REACTORS
330
17BC
102
}
330
2
100
AcDbEntity
  8
KIJUN
100
AcDbCircle
 10
85.26893977147219
 20
94.85525876805624
 30
0.0
 40
8.820652637252468
100
AcDbArc
 50
187.0459849082892
 51
252.6151479742004
  0
ARC
  5
1786
102
{ACAD_REACTORS
330
17BC
102
}
330
2
100
AcDbEntity
  8
KIJUN
100
AcDbCircle
 10
90.23787997041452
 20
109.585064333918
 30
0.0
 40
24.36463779332366
100
AcDbArc
 50
251.8135584539228
 51
262.5350494464126
  0
ARC
  5
1787
102
{ACAD_REACTORS
330
17BC
102
}
330
2
100
AcDbEntity
  8
KIJUN
100
AcDbCircle
 10
87.07985367346452
 20
81.17006983542559
 30
0.0
 40
4.256865112360475
100
AcDbArc
 50
13.58512917911877
 51
90.09986339609682
  0
ARC
  5
1788
102
{ACAD_REACTORS
330
17BC
102
}
330
2
100
AcDbEntity
  8
KIJUN
100
AcDbCircle
 10
79.32286491911786
 20
81.82520465152441
 30
0.0
 40
15.51952197277671
100
AcDbArc
 50
47.00557291382426
 51
64.96726670259396
  0
ARC
  5
1789
102
{ACAD_REACTORS
330
17BC
102
}
330
2
100
AcDbEntity
  8
KIJUN
100
AcDbCircle
 10
83.03694815110205
 20
89.50010218185335
 30
0.0
 40
6.994984519179672
100
AcDbArc
 50
65.93122717254949
 51
90.12751713591439
  0
ARC
  5
178A
102
{ACAD_REACTORS
330
17BC
102
}
330
2
100
AcDbEntity
  8
KIJUN
100
AcDbCircle
 10
82.93049491495709
 20
92.77495307961499
 30
0.0
 40
3.721226329544095
100
AcDbArc
 50
88.60049917131417
 51
158.7297239782844
  0
ARC
  5
178B
102
{ACAD_REACTORS
330
17BC
102
}
330
2
100
AcDbEntity
  8
KIJUN
100
AcDbCircle
 10
83.48160131887802
 20
93.53890558810963
 30
0.0
 40
4.061338048399409
100
AcDbArc
 50
171.7041432052666
 51
216.7083715121485
  0
ARC
  5
178C
102
{ACAD_REACTORS
330
17BC
102
}
330
2
100
AcDbEntity
  8
KIJUN
100
AcDbCircle
 10
85.84008321388679
 20
95.02197646792748
 30
0.0
 40
6.842163322011227
100
AcDbArc
 50
214.8590556867994
 51
265.5721948419997
  0
ARC
  5
178D
102
{ACAD_REACTORS
330
17BC
102
}
330
2
100
AcDbEntity
  8
KIJUN
100
AcDbCircle
 10
86.50719196614085
 20
102.0430042689953
 30
0.0
 40
13.89428400651172
100
AcDbArc
 50
265.064668107765
 51
280.8405929549802
  0
ARC
  5
178E
102
{ACAD_REACTORS
330
17BC
102
}
330
2
100
AcDbEntity
  8
KIJUN
100
AcDbCircle
 10
90.06507125092173
 20
85.41197787020697
 30
0.0
 40
3.130628517621643
100
AcDbArc
 50
25.12847274950353
 51
107.563013411491
  0
ARC
  5
178F
102
{ACAD_REACTORS
330
17BC
102
}
330
2
100
AcDbEntity
  8
KIJUN
100
AcDbCircle
 10
86.25541122644291
 20
84.34668119316533
 30
0.0
 40
7.062392746847639
100
AcDbArc
 50
342.3862831999174
 51
19.82083282668702
  0
DIMENSION
  5
1790
330
2
100
AcDbEntity
  8
SUNPOU
100
AcDbDimension
  2
*D2
 10
190.4710934732558
 20
123.8043186415536
 30
0.0
 11
71.97109347325583
 21
129.3043186415536
 31
0.0
 70
    32
 71
     5
 42
237.0
  3
STANDARD
100
AcDbAlignedDimension
 13
-46.52890652674415
 23
99.79677046411669
 33
0.0
 14
190.4710934732558
 24
99.79677046411669
 34
0.0
100
AcDbRotatedDimension
1001
ACAD
1000
DSTYLE
1002
{
1070
    41
1040
2.0
1070
    42
1040
10.0
1070
    44
1040
0.0
1070
    73
1070
     0
1070
    74
1070
     0
1070
    77
1070
     1
1070
   140
1040
5.0
1070
   141
1040
0.0
1070
   146
1040
0.064286
1070
   147
1040
3.0
1070
   176
1070
    60
1070
   177
1070
    70
1070
   178
1070
    60
1070
   271
1070
     0
1070
   272
1070
     0
1070
   340
1005
1C
1070
   342
1005
109
1002
}
  0
DIMENSION
  5
179D
330
2
100
AcDbEntity
  8
SUNPOU
100
AcDbDimension
  2
*D3
 10
-68.0070322506308
 20
35.57305950092451
 30
0.0
 11
-73.50703225063082
 21
70.07305950092455
 31
0.0
 70
    32
 71
     5
 42
69.00000000000011
  3
STANDARD
100
AcDbAlignedDimension
 13
-46.47599811229554
 23
104.5730595009246
 33
0.0
 14
-45.69794902962382
 24
35.5730595009245
 34
0.0
 50
90.0
100
AcDbRotatedDimension
1001
ACAD
1000
DSTYLE
1002
{
1070
    41
1040
2.0
1070
    42
1040
10.0
1070
    44
1040
0.0
1070
    73
1070
     0
1070
    74
1070
     0
1070
    77
1070
     1
1070
   140
1040
5.0
1070
   141
1040
0.0
1070
   146
1040
0.064286
1070
   147
1040
3.0
1070
   176
1070
    60
1070
   177
1070
    70
1070
   178
1070
    60
1070
   271
1070
     0
1070
   272
1070
     0
1070
   340
1005
1C
1070
   342
1005
109
1002
}
  0
ENDSEC
  0
SECTION
  2
OBJECTS
  0
DICTIONARY
  5
1A
330
0
100
AcDbDictionary
281
     1
  3
ACAD_COLOR
350
144
  3
ACAD_GROUP
350
18
  3
ACAD_LAYOUT
350
58
  3
ACAD_MATERIAL
350
143
  3
ACAD_MLINESTYLE
350
19
  3
ACAD_PLOTSETTINGS
350
59
  3
ACAD_PLOTSTYLENAME
350
56
  3
ACAD_TABLESTYLE
350
145
  3
ACDBHEADERROUNDTRIPXREC
350
17DC
  3
AcDbVariableDictionary
350
1D1
  0
DICTIONARY
  5
1B4
330
A
100
AcDbDictionary
280
     1
281
     1
  3
ACAD_LAYERFILTERS
360
16F8
  3
ACLYDICTIONARY
360
16F7
  0
DICTIONARY
  5
D13
330
2
100
AcDbDictionary
280
     1
281
     1
  3
ACAD_SORTENTS
360
D14
  0
DICTIONARY
  5
144
102
{ACAD_REACTORS
330
1A
102
}
330
1A
100
AcDbDictionary
281
     1
  0
DICTIONARY
  5
18
102
{ACAD_REACTORS
330
1A
102
}
330
1A
100
AcDbDictionary
281
     1
  3
*A1
350
E0D
  3
*A2
350
FF8
  3
*A3
350
136A
  3
*A4
350
1555
  3
*A5
350
17BC
  0
DICTIONARY
  5
58
102
{ACAD_REACTORS
330
1A
102
}
330
1A
100
AcDbDictionary
281
     1
  3
Model
350
5A
  3
ﾚｲｱｳﾄ1
350
5B
  0
DICTIONARY
  5
143
102
{ACAD_REACTORS
330
1A
102
}
330
1A
100
AcDbDictionary
281
     1
  0
DICTIONARY
  5
19
102
{ACAD_REACTORS
330
1A
102
}
330
1A
100
AcDbDictionary
281
     1
  3
STANDARD
350
1D
  0
DICTIONARY
  5
59
102
{ACAD_REACTORS
330
1A
102
}
330
1A
100
AcDbDictionary
281
     1
  0
ACDBDICTIONARYWDFLT
  5
56
102
{ACAD_REACTORS
330
1A
102
}
330
1A
100
AcDbDictionary
281
     1
  3
Normal
350
57
100
AcDbDictionaryWithDefault
340
57
  0
DICTIONARY
  5
145
102
{ACAD_REACTORS
330
1A
102
}
330
1A
100
AcDbDictionary
281
     1
  3
Standard
350
146
  0
DICTIONARY
  5
17DC
102
{ACAD_REACTORS
330
1A
102
}
330
1A
100
AcDbDictionary
281
     1
  0
DICTIONARY
  5
1D1
102
{ACAD_REACTORS
330
1A
102
}
330
1A
100
AcDbDictionary
281
     1
  3
CTABLESTYLE
350
1D2
  3
DIMASSOC
350
D03
  3
PROJECTNAME
350
D04
  0
DICTIONARY
  5
16F8
102
{ACAD_REACTORS
330
1B4
102
}
330
1B4
100
AcDbDictionary
281
     1
  0
DICTIONARY
  5
16F7
102
{ACAD_REACTORS
330
1B4
102
}
330
1B4
100
AcDbDictionary
281
     1
1001
ACAD
1000
<All
  0
SORTENTSTABLE
  5
D14
102
{ACAD_REACTORS
330
D13
102
}
330
D13
100
AcDbSortentsTable
330
2
331
20
  5
20
331
15DD
  5
15DD
331
1653
  5
1653
331
165B
  5
165B
331
1692
  5
1692
331
15ED
  5
15ED
331
169A
  5
169B
331
16A2
  5
16A2
331
16AA
  5
16AB
331
16B2
  5
16B2
331
1605
  5
1605
331
167B
  5
167B
331
16BA
  5
16BB
331
164C
  5
164C
331
1683
  5
1683
331
21
  5
21
331
15DE
  5
15DE
331
1654
  5
1654
331
168B
  5
168B
331
165C
  5
165C
331
1693
  5
1693
331
15EE
  5
15EE
331
169B
  5
169A
331
16A3
  5
16A3
331
15F6
  5
15F6
331
16AB
  5
16AA
331
15FE
  5
15FE
331
16B3
  5
16B3
331
1606
  5
1606
331
167C
  5
167C
331
16BB
  5
16BC
331
15D7
  5
15D7
331
164D
  5
164D
331
1684
  5
1684
331
15DF
  5
15DF
331
168C
  5
168C
331
165D
  5
165D
331
1694
  5
1694
331
15EF
  5
15EF
331
169C
  5
169C
331
16A4
  5
16A4
331
166D
  5
166D
331
16AC
  5
16AC
331
1675
  5
1675
331
16B4
  5
16B4
331
167D
  5
167D
331
16BC
  5
16BA
331
164E
  5
164E
331
1685
  5
1685
331
23
  5
23
331
15D8
  5
15D8
331
1656
  5
1656
331
168D
  5
168D
331
15E8
  5
15E8
331
165E
  5
165E
331
1695
  5
1695
331
169D
  5
169D
331
16A5
  5
16A5
331
15F0
  5
15F0
331
16AD
  5
16AD
331
1676
  5
1676
331
167E
  5
167E
331
164F
  5
164F
331
1686
  5
1686
331
15D9
  5
15D9
331
1657
  5
1657
331
168E
  5
168E
331
15E9
  5
15E9
331
165F
  5
165F
331
1696
  5
1696
331
16A6
  5
16A6
331
16AE
  5
16AE
331
1601
  5
1601
331
1677
  5
1677
331
16B6
  5
16B5
331
167F
  5
167F
331
1687
  5
1687
331
15DA
  5
15DA
331
1650
  5
1650
331
1658
  5
1658
331
168F
  5
168F
331
1660
  5
1660
331
15EA
  5
15EA
331
1697
  5
1697
331
169F
  5
169F
331
16A7
  5
16A7
331
16AF
  5
16AF
331
1678
  5
1678
331
16B7
  5
16B7
331
1680
  5
1680
331
15DB
  5
15DB
331
1651
  5
1651
331
1688
  5
1688
331
1659
  5
1659
331
1690
  5
1690
331
15EB
  5
15EB
331
1698
  5
1698
331
16A0
  5
16A0
331
16A8
  5
16A8
331
16B0
  5
16B0
331
1F
  5
1F
331
1603
  5
1603
331
1679
  5
1679
331
1681
  5
1681
331
15DC
  5
15DC
331
1652
  5
1652
331
1689
  5
1689
331
165A
  5
165A
331
1691
  5
1691
331
15EC
  5
15EC
331
1699
  5
1699
331
16A1
  5
16A1
331
16A9
  5
16A9
331
16B1
  5
16B1
331
1604
  5
1604
331
167A
  5
167A
331
16B9
  5
16B9
331
164B
  5
164B
331
1682
  5
1682
  0
GROUP
  5
E0D
102
{ACAD_REACTORS
330
18
102
}
330
18
100
AcDbGroup
300

 70
     1
 71
     1
  0
GROUP
  5
FF8
102
{ACAD_REACTORS
330
18
102
}
330
18
100
AcDbGroup
300

 70
     1
 71
     1
  0
GROUP
  5
136A
102
{ACAD_REACTORS
330
18
102
}
330
18
100
AcDbGroup
300

 70
     1
 71
     1
  0
GROUP
  5
1555
102
{ACAD_REACTORS
330
18
102
}
330
18
100
AcDbGroup
300

 70
     1
 71
     1
  0
GROUP
  5
17BC
102
{ACAD_REACTORS
330
18
102
}
330
18
100
AcDbGroup
300

 70
     1
 71
     1
340
178F
340
178E
340
178D
340
178C
340
178B
340
178A
340
1789
340
1788
340
1787
340
1786
340
1785
340
1784
340
1783
340
1782
340
1781
340
1780
340
177F
340
177E
340
177D
340
177C
340
177B
340
177A
340
1779
340
1778
340
1777
340
1776
340
1775
340
1774
340
1773
340
1772
340
1771
340
1770
340
176F
340
176E
340
176D
340
176C
340
176B
340
176A
340
1769
340
1768
340
1767
340
1766
340
1765
340
1764
340
1763
340
1762
340
1761
340
1760
340
175F
340
175E
340
175D
340
175C
340
175B
340
175A
340
1759
340
1758
340
1757
340
1756
340
1755
340
1754
340
1753
340
1752
340
1751
340
1750
340
174F
340
174E
340
174D
340
174C
340
174B
340
174A
340
1749
340
1748
340
1747
340
1746
340
1745
340
1744
340
1743
340
1742
340
1741
340
1740
340
173F
340
173E
340
173D
340
173C
340
173B
340
173A
340
1739
340
1738
340
1737
340
1736
340
1735
340
1734
340
1733
340
1732
340
1731
340
1730
340
172F
340
172E
340
172D
340
172C
340
172B
340
172A
340
1729
340
1728
340
1727
340
1726
340
1725
340
1724
340
1723
340
1722
340
1721
340
1720
340
171F
340
171E
340
171D
340
171C
340
171B
340
171A
340
1719
340
1718
340
1717
340
1716
340
1715
340
1714
340
1713
340
1712
340
1711
340
1710
340
170F
340
170E
340
170D
340
170C
340
170B
340
170A
340
1709
340
1708
340
1707
340
1706
340
1705
340
1704
340
1703
340
1702
340
1701
340
1700
340
16FF
340
16FE
340
16FD
340
16FC
340
16FB
340
16FA
340
16F4
340
16F3
340
16F2
340
16EA
340
16DC
340
16DB
340
16DA
340
16D9
340
16D8
340
16D7
340
16D6
340
16D5
340
16D4
340
16D3
340
16D2
340
16D1
340
16D0
340
16CE
340
16CD
340
16CC
340
16CB
340
16CA
340
16C9
340
16C8
340
16C7
340
16C6
340
16C5
340
16C4
340
16C3
340
16C2
340
16C1
340
16C0
340
16BF
340
16BE
340
16BD
340
16BB
340
16BA
340
16BC
340
16B9
340
16B7
340
16B6
340
16B4
340
16B3
340
16B2
340
16B1
340
16B0
340
16AF
340
16AE
340
16AD
340
16AC
340
16AA
340
16AB
340
16A9
340
16A8
340
16A7
340
16A6
340
16A5
340
16A4
340
16A3
340
16A2
340
16A1
340
16A0
340
169F
340
169D
340
169C
340
169A
340
169B
340
1699
340
1698
340
1697
340
1696
340
1695
340
1694
340
1693
340
1692
340
1691
340
1690
340
168F
340
168E
340
168D
340
168C
340
168B
340
1689
340
1688
340
1687
340
1686
340
1685
340
1684
340
1683
340
1682
340
1681
340
1680
340
167F
340
167E
340
167D
340
167C
340
167B
340
167A
340
1679
340
1678
340
1677
340
1676
340
1675
340
166D
340
1660
340
165F
340
165E
340
165D
340
165C
340
165B
340
165A
340
1659
340
1658
340
1657
340
1656
340
1654
340
1653
340
1652
340
1651
340
1650
340
164F
340
164E
340
164D
340
164C
340
164B
340
1606
340
1605
340
1604
340
1603
340
1601
340
15FE
340
15F6
340
15F0
340
15EF
340
15EE
340
15ED
340
15EC
340
15EB
340
15EA
340
15E9
340
15E8
340
15DF
340
15DE
340
15DD
340
15DC
340
15DB
340
15DA
340
15D9
340
15D8
340
15D7
  0
LAYOUT
  5
5A
102
{ACAD_XDICTIONARY
360
17DD
102
}
102
{ACAD_REACTORS
330
58
102
}
330
58
100
AcDbPlotSettings
  1

  2
なし
  4

  6

 40
0.0
 41
0.0
 42
0.0
 43
0.0
 44
0.0
 45
0.0
 46
0.0
 47
0.0
 48
0.0
 49
0.0
140
0.0
141
0.0
142
1.0
143
1.0
 70
  1712
 72
     0
 73
     0
 74
     0
  7
monochrome.ctb
 75
     0
147
1.0
148
0.0
149
0.0
100
AcDbLayout
  1
Model
 70
     1
 71
     0
 10
0.0
 20
0.0
 11
12.0
 21
9.0
 12
0.0
 22
0.0
 32
0.0
 14
0.0
 24
0.0
 34
0.0
 15
0.0
 25
0.0
 35
0.0
146
0.0
 13
0.0
 23
0.0
 33
0.0
 16
1.0
 26
0.0
 36
0.0
 17
0.0
 27
1.0
 37
0.0
 76
     0
330
2
  0
LAYOUT
  5
5B
102
{ACAD_XDICTIONARY
360
17DF
102
}
102
{ACAD_REACTORS
330
58
102
}
330
58
100
AcDbPlotSettings
  1

  2
なし
  4

  6

 40
0.0
 41
0.0
 42
0.0
 43
0.0
 44
0.0
 45
0.0
 46
0.0
 47
0.0
 48
0.0
 49
0.0
140
0.0
141
0.0
142
1.0
143
1.0
 70
   688
 72
     0
 73
     0
 74
     5
  7
monochrome.ctb
 75
    16
147
1.0
148
0.0
149
0.0
100
AcDbLayout
  1
ﾚｲｱｳﾄ1
 70
     1
 71
     1
 10
0.0
 20
0.0
 11
12.0
 21
9.0
 12
0.0
 22
0.0
 32
0.0
 14
1.000000000000000E+20
 24
1.000000000000000E+20
 34
1.000000000000000E+20
 15
-1.000000000000000E+20
 25
-1.000000000000000E+20
 35
-1.000000000000000E+20
146
0.0
 13
0.0
 23
0.0
 33
0.0
 16
1.0
 26
0.0
 36
0.0
 17
0.0
 27
1.0
 37
0.0
 76
     0
330
7
  0
MLINESTYLE
  5
1D
102
{ACAD_REACTORS
330
19
102
}
330
19
100
AcDbMlineStyle
  2
STANDARD
 70
     0
  3

 62
   256
 51
90.0
 52
90.0
 71
     2
 49
0.5
 62
   256
  6
BYLAYER
 49
-0.5
 62
   256
  6
BYLAYER
  0
ACDBPLACEHOLDER
  5
57
102
{ACAD_REACTORS
330
56
102
}
330
56
  0
TABLESTYLE
  5
146
102
{ACAD_REACTORS
330
145
102
}
330
145
100
AcDbTableStyle
  3
Standard
 70
     0
 71
     0
 40
0.06
 41
0.06
280
     0
281
     0
  7
STANDARD
140
0.18
170
     2
 62
     0
 63
     7
283
     0
274
    -2
284
     1
 64
     0
275
    -2
285
     1
 65
     0
276
    -2
286
     1
 66
     0
277
    -2
287
     1
 67
     0
278
    -2
288
     1
 68
     0
279
    -2
289
     1
 69
     0
  7
STANDARD
140
0.25
170
     5
 62
     0
 63
     7
283
     0
274
    -2
284
     1
 64
     0
275
    -2
285
     1
 65
     0
276
    -2
286
     1
 66
     0
277
    -2
287
     1
 67
     0
278
    -2
288
     1
 68
     0
279
    -2
289
     1
 69
     0
  7
STANDARD
140
0.18
170
     5
 62
     0
 63
     7
283
     0
274
    -2
284
     1
 64
     0
275
    -2
285
     1
 65
     0
276
    -2
286
     1
 66
     0
277
    -2
287
     1
 67
     0
278
    -2
288
     1
 68
     0
279
    -2
289
     1
 69
     0
  0
DICTIONARYVAR
  5
1D2
102
{ACAD_REACTORS
330
1D1
102
}
330
1D1
100
DictionaryVariables
280
     0
  1
STANDARD
  0
DICTIONARYVAR
  5
D03
102
{ACAD_REACTORS
330
1D1
102
}
330
1D1
100
DictionaryVariables
280
     0
  1
1
  0
DICTIONARYVAR
  5
D04
102
{ACAD_REACTORS
330
1D1
102
}
330
1D1
100
DictionaryVariables
280
     0
  1

  0
DICTIONARY
  5
17DD
330
5A
100
AcDbDictionary
280
     1
281
     1
  3
ACAD_XREC_ROUNDTRIP
360
17DE
  0
DICTIONARY
  5
17DF
330
5B
100
AcDbDictionary
280
     1
281
     1
  3
ACAD_XREC_ROUNDTRIP
360
17E0
  0
XRECORD
  5
17DE
102
{ACAD_REACTORS
330
17DD
102
}
330
17DD
100
AcDbXrecord
280
     1
102
SHADEPLOT
 70
     0
102
SHADEPLOTRESLEVEL
 70
     2
102
SHADEPLOTCUSTOMDPI
 70
   300
  0
XRECORD
  5
17E0
102
{ACAD_REACTORS
330
17DF
102
}
330
17DF
100
AcDbXrecord
280
     1
102
SHADEPLOT
 70
     0
102
SHADEPLOTRESLEVEL
 70
     2
102
SHADEPLOTCUSTOMDPI
 70
   300
  0
ENDSEC
  0
EOF
