  0
SECTION
  2
HEADER
  9
$ACADVER
  1
AC1015
  9
$ACADMAINTVER
 70
    20
  9
$DWGCODEPAGE
  3
ANSI_932
  9
$INSBASE
 10
358.1563095705751
 20
-25.33753956771672
 30
0.0
  9
$EXTMIN
 10
15.61790714894005
 20
13.90259180665316
 30
-0.0000000349181948
  9
$EXTMAX
 10
320.7903753741184
 20
493.0571956566775
 30
0.0000000814935747
  9
$LIMMIN
 10
0.0
 20
0.0
  9
$LIMMAX
 10
420.0
 20
297.0
  9
$ORTHOMODE
 70
     0
  9
$REGENMODE
 70
     1
  9
$FILLMODE
 70
     1
  9
$QTEXTMODE
 70
     0
  9
$MIRRTEXT
 70
     1
  9
$LTSCALE
 40
1.0
  9
$ATTMODE
 70
     1
  9
$TEXTSIZE
 40
30.0
  9
$TRACEWID
 40
0.05
  9
$TEXTSTYLE
  7
SUNPOU
  9
$CLAYER
  8
0
  9
$CELTYPE
  6
BYLAYER
  9
$CECOLOR
 62
   256
  9
$CELTSCALE
 40
1.0
  9
$DISPSILH
 70
     0
  9
$DIMSCALE
 40
1.0
  9
$DIMASZ
 40
2.0
  9
$DIMEXO
 40
10.0
  9
$DIMDLI
 40
0.38
  9
$DIMRND
 40
0.0
  9
$DIMDLE
 40
0.0
  9
$DIMEXE
 40
0.0
  9
$DIMTP
 40
0.0
  9
$DIMTM
 40
0.0
  9
$DIMTXT
 40
5.0
  9
$DIMCEN
 40
0.0
  9
$DIMTSZ
 40
0.0
  9
$DIMTOL
 70
     0
  9
$DIMLIM
 70
     0
  9
$DIMTIH
 70
     0
  9
$DIMTOH
 70
     0
  9
$DIMSE1
 70
     0
  9
$DIMSE2
 70
     0
  9
$DIMTAD
 70
     1
  9
$DIMZIN
 70
     0
  9
$DIMBLK
  1
Dot
  9
$DIMASO
 70
     1
  9
$DIMSHO
 70
     1
  9
$DIMPOST
  1

  9
$DIMAPOST
  1

  9
$DIMALT
 70
     0
  9
$DIMALTD
 70
     2
  9
$DIMALTF
 40
25.4
  9
$DIMLFAC
 40
1.0
  9
$DIMTOFL
 70
     0
  9
$DIMTVP
 40
0.0
  9
$DIMTIX
 70
     0
  9
$DIMSOXD
 70
     0
  9
$DIMSAH
 70
     0
  9
$DIMBLK1
  1

  9
$DIMBLK2
  1

  9
$DIMSTYLE
  2
STANDARD
  9
$DIMCLRD
 70
    60
  9
$DIMCLRE
 70
    70
  9
$DIMCLRT
 70
    60
  9
$DIMTFAC
 40
0.064286
  9
$DIMGAP
 40
3.0
  9
$DIMJUST
 70
     0
  9
$DIMSD1
 70
     0
  9
$DIMSD2
 70
     0
  9
$DIMTOLJ
 70
     1
  9
$DIMTZIN
 70
     0
  9
$DIMALTZ
 70
     0
  9
$DIMALTTZ
 70
     0
  9
$DIMUPT
 70
     0
  9
$DIMDEC
 70
     0
  9
$DIMTDEC
 70
     0
  9
$DIMALTU
 70
     2
  9
$DIMALTTD
 70
     2
  9
$DIMTXSTY
  7
SUNPOU
  9
$DIMAUNIT
 70
     0
  9
$DIMADEC
 70
     0
  9
$DIMALTRND
 40
0.0
  9
$DIMAZIN
 70
     0
  9
$DIMDSEP
 70
    46
  9
$DIMATFIT
 70
     3
  9
$DIMFRAC
 70
     0
  9
$DIMLDRBLK
  1

  9
$DIMLUNIT
 70
     2
  9
$DIMLWD
 70
    -2
  9
$DIMLWE
 70
    -2
  9
$DIMTMOVE
 70
     0
  9
$LUNITS
 70
     2
  9
$LUPREC
 70
     5
  9
$SKETCHINC
 40
0.1
  9
$FILLETRAD
 40
8.0
  9
$AUNITS
 70
     0
  9
$AUPREC
 70
     0
  9
$MENU
  1
acad
  9
$ELEVATION
 40
0.0
  9
$PELEVATION
 40
0.0
  9
$THICKNESS
 40
0.0
  9
$LIMCHECK
 70
     0
  9
$CHAMFERA
 40
0.0
  9
$CHAMFERB
 40
0.0
  9
$CHAMFERC
 40
0.0
  9
$CHAMFERD
 40
0.0
  9
$SKPOLY
 70
     0
  9
$TDCREATE
 40
2450623.654673033
  9
$TDUCREATE
 40
2450623.279673032
  9
$TDUPDATE
 40
2455539.625382026
  9
$TDUUPDATE
 40
2455539.250382026
  9
$TDINDWG
 40
1.6081484606
  9
$TDUSRTIMER
 40
1.6081186690
  9
$USRTIMER
 70
     1
  9
$ANGBASE
 50
0.0
  9
$ANGDIR
 70
     0
  9
$PDMODE
 70
     0
  9
$PDSIZE
 40
0.0
  9
$PLINEWID
 40
0.0
  9
$SPLFRAME
 70
     0
  9
$SPLINETYPE
 70
     6
  9
$SPLINESEGS
 70
     8
  9
$HANDSEED
  5
2C6
  9
$SURFTAB1
 70
     6
  9
$SURFTAB2
 70
     6
  9
$SURFTYPE
 70
     6
  9
$SURFU
 70
     6
  9
$SURFV
 70
     6
  9
$UCSBASE
  2

  9
$UCSNAME
  2

  9
$UCSORG
 10
0.0
 20
0.0
 30
0.0
  9
$UCSXDIR
 10
1.0
 20
0.0
 30
0.0
  9
$UCSYDIR
 10
0.0
 20
1.0
 30
0.0
  9
$UCSORTHOREF
  2

  9
$UCSORTHOVIEW
 70
     0
  9
$UCSORGTOP
 10
0.0
 20
0.0
 30
0.0
  9
$UCSORGBOTTOM
 10
0.0
 20
0.0
 30
0.0
  9
$UCSORGLEFT
 10
0.0
 20
0.0
 30
0.0
  9
$UCSORGRIGHT
 10
0.0
 20
0.0
 30
0.0
  9
$UCSORGFRONT
 10
0.0
 20
0.0
 30
0.0
  9
$UCSORGBACK
 10
0.0
 20
0.0
 30
0.0
  9
$PUCSBASE
  2

  9
$PUCSNAME
  2

  9
$PUCSORG
 10
0.0
 20
0.0
 30
0.0
  9
$PUCSXDIR
 10
1.0
 20
0.0
 30
0.0
  9
$PUCSYDIR
 10
0.0
 20
1.0
 30
0.0
  9
$PUCSORTHOREF
  2

  9
$PUCSORTHOVIEW
 70
     0
  9
$PUCSORGTOP
 10
0.0
 20
0.0
 30
0.0
  9
$PUCSORGBOTTOM
 10
0.0
 20
0.0
 30
0.0
  9
$PUCSORGLEFT
 10
0.0
 20
0.0
 30
0.0
  9
$PUCSORGRIGHT
 10
0.0
 20
0.0
 30
0.0
  9
$PUCSORGFRONT
 10
0.0
 20
0.0
 30
0.0
  9
$PUCSORGBACK
 10
0.0
 20
0.0
 30
0.0
  9
$USERI1
 70
     0
  9
$USERI2
 70
     0
  9
$USERI3
 70
     0
  9
$USERI4
 70
     0
  9
$USERI5
 70
     0
  9
$USERR1
 40
0.0
  9
$USERR2
 40
0.0
  9
$USERR3
 40
0.0
  9
$USERR4
 40
0.0
  9
$USERR5
 40
0.0
  9
$WORLDVIEW
 70
     1
  9
$SHADEDGE
 70
     3
  9
$SHADEDIF
 70
    70
  9
$TILEMODE
 70
     1
  9
$MAXACTVP
 70
    16
  9
$PINSBASE
 10
0.0
 20
0.0
 30
0.0
  9
$PLIMCHECK
 70
     0
  9
$PEXTMIN
 10
1.000000000000000E+20
 20
1.000000000000000E+20
 30
1.000000000000000E+20
  9
$PEXTMAX
 10
-1.000000000000000E+20
 20
-1.000000000000000E+20
 30
-1.000000000000000E+20
  9
$PLIMMIN
 10
0.0
 20
0.0
  9
$PLIMMAX
 10
12.0
 20
9.0
  9
$UNITMODE
 70
     0
  9
$VISRETAIN
 70
     0
  9
$PLINEGEN
 70
     0
  9
$PSLTSCALE
 70
     1
  9
$TREEDEPTH
 70
  3020
  9
$CMLSTYLE
  2
STANDARD
  9
$CMLJUST
 70
     0
  9
$CMLSCALE
 40
1.0
  9
$PROXYGRAPHICS
 70
     1
  9
$MEASUREMENT
 70
     0
  9
$CELWEIGHT
370
    -1
  9
$ENDCAPS
280
     0
  9
$JOINSTYLE
280
     0
  9
$LWDISPLAY
290
     0
  9
$INSUNITS
 70
     0
  9
$HYPERLINKBASE
  1

  9
$STYLESHEET
  1

  9
$XEDIT
290
     1
  9
$CEPSNTYPE
380
     0
  9
$PSTYLEMODE
290
     1
  9
$FINGERPRINTGUID
  2
{C33ED14A-434C-4B93-8803-6B5A24D778C8}
  9
$VERSIONGUID
  2
{A776A167-0D42-4CA7-B974-8C9D807BBD4F}
  9
$EXTNAMES
290
     1
  9
$PSVPSCALE
 40
0.0
  9
$OLESTARTUP
290
     0
  0
ENDSEC
  0
SECTION
  2
CLASSES
  0
CLASS
  1
DICTIONARYVAR
  2
AcDbDictionaryVar
  3
ObjectDBX Classes
 90
        0
280
     0
281
     0
  0
CLASS
  1
ACDBDICTIONARYWDFLT
  2
AcDbDictionaryWithDefault
  3
ObjectDBX Classes
 90
        0
280
     0
281
     0
  0
CLASS
  1
ACDBPLACEHOLDER
  2
AcDbPlaceHolder
  3
ObjectDBX Classes
 90
        0
280
     0
281
     0
  0
CLASS
  1
LAYOUT
  2
AcDbLayout
  3
ObjectDBX Classes
 90
        0
280
     0
281
     0
  0
CLASS
  1
TABLESTYLE
  2
AcDbTableStyle
  3
ObjectDBX Classes
 90
     4095
280
     0
281
     0
  0
CLASS
  1
SORTENTSTABLE
  2
AcDbSortentsTable
  3
ObjectDBX Classes
 90
        0
280
     0
281
     0
  0
CLASS
  1
ARC_DIMENSION
  2
AcDbArcDimension
  3
ObjectDBX Classes
 90
    33793
280
     0
281
     1
  0
CLASS
  1
MATERIAL
  2
AcDbMaterial
  3
ObjectDBX Classes
 90
     1153
280
     0
281
     0
  0
CLASS
  1
VISUALSTYLE
  2
AcDbVisualStyle
  3
ObjectDBX Classes
 90
     4095
280
     0
281
     0
  0
CLASS
  1
SCALE
  2
AcDbScale
  3
ObjectDBX Classes
 90
     1153
280
     0
281
     0
  0
CLASS
  1
MLEADERSTYLE
  2
AcDbMLeaderStyle
  3
ACDB_MLEADERSTYLE_CLASS
 90
     4095
280
     0
281
     0
  0
CLASS
  1
CELLSTYLEMAP
  2
AcDbCellStyleMap
  3
ObjectDBX Classes
 90
     1152
280
     0
281
     0
  0
CLASS
  1
SOLID_BACKGROUND
  2
AcDbSolidBackground
  3
SCENEOE
 90
    36863
280
     1
281
     0
  0
CLASS
  1
NPOCOLLECTION
  2
AcDbImpNonPersistentObjectsCollection
  3
ObjectDBX Classes
 90
    33921
280
     0
281
     0
  0
ENDSEC
  0
SECTION
  2
TABLES
  0
TABLE
  2
VPORT
  5
2C
330
0
100
AcDbSymbolTable
 70
     1
  0
VPORT
  5
2D
330
2C
100
AcDbSymbolTableRecord
100
AcDbViewportTableRecord
  2
*Active
 70
     0
 10
0.0
 20
0.0
 11
1.0
 21
1.0
 12
210.0
 22
246.5285978283388
 13
0.0
 23
0.0
 14
1.0
 24
1.0
 15
0.0
 25
0.0
 16
0.0
 26
0.0
 36
1.0
 17
0.0
 27
0.0
 37
0.0
 40
496.2144455755036
 41
1.3258547008547
 42
50.0
 43
0.0
 44
0.0
 50
0.0
 51
0.0
 71
     0
 72
 20000
 73
     1
 74
     1
 75
     0
 76
     0
 77
     0
 78
     0
281
     0
 65
     1
110
0.0
120
0.0
130
0.0
111
1.0
121
0.0
131
0.0
112
0.0
122
1.0
132
0.0
 79
     0
146
0.0
  0
ENDTAB
  0
TABLE
  2
LTYPE
  5
27
330
0
100
AcDbSymbolTable
 70
     1
  0
LTYPE
  5
28
330
27
100
AcDbSymbolTableRecord
100
AcDbLinetypeTableRecord
  2
BYBLOCK
 70
     0
  3

 72
    65
 73
     0
 40
0.0
  0
LTYPE
  5
29
330
27
100
AcDbSymbolTableRecord
100
AcDbLinetypeTableRecord
  2
BYLAYER
 70
     0
  3

 72
    65
 73
     0
 40
0.0
  0
LTYPE
  5
16
330
27
100
AcDbSymbolTableRecord
100
AcDbLinetypeTableRecord
  2
CONTINUOUS
 70
     0
  3
Solid line
 72
    65
 73
     0
 40
0.0
  0
ENDTAB
  0
TABLE
  2
LAYER
  5
1F
102
{ACAD_XDICTIONARY
360
20
102
}
330
0
100
AcDbSymbolTable
 70
     6
  0
LAYER
  5
6
102
{ACAD_XDICTIONARY
360
7
102
}
330
1F
100
AcDbSymbolTableRecord
100
AcDbLayerTableRecord
  2
0
 70
     0
 62
     7
  6
CONTINUOUS
370
    -3
390
9
  0
LAYER
  5
BB
102
{ACAD_XDICTIONARY
360
BC
102
}
330
1F
100
AcDbSymbolTableRecord
100
AcDbLayerTableRecord
  2
KIJUN
 70
     0
 62
     7
  6
CONTINUOUS
370
    -3
390
9
  0
LAYER
  5
7E
102
{ACAD_XDICTIONARY
360
7F
102
}
330
1F
100
AcDbSymbolTableRecord
100
AcDbLayerTableRecord
  2
HOJO
 70
     0
 62
     3
  6
CONTINUOUS
370
    -3
390
9
  0
LAYER
  5
79
102
{ACAD_XDICTIONARY
360
7A
102
}
330
1F
100
AcDbSymbolTableRecord
100
AcDbLayerTableRecord
  2
WAKU
 70
     0
 62
     1
  6
CONTINUOUS
370
    -3
390
9
  0
LAYER
  5
8F
330
1F
100
AcDbSymbolTableRecord
100
AcDbLayerTableRecord
  2
DEFPOINTS
 70
     0
 62
     7
  6
CONTINUOUS
290
     0
370
    -3
390
9
  0
LAYER
  5
83
102
{ACAD_XDICTIONARY
360
84
102
}
330
1F
100
AcDbSymbolTableRecord
100
AcDbLayerTableRecord
  2
SUNPOU
 70
     0
 62
    70
  6
CONTINUOUS
370
    -3
390
9
  0
ENDTAB
  0
TABLE
  2
STYLE
  5
24
330
0
100
AcDbSymbolTable
 70
     2
  0
STYLE
  5
25
330
24
100
AcDbSymbolTableRecord
100
AcDbTextStyleTableRecord
  2
STANDARD
 70
     0
 40
0.0
 41
1.0
 50
0.0
 71
     0
 42
0.2
  3
txt
  4

  0
STYLE
  5
4C
330
24
100
AcDbSymbolTableRecord
100
AcDbTextStyleTableRecord
  2
SUNPOU
 70
     0
 40
0.0
 41
1.0
 50
0.0
 71
     0
 42
30.0
  3
txt
  4
bigfont
  0
ENDTAB
  0
TABLE
  2
VIEW
  5
2A
330
0
100
AcDbSymbolTable
 70
     0
  0
ENDTAB
  0
TABLE
  2
UCS
  5
2B
330
0
100
AcDbSymbolTable
 70
     0
  0
ENDTAB
  0
TABLE
  2
APPID
  5
30
330
0
100
AcDbSymbolTable
 70
     3
  0
APPID
  5
23
330
30
100
AcDbSymbolTableRecord
100
AcDbRegAppTableRecord
  2
ACAD
 70
     0
  0
APPID
  5
1A
330
30
100
AcDbSymbolTableRecord
100
AcDbRegAppTableRecord
  2
ACAD_PSEXT
 70
     0
  0
APPID
  5
225
330
30
100
AcDbSymbolTableRecord
100
AcDbRegAppTableRecord
  2
ACAD_MLEADERVER
 70
     0
  0
ENDTAB
  0
TABLE
  2
DIMSTYLE
  5
31
330
0
100
AcDbSymbolTable
 70
     1
100
AcDbDimStyleTable
 71
     1
340
32
  0
DIMSTYLE
105
32
102
{ACAD_REACTORS
330
82
330
93
330
A0
330
AD
330
1F2
102
}
330
31
100
AcDbSymbolTableRecord
100
AcDbDimStyleTableRecord
  2
STANDARD
 70
     0
340
25
  0
ENDTAB
  0
TABLE
  2
BLOCK_RECORD
  5
1
330
0
100
AcDbSymbolTable
 70
    11
  0
BLOCK_RECORD
  5
2
102
{ACAD_XDICTIONARY
360
3
102
}
330
1
100
AcDbSymbolTableRecord
100
AcDbBlockTableRecord
  2
*MODEL_SPACE
340
18
  0
BLOCK_RECORD
  5
1B
330
1
100
AcDbSymbolTableRecord
100
AcDbBlockTableRecord
  2
*PAPER_SPACE
340
1E
  0
BLOCK_RECORD
  5
4D
330
1
100
AcDbSymbolTableRecord
100
AcDbBlockTableRecord
  2
_Dot
340
0
102
{BLKREFS
331
8B
331
8C
331
99
331
9A
331
A6
331
A7
331
B3
331
B4
331
1F8
331
1F9
331
295
331
296
331
29E
331
29F
331
2A7
331
2A8
331
2B0
331
2B1
331
2B9
331
2BA
102
}
  0
BLOCK_RECORD
  5
86
330
1
100
AcDbSymbolTableRecord
100
AcDbBlockTableRecord
  2
*D1
340
0
  0
BLOCK_RECORD
  5
94
330
1
100
AcDbSymbolTableRecord
100
AcDbBlockTableRecord
  2
*D2
340
0
  0
BLOCK_RECORD
  5
A1
330
1
100
AcDbSymbolTableRecord
100
AcDbBlockTableRecord
  2
*D3
340
0
  0
BLOCK_RECORD
  5
AE
330
1
100
AcDbSymbolTableRecord
100
AcDbBlockTableRecord
  2
*D4
340
0
  0
BLOCK_RECORD
  5
1F3
330
1
100
AcDbSymbolTableRecord
100
AcDbBlockTableRecord
  2
*D5
340
0
  0
BLOCK_RECORD
  5
229
330
1
100
AcDbSymbolTableRecord
100
AcDbBlockTableRecord
  2
*D6
340
0
  0
BLOCK_RECORD
  5
235
330
1
100
AcDbSymbolTableRecord
100
AcDbBlockTableRecord
  2
*D7
340
0
  0
BLOCK_RECORD
  5
241
330
1
100
AcDbSymbolTableRecord
100
AcDbBlockTableRecord
  2
*D8
340
0
  0
BLOCK_RECORD
  5
24D
330
1
100
AcDbSymbolTableRecord
100
AcDbBlockTableRecord
  2
*D9
340
0
  0
BLOCK_RECORD
  5
259
330
1
100
AcDbSymbolTableRecord
100
AcDbBlockTableRecord
  2
*D10
340
0
  0
ENDTAB
  0
ENDSEC
  0
SECTION
  2
BLOCKS
  0
BLOCK
  5
5
330
2
100
AcDbEntity
  8
0
100
AcDbBlockBegin
  2
*MODEL_SPACE
 70
     0
 10
0.0
 20
0.0
 30
0.0
  3
*MODEL_SPACE
  1

  0
ENDBLK
  5
17
330
2
100
AcDbEntity
  8
0
100
AcDbBlockEnd
  0
BLOCK
  5
1C
330
1B
100
AcDbEntity
 67
     1
  8
0
100
AcDbBlockBegin
  2
*PAPER_SPACE
 70
     0
 10
0.0
 20
0.0
 30
0.0
  3
*PAPER_SPACE
  1

  0
ENDBLK
  5
1D
330
1B
100
AcDbEntity
 67
     1
  8
0
100
AcDbBlockEnd
  0
BLOCK
  5
4E
330
4D
100
AcDbEntity
  8
0
100
AcDbBlockBegin
  2
_Dot
 70
     0
 10
0.0
 20
0.0
 30
0.0
  3
_Dot
  1

  0
LWPOLYLINE
  5
4F
330
4D
100
AcDbEntity
  8
0
  6
ByBlock
 62
     0
100
AcDbPolyline
 90
        2
 70
     1
 43
0.5
 10
-0.25
 20
0.0
 42
1.0
 10
0.25
 20
0.0
 42
1.0
  0
LINE
  5
50
330
4D
100
AcDbEntity
  8
0
  6
ByBlock
 62
     0
370
    -2
100
AcDbLine
 10
-0.5
 20
0.0
 30
0.0
 11
-1.0
 21
0.0
 31
0.0
  0
ENDBLK
  5
51
330
4D
100
AcDbEntity
  8
0
100
AcDbBlockEnd
  0
BLOCK
  5
87
330
86
100
AcDbEntity
  8
0
100
AcDbBlockBegin
  2
*D1
 70
     1
 10
0.0
 20
0.0
 30
0.0
  3
*D1
  1

  0
LINE
  5
88
330
86
100
AcDbEntity
  8
SUNPOU
 62
    70
370
    -2
100
AcDbLine
 10
406.4213518624046
 20
247.5411653458388
 30
0.0
 11
406.4213518624046
 21
263.9015795840487
 31
0.0
  0
LINE
  5
89
330
86
100
AcDbEntity
  8
SUNPOU
 62
    70
370
    -2
100
AcDbLine
 10
527.4213518624046
 20
247.5411653458388
 30
0.0
 11
527.4213518624046
 21
263.9015795840487
 31
0.0
  0
LINE
  5
8A
330
86
100
AcDbEntity
  8
SUNPOU
 62
    60
370
    -2
100
AcDbLine
 10
408.4213518624046
 20
263.9015795840487
 30
0.0
 11
525.4213518624046
 21
263.9015795840487
 31
0.0
  0
INSERT
  5
8B
330
86
100
AcDbEntity
  8
SUNPOU
 62
    60
370
    -2
100
AcDbBlockReference
  2
_Dot
 10
406.4213518624046
 20
263.9015795840487
 30
0.0
 41
2.0
 42
2.0
 43
2.0
 50
180.0
  0
INSERT
  5
8C
330
86
100
AcDbEntity
  8
SUNPOU
 62
    60
370
    -2
100
AcDbBlockReference
  2
_Dot
 10
527.4213518624046
 20
263.9015795840487
 30
0.0
 41
2.0
 42
2.0
 43
2.0
  0
MTEXT
  5
8D
330
86
100
AcDbEntity
  8
SUNPOU
 62
    60
100
AcDbMText
 10
466.9213518624045
 20
269.4015795840487
 30
0.0
 40
5.0
 41
0.0
 71
     5
 72
     1
  1
\A1;121
  7
SUNPOU
 73
     1
 44
1.0
1001
ACAD
1000
MTEXTBEGIN
1070
    73
1070
     1
1070
    44
1040
1.0
1070
    74
1070
     0
1000
MTEXTEND
  0
POINT
  5
8E
330
86
100
AcDbEntity
  8
DEFPOINTS
 62
     0
100
AcDbPoint
 10
406.4213518624046
 20
237.5411653458388
 30
0.0
  0
POINT
  5
90
330
86
100
AcDbEntity
  8
DEFPOINTS
 62
     0
100
AcDbPoint
 10
527.4213518624046
 20
237.5411653458388
 30
0.0
  0
POINT
  5
91
330
86
100
AcDbEntity
  8
DEFPOINTS
 62
     0
100
AcDbPoint
 10
527.4213518624046
 20
263.9015795840487
 30
0.0
  0
ENDBLK
  5
92
330
86
100
AcDbEntity
  8
0
100
AcDbBlockEnd
  0
BLOCK
  5
95
330
94
100
AcDbEntity
  8
0
100
AcDbBlockBegin
  2
*D2
 70
     1
 10
0.0
 20
0.0
 30
0.0
  3
*D2
  1

  0
LINE
  5
96
330
94
100
AcDbEntity
  8
SUNPOU
 62
    70
370
    -2
100
AcDbLine
 10
567.361703100049
 20
112.658487914575
 30
0.0
 11
567.361703100049
 21
263.8243291966757
 31
0.0
  0
LINE
  5
97
330
94
100
AcDbEntity
  8
SUNPOU
 62
    70
370
    -2
100
AcDbLine
 10
669.3617031000491
 20
247.5411653458388
 30
0.0
 11
669.3617031000491
 21
263.8243291966757
 31
0.0
  0
LINE
  5
98
330
94
100
AcDbEntity
  8
SUNPOU
 62
    60
370
    -2
100
AcDbLine
 10
569.3617031000488
 20
263.8243291966757
 30
0.0
 11
667.3617031000491
 21
263.8243291966757
 31
0.0
  0
INSERT
  5
99
330
94
100
AcDbEntity
  8
SUNPOU
 62
    60
370
    -2
100
AcDbBlockReference
  2
_Dot
 10
567.361703100049
 20
263.8243291966757
 30
0.0
 41
2.0
 42
2.0
 43
2.0
 50
180.0
  0
INSERT
  5
9A
330
94
100
AcDbEntity
  8
SUNPOU
 62
    60
370
    -2
100
AcDbBlockReference
  2
_Dot
 10
669.3617031000491
 20
263.8243291966757
 30
0.0
 41
2.0
 42
2.0
 43
2.0
  0
MTEXT
  5
9B
330
94
100
AcDbEntity
  8
SUNPOU
 62
    60
100
AcDbMText
 10
618.361703100049
 20
269.3243291966758
 30
0.0
 40
5.0
 41
0.0
 71
     5
 72
     1
  1
\A1;102
  7
SUNPOU
 73
     1
 44
1.0
1001
ACAD
1000
MTEXTBEGIN
1070
    73
1070
     1
1070
    44
1040
1.0
1070
    74
1070
     0
1000
MTEXTEND
  0
POINT
  5
9C
330
94
100
AcDbEntity
  8
DEFPOINTS
 62
     0
100
AcDbPoint
 10
567.361703100049
 20
102.658487914575
 30
0.0
  0
POINT
  5
9D
330
94
100
AcDbEntity
  8
DEFPOINTS
 62
     0
100
AcDbPoint
 10
669.3617031000491
 20
237.5411653458388
 30
0.0
  0
POINT
  5
9E
330
94
100
AcDbEntity
  8
DEFPOINTS
 62
     0
100
AcDbPoint
 10
669.3617031000491
 20
263.8243291966757
 30
0.0
  0
ENDBLK
  5
9F
330
94
100
AcDbEntity
  8
0
100
AcDbBlockEnd
  0
BLOCK
  5
A2
330
A1
100
AcDbEntity
  8
0
100
AcDbBlockBegin
  2
*D3
 70
     1
 10
0.0
 20
0.0
 30
0.0
  3
*D3
  1

  0
LINE
  5
A3
330
A1
100
AcDbEntity
  8
SUNPOU
 62
    70
370
    -2
100
AcDbLine
 10
406.4213518624105
 20
399.4166064746906
 30
0.0
 11
406.4213518624105
 21
441.7338968596941
 31
0.0
  0
LINE
  5
A4
330
A1
100
AcDbEntity
  8
SUNPOU
 62
    70
370
    -2
100
AcDbLine
 10
527.4213518623984
 20
399.4166064746901
 30
0.0
 11
527.4213518623984
 21
441.7338968596941
 31
0.0
  0
LINE
  5
A5
330
A1
100
AcDbEntity
  8
SUNPOU
 62
    60
370
    -2
100
AcDbLine
 10
408.4213518624105
 20
441.7338968596941
 30
0.0
 11
525.4213518623982
 21
441.7338968596941
 31
0.0
  0
INSERT
  5
A6
330
A1
100
AcDbEntity
  8
SUNPOU
 62
    60
370
    -2
100
AcDbBlockReference
  2
_Dot
 10
406.4213518624105
 20
441.7338968596941
 30
0.0
 41
2.0
 42
2.0
 43
2.0
 50
180.0
  0
INSERT
  5
A7
330
A1
100
AcDbEntity
  8
SUNPOU
 62
    60
370
    -2
100
AcDbBlockReference
  2
_Dot
 10
527.4213518623984
 20
441.7338968596941
 30
0.0
 41
2.0
 42
2.0
 43
2.0
  0
MTEXT
  5
A8
330
A1
100
AcDbEntity
  8
SUNPOU
 62
    60
100
AcDbMText
 10
466.9213518624045
 20
447.2338968596941
 30
0.0
 40
5.0
 41
0.0
 71
     5
 72
     1
  1
\A1;121
  7
SUNPOU
 73
     1
 44
1.0
1001
ACAD
1000
MTEXTBEGIN
1070
    73
1070
     1
1070
    44
1040
1.0
1070
    74
1070
     0
1000
MTEXTEND
  0
POINT
  5
A9
330
A1
100
AcDbEntity
  8
DEFPOINTS
 62
     0
100
AcDbPoint
 10
406.4213518624105
 20
389.4166064746905
 30
0.0
  0
POINT
  5
AA
330
A1
100
AcDbEntity
  8
DEFPOINTS
 62
     0
100
AcDbPoint
 10
527.4213518623984
 20
389.4166064746901
 30
0.0
  0
POINT
  5
AB
330
A1
100
AcDbEntity
  8
DEFPOINTS
 62
     0
100
AcDbPoint
 10
527.4213518623984
 20
441.7338968596941
 30
0.0
  0
ENDBLK
  5
AC
330
A1
100
AcDbEntity
  8
0
100
AcDbBlockEnd
  0
BLOCK
  5
AF
330
AE
100
AcDbEntity
  8
0
100
AcDbBlockBegin
  2
*D4
 70
     1
 10
0.0
 20
0.0
 30
0.0
  3
*D4
  1

  0
LINE
  5
B0
330
AE
100
AcDbEntity
  8
SUNPOU
 62
    70
370
    -2
100
AcDbLine
 10
419.9213518624047
 20
412.4166064746966
 30
0.0
 11
378.1442594705233
 21
412.4166064746966
 31
0.0
  0
LINE
  5
B1
330
AE
100
AcDbEntity
  8
SUNPOU
 62
    70
370
    -2
100
AcDbLine
 10
456.9213518624046
 20
310.4166064746969
 30
0.0
 11
378.1442594705231
 21
310.416606474697
 31
0.0
  0
LINE
  5
B2
330
AE
100
AcDbEntity
  8
SUNPOU
 62
    60
370
    -2
100
AcDbLine
 10
378.1442594705233
 20
410.4166064746967
 30
0.0
 11
378.1442594705231
 21
312.4166064746969
 31
0.0
  0
INSERT
  5
B3
330
AE
100
AcDbEntity
  8
SUNPOU
 62
    60
370
    -2
100
AcDbBlockReference
  2
_Dot
 10
378.1442594705233
 20
412.4166064746966
 30
0.0
 41
2.0
 42
2.0
 43
2.0
 50
90.0
  0
INSERT
  5
B4
330
AE
100
AcDbEntity
  8
SUNPOU
 62
    60
370
    -2
100
AcDbBlockReference
  2
_Dot
 10
378.1442594705231
 20
310.416606474697
 30
0.0
 41
2.0
 42
2.0
 43
2.0
 50
270.0
  0
MTEXT
  5
B5
330
AE
100
AcDbEntity
  8
SUNPOU
 62
    60
100
AcDbMText
 10
372.6442594705231
 20
361.4166064746969
 30
0.0
 40
5.0
 41
0.0
 71
     5
 72
     1
  1
\A1;102
  7
SUNPOU
 11
0.0000000000000001
 21
1.0
 31
0.0
 73
     1
 44
1.0
1001
ACAD
1000
MTEXTBEGIN
1070
    73
1070
     1
1070
    44
1040
1.0
1070
    74
1070
     0
1000
MTEXTEND
  0
POINT
  5
B6
330
AE
100
AcDbEntity
  8
DEFPOINTS
 62
     0
100
AcDbPoint
 10
429.9213518624044
 20
412.4166064746966
 30
0.0
  0
POINT
  5
B7
330
AE
100
AcDbEntity
  8
DEFPOINTS
 62
     0
100
AcDbPoint
 10
466.9213518624045
 20
310.4166064746969
 30
0.0
  0
POINT
  5
B8
330
AE
100
AcDbEntity
  8
DEFPOINTS
 62
     0
100
AcDbPoint
 10
378.1442594705231
 20
310.416606474697
 30
0.0
  0
ENDBLK
  5
B9
330
AE
100
AcDbEntity
  8
0
100
AcDbBlockEnd
  0
BLOCK
  5
1F4
330
1F3
100
AcDbEntity
  8
0
100
AcDbBlockBegin
  2
*D5
 70
     1
 10
0.0
 20
0.0
 30
0.0
  3
*D5
  1

  0
LINE
  5
1F5
330
1F3
100
AcDbEntity
  8
0
 62
    70
370
    -2
100
AcDbLine
 10
417.4295975785915
 20
65.54116534583825
 30
0.0
 11
373.2548744490245
 21
65.54116534583826
 31
0.0
  0
LINE
  5
1F6
330
1F3
100
AcDbEntity
  8
0
 62
    70
370
    -2
100
AcDbLine
 10
396.4213518624046
 20
237.5411653458388
 30
0.0
 11
373.2548744490245
 21
237.5411653458388
 31
0.0
  0
LINE
  5
1F7
330
1F3
100
AcDbEntity
  8
0
 62
    60
370
    -2
100
AcDbLine
 10
373.2548744490245
 20
67.54116534583826
 30
0.0
 11
373.2548744490245
 21
235.5411653458388
 31
0.0
  0
INSERT
  5
1F8
330
1F3
100
AcDbEntity
  8
0
 62
    60
370
    -2
100
AcDbBlockReference
  2
_Dot
 10
373.2548744490245
 20
65.54116534583826
 30
0.0
 41
2.0
 42
2.0
 43
2.0
 50
270.0
  0
INSERT
  5
1F9
330
1F3
100
AcDbEntity
  8
0
 62
    60
370
    -2
100
AcDbBlockReference
  2
_Dot
 10
373.2548744490245
 20
237.5411653458388
 30
0.0
 41
2.0
 42
2.0
 43
2.0
 50
90.0
  0
MTEXT
  5
1FA
330
1F3
100
AcDbEntity
  8
0
 62
    60
100
AcDbMText
 10
367.7548744490245
 20
151.5411653458386
 30
0.0
 40
5.0
 41
0.0
 71
     5
 72
     1
  1
\A1;170ｍｍに伸びを付けています
  7
SUNPOU
 11
0.0000000000000001
 21
1.0
 31
0.0
 73
     1
 44
1.0
1001
ACAD
1000
MTEXTBEGIN
1070
    73
1070
     1
1070
    44
1040
1.0
1070
    74
1070
     0
1000
MTEXTEND
  0
POINT
  5
1FB
330
1F3
100
AcDbEntity
  8
DEFPOINTS
 62
     0
100
AcDbPoint
 10
427.4295975785913
 20
65.54116534583825
 30
0.0
  0
POINT
  5
1FC
330
1F3
100
AcDbEntity
  8
DEFPOINTS
 62
     0
100
AcDbPoint
 10
406.4213518624046
 20
237.5411653458388
 30
0.0
  0
POINT
  5
1FD
330
1F3
100
AcDbEntity
  8
DEFPOINTS
 62
     0
100
AcDbPoint
 10
373.2548744490245
 20
237.5411653458388
 30
0.0
  0
ENDBLK
  5
1FE
330
1F3
100
AcDbEntity
  8
0
100
AcDbBlockEnd
  0
BLOCK
  5
22A
330
229
100
AcDbEntity
  8
0
100
AcDbBlockBegin
  2
*D6
 70
     1
 10
0.0
 20
0.0
 30
0.0
  3
*D6
  1

  0
LINE
  5
292
330
229
100
AcDbEntity
  8
SUNPOU
 62
    70
370
    -2
100
AcDbLine
 10
56.83028547856969
 20
290.8350043044235
 30
0.0
 11
56.83028547856969
 21
307.1954185426335
 31
0.0
  0
LINE
  5
293
330
229
100
AcDbEntity
  8
SUNPOU
 62
    70
370
    -2
100
AcDbLine
 10
177.8302854785697
 20
290.8350043044235
 30
0.0
 11
177.8302854785697
 21
307.1954185426335
 31
0.0
  0
LINE
  5
294
330
229
100
AcDbEntity
  8
SUNPOU
 62
    60
370
    -2
100
AcDbLine
 10
58.83028547856969
 20
307.1954185426335
 30
0.0
 11
175.8302854785697
 21
307.1954185426335
 31
0.0
  0
INSERT
  5
295
330
229
100
AcDbEntity
  8
SUNPOU
 62
    60
370
    -2
100
AcDbBlockReference
  2
_Dot
 10
56.83028547856969
 20
307.1954185426335
 30
0.0
 41
2.0
 42
2.0
 43
2.0
 50
180.0
  0
INSERT
  5
296
330
229
100
AcDbEntity
  8
SUNPOU
 62
    60
370
    -2
100
AcDbBlockReference
  2
_Dot
 10
177.8302854785697
 20
307.1954185426335
 30
0.0
 41
2.0
 42
2.0
 43
2.0
  0
MTEXT
  5
297
330
229
100
AcDbEntity
  8
SUNPOU
 62
    60
100
AcDbMText
 10
117.3302854785697
 20
312.6954185426334
 30
0.0
 40
5.0
 41
0.0
 71
     5
 72
     1
  1
\A1;121
  7
SUNPOU
 73
     1
 44
1.0
1001
ACAD
1000
MTEXTBEGIN
1070
    73
1070
     1
1070
    44
1040
1.0
1070
    74
1070
     0
1000
MTEXTEND
  0
POINT
  5
298
330
229
100
AcDbEntity
  8
DEFPOINTS
 62
     0
100
AcDbPoint
 10
56.83028547856969
 20
280.8350043044235
 30
0.0
  0
POINT
  5
299
330
229
100
AcDbEntity
  8
DEFPOINTS
 62
     0
100
AcDbPoint
 10
177.8302854785697
 20
280.8350043044235
 30
0.0
  0
POINT
  5
29A
330
229
100
AcDbEntity
  8
DEFPOINTS
 62
     0
100
AcDbPoint
 10
177.8302854785697
 20
307.1954185426335
 30
0.0
  0
ENDBLK
  5
22B
330
229
100
AcDbEntity
  8
0
100
AcDbBlockEnd
  0
BLOCK
  5
236
330
235
100
AcDbEntity
  8
0
100
AcDbBlockBegin
  2
*D7
 70
     1
 10
0.0
 20
0.0
 30
0.0
  3
*D7
  1

  0
LINE
  5
29B
330
235
100
AcDbEntity
  8
SUNPOU
 62
    70
370
    -2
100
AcDbLine
 10
217.7706367162141
 20
155.9523268731597
 30
0.0
 11
217.7706367162141
 21
307.1181681552604
 31
0.0
  0
LINE
  5
29C
330
235
100
AcDbEntity
  8
SUNPOU
 62
    70
370
    -2
100
AcDbLine
 10
319.7706367162142
 20
290.8350043044235
 30
0.0
 11
319.7706367162142
 21
307.1181681552604
 31
0.0
  0
LINE
  5
29D
330
235
100
AcDbEntity
  8
SUNPOU
 62
    60
370
    -2
100
AcDbLine
 10
219.7706367162141
 20
307.1181681552604
 30
0.0
 11
317.7706367162142
 21
307.1181681552604
 31
0.0
  0
INSERT
  5
29E
330
235
100
AcDbEntity
  8
SUNPOU
 62
    60
370
    -2
100
AcDbBlockReference
  2
_Dot
 10
217.7706367162141
 20
307.1181681552604
 30
0.0
 41
2.0
 42
2.0
 43
2.0
 50
180.0
  0
INSERT
  5
29F
330
235
100
AcDbEntity
  8
SUNPOU
 62
    60
370
    -2
100
AcDbBlockReference
  2
_Dot
 10
319.7706367162142
 20
307.1181681552604
 30
0.0
 41
2.0
 42
2.0
 43
2.0
  0
MTEXT
  5
2A0
330
235
100
AcDbEntity
  8
SUNPOU
 62
    60
100
AcDbMText
 10
268.7706367162141
 20
312.6181681552604
 30
0.0
 40
5.0
 41
0.0
 71
     5
 72
     1
  1
\A1;102
  7
SUNPOU
 73
     1
 44
1.0
1001
ACAD
1000
MTEXTBEGIN
1070
    73
1070
     1
1070
    44
1040
1.0
1070
    74
1070
     0
1000
MTEXTEND
  0
POINT
  5
2A1
330
235
100
AcDbEntity
  8
DEFPOINTS
 62
     0
100
AcDbPoint
 10
217.7706367162141
 20
145.9523268731597
 30
0.0
  0
POINT
  5
2A2
330
235
100
AcDbEntity
  8
DEFPOINTS
 62
     0
100
AcDbPoint
 10
319.7706367162142
 20
280.8350043044235
 30
0.0
  0
POINT
  5
2A3
330
235
100
AcDbEntity
  8
DEFPOINTS
 62
     0
100
AcDbPoint
 10
319.7706367162142
 20
307.1181681552604
 30
0.0
  0
ENDBLK
  5
237
330
235
100
AcDbEntity
  8
0
100
AcDbBlockEnd
  0
BLOCK
  5
242
330
241
100
AcDbEntity
  8
0
100
AcDbBlockBegin
  2
*D8
 70
     1
 10
0.0
 20
0.0
 30
0.0
  3
*D8
  1

  0
LINE
  5
2A4
330
241
100
AcDbEntity
  8
SUNPOU
 62
    70
370
    -2
100
AcDbLine
 10
56.8302854785756
 20
442.7104454332751
 30
0.0
 11
56.8302854785756
 21
485.0277358182788
 31
0.0
  0
LINE
  5
2A5
330
241
100
AcDbEntity
  8
SUNPOU
 62
    70
370
    -2
100
AcDbLine
 10
177.8302854785635
 20
442.7104454332748
 30
0.0
 11
177.8302854785635
 21
485.0277358182788
 31
0.0
  0
LINE
  5
2A6
330
241
100
AcDbEntity
  8
SUNPOU
 62
    60
370
    -2
100
AcDbLine
 10
58.8302854785756
 20
485.0277358182788
 30
0.0
 11
175.8302854785635
 21
485.0277358182788
 31
0.0
  0
INSERT
  5
2A7
330
241
100
AcDbEntity
  8
SUNPOU
 62
    60
370
    -2
100
AcDbBlockReference
  2
_Dot
 10
56.8302854785756
 20
485.0277358182788
 30
0.0
 41
2.0
 42
2.0
 43
2.0
 50
180.0
  0
INSERT
  5
2A8
330
241
100
AcDbEntity
  8
SUNPOU
 62
    60
370
    -2
100
AcDbBlockReference
  2
_Dot
 10
177.8302854785635
 20
485.0277358182788
 30
0.0
 41
2.0
 42
2.0
 43
2.0
  0
MTEXT
  5
2A9
330
241
100
AcDbEntity
  8
SUNPOU
 62
    60
100
AcDbMText
 10
117.3302854785695
 20
490.5277358182789
 30
0.0
 40
5.0
 41
0.0
 71
     5
 72
     1
  1
\A1;121
  7
SUNPOU
 73
     1
 44
1.0
1001
ACAD
1000
MTEXTBEGIN
1070
    73
1070
     1
1070
    44
1040
1.0
1070
    74
1070
     0
1000
MTEXTEND
  0
POINT
  5
2AA
330
241
100
AcDbEntity
  8
DEFPOINTS
 62
     0
100
AcDbPoint
 10
56.8302854785756
 20
432.7104454332752
 30
0.0
  0
POINT
  5
2AB
330
241
100
AcDbEntity
  8
DEFPOINTS
 62
     0
100
AcDbPoint
 10
177.8302854785635
 20
432.7104454332747
 30
0.0
  0
POINT
  5
2AC
330
241
100
AcDbEntity
  8
DEFPOINTS
 62
     0
100
AcDbPoint
 10
177.8302854785635
 20
485.0277358182788
 30
0.0
  0
ENDBLK
  5
243
330
241
100
AcDbEntity
  8
0
100
AcDbBlockEnd
  0
BLOCK
  5
24E
330
24D
100
AcDbEntity
  8
0
100
AcDbBlockBegin
  2
*D9
 70
     1
 10
0.0
 20
0.0
 30
0.0
  3
*D9
  1

  0
LINE
  5
2AD
330
24D
100
AcDbEntity
  8
SUNPOU
 62
    70
370
    -2
100
AcDbLine
 10
70.33028547856957
 20
455.7104454332813
 30
0.0
 11
28.55319308668825
 21
455.7104454332813
 31
0.0
  0
LINE
  5
2AE
330
24D
100
AcDbEntity
  8
SUNPOU
 62
    70
370
    -2
100
AcDbLine
 10
107.3302854785695
 20
353.7104454332816
 30
0.0
 11
28.55319308668822
 21
353.7104454332816
 31
0.0
  0
LINE
  5
2AF
330
24D
100
AcDbEntity
  8
SUNPOU
 62
    60
370
    -2
100
AcDbLine
 10
28.55319308668825
 20
453.7104454332814
 30
0.0
 11
28.55319308668823
 21
355.7104454332816
 31
0.0
  0
INSERT
  5
2B0
330
24D
100
AcDbEntity
  8
SUNPOU
 62
    60
370
    -2
100
AcDbBlockReference
  2
_Dot
 10
28.55319308668825
 20
455.7104454332813
 30
0.0
 41
2.0
 42
2.0
 43
2.0
 50
90.0
  0
INSERT
  5
2B1
330
24D
100
AcDbEntity
  8
SUNPOU
 62
    60
370
    -2
100
AcDbBlockReference
  2
_Dot
 10
28.55319308668823
 20
353.7104454332816
 30
0.0
 41
2.0
 42
2.0
 43
2.0
 50
270.0
  0
MTEXT
  5
2B2
330
24D
100
AcDbEntity
  8
SUNPOU
 62
    60
100
AcDbMText
 10
23.05319308668817
 20
404.7104454332814
 30
0.0
 40
5.0
 41
0.0
 71
     5
 72
     1
  1
\A1;102
  7
SUNPOU
 11
0.0000000000000001
 21
1.0
 31
0.0
 73
     1
 44
1.0
1001
ACAD
1000
MTEXTBEGIN
1070
    73
1070
     1
1070
    44
1040
1.0
1070
    74
1070
     0
1000
MTEXTEND
  0
POINT
  5
2B3
330
24D
100
AcDbEntity
  8
DEFPOINTS
 62
     0
100
AcDbPoint
 10
80.33028547856957
 20
455.7104454332813
 30
0.0
  0
POINT
  5
2B4
330
24D
100
AcDbEntity
  8
DEFPOINTS
 62
     0
100
AcDbPoint
 10
117.3302854785696
 20
353.7104454332816
 30
0.0
  0
POINT
  5
2B5
330
24D
100
AcDbEntity
  8
DEFPOINTS
 62
     0
100
AcDbPoint
 10
28.55319308668823
 20
353.7104454332816
 30
0.0
  0
ENDBLK
  5
24F
330
24D
100
AcDbEntity
  8
0
100
AcDbBlockEnd
  0
BLOCK
  5
25A
330
259
100
AcDbEntity
  8
0
100
AcDbBlockBegin
  2
*D10
 70
     1
 10
0.0
 20
0.0
 30
0.0
  3
*D10
  1

  0
LINE
  5
2B6
330
259
100
AcDbEntity
  8
0
 62
    70
370
    -2
100
AcDbLine
 10
67.83853119475645
 20
108.835004304423
 30
0.0
 11
23.66380806518955
 21
108.835004304423
 31
0.0
  0
LINE
  5
2B7
330
259
100
AcDbEntity
  8
0
 62
    70
370
    -2
100
AcDbLine
 10
46.83028547856969
 20
280.8350043044235
 30
0.0
 11
23.66380806518959
 21
280.8350043044235
 31
0.0
  0
LINE
  5
2B8
330
259
100
AcDbEntity
  8
0
 62
    60
370
    -2
100
AcDbLine
 10
23.66380806518955
 20
110.835004304423
 30
0.0
 11
23.66380806518958
 21
278.8350043044236
 31
0.0
  0
INSERT
  5
2B9
330
259
100
AcDbEntity
  8
0
 62
    60
370
    -2
100
AcDbBlockReference
  2
_Dot
 10
23.66380806518955
 20
108.835004304423
 30
0.0
 41
2.0
 42
2.0
 43
2.0
 50
270.0
  0
INSERT
  5
2BA
330
259
100
AcDbEntity
  8
0
 62
    60
370
    -2
100
AcDbBlockReference
  2
_Dot
 10
23.66380806518959
 20
280.8350043044235
 30
0.0
 41
2.0
 42
2.0
 43
2.0
 50
90.0
  0
MTEXT
  5
2BB
330
259
100
AcDbEntity
  8
0
 62
    60
100
AcDbMText
 10
18.16380806518953
 20
194.8350043044232
 30
0.0
 40
5.0
 41
0.0
 71
     5
 72
     1
  1
\A1;170ｍｍに伸びを付けています
  7
SUNPOU
 11
0.0000000000000001
 21
1.0
 31
0.0
 73
     1
 44
1.0
1001
ACAD
1000
MTEXTBEGIN
1070
    73
1070
     1
1070
    44
1040
1.0
1070
    74
1070
     0
1000
MTEXTEND
  0
POINT
  5
2BC
330
259
100
AcDbEntity
  8
DEFPOINTS
 62
     0
100
AcDbPoint
 10
77.83853119475645
 20
108.835004304423
 30
0.0
  0
POINT
  5
2BD
330
259
100
AcDbEntity
  8
DEFPOINTS
 62
     0
100
AcDbPoint
 10
56.83028547856969
 20
280.8350043044235
 30
0.0
  0
POINT
  5
2BE
330
259
100
AcDbEntity
  8
DEFPOINTS
 62
     0
100
AcDbPoint
 10
23.66380806518959
 20
280.8350043044235
 30
0.0
  0
ENDBLK
  5
25B
330
259
100
AcDbEntity
  8
0
100
AcDbBlockEnd
  0
ENDSEC
  0
SECTION
  2
ENTITIES
  0
LINE
  5
78
330
2
100
AcDbEntity
  8
WAKU
100
AcDbLine
 10
24.46667652842774
 20
57.29383895858473
 30
0.0
 11
173.1495986679664
 21
57.29383895858473
 31
0.0
  0
LINE
  5
7C
330
2
100
AcDbEntity
  8
WAKU
100
AcDbLine
 10
24.46667652842774
 20
43.29383895858472
 30
0.0
 11
173.1495986679664
 21
43.29383895858472
 31
0.0
  0
TEXT
  5
7D
330
2
100
AcDbEntity
  8
HOJO
100
AcDbText
 10
43.6350820853047
 20
45.66046495858472
 30
0.0
 40
9.0
  1
TU5
  7
SUNPOU
100
AcDbText
  0
TEXT
  5
81
330
2
100
AcDbEntity
  8
HOJO
100
AcDbText
 10
98.95769177215568
 20
48.33822495858476
 30
0.0
 40
6.0
  1
121×170×102
  7
SUNPOU
100
AcDbText
  0
DIMENSION
  5
82
330
2
100
AcDbEntity
  8
SUNPOU
100
AcDbDimension
  2
*D6
 10
177.8302854785697
 20
307.1954185426335
 30
0.0
 11
117.3302854785697
 21
312.6954185426334
 31
0.0
 70
    32
 71
     5
 42
121.0
  3
STANDARD
100
AcDbAlignedDimension
 13
56.83028547856969
 23
280.8350043044235
 33
0.0
 14
177.8302854785697
 24
280.8350043044235
 34
0.0
100
AcDbRotatedDimension
1001
ACAD
1000
DSTYLE
1002
{
1070
    41
1040
2.0
1070
    42
1040
10.0
1070
    44
1040
0.0
1070
    73
1070
     0
1070
    74
1070
     0
1070
    77
1070
     1
1070
   140
1040
5.0
1070
   141
1040
0.0
1070
   146
1040
0.064286
1070
   147
1040
3.0
1070
   176
1070
    60
1070
   177
1070
    70
1070
   178
1070
    60
1070
   271
1070
     0
1070
   272
1070
     0
1070
   340
1005
4C
1070
   342
1005
4D
1002
}
  0
DIMENSION
  5
93
330
2
100
AcDbEntity
  8
SUNPOU
100
AcDbDimension
  2
*D7
 10
319.7706367162142
 20
307.1181681552604
 30
0.0
 11
268.7706367162141
 21
312.6181681552604
 31
0.0
 70
    32
 71
     5
 42
102.0000000000001
  3
STANDARD
100
AcDbAlignedDimension
 13
217.7706367162141
 23
145.9523268731597
 33
0.0
 14
319.7706367162142
 24
280.8350043044235
 34
0.0
100
AcDbRotatedDimension
1001
ACAD
1000
DSTYLE
1002
{
1070
    41
1040
2.0
1070
    42
1040
10.0
1070
    44
1040
0.0
1070
    73
1070
     0
1070
    74
1070
     0
1070
    77
1070
     1
1070
   140
1040
5.0
1070
   141
1040
0.0
1070
   146
1040
0.064286
1070
   147
1040
3.0
1070
   176
1070
    60
1070
   177
1070
    70
1070
   178
1070
    60
1070
   271
1070
     0
1070
   272
1070
     0
1070
   340
1005
4C
1070
   342
1005
4D
1002
}
  0
DIMENSION
  5
A0
330
2
100
AcDbEntity
  8
SUNPOU
100
AcDbDimension
  2
*D8
 10
177.8302854785635
 20
485.0277358182788
 30
0.0
 11
117.3302854785695
 21
490.5277358182789
 31
0.0
 70
    32
 71
     5
 42
120.9999999999879
  3
STANDARD
100
AcDbAlignedDimension
 13
56.8302854785756
 23
432.7104454332752
 33
0.0
 14
177.8302854785635
 24
432.7104454332747
 34
0.0
100
AcDbRotatedDimension
1001
ACAD
1000
DSTYLE
1002
{
1070
    41
1040
2.0
1070
    42
1040
10.0
1070
    44
1040
0.0
1070
    73
1070
     0
1070
    74
1070
     0
1070
    77
1070
     1
1070
   140
1040
5.0
1070
   141
1040
0.0
1070
   146
1040
0.064286
1070
   147
1040
3.0
1070
   176
1070
    60
1070
   177
1070
    70
1070
   178
1070
    60
1070
   271
1070
     0
1070
   272
1070
     0
1070
   340
1005
4C
1070
   342
1005
4D
1002
}
  0
DIMENSION
  5
AD
330
2
100
AcDbEntity
  8
SUNPOU
100
AcDbDimension
  2
*D9
 10
28.55319308668823
 20
353.7104454332816
 30
0.0
 11
23.05319308668817
 21
404.7104454332814
 31
0.0
 70
    32
 71
     5
 42
101.9999999999998
  3
STANDARD
100
AcDbAlignedDimension
 13
80.33028547856957
 23
455.7104454332813
 33
0.0
 14
117.3302854785696
 24
353.7104454332816
 34
0.0
 50
90.0
100
AcDbRotatedDimension
1001
ACAD
1000
DSTYLE
1002
{
1070
    41
1040
2.0
1070
    42
1040
10.0
1070
    44
1040
0.0
1070
    73
1070
     0
1070
    74
1070
     0
1070
    77
1070
     1
1070
   140
1040
5.0
1070
   141
1040
0.0
1070
   146
1040
0.064286
1070
   147
1040
3.0
1070
   176
1070
    60
1070
   177
1070
    70
1070
   178
1070
    60
1070
   271
1070
     0
1070
   272
1070
     0
1070
   340
1005
4C
1070
   342
1005
4D
1002
}
  0
LINE
  5
BA
330
2
100
AcDbEntity
  8
KIJUN
100
AcDbLine
 10
56.83028547856969
 20
280.8350043044235
 30
0.0
 11
177.8302854785697
 21
280.8350043044235
 31
0.0
  0
LINE
  5
BE
330
2
100
AcDbEntity
  8
KIJUN
100
AcDbLine
 10
77.83853119475622
 20
108.8350043044234
 30
0.0
 11
156.822039762383
 21
108.8350043044234
 31
0.0
  0
LINE
  5
BF
330
2
100
AcDbEntity
  8
KIJUN
100
AcDbLine
 10
56.83028547856969
 20
280.8350043044235
 30
0.0
 11
56.83028547856946
 21
262.8350043044233
 31
0.0
  0
ARC
  5
C0
330
2
100
AcDbEntity
  8
KIJUN
100
AcDbCircle
 10
89.87023390606294
 20
352.0211155627332
 30
0.0
 40
95.10941401076449
100
AcDbArc
 50
249.6723125452435
 51
282.4814308992184
  0
ARC
  5
C1
330
2
100
AcDbEntity
  8
KIJUN
100
AcDbCircle
 10
94.23432565481574
 20
167.9689203969073
 30
0.0
 40
22.32293059754686
100
AcDbArc
 50
111.5651955350742
 51
201.7370824907024
  0
ARC
  5
C2
330
2
100
AcDbEntity
  8
KIJUN
100
AcDbCircle
 10
91.25239723039459
 20
145.2023637334354
 30
0.0
 40
22.92211175182491
100
AcDbArc
 50
140.7617444875087
 51
202.9080616976089
  0
ARC
  5
C3
330
2
100
AcDbEntity
  8
KIJUN
100
AcDbCircle
 10
105.8155393007659
 20
149.5749429590971
 30
0.0
 40
38.07409201527543
100
AcDbArc
 50
200.4377809277871
 51
237.9503284307694
  0
ARC
  5
C4
330
2
100
AcDbEntity
  8
KIJUN
100
AcDbCircle
 10
86.67877731185075
 20
119.0888302768952
 30
0.0
 40
2.079847483837871
100
AcDbArc
 50
239.121512368813
 51
324.3162476108385
  0
ARC
  5
C5
330
2
100
AcDbEntity
  8
KIJUN
100
AcDbCircle
 10
77.22786074721557
 20
145.041193584092
 30
0.0
 40
15.12732790551478
100
AcDbArc
 50
50.76061833177898
 51
104.2715295509299
  0
ARC
  5
C6
330
2
100
AcDbEntity
  8
KIJUN
100
AcDbCircle
 10
77.74636118538518
 20
148.7423747975121
 30
0.0
 40
12.08935749137165
100
AcDbArc
 50
7.383146380018732
 51
41.52805895047147
  0
ARC
  5
C7
330
2
100
AcDbEntity
  8
KIJUN
100
AcDbCircle
 10
58.35932161481918
 20
132.7403304026631
 30
0.0
 40
33.48862344153178
100
AcDbArc
 50
333.6487398667475
 51
349.1228462744586
  0
ARC
  5
C8
330
2
100
AcDbEntity
  8
KIJUN
100
AcDbCircle
 10
109.0102749729835
 20
130.8678595419396
 30
0.0
 40
19.04102195891753
100
AcDbArc
 50
171.2164312373687
 51
193.6381969920777
  0
ARC
  5
C9
330
2
100
AcDbEntity
  8
KIJUN
100
AcDbCircle
 10
-32.01969493866779
 20
138.6607242508135
 30
0.0
 40
122.3098584260756
100
AcDbArc
 50
357.7109045633453
 51
5.458728352844758
  0
ARC
  5
CA
330
2
100
AcDbEntity
  8
KIJUN
100
AcDbCircle
 10
53.90778813866768
 20
178.0175801568776
 30
0.0
 40
38.64176823120747
100
AcDbArc
 50
327.1931261153182
 51
10.66837283491326
  0
ARC
  5
CB
330
2
100
AcDbEntity
  8
KIJUN
100
AcDbCircle
 10
103.5200374127139
 20
166.2077566563618
 30
0.0
 40
27.3726576280512
100
AcDbArc
 50
133.5354422055938
 51
185.7362212029732
  0
ARC
  5
CC
330
2
100
AcDbEntity
  8
KIJUN
100
AcDbCircle
 10
72.72318745796798
 20
140.7776552458135
 30
0.0
 40
1.821787561155239
100
AcDbArc
 50
24.33719528682266
 51
181.2229322945638
  0
ARC
  5
CD
330
2
100
AcDbEntity
  8
KIJUN
100
AcDbCircle
 10
98.30322845262907
 20
141.5766008843195
 30
0.0
 40
27.41421932779347
100
AcDbArc
 50
181.7513335759425
 51
210.574726641155
  0
ARC
  5
CE
330
2
100
AcDbEntity
  8
KIJUN
100
AcDbCircle
 10
104.8811053882248
 20
146.5842363316272
 30
0.0
 40
30.91424535030525
100
AcDbArc
 50
189.412610820602
 51
226.0657738435592
  0
ARC
  5
CF
330
2
100
AcDbEntity
  8
KIJUN
100
AcDbCircle
 10
72.46009537987243
 20
146.2274631270686
 30
0.0
 40
1.936170953933764
100
AcDbArc
 50
38.43633922389877
 51
180.5158103948094
  0
ARC
  5
D0
330
2
100
AcDbEntity
  8
KIJUN
100
AcDbCircle
 10
64.74904226504526
 20
139.7299608909782
 30
0.0
 40
12.01901596121724
100
AcDbArc
 50
5.2348299585226
 51
39.84732192298004
  0
ARC
  5
D1
330
2
100
AcDbEntity
  8
KIJUN
100
AcDbCircle
 10
117.805688852625
 20
147.9224265476036
 30
0.0
 40
41.69598911186048
100
AcDbArc
 50
189.7983569538934
 51
214.4730041856942
  0
ARC
  5
D2
330
2
100
AcDbEntity
  8
KIJUN
100
AcDbCircle
 10
106.9305080048959
 20
145.97537093589
 30
0.0
 40
36.40726138019939
100
AcDbArc
 50
179.6306992733051
 51
188.2697570594613
  0
ARC
  5
D3
330
2
100
AcDbEntity
  8
KIJUN
100
AcDbCircle
 10
115.7416077507452
 20
117.6028655620121
 30
0.0
 40
38.90396642299432
100
AcDbArc
 50
170.196574103682
 51
193.0247488231027
  0
ARC
  5
D4
330
2
100
AcDbEntity
  8
KIJUN
100
AcDbCircle
 10
127.8197982085231
 20
110.441112954591
 30
0.0
 40
25.0543100461832
100
AcDbArc
 50
170.012660880727
 51
183.6754710640348
  0
ARC
  5
D5
330
2
100
AcDbEntity
  8
KIJUN
100
AcDbCircle
 10
41.70882109286043
 20
106.8085631121578
 30
0.0
 40
67.78377266676763
100
AcDbArc
 50
1.713150879525559
 51
6.834689038584637
  0
ARC
  5
D6
330
2
100
AcDbEntity
  8
KIJUN
100
AcDbCircle
 10
106.1771718328498
 20
108.287906928401
 30
0.0
 40
7.170924834836005
100
AcDbArc
 50
66.72349559339096
 51
115.0127784963642
  0
ARC
  5
D7
330
2
100
AcDbEntity
  8
KIJUN
100
AcDbCircle
 10
126.3603520525545
 20
115.4439299321747
 30
0.0
 40
34.22677877294383
100
AcDbArc
 50
180.1560322041385
 51
191.1332994853295
  0
ARC
  5
D8
330
2
100
AcDbEntity
  8
KIJUN
100
AcDbCircle
 10
32.53277083427179
 20
101.1666321544837
 30
0.0
 40
66.02389768033749
100
AcDbArc
 50
6.66969449336897
 51
11.70738876950432
  0
ARC
  5
D9
330
2
100
AcDbEntity
  8
KIJUN
100
AcDbCircle
 10
93.53713744285528
 20
107.7624713821644
 30
0.0
 40
7.716940441000857
100
AcDbArc
 50
61.80533433920983
 51
100.4783785017506
  0
ARC
  5
DA
330
2
100
AcDbEntity
  8
KIJUN
100
AcDbCircle
 10
119.5757353090248
 20
115.9589780315797
 30
0.0
 40
34.22677877294383
100
AcDbArc
 50
180.1560322041385
 51
192.0133942516629
  0
ARC
  5
DB
330
2
100
AcDbEntity
  8
KIJUN
100
AcDbCircle
 10
71.42166020095487
 20
109.142059608166
 30
0.0
 40
18.78906250372071
100
AcDbArc
 50
359.0636171357153
 51
17.92729414836516
  0
ARC
  5
DC
330
2
100
AcDbEntity
  8
KIJUN
100
AcDbCircle
 10
85.66967930114021
 20
108.4478293393394
 30
0.0
 40
7.42486453431908
100
AcDbArc
 50
60.74249917629109
 51
92.4747255032123
  0
ARC
  5
DD
330
2
100
AcDbEntity
  8
KIJUN
100
AcDbCircle
 10
92.68756295836174
 20
111.5450757822452
 30
0.0
 40
12.89590782580962
100
AcDbArc
 50
158.7114828525769
 51
192.131126629132
  0
ARC
  5
DE
330
2
100
AcDbEntity
  8
KIJUN
100
AcDbCircle
 10
65.50766983015273
 20
109.3467980547003
 30
0.0
 40
18.78906250372071
100
AcDbArc
 50
358.4391318497039
 51
17.92729414836516
  0
ARC
  5
DF
330
2
100
AcDbEntity
  8
KIJUN
100
AcDbCircle
 10
76.4508086518694
 20
101.8845554151803
 30
0.0
 40
14.95073473654055
100
AcDbArc
 50
62.36947091647159
 51
73.6016007253665
  0
ARC
  5
E0
330
2
100
AcDbEntity
  8
KIJUN
100
AcDbCircle
 10
117.9002988425559
 20
147.495368979551
 30
0.0
 40
13.33156136085788
100
AcDbArc
 50
57.70163373269455
 51
125.6415822131311
  0
ARC
  5
E1
330
2
100
AcDbEntity
  8
KIJUN
100
AcDbCircle
 10
116.4595775928791
 20
182.7722467040447
 30
0.0
 40
6.01720743861532
100
AcDbArc
 50
38.07563610205605
 51
136.6303828483179
  0
ARC
  5
E2
330
2
100
AcDbEntity
  8
KIJUN
100
AcDbCircle
 10
131.7430087635681
 20
171.2062115942867
 30
0.0
 40
25.15649845539961
100
AcDbArc
 50
141.3899795866701
 51
210.7877227248712
  0
ARC
  5
E3
330
2
100
AcDbEntity
  8
KIJUN
100
AcDbCircle
 10
115.6682403426845
 20
167.9407758248289
 30
0.0
 40
13.10473641178732
100
AcDbArc
 50
315.5532286506749
 51
8.663286448901946
  0
ARC
  5
E4
330
2
100
AcDbEntity
  8
KIJUN
100
AcDbCircle
 10
98.55871423144272
 20
166.3863611624699
 30
0.0
 40
30.27107778755509
100
AcDbArc
 50
6.69351649796672
 51
41.59732342534072
  0
ARC
  5
E5
330
2
100
AcDbEntity
  8
KIJUN
100
AcDbCircle
 10
157.8632872957762
 20
173.6945049966916
 30
0.0
 40
44.70283143016492
100
AcDbArc
 50
165.3199676834608
 51
191.1766954139427
  0
ARC
  5
E6
330
2
100
AcDbEntity
  8
KIJUN
100
AcDbCircle
 10
179.3613189599834
 20
179.5719577661689
 30
0.0
 40
60.77079036612994
100
AcDbArc
 50
175.1015167566183
 51
191.7348459946354
  0
ARC
  5
E7
330
2
100
AcDbEntity
  8
KIJUN
100
AcDbCircle
 10
118.3046641659439
 20
138.6033442967984
 30
0.0
 40
2.79663733445047
100
AcDbArc
 50
4.413204743852649
 51
184.6768293329337
  0
ARC
  5
E8
330
2
100
AcDbEntity
  8
KIJUN
100
AcDbCircle
 10
-994.582321001026
 20
223.0373295506683
 30
0.0
 40
1113.323362638825
100
AcDbArc
 50
354.6532837686208
 51
355.6387664287267
  0
ARC
  5
E9
330
2
100
AcDbEntity
  8
KIJUN
100
AcDbCircle
 10
72.32270434202309
 20
137.7679916255379
 30
0.0
 40
48.78161878272148
100
AcDbArc
 50
336.663577279531
 51
1.234005153450588
  0
ARC
  5
EA
330
2
100
AcDbEntity
  8
KIJUN
100
AcDbCircle
 10
115.6068631582516
 20
119.2532593325166
 30
0.0
 40
1.710346192203553
100
AcDbArc
 50
178.5961660591533
 51
331.7669394906531
  0
ARC
  5
EB
330
2
100
AcDbEntity
  8
KIJUN
100
AcDbCircle
 10
127.2821984894202
 20
143.432155631492
 30
0.0
 40
22.71717902909417
100
AcDbArc
 50
139.0211488069158
 51
183.2478111298009
  0
ARC
  5
EC
330
2
100
AcDbEntity
  8
KIJUN
100
AcDbCircle
 10
141.9267600907628
 20
145.5939689184235
 30
0.0
 40
37.48425089731534
100
AcDbArc
 50
185.2791303827335
 51
221.1079283988305
  0
ARC
  5
ED
330
2
100
AcDbEntity
  8
KIJUN
100
AcDbCircle
 10
108.7846053077115
 20
144.8093027830028
 30
0.0
 40
21.41142637448025
100
AcDbArc
 50
347.33542828526
 51
40.67378820452584
  0
ARC
  5
EE
330
2
100
AcDbEntity
  8
KIJUN
100
AcDbCircle
 10
84.6062604899572
 20
154.0085123419503
 30
0.0
 40
47.1617413291215
100
AcDbArc
 50
316.9560448185702
 51
342.8668729001127
  0
ARC
  5
EF
330
2
100
AcDbEntity
  8
KIJUN
100
AcDbCircle
 10
118.6052178534512
 20
143.6363520737329
 30
0.0
 40
4.02997536024378
100
AcDbArc
 50
5.444255214881271
 51
171.0858453538913
  0
ARC
  5
F0
330
2
100
AcDbEntity
  8
KIJUN
100
AcDbCircle
 10
206.5425228509882
 20
128.8774565427278
 30
0.0
 40
93.19698283743695
100
AcDbArc
 50
170.4991153283057
 51
184.8802645046601
  0
ARC
  5
F1
330
2
100
AcDbEntity
  8
KIJUN
100
AcDbCircle
 10
69.68357535384399
 20
141.0842823312009
 30
0.0
 40
53.01471261858031
100
AcDbArc
 50
338.6898009197301
 51
3.173006139185806
  0
ARC
  5
F2
330
2
100
AcDbEntity
  8
KIJUN
100
AcDbCircle
 10
166.4405904003602
 20
161.4575427405538
 30
0.0
 40
72.85264822362903
100
AcDbArc
 50
167.916059758941
 51
180.2341427535136
  0
ARC
  5
F3
330
2
100
AcDbEntity
  8
KIJUN
100
AcDbCircle
 10
167.0428687301439
 20
164.9909617694432
 30
0.0
 40
69.2835150438122
100
AcDbArc
 50
170.15895508229
 51
182.7793902211155
  0
ARC
  5
F4
330
2
100
AcDbEntity
  8
KIJUN
100
AcDbCircle
 10
164.3042788645299
 20
166.6477926586283
 30
0.0
 40
63.00597415622881
100
AcDbArc
 50
171.0243038338247
 51
183.3681662460097
  0
ARC
  5
F5
330
2
100
AcDbEntity
  8
KIJUN
100
AcDbCircle
 10
117.3302854785692
 20
224.2084758684049
 30
0.0
 40
35.62652843601848
100
AcDbArc
 50
78.82490931957168
 51
101.175090680415
  0
LINE
  5
F6
330
2
100
AcDbEntity
  8
KIJUN
100
AcDbLine
 10
177.8302854785697
 20
280.8350043044235
 30
0.0
 11
177.8302854785698
 21
262.8350043044233
 31
0.0
  0
ARC
  5
F7
330
2
100
AcDbEntity
  8
KIJUN
100
AcDbCircle
 10
144.7903370510764
 20
352.0211155627332
 30
0.0
 40
95.10941401076449
100
AcDbArc
 50
257.5185691007816
 51
290.3276874547701
  0
ARC
  5
F8
330
2
100
AcDbEntity
  8
KIJUN
100
AcDbCircle
 10
143.4904462741851
 20
165.686711228317
 30
0.0
 40
19.14460967263984
100
AcDbArc
 50
331.3811851926597
 51
52.76785035432155
  0
ARC
  5
F9
330
2
100
AcDbEntity
  8
KIJUN
100
AcDbCircle
 10
149.8126358281701
 20
143.7524116945163
 30
0.0
 40
16.51764965039971
100
AcDbArc
 50
333.1023199648579
 51
50.60365720470298
  0
ARC
  5
FA
330
2
100
AcDbEntity
  8
KIJUN
100
AcDbCircle
 10
140.010216726254
 20
143.1671288369969
 30
0.0
 40
25.48153500198254
100
AcDbArc
 50
298.5783019608375
 51
344.3187685781122
  0
ARC
  5
FB
330
2
100
AcDbEntity
  8
KIJUN
100
AcDbCircle
 10
149.8080422025354
 20
125.3026327930188
 30
0.0
 40
5.107027509105108
100
AcDbArc
 50
215.4024573260364
 51
297.9225236014843
  0
ARC
  5
FC
330
2
100
AcDbEntity
  8
KIJUN
100
AcDbCircle
 10
153.5756708490368
 20
130.5858624703283
 30
0.0
 40
26.78765749328144
100
AcDbArc
 50
75.47058688290954
 51
102.3117021601196
  0
ARC
  5
FD
330
2
100
AcDbEntity
  8
KIJUN
100
AcDbCircle
 10
181.3032153734807
 20
141.4205614714221
 30
0.0
 40
36.78884207314379
100
AcDbArc
 50
155.3616102468491
 51
180.4010078140121
  0
ARC
  5
FE
330
2
100
AcDbEntity
  8
KIJUN
100
AcDbCircle
 10
106.6154798509609
 20
137.9219601758192
 30
0.0
 40
38.03812945561144
100
AcDbArc
 50
347.5755575508411
 51
4.887938603490896
  0
ARC
  5
FF
330
2
100
AcDbEntity
  8
KIJUN
100
AcDbCircle
 10
167.9974764615828
 20
135.8042572407024
 30
0.0
 40
26.09209611410364
100
AcDbArc
 50
193.4271557757695
 51
211.0558253085561
  0
ARC
  5
100
330
2
100
AcDbEntity
  8
KIJUN
100
AcDbCircle
 10
149.2942956238436
 20
176.821616816991
 30
0.0
 40
7.090648078092465
100
AcDbArc
 50
35.40369397554201
 51
126.9096342458526
  0
ARC
  5
101
330
2
100
AcDbEntity
  8
KIJUN
100
AcDbCircle
 10
167.0758729398633
 20
171.8908238248558
 30
0.0
 40
24.45658970472127
100
AcDbArc
 50
154.314202097739
 51
218.2274460931128
  0
ARC
  5
102
330
2
100
AcDbEntity
  8
KIJUN
100
AcDbCircle
 10
135.9607491939024
 20
166.8392026421623
 30
0.0
 40
21.34990647938356
100
AcDbArc
 50
352.2293852550251
 51
44.14309416156553
  0
ARC
  5
103
330
2
100
AcDbEntity
  8
KIJUN
100
AcDbCircle
 10
161.9373834991713
 20
140.7776552458135
 30
0.0
 40
1.821787561155239
100
AcDbArc
 50
358.7770677054362
 51
155.6628047131773
  0
ARC
  5
104
330
2
100
AcDbEntity
  8
KIJUN
100
AcDbCircle
 10
136.3573425045102
 20
141.5766008843195
 30
0.0
 40
27.41421932779347
100
AcDbArc
 50
329.4252733588448
 51
358.2486664240574
  0
ARC
  5
105
330
2
100
AcDbEntity
  8
KIJUN
100
AcDbCircle
 10
129.7794655689145
 20
146.5842363316272
 30
0.0
 40
30.91424535030525
100
AcDbArc
 50
313.9342261564407
 51
350.587389179398
  0
ARC
  5
106
330
2
100
AcDbEntity
  8
KIJUN
100
AcDbCircle
 10
162.2004755772666
 20
146.2274631270686
 30
0.0
 40
1.936170953933764
100
AcDbArc
 50
359.4841896051905
 51
141.5636607761012
  0
ARC
  5
107
330
2
100
AcDbEntity
  8
KIJUN
100
AcDbCircle
 10
169.911528692094
 20
139.7299608909782
 30
0.0
 40
12.01901596121724
100
AcDbArc
 50
140.1526780770199
 51
174.7651700414774
  0
ARC
  5
108
330
2
100
AcDbEntity
  8
KIJUN
100
AcDbCircle
 10
116.8548821045142
 20
147.9224265476036
 30
0.0
 40
41.69598911186048
100
AcDbArc
 50
325.5269958143058
 51
350.2016430461067
  0
ARC
  5
109
330
2
100
AcDbEntity
  8
KIJUN
100
AcDbCircle
 10
127.7300629522434
 20
145.97537093589
 30
0.0
 40
36.40726138019939
100
AcDbArc
 50
351.7302429405387
 51
0.3693007266949016
  0
ARC
  5
10A
330
2
100
AcDbEntity
  8
KIJUN
100
AcDbCircle
 10
116.7536396147801
 20
168.4628107922519
 30
0.0
 40
21.03897393845894
100
AcDbArc
 50
2.36133906688
 51
30.20080816566947
  0
ARC
  5
10B
330
2
100
AcDbEntity
  8
KIJUN
100
AcDbCircle
 10
65.39272716888024
 20
161.9375902934065
 30
0.0
 40
69.96793220161345
100
AcDbArc
 50
6.842641604310646
 51
15.62537594971556
  0
ARC
  5
10C
330
2
100
AcDbEntity
  8
KIJUN
100
AcDbCircle
 10
73.22058203181041
 20
172.4326440748071
 30
0.0
 40
58.05647379431561
100
AcDbArc
 50
357.3864665795617
 51
10.37420162302929
  0
ARC
  5
10D
330
2
100
AcDbEntity
  8
KIJUN
100
AcDbCircle
 10
118.9189632063942
 20
117.6028655620121
 30
0.0
 40
38.90396642299432
100
AcDbArc
 50
346.9752511768973
 51
9.803425896317774
  0
ARC
  5
10E
330
2
100
AcDbEntity
  8
KIJUN
100
AcDbCircle
 10
99.72759687200971
 20
110.441112954591
 30
0.0
 40
25.0543100461832
100
AcDbArc
 50
356.3245289359652
 51
9.987339119272947
  0
ARC
  5
10F
330
2
100
AcDbEntity
  8
KIJUN
100
AcDbCircle
 10
183.1998938768365
 20
114.0372032352441
 30
0.0
 40
65.80095980419383
100
AcDbArc
 50
180.1013444780098
 51
184.5345147677311
  0
ARC
  5
110
330
2
100
AcDbEntity
  8
KIJUN
100
AcDbCircle
 10
121.5523142518735
 20
109.0803861417189
 30
0.0
 40
6.378045345903863
100
AcDbArc
 50
63.45931622290452
 51
130.6308845987466
  0
ARC
  5
111
330
2
100
AcDbEntity
  8
KIJUN
100
AcDbCircle
 10
313.2735354791828
 20
115.1828310573805
 30
0.0
 40
179.2129305892094
100
AcDbArc
 50
180.1494372635717
 51
182.0298746040085
  0
ARC
  5
112
330
2
100
AcDbEntity
  8
KIJUN
100
AcDbCircle
 10
146.5369446532259
 20
108.8451105937125
 30
0.0
 40
19.27873433809994
100
AcDbArc
 50
163.2288473109645
 51
180.0300355686803
  0
ARC
  5
113
330
2
100
AcDbEntity
  8
KIJUN
100
AcDbCircle
 10
131.3732846253542
 20
108.6539884135937
 30
0.0
 40
6.630674132910574
100
AcDbArc
 50
66.08517949418945
 51
119.7977992762202
  0
ARC
  5
114
330
2
100
AcDbEntity
  8
KIJUN
100
AcDbCircle
 10
124.5298130476721
 20
110.4473838504348
 30
0.0
 40
19.25627941025568
100
AcDbArc
 50
355.1968480279767
 51
11.74463982984252
  0
ARC
  5
115
330
2
100
AcDbEntity
  8
KIJUN
100
AcDbCircle
 10
212.6005384282952
 20
110.8326191055706
 30
0.0
 40
75.19714734743828
100
AcDbArc
 50
177.7441685994847
 51
181.5222434272668
  0
ARC
  5
116
330
2
100
AcDbEntity
  8
KIJUN
100
AcDbCircle
 10
141.2021647484687
 20
106.0420338321313
 30
0.0
 40
8.605866708356677
100
AcDbArc
 50
75.32077759196607
 51
115.7627186472852
  0
ARC
  5
117
330
2
100
AcDbEntity
  8
KIJUN
100
AcDbCircle
 10
85.4731598785753
 20
102.5439315387348
 30
0.0
 40
64.74610611632384
100
AcDbArc
 50
5.57595721923968
 51
11.0580942226649
  0
ARC
  5
118
330
2
100
AcDbEntity
  8
KIJUN
100
AcDbCircle
 10
164.0153301038352
 20
109.1321585267834
 30
0.0
 40
18.78906250372071
100
AcDbArc
 50
162.0727058516344
 51
180.9061863855425
  0
ARC
  5
119
330
2
100
AcDbEntity
  8
KIJUN
100
AcDbCircle
 10
147.7462315995341
 20
104.6003457954354
 30
0.0
 40
10.43980780139317
100
AcDbArc
 50
83.00766053048695
 51
98.85871956951985
  0
ARC
  5
11A
330
2
100
AcDbEntity
  8
KIJUN
100
AcDbCircle
 10
125.3753591792405
 20
107.3999870444174
 30
0.0
 40
29.11549281662527
100
AcDbArc
 50
2.825085531100894
 51
12.76882363338429
  0
ARC
  5
11B
330
2
100
AcDbEntity
  8
KIJUN
100
AcDbCircle
 10
169.5839923811734
 20
108.1688007038991
 30
0.0
 40
18.78906250372071
100
AcDbArc
 50
162.0727058516344
 51
177.9680382062819
  0
ARC
  5
11C
330
2
100
AcDbEntity
  8
KIJUN
100
AcDbCircle
 10
152.6183075658258
 20
111.7690619362322
 30
0.0
 40
2.365694397497673
100
AcDbArc
 50
60.84481328964013
 51
112.6525716069134
  0
ARC
  5
11D
330
2
100
AcDbEntity
  8
KIJUN
100
AcDbCircle
 10
234.5035148770521
 20
-2362.001222680798
 30
0.0
 40
2492.5423325529
100
AcDbArc
 50
92.88244976831611
 51
93.31189499463265
  0
ARC
  5
11E
330
2
100
AcDbEntity
  8
KIJUN
100
AcDbCircle
 10
141.3890310333274
 20
-146.6909435388208
 30
0.0
 40
276.4391174355144
100
AcDbArc
 50
89.50800239886117
 51
93.45189182171615
  0
ARC
  5
11F
330
2
100
AcDbEntity
  8
KIJUN
100
AcDbCircle
 10
97.08644023717676
 20
196.2249297168733
 30
0.0
 40
13.39486113849405
100
AcDbArc
 50
153.9094939854161
 51
214.028449709613
  0
ARC
  5
120
330
2
100
AcDbEntity
  8
KIJUN
100
AcDbCircle
 10
97.87019409157563
 20
190.3038483419695
 30
0.0
 40
11.98874900058698
100
AcDbArc
 50
141.1489800849853
 51
187.5477109971191
  0
ARC
  5
121
330
2
100
AcDbEntity
  8
KIJUN
100
AcDbCircle
 10
77.58608558478602
 20
211.742085120299
 30
0.0
 40
24.49784354664496
100
AcDbArc
 50
290.0509715127667
 51
319.421794626943
  0
ARC
  5
122
330
2
100
AcDbEntity
  8
KIJUN
100
AcDbCircle
 10
107.3758862494551
 20
191.8768609251918
 30
0.0
 40
11.85358219786095
100
AcDbArc
 50
160.6387550888213
 51
225.1816804466393
  0
ARC
  5
123
330
2
100
AcDbEntity
  8
KIJUN
100
AcDbCircle
 10
107.0532588551539
 20
185.3449538751633
 30
0.0
 40
8.248749169053427
100
AcDbArc
 50
113.5287578401862
 51
193.1484083336187
  0
ARC
  5
124
330
2
100
AcDbEntity
  8
KIJUN
100
AcDbCircle
 10
100.9094106582939
 20
201.5128429230564
 30
0.0
 40
9.064904704786416
100
AcDbArc
 50
288.3303536725288
 51
358.3349065715335
  0
ARC
  5
125
330
2
100
AcDbEntity
  8
KIJUN
100
AcDbCircle
 10
109.5405641328764
 20
180.8647128102487
 30
0.0
 40
9.172712003576522
100
AcDbArc
 50
107.9463996668776
 51
157.1644956512125
  0
ARC
  5
126
330
2
100
AcDbEntity
  8
KIJUN
100
AcDbCircle
 10
104.5053932974878
 20
195.7871999596842
 30
0.0
 40
6.578004520575597
100
AcDbArc
 50
289.6204102578542
 51
332.8561280367158
  0
ARC
  5
127
330
2
100
AcDbEntity
  8
KIJUN
100
AcDbCircle
 10
99.59104763019411
 20
184.9466045836738
 30
0.0
 40
1.584233664075685
100
AcDbArc
 50
248.9011355045675
 51
340.7585553430883
  0
ARC
  5
128
330
2
100
AcDbEntity
  8
KIJUN
100
AcDbCircle
 10
122.345978790329
 20
205.3536556452353
 30
0.0
 40
17.3675557523015
100
AcDbArc
 50
226.3541900498091
 51
253.2140682780064
  0
ARC
  5
129
330
2
100
AcDbEntity
  8
KIJUN
100
AcDbCircle
 10
114.7379964290689
 20
192.3984429895483
 30
0.0
 40
7.116505675514718
100
AcDbArc
 50
317.8801450959713
 51
35.30761439573978
  0
ARC
  5
12A
330
2
100
AcDbEntity
  8
KIJUN
100
AcDbCircle
 10
125.7141774788591
 20
202.7186183430951
 30
0.0
 40
8.077316959535325
100
AcDbArc
 50
172.38435480357
 51
230.215593461517
  0
ARC
  5
12B
330
2
100
AcDbEntity
  8
KIJUN
100
AcDbCircle
 10
137.3632736739874
 20
218.9853323549252
 30
0.0
 40
24.84454885272963
100
AcDbArc
 50
217.7091457651512
 51
260.5226835367103
  0
ARC
  5
12C
330
2
100
AcDbEntity
  8
KIJUN
100
AcDbCircle
 10
132.9428867443248
 20
199.7472559725741
 30
0.0
 40
14.56257110847582
100
AcDbArc
 50
218.968530032019
 51
270.9059756065769
  0
ARC
  5
12D
330
2
100
AcDbEntity
  8
KIJUN
100
AcDbCircle
 10
137.9127834145042
 20
211.9038548835735
 30
0.0
 40
14.08223045592705
100
AcDbArc
 50
198.3412322962775
 51
243.2428365224099
  0
ARC
  5
12E
330
2
100
AcDbEntity
  8
KIJUN
100
AcDbCircle
 10
146.5266314622686
 20
218.9795174524509
 30
0.0
 40
24.69289668717284
100
AcDbArc
 50
232.7285768141408
 51
271.8487394993466
  0
ARC
  5
12F
330
2
100
AcDbEntity
  8
KIJUN
100
AcDbCircle
 10
122.5691549993922
 20
188.9909405896221
 30
0.0
 40
25.31690516687086
100
AcDbArc
 50
347.7736987679563
 51
12.1037960896971
  0
ARC
  5
130
330
2
100
AcDbEntity
  8
KIJUN
100
AcDbCircle
 10
165.7813834966587
 20
221.2094809943917
 30
0.0
 40
32.6320580905139
100
AcDbArc
 50
203.9692044944782
 51
235.5529617225373
  0
ARC
  5
131
330
2
100
AcDbEntity
  8
KIJUN
100
AcDbCircle
 10
49.45063457180163
 20
220.0296096332741
 30
0.0
 40
39.85825786430675
100
AcDbArc
 50
333.2924748030022
 51
33.15491507450662
  0
ARC
  5
132
330
2
100
AcDbEntity
  8
KIJUN
100
AcDbCircle
 10
33.97062018141298
 20
207.9726466937662
 30
0.0
 40
59.43435521731263
100
AcDbArc
 50
34.72447145437486
 51
67.3798239328007
  0
ARC
  5
133
330
2
100
AcDbEntity
  8
KIJUN
100
AcDbCircle
 10
123.222880516979
 20
183.7324776799747
 30
0.0
 40
31.97403473209472
100
AcDbArc
 50
354.9706996107298
 51
30.38456684219334
  0
ARC
  5
134
330
2
100
AcDbEntity
  8
KIJUN
100
AcDbCircle
 10
185.2099363853376
 20
220.0296096332741
 30
0.0
 40
39.85825786430675
100
AcDbArc
 50
146.8450849254934
 51
210.3250231217293
  0
ARC
  5
135
330
2
100
AcDbEntity
  8
KIJUN
100
AcDbCircle
 10
200.6899507757264
 20
207.9726466937662
 30
0.0
 40
59.43435521731263
100
AcDbArc
 50
112.6201760671992
 51
145.2755285456196
  0
ARC
  5
136
330
2
100
AcDbEntity
  8
KIJUN
100
AcDbCircle
 10
45.68760505445078
 20
223.9808039761421
 30
0.0
 40
50.19899182684579
100
AcDbArc
 50
328.5969448750159
 51
1.406163516489751
  0
ARC
  5
137
330
2
100
AcDbEntity
  8
KIJUN
100
AcDbCircle
 10
29.472629842223
 20
230.0310763075303
 30
0.0
 40
74.98584666136295
100
AcDbArc
 50
332.844144566317
 51
0.5727378675652098
  0
ARC
  5
138
330
2
100
AcDbEntity
  8
KIJUN
100
AcDbCircle
 10
2117.20554385067
 20
161.3881772578961
 30
0.0
 40
2007.630815429358
100
AcDbArc
 50
178.0268093464847
 51
178.8623245496364
  0
ARC
  5
139
330
2
100
AcDbEntity
  8
KIJUN
100
AcDbCircle
 10
8.76012550587211
 20
192.3637076561759
 30
0.0
 40
101.5996736220664
100
AcDbArc
 50
0.2382260575628594
 51
5.017401209412261
  0
ARC
  5
13A
330
2
100
AcDbEntity
  8
KIJUN
100
AcDbCircle
 10
224.1667568482681
 20
223.302303773551
 30
0.0
 40
108.232203599968
100
AcDbArc
 50
176.2050037775119
 51
190.3866726458432
  0
ARC
  5
13B
330
2
100
AcDbEntity
  8
KIJUN
100
AcDbCircle
 10
84.02094837981048
 20
178.8090551235361
 30
0.0
 40
10.11267239861033
100
AcDbArc
 50
38.98498327508725
 51
78.79918591884801
  0
ARC
  5
13C
330
2
100
AcDbEntity
  8
KIJUN
100
AcDbCircle
 10
79.26225724339639
 20
204.1484125060799
 30
0.0
 40
22.79006242566425
100
AcDbArc
 50
303.6228020248787
 51
317.14910029188
  0
ARC
  5
13D
330
2
100
AcDbEntity
  8
KIJUN
100
AcDbCircle
 10
179.7576473215992
 20
225.3364573080891
 30
0.0
 40
58.0297579792607
100
AcDbArc
 50
175.0006359331911
 51
197.9291654063654
  0
ARC
  5
13E
330
2
100
AcDbEntity
  8
KIJUN
100
AcDbCircle
 10
181.0860332122492
 20
232.0582975592046
 30
0.0
 40
51.15785218231422
100
AcDbArc
 50
181.9846990670608
 51
208.1120487406321
  0
ARC
  5
13F
330
2
100
AcDbEntity
  8
KIJUN
100
AcDbCircle
 10
148.2403735985839
 20
200.2737041072166
 30
0.0
 40
18.06892977199461
100
AcDbArc
 50
226.098393593566
 51
259.7849594492525
  0
ARC
  5
140
330
2
100
AcDbEntity
  8
KIJUN
100
AcDbCircle
 10
126.6777761884658
 20
194.8913330769943
 30
0.0
 40
6.607488177651576
100
AcDbArc
 50
356.4299278019289
 51
42.19757990608282
  0
ARC
  5
141
330
2
100
AcDbEntity
  8
KIJUN
100
AcDbCircle
 10
123.0036678931762
 20
189.6462318991366
 30
0.0
 40
12.93044107616764
100
AcDbArc
 50
349.5793885713042
 51
48.49299535614409
  0
ARC
  5
142
330
2
100
AcDbEntity
  8
KIJUN
100
AcDbCircle
 10
129.4068825010162
 20
192.3011640593834
 30
0.0
 40
8.050037036955687
100
AcDbArc
 50
297.8952439437617
 51
321.6595830592174
  0
ARC
  5
143
330
2
100
AcDbEntity
  8
KIJUN
100
AcDbCircle
 10
188.1148584336939
 20
231.0174756807342
 30
0.0
 40
51.15785218231422
100
AcDbArc
 50
181.9846990670608
 51
222.8847967976427
  0
LINE
  5
144
330
2
100
AcDbEntity
  8
KIJUN
100
AcDbLine
 10
244.7706367162139
 20
280.8350043044235
 30
0.0
 11
319.7706367162142
 21
280.8350043044235
 31
0.0
  0
LINE
  5
145
330
2
100
AcDbEntity
  8
KIJUN
100
AcDbLine
 10
232.7706367162138
 20
108.8350043044234
 30
0.0
 11
311.7706367162139
 21
108.8350043044234
 31
0.0
  0
LINE
  5
146
330
2
100
AcDbEntity
  8
KIJUN
100
AcDbLine
 10
319.7706367162142
 20
280.8350043044235
 30
0.0
 11
319.7706367162142
 21
189.127640046897
 31
0.0
  0
LINE
  5
147
330
2
100
AcDbEntity
  8
KIJUN
100
AcDbLine
 10
244.7706367162139
 20
280.8350043044235
 30
0.0
 11
244.7706367162139
 21
259.8350043044233
 31
0.0
  0
LINE
  5
148
330
2
100
AcDbEntity
  8
KIJUN
100
AcDbLine
 10
296.7706367162141
 20
280.8350043044235
 30
0.0
 11
296.7706367162141
 21
262.8350043044224
 31
0.0
  0
ARC
  5
149
330
2
100
AcDbEntity
  8
KIJUN
100
AcDbCircle
 10
319.7861298574546
 20
297.1716246256457
 30
0.0
 40
41.33662322467006
100
AcDbArc
 50
236.1664485727365
 51
269.9785252989628
  0
ARC
  5
14A
330
2
100
AcDbEntity
  8
KIJUN
100
AcDbCircle
 10
267.3001527304228
 20
321.4900600581523
 30
0.0
 40
65.64240239227912
100
AcDbArc
 50
249.9270745292303
 51
296.6766568196404
  0
ARC
  5
14B
330
2
100
AcDbEntity
  8
KIJUN
100
AcDbCircle
 10
259.0637591722402
 20
229.8350043044233
 30
0.0
 40
14.70687754397386
100
AcDbArc
 50
338.0852371086997
 51
54.90766008241848
  0
ARC
  5
14C
330
2
100
AcDbEntity
  8
KIJUN
100
AcDbCircle
 10
-671.6621352415304
 20
-923.8822816109129
 30
0.0
 40
1497.008897265786
100
AcDbArc
 50
51.14353336445558
 51
52.25299831926193
  0
LINE
  5
14D
330
2
100
AcDbEntity
  8
KIJUN
100
AcDbLine
 10
241.409212994948
 20
126.8350043044234
 30
0.0
 11
293.6070237327472
 21
126.8350043044234
 31
0.0
  0
LINE
  5
14E
330
2
100
AcDbEntity
  8
KIJUN
100
AcDbLine
 10
305.6104230628272
 20
126.8350043044234
 30
0.0
 11
311.7706367162142
 21
126.8350043044234
 31
0.0
  0
ARC
  5
14F
330
2
100
AcDbEntity
  8
KIJUN
100
AcDbCircle
 10
303.9474989067637
 20
145.2860436230024
 30
0.0
 40
14.79532110763227
100
AcDbArc
 50
51.36212344264773
 51
108.7177766583607
  0
ARC
  5
150
330
2
100
AcDbEntity
  8
KIJUN
100
AcDbCircle
 10
295.4181721714966
 20
160.7519800471079
 30
0.0
 40
30.60112328267817
100
AcDbArc
 50
49.46674205121789
 51
68.34326587830092
  0
ARC
  5
151
330
2
100
AcDbEntity
  8
KIJUN
100
AcDbCircle
 10
317.306330157942
 20
170.639859774091
 30
0.0
 40
21.36522669287497
100
AcDbArc
 50
119.7289588716182
 51
212.0606184935313
  0
ARC
  5
152
330
2
100
AcDbEntity
  8
KIJUN
100
AcDbCircle
 10
311.0962997225245
 20
162.5220446487937
 30
0.0
 40
6.051390493823667
100
AcDbArc
 50
290.1980402950027
 51
325.3630009835877
  0
ARC
  5
153
330
2
100
AcDbEntity
  8
KIJUN
100
AcDbCircle
 10
296.5708605015263
 20
170.9557912917689
 30
0.0
 40
22.83401565223085
100
AcDbArc
 50
328.6691626428373
 51
34.86799721620537
  0
ARC
  5
154
330
2
100
AcDbEntity
  8
KIJUN
100
AcDbCircle
 10
410.5818974420332
 20
169.6577291784914
 30
0.0
 40
103.9970616574246
100
AcDbArc
 50
173.426828774137
 51
182.8003110101449
  0
ARC
  5
155
330
2
100
AcDbEntity
  8
KIJUN
100
AcDbCircle
 10
214.0442965065972
 20
174.2716086235575
 30
0.0
 40
97.60560201034143
100
AcDbArc
 50
355.836917786151
 51
3.887249157075855
  0
ARC
  5
156
330
2
100
AcDbEntity
  8
KIJUN
100
AcDbCircle
 10
306.372347839969
 20
144.042745316826
 30
0.0
 40
2.538625629781159
100
AcDbArc
 50
337.3535634700565
 51
161.1857592300407
  0
ARC
  5
157
330
2
100
AcDbEntity
  8
KIJUN
100
AcDbCircle
 10
207.0232604551604
 20
173.4018181910774
 30
0.0
 40
101.0598792309963
100
AcDbArc
 50
330.5152402359532
 51
343.5958806647363
  0
ARC
  5
158
330
2
100
AcDbEntity
  8
KIJUN
100
AcDbCircle
 10
206.3776184269459
 20
180.4326676008788
 30
0.0
 40
108.9463718321559
100
AcDbArc
 50
327.5079324993521
 51
339.9409169887408
  0
ARC
  5
159
330
2
100
AcDbEntity
  8
KIJUN
100
AcDbCircle
 10
296.8167623714864
 20
123.1294593626448
 30
0.0
 40
1.898155079204345
100
AcDbArc
 50
163.7395496198684
 51
319.9683785825498
  0
ARC
  5
15A
330
2
100
AcDbEntity
  8
KIJUN
100
AcDbCircle
 10
307.6265414382825
 20
146.3401445444643
 30
0.0
 40
15.45774179628159
100
AcDbArc
 50
123.0356866661318
 51
168.7171882600309
  0
ARC
  5
15B
330
2
100
AcDbEntity
  8
KIJUN
100
AcDbCircle
 10
337.8472937670713
 20
140.8499161428679
 30
0.0
 40
46.17162986164411
100
AcDbArc
 50
169.373193729577
 51
201.8565552933238
  0
ARC
  5
15C
330
2
100
AcDbEntity
  8
KIJUN
100
AcDbCircle
 10
297.6394478251311
 20
148.3808453785496
 30
0.0
 40
17.69995795478362
100
AcDbArc
 50
351.9873309724886
 51
28.55987285895619
  0
ARC
  5
15D
330
2
100
AcDbEntity
  8
KIJUN
100
AcDbCircle
 10
284.6600788148565
 20
149.4372582395188
 30
0.0
 40
30.70935164972126
100
AcDbArc
 50
296.307600912002
 51
353.4112669064498
  0
ARC
  5
15E
330
2
100
AcDbEntity
  8
KIJUN
100
AcDbCircle
 10
307.7478964294649
 20
147.2852637288128
 30
0.0
 40
3.467773534409363
100
AcDbArc
 50
356.4141695209983
 51
156.9385148532898
  0
ARC
  5
15F
330
2
100
AcDbEntity
  8
KIJUN
100
AcDbCircle
 10
36.89487393201142
 20
244.2287512569369
 30
0.0
 40
284.2176244651683
100
AcDbArc
 50
335.8823006715169
 51
340.3478105194894
  0
ARC
  5
160
330
2
100
AcDbEntity
  8
KIJUN
100
AcDbCircle
 10
268.1017853866999
 20
152.4888630774145
 30
0.0
 40
43.44655746550735
100
AcDbArc
 50
322.5013174660918
 51
352.8329784544462
  0
ARC
  5
161
330
2
100
AcDbEntity
  8
KIJUN
100
AcDbCircle
 10
253.2262202498651
 20
166.1666648927234
 30
0.0
 40
21.0087126088719
100
AcDbArc
 50
95.31111533286026
 51
199.4754570921357
  0
ARC
  5
162
330
2
100
AcDbEntity
  8
KIJUN
100
AcDbCircle
 10
241.1517439449326
 20
148.0347446084925
 30
0.0
 40
13.55025740510561
100
AcDbArc
 50
124.7943065430948
 51
162.5380379768416
  0
ARC
  5
163
330
2
100
AcDbEntity
  8
KIJUN
100
AcDbCircle
 10
244.2082902924505
 20
147.3609734780604
 30
0.0
 40
16.67038682480998
100
AcDbArc
 50
163.4814091778505
 51
208.868283341427
  0
ARC
  5
164
330
2
100
AcDbEntity
  8
KIJUN
100
AcDbCircle
 10
237.2667030768433
 20
122.5317226985058
 30
0.0
 40
1.826859054189388
100
AcDbArc
 50
215.719822044246
 51
359.8372073882612
  0
ARC
  5
165
330
2
100
AcDbEntity
  8
KIJUN
100
AcDbCircle
 10
237.386020791909
 20
131.7683317019741
 30
0.0
 40
27.67963704741826
100
AcDbArc
 50
71.03941701792653
 51
98.23883766346137
  0
ARC
  5
166
330
2
100
AcDbEntity
  8
KIJUN
100
AcDbCircle
 10
249.2659792760692
 20
119.8357277474695
 30
0.0
 40
10.5222929400814
100
AcDbArc
 50
138.3034429537407
 51
165.1835016403703
  0
ARC
  5
167
330
2
100
AcDbEntity
  8
KIJUN
100
AcDbCircle
 10
233.4491125822643
 20
138.3299980711831
 30
0.0
 40
13.98206280481704
100
AcDbArc
 50
304.7019855792087
 51
349.9527714264017
  0
ARC
  5
168
330
2
100
AcDbEntity
  8
KIJUN
100
AcDbCircle
 10
218.0322363655357
 20
145.8265828468466
 30
0.0
 40
30.82949638809721
100
AcDbArc
 50
341.1988125967358
 51
23.14849508195467
  0
ARC
  5
169
330
2
100
AcDbEntity
  8
KIJUN
100
AcDbCircle
 10
236.6970417153066
 20
175.1689759164847
 30
0.0
 40
19.75800024748891
100
AcDbArc
 50
299.344441301691
 51
21.55690064729743
  0
ARC
  5
16A
330
2
100
AcDbEntity
  8
KIJUN
100
AcDbCircle
 10
255.9913818874413
 20
164.5170452331778
 30
0.0
 40
21.759192712989
100
AcDbArc
 50
123.5229414058693
 51
180.979238656573
  0
ARC
  5
16B
330
2
100
AcDbEntity
  8
KIJUN
100
AcDbCircle
 10
232.086498705159
 20
145.6163142813628
 30
0.0
 40
1.847441054577
100
AcDbArc
 50
357.0599654207727
 51
150.6447210989494
  0
ARC
  5
16C
330
2
100
AcDbEntity
  8
KIJUN
100
AcDbCircle
 10
258.8877845989363
 20
139.4492969146299
 30
0.0
 40
29.27860349229926
100
AcDbArc
 50
166.0210923867316
 51
217.8968310098241
  0
ARC
  5
16D
330
2
100
AcDbEntity
  8
KIJUN
100
AcDbCircle
 10
294.2028232012917
 20
148.6760890721225
 30
0.0
 40
60.35381093354931
100
AcDbArc
 50
182.9960615794048
 51
201.6428631915554
  0
ARC
  5
16E
330
2
100
AcDbEntity
  8
KIJUN
100
AcDbCircle
 10
231.6475174009119
 20
148.7791852654338
 30
0.0
 40
1.773446541504664
100
AcDbArc
 50
37.92084008491465
 51
168.3272165070856
  0
ARC
  5
16F
330
2
100
AcDbEntity
  8
KIJUN
100
AcDbCircle
 10
224.5953741565198
 20
143.1171997192788
 30
0.0
 40
10.81711436509551
100
AcDbArc
 50
4.010009479336081
 51
38.62250144380058
  0
ARC
  5
170
330
2
100
AcDbEntity
  8
KIJUN
100
AcDbCircle
 10
272.4930522249169
 20
149.4680319943572
 30
0.0
 40
37.52639020067443
100
AcDbArc
 50
188.5735364747082
 51
198.8778416225155
  0
ARC
  5
171
330
2
100
AcDbEntity
  8
KIJUN
100
AcDbCircle
 10
244.2987434335271
 20
144.8505258684314
 30
0.0
 40
15.01322085149176
100
AcDbArc
 50
163.4065137272748
 51
193.1161044459828
  0
ARC
  5
172
330
2
100
AcDbEntity
  8
KIJUN
100
AcDbCircle
 10
281.1271979968331
 20
182.758786899364
 30
0.0
 40
30.15756807539508
100
AcDbArc
 50
171.7519070087836
 51
178.9405162273098
  0
ARC
  5
173
330
2
100
AcDbEntity
  8
KIJUN
100
AcDbCircle
 10
255.2095973393192
 20
192.9614185813591
 30
0.0
 40
10.53374379148574
100
AcDbArc
 50
246.2952672828044
 51
269.257163591835
  0
ARC
  5
174
330
2
100
AcDbEntity
  8
KIJUN
100
AcDbCircle
 10
254.053098336288
 20
167.7769262384938
 30
0.0
 40
14.65034267541069
100
AcDbArc
 50
116.2663008091237
 51
193.9381053471396
  0
ARC
  5
175
330
2
100
AcDbEntity
  8
KIJUN
100
AcDbCircle
 10
247.5221925515343
 20
161.7953025834424
 30
0.0
 40
23.72828707412199
100
AcDbArc
 50
97.00919191313431
 51
174.1740645333562
  0
ARC
  5
176
330
2
100
AcDbEntity
  8
KIJUN
100
AcDbCircle
 10
230.1787834161689
 20
164.0261275823145
 30
0.0
 40
6.264840303860133
100
AcDbArc
 50
178.3741184477726
 51
228.6894030613334
  0
ARC
  5
177
330
2
100
AcDbEntity
  8
KIJUN
100
AcDbCircle
 10
237.5848334528963
 20
195.9579560455579
 30
0.0
 40
38.41257799279123
100
AcDbArc
 50
252.5143246242314
 51
261.3859805358051
  0
ARC
  5
178
330
2
100
AcDbEntity
  8
KIJUN
100
AcDbCircle
 10
225.2655626572771
 20
152.5486039632584
 30
0.0
 40
6.816232138293421
100
AcDbArc
 50
83.44986328075817
 51
165.8329881046898
  0
ARC
  5
179
330
2
100
AcDbEntity
  8
KIJUN
100
AcDbCircle
 10
256.7591838600873
 20
145.9523268731597
 30
0.0
 40
38.98854714387339
100
AcDbArc
 50
167.7619621316413
 51
226.6839892959882
  0
ARC
  5
17A
330
2
100
AcDbEntity
  8
KIJUN
100
AcDbCircle
 10
237.8640741308244
 20
133.6803474826258
 30
0.0
 40
20.09343741461024
100
AcDbArc
 50
165.2486653066302
 51
211.8248072423749
  0
ARC
  5
17B
330
2
100
AcDbEntity
  8
KIJUN
100
AcDbCircle
 10
233.6969537978453
 20
131.4223355322748
 30
0.0
 40
15.36461106192354
100
AcDbArc
 50
212.8647872744984
 51
256.3323635043291
  0
ARC
  5
17C
330
2
100
AcDbEntity
  8
KIJUN
100
AcDbCircle
 10
298.4789863765374
 20
117.8350043044236
 30
0.0
 40
16.05203939542346
100
AcDbArc
 50
325.8974103132175
 51
34.10258968678237
  0
ARC
  5
17D
330
2
100
AcDbEntity
  8
KIJUN
100
AcDbCircle
 10
246.0622870558907
 20
117.8350043044236
 30
0.0
 40
16.05203939542345
100
AcDbArc
 50
147.0357587285706
 51
214.1025896867879
  0
ARC
  5
17E
330
2
100
AcDbEntity
  8
KIJUN
100
AcDbCircle
 10
290.4306885001258
 20
112.1199756137027
 30
0.0
 40
30.01621102486289
100
AcDbArc
 50
169.7148170398377
 51
186.2830296142643
  0
ARC
  5
17F
330
2
100
AcDbEntity
  8
KIJUN
100
AcDbCircle
 10
192.7602655900813
 20
108.5607468518167
 30
0.0
 40
75.50800772285945
100
AcDbArc
 50
0.2081081140861042
 51
5.32597881686572
  0
ARC
  5
180
330
2
100
AcDbEntity
  8
KIJUN
100
AcDbCircle
 10
263.5790724761782
 20
113.4237504778466
 30
0.0
 40
4.862313221429751
100
AcDbArc
 50
26.18772265255144
 51
123.4799552303798
  0
ARC
  5
181
330
2
100
AcDbEntity
  8
KIJUN
100
AcDbCircle
 10
319.6696284060542
 20
110.5787809325691
 30
0.0
 40
73.65712594400381
100
AcDbArc
 50
175.7202419286793
 51
181.3565608911948
  0
ARC
  5
182
330
2
100
AcDbEntity
  8
KIJUN
100
AcDbCircle
 10
229.1635812541422
 20
108.4969087087622
 30
0.0
 40
23.33165870602281
100
AcDbArc
 50
0.8302936779208486
 51
19.25987429118691
  0
ARC
  5
183
330
2
100
AcDbEntity
  8
KIJUN
100
AcDbCircle
 10
248.8958506638684
 20
107.9943004552211
 30
0.0
 40
8.513404084263481
100
AcDbArc
 50
74.37103975547329
 51
108.3341355142354
  0
ARC
  5
184
330
2
100
AcDbEntity
  8
KIJUN
100
AcDbCircle
 10
287.0246673086418
 20
116.1132998987995
 30
0.0
 40
48.6418568478528
100
AcDbArc
 50
181.4713732224672
 51
188.6055024719823
  0
ARC
  5
185
330
2
100
AcDbEntity
  8
KIJUN
100
AcDbCircle
 10
227.9035377972558
 20
110.7501063309773
 30
0.0
 40
16.11994727502836
100
AcDbArc
 50
353.1769605782347
 51
16.98390534176364
  0
ARC
  5
186
330
2
100
AcDbEntity
  8
KIJUN
100
AcDbCircle
 10
241.4830107546911
 20
110.000931913247
 30
0.0
 40
5.758853923205558
100
AcDbArc
 50
71.39377994572574
 51
122.3813110549937
  0
ARC
  5
187
330
2
100
AcDbEntity
  8
KIJUN
100
AcDbCircle
 10
280.8662286703167
 20
114.0240393483988
 30
0.0
 40
46.92200427816113
100
AcDbArc
 50
178.7838017031445
 51
186.3492423131272
  0
ARC
  5
188
330
2
100
AcDbEntity
  8
KIJUN
100
AcDbCircle
 10
208.538085345777
 20
107.5683618115755
 30
0.0
 40
28.85946101910802
100
AcDbArc
 50
2.515521313051273
 51
15.03164583144707
  0
ARC
  5
189
330
2
100
AcDbEntity
  8
KIJUN
100
AcDbCircle
 10
235.1980459043649
 20
113.8803639506535
 30
0.0
 40
1.686522269576353
100
AcDbArc
 50
44.05739471716472
 51
137.490768686321
  0
ARC
  5
18A
330
2
100
AcDbEntity
  8
KIJUN
100
AcDbCircle
 10
224.4187884722753
 20
108.8286866453991
 30
0.0
 40
58.70311069881854
100
AcDbArc
 50
0.0061662013297216
 51
5.824811502159454
  0
ARC
  5
18B
330
2
100
AcDbEntity
  8
KIJUN
100
AcDbCircle
 10
300.1365501930091
 20
113.0987835342828
 30
0.0
 40
24.8327002472645
100
AcDbArc
 50
172.8060084523334
 51
189.8866861418827
  0
ARC
  5
18C
330
2
100
AcDbEntity
  8
KIJUN
100
AcDbCircle
 10
278.6746646088454
 20
113.0045050576474
 30
0.0
 40
4.510952230126534
100
AcDbArc
 50
23.26548600192894
 51
134.7419678529676
  0
ARC
  5
18D
330
2
100
AcDbEntity
  8
KIJUN
100
AcDbCircle
 10
33.88330879133491
 20
115.0916569716901
 30
0.0
 40
259.8251990059557
100
AcDbArc
 50
358.6201706120761
 51
0.1830918999083022
  0
ARC
  5
18E
330
2
100
AcDbEntity
  8
KIJUN
100
AcDbCircle
 10
311.7672994958234
 20
110.8316783164086
 30
0.0
 40
23.88033591501445
100
AcDbArc
 50
167.9367156752041
 51
184.7961933984955
  0
ARC
  5
18F
330
2
100
AcDbEntity
  8
KIJUN
100
AcDbCircle
 10
291.0983093345359
 20
113.8731722458679
 30
0.0
 40
3.317177782596701
100
AcDbArc
 50
38.14285082828212
 51
144.0103370951655
  0
ARC
  5
190
330
2
100
AcDbEntity
  8
KIJUN
100
AcDbCircle
 10
273.2232315324766
 20
110.6860257202145
 30
0.0
 40
28.52914261582493
100
AcDbArc
 50
356.2799349726725
 51
6.767144401458896
  0
ARC
  5
191
330
2
100
AcDbEntity
  8
KIJUN
100
AcDbCircle
 10
340.0265426512199
 20
108.5394775746322
 30
0.0
 40
42.72942762789888
100
AcDbArc
 50
171.464215782239
 51
179.6037258094683
  0
ARC
  5
192
330
2
100
AcDbEntity
  8
KIJUN
100
AcDbCircle
 10
299.4047782123973
 20
113.297738239701
 30
0.0
 40
2.275966537199336
100
AcDbArc
 50
19.24043082735842
 51
135.897579878038
  0
ARC
  5
193
330
2
100
AcDbEntity
  8
KIJUN
100
AcDbCircle
 10
343.6390189370005
 20
114.2000924620836
 30
0.0
 40
36.4790285605252
100
AcDbArc
 50
178.7476099357591
 51
188.4573532038979
  0
ARC
  5
194
330
2
100
AcDbEntity
  8
KIJUN
100
AcDbCircle
 10
318.536970471662
 20
110.4486870984607
 30
0.0
 40
14.97921816274088
100
AcDbArc
 50
163.1659132035677
 51
186.1843672999699
  0
ARC
  5
195
330
2
100
AcDbEntity
  8
KIJUN
100
AcDbCircle
 10
306.0056879574643
 20
110.3617760916651
 30
0.0
 40
4.779290035431622
100
AcDbArc
 50
75.91594642714227
 51
112.2029279746442
  0
ARC
  5
196
330
2
100
AcDbEntity
  8
KIJUN
100
AcDbCircle
 10
282.3272839218684
 20
107.3999870444174
 30
0.0
 40
29.11549281662527
100
AcDbArc
 50
2.825085531100894
 51
12.76882363338429
  0
ARC
  5
197
330
2
100
AcDbEntity
  8
KIJUN
100
AcDbCircle
 10
428.5303423375643
 20
114.9321634443882
 30
0.0
 40
119.2158651231526
100
AcDbArc
 50
180.4644259061803
 51
182.9316061246993
  0
ARC
  5
198
330
2
100
AcDbEntity
  8
KIJUN
100
AcDbCircle
 10
309.9408348384427
 20
113.0444144249723
 30
0.0
 40
1.11196031126979
100
AcDbArc
 50
45.31726366523318
 51
124.0398422335225
  0
ARC
  5
199
330
2
100
AcDbEntity
  8
KIJUN
100
AcDbCircle
 10
-9.869014795826274
 20
248.9992026830575
 30
0.0
 40
292.385789981859
100
AcDbArc
 50
342.313436430015
 51
346.041712026649
  0
ARC
  5
19A
330
2
100
AcDbEntity
  8
KIJUN
100
AcDbCircle
 10
150.2814018336998
 20
189.7487972364203
 30
0.0
 40
126.7627708964859
100
AcDbArc
 50
345.6647613197207
 51
354.5750002870978
  0
ARC
  5
19B
330
2
100
AcDbEntity
  8
KIJUN
100
AcDbCircle
 10
-24802.5827768347
 20
2090.808409732396
 30
0.0
 40
25155.03369928074
100
AcDbArc
 50
355.5968075468492
 51
355.6389744297561
  0
ARC
  5
19C
330
2
100
AcDbEntity
  8
KIJUN
100
AcDbCircle
 10
256.4058243261629
 20
192.0156663696291
 30
0.0
 40
7.111090470827972
100
AcDbArc
 50
136.6904828606518
 51
223.8959878750032
  0
ARC
  5
19D
330
2
100
AcDbEntity
  8
KIJUN
100
AcDbCircle
 10
204.9789073232171
 20
255.2044193299593
 30
0.0
 40
74.42755506585786
100
AcDbArc
 50
308.4215730922224
 51
335.5052346601984
  0
ARC
  5
19E
330
2
100
AcDbEntity
  8
KIJUN
100
AcDbCircle
 10
249.6994239883942
 20
189.4083498047795
 30
0.0
 40
4.66871175809238
100
AcDbArc
 50
134.3488679280313
 51
227.0502785722863
  0
ARC
  5
19F
330
2
100
AcDbEntity
  8
KIJUN
100
AcDbCircle
 10
264.382908743939
 20
172.677208240363
 30
0.0
 40
26.92377671222634
100
AcDbArc
 50
121.7410385905272
 51
131.8041727598054
  0
ARC
  5
1A0
330
2
100
AcDbEntity
  8
KIJUN
100
AcDbCircle
 10
204.5106492760926
 20
254.7447370334611
 30
0.0
 40
76.84886333024294
100
AcDbArc
 50
311.3876759482648
 51
331.666992770396
  0
ARC
  5
1A1
330
2
100
AcDbEntity
  8
KIJUN
100
AcDbCircle
 10
268.7322503499404
 20
185.8580862155362
 30
0.0
 40
17.49376567160631
100
AcDbArc
 50
140.0608477339035
 51
175.9776987372954
  0
ARC
  5
1A2
330
2
100
AcDbEntity
  8
KIJUN
100
AcDbCircle
 10
253.3797821447952
 20
195.9189531556204
 30
0.0
 40
13.59624211323978
100
AcDbArc
 50
277.1540802744369
 51
344.5407610087839
  0
ARC
  5
1A3
330
2
100
AcDbEntity
  8
KIJUN
100
AcDbCircle
 10
279.7861804635622
 20
192.387737527951
 30
0.0
 40
13.30238820684634
100
AcDbArc
 50
180.4001417705395
 51
222.4437652117488
  0
ARC
  5
1A4
330
2
100
AcDbEntity
  8
KIJUN
100
AcDbCircle
 10
269.727747478016
 20
193.7971693792229
 30
0.0
 40
10.38958516143907
100
AcDbArc
 50
271.3350599792043
 51
353.1171562195613
  0
ARC
  5
1A5
330
2
100
AcDbEntity
  8
KIJUN
100
AcDbCircle
 10
291.8127851031048
 20
190.973042589821
 30
0.0
 40
11.87577302663576
100
AcDbArc
 50
172.3591293261238
 51
231.2037724796301
  0
ARC
  5
1A6
330
2
100
AcDbEntity
  8
KIJUN
100
AcDbCircle
 10
280.5481421411794
 20
192.754358540606
 30
0.0
 40
11.68067680546032
100
AcDbArc
 50
289.1089348881895
 51
354.2693674462904
  0
ARC
  5
1A7
330
2
100
AcDbEntity
  8
KIJUN
100
AcDbCircle
 10
305.4060728172822
 20
191.1426622336206
 30
0.0
 40
13.24312082791241
100
AcDbArc
 50
178.0728039783204
 51
236.7059093086002
  0
ARC
  5
1A8
330
2
100
AcDbEntity
  8
KIJUN
100
AcDbCircle
 10
146.4731230207134
 20
253.1413443133379
 30
0.0
 40
134.5545838083735
100
AcDbArc
 50
333.1146371881043
 51
345.6410150059014
  0
ARC
  5
1A9
330
2
100
AcDbEntity
  8
KIJUN
100
AcDbCircle
 10
-133.0595959106993
 20
263.0550230780635
 30
0.0
 40
419.0812982254211
100
AcDbArc
 50
350.2947801572397
 51
354.2774955648395
  0
ARC
  5
1AA
330
2
100
AcDbEntity
  8
KIJUN
100
AcDbCircle
 10
67.68704711375551
 20
217.8354976866294
 30
0.0
 40
226.0126652585606
100
AcDbArc
 50
353.3310347007293
 51
2.549583010314457
  0
ARC
  5
1AB
330
2
100
AcDbEntity
  8
KIJUN
100
AcDbCircle
 10
616.8008664292805
 20
226.7760887051167
 30
0.0
 40
312.3587462713752
100
AcDbArc
 50
179.946905599411
 51
186.9105836021134
  0
ARC
  5
1AC
330
2
100
AcDbEntity
  8
KIJUN
100
AcDbCircle
 10
181.5088369316509
 20
249.9519118782313
 30
0.0
 40
98.20056214867005
100
AcDbArc
 50
324.6997172925225
 51
335.1398975689696
  0
ARC
  5
1AD
330
2
100
AcDbEntity
  8
KIJUN
100
AcDbCircle
 10
193.3569759714822
 20
224.9566838548494
 30
0.0
 40
84.60829564636823
100
AcDbArc
 50
337.1638837221107
 51
348.3380228298216
  0
ARC
  5
1AE
330
2
100
AcDbEntity
  8
KIJUN
100
AcDbCircle
 10
210.0714297700886
 20
208.8488401203702
 30
0.0
 40
68.86844079896363
100
AcDbArc
 50
347.4880538887144
 51
0.8275447101684058
  0
ARC
  5
1AF
330
2
100
AcDbEntity
  8
KIJUN
100
AcDbCircle
 10
231.739056580302
 20
209.4838873395131
 30
0.0
 40
54.20116199695875
100
AcDbArc
 50
344.3913987486364
 51
0.1267078294815376
  0
ARC
  5
1B0
330
2
100
AcDbEntity
  8
KIJUN
100
AcDbCircle
 10
204.4186878452972
 20
211.1817247098366
 30
0.0
 40
85.39261134130502
100
AcDbArc
 50
348.4784043118072
 51
0.8439908600207466
  0
ARC
  5
1B1
330
2
100
AcDbEntity
  8
KIJUN
100
AcDbCircle
 10
209.4661390391157
 20
206.6996015510335
 30
0.0
 40
87.74791216974163
100
AcDbArc
 50
352.9511936104641
 51
5.324965920562019
  0
ARC
  5
1B2
330
2
100
AcDbEntity
  8
KIJUN
100
AcDbCircle
 10
228.5090870100903
 20
201.9668297705509
 30
0.0
 40
73.60132119140567
100
AcDbArc
 50
356.2954644245719
 51
11.87957161859647
  0
ARC
  5
1B3
330
2
100
AcDbEntity
  8
KIJUN
100
AcDbCircle
 10
402.6086137652161
 20
217.4183291460686
 30
0.0
 40
93.74350991626268
100
AcDbArc
 50
179.6877891725911
 51
192.2205785708888
  0
ARC
  5
1B4
330
2
100
AcDbEntity
  8
KIJUN
100
AcDbCircle
 10
314.0929918368822
 20
189.574334887441
 30
0.0
 40
5.695189870091042
100
AcDbArc
 50
282.2925368389531
 51
355.5014592951601
  0
ARC
  5
1B5
330
2
100
AcDbEntity
  8
KIJUN
100
AcDbCircle
 10
189.9877166863605
 20
153.459655664093
 30
0.0
 40
124.6593424939411
100
AcDbArc
 50
347.6678104629238
 51
353.8777475582995
  0
LINE
  5
1B6
330
2
100
AcDbEntity
  8
KIJUN
100
AcDbLine
 10
80.33028547856957
 20
455.7104454332813
 30
0.0
 11
154.3302854785697
 21
455.7104454332816
 31
0.0
  0
LINE
  5
1B7
330
2
100
AcDbEntity
  8
KIJUN
100
AcDbLine
 10
56.83028547856969
 20
432.7104454332814
 30
0.0
 11
80.33028547856957
 21
455.7104454332813
 31
0.0
  0
ARC
  5
1B8
330
2
100
AcDbEntity
  8
KIJUN
100
AcDbCircle
 10
117.3302854785696
 20
400.7104454332814
 30
0.0
 40
20.0
100
AcDbArc
 50
226.8331350088235
 51
313.7252434354094
  0
ARC
  5
1B9
330
2
100
AcDbEntity
  8
KIJUN
100
AcDbCircle
 10
1021.970656883181
 20
1355.801847812229
 30
0.0
 40
1335.512513479736
100
AcDbArc
 50
223.7242930878639
 51
226.5581267751308
  0
LINE
  5
1BA
330
2
100
AcDbEntity
  8
KIJUN
100
AcDbLine
 10
177.8302854785697
 20
432.7104454332814
 30
0.0
 11
154.3302854785697
 21
455.7104454332816
 31
0.0
  0
ARC
  5
1BB
330
2
100
AcDbEntity
  8
KIJUN
100
AcDbCircle
 10
-787.310085926042
 20
1355.801847812229
 30
0.0
 40
1335.512513479736
100
AcDbArc
 50
313.4502352016901
 51
316.2757069121359
  0
ARC
  5
1BC
330
2
100
AcDbEntity
  8
KIJUN
100
AcDbCircle
 10
117.3302854785696
 20
409.2104454332814
 30
0.0
 40
43.5
100
AcDbArc
 50
172.5067509827262
 51
201.5612232112969
  0
ARC
  5
1BD
330
2
100
AcDbEntity
  8
KIJUN
100
AcDbCircle
 10
117.3302854785696
 20
409.2104454332814
 30
0.0
 40
43.5
100
AcDbArc
 50
235.0452877261633
 51
254.8839335339706
  0
ARC
  5
1BE
330
2
100
AcDbEntity
  8
KIJUN
100
AcDbCircle
 10
117.3302854785696
 20
409.2104454332814
 30
0.0
 40
43.5
100
AcDbArc
 50
285.1160664660428
 51
304.9547122738366
  0
ARC
  5
1BF
330
2
100
AcDbEntity
  8
KIJUN
100
AcDbCircle
 10
117.3302854785696
 20
409.2104454332814
 30
0.0
 40
43.5
100
AcDbArc
 50
338.4387767887027
 51
7.493249017273739
  0
ARC
  5
1C0
330
2
100
AcDbEntity
  8
KIJUN
100
AcDbCircle
 10
82.40995524547424
 20
377.1247200490239
 30
0.0
 40
14.07966976690448
100
AcDbArc
 50
145.8153518578884
 51
252.8410803408688
  0
ARC
  5
1C1
330
2
100
AcDbEntity
  8
KIJUN
100
AcDbCircle
 10
81.20635862078467
 20
373.226635830843
 30
0.0
 40
10.0
100
AcDbArc
 50
252.8410803408688
 51
323.6679088852901
  0
ARC
  5
1C2
330
2
100
AcDbEntity
  8
KIJUN
100
AcDbCircle
 10
84.25247980461387
 20
372.5925806327376
 30
0.0
 40
18.35207135716424
100
AcDbArc
 50
131.7277343683318
 51
137.3113302974036
  0
ARC
  5
1C3
330
2
100
AcDbEntity
  8
KIJUN
100
AcDbCircle
 10
71.67383740702155
 20
380.0647898883996
 30
0.0
 40
21.73117364453977
100
AcDbArc
 50
324.0340962281662
 51
342.576067225367
  0
ARC
  5
1C4
330
2
100
AcDbEntity
  8
KIJUN
100
AcDbCircle
 10
83.54157535316614
 20
383.9913185775781
 30
0.0
 40
11.59756516772961
100
AcDbArc
 50
147.9899344508714
 51
250.6664977478751
  0
ARC
  5
1C5
330
2
100
AcDbEntity
  8
KIJUN
100
AcDbCircle
 10
82.06219793977561
 20
380.691689835181
 30
0.0
 40
8.0
100
AcDbArc
 50
252.8410803408688
 51
323.6679088852901
  0
ARC
  5
1C6
330
2
100
AcDbEntity
  8
KIJUN
100
AcDbCircle
 10
105.1708969762001
 20
361.0148363515211
 30
0.0
 40
42.8737731185319
100
AcDbArc
 50
119.3349340884668
 51
137.2113444750807
  0
ARC
  5
1C7
330
2
100
AcDbEntity
  8
KIJUN
100
AcDbCircle
 10
45.97099189329838
 20
396.7658994784811
 30
0.0
 40
47.35534787374461
100
AcDbArc
 50
333.9263325868275
 51
355.611855953161
  0
ARC
  5
1C8
330
2
100
AcDbEntity
  8
KIJUN
100
AcDbCircle
 10
79.62070270284249
 20
373.6053222334062
 30
0.0
 40
12.78726968026225
100
AcDbArc
 50
359.7862660415497
 51
32.3360496747115
  0
ARC
  5
1C9
330
2
100
AcDbEntity
  8
KIJUN
100
AcDbCircle
 10
93.67396672162028
 20
376.7943341881438
 30
0.0
 40
18.71975172475723
100
AcDbArc
 50
127.8004252942501
 51
164.7947364602479
  0
ARC
  5
1CA
330
2
100
AcDbEntity
  8
KIJUN
100
AcDbCircle
 10
152.0319800089286
 20
344.5653751245213
 30
0.0
 40
81.55774973195525
100
AcDbArc
 50
148.0343761556295
 51
156.467192841763
  0
ARC
  5
1CB
330
2
100
AcDbEntity
  8
KIJUN
100
AcDbCircle
 10
90.44921982372335
 20
401.7217303189894
 30
0.0
 40
7.111090470827972
100
AcDbArc
 50
152.6774786916093
 51
230.6617062814769
  0
ARC
  5
1CC
330
2
100
AcDbEntity
  8
KIJUN
100
AcDbCircle
 10
103.4152302365017
 20
397.0592046247476
 30
0.0
 40
17.49376567160631
100
AcDbArc
 50
162.2148827648977
 51
198.0230719432429
  0
ARC
  5
1CD
330
2
100
AcDbEntity
  8
KIJUN
100
AcDbCircle
 10
86.98440492138065
 20
405.2413377842635
 30
0.0
 40
13.59624211323978
100
AcDbArc
 50
269.1379488224549
 51
306.5172810802021
  0
ARC
  5
1CE
330
2
100
AcDbEntity
  8
KIJUN
100
AcDbCircle
 10
152.2506157116652
 20
377.1247200490239
 30
0.0
 40
14.07966976690448
100
AcDbArc
 50
287.1589196591312
 51
34.18464814211163
  0
ARC
  5
1CF
330
2
100
AcDbEntity
  8
KIJUN
100
AcDbCircle
 10
153.4542123363543
 20
373.226635830843
 30
0.0
 40
10.0
100
AcDbArc
 50
216.33209111471
 51
287.1589196591312
  0
ARC
  5
1D0
330
2
100
AcDbEntity
  8
KIJUN
100
AcDbCircle
 10
150.4080911525254
 20
372.5925806327376
 30
0.0
 40
18.35207135716424
100
AcDbArc
 50
42.68866970259629
 51
48.27226563166793
  0
ARC
  5
1D1
330
2
100
AcDbEntity
  8
KIJUN
100
AcDbCircle
 10
162.9867335501178
 20
380.0647898883996
 30
0.0
 40
21.73117364453977
100
AcDbArc
 50
197.423932774633
 51
215.9659037718335
  0
ARC
  5
1D2
330
2
100
AcDbEntity
  8
KIJUN
100
AcDbCircle
 10
151.1189956039734
 20
383.9913185775781
 30
0.0
 40
11.59756516772961
100
AcDbArc
 50
289.3335022521248
 51
32.01006554912861
  0
ARC
  5
1D3
330
2
100
AcDbEntity
  8
KIJUN
100
AcDbCircle
 10
152.5983730173637
 20
380.691689835181
 30
0.0
 40
8.0
100
AcDbArc
 50
216.33209111471
 51
287.1589196591312
  0
ARC
  5
1D4
330
2
100
AcDbEntity
  8
KIJUN
100
AcDbCircle
 10
129.4896739809392
 20
361.0148363515211
 30
0.0
 40
42.8737731185319
100
AcDbArc
 50
42.78865552491923
 51
60.66506591153317
  0
ARC
  5
1D5
330
2
100
AcDbEntity
  8
KIJUN
100
AcDbCircle
 10
188.6895790638409
 20
396.7658994784811
 30
0.0
 40
47.35534787374461
100
AcDbArc
 50
184.3881440468386
 51
206.0736674131725
  0
ARC
  5
1D6
330
2
100
AcDbEntity
  8
KIJUN
100
AcDbCircle
 10
155.0398682542967
 20
373.6053222334062
 30
0.0
 40
12.78726968026225
100
AcDbArc
 50
147.6639503252885
 51
180.2137339584503
  0
ARC
  5
1D7
330
2
100
AcDbEntity
  8
KIJUN
100
AcDbCircle
 10
140.9866042355191
 20
376.7943341881438
 30
0.0
 40
18.71975172475723
100
AcDbArc
 50
15.20526353975207
 51
52.19957470574971
  0
ARC
  5
1D8
330
2
100
AcDbEntity
  8
KIJUN
100
AcDbCircle
 10
82.62859094821061
 20
344.5653751245213
 30
0.0
 40
81.55774973195525
100
AcDbArc
 50
23.53280715823701
 51
31.96562384437046
  0
ARC
  5
1D9
330
2
100
AcDbEntity
  8
KIJUN
100
AcDbCircle
 10
144.2113511334159
 20
401.7217303189894
 30
0.0
 40
7.111090470827972
100
AcDbArc
 50
309.3382937185271
 51
27.32252130839062
  0
ARC
  5
1DA
330
2
100
AcDbEntity
  8
KIJUN
100
AcDbCircle
 10
131.2453407206377
 20
397.0592046247476
 30
0.0
 40
17.49376567160631
100
AcDbArc
 50
341.9769280567566
 51
17.78511723510181
  0
ARC
  5
1DB
330
2
100
AcDbEntity
  8
KIJUN
100
AcDbCircle
 10
147.6761660357589
 20
405.2413377842635
 30
0.0
 40
13.59624211323978
100
AcDbArc
 50
233.4827189197978
 51
270.8620511775452
  0
ARC
  5
1DC
330
2
100
AcDbEntity
  8
KIJUN
100
AcDbCircle
 10
117.3302854785696
 20
372.7882061342841
 30
0.0
 40
19.07776070100254
100
AcDbArc
 50
245.6415008944656
 51
294.35849910552
  0
ARC
  5
1DD
330
2
100
AcDbEntity
  8
KIJUN
100
AcDbCircle
 10
116.7009351722859
 20
361.6372430826202
 30
0.0
 40
12.07954673116642
100
AcDbArc
 50
152.4967475057494
 51
164.9498174104786
  0
ARC
  5
1DE
330
2
100
AcDbEntity
  8
KIJUN
100
AcDbCircle
 10
112.7613219167244
 20
362.6965583937411
 30
0.0
 40
8.0
100
AcDbArc
 50
164.9498174104786
 51
245.6415008944656
  0
ARC
  5
1DF
330
2
100
AcDbEntity
  8
KIJUN
100
AcDbCircle
 10
117.9596357848534
 20
361.6372430826202
 30
0.0
 40
12.07954673116642
100
AcDbArc
 50
15.05018258952138
 51
27.50325249425055
  0
ARC
  5
1E0
330
2
100
AcDbEntity
  8
KIJUN
100
AcDbCircle
 10
121.8992490404148
 20
362.6965583937411
 30
0.0
 40
8.0
100
AcDbArc
 50
294.35849910552
 51
15.05018258952138
  0
ARC
  5
1E1
330
2
100
AcDbEntity
  8
KIJUN
100
AcDbCircle
 10
117.3302854785696
 20
374.8757060782011
 30
0.0
 40
13.35443249070177
100
AcDbArc
 50
245.6415008944656
 51
294.35849910552
  0
ARC
  5
1E2
330
2
100
AcDbEntity
  8
KIJUN
100
AcDbCircle
 10
164.8446437752536
 20
364.8689275574893
 30
0.0
 40
56.38942498721515
100
AcDbArc
 50
162.6046398996768
 51
176.348737251609
  0
ARC
  5
1E3
330
2
100
AcDbEntity
  8
KIJUN
100
AcDbCircle
 10
114.1320109852778
 20
367.8115526598207
 30
0.0
 40
5.59999999999991
100
AcDbArc
 50
173.3505695563837
 51
245.64150089448
  0
ARC
  5
1E4
330
2
100
AcDbEntity
  8
KIJUN
100
AcDbCircle
 10
120.5285599718618
 20
367.8115526598201
 30
0.0
 40
5.599999999999121
100
AcDbArc
 50
294.35849910552
 51
6.649430443622871
  0
ARC
  5
1E5
330
2
100
AcDbEntity
  8
KIJUN
100
AcDbCircle
 10
110.6838755272313
 20
360.7683357898521
 30
0.0
 40
7.976936303316652
100
AcDbArc
 50
105.369236285644
 51
126.0762747213964
  0
ARC
  5
1E6
330
2
100
AcDbEntity
  8
KIJUN
100
AcDbCircle
 10
123.976695429908
 20
360.7683357898521
 30
0.0
 40
7.976936303316652
100
AcDbArc
 50
53.92372527860354
 51
74.63076371435602
  0
ARC
  5
1E7
330
2
100
AcDbEntity
  8
KIJUN
100
AcDbCircle
 10
69.81592718188569
 20
364.8689275574893
 30
0.0
 40
56.38942498721515
100
AcDbArc
 50
3.651262748390945
 51
17.39536010032313
  0
ARC
  5
1E8
330
2
100
AcDbEntity
  8
KIJUN
100
AcDbCircle
 10
363.6292732240532
 20
357.7006764736183
 30
0.0
 40
249.8588510006622
100
AcDbArc
 50
175.6839656880158
 51
179.0153601540268
  0
ARC
  5
1E9
330
2
100
AcDbEntity
  8
KIJUN
100
AcDbCircle
 10
480.0968492343756
 20
383.2020341624274
 30
0.0
 40
360.8526127454612
100
AcDbArc
 50
181.0634880141161
 51
183.4054018430819
  0
ARC
  5
1EA
330
2
100
AcDbEntity
  8
KIJUN
100
AcDbCircle
 10
251.8653716791914
 20
358.4105485896874
 30
0.0
 40
158.0065490501764
100
AcDbArc
 50
167.7228908078103
 51
172.6074689298692
  0
ARC
  5
1EB
330
2
100
AcDbEntity
  8
KIJUN
100
AcDbCircle
 10
353.3133642708914
 20
335.7560173552619
 30
0.0
 40
258.1560292444775
100
AcDbArc
 50
168.1133457324631
 51
170.651480088139
  0
ARC
  5
1EC
330
2
100
AcDbEntity
  8
KIJUN
100
AcDbCircle
 10
179.6611598938004
 20
367.9494966957914
 30
0.0
 40
77.48010474547445
100
AcDbArc
 50
166.826788219341
 51
173.9498170959331
  0
ARC
  5
1ED
330
2
100
AcDbEntity
  8
KIJUN
100
AcDbCircle
 10
-17.20480072205203
 20
358.4105485896874
 30
0.0
 40
158.0065490501764
100
AcDbArc
 50
7.392531070130751
 51
12.27710919218964
  0
ARC
  5
1EE
330
2
100
AcDbEntity
  8
KIJUN
100
AcDbCircle
 10
-118.652793313752
 20
335.7560173552619
 30
0.0
 40
258.1560292444775
100
AcDbArc
 50
9.348519911860973
 51
11.88665426753692
  0
ARC
  5
1EF
330
2
100
AcDbEntity
  8
KIJUN
100
AcDbCircle
 10
54.99941106333892
 20
367.9494966957914
 30
0.0
 40
77.48010474547445
100
AcDbArc
 50
6.050182904066909
 51
13.17321178065892
  0
TEXT
  5
1F0
330
2
100
AcDbEntity
  8
HOJO
100
AcDbText
 10
60.3142177094029
 20
25.03730832969814
 30
0.0
 40
6.0
  1
*　製品は伸び付です。
  7
SUNPOU
100
AcDbText
  0
TEXT
  5
1F1
330
2
100
AcDbEntity
  8
HOJO
100
AcDbText
 10
60.3142177094029
 20
13.92609917023867
 30
0.0
 40
6.0
  1
*　寸法を調整の上ご使用ください。
  7
SUNPOU
100
AcDbText
  0
DIMENSION
  5
1F2
330
2
100
AcDbEntity
  8
0
100
AcDbDimension
  2
*D10
 10
23.66380806518959
 20
280.8350043044235
 30
0.0
 11
18.16380806518953
 21
194.8350043044232
 31
0.0
 70
    32
  1
170ｍｍに伸びを付けています
 71
     5
 42
172.0000000000005
  3
STANDARD
100
AcDbAlignedDimension
 13
77.83853119475645
 23
108.835004304423
 33
0.0
 14
56.83028547856969
 24
280.8350043044235
 34
0.0
 50
90.0
100
AcDbRotatedDimension
1001
ACAD
1000
DSTYLE
1002
{
1070
    41
1040
2.0
1070
    42
1040
10.0
1070
    44
1040
0.0
1070
    73
1070
     0
1070
    74
1070
     0
1070
    77
1070
     1
1070
   140
1040
5.0
1070
   141
1040
0.0
1070
   146
1040
0.064286
1070
   147
1040
3.0
1070
   176
1070
    60
1070
   177
1070
    70
1070
   178
1070
    60
1070
   271
1070
     0
1070
   272
1070
     0
1070
   340
1005
4C
1070
   342
1005
4D
1002
}
  0
ENDSEC
  0
SECTION
  2
OBJECTS
  0
DICTIONARY
  5
B
330
0
100
AcDbDictionary
281
     1
  3
ACAD_COLOR
350
49
  3
ACAD_GROUP
350
34
  3
ACAD_LAYOUT
350
19
  3
ACAD_MATERIAL
350
D
  3
ACAD_MLEADERSTYLE
350
223
  3
ACAD_MLINESTYLE
350
35
  3
ACAD_PLOTSETTINGS
350
36
  3
ACAD_PLOTSTYLENAME
350
A
  3
ACAD_SCALELIST
350
4A
  3
ACAD_TABLESTYLE
350
4B
  3
ACAD_VISUALSTYLE
350
2F
  3
ACDB_RECOMPOSE_DATA
350
20C
  3
AcDbVariableDictionary
350
202
  3
DWGPROPS
350
2C0
  0
DICTIONARY
  5
20
330
1F
100
AcDbDictionary
280
     1
281
     1
  3
ACAD_LAYERFILTERS
360
21
  3
ACLYDICTIONARY
360
22
  0
DICTIONARY
  5
7
330
6
100
AcDbDictionary
280
     1
281
     1
  3
ADSK_XREC_LAYER_RECONCILED
360
8
  0
DICTIONARY
  5
BC
330
BB
100
AcDbDictionary
280
     1
281
     1
  3
ADSK_XREC_LAYER_RECONCILED
360
BD
  0
DICTIONARY
  5
7F
330
7E
100
AcDbDictionary
280
     1
281
     1
  3
ADSK_XREC_LAYER_RECONCILED
360
80
  0
DICTIONARY
  5
7A
330
79
100
AcDbDictionary
280
     1
281
     1
  3
ADSK_XREC_LAYER_RECONCILED
360
7B
  0
DICTIONARY
  5
84
330
83
100
AcDbDictionary
280
     1
281
     1
  3
ADSK_XREC_LAYER_RECONCILED
360
85
  0
DICTIONARY
  5
3
330
2
100
AcDbDictionary
280
     1
281
     1
  3
ACAD_SORTENTS
360
1FF
  0
DICTIONARY
  5
49
102
{ACAD_REACTORS
330
B
102
}
330
B
100
AcDbDictionary
281
     1
  0
DICTIONARY
  5
34
102
{ACAD_REACTORS
330
B
102
}
330
B
100
AcDbDictionary
281
     1
  0
DICTIONARY
  5
19
102
{ACAD_REACTORS
330
B
102
}
330
B
100
AcDbDictionary
281
     1
  3
Model
350
18
  3
ﾚｲｱｳﾄ1
350
1E
  0
DICTIONARY
  5
D
102
{ACAD_REACTORS
330
B
102
}
330
B
100
AcDbDictionary
281
     1
  3
ByBlock
350
40
  3
ByLayer
350
37
  3
Global
350
C
  0
DICTIONARY
  5
223
102
{ACAD_REACTORS
330
B
102
}
330
B
100
AcDbDictionary
281
     1
  3
Standard
350
224
  0
DICTIONARY
  5
35
102
{ACAD_REACTORS
330
B
102
}
330
B
100
AcDbDictionary
281
     1
  3
STANDARD
350
52
  0
DICTIONARY
  5
36
102
{ACAD_REACTORS
330
B
102
}
330
B
100
AcDbDictionary
281
     1
  0
ACDBDICTIONARYWDFLT
  5
A
102
{ACAD_REACTORS
330
B
102
}
330
B
100
AcDbDictionary
281
     1
  3
Normal
350
9
100
AcDbDictionaryWithDefault
340
9
  0
DICTIONARY
  5
4A
102
{ACAD_REACTORS
330
B
102
}
330
B
100
AcDbDictionary
281
     1
  3
A0
350
57
  3
A1
350
58
  3
A2
350
59
  3
A3
350
5A
  3
A4
350
5B
  3
A5
350
5C
  3
A6
350
5D
  3
A7
350
5E
  3
A8
350
5F
  3
A9
350
60
  3
B0
350
61
  3
B1
350
62
  3
B2
350
63
  3
B3
350
64
  3
B4
350
65
  3
B5
350
66
  3
B6
350
67
  3
B7
350
68
  3
B8
350
69
  3
B9
350
6A
  3
C0
350
6B
  3
C1
350
6C
  3
C2
350
6D
  3
C3
350
6E
  3
C4
350
6F
  3
C5
350
70
  3
C6
350
71
  3
C7
350
72
  3
C8
350
73
  3
C9
350
74
  3
D0
350
75
  3
D1
350
76
  3
D2
350
77
  0
DICTIONARY
  5
4B
102
{ACAD_REACTORS
330
B
102
}
330
B
100
AcDbDictionary
281
     1
  3
Standard
350
53
  0
DICTIONARY
  5
2F
102
{ACAD_REACTORS
330
B
102
}
330
B
100
AcDbDictionary
281
     1
  3
2dWireframe
350
2E
  3
3D Hidden
350
21B
  3
3dWireframe
350
56
  3
Basic
350
21A
  3
Brighten
350
21E
  3
ColorChange
350
222
  3
Conceptual
350
21C
  3
Dim
350
21D
  3
Facepattern
350
221
  3
Flat
350
216
  3
FlatWithEdges
350
217
  3
Gouraud
350
218
  3
GouraudWithEdges
350
219
  3
Linepattern
350
220
  3
Realistic
350
55
  3
Thicken
350
21F
  0
XRECORD
  5
20C
102
{ACAD_REACTORS
330
B
102
}
330
B
100
AcDbXrecord
280
     1
 90
        1
330
53
  0
DICTIONARY
  5
202
102
{ACAD_REACTORS
330
B
102
}
330
B
100
AcDbDictionary
281
     1
  3
CANNOSCALE
350
206
  3
CMLEADERSTYLE
350
204
  3
CTABLESTYLE
350
203
  3
DIMASSOC
350
20A
  3
HIDETEXT
350
209
  3
INDEXCTL
350
208
  3
MSLTSCALE
350
205
  3
SORTENTS
350
207
  0
XRECORD
  5
2C0
102
{ACAD_REACTORS
330
B
102
}
330
B
100
AcDbXrecord
280
     1
  1
DWGPROPS COOKIE
  2

  3

  4

  6

  7

  8
y.kohno
  9

300
=
301
=
302
=
303
=
304
=
305
=
306
=
307
=
308
=
309
=
 40
1.608148460648148
 41
2450623.654673033
 42
2455539.625382026
  1

 90
        0
  0
DICTIONARY
  5
21
102
{ACAD_REACTORS
330
20
102
}
330
20
100
AcDbDictionary
281
     1
  0
DICTIONARY
  5
22
102
{ACAD_REACTORS
330
20
102
}
330
20
100
AcDbDictionary
281
     1
1001
ACAD
1000
<All
  0
XRECORD
  5
8
102
{ACAD_REACTORS
330
7
102
}
330
7
100
AcDbXrecord
280
     1
290
     1
  0
XRECORD
  5
BD
102
{ACAD_REACTORS
330
BC
102
}
330
BC
100
AcDbXrecord
280
     1
290
     1
  0
XRECORD
  5
80
102
{ACAD_REACTORS
330
7F
102
}
330
7F
100
AcDbXrecord
280
     1
290
     1
  0
XRECORD
  5
7B
102
{ACAD_REACTORS
330
7A
102
}
330
7A
100
AcDbXrecord
280
     1
290
     1
  0
XRECORD
  5
85
102
{ACAD_REACTORS
330
84
102
}
330
84
100
AcDbXrecord
280
     1
290
     1
  0
SORTENTSTABLE
  5
1FF
102
{ACAD_REACTORS
330
3
102
}
330
3
100
AcDbSortentsTable
330
2
  0
LAYOUT
  5
18
102
{ACAD_XDICTIONARY
360
2C1
102
}
102
{ACAD_REACTORS
330
19
102
}
330
19
100
AcDbPlotSettings
  1

  2
none_device
  4
Letter_(8.50_x_11.00_Inches)
  6

 40
6.349999904632567
 41
6.349999904632567
 42
6.350006103515625
 43
6.350006103515625
 44
215.8999938964844
 45
279.3999938964844
 46
0.0
 47
0.0
 48
0.0
 49
0.0
140
0.0
141
0.0
142
1.0
143
70.84729349557353
 70
 11952
 72
     0
 73
     1
 74
     0
  7
monochrome.ctb
 75
     0
147
0.0141148652356421
148
5671.164182117022
149
1027.103119611714
100
AcDbLayout
  1
Model
 70
     1
 71
     0
 10
0.0
 20
0.0
 11
12.0
 21
9.0
 12
0.0
 22
0.0
 32
0.0
 14
0.0
 24
0.0
 34
0.0
 15
0.0
 25
0.0
 35
0.0
146
0.0
 13
0.0
 23
0.0
 33
0.0
 16
1.0
 26
0.0
 36
0.0
 17
0.0
 27
1.0
 37
0.0
 76
     0
330
2
331
2D
1001
ACAD_PSEXT
1000
なし
1000
なし
1000
適切ではありません
1000
新しいプロッタ環境設定名を選択しない限り、レイアウトは印刷されません。
1070
     0
  0
LAYOUT
  5
1E
102
{ACAD_XDICTIONARY
360
2C3
102
}
102
{ACAD_REACTORS
330
19
102
}
330
19
100
AcDbPlotSettings
  1

  2
なし
  4

  6

 40
0.0
 41
0.0
 42
0.0
 43
0.0
 44
0.0
 45
0.0
 46
0.0
 47
0.0
 48
0.0
 49
0.0
140
0.0
141
0.0
142
1.0
143
1.0
 70
   688
 72
     0
 73
     0
 74
     5
  7
monochrome.ctb
 75
    16
147
1.0
148
0.0
149
0.0
100
AcDbLayout
  1
ﾚｲｱｳﾄ1
 70
     1
 71
     1
 10
0.0
 20
0.0
 11
12.0
 21
9.0
 12
0.0
 22
0.0
 32
0.0
 14
1.000000000000000E+20
 24
1.000000000000000E+20
 34
1.000000000000000E+20
 15
-1.000000000000000E+20
 25
-1.000000000000000E+20
 35
-1.000000000000000E+20
146
0.0
 13
0.0
 23
0.0
 33
0.0
 16
1.0
 26
0.0
 36
0.0
 17
0.0
 27
1.0
 37
0.0
 76
     0
330
1B
  0
MATERIAL
  5
40
102
{ACAD_XDICTIONARY
360
41
102
}
102
{ACAD_REACTORS
330
D
102
}
330
D
100
AcDbMaterial
  1
ByBlock
 72
     0
 43
0.0208333333333333
 43
0.0
 43
0.0
 43
0.0
 43
0.0
 43
0.0208333333333333
 43
0.0
 43
0.0
 43
0.0
 43
0.0
 43
1.0
 43
0.0
 43
0.0
 43
0.0
 43
0.0
 43
1.0
 77
     0
 47
0.0208333333333333
 47
0.0
 47
0.0
 47
0.0
 47
0.0
 47
0.0208333333333333
 47
0.0
 47
0.0
 47
0.0
 47
0.0
 47
1.0
 47
0.0
 47
0.0
 47
0.0
 47
0.0
 47
1.0
171
     0
 49
0.0208333333333333
 49
0.0
 49
0.0
 49
0.0
 49
0.0
 49
0.0208333333333333
 49
0.0
 49
0.0
 49
0.0
 49
0.0
 49
1.0
 49
0.0
 49
0.0
 49
0.0
 49
0.0
 49
1.0
175
     0
142
0.0208333333333333
142
0.0
142
0.0
142
0.0
142
0.0
142
0.0208333333333333
142
0.0
142
0.0
142
0.0
142
0.0
142
1.0
142
0.0
142
0.0
142
0.0
142
0.0
142
1.0
179
     0
144
0.0208333333333333
144
0.0
144
0.0
144
0.0
144
0.0
144
0.0208333333333333
144
0.0
144
0.0
144
0.0
144
0.0
144
1.0
144
0.0
144
0.0
144
0.0
144
0.0
144
1.0
147
0.0208333333333333
147
0.0
147
0.0
147
0.0
147
0.0
147
0.0208333333333333
147
0.0
147
0.0
147
0.0
147
0.0
147
1.0
147
0.0
147
0.0
147
0.0
147
0.0
147
1.0
  0
MATERIAL
  5
37
102
{ACAD_XDICTIONARY
360
38
102
}
102
{ACAD_REACTORS
330
D
102
}
330
D
100
AcDbMaterial
  1
ByLayer
 72
     0
 43
0.0208333333333333
 43
0.0
 43
0.0
 43
0.0
 43
0.0
 43
0.0208333333333333
 43
0.0
 43
0.0
 43
0.0
 43
0.0
 43
1.0
 43
0.0
 43
0.0
 43
0.0
 43
0.0
 43
1.0
 77
     0
 47
0.0208333333333333
 47
0.0
 47
0.0
 47
0.0
 47
0.0
 47
0.0208333333333333
 47
0.0
 47
0.0
 47
0.0
 47
0.0
 47
1.0
 47
0.0
 47
0.0
 47
0.0
 47
0.0
 47
1.0
171
     0
 49
0.0208333333333333
 49
0.0
 49
0.0
 49
0.0
 49
0.0
 49
0.0208333333333333
 49
0.0
 49
0.0
 49
0.0
 49
0.0
 49
1.0
 49
0.0
 49
0.0
 49
0.0
 49
0.0
 49
1.0
175
     0
142
0.0208333333333333
142
0.0
142
0.0
142
0.0
142
0.0
142
0.0208333333333333
142
0.0
142
0.0
142
0.0
142
0.0
142
1.0
142
0.0
142
0.0
142
0.0
142
0.0
142
1.0
179
     0
144
0.0208333333333333
144
0.0
144
0.0
144
0.0
144
0.0
144
0.0208333333333333
144
0.0
144
0.0
144
0.0
144
0.0
144
1.0
144
0.0
144
0.0
144
0.0
144
0.0
144
1.0
147
0.0208333333333333
147
0.0
147
0.0
147
0.0
147
0.0
147
0.0208333333333333
147
0.0
147
0.0
147
0.0
147
0.0
147
1.0
147
0.0
147
0.0
147
0.0
147
0.0
147
1.0
  0
MATERIAL
  5
C
102
{ACAD_XDICTIONARY
360
E
102
}
102
{ACAD_REACTORS
330
D
102
}
330
D
100
AcDbMaterial
  1
Global
 72
     0
 43
0.0208333333333333
 43
0.0
 43
0.0
 43
0.0
 43
0.0
 43
0.0208333333333333
 43
0.0
 43
0.0
 43
0.0
 43
0.0
 43
1.0
 43
0.0
 43
0.0
 43
0.0
 43
0.0
 43
1.0
 77
     0
 47
0.0208333333333333
 47
0.0
 47
0.0
 47
0.0
 47
0.0
 47
0.0208333333333333
 47
0.0
 47
0.0
 47
0.0
 47
0.0
 47
1.0
 47
0.0
 47
0.0
 47
0.0
 47
0.0
 47
1.0
171
     0
 49
0.0208333333333333
 49
0.0
 49
0.0
 49
0.0
 49
0.0
 49
0.0208333333333333
 49
0.0
 49
0.0
 49
0.0
 49
0.0
 49
1.0
 49
0.0
 49
0.0
 49
0.0
 49
0.0
 49
1.0
175
     0
142
0.0208333333333333
142
0.0
142
0.0
142
0.0
142
0.0
142
0.0208333333333333
142
0.0
142
0.0
142
0.0
142
0.0
142
1.0
142
0.0
142
0.0
142
0.0
142
0.0
142
1.0
179
     0
144
0.0208333333333333
144
0.0
144
0.0
144
0.0
144
0.0
144
0.0208333333333333
144
0.0
144
0.0
144
0.0
144
0.0
144
1.0
144
0.0
144
0.0
144
0.0
144
0.0
144
1.0
147
0.0208333333333333
147
0.0
147
0.0
147
0.0
147
0.0
147
0.0208333333333333
147
0.0
147
0.0
147
0.0
147
0.0
147
1.0
147
0.0
147
0.0
147
0.0
147
0.0
147
1.0
  0
MLEADERSTYLE
  5
224
102
{ACAD_REACTORS
330
223
102
}
330
223
100
AcDbMLeaderStyle
170
     2
171
     1
172
     0
 90
        2
 40
0.0
 41
0.0
173
     1
 91
-1056964608
340
28
 92
       -2
290
     1
 42
0.09
291
     1
 43
0.36
  3
Standard
 44
0.18
300

342
25
174
     1
178
     6
175
     1
176
     0
 93
-1056964608
 45
0.18
292
     0
297
     0
 46
0.18
 94
-1056964608
 47
1.0
 49
1.0
140
1.0
293
     1
141
0.0
294
     1
177
     0
142
1.0
295
     0
296
     0
143
0.125
1001
ACAD_MLEADERVER
1070
     2
  0
MLINESTYLE
  5
52
102
{ACAD_REACTORS
330
35
102
}
330
35
100
AcDbMlineStyle
  2
STANDARD
 70
     0
  3

 62
   256
 51
90.0
 52
90.0
 71
     2
 49
0.5
 62
   256
  6
BYLAYER
 49
-0.5
 62
   256
  6
BYLAYER
  0
ACDBPLACEHOLDER
  5
9
102
{ACAD_REACTORS
330
A
102
}
330
A
  0
SCALE
  5
57
102
{ACAD_REACTORS
330
4A
102
}
330
4A
100
AcDbScale
 70
     0
300
1:1
140
1.0
141
1.0
290
     1
  0
SCALE
  5
58
102
{ACAD_REACTORS
330
4A
102
}
330
4A
100
AcDbScale
 70
     0
300
1:2
140
1.0
141
2.0
290
     0
  0
SCALE
  5
59
102
{ACAD_REACTORS
330
4A
102
}
330
4A
100
AcDbScale
 70
     0
300
1:4
140
1.0
141
4.0
290
     0
  0
SCALE
  5
5A
102
{ACAD_REACTORS
330
4A
102
}
330
4A
100
AcDbScale
 70
     0
300
1:5
140
1.0
141
5.0
290
     0
  0
SCALE
  5
5B
102
{ACAD_REACTORS
330
4A
102
}
330
4A
100
AcDbScale
 70
     0
300
1:8
140
1.0
141
8.0
290
     0
  0
SCALE
  5
5C
102
{ACAD_REACTORS
330
4A
102
}
330
4A
100
AcDbScale
 70
     0
300
1:10
140
1.0
141
10.0
290
     0
  0
SCALE
  5
5D
102
{ACAD_REACTORS
330
4A
102
}
330
4A
100
AcDbScale
 70
     0
300
1:16
140
1.0
141
16.0
290
     0
  0
SCALE
  5
5E
102
{ACAD_REACTORS
330
4A
102
}
330
4A
100
AcDbScale
 70
     0
300
1:20
140
1.0
141
20.0
290
     0
  0
SCALE
  5
5F
102
{ACAD_REACTORS
330
4A
102
}
330
4A
100
AcDbScale
 70
     0
300
1:30
140
1.0
141
30.0
290
     0
  0
SCALE
  5
60
102
{ACAD_REACTORS
330
4A
102
}
330
4A
100
AcDbScale
 70
     0
300
1:40
140
1.0
141
40.0
290
     0
  0
SCALE
  5
61
102
{ACAD_REACTORS
330
4A
102
}
330
4A
100
AcDbScale
 70
     0
300
1:50
140
1.0
141
50.0
290
     0
  0
SCALE
  5
62
102
{ACAD_REACTORS
330
4A
102
}
330
4A
100
AcDbScale
 70
     0
300
1:100
140
1.0
141
100.0
290
     0
  0
SCALE
  5
63
102
{ACAD_REACTORS
330
4A
102
}
330
4A
100
AcDbScale
 70
     0
300
2:1
140
2.0
141
1.0
290
     0
  0
SCALE
  5
64
102
{ACAD_REACTORS
330
4A
102
}
330
4A
100
AcDbScale
 70
     0
300
4:1
140
4.0
141
1.0
290
     0
  0
SCALE
  5
65
102
{ACAD_REACTORS
330
4A
102
}
330
4A
100
AcDbScale
 70
     0
300
8:1
140
8.0
141
1.0
290
     0
  0
SCALE
  5
66
102
{ACAD_REACTORS
330
4A
102
}
330
4A
100
AcDbScale
 70
     0
300
10:1
140
10.0
141
1.0
290
     0
  0
SCALE
  5
67
102
{ACAD_REACTORS
330
4A
102
}
330
4A
100
AcDbScale
 70
     0
300
100:1
140
100.0
141
1.0
290
     0
  0
SCALE
  5
68
102
{ACAD_REACTORS
330
4A
102
}
330
4A
100
AcDbScale
 70
     0
300
1/128" = 1'-0"
140
0.0078125
141
12.0
290
     0
  0
SCALE
  5
69
102
{ACAD_REACTORS
330
4A
102
}
330
4A
100
AcDbScale
 70
     0
300
1/64" = 1'-0"
140
0.015625
141
12.0
290
     0
  0
SCALE
  5
6A
102
{ACAD_REACTORS
330
4A
102
}
330
4A
100
AcDbScale
 70
     0
300
1/32" = 1'-0"
140
0.03125
141
12.0
290
     0
  0
SCALE
  5
6B
102
{ACAD_REACTORS
330
4A
102
}
330
4A
100
AcDbScale
 70
     0
300
1/16" = 1'-0"
140
0.0625
141
12.0
290
     0
  0
SCALE
  5
6C
102
{ACAD_REACTORS
330
4A
102
}
330
4A
100
AcDbScale
 70
     0
300
3/32" = 1'-0"
140
0.09375
141
12.0
290
     0
  0
SCALE
  5
6D
102
{ACAD_REACTORS
330
4A
102
}
330
4A
100
AcDbScale
 70
     0
300
1/8" = 1'-0"
140
0.125
141
12.0
290
     0
  0
SCALE
  5
6E
102
{ACAD_REACTORS
330
4A
102
}
330
4A
100
AcDbScale
 70
     0
300
3/16" = 1'-0"
140
0.1875
141
12.0
290
     0
  0
SCALE
  5
6F
102
{ACAD_REACTORS
330
4A
102
}
330
4A
100
AcDbScale
 70
     0
300
1/4" = 1'-0"
140
0.25
141
12.0
290
     0
  0
SCALE
  5
70
102
{ACAD_REACTORS
330
4A
102
}
330
4A
100
AcDbScale
 70
     0
300
3/8" = 1'-0"
140
0.375
141
12.0
290
     0
  0
SCALE
  5
71
102
{ACAD_REACTORS
330
4A
102
}
330
4A
100
AcDbScale
 70
     0
300
1/2" = 1'-0"
140
0.5
141
12.0
290
     0
  0
SCALE
  5
72
102
{ACAD_REACTORS
330
4A
102
}
330
4A
100
AcDbScale
 70
     0
300
3/4" = 1'-0"
140
0.75
141
12.0
290
     0
  0
SCALE
  5
73
102
{ACAD_REACTORS
330
4A
102
}
330
4A
100
AcDbScale
 70
     0
300
1" = 1'-0"
140
1.0
141
12.0
290
     0
  0
SCALE
  5
74
102
{ACAD_REACTORS
330
4A
102
}
330
4A
100
AcDbScale
 70
     0
300
1-1/2" = 1'-0"
140
1.5
141
12.0
290
     0
  0
SCALE
  5
75
102
{ACAD_REACTORS
330
4A
102
}
330
4A
100
AcDbScale
 70
     0
300
3" = 1'-0"
140
3.0
141
12.0
290
     0
  0
SCALE
  5
76
102
{ACAD_REACTORS
330
4A
102
}
330
4A
100
AcDbScale
 70
     0
300
6" = 1'-0"
140
6.0
141
12.0
290
     0
  0
SCALE
  5
77
102
{ACAD_REACTORS
330
4A
102
}
330
4A
100
AcDbScale
 70
     0
300
1'-0" = 1'-0"
140
12.0
141
12.0
290
     0
  0
TABLESTYLE
  5
53
102
{ACAD_XDICTIONARY
360
54
102
}
102
{ACAD_REACTORS
330
4B
102
}
330
4B
100
AcDbTableStyle
  3
Standard
 70
     0
 71
     0
 40
0.06
 41
0.06
280
     0
281
     0
  7
STANDARD
140
0.18
170
     2
 62
     0
 63
     7
283
     0
274
    -2
284
     1
 64
     0
275
    -2
285
     1
 65
     0
276
    -2
286
     1
 66
     0
277
    -2
287
     1
 67
     0
278
    -2
288
     1
 68
     0
279
    -2
289
     1
 69
     0
  7
STANDARD
140
0.25
170
     5
 62
     0
 63
     7
283
     0
274
    -2
284
     1
 64
     0
275
    -2
285
     1
 65
     0
276
    -2
286
     1
 66
     0
277
    -2
287
     1
 67
     0
278
    -2
288
     1
 68
     0
279
    -2
289
     1
 69
     0
  7
STANDARD
140
0.18
170
     5
 62
     0
 63
     7
283
     0
274
    -2
284
     1
 64
     0
275
    -2
285
     1
 65
     0
276
    -2
286
     1
 66
     0
277
    -2
287
     1
 67
     0
278
    -2
288
     1
 68
     0
279
    -2
289
     1
 69
     0
  0
VISUALSTYLE
  5
2E
102
{ACAD_REACTORS
330
2F
102
}
330
2F
100
AcDbVisualStyle
  2
2dWireframe
 70
     4
 71
     0
 72
     2
 73
     0
 90
        0
 40
-0.6
 41
-30.0
 62
     5
 63
     7
 74
     1
 91
        4
 64
     7
 65
   257
 75
     1
175
     1
 42
1.0
 92
        0
 66
   257
 43
1.0
 76
     1
 77
     6
 78
     2
 67
     7
 79
     5
170
     0
171
     0
290
     0
174
     0
 93
        1
 44
0.0
173
     0
291
     0
 45
0.0
1001
ACAD
1000
AcDbSavedByObjectVersion
1070
     0
1000
AcDbSavedByObjectVersion
1070
     0
  0
VISUALSTYLE
  5
21B
102
{ACAD_REACTORS
330
2F
102
}
330
2F
100
AcDbVisualStyle
  2
3D Hidden
 70
     6
 71
     1
 72
     2
 73
     2
 90
        0
 40
-0.6
 41
-30.0
 62
     5
 63
     7
 74
     2
 91
        2
 64
     7
 65
   257
 75
     2
175
     1
 42
40.0
 92
        0
 66
   257
 43
1.0
 76
     1
 77
     6
 78
     2
 67
     7
 79
     3
170
     0
171
     0
290
     0
174
     0
 93
        1
 44
0.0
173
     0
291
     0
 45
0.0
1001
ACAD
1000
AcDbSavedByObjectVersion
1070
     0
  0
VISUALSTYLE
  5
56
102
{ACAD_REACTORS
330
2F
102
}
330
2F
100
AcDbVisualStyle
  2
3dWireframe
 70
     5
 71
     0
 72
     2
 73
     0
 90
        0
 40
-0.6
 41
-30.0
 62
     5
 63
     7
 74
     1
 91
        4
 64
     7
 65
   257
 75
     1
175
     1
 42
1.0
 92
        0
 66
   257
 43
1.0
 76
     1
 77
     6
 78
     2
 67
     7
 79
     5
170
     0
171
     0
290
     0
174
     0
 93
        1
 44
0.0
173
     0
291
     0
 45
0.0
1001
ACAD
1000
AcDbSavedByObjectVersion
1070
     0
1000
AcDbSavedByObjectVersion
1070
     0
  0
VISUALSTYLE
  5
21A
102
{ACAD_REACTORS
330
2F
102
}
330
2F
100
AcDbVisualStyle
  2
Basic
 70
     7
 71
     1
 72
     0
 73
     1
 90
        0
 40
-0.6
 41
-30.0
 62
     5
 63
     7
 74
     0
 91
        4
 64
     7
 65
   257
 75
     1
175
     1
 42
1.0
 92
        8
 66
     7
 43
1.0
 76
     1
 77
     6
 78
     2
 67
     7
 79
     5
170
     0
171
     0
290
     0
174
     0
 93
        1
 44
0.0
173
     0
291
     1
 45
0.0
1001
ACAD
1000
AcDbSavedByObjectVersion
1070
     0
  0
VISUALSTYLE
  5
21E
102
{ACAD_REACTORS
330
2F
102
}
330
2F
100
AcDbVisualStyle
  2
Brighten
 70
    12
 71
     2
 72
     2
 73
     0
 90
        0
 40
-0.6
 41
-30.0
 62
     5
 63
     7
 74
     1
 91
        4
 64
     7
 65
   257
 75
     1
175
     1
 42
1.0
 92
        8
 66
     7
 43
1.0
 76
     1
 77
     6
 78
     2
 67
     7
 79
     5
170
     0
171
     0
290
     0
174
     0
 93
        1
 44
50.0
173
     0
291
     1
 45
0.0
1001
ACAD
1000
AcDbSavedByObjectVersion
1070
     0
  0
VISUALSTYLE
  5
222
102
{ACAD_REACTORS
330
2F
102
}
330
2F
100
AcDbVisualStyle
  2
ColorChange
 70
    16
 71
     2
 72
     2
 73
     3
 90
        0
 40
-0.6
 41
-30.0
 62
     5
 63
     8
 74
     1
 91
        4
 64
     7
 65
   257
 75
     1
175
     1
 42
1.0
 92
        8
 66
     8
 43
1.0
 76
     1
 77
     6
 78
     2
 67
     7
 79
     5
170
     0
171
     0
290
     0
174
     0
 93
        1
 44
0.0
173
     0
291
     1
 45
0.0
1001
ACAD
1000
AcDbSavedByObjectVersion
1070
     0
  0
VISUALSTYLE
  5
21C
102
{ACAD_REACTORS
330
2F
102
}
330
2F
100
AcDbVisualStyle
  2
Conceptual
 70
     9
 71
     3
 72
     2
 73
     0
 90
        0
 40
-0.6
 41
-30.0
 62
     5
 63
     7
 74
     2
 91
        2
 64
     7
 65
   257
 75
     1
175
     1
 42
40.0
 92
        8
 66
     7
 43
1.0
 76
     1
 77
     6
 78
     2
 67
     7
 79
     3
170
     0
171
     0
290
     0
174
     0
 93
        1
 44
0.0
173
     0
291
     0
 45
0.0
1001
ACAD
1000
AcDbSavedByObjectVersion
1070
     0
  0
VISUALSTYLE
  5
21D
102
{ACAD_REACTORS
330
2F
102
}
330
2F
100
AcDbVisualStyle
  2
Dim
 70
    11
 71
     2
 72
     2
 73
     0
 90
        0
 40
-0.6
 41
-30.0
 62
     5
 63
     7
 74
     1
 91
        4
 64
     7
 65
   257
 75
     1
175
     1
 42
1.0
 92
        8
 66
     7
 43
1.0
 76
     1
 77
     6
 78
     2
 67
     7
 79
     5
170
     0
171
     0
290
     0
174
     0
 93
        1
 44
-50.0
173
     0
291
     1
 45
0.0
1001
ACAD
1000
AcDbSavedByObjectVersion
1070
     0
  0
VISUALSTYLE
  5
221
102
{ACAD_REACTORS
330
2F
102
}
330
2F
100
AcDbVisualStyle
  2
Facepattern
 70
    15
 71
     2
 72
     2
 73
     0
 90
        0
 40
-0.6
 41
-30.0
 62
     5
 63
     7
 74
     1
 91
        4
 64
     7
 65
   257
 75
     1
175
     1
 42
1.0
 92
        8
 66
     7
 43
1.0
 76
     1
 77
     6
 78
     2
 67
     7
 79
     5
170
     0
171
     0
290
     0
174
     0
 93
        1
 44
0.0
173
     0
291
     1
 45
0.0
1001
ACAD
1000
AcDbSavedByObjectVersion
1070
     0
  0
VISUALSTYLE
  5
216
102
{ACAD_REACTORS
330
2F
102
}
330
2F
100
AcDbVisualStyle
  2
Flat
 70
     0
 71
     2
 72
     1
 73
     1
 90
        2
 40
-0.6
 41
30.0
 62
     5
 63
     7
 74
     0
 91
        4
 64
     7
 65
   257
 75
     1
175
     1
 42
1.0
 92
        8
 66
     7
 43
1.0
 76
     1
 77
     6
 78
     2
 67
     7
 79
     5
170
     0
171
     0
290
     0
174
     0
 93
       13
 44
0.0
173
     0
291
     1
 45
0.0
1001
ACAD
1000
AcDbSavedByObjectVersion
1070
     0
  0
VISUALSTYLE
  5
217
102
{ACAD_REACTORS
330
2F
102
}
330
2F
100
AcDbVisualStyle
  2
FlatWithEdges
 70
     1
 71
     2
 72
     1
 73
     1
 90
        2
 40
-0.6
 41
30.0
 62
     5
 63
     7
 74
     1
 91
        4
 64
     7
 65
   257
 75
     1
175
     1
 42
1.0
 92
        0
 66
   257
 43
1.0
 76
     1
 77
     6
 78
     2
 67
     7
 79
     5
170
     0
171
     0
290
     0
174
     0
 93
       13
 44
0.0
173
     0
291
     1
 45
0.0
1001
ACAD
1000
AcDbSavedByObjectVersion
1070
     0
  0
VISUALSTYLE
  5
218
102
{ACAD_REACTORS
330
2F
102
}
330
2F
100
AcDbVisualStyle
  2
Gouraud
 70
     2
 71
     2
 72
     2
 73
     1
 90
        2
 40
-0.6
 41
30.0
 62
     5
 63
     7
 74
     0
 91
        4
 64
     7
 65
   257
 75
     1
175
     1
 42
1.0
 92
        0
 66
     7
 43
1.0
 76
     1
 77
     6
 78
     2
 67
     7
 79
     5
170
     0
171
     0
290
     0
174
     0
 93
       13
 44
0.0
173
     0
291
     1
 45
0.0
1001
ACAD
1000
AcDbSavedByObjectVersion
1070
     0
  0
VISUALSTYLE
  5
219
102
{ACAD_REACTORS
330
2F
102
}
330
2F
100
AcDbVisualStyle
  2
GouraudWithEdges
 70
     3
 71
     2
 72
     2
 73
     1
 90
        2
 40
-0.6
 41
30.0
 62
     5
 63
     7
 74
     1
 91
        4
 64
     7
 65
   257
 75
     1
175
     1
 42
1.0
 92
        0
 66
   257
 43
1.0
 76
     1
 77
     6
 78
     2
 67
     7
 79
     5
170
     0
171
     0
290
     0
174
     0
 93
       13
 44
0.0
173
     0
291
     1
 45
0.0
1001
ACAD
1000
AcDbSavedByObjectVersion
1070
     0
  0
VISUALSTYLE
  5
220
102
{ACAD_REACTORS
330
2F
102
}
330
2F
100
AcDbVisualStyle
  2
Linepattern
 70
    14
 71
     2
 72
     2
 73
     0
 90
        0
 40
-0.6
 41
-30.0
 62
     5
 63
     7
 74
     1
 91
        4
 64
     7
 65
   257
 75
     7
175
     7
 42
1.0
 92
        8
 66
     7
 43
1.0
 76
     1
 77
     6
 78
     2
 67
     7
 79
     5
170
     0
171
     0
290
     0
174
     0
 93
        1
 44
0.0
173
     0
291
     1
 45
0.0
1001
ACAD
1000
AcDbSavedByObjectVersion
1070
     0
  0
VISUALSTYLE
  5
55
102
{ACAD_REACTORS
330
2F
102
}
330
2F
100
AcDbVisualStyle
  2
Realistic
 70
     8
 71
     2
 72
     2
 73
     0
 90
        0
 40
-0.6
 41
-30.0
 62
     5
 63
     7
 74
     1
 91
        0
 64
     7
 65
   257
 75
     1
175
     1
 42
1.0
 92
        8
 66
     8
 43
1.0
 76
     1
 77
     6
 78
     2
 67
     7
 79
     5
170
     0
171
     0
290
     0
174
     0
 93
       13
 44
0.0
173
     0
291
     0
 45
0.0
1001
ACAD
1000
AcDbSavedByObjectVersion
1070
     0
1000
AcDbSavedByObjectVersion
1070
     0
  0
VISUALSTYLE
  5
21F
102
{ACAD_REACTORS
330
2F
102
}
330
2F
100
AcDbVisualStyle
  2
Thicken
 70
    13
 71
     2
 72
     2
 73
     0
 90
        0
 40
-0.6
 41
-30.0
 62
     5
 63
     7
 74
     1
 91
        4
 64
     7
 65
   257
 75
     1
175
     1
 42
1.0
 92
       12
 66
     7
 43
1.0
 76
     1
 77
     6
 78
     2
 67
     7
 79
     5
170
     0
171
     0
290
     0
174
     0
 93
        1
 44
0.0
173
     0
291
     1
 45
0.0
1001
ACAD
1000
AcDbSavedByObjectVersion
1070
     0
  0
DICTIONARYVAR
  5
206
102
{ACAD_REACTORS
330
202
102
}
330
202
100
DictionaryVariables
280
     0
  1
1:1
  0
DICTIONARYVAR
  5
204
102
{ACAD_REACTORS
330
202
102
}
330
202
100
DictionaryVariables
280
     0
  1
STANDARD
  0
DICTIONARYVAR
  5
203
102
{ACAD_REACTORS
330
202
102
}
330
202
100
DictionaryVariables
280
     0
  1
STANDARD
  0
DICTIONARYVAR
  5
20A
102
{ACAD_REACTORS
330
202
102
}
330
202
100
DictionaryVariables
280
     0
  1
1
  0
DICTIONARYVAR
  5
209
102
{ACAD_REACTORS
330
202
102
}
330
202
100
DictionaryVariables
280
     0
  1
1
  0
DICTIONARYVAR
  5
208
102
{ACAD_REACTORS
330
202
102
}
330
202
100
DictionaryVariables
280
     0
  1
0
  0
DICTIONARYVAR
  5
205
102
{ACAD_REACTORS
330
202
102
}
330
202
100
DictionaryVariables
280
     0
  1
1
  0
DICTIONARYVAR
  5
207
102
{ACAD_REACTORS
330
202
102
}
330
202
100
DictionaryVariables
280
     0
  1
127
  0
DICTIONARY
  5
2C1
330
18
100
AcDbDictionary
280
     1
281
     1
  3
ACAD_XREC_ROUNDTRIP
360
2C2
  0
DICTIONARY
  5
2C3
330
1E
100
AcDbDictionary
280
     1
281
     1
  3
ACAD_XREC_ROUNDTRIP
360
2C4
  0
DICTIONARY
  5
41
330
40
100
AcDbDictionary
280
     1
281
     1
  3
ACAD_XREC_ROUNDTRIP
360
42
  3
BUMPTILE
360
43
  3
DIFFUSETILE
360
44
  3
OPACITYTILE
360
45
  3
REFLECTIONTILE
360
46
  3
REFRACTIONTILE
360
47
  3
SPECULARTILE
360
48
  0
DICTIONARY
  5
38
330
37
100
AcDbDictionary
280
     1
281
     1
  3
ACAD_XREC_ROUNDTRIP
360
39
  3
BUMPTILE
360
3A
  3
DIFFUSETILE
360
3B
  3
OPACITYTILE
360
3C
  3
REFLECTIONTILE
360
3D
  3
REFRACTIONTILE
360
3E
  3
SPECULARTILE
360
3F
  0
DICTIONARY
  5
E
330
C
100
AcDbDictionary
280
     1
281
     1
  3
ACAD_XREC_ROUNDTRIP
360
F
  3
BUMPTILE
360
10
  3
DIFFUSETILE
360
11
  3
OPACITYTILE
360
12
  3
REFLECTIONTILE
360
13
  3
REFRACTIONTILE
360
14
  3
SPECULARTILE
360
15
  0
DICTIONARY
  5
54
330
53
100
AcDbDictionary
280
     1
281
     1
  3
ACAD_ROUNDTRIP_2008_TABLESTYLE_CELLSTYLEMAP
360
2BF
  3
ACAD_XREC_ROUNDTRIP
360
2C5
  0
XRECORD
  5
2C2
102
{ACAD_REACTORS
330
2C1
102
}
330
2C1
100
AcDbXrecord
280
     1
102
SHADEPLOT
 70
     0
102
SHADEPLOTRESLEVEL
 70
     2
102
SHADEPLOTCUSTOMDPI
 70
   300
  0
XRECORD
  5
2C4
102
{ACAD_REACTORS
330
2C3
102
}
330
2C3
100
AcDbXrecord
280
     1
102
SHADEPLOT
 70
     0
102
SHADEPLOTRESLEVEL
 70
     2
102
SHADEPLOTCUSTOMDPI
 70
   300
  0
XRECORD
  5
42
102
{ACAD_REACTORS
330
41
102
}
330
41
100
AcDbXrecord
280
     1
102
MATERIAL
148
0.0
149
0.0
149
0.0
 93
        0
 94
      127
282
     0
 72
     0
 77
     0
171
     0
175
     0
179
     0
273
     0
  0
XRECORD
  5
43
102
{ACAD_REACTORS
330
41
102
}
330
41
100
AcDbXrecord
280
     1
270
     1
271
     1
  0
XRECORD
  5
44
102
{ACAD_REACTORS
330
41
102
}
330
41
100
AcDbXrecord
280
     1
270
     1
271
     1
  0
XRECORD
  5
45
102
{ACAD_REACTORS
330
41
102
}
330
41
100
AcDbXrecord
280
     1
270
     1
271
     1
  0
XRECORD
  5
46
102
{ACAD_REACTORS
330
41
102
}
330
41
100
AcDbXrecord
280
     1
270
     1
271
     1
  0
XRECORD
  5
47
102
{ACAD_REACTORS
330
41
102
}
330
41
100
AcDbXrecord
280
     1
270
     1
271
     1
  0
XRECORD
  5
48
102
{ACAD_REACTORS
330
41
102
}
330
41
100
AcDbXrecord
280
     1
270
     1
271
     1
  0
XRECORD
  5
39
102
{ACAD_REACTORS
330
38
102
}
330
38
100
AcDbXrecord
280
     1
102
MATERIAL
148
0.0
149
0.0
149
0.0
 93
        0
 94
      127
282
     0
 72
     0
 77
     0
171
     0
175
     0
179
     0
273
     0
  0
XRECORD
  5
3A
102
{ACAD_REACTORS
330
38
102
}
330
38
100
AcDbXrecord
280
     1
270
     1
271
     1
  0
XRECORD
  5
3B
102
{ACAD_REACTORS
330
38
102
}
330
38
100
AcDbXrecord
280
     1
270
     1
271
     1
  0
XRECORD
  5
3C
102
{ACAD_REACTORS
330
38
102
}
330
38
100
AcDbXrecord
280
     1
270
     1
271
     1
  0
XRECORD
  5
3D
102
{ACAD_REACTORS
330
38
102
}
330
38
100
AcDbXrecord
280
     1
270
     1
271
     1
  0
XRECORD
  5
3E
102
{ACAD_REACTORS
330
38
102
}
330
38
100
AcDbXrecord
280
     1
270
     1
271
     1
  0
XRECORD
  5
3F
102
{ACAD_REACTORS
330
38
102
}
330
38
100
AcDbXrecord
280
     1
270
     1
271
     1
  0
XRECORD
  5
F
102
{ACAD_REACTORS
330
E
102
}
330
E
100
AcDbXrecord
280
     1
102
MATERIAL
148
0.0
149
0.0
149
0.0
 93
        0
 94
      127
282
     0
 72
     0
 77
     0
171
     0
175
     0
179
     0
273
     0
  0
XRECORD
  5
10
102
{ACAD_REACTORS
330
E
102
}
330
E
100
AcDbXrecord
280
     1
270
     1
271
     1
  0
XRECORD
  5
11
102
{ACAD_REACTORS
330
E
102
}
330
E
100
AcDbXrecord
280
     1
270
     1
271
     1
  0
XRECORD
  5
12
102
{ACAD_REACTORS
330
E
102
}
330
E
100
AcDbXrecord
280
     1
270
     1
271
     1
  0
XRECORD
  5
13
102
{ACAD_REACTORS
330
E
102
}
330
E
100
AcDbXrecord
280
     1
270
     1
271
     1
  0
XRECORD
  5
14
102
{ACAD_REACTORS
330
E
102
}
330
E
100
AcDbXrecord
280
     1
270
     1
271
     1
  0
XRECORD
  5
15
102
{ACAD_REACTORS
330
E
102
}
330
E
100
AcDbXrecord
280
     1
270
     1
271
     1
  0
CELLSTYLEMAP
  5
2BF
102
{ACAD_REACTORS
330
54
102
}
330
54
100
AcDbCellStyleMap
 90
        3
300
CELLSTYLE
  1
TABLEFORMAT_BEGIN
 90
        5
170
     1
 91
        0
 92
    32768
 62
   257
 93
        1
300
CONTENTFORMAT
  1
CONTENTFORMAT_BEGIN
 90
        0
 91
        0
 92
        4
 93
        0
300

 40
0.0
140
1.0
 94
        5
 62
     0
340
25
144
0.25
309
CONTENTFORMAT_END
171
     1
301
MARGIN
  1
CELLMARGIN_BEGIN
 40
0.06
 40
0.06
 40
0.06
 40
0.06
 40
0.18
 40
0.18
309
CELLMARGIN_END
 94
        6
 95
        1
302
GRIDFORMAT
  1
GRIDFORMAT_BEGIN
 90
        0
 91
        1
 62
     0
 92
       -2
340
0
 93
        0
 40
0.045
309
GRIDFORMAT_END
 95
        2
302
GRIDFORMAT
  1
GRIDFORMAT_BEGIN
 90
        0
 91
        1
 62
     0
 92
       -2
340
0
 93
        0
 40
0.045
309
GRIDFORMAT_END
 95
        4
302
GRIDFORMAT
  1
GRIDFORMAT_BEGIN
 90
        0
 91
        1
 62
     0
 92
       -2
340
0
 93
        0
 40
0.045
309
GRIDFORMAT_END
 95
        8
302
GRIDFORMAT
  1
GRIDFORMAT_BEGIN
 90
        0
 91
        1
 62
     0
 92
       -2
340
0
 93
        0
 40
0.045
309
GRIDFORMAT_END
 95
       16
302
GRIDFORMAT
  1
GRIDFORMAT_BEGIN
 90
        0
 91
        1
 62
     0
 92
       -2
340
0
 93
        0
 40
0.045
309
GRIDFORMAT_END
 95
       32
302
GRIDFORMAT
  1
GRIDFORMAT_BEGIN
 90
        0
 91
        1
 62
     0
 92
       -2
340
0
 93
        0
 40
0.045
309
GRIDFORMAT_END
309
TABLEFORMAT_END
  1
CELLSTYLE_BEGIN
 90
        1
 91
        1
300
_TITLE
309
CELLSTYLE_END
300
CELLSTYLE
  1
TABLEFORMAT_BEGIN
 90
        5
170
     1
 91
        0
 92
        0
 62
   257
 93
        1
300
CONTENTFORMAT
  1
CONTENTFORMAT_BEGIN
 90
        0
 91
        0
 92
        4
 93
        0
300

 40
0.0
140
1.0
 94
        5
 62
     0
340
25
144
0.18
309
CONTENTFORMAT_END
171
     1
301
MARGIN
  1
CELLMARGIN_BEGIN
 40
0.06
 40
0.06
 40
0.06
 40
0.06
 40
0.18
 40
0.18
309
CELLMARGIN_END
 94
        6
 95
        1
302
GRIDFORMAT
  1
GRIDFORMAT_BEGIN
 90
        0
 91
        1
 62
     0
 92
       -2
340
0
 93
        0
 40
0.045
309
GRIDFORMAT_END
 95
        2
302
GRIDFORMAT
  1
GRIDFORMAT_BEGIN
 90
        0
 91
        1
 62
     0
 92
       -2
340
0
 93
        0
 40
0.045
309
GRIDFORMAT_END
 95
        4
302
GRIDFORMAT
  1
GRIDFORMAT_BEGIN
 90
        0
 91
        1
 62
     0
 92
       -2
340
0
 93
        0
 40
0.045
309
GRIDFORMAT_END
 95
        8
302
GRIDFORMAT
  1
GRIDFORMAT_BEGIN
 90
        0
 91
        1
 62
     0
 92
       -2
340
0
 93
        0
 40
0.045
309
GRIDFORMAT_END
 95
       16
302
GRIDFORMAT
  1
GRIDFORMAT_BEGIN
 90
        0
 91
        1
 62
     0
 92
       -2
340
0
 93
        0
 40
0.045
309
GRIDFORMAT_END
 95
       32
302
GRIDFORMAT
  1
GRIDFORMAT_BEGIN
 90
        0
 91
        1
 62
     0
 92
       -2
340
0
 93
        0
 40
0.045
309
GRIDFORMAT_END
309
TABLEFORMAT_END
  1
CELLSTYLE_BEGIN
 90
        2
 91
        1
300
_HEADER
309
CELLSTYLE_END
300
CELLSTYLE
  1
TABLEFORMAT_BEGIN
 90
        5
170
     1
 91
        0
 92
        0
 62
   257
 93
        1
300
CONTENTFORMAT
  1
CONTENTFORMAT_BEGIN
 90
        0
 91
        0
 92
        4
 93
        0
300

 40
0.0
140
1.0
 94
        2
 62
     0
340
25
144
0.18
309
CONTENTFORMAT_END
171
     1
301
MARGIN
  1
CELLMARGIN_BEGIN
 40
0.06
 40
0.06
 40
0.06
 40
0.06
 40
0.18
 40
0.18
309
CELLMARGIN_END
 94
        6
 95
        1
302
GRIDFORMAT
  1
GRIDFORMAT_BEGIN
 90
        0
 91
        1
 62
     0
 92
       -2
340
0
 93
        0
 40
0.045
309
GRIDFORMAT_END
 95
        2
302
GRIDFORMAT
  1
GRIDFORMAT_BEGIN
 90
        0
 91
        1
 62
     0
 92
       -2
340
0
 93
        0
 40
0.045
309
GRIDFORMAT_END
 95
        4
302
GRIDFORMAT
  1
GRIDFORMAT_BEGIN
 90
        0
 91
        1
 62
     0
 92
       -2
340
0
 93
        0
 40
0.045
309
GRIDFORMAT_END
 95
        8
302
GRIDFORMAT
  1
GRIDFORMAT_BEGIN
 90
        0
 91
        1
 62
     0
 92
       -2
340
0
 93
        0
 40
0.045
309
GRIDFORMAT_END
 95
       16
302
GRIDFORMAT
  1
GRIDFORMAT_BEGIN
 90
        0
 91
        1
 62
     0
 92
       -2
340
0
 93
        0
 40
0.045
309
GRIDFORMAT_END
 95
       32
302
GRIDFORMAT
  1
GRIDFORMAT_BEGIN
 90
        0
 91
        1
 62
     0
 92
       -2
340
0
 93
        0
 40
0.045
309
GRIDFORMAT_END
309
TABLEFORMAT_END
  1
CELLSTYLE_BEGIN
 90
        3
 91
        2
300
_DATA
309
CELLSTYLE_END
  0
XRECORD
  5
2C5
102
{ACAD_REACTORS
330
54
102
}
330
54
100
AcDbXrecord
280
     1
102
ACAD_ROUNDTRIP_PRE2007_TABLESTYLE
 90
        4
 91
        0
  1

 92
        4
 93
        0
  2

 94
        4
 95
        0
  3

  0
ENDSEC
  0
EOF
