  0
SECTION
  2
HEADER
  9
$ACADVER
  1
AC1015
  9
$ACADMAINTVER
 70
    20
  9
$DWGCODEPAGE
  3
ANSI_932
  9
$INSBASE
 10
922.019522
 20
-675.4306699999999
 30
0.0
  9
$EXTMIN
 10
-24.0128763099562
 20
0.0
 30
0.0
  9
$EXTMAX
 10
133.4211017667494
 20
189.816300567697
 30
0.0
  9
$LIMMIN
 10
0.0
 20
0.0
  9
$LIMMAX
 10
420.0
 20
297.0
  9
$ORTHOMODE
 70
     1
  9
$REGENMODE
 70
     1
  9
$FILLMODE
 70
     1
  9
$QTEXTMODE
 70
     0
  9
$MIRRTEXT
 70
     1
  9
$LTSCALE
 40
1.0
  9
$ATTMODE
 70
     1
  9
$TEXTSIZE
 40
30.0
  9
$TRACEWID
 40
0.05
  9
$TEXTSTYLE
  7
SUNPOU
  9
$CLAYER
  8
0
  9
$CELTYPE
  6
BYLAYER
  9
$CECOLOR
 62
   256
  9
$CELTSCALE
 40
1.0
  9
$DISPSILH
 70
     0
  9
$DIMSCALE
 40
1.0
  9
$DIMASZ
 40
2.0
  9
$DIMEXO
 40
10.0
  9
$DIMDLI
 40
0.38
  9
$DIMRND
 40
0.0
  9
$DIMDLE
 40
0.0
  9
$DIMEXE
 40
0.0
  9
$DIMTP
 40
0.0
  9
$DIMTM
 40
0.0
  9
$DIMTXT
 40
5.0
  9
$DIMCEN
 40
0.0
  9
$DIMTSZ
 40
0.0
  9
$DIMTOL
 70
     0
  9
$DIMLIM
 70
     0
  9
$DIMTIH
 70
     0
  9
$DIMTOH
 70
     0
  9
$DIMSE1
 70
     0
  9
$DIMSE2
 70
     0
  9
$DIMTAD
 70
     1
  9
$DIMZIN
 70
     0
  9
$DIMBLK
  1
Dot
  9
$DIMASO
 70
     1
  9
$DIMSHO
 70
     1
  9
$DIMPOST
  1

  9
$DIMAPOST
  1

  9
$DIMALT
 70
     0
  9
$DIMALTD
 70
     2
  9
$DIMALTF
 40
25.4
  9
$DIMLFAC
 40
1.0
  9
$DIMTOFL
 70
     0
  9
$DIMTVP
 40
0.0
  9
$DIMTIX
 70
     0
  9
$DIMSOXD
 70
     0
  9
$DIMSAH
 70
     0
  9
$DIMBLK1
  1

  9
$DIMBLK2
  1

  9
$DIMSTYLE
  2
STANDARD
  9
$DIMCLRD
 70
    60
  9
$DIMCLRE
 70
    70
  9
$DIMCLRT
 70
    60
  9
$DIMTFAC
 40
0.064286
  9
$DIMGAP
 40
3.0
  9
$DIMJUST
 70
     0
  9
$DIMSD1
 70
     0
  9
$DIMSD2
 70
     0
  9
$DIMTOLJ
 70
     1
  9
$DIMTZIN
 70
     0
  9
$DIMALTZ
 70
     0
  9
$DIMALTTZ
 70
     0
  9
$DIMUPT
 70
     0
  9
$DIMDEC
 70
     0
  9
$DIMTDEC
 70
     0
  9
$DIMALTU
 70
     2
  9
$DIMALTTD
 70
     2
  9
$DIMTXSTY
  7
SUNPOU
  9
$DIMAUNIT
 70
     0
  9
$DIMADEC
 70
     0
  9
$DIMALTRND
 40
0.0
  9
$DIMAZIN
 70
     0
  9
$DIMDSEP
 70
    46
  9
$DIMATFIT
 70
     3
  9
$DIMFRAC
 70
     0
  9
$DIMLDRBLK
  1

  9
$DIMLUNIT
 70
     2
  9
$DIMLWD
 70
    -2
  9
$DIMLWE
 70
    -2
  9
$DIMTMOVE
 70
     0
  9
$LUNITS
 70
     2
  9
$LUPREC
 70
     5
  9
$SKETCHINC
 40
0.1
  9
$FILLETRAD
 40
0.0
  9
$AUNITS
 70
     0
  9
$AUPREC
 70
     0
  9
$MENU
  1
acad
  9
$ELEVATION
 40
0.0
  9
$PELEVATION
 40
0.0
  9
$THICKNESS
 40
0.0
  9
$LIMCHECK
 70
     0
  9
$CHAMFERA
 40
0.0
  9
$CHAMFERB
 40
0.0
  9
$CHAMFERC
 40
0.0
  9
$CHAMFERD
 40
0.0
  9
$SKPOLY
 70
     0
  9
$TDCREATE
 40
2450623.654673033
  9
$TDUCREATE
 40
2450623.279673032
  9
$TDUPDATE
 40
2453879.430309699
  9
$TDUUPDATE
 40
2453879.055309699
  9
$TDINDWG
 40
1.9092514931
  9
$TDUSRTIMER
 40
1.9092513194
  9
$USRTIMER
 70
     1
  9
$ANGBASE
 50
0.0
  9
$ANGDIR
 70
     0
  9
$PDMODE
 70
     0
  9
$PDSIZE
 40
0.0
  9
$PLINEWID
 40
0.0
  9
$SPLFRAME
 70
     0
  9
$SPLINETYPE
 70
     6
  9
$SPLINESEGS
 70
     8
  9
$HANDSEED
  5
A520
  9
$SURFTAB1
 70
     6
  9
$SURFTAB2
 70
     6
  9
$SURFTYPE
 70
     6
  9
$SURFU
 70
     6
  9
$SURFV
 70
     6
  9
$UCSBASE
  2

  9
$UCSNAME
  2

  9
$UCSORG
 10
0.0
 20
0.0
 30
0.0
  9
$UCSXDIR
 10
1.0
 20
0.0
 30
0.0
  9
$UCSYDIR
 10
0.0
 20
1.0
 30
0.0
  9
$UCSORTHOREF
  2

  9
$UCSORTHOVIEW
 70
     0
  9
$UCSORGTOP
 10
0.0
 20
0.0
 30
0.0
  9
$UCSORGBOTTOM
 10
0.0
 20
0.0
 30
0.0
  9
$UCSORGLEFT
 10
0.0
 20
0.0
 30
0.0
  9
$UCSORGRIGHT
 10
0.0
 20
0.0
 30
0.0
  9
$UCSORGFRONT
 10
0.0
 20
0.0
 30
0.0
  9
$UCSORGBACK
 10
0.0
 20
0.0
 30
0.0
  9
$PUCSBASE
  2

  9
$PUCSNAME
  2

  9
$PUCSORG
 10
0.0
 20
0.0
 30
0.0
  9
$PUCSXDIR
 10
1.0
 20
0.0
 30
0.0
  9
$PUCSYDIR
 10
0.0
 20
1.0
 30
0.0
  9
$PUCSORTHOREF
  2

  9
$PUCSORTHOVIEW
 70
     0
  9
$PUCSORGTOP
 10
0.0
 20
0.0
 30
0.0
  9
$PUCSORGBOTTOM
 10
0.0
 20
0.0
 30
0.0
  9
$PUCSORGLEFT
 10
0.0
 20
0.0
 30
0.0
  9
$PUCSORGRIGHT
 10
0.0
 20
0.0
 30
0.0
  9
$PUCSORGFRONT
 10
0.0
 20
0.0
 30
0.0
  9
$PUCSORGBACK
 10
0.0
 20
0.0
 30
0.0
  9
$USERI1
 70
     0
  9
$USERI2
 70
     0
  9
$USERI3
 70
     0
  9
$USERI4
 70
     0
  9
$USERI5
 70
     0
  9
$USERR1
 40
0.0
  9
$USERR2
 40
0.0
  9
$USERR3
 40
0.0
  9
$USERR4
 40
0.0
  9
$USERR5
 40
0.0
  9
$WORLDVIEW
 70
     1
  9
$SHADEDGE
 70
     3
  9
$SHADEDIF
 70
    70
  9
$TILEMODE
 70
     1
  9
$MAXACTVP
 70
    16
  9
$PINSBASE
 10
0.0
 20
0.0
 30
0.0
  9
$PLIMCHECK
 70
     0
  9
$PEXTMIN
 10
1.000000000000000E+20
 20
1.000000000000000E+20
 30
1.000000000000000E+20
  9
$PEXTMAX
 10
-1.000000000000000E+20
 20
-1.000000000000000E+20
 30
-1.000000000000000E+20
  9
$PLIMMIN
 10
0.0
 20
0.0
  9
$PLIMMAX
 10
12.0
 20
9.0
  9
$UNITMODE
 70
     0
  9
$VISRETAIN
 70
     0
  9
$PLINEGEN
 70
     0
  9
$PSLTSCALE
 70
     1
  9
$TREEDEPTH
 70
  3020
  9
$CMLSTYLE
  2
STANDARD
  9
$CMLJUST
 70
     0
  9
$CMLSCALE
 40
1.0
  9
$PROXYGRAPHICS
 70
     1
  9
$MEASUREMENT
 70
     0
  9
$CELWEIGHT
370
    -1
  9
$ENDCAPS
280
     0
  9
$JOINSTYLE
280
     0
  9
$LWDISPLAY
290
     0
  9
$INSUNITS
 70
     0
  9
$HYPERLINKBASE
  1

  9
$STYLESHEET
  1

  9
$XEDIT
290
     1
  9
$CEPSNTYPE
380
     0
  9
$PSTYLEMODE
290
     1
  9
$FINGERPRINTGUID
  2
{FB88A696-E29C-4009-92AF-A3599A8169D5}
  9
$VERSIONGUID
  2
{DB8A21A7-1F4A-4D6D-9781-612E1C786836}
  9
$EXTNAMES
290
     1
  9
$PSVPSCALE
 40
0.0
  9
$OLESTARTUP
290
     0
  0
ENDSEC
  0
SECTION
  2
CLASSES
  0
CLASS
  1
DICTIONARYVAR
  2
AcDbDictionaryVar
  3
ObjectDBX Classes
 90
        0
280
     0
281
     0
  0
CLASS
  1
ACDBDICTIONARYWDFLT
  2
AcDbDictionaryWithDefault
  3
ObjectDBX Classes
 90
        0
280
     0
281
     0
  0
CLASS
  1
ACDBPLACEHOLDER
  2
AcDbPlaceHolder
  3
ObjectDBX Classes
 90
        0
280
     0
281
     0
  0
CLASS
  1
LAYOUT
  2
AcDbLayout
  3
ObjectDBX Classes
 90
        0
280
     0
281
     0
  0
CLASS
  1
TABLESTYLE
  2
AcDbTableStyle
  3
ObjectDBX Classes
 90
     2047
280
     0
281
     0
  0
CLASS
  1
SORTENTSTABLE
  2
AcDbSortentsTable
  3
ObjectDBX Classes
 90
        0
280
     0
281
     0
  0
ENDSEC
  0
SECTION
  2
TABLES
  0
TABLE
  2
VPORT
  5
12
330
0
100
AcDbSymbolTable
 70
     3
  0
VPORT
  5
A51A
330
12
100
AcDbSymbolTableRecord
100
AcDbViewportTableRecord
  2
*Active
 70
     0
 10
0.0
 20
0.0
 11
1.0
 21
1.0
 12
54.71519043235594
 22
95.27994343296743
 13
0.0
 23
0.0
 14
1.0
 24
1.0
 15
0.0
 25
0.0
 16
0.0
 26
0.0
 36
1.0
 17
0.0
 27
0.0
 37
0.0
 40
192.0204011671365
 41
1.558109833971902
 42
50.0
 43
0.0
 44
0.0
 50
0.0
 51
0.0
 71
     0
 72
 20000
 73
     1
 74
     1
 75
     0
 76
     0
 77
     0
 78
     0
281
     0
 65
     1
110
0.0
120
0.0
130
0.0
111
1.0
121
0.0
131
0.0
112
0.0
122
1.0
132
0.0
 79
     0
146
0.0
  0
ENDTAB
  0
TABLE
  2
LTYPE
  5
D
330
0
100
AcDbSymbolTable
 70
     1
  0
LTYPE
  5
E
330
D
100
AcDbSymbolTableRecord
100
AcDbLinetypeTableRecord
  2
BYBLOCK
 70
     0
  3

 72
    65
 73
     0
 40
0.0
  0
LTYPE
  5
F
330
D
100
AcDbSymbolTableRecord
100
AcDbLinetypeTableRecord
  2
BYLAYER
 70
     0
  3

 72
    65
 73
     0
 40
0.0
  0
LTYPE
  5
5
330
D
100
AcDbSymbolTableRecord
100
AcDbLinetypeTableRecord
  2
CONTINUOUS
 70
     0
  3
Solid line
 72
    65
 73
     0
 40
0.0
  0
ENDTAB
  0
TABLE
  2
LAYER
  5
A
102
{ACAD_XDICTIONARY
360
1B4
102
}
330
0
100
AcDbSymbolTable
 70
     6
  0
LAYER
  5
4
330
A
100
AcDbSymbolTableRecord
100
AcDbLayerTableRecord
  2
0
 70
     0
 62
     7
  6
CONTINUOUS
370
    -3
390
57
  0
LAYER
  5
25
330
A
100
AcDbSymbolTableRecord
100
AcDbLayerTableRecord
  2
KIJUN
 70
     0
 62
     7
  6
CONTINUOUS
370
    -3
390
57
  0
LAYER
  5
22
330
A
100
AcDbSymbolTableRecord
100
AcDbLayerTableRecord
  2
HOJO
 70
     0
 62
     3
  6
CONTINUOUS
370
    -3
390
57
  0
LAYER
  5
1B
330
A
100
AcDbSymbolTableRecord
100
AcDbLayerTableRecord
  2
WAKU
 70
     0
 62
     1
  6
CONTINUOUS
370
    -3
390
57
  0
LAYER
  5
31
330
A
100
AcDbSymbolTableRecord
100
AcDbLayerTableRecord
  2
DEFPOINTS
 70
     0
 62
     7
  6
CONTINUOUS
290
     0
370
    -3
390
57
  0
LAYER
  5
28
330
A
100
AcDbSymbolTableRecord
100
AcDbLayerTableRecord
  2
SUNPOU
 70
     0
 62
    70
  6
CONTINUOUS
370
    -3
390
57
  0
ENDTAB
  0
TABLE
  2
STYLE
  5
B
330
0
100
AcDbSymbolTable
 70
     2
  0
STYLE
  5
C
330
B
100
AcDbSymbolTableRecord
100
AcDbTextStyleTableRecord
  2
STANDARD
 70
     0
 40
0.0
 41
1.0
 50
0.0
 71
     0
 42
0.2
  3
txt
  4

  0
STYLE
  5
1C
330
B
100
AcDbSymbolTableRecord
100
AcDbTextStyleTableRecord
  2
SUNPOU
 70
     0
 40
0.0
 41
1.0
 50
0.0
 71
     0
 42
30.0
  3
txt
  4
bigfont
  0
ENDTAB
  0
TABLE
  2
VIEW
  5
10
330
0
100
AcDbSymbolTable
 70
     0
  0
ENDTAB
  0
TABLE
  2
UCS
  5
11
330
0
100
AcDbSymbolTable
 70
     0
  0
ENDTAB
  0
TABLE
  2
APPID
  5
14
330
0
100
AcDbSymbolTable
 70
    10
  0
APPID
  5
15
330
14
100
AcDbSymbolTableRecord
100
AcDbRegAppTableRecord
  2
ACAD
 70
     0
  0
APPID
  5
1D3
330
14
100
AcDbSymbolTableRecord
100
AcDbRegAppTableRecord
  2
ACAD_DSTYLE_DIMTEXT_FILL
 70
     0
  0
APPID
  5
1D4
330
14
100
AcDbSymbolTableRecord
100
AcDbRegAppTableRecord
  2
ACAD_DSTYLE_DIMEXT_LENGTH
 70
     0
  0
APPID
  5
1D5
330
14
100
AcDbSymbolTableRecord
100
AcDbRegAppTableRecord
  2
ACAD_DSTYLE_DIMEXT_ENABLED
 70
     0
  0
APPID
  5
1D6
330
14
100
AcDbSymbolTableRecord
100
AcDbRegAppTableRecord
  2
ACAD_DSTYLE_DIM_LINETYPE
 70
     0
  0
APPID
  5
1D7
330
14
100
AcDbSymbolTableRecord
100
AcDbRegAppTableRecord
  2
ACAD_DSTYLE_DIM_EXT1_LINETYPE
 70
     0
  0
APPID
  5
1D8
330
14
100
AcDbSymbolTableRecord
100
AcDbRegAppTableRecord
  2
ACAD_DSTYLE_DIM_EXT2_LINETYPE
 70
     0
  0
APPID
  5
294
330
14
100
AcDbSymbolTableRecord
100
AcDbRegAppTableRecord
  2
ACAD_DSTYLE_DIMJOGGED_JOGANGLE_SYMBOL
 70
     0
  0
APPID
  5
478
330
14
100
AcDbSymbolTableRecord
100
AcDbRegAppTableRecord
  2
ACAD_DSTYLE_DIMARC_LENGTH_SYMBOL
 70
     0
  0
APPID
  5
F55
330
14
100
AcDbSymbolTableRecord
100
AcDbRegAppTableRecord
  2
ACAD_EXEMPT_FROM_CAD_STANDARDS
 70
     0
  0
ENDTAB
  0
TABLE
  2
DIMSTYLE
  5
16
330
0
100
AcDbSymbolTable
 70
     8
100
AcDbDimStyleTable
 71
     1
340
1E
  0
DIMSTYLE
105
1E
102
{ACAD_REACTORS
330
A48D
330
A49A
102
}
330
16
100
AcDbSymbolTableRecord
100
AcDbDimStyleTableRecord
  2
STANDARD
 70
     0
340
C
  0
ENDTAB
  0
TABLE
  2
BLOCK_RECORD
  5
1
330
0
100
AcDbSymbolTable
 70
    28
  0
BLOCK_RECORD
  5
2
102
{ACAD_XDICTIONARY
360
D13
102
}
330
1
100
AcDbSymbolTableRecord
100
AcDbBlockTableRecord
  2
*MODEL_SPACE
340
5A
  0
BLOCK_RECORD
  5
7
330
1
100
AcDbSymbolTableRecord
100
AcDbBlockTableRecord
  2
*PAPER_SPACE
340
5B
  0
BLOCK_RECORD
  5
109
330
1
100
AcDbSymbolTableRecord
100
AcDbBlockTableRecord
  2
_Dot
340
0
102
{BLKREFS
331
98B9
331
98BA
331
98CB
331
98CC
331
9A00
331
9A01
331
9A12
331
9A13
331
9AD6
331
9AD7
331
9ADF
331
9AE0
331
9B7B
331
9B7C
331
9B8D
331
9B8E
331
9CEC
331
9CED
331
9CF5
331
9CF6
331
9EA3
331
9EA4
331
9EB5
331
9EB6
331
A096
331
A097
331
A0A8
331
A0A9
331
A14E
331
A14F
331
A1A5
331
A1A6
331
A1B2
331
A1B3
331
A302
331
A303
331
A314
331
A315
331
A3A6
331
A3A7
331
A3B3
331
A3B4
331
A4E9
331
A4EA
331
A4F2
331
A4F3
102
}
  0
BLOCK_RECORD
  5
A48E
330
1
100
AcDbSymbolTableRecord
100
AcDbBlockTableRecord
  2
*D26
340
0
  0
BLOCK_RECORD
  5
A49B
330
1
100
AcDbSymbolTableRecord
100
AcDbBlockTableRecord
  2
*D27
340
0
  0
ENDTAB
  0
ENDSEC
  0
SECTION
  2
BLOCKS
  0
BLOCK
  5
3
330
2
100
AcDbEntity
  8
0
100
AcDbBlockBegin
  2
*MODEL_SPACE
 70
     0
 10
0.0
 20
0.0
 30
0.0
  3
*MODEL_SPACE
  1

  0
ENDBLK
  5
6
330
2
100
AcDbEntity
  8
0
100
AcDbBlockEnd
  0
BLOCK
  5
8
330
7
100
AcDbEntity
 67
     1
  8
0
100
AcDbBlockBegin
  2
*PAPER_SPACE
 70
     0
 10
0.0
 20
0.0
 30
0.0
  3
*PAPER_SPACE
  1

  0
ENDBLK
  5
9
330
7
100
AcDbEntity
 67
     1
  8
0
100
AcDbBlockEnd
  0
BLOCK
  5
10C
330
109
100
AcDbEntity
  8
0
100
AcDbBlockBegin
  2
_Dot
 70
     0
 10
0.0
 20
0.0
 30
0.0
  3
_Dot
  1

  0
LWPOLYLINE
  5
10A
330
109
100
AcDbEntity
  8
0
  6
ByBlock
 62
     0
100
AcDbPolyline
 90
        2
 70
     1
 43
0.5
 10
-0.25
 20
0.0
 42
1.0
 10
0.25
 20
0.0
 42
1.0
  0
LINE
  5
10B
330
109
100
AcDbEntity
  8
0
  6
ByBlock
 62
     0
370
    -2
100
AcDbLine
 10
-0.5
 20
0.0
 30
0.0
 11
-1.0
 21
0.0
 31
0.0
  0
ENDBLK
  5
10D
330
109
100
AcDbEntity
  8
0
100
AcDbBlockEnd
  0
BLOCK
  5
A498
330
A48E
100
AcDbEntity
  8
0
100
AcDbBlockBegin
  2
*D26
 70
     1
 10
0.0
 20
0.0
 30
0.0
  3
*D26
  1

  0
LINE
  5
A4E6
330
A48E
100
AcDbEntity
  8
SUNPOU
 62
    70
370
    -2
100
AcDbLine
 10
22.30414502807795
 20
155.1122908115485
 30
0.0
 11
22.30414502807795
 21
181.816300567697
 31
0.0
  0
LINE
  5
A4E7
330
A48E
100
AcDbEntity
  8
SUNPOU
 62
    70
370
    -2
100
AcDbLine
 10
122.304145028076
 20
155.1122908115466
 30
0.0
 11
122.304145028076
 21
181.816300567697
 31
0.0
  0
LINE
  5
A4E8
330
A48E
100
AcDbEntity
  8
SUNPOU
 62
    60
370
    -2
100
AcDbLine
 10
24.30414502807795
 20
181.816300567697
 30
0.0
 11
120.304145028076
 21
181.816300567697
 31
0.0
  0
INSERT
  5
A4E9
330
A48E
100
AcDbEntity
  8
SUNPOU
 62
    60
370
    -2
100
AcDbBlockReference
  2
_Dot
 10
22.30414502807795
 20
181.816300567697
 30
0.0
 41
2.0
 42
2.0
 43
2.0
 50
180.0
  0
INSERT
  5
A4EA
330
A48E
100
AcDbEntity
  8
SUNPOU
 62
    60
370
    -2
100
AcDbBlockReference
  2
_Dot
 10
122.304145028076
 20
181.816300567697
 30
0.0
 41
2.0
 42
2.0
 43
2.0
  0
MTEXT
  5
A4EB
330
A48E
100
AcDbEntity
  8
SUNPOU
 62
    60
100
AcDbMText
 10
72.30414502807701
 20
187.3163005676969
 30
0.0
 40
5.0
 41
0.0
 71
     5
 72
     1
  1
\A1;100
  7
SUNPOU
 73
     1
 44
1.0
1001
ACAD
1000
MTEXTBEGIN
1070
    73
1070
     1
1070
    44
1040
1.0
1070
    74
1070
     0
1000
MTEXTEND
  0
POINT
  5
A4EC
330
A48E
100
AcDbEntity
  8
DEFPOINTS
 62
     0
100
AcDbPoint
 10
22.30414502807795
 20
145.1122908115485
 30
0.0
  0
POINT
  5
A4ED
330
A48E
100
AcDbEntity
  8
DEFPOINTS
 62
     0
100
AcDbPoint
 10
122.304145028076
 20
145.1122908115466
 30
0.0
  0
POINT
  5
A4EE
330
A48E
100
AcDbEntity
  8
DEFPOINTS
 62
     0
100
AcDbPoint
 10
122.304145028076
 20
181.816300567697
 30
0.0
  0
ENDBLK
  5
A499
330
A48E
100
AcDbEntity
  8
0
100
AcDbBlockEnd
  0
BLOCK
  5
A4A5
330
A49B
100
AcDbEntity
  8
0
100
AcDbBlockBegin
  2
*D27
 70
     1
 10
0.0
 20
0.0
 30
0.0
  3
*D27
  1

  0
LINE
  5
A4EF
330
A49B
100
AcDbEntity
  8
SUNPOU
 62
    70
370
    -2
100
AcDbLine
 10
12.30414502807795
 20
145.1122908115485
 30
0.0
 11
-16.01287630995617
 21
145.1122908115485
 31
0.0
  0
LINE
  5
A4F0
330
A49B
100
AcDbEntity
  8
SUNPOU
 62
    70
370
    -2
100
AcDbLine
 10
12.30414502807795
 20
45.1122908115485
 30
0.0
 11
-16.0128763099562
 21
45.1122908115485
 31
0.0
  0
LINE
  5
A4F1
330
A49B
100
AcDbEntity
  8
SUNPOU
 62
    60
370
    -2
100
AcDbLine
 10
-16.01287630995617
 20
143.1122908115485
 30
0.0
 11
-16.0128763099562
 21
47.1122908115485
 31
0.0
  0
INSERT
  5
A4F2
330
A49B
100
AcDbEntity
  8
SUNPOU
 62
    60
370
    -2
100
AcDbBlockReference
  2
_Dot
 10
-16.01287630995617
 20
145.1122908115485
 30
0.0
 41
2.0
 42
2.0
 43
2.0
 50
90.0
  0
INSERT
  5
A4F3
330
A49B
100
AcDbEntity
  8
SUNPOU
 62
    60
370
    -2
100
AcDbBlockReference
  2
_Dot
 10
-16.0128763099562
 20
45.1122908115485
 30
0.0
 41
2.0
 42
2.0
 43
2.0
 50
270.0
  0
MTEXT
  5
A4F4
330
A49B
100
AcDbEntity
  8
SUNPOU
 62
    60
100
AcDbMText
 10
-21.5128763099562
 20
95.1122908115485
 30
0.0
 40
5.0
 41
0.0
 71
     5
 72
     1
  1
\A1;100
  7
SUNPOU
 11
0.0000000000000001
 21
1.0
 31
0.0
 73
     1
 44
1.0
1001
ACAD
1000
MTEXTBEGIN
1070
    73
1070
     1
1070
    44
1040
1.0
1070
    74
1070
     0
1000
MTEXTEND
  0
POINT
  5
A4F5
330
A49B
100
AcDbEntity
  8
DEFPOINTS
 62
     0
100
AcDbPoint
 10
22.30414502807795
 20
145.1122908115485
 30
0.0
  0
POINT
  5
A4F6
330
A49B
100
AcDbEntity
  8
DEFPOINTS
 62
     0
100
AcDbPoint
 10
22.30414502807795
 20
45.11229081154849
 30
0.0
  0
POINT
  5
A4F7
330
A49B
100
AcDbEntity
  8
DEFPOINTS
 62
     0
100
AcDbPoint
 10
-16.0128763099562
 20
45.1122908115485
 30
0.0
  0
ENDBLK
  5
A4A6
330
A49B
100
AcDbEntity
  8
0
100
AcDbBlockEnd
  0
ENDSEC
  0
SECTION
  2
ENTITIES
  0
LINE
  5
1F
330
2
100
AcDbEntity
  8
WAKU
100
AcDbLine
 10
0.0
 20
14.0
 30
0.0
 11
133.4211017667494
 21
13.99999999999999
 31
0.0
  0
LINE
  5
20
330
2
100
AcDbEntity
  8
WAKU
100
AcDbLine
 10
0.0
 20
0.0
 30
0.0
 11
133.4211017667494
 21
0.0
 31
0.0
  0
TEXT
  5
21
330
2
100
AcDbEntity
  8
HOJO
100
AcDbText
 10
9.653966000000025
 20
2.366626000000024
 30
0.0
 40
9.0
  1
TR91
  7
SUNPOU
100
AcDbText
  0
TEXT
  5
23
330
2
100
AcDbEntity
  8
HOJO
100
AcDbText
 10
75.8077226877416
 20
5.044386000000031
 30
0.0
 40
6.0
  1
100×100×8
  7
SUNPOU
100
AcDbText
  0
CIRCLE
  5
A453
102
{ACAD_REACTORS
330
A4D9
102
}
330
2
100
AcDbEntity
  8
KIJUN
100
AcDbCircle
 10
72.30414502807795
 20
95.1122908115485
 30
0.0
 40
12.5
  0
ARC
  5
A454
102
{ACAD_REACTORS
330
A4D9
102
}
330
2
100
AcDbEntity
  8
KIJUN
100
AcDbCircle
 10
72.77722255953467
 20
118.1275285110216
 30
0.0
 40
18.64063400179294
100
AcDbArc
 50
252.001215481692
 51
283.7714254726638
  0
ARC
  5
A455
102
{ACAD_REACTORS
330
A4D9
102
}
330
2
100
AcDbEntity
  8
KIJUN
100
AcDbCircle
 10
47.70669144177807
 20
94.58081778772024
 30
0.0
 40
20.1681215868558
100
AcDbArc
 50
347.4598105473193
 51
16.76754849832177
  0
LINE
  5
A456
102
{ACAD_REACTORS
330
A4D9
102
}
330
2
100
AcDbEntity
  8
KIJUN
100
AcDbLine
 10
67.01732595922624
 20
100.3991098804002
 30
0.0
 11
63.46531026324603
 21
103.9511255763804
 31
0.0
  0
LINE
  5
A457
102
{ACAD_REACTORS
330
A4D9
102
}
330
2
100
AcDbEntity
  8
KIJUN
100
AcDbLine
 10
77.59096409692967
 20
89.82547174269678
 30
0.0
 11
81.14297979290986
 21
86.27345604671658
 31
0.0
  0
ARC
  5
A458
102
{ACAD_REACTORS
330
A4D9
102
}
330
2
100
AcDbEntity
  8
KIJUN
100
AcDbCircle
 10
95.31938272755112
 20
95.58536834300536
 30
0.0
 40
18.64063400179301
100
AcDbArc
 50
166.2285745273368
 51
197.9987845183083
  0
ARC
  5
A459
102
{ACAD_REACTORS
330
A4D9
102
}
330
2
100
AcDbEntity
  8
KIJUN
100
AcDbCircle
 10
71.7726720042497
 20
70.51483722524766
 30
0.0
 40
20.16812158685668
100
AcDbArc
 50
73.23245150167847
 51
102.5401894526806
  0
LINE
  5
A45A
102
{ACAD_REACTORS
330
A4D9
102
}
330
2
100
AcDbEntity
  8
KIJUN
100
AcDbLine
 10
77.59096409692967
 20
89.82547174269678
 30
0.0
 11
81.14297979290986
 21
86.27345604671658
 31
0.0
  0
LINE
  5
A45B
102
{ACAD_REACTORS
330
A4D9
102
}
330
2
100
AcDbEntity
  8
KIJUN
100
AcDbLine
 10
67.393681269838
 20
90.20182705330853
 30
0.0
 11
63.46531026324603
 21
86.27345604671658
 31
0.0
  0
LINE
  5
A45C
102
{ACAD_REACTORS
330
A4D9
102
}
330
2
100
AcDbEntity
  8
KIJUN
100
AcDbLine
 10
77.21460878631791
 20
100.0227545697884
 30
0.0
 11
81.14297979290986
 21
103.9511255763804
 31
0.0
  0
ARC
  5
A45D
102
{ACAD_REACTORS
330
A4D9
102
}
330
2
100
AcDbEntity
  8
KIJUN
100
AcDbCircle
 10
56.47356545528309
 20
95.11229081154818
 30
0.0
 40
8.474574139595608
100
AcDbArc
 50
308.2672855582484
 51
51.73271444175142
  0
ARC
  5
A45E
102
{ACAD_REACTORS
330
A4D9
102
}
330
2
100
AcDbEntity
  8
KIJUN
100
AcDbCircle
 10
72.30414502807827
 20
110.9428703843433
 30
0.0
 40
8.474574139595608
100
AcDbArc
 50
218.2672855582479
 51
321.732714441752
  0
ARC
  5
A45F
102
{ACAD_REACTORS
330
A4D9
102
}
330
2
100
AcDbEntity
  8
KIJUN
100
AcDbCircle
 10
88.13472460087282
 20
95.1122908115488
 30
0.0
 40
8.474574139595608
100
AcDbArc
 50
128.2672855582486
 51
231.7327144417514
  0
ARC
  5
A460
102
{ACAD_REACTORS
330
A4D9
102
}
330
2
100
AcDbEntity
  8
KIJUN
100
AcDbCircle
 10
72.30414502807764
 20
79.28171123875363
 30
0.0
 40
8.474574139595608
100
AcDbArc
 50
38.26728555824788
 51
141.7327144417521
  0
ARC
  5
A461
102
{ACAD_REACTORS
330
A4D9
102
}
330
2
100
AcDbEntity
  8
KIJUN
100
AcDbCircle
 10
29.62490754769236
 20
95.11229081154802
 30
0.0
 40
30.17923748038561
100
AcDbArc
 50
314.6839142532724
 51
45.3160857467522
  0
LINE
  5
A462
102
{ACAD_REACTORS
330
A4D9
102
}
330
2
100
AcDbEntity
  8
KIJUN
100
AcDbLine
 10
22.30414502807795
 20
145.1122908115485
 30
0.0
 11
50.84680002932472
 21
116.5696358103028
 31
0.0
  0
LINE
  5
A463
102
{ACAD_REACTORS
330
A4D9
102
}
330
2
100
AcDbEntity
  8
KIJUN
100
AcDbLine
 10
22.30414502807795
 20
45.11229081154849
 30
0.0
 11
50.84680002932472
 21
73.65494581279415
 31
0.0
  0
ARC
  5
A464
102
{ACAD_REACTORS
330
A4D9
102
}
330
2
100
AcDbEntity
  8
KIJUN
100
AcDbCircle
 10
72.30414502807843
 20
137.7915282919341
 30
0.0
 40
30.17923748038561
100
AcDbArc
 50
224.6839142532493
 51
315.3160857467292
  0
LINE
  5
A465
102
{ACAD_REACTORS
330
A4D9
102
}
330
2
100
AcDbEntity
  8
KIJUN
100
AcDbLine
 10
122.304145028076
 20
145.1122908115466
 30
0.0
 11
93.76149002683039
 21
116.5696358102998
 31
0.0
  0
ARC
  5
A466
102
{ACAD_REACTORS
330
A4D9
102
}
330
2
100
AcDbEntity
  8
KIJUN
100
AcDbCircle
 10
73.37759663073689
 20
153.934401192935
 30
0.0
 40
42.56323298437993
100
AcDbArc
 50
230.703035385239
 51
298.6141376454906
  0
ARC
  5
A467
102
{ACAD_REACTORS
330
A4D9
102
}
330
2
100
AcDbEntity
  8
KIJUN
100
AcDbCircle
 10
15.86472922788715
 20
94.87904477101972
 30
0.0
 40
40.1342255489767
100
AcDbArc
 50
322.9987509518081
 51
41.85095751221083
  0
SPLINE
  5
A468
102
{ACAD_REACTORS
330
A4D9
102
}
330
2
100
AcDbEntity
  8
KIJUN
100
AcDbSpline
210
0.0
220
0.0
230
1.0
 70
     8
 71
     3
 72
    14
 73
    10
 74
     8
 42
0.0000000001
 43
0.0000000001
 44
0.0000000001
 40
0.0
 40
0.0
 40
0.0
 40
0.0
 40
7.058128262099265
 40
13.8425180326293
 40
21.00135658567293
 40
29.49652359882095
 40
36.13390054312159
 40
41.08261512866104
 40
46.10158930892169
 40
46.10158930892169
 40
46.10158930892169
 40
46.10158930892169
 10
72.30414502807843
 20
117.3345130337707
 30
0.0
 10
70.71233853220329
 20
119.4061638777278
 30
0.0
 10
67.59046127163698
 20
123.4691198201378
 30
0.0
 10
72.36212126435003
 20
130.2356229959586
 30
0.0
 10
72.02545321949688
 20
136.8758074082187
 30
0.0
 10
70.45550414812926
 20
148.2136851921876
 30
0.0
 10
62.75566234253172
 20
141.3894781236501
 30
0.0
 10
63.54136930250747
 20
135.8856624407809
 30
0.0
 10
63.75081674535132
 20
132.5709551913652
 30
0.0
 10
63.85627863651327
 20
130.90191932048
 30
0.0
 11
72.30414502807843
 21
117.3345130337707
 31
0.0
 11
69.15805312753207
 21
123.6526836802127
 31
0.0
 11
71.47748077313185
 21
130.0282777666724
 31
0.0
 11
71.86405204739845
 21
137.1766714378726
 31
0.0
 11
68.83192280585572
 21
145.1122908115485
 31
0.0
 11
63.74605426107141
 21
140.8474679728004
 31
0.0
 11
63.47341644679747
 21
135.9062692648593
 31
0.0
 11
63.85627863651327
 21
130.90191932048
 31
0.0
  0
SPLINE
  5
A469
102
{ACAD_REACTORS
330
A4D9
102
}
330
2
100
AcDbEntity
  8
KIJUN
100
AcDbSpline
210
0.0
220
0.0
230
1.0
 70
     8
 71
     3
 72
    14
 73
    10
 74
     0
 42
0.0000000001
 43
0.0000000001
 40
4.120789840172591
 40
4.120789840172591
 40
4.120789840172591
 40
4.120789840172591
 40
5.95949213525284
 40
10.16553135436204
 40
12.41368375192779
 40
17.17256486464659
 40
19.67643480276264
 40
27.33279800525386
 40
35.95979873889827
 40
35.95979873889827
 40
35.95979873889827
 40
35.95979873889827
 10
63.39563187433884
 20
136.6496584681627
 30
0.0
 10
63.24976757752599
 20
137.484634417098
 30
0.0
 10
62.6000410772371
 20
140.1858189133182
 30
0.0
 10
60.59853513213006
 20
143.6059168328044
 30
0.0
 10
55.30586270351026
 20
146.2883391798152
 30
0.0
 10
52.18183056173177
 20
140.7859338273219
 30
0.0
 10
52.51729703408124
 20
134.0691490015354
 30
0.0
 10
57.02107386464519
 20
126.0676326284519
 30
0.0
 10
61.79608723576201
 20
120.3214461504203
 30
0.0
 10
64.32591117247139
 20
117.2770902571257
 30
0.0
  0
SPLINE
  5
A46A
102
{ACAD_REACTORS
330
A4D9
102
}
330
2
100
AcDbEntity
  8
KIJUN
100
AcDbSpline
210
0.0
220
0.0
230
1.0
 70
     8
 71
     3
 72
    12
 73
     8
 74
     6
 42
0.0000000001
 43
0.0000000001
 44
0.0000000001
 40
0.0
 40
0.0
 40
0.0
 40
0.0
 40
6.396560258241164
 40
15.13688890612442
 40
21.23733056359633
 40
30.22549458057104
 40
37.95568437780779
 40
37.95568437780779
 40
37.95568437780779
 40
37.95568437780779
 10
52.53548730733935
 20
136.4038718531322
 30
0.0
 10
51.99312751464606
 20
138.4340881312087
 30
0.0
 10
50.70968147525795
 20
143.2384137399696
 30
0.0
 10
40.43217001268847
 20
147.6639417146834
 30
0.0
 10
39.84192817608552
 20
137.3097103996007
 30
0.0
 10
43.39401818063795
 20
130.6415138696267
 30
0.0
 10
48.19122503062651
 20
127.5799020826528
 30
0.0
 10
50.40934529887283
 20
126.1642818330892
 30
0.0
 11
52.53548730733935
 21
136.4038718531322
 31
0.0
 11
49.829488387473
 21
142.1998664168799
 31
0.0
 11
41.51820599074053
 21
144.904663968412
 31
0.0
 11
40.35849216794058
 21
138.9154693426359
 31
0.0
 11
44.2242049106069
 21
130.8010773514127
 31
0.0
 11
50.40934529887283
 21
126.1642818330892
 31
0.0
  0
SPLINE
  5
A46D
102
{ACAD_REACTORS
330
A4D9
102
}
330
2
100
AcDbEntity
  8
KIJUN
100
AcDbSpline
210
0.0
220
0.0
230
1.0
 70
     8
 71
     3
 72
    14
 73
    10
 74
     0
 42
0.0000000001
 43
0.0000000001
 40
4.120789840172591
 40
4.120789840172591
 40
4.120789840172591
 40
4.120789840172591
 40
5.95949213525284
 40
10.16553135436204
 40
12.41368375192779
 40
17.17256486464659
 40
19.67643480276264
 40
27.33279800525386
 40
35.95979873889827
 40
35.95979873889827
 40
35.95979873889827
 40
35.95979873889827
 10
81.2126581818147
 20
136.6496584681603
 30
0.0
 10
81.35852247862786
 20
137.4846344170956
 30
0.0
 10
82.00824897891738
 20
140.1858189133156
 30
0.0
 10
84.00975492402521
 20
143.6059168328014
 30
0.0
 10
89.30242735264579
 20
146.2883391798108
 30
0.0
 10
92.42645949442289
 20
140.7859338273167
 30
0.0
 10
92.09099302207164
 20
134.0691490015303
 30
0.0
 10
87.58721619150566
 20
126.067632628448
 30
0.0
 10
82.81220282038743
 20
120.3214461504177
 30
0.0
 10
80.28237888367725
 20
117.2770902571237
 30
0.0
  0
SPLINE
  5
A46E
102
{ACAD_REACTORS
330
A4D9
102
}
330
2
100
AcDbEntity
  8
KIJUN
100
AcDbSpline
210
0.0
220
0.0
230
1.0
 70
     8
 71
     3
 72
    12
 73
     8
 74
     6
 42
0.0000000001
 43
0.0000000001
 44
0.0000000001
 40
0.0
 40
0.0
 40
0.0
 40
0.0
 40
6.396560258241205
 40
15.1368889061244
 40
21.2373305635962
 40
30.22549458057093
 40
37.95568437780777
 40
37.95568437780777
 40
37.95568437780777
 40
37.95568437780777
 10
92.07280274881416
 20
136.4038718531272
 30
0.0
 10
92.61516254150796
 20
138.4340881312036
 30
0.0
 10
93.89860858089724
 20
143.2384137399641
 30
0.0
 10
104.1761200434677
 20
147.6639417146752
 30
0.0
 10
104.7663618800683
 20
137.3097103995925
 30
0.0
 10
101.2142718755141
 20
130.6415138696194
 30
0.0
 10
96.41706502552473
 20
127.5799020826467
 30
0.0
 10
94.19894475727801
 20
126.1642818330837
 30
0.0
 11
92.07280274881416
 21
136.4038718531272
 31
0.0
 11
94.77880166868194
 21
142.1998664168742
 31
0.0
 11
103.090084065415
 21
144.9046639684041
 31
0.0
 11
104.2497978882136
 21
138.9154693426278
 31
0.0
 11
100.3840851455452
 21
130.8010773514056
 31
0.0
 11
94.19894475727801
 21
126.1642818330837
 31
0.0
  0
SPLINE
  5
A46F
102
{ACAD_REACTORS
330
A4D9
102
}
330
2
100
AcDbEntity
  8
KIJUN
100
AcDbSpline
210
0.0
220
0.0
230
1.0
 70
     8
 71
     3
 72
    14
 73
    10
 74
     8
 42
0.0000000001
 43
0.0000000001
 44
0.0000000001
 40
0.0
 40
0.0
 40
0.0
 40
0.0
 40
7.058128262099249
 40
13.84251803262914
 40
21.00135658567285
 40
29.49652359882086
 40
36.13390054312148
 40
41.08261512866087
 40
46.10158930892159
 40
46.10158930892159
 40
46.10158930892159
 40
46.10158930892159
 10
72.30414502807022
 20
117.3345130337707
 30
0.0
 10
73.89595152394587
 20
119.4061638777274
 30
0.0
 10
77.01782878451313
 20
123.4691198201366
 30
0.0
 10
72.24616879180203
 20
130.2356229959586
 30
0.0
 10
72.5828368366567
 20
136.8758074082185
 30
0.0
 10
74.15278590802731
 20
148.2136851921871
 30
0.0
 10
81.85262771362301
 20
141.3894781236477
 30
0.0
 10
81.06692075364593
 20
135.8856624407786
 30
0.0
 10
80.85747331080122
 20
132.570955191363
 30
0.0
 10
80.75201141963885
 20
130.9019193204778
 30
0.0
 11
72.30414502807022
 21
117.3345130337707
 31
0.0
 11
75.45023692861815
 21
123.6526836802119
 31
0.0
 11
73.13080928302011
 21
130.0282777666721
 31
0.0
 11
72.74423800875524
 21
137.1766714378725
 31
0.0
 11
75.77636725030001
 21
145.1122908115475
 31
0.0
 11
80.86223579508322
 21
140.8474679727982
 31
0.0
 11
81.13487360935591
 21
135.9062692648571
 31
0.0
 11
80.75201141963885
 21
130.9019193204778
 31
0.0
  0
SPLINE
  5
A472
102
{ACAD_REACTORS
330
A4D9
102
}
330
2
100
AcDbEntity
  8
KIJUN
100
AcDbSpline
210
0.0
220
0.0
230
1.0
 70
     8
 71
     3
 72
    14
 73
    10
 74
     8
 42
0.0000000001
 43
0.0000000001
 44
0.0000000001
 40
0.0
 40
0.0
 40
0.0
 40
0.0
 40
7.058128262099236
 40
13.84251803262912
 40
21.00135658567282
 40
29.49652359882082
 40
36.13390054312142
 40
41.08261512866079
 40
46.10158930892153
 40
46.10158930892153
 40
46.10158930892153
 40
46.10158930892153
 10
50.08192280585571
 20
95.11229081155608
 30
0.0
 10
48.01027196189901
 20
93.52048431568041
 30
0.0
 10
43.94731601948985
 20
90.39860705511316
 30
0.0
 10
37.18081284366789
 20
95.17026704782429
 30
0.0
 10
30.54062843140796
 20
94.83359900296958
 30
0.0
 10
19.20275064743941
 20
93.26364993159902
 30
0.0
 10
26.02695771597872
 20
85.56380812600329
 30
0.0
 10
31.53077339884787
 20
86.34951508598041
 30
0.0
 10
34.84548064826343
 20
86.55896252882509
 30
0.0
 10
36.51451651914862
 20
86.66442441998745
 30
0.0
 11
50.08192280585571
 21
95.11229081155608
 31
0.0
 11
43.76375215941456
 21
91.96619891100814
 31
0.0
 11
37.38815807295437
 21
94.28562655660618
 31
0.0
 11
30.23976440175397
 21
94.67219783087102
 31
0.0
 11
22.30414502807889
 21
91.64006858932628
 31
0.0
 11
26.56896786682823
 21
86.55420004454306
 31
0.0
 11
31.51016657476933
 21
86.28156223027039
 31
0.0
 11
36.51451651914862
 21
86.66442441998745
 31
0.0
  0
SPLINE
  5
A473
102
{ACAD_REACTORS
330
A4D9
102
}
330
2
100
AcDbEntity
  8
KIJUN
100
AcDbSpline
210
0.0
220
0.0
230
1.0
 70
     8
 71
     3
 72
    12
 73
     8
 74
     6
 42
0.0000000001
 43
0.0000000001
 44
0.0000000001
 40
0.0
 40
0.0
 40
0.0
 40
0.0
 40
6.39656025824118
 40
15.13688890612436
 40
21.23733056359615
 40
30.22549458057089
 40
37.95568437780771
 40
37.95568437780771
 40
37.95568437780771
 40
37.95568437780771
 10
31.01256398649923
 20
75.34363309081212
 30
0.0
 10
28.98234770842283
 20
74.80127329811833
 30
0.0
 10
24.17802209966234
 20
73.51782725872904
 30
0.0
 10
19.75249412495122
 20
63.24031579615859
 30
0.0
 10
30.10672544003397
 20
62.65007395955798
 30
0.0
 10
36.77492197000702
 20
66.20216396411217
 30
0.0
 10
39.83653375697972
 20
70.99937081410155
 30
0.0
 10
41.2521540065427
 20
73.21749108234826
 30
0.0
 11
31.01256398649923
 21
75.34363309081212
 31
0.0
 11
25.21656942275222
 21
72.63763417094434
 31
0.0
 11
22.51177187122234
 21
64.32635177421125
 31
0.0
 11
28.50096649699859
 21
63.1666379514127
 31
0.0
 11
36.61535848822079
 21
67.03235069408107
 31
0.0
 11
41.2521540065427
 21
73.21749108234826
 31
0.0
  0
SPLINE
  5
A474
102
{ACAD_REACTORS
330
A4D9
102
}
330
2
100
AcDbEntity
  8
KIJUN
100
AcDbSpline
210
0.0
220
0.0
230
1.0
 70
     8
 71
     3
 72
    14
 73
    10
 74
     0
 42
0.0000000001
 43
0.0000000001
 40
4.120789840172591
 40
4.120789840172591
 40
4.120789840172591
 40
4.120789840172591
 40
5.95949213525284
 40
10.16553135436204
 40
12.41368375192779
 40
17.17256486464659
 40
19.67643480276264
 40
27.33279800525386
 40
35.95979873889827
 40
35.95979873889827
 40
35.95979873889827
 40
35.95979873889827
 10
30.76677737146617
 20
86.20377765781158
 30
0.0
 10
29.93180142253083
 20
86.05791336099843
 30
0.0
 10
27.23061692631083
 20
85.4081868607089
 30
0.0
 10
23.81051900682504
 20
83.40668091560109
 30
0.0
 10
21.12809665981561
 20
78.11400848698049
 30
0.0
 10
26.63050201230972
 20
74.98997634520342
 30
0.0
 10
33.3472868380961
 20
75.32544281755463
 30
0.0
 10
41.34880321117845
 20
79.82921964812063
 30
0.0
 10
47.09498968920876
 20
84.60423301923887
 30
0.0
 10
50.13934558250273
 20
87.13405695594905
 30
0.0
  0
SPLINE
  5
A475
102
{ACAD_REACTORS
330
A4D9
102
}
330
2
100
AcDbEntity
  8
KIJUN
100
AcDbSpline
210
0.0
220
0.0
230
1.0
 70
     8
 71
     3
 72
    14
 73
    10
 74
     0
 42
0.0000000001
 43
0.0000000001
 40
4.120789840172591
 40
4.120789840172591
 40
4.120789840172591
 40
4.120789840172591
 40
5.95949213525284
 40
10.16553135436204
 40
12.41368375192779
 40
17.17256486464659
 40
19.67643480276264
 40
27.33279800525386
 40
35.95979873889827
 40
35.95979873889827
 40
35.95979873889827
 40
35.95979873889827
 10
30.7667773714638
 20
104.0208039652874
 30
0.0
 10
29.93180142252846
 20
104.1666682621003
 30
0.0
 10
27.23061692630829
 20
104.8163947623891
 30
0.0
 10
23.81051900682204
 20
106.8179007074962
 30
0.0
 10
21.12809665981119
 20
112.110573136116
 30
0.0
 10
26.63050201230435
 20
115.2346052778945
 30
0.0
 10
33.34728683809089
 20
114.899138805545
 30
0.0
 10
41.34880321117452
 20
110.3953619749811
 30
0.0
 10
47.09498968920608
 20
105.6203486038642
 30
0.0
 10
50.13934558250067
 20
103.0905246671549
 30
0.0
  0
SPLINE
  5
A476
102
{ACAD_REACTORS
330
A4D9
102
}
330
2
100
AcDbEntity
  8
KIJUN
100
AcDbSpline
210
0.0
220
0.0
230
1.0
 70
     8
 71
     3
 72
    14
 73
    10
 74
     8
 42
0.0000000001
 43
0.0000000001
 44
0.0000000001
 40
0.0
 40
0.0
 40
0.0
 40
0.0
 40
7.05812826209924
 40
13.84251803262927
 40
21.00135658567289
 40
29.49652359882091
 40
36.13390054312154
 40
41.08261512866099
 40
46.10158930892163
 40
46.10158930892163
 40
46.10158930892163
 40
46.10158930892163
 10
50.08192280585571
 20
95.11229081154786
 30
0.0
 10
48.0102719618986
 20
96.70409730742301
 30
0.0
 10
43.94731601948861
 20
99.82597456798929
 30
0.0
 10
37.18081284366786
 20
95.05431457527626
 30
0.0
 10
30.5406284314078
 20
95.39098262012943
 30
0.0
 10
19.20275064743886
 20
96.96093169149703
 30
0.0
 10
26.02695771597627
 20
104.6607734970945
 30
0.0
 10
31.53077339884562
 20
103.8750665371188
 30
0.0
 10
34.84548064826122
 20
103.6656190942749
 30
0.0
 10
36.51451651914641
 20
103.560157203113
 30
0.0
 11
50.08192280585571
 21
95.11229081154786
 31
0.0
 11
43.76375215941376
 21
98.2583827120942
 31
0.0
 11
37.38815807295405
 21
95.93895506649444
 31
0.0
 11
30.23976440175381
 21
95.55238379222783
 31
0.0
 11
22.30414502807795
 21
98.58451303377057
 31
0.0
 11
26.56896786682602
 21
103.6703815785548
 31
0.0
 11
31.51016657476712
 21
103.9430193928288
 31
0.0
 11
36.51451651914641
 21
103.560157203113
 31
0.0
  0
SPLINE
  5
A477
102
{ACAD_REACTORS
330
A4D9
102
}
330
2
100
AcDbEntity
  8
KIJUN
100
AcDbSpline
210
0.0
220
0.0
230
1.0
 70
     8
 71
     3
 72
    12
 73
     8
 74
     6
 42
0.0000000001
 43
0.0000000001
 44
0.0000000001
 40
0.0
 40
0.0
 40
0.0
 40
0.0
 40
6.396560258241152
 40
15.13688890612442
 40
21.23733056359633
 40
30.22549458057105
 40
37.95568437780779
 40
37.95568437780779
 40
37.95568437780779
 40
37.95568437780779
 10
31.01256398649403
 20
114.8809485322869
 30
0.0
 10
28.98234770841752
 20
115.4233083249802
 30
0.0
 10
24.17802209965671
 20
116.7067543643683
 30
0.0
 10
19.75249412494283
 20
126.9842658269378
 30
0.0
 10
30.10672544002559
 20
127.5745076635408
 30
0.0
 10
36.7749219699995
 20
124.0224176589883
 30
0.0
 10
39.83653375697347
 20
119.2252108089998
 30
0.0
 10
41.25215400653702
 20
117.0070905407534
 30
0.0
 11
31.01256398649403
 21
114.8809485322869
 31
0.0
 11
25.21656942274638
 21
117.5869474521533
 31
0.0
 11
22.51177187121429
 21
125.8982298488857
 31
0.0
 11
28.50096649699039
 21
127.0579436716857
 31
0.0
 11
36.61535848821352
 21
123.1922309290194
 31
0.0
 11
41.25215400653702
 21
117.0070905407534
 31
0.0
  0
SPLINE
  5
A479
102
{ACAD_REACTORS
330
A4D9
102
}
330
2
100
AcDbEntity
  8
KIJUN
100
AcDbSpline
210
0.0
220
0.0
230
1.0
 70
     8
 71
     3
 72
    14
 73
    10
 74
     8
 42
0.0000000001
 43
0.0000000001
 44
0.0000000001
 40
0.0
 40
0.0
 40
0.0
 40
0.0
 40
7.058128262099236
 40
13.84251803262911
 40
21.00135658567282
 40
29.49652359882083
 40
36.13390054312144
 40
41.0826151286608
 40
46.10158930892155
 40
46.10158930892155
 40
46.10158930892155
 40
46.10158930892155
 10
94.52636725030018
 20
95.11229081154075
 30
0.0
 10
96.59801809425689
 20
96.70409730741639
 30
0.0
 10
100.660974036666
 20
99.82597456798366
 30
0.0
 10
107.427477212488
 20
95.05431457527262
 30
0.0
 10
114.0676616247479
 20
95.39098262012723
 30
0.0
 10
125.4055394087165
 20
96.96093169149783
 30
0.0
 10
118.5813323401772
 20
104.6607734970935
 30
0.0
 10
113.077516657308
 20
103.8750665371164
 30
0.0
 10
109.7628094078924
 20
103.6656190942717
 30
0.0
 10
108.0937735370073
 20
103.5601572031094
 30
0.0
 11
94.52636725030018
 21
95.11229081154075
 31
0.0
 11
100.8445378967413
 21
98.25838271208869
 31
0.0
 11
107.2201319832015
 21
95.93895506649067
 31
0.0
 11
114.3685256544019
 21
95.55238379222579
 31
0.0
 11
122.304145028077
 21
98.58451303377057
 31
0.0
 11
118.0393221893276
 21
103.6703815785537
 31
0.0
 11
113.0981234813866
 21
103.9430193928264
 31
0.0
 11
108.0937735370073
 21
103.5601572031094
 31
0.0
  0
SPLINE
  5
A47A
102
{ACAD_REACTORS
330
A4D9
102
}
330
2
100
AcDbEntity
  8
KIJUN
100
AcDbSpline
210
0.0
220
0.0
230
1.0
 70
     8
 71
     3
 72
    12
 73
     8
 74
     6
 42
0.0000000001
 43
0.0000000001
 44
0.0000000001
 40
0.0
 40
0.0
 40
0.0
 40
0.0
 40
6.396560258241173
 40
15.13688890612435
 40
21.23733056359613
 40
30.22549458057086
 40
37.95568437780769
 40
37.95568437780769
 40
37.95568437780769
 40
37.95568437780769
 10
113.5957260696567
 20
114.8809485322847
 30
0.0
 10
115.625942347733
 20
115.4233083249785
 30
0.0
 10
120.4302679564935
 20
116.7067543643677
 30
0.0
 10
124.8557959312047
 20
126.9842658269382
 30
0.0
 10
114.5015646161219
 20
127.5745076635388
 30
0.0
 10
107.8333680861488
 20
124.0224176589846
 30
0.0
 10
104.7717562991762
 20
119.2252108089953
 30
0.0
 10
103.3561360496132
 20
117.0070905407485
 30
0.0
 11
113.5957260696567
 21
114.8809485322847
 31
0.0
 11
119.3917206334037
 21
117.5869474521525
 31
0.0
 11
122.0965181849335
 21
125.8982298488856
 31
0.0
 11
116.1073235591573
 21
127.0579436716841
 31
0.0
 11
107.9929315679351
 21
123.1922309290157
 31
0.0
 11
103.3561360496132
 21
117.0070905407485
 31
0.0
  0
SPLINE
  5
A47B
102
{ACAD_REACTORS
330
A4D9
102
}
330
2
100
AcDbEntity
  8
KIJUN
100
AcDbSpline
210
0.0
220
0.0
230
1.0
 70
     8
 71
     3
 72
    14
 73
    10
 74
     0
 42
0.0000000001
 43
0.0000000001
 40
4.120789840172591
 40
4.120789840172591
 40
4.120789840172591
 40
4.120789840172591
 40
5.95949213525284
 40
10.16553135436204
 40
12.41368375192779
 40
17.17256486464659
 40
19.67643480276264
 40
27.33279800525386
 40
35.95979873889827
 40
35.95979873889827
 40
35.95979873889827
 40
35.95979873889827
 10
113.8415126846897
 20
104.0208039652852
 30
0.0
 10
114.676488633625
 20
104.1666682620984
 30
0.0
 10
117.3776731298451
 20
104.8163947623879
 30
0.0
 10
120.7977710493308
 20
106.8179007074957
 30
0.0
 10
123.4801933963403
 20
112.1105731361163
 30
0.0
 10
117.9777880438462
 20
115.2346052778934
 30
0.0
 10
111.2610032180598
 20
114.8991388055422
 30
0.0
 10
103.2594868449774
 20
110.3953619749762
 30
0.0
 10
97.51330036694714
 20
105.6203486038579
 30
0.0
 10
94.46894447365314
 20
103.0905246671478
 30
0.0
  0
SPLINE
  5
A47C
102
{ACAD_REACTORS
330
A4D9
102
}
330
2
100
AcDbEntity
  8
KIJUN
100
AcDbSpline
210
0.0
220
0.0
230
1.0
 70
     8
 71
     3
 72
    14
 73
    10
 74
     0
 42
0.0000000001
 43
0.0000000001
 40
4.120789840172591
 40
4.120789840172591
 40
4.120789840172591
 40
4.120789840172591
 40
5.95949213525284
 40
10.16553135436204
 40
12.41368375192779
 40
17.17256486464659
 40
19.67643480276264
 40
27.33279800525386
 40
35.95979873889827
 40
35.95979873889827
 40
35.95979873889827
 40
35.95979873889827
 10
113.8415126846921
 20
86.20377765780938
 30
0.0
 10
114.6764886336274
 20
86.05791336099654
 30
0.0
 10
117.3776731298476
 20
85.40818686070764
 30
0.0
 10
120.7977710493338
 20
83.40668091560059
 30
0.0
 10
123.4801933963447
 20
78.11400848698081
 30
0.0
 10
117.9777880438514
 20
74.98997634520231
 30
0.0
 10
111.2610032180648
 20
75.32544281755178
 30
0.0
 10
103.2594868449814
 20
79.82921964811573
 30
0.0
 10
97.5133003669498
 20
84.60423301923254
 30
0.0
 10
94.46894447365522
 20
87.13405695594195
 30
0.0
  0
SPLINE
  5
A47D
102
{ACAD_REACTORS
330
A4D9
102
}
330
2
100
AcDbEntity
  8
KIJUN
100
AcDbSpline
210
0.0
220
0.0
230
1.0
 70
     8
 71
     3
 72
    14
 73
    10
 74
     8
 42
0.0000000001
 43
0.0000000001
 44
0.0000000001
 40
0.0
 40
0.0
 40
0.0
 40
0.0
 40
7.058128262099246
 40
13.84251803262929
 40
21.00135658567292
 40
29.49652359882091
 40
36.13390054312155
 40
41.08261512866097
 40
46.10158930892162
 40
46.10158930892162
 40
46.10158930892162
 40
46.10158930892162
 10
94.52636725030018
 20
95.11229081154898
 30
0.0
 10
96.59801809425729
 20
93.52048431567384
 30
0.0
 10
100.6609740366672
 20
90.39860705510752
 30
0.0
 10
107.427477212488
 20
95.17026704782056
 30
0.0
 10
114.0676616247481
 20
94.83359900296738
 30
0.0
 10
125.405539408717
 20
93.2636499315998
 30
0.0
 10
118.5813323401796
 20
85.56380812600231
 30
0.0
 10
113.0775166573102
 20
86.34951508597797
 30
0.0
 10
109.7628094078947
 20
86.55896252882186
 30
0.0
 10
108.0937735370095
 20
86.66442441998382
 30
0.0
 11
94.52636725030018
 21
95.11229081154898
 31
0.0
 11
100.8445378967421
 21
91.96619891100262
 31
0.0
 11
107.2201319832018
 21
94.28562655660238
 31
0.0
 11
114.3685256544021
 21
94.67219783086898
 31
0.0
 11
122.3041450280779
 21
91.64006858932628
 31
0.0
 11
118.0393221893299
 21
86.55420004454196
 31
0.0
 11
113.0981234813888
 21
86.28156223026802
 31
0.0
 11
108.0937735370095
 21
86.66442441998382
 31
0.0
  0
SPLINE
  5
A47E
102
{ACAD_REACTORS
330
A4D9
102
}
330
2
100
AcDbEntity
  8
KIJUN
100
AcDbSpline
210
0.0
220
0.0
230
1.0
 70
     8
 71
     3
 72
    12
 73
     8
 74
     6
 42
0.0000000001
 43
0.0000000001
 44
0.0000000001
 40
0.0
 40
0.0
 40
0.0
 40
0.0
 40
6.396560258241145
 40
15.13688890612441
 40
21.23733056359632
 40
30.22549458057103
 40
37.95568437780779
 40
37.95568437780779
 40
37.95568437780779
 40
37.95568437780779
 10
113.5957260696617
 20
75.34363309080991
 30
0.0
 10
115.6259423477382
 20
74.80127329811661
 30
0.0
 10
120.430267956499
 20
73.51782725872846
 30
0.0
 10
124.8557959312129
 20
63.24031579615905
 30
0.0
 10
114.5015646161301
 20
62.65007395955603
 30
0.0
 10
107.8333680861562
 20
66.20216396410853
 30
0.0
 10
104.7717562991823
 20
70.99937081409705
 30
0.0
 10
103.3561360496187
 20
73.21749108234337
 30
0.0
 11
113.5957260696617
 21
75.34363309080991
 31
0.0
 11
119.3917206334093
 21
72.63763417094354
 31
0.0
 11
122.0965181849414
 21
64.32635177421108
 31
0.0
 11
116.1073235591653
 21
63.16663795141112
 31
0.0
 11
107.9929315679422
 21
67.03235069407745
 31
0.0
 11
103.3561360496187
 21
73.21749108234337
 31
0.0
  0
SPLINE
  5
A480
102
{ACAD_REACTORS
330
A4D9
102
}
330
2
100
AcDbEntity
  8
KIJUN
100
AcDbSpline
210
0.0
220
0.0
230
1.0
 70
     8
 71
     3
 72
    14
 73
    10
 74
     0
 42
0.0000000001
 43
0.0000000001
 40
4.120789840172591
 40
4.120789840172591
 40
4.120789840172591
 40
4.120789840172591
 40
5.95949213525284
 40
10.16553135436204
 40
12.41368375192779
 40
17.17256486464659
 40
19.67643480276264
 40
27.33279800525386
 40
35.95979873889827
 40
35.95979873889827
 40
35.95979873889827
 40
35.95979873889827
 10
81.21265818181688
 20
53.57492315493434
 30
0.0
 10
81.35852247862974
 20
52.739947205999
 30
0.0
 10
82.00824897891862
 20
50.03876270977883
 30
0.0
 10
84.00975492402569
 20
46.61866479029258
 30
0.0
 10
89.30242735264547
 20
43.93624244328173
 30
0.0
 10
92.42645949442396
 20
49.43864779577489
 30
0.0
 10
92.09099302207448
 20
56.15543262156144
 30
0.0
 10
87.58721619151055
 20
64.15694899464506
 30
0.0
 10
82.81220282039374
 20
69.90313547267662
 30
0.0
 10
80.28237888368435
 20
72.94749136597122
 30
0.0
  0
SPLINE
  5
A481
102
{ACAD_REACTORS
330
A4D9
102
}
330
2
100
AcDbEntity
  8
KIJUN
100
AcDbSpline
210
0.0
220
0.0
230
1.0
 70
     8
 71
     3
 72
    14
 73
    10
 74
     8
 42
0.0000000001
 43
0.0000000001
 44
0.0000000001
 40
0.0
 40
0.0
 40
0.0
 40
0.0
 40
7.05812826209924
 40
13.84251803262927
 40
21.0013565856729
 40
29.49652359882092
 40
36.13390054312155
 40
41.082615128661
 40
46.10158930892165
 40
46.10158930892165
 40
46.10158930892165
 40
46.10158930892165
 10
72.30414502807732
 20
72.89006858932626
 30
0.0
 10
73.89595152395244
 20
70.81841774536915
 30
0.0
 10
77.01782878451874
 20
66.75546180295916
 30
0.0
 10
72.2461687918057
 20
59.9889586271384
 30
0.0
 10
72.5828368366589
 20
53.34877421487835
 30
0.0
 10
74.15278590802649
 20
42.0108964309094
 30
0.0
 10
81.85262771362399
 20
48.83510349944682
 30
0.0
 10
81.06692075364829
 20
54.33891918231615
 30
0.0
 10
80.85747331080442
 20
57.65362643173177
 30
0.0
 10
80.75201141964246
 20
59.32266230261696
 30
0.0
 11
72.30414502807732
 21
72.89006858932626
 31
0.0
 11
75.45023692862367
 21
66.57189794288431
 31
0.0
 11
73.13080928302389
 21
60.19630385642459
 31
0.0
 11
72.74423800875729
 21
53.04791018522435
 31
0.0
 11
75.77636725030001
 21
45.11229081154849
 31
0.0
 11
80.86223579508432
 21
49.37711365029656
 31
0.0
 11
81.13487360935826
 21
54.31831235823766
 31
0.0
 11
80.75201141964246
 21
59.32266230261696
 31
0.0
  0
SPLINE
  5
A482
102
{ACAD_REACTORS
330
A4D9
102
}
330
2
100
AcDbEntity
  8
KIJUN
100
AcDbSpline
210
0.0
220
0.0
230
1.0
 70
     8
 71
     3
 72
    14
 73
    10
 74
     0
 42
0.0000000001
 43
0.0000000001
 40
4.120789840172591
 40
4.120789840172591
 40
4.120789840172591
 40
4.120789840172591
 40
5.95949213525284
 40
10.16553135436204
 40
12.41368375192779
 40
17.17256486464659
 40
19.67643480276264
 40
27.33279800525386
 40
35.95979873889827
 40
35.95979873889827
 40
35.95979873889827
 40
35.95979873889827
 10
63.39563187434104
 20
53.57492315493671
 30
0.0
 10
63.24976757752788
 20
52.73994720600136
 30
0.0
 10
62.60004107723837
 20
50.03876270978136
 30
0.0
 10
60.59853513213054
 20
46.61866479029558
 30
0.0
 10
55.30586270350995
 20
43.93624244328615
 30
0.0
 10
52.18183056173288
 20
49.43864779578026
 30
0.0
 10
52.51729703408408
 20
56.15543262156664
 30
0.0
 10
57.02107386465009
 20
64.15694899464901
 30
0.0
 10
61.79608723576833
 20
69.9031354726793
 30
0.0
 10
64.3259111724785
 20
72.94749136597328
 30
0.0
  0
SPLINE
  5
A483
102
{ACAD_REACTORS
330
A4D9
102
}
330
2
100
AcDbEntity
  8
KIJUN
100
AcDbSpline
210
0.0
220
0.0
230
1.0
 70
     8
 71
     3
 72
    12
 73
     8
 74
     6
 42
0.0000000001
 43
0.0000000001
 44
0.0000000001
 40
0.0
 40
0.0
 40
0.0
 40
0.0
 40
6.39656025824118
 40
15.13688890612437
 40
21.23733056359615
 40
30.22549458057089
 40
37.95568437780771
 40
37.95568437780771
 40
37.95568437780771
 40
37.95568437780771
 10
52.53548730734157
 20
53.82070976996978
 30
0.0
 10
51.9931275146478
 20
51.79049349189338
 30
0.0
 10
50.70968147525852
 20
46.98616788313288
 30
0.0
 10
40.43217001268803
 20
42.56063990842176
 30
0.0
 10
39.84192817608745
 20
52.9148712235045
 30
0.0
 10
43.39401818064163
 20
59.58306775347756
 30
0.0
 10
48.191225030631
 20
62.64467954045027
 30
0.0
 10
50.40934529887771
 20
64.06029979001324
 30
0.0
 11
52.53548730734157
 21
53.82070976996978
 31
0.0
 11
49.82948838747379
 21
48.02471520622276
 31
0.0
 11
41.51820599074069
 21
45.31991765469289
 31
0.0
 11
40.35849216794215
 21
51.30911228046914
 31
0.0
 11
44.22420491061052
 21
59.42350427169133
 31
0.0
 11
50.40934529887771
 21
64.06029979001324
 31
0.0
  0
SPLINE
  5
A484
102
{ACAD_REACTORS
330
A4D9
102
}
330
2
100
AcDbEntity
  8
KIJUN
100
AcDbSpline
210
0.0
220
0.0
230
1.0
 70
     8
 71
     3
 72
    14
 73
    10
 74
     8
 42
0.0000000001
 43
0.0000000001
 44
0.0000000001
 40
0.0
 40
0.0
 40
0.0
 40
0.0
 40
7.058128262099236
 40
13.84251803262912
 40
21.00135658567281
 40
29.49652359882082
 40
36.13390054312141
 40
41.08261512866079
 40
46.10158930892153
 40
46.10158930892153
 40
46.10158930892153
 40
46.10158930892153
 10
72.30414502808554
 20
72.89006858932626
 30
0.0
 10
70.71233853220991
 20
70.81841774536954
 30
0.0
 10
67.59046127164265
 20
66.75546180296041
 30
0.0
 10
72.36212126435368
 20
59.98895862713841
 30
0.0
 10
72.02545321949907
 20
53.34877421487853
 30
0.0
 10
70.45550414812845
 20
42.01089643090994
 30
0.0
 10
62.75566234253273
 20
48.83510349944927
 30
0.0
 10
63.54136930250985
 20
54.33891918231841
 30
0.0
 10
63.75081674535454
 20
57.65362643173396
 30
0.0
 10
63.85627863651691
 20
59.32266230261916
 30
0.0
 11
72.30414502808554
 21
72.89006858932626
 31
0.0
 11
69.15805312753761
 21
66.5718979428851
 31
0.0
 11
71.47748077313562
 21
60.1963038564249
 31
0.0
 11
71.86405204740049
 21
53.0479101852245
 31
0.0
 11
68.83192280585572
 21
45.11229081154943
 31
0.0
 11
63.74605426107252
 21
49.37711365029877
 31
0.0
 11
63.47341644679985
 21
54.31831235823988
 31
0.0
 11
63.85627863651691
 21
59.32266230261916
 31
0.0
  0
SPLINE
  5
A485
102
{ACAD_REACTORS
330
A4D9
102
}
330
2
100
AcDbEntity
  8
KIJUN
100
AcDbSpline
210
0.0
220
0.0
230
1.0
 70
     8
 71
     3
 72
    12
 73
     8
 74
     6
 42
0.0000000001
 43
0.0000000001
 44
0.0000000001
 40
0.0
 40
0.0
 40
0.0
 40
0.0
 40
6.396560258241158
 40
15.13688890612441
 40
21.23733056359632
 40
30.22549458057103
 40
37.9556843778078
 40
37.9556843778078
 40
37.9556843778078
 40
37.9556843778078
 10
92.07280274881638
 20
53.82070976996456
 30
0.0
 10
92.61516254150967
 20
51.79049349188805
 30
0.0
 10
93.89860858089781
 20
46.98616788312726
 30
0.0
 10
104.1761200434672
 20
42.56063990841339
 30
0.0
 10
104.7663618800702
 20
52.91487122349612
 30
0.0
 10
101.2142718755178
 20
59.58306775347007
 30
0.0
 10
96.41706502552924
 20
62.64467954044401
 30
0.0
 10
94.19894475728289
 20
64.06029979000756
 30
0.0
 11
92.07280274881638
 21
53.82070976996456
 31
0.0
 11
94.77880166868274
 21
48.02471520621693
 31
0.0
 11
103.0900840654152
 21
45.31991765468483
 31
0.0
 11
104.2497978882152
 21
51.30911228046093
 31
0.0
 11
100.3840851455488
 21
59.42350427168406
 31
0.0
 11
94.19894475728289
 21
64.06029979000756
 31
0.0
  0
ARC
  5
A488
102
{ACAD_REACTORS
330
A4D9
102
}
330
2
100
AcDbEntity
  8
KIJUN
100
AcDbCircle
 10
131.1262554094772
 20
96.18574241419498
 30
0.0
 40
42.56323298437993
100
AcDbArc
 50
151.3858623545121
 51
219.2969646147604
  0
ARC
  5
A489
102
{ACAD_REACTORS
330
A4D9
102
}
330
2
100
AcDbEntity
  8
KIJUN
100
AcDbCircle
 10
114.9833825084763
 20
95.11229081153635
 30
0.0
 40
30.17923748038561
100
AcDbArc
 50
134.6839142532723
 51
225.3160857467523
  0
ARC
  5
A48A
102
{ACAD_REACTORS
330
A4D9
102
}
330
2
100
AcDbEntity
  8
KIJUN
100
AcDbCircle
 10
72.07089898756212
 20
38.67287501134491
 30
0.0
 40
40.1342255489767
100
AcDbArc
 50
48.149042487789
 51
127.0012490481907
  0
ARC
  5
A48B
102
{ACAD_REACTORS
330
A4D9
102
}
330
2
100
AcDbEntity
  8
KIJUN
100
AcDbCircle
 10
72.30414502809043
 20
52.43305333115011
 30
0.0
 40
30.17923748038561
100
AcDbArc
 50
44.6839142532493
 51
135.3160857467292
  0
LINE
  5
A48C
102
{ACAD_REACTORS
330
A4D9
102
}
330
2
100
AcDbEntity
  8
KIJUN
100
AcDbLine
 10
122.3041450280909
 20
45.11229081153586
 30
0.0
 11
93.76149002684526
 21
73.65494581278262
 31
0.0
  0
DIMENSION
  5
A48D
330
2
100
AcDbEntity
  8
SUNPOU
100
AcDbDimension
  2
*D26
 10
122.304145028076
 20
181.816300567697
 30
0.0
 11
72.30414502807701
 21
187.3163005676969
 31
0.0
 70
    32
 71
     5
 42
99.99999999999813
  3
STANDARD
100
AcDbAlignedDimension
 13
22.30414502807795
 23
145.1122908115485
 33
0.0
 14
122.304145028076
 24
145.1122908115466
 34
0.0
100
AcDbRotatedDimension
1001
ACAD
1000
DSTYLE
1002
{
1070
    41
1040
2.0
1070
    42
1040
10.0
1070
    44
1040
0.0
1070
    73
1070
     0
1070
    74
1070
     0
1070
    77
1070
     1
1070
   140
1040
5.0
1070
   141
1040
0.0
1070
   146
1040
0.064286
1070
   147
1040
3.0
1070
   176
1070
    60
1070
   177
1070
    70
1070
   178
1070
    60
1070
   271
1070
     0
1070
   272
1070
     0
1070
   340
1005
1C
1070
   342
1005
109
1002
}
  0
DIMENSION
  5
A49A
330
2
100
AcDbEntity
  8
SUNPOU
100
AcDbDimension
  2
*D27
 10
-16.0128763099562
 20
45.1122908115485
 30
0.0
 11
-21.5128763099562
 21
95.1122908115485
 31
0.0
 70
    32
 71
     5
 42
100.0
  3
STANDARD
100
AcDbAlignedDimension
 13
22.30414502807795
 23
145.1122908115485
 33
0.0
 14
22.30414502807795
 24
45.11229081154849
 34
0.0
 50
90.0
100
AcDbRotatedDimension
1001
ACAD
1000
DSTYLE
1002
{
1070
    41
1040
2.0
1070
    42
1040
10.0
1070
    44
1040
0.0
1070
    73
1070
     0
1070
    74
1070
     0
1070
    77
1070
     1
1070
   140
1040
5.0
1070
   141
1040
0.0
1070
   146
1040
0.064286
1070
   147
1040
3.0
1070
   176
1070
    60
1070
   177
1070
    70
1070
   178
1070
    60
1070
   271
1070
     0
1070
   272
1070
     0
1070
   340
1005
1C
1070
   342
1005
109
1002
}
  0
ARC
  5
A4B9
102
{ACAD_REACTORS
330
A4D9
102
}
330
2
100
AcDbEntity
  8
KIJUN
100
AcDbCircle
 10
-8.00991067981349
 20
139.0981246017403
 30
0.0
 40
30.90488907374254
100
AcDbArc
 50
354.3113448336776
 51
11.22149902881763
  0
ARC
  5
A4BA
102
{ACAD_REACTORS
330
A4D9
102
}
330
2
100
AcDbEntity
  8
KIJUN
100
AcDbCircle
 10
27.90790893687168
 20
133.2907917074179
 30
0.0
 40
5.195646987577385
100
AcDbArc
 50
188.0326545169581
 51
233.2529987714654
  0
ARC
  5
A4BB
102
{ACAD_REACTORS
330
A4D9
102
}
330
2
100
AcDbEntity
  8
KIJUN
100
AcDbCircle
 10
38.41549106367614
 20
134.3921073153393
 30
0.0
 40
15.75855917150784
100
AcDbArc
 50
174.0167342313905
 51
186.6589248003825
  0
ARC
  5
A4BC
102
{ACAD_REACTORS
330
A4D9
102
}
330
2
100
AcDbEntity
  8
KIJUN
100
AcDbCircle
 10
38.22536388574533
 20
146.4185130590561
 30
0.0
 40
21.89134798869885
100
AcDbArc
 50
232.1716444771246
 51
241.8440322426973
  0
ARC
  5
A4BD
102
{ACAD_REACTORS
330
A4D9
102
}
330
2
100
AcDbEntity
  8
KIJUN
100
AcDbCircle
 10
28.31831123788615
 20
175.4263465194399
 30
0.0
 40
30.90488907374254
100
AcDbArc
 50
258.7785009711815
 51
275.688655166322
  0
ARC
  5
A4BE
102
{ACAD_REACTORS
330
A4D9
102
}
330
2
100
AcDbEntity
  8
KIJUN
100
AcDbCircle
 10
34.1256441322085
 20
139.5085269027547
 30
0.0
 40
5.195646987577385
100
AcDbArc
 50
36.74700122853398
 51
81.96734548304151
  0
ARC
  5
A4BF
102
{ACAD_REACTORS
330
A4D9
102
}
330
2
100
AcDbEntity
  8
KIJUN
100
AcDbCircle
 10
33.02432852428711
 20
129.0009447759503
 30
0.0
 40
15.75855917150784
100
AcDbArc
 50
83.34107519961788
 51
95.98326576861017
  0
ARC
  5
A4C0
102
{ACAD_REACTORS
330
A4D9
102
}
330
2
100
AcDbEntity
  8
KIJUN
100
AcDbCircle
 10
20.99792278057038
 20
129.1910719538811
 30
0.0
 40
21.89134798869885
100
AcDbArc
 50
28.15596775730231
 51
37.82835552287497
  0
ARC
  5
A4C1
102
{ACAD_REACTORS
330
A4D9
102
}
330
2
100
AcDbEntity
  8
KIJUN
100
AcDbCircle
 10
-8.00991067981349
 20
51.12645702135669
 30
0.0
 40
30.90488907374254
100
AcDbArc
 50
348.7785009711816
 51
5.688655166321921
  0
ARC
  5
A4C2
102
{ACAD_REACTORS
330
A4D9
102
}
330
2
100
AcDbEntity
  8
KIJUN
100
AcDbCircle
 10
27.90790893687168
 20
56.93378991567904
 30
0.0
 40
5.195646987577385
100
AcDbArc
 50
126.7470012285346
 51
171.9673454830416
  0
ARC
  5
A4C3
102
{ACAD_REACTORS
330
A4D9
102
}
330
2
100
AcDbEntity
  8
KIJUN
100
AcDbCircle
 10
38.41549106367614
 20
55.83247430775765
 30
0.0
 40
15.75855917150784
100
AcDbArc
 50
173.3410751996179
 51
185.9832657686103
  0
ARC
  5
A4C4
102
{ACAD_REACTORS
330
A4D9
102
}
330
2
100
AcDbEntity
  8
KIJUN
100
AcDbCircle
 10
38.22536388574533
 20
43.80606856404091
 30
0.0
 40
21.89134798869885
100
AcDbArc
 50
118.1559677573029
 51
127.8283555228752
  0
ARC
  5
A4C5
102
{ACAD_REACTORS
330
A4D9
102
}
330
2
100
AcDbEntity
  8
KIJUN
100
AcDbCircle
 10
28.31831123788615
 20
14.79823510365706
 30
0.0
 40
30.90488907374254
100
AcDbArc
 50
84.31134483367792
 51
101.2214990288186
  0
ARC
  5
A4C6
102
{ACAD_REACTORS
330
A4D9
102
}
330
2
100
AcDbEntity
  8
KIJUN
100
AcDbCircle
 10
34.1256441322085
 20
50.71605472034223
 30
0.0
 40
5.195646987577385
100
AcDbArc
 50
278.0326545169586
 51
323.2529987714662
  0
ARC
  5
A4C7
102
{ACAD_REACTORS
330
A4D9
102
}
330
2
100
AcDbEntity
  8
KIJUN
100
AcDbCircle
 10
33.02432852428711
 20
61.22363684714669
 30
0.0
 40
15.75855917150784
100
AcDbArc
 50
264.0167342313897
 51
276.6589248003821
  0
ARC
  5
A4C8
102
{ACAD_REACTORS
330
A4D9
102
}
330
2
100
AcDbEntity
  8
KIJUN
100
AcDbCircle
 10
20.99792278057038
 20
61.03350966921588
 30
0.0
 40
21.89134798869885
100
AcDbArc
 50
322.171644477125
 51
331.8440322426979
  0
ARC
  5
A4C9
102
{ACAD_REACTORS
330
A4D9
102
}
330
2
100
AcDbEntity
  8
KIJUN
100
AcDbCircle
 10
152.6182007359694
 20
139.0981246017403
 30
0.0
 40
30.90488907374254
100
AcDbArc
 50
168.7785009711823
 51
185.6886551663225
  0
ARC
  5
A4CA
102
{ACAD_REACTORS
330
A4D9
102
}
330
2
100
AcDbEntity
  8
KIJUN
100
AcDbCircle
 10
116.7003811192842
 20
133.2907917074179
 30
0.0
 40
5.195646987577385
100
AcDbArc
 50
306.7470012285341
 51
351.9673454830418
  0
ARC
  5
A4CB
102
{ACAD_REACTORS
330
A4D9
102
}
330
2
100
AcDbEntity
  8
KIJUN
100
AcDbCircle
 10
106.1927989924797
 20
134.3921073153393
 30
0.0
 40
15.75855917150784
100
AcDbArc
 50
353.3410751996174
 51
5.983265768609431
  0
ARC
  5
A4CC
102
{ACAD_REACTORS
330
A4D9
102
}
330
2
100
AcDbEntity
  8
KIJUN
100
AcDbCircle
 10
106.3829261704105
 20
146.4185130590561
 30
0.0
 40
21.89134798869885
100
AcDbArc
 50
298.1559677573022
 51
307.8283555228751
  0
ARC
  5
A4CD
102
{ACAD_REACTORS
330
A4D9
102
}
330
2
100
AcDbEntity
  8
KIJUN
100
AcDbCircle
 10
116.2899788182697
 20
175.4263465194399
 30
0.0
 40
30.90488907374254
100
AcDbArc
 50
264.3113448336781
 51
281.2214990288183
  0
ARC
  5
A4CE
102
{ACAD_REACTORS
330
A4D9
102
}
330
2
100
AcDbEntity
  8
KIJUN
100
AcDbCircle
 10
110.4826459239474
 20
139.5085269027547
 30
0.0
 40
5.195646987577385
100
AcDbArc
 50
98.03265451695834
 51
143.2529987714658
  0
ARC
  5
A4CF
102
{ACAD_REACTORS
330
A4D9
102
}
330
2
100
AcDbEntity
  8
KIJUN
100
AcDbCircle
 10
111.5839615318688
 20
129.0009447759503
 30
0.0
 40
15.75855917150784
100
AcDbArc
 50
84.01673423138969
 51
96.65892480038211
  0
ARC
  5
A4D0
102
{ACAD_REACTORS
330
A4D9
102
}
330
2
100
AcDbEntity
  8
KIJUN
100
AcDbCircle
 10
123.6103672755855
 20
129.1910719538811
 30
0.0
 40
21.89134798869885
100
AcDbArc
 50
142.1716444771249
 51
151.8440322426974
  0
ARC
  5
A4D1
102
{ACAD_REACTORS
330
A4D9
102
}
330
2
100
AcDbEntity
  8
KIJUN
100
AcDbCircle
 10
152.6182007359694
 20
51.12645702135669
 30
0.0
 40
30.90488907374254
100
AcDbArc
 50
174.311344833678
 51
191.2214990288185
  0
ARC
  5
A4D2
102
{ACAD_REACTORS
330
A4D9
102
}
330
2
100
AcDbEntity
  8
KIJUN
100
AcDbCircle
 10
116.7003811192842
 20
56.93378991567904
 30
0.0
 40
5.195646987577385
100
AcDbArc
 50
8.032654516958491
 51
53.25299877146592
  0
ARC
  5
A4D3
102
{ACAD_REACTORS
330
A4D9
102
}
330
2
100
AcDbEntity
  8
KIJUN
100
AcDbCircle
 10
106.1927989924797
 20
55.83247430775765
 30
0.0
 40
15.75855917150784
100
AcDbArc
 50
354.0167342313896
 51
6.658924800382104
  0
ARC
  5
A4D4
102
{ACAD_REACTORS
330
A4D9
102
}
330
2
100
AcDbEntity
  8
KIJUN
100
AcDbCircle
 10
106.3829261704105
 20
43.80606856404091
 30
0.0
 40
21.89134798869885
100
AcDbArc
 50
52.17164447712496
 51
61.84403224269777
  0
ARC
  5
A4D5
102
{ACAD_REACTORS
330
A4D9
102
}
330
2
100
AcDbEntity
  8
KIJUN
100
AcDbCircle
 10
116.2899788182697
 20
14.79823510365706
 30
0.0
 40
30.90488907374254
100
AcDbArc
 50
78.77850097118148
 51
95.68865516632193
  0
ARC
  5
A4D6
102
{ACAD_REACTORS
330
A4D9
102
}
330
2
100
AcDbEntity
  8
KIJUN
100
AcDbCircle
 10
110.4826459239474
 20
50.71605472034223
 30
0.0
 40
5.195646987577385
100
AcDbArc
 50
216.747001228534
 51
261.9673454830415
  0
ARC
  5
A4D7
102
{ACAD_REACTORS
330
A4D9
102
}
330
2
100
AcDbEntity
  8
KIJUN
100
AcDbCircle
 10
111.5839615318688
 20
61.22363684714669
 30
0.0
 40
15.75855917150784
100
AcDbArc
 50
263.3410751996179
 51
275.9832657686103
  0
ARC
  5
A4D8
102
{ACAD_REACTORS
330
A4D9
102
}
330
2
100
AcDbEntity
  8
KIJUN
100
AcDbCircle
 10
123.6103672755855
 20
61.03350966921588
 30
0.0
 40
21.89134798869885
100
AcDbArc
 50
208.1559677573024
 51
217.828355522875
  0
ENDSEC
  0
SECTION
  2
OBJECTS
  0
DICTIONARY
  5
1A
330
0
100
AcDbDictionary
281
     1
  3
ACAD_COLOR
350
144
  3
ACAD_GROUP
350
18
  3
ACAD_LAYOUT
350
58
  3
ACAD_MATERIAL
350
143
  3
ACAD_MLINESTYLE
350
19
  3
ACAD_PLOTSETTINGS
350
59
  3
ACAD_PLOTSTYLENAME
350
56
  3
ACAD_TABLESTYLE
350
145
  3
ACDBHEADERROUNDTRIPXREC
350
A51B
  3
AcDbVariableDictionary
350
1D1
  0
DICTIONARY
  5
1B4
330
A
100
AcDbDictionary
280
     1
281
     1
  3
ACAD_LAYERFILTERS
360
7795
  3
ACLYDICTIONARY
360
7794
  0
DICTIONARY
  5
D13
330
2
100
AcDbDictionary
280
     1
281
     1
  3
ACAD_SORTENTS
360
D14
  0
DICTIONARY
  5
144
102
{ACAD_REACTORS
330
1A
102
}
330
1A
100
AcDbDictionary
281
     1
  0
DICTIONARY
  5
18
102
{ACAD_REACTORS
330
1A
102
}
330
1A
100
AcDbDictionary
281
     1
  3
*A1
350
E0D
  3
*A10
350
A0DC
  3
*A100
350
136A
  3
*A101
350
46A5
  3
*A102
350
4B49
  3
*A103
350
2A17
  3
*A104
350
4E16
  3
*A105
350
8919
  3
*A106
350
8BB8
  3
*A107
350
8F11
  3
*A108
350
8F12
  3
*A109
350
9092
  3
*A11
350
A10F
  3
*A110
350
9163
  3
*A111
350
9432
  3
*A112
350
964B
  3
*A12
350
A154
  3
*A13
350
52B0
  3
*A14
350
A1CC
  3
*A15
350
A2F5
  3
*A16
350
A407
  3
*A17
350
A4D9
  3
*A18
350
36C9
  3
*A19
350
4C3E
  3
*A2
350
519C
  3
*A20
350
5396
  3
*A21
350
265A
  3
*A22
350
275E
  3
*A23
350
48BA
  3
*A24
350
5464
  3
*A25
350
556A
  3
*A26
350
4EE5
  3
*A27
350
213E
  3
*A28
350
57BF
  3
*A29
350
31DF
  3
*A3
350
98D2
  3
*A30
350
3349
  3
*A31
350
4CEC
  3
*A32
350
58EE
  3
*A33
350
382B
  3
*A34
350
1EFE
  3
*A35
350
2573
  3
*A36
350
422E
  3
*A37
350
97D7
  3
*A38
350
4516
  3
*A39
350
3878
  3
*A4
350
99FC
  3
*A40
350
5D92
  3
*A41
350
2905
  3
*A42
350
3E5C
  3
*A43
350
1555
  3
*A44
350
17BC
  3
*A45
350
3181
  3
*A46
350
2B84
  3
*A47
350
24D6
  3
*A48
350
4F64
  3
*A49
350
5F6F
  3
*A5
350
9AE5
  3
*A50
350
4A53
  3
*A51
350
626B
  3
*A52
350
6417
  3
*A53
350
307D
  3
*A54
350
668C
  3
*A55
350
4D76
  3
*A56
350
241A
  3
*A57
350
68C5
  3
*A58
350
34BB
  3
*A59
350
4781
  3
*A6
350
9B93
  3
*A60
350
6A30
  3
*A61
350
2EE1
  3
*A62
350
6A98
  3
*A63
350
1A98
  3
*A64
350
6C32
  3
*A65
350
2037
  3
*A66
350
6D00
  3
*A67
350
3988
  3
*A68
350
6DE3
  3
*A69
350
FF8
  3
*A7
350
9CE8
  3
*A70
350
5011
  3
*A71
350
6EB7
  3
*A72
350
706D
  3
*A73
350
45E5
  3
*A74
350
7170
  3
*A75
350
35A5
  3
*A76
350
3695
  3
*A77
350
401B
  3
*A78
350
1CBC
  3
*A79
350
3C81
  3
*A8
350
9E96
  3
*A80
350
7453
  3
*A81
350
2C6B
  3
*A82
350
76E3
  3
*A83
350
3A25
  3
*A84
350
7793
  3
*A85
350
2D78
  3
*A86
350
7ADA
  3
*A87
350
26DD
  3
*A88
350
7D2B
  3
*A89
350
32E4
  3
*A9
350
A089
  3
*A90
350
2F81
  3
*A91
350
4407
  3
*A92
350
22C8
  3
*A93
350
7E5C
  3
*A94
350
8108
  3
*A95
350
8393
  3
*A96
350
84B0
  3
*A97
350
8635
  3
*A98
350
3467
  3
*A99
350
87B5
  0
DICTIONARY
  5
58
102
{ACAD_REACTORS
330
1A
102
}
330
1A
100
AcDbDictionary
281
     1
  3
Model
350
5A
  3
ﾚｲｱｳﾄ1
350
5B
  0
DICTIONARY
  5
143
102
{ACAD_REACTORS
330
1A
102
}
330
1A
100
AcDbDictionary
281
     1
  0
DICTIONARY
  5
19
102
{ACAD_REACTORS
330
1A
102
}
330
1A
100
AcDbDictionary
281
     1
  3
STANDARD
350
1D
  0
DICTIONARY
  5
59
102
{ACAD_REACTORS
330
1A
102
}
330
1A
100
AcDbDictionary
281
     1
  0
ACDBDICTIONARYWDFLT
  5
56
102
{ACAD_REACTORS
330
1A
102
}
330
1A
100
AcDbDictionary
281
     1
  3
Normal
350
57
100
AcDbDictionaryWithDefault
340
57
  0
DICTIONARY
  5
145
102
{ACAD_REACTORS
330
1A
102
}
330
1A
100
AcDbDictionary
281
     1
  3
Standard
350
146
  0
DICTIONARY
  5
A51B
102
{ACAD_REACTORS
330
1A
102
}
330
1A
100
AcDbDictionary
281
     1
  0
DICTIONARY
  5
1D1
102
{ACAD_REACTORS
330
1A
102
}
330
1A
100
AcDbDictionary
281
     1
  3
CTABLESTYLE
350
1D2
  3
DIMASSOC
350
D03
  3
PROJECTNAME
350
D04
  0
DICTIONARY
  5
7795
102
{ACAD_REACTORS
330
1B4
102
}
330
1B4
100
AcDbDictionary
281
     1
  0
DICTIONARY
  5
7794
102
{ACAD_REACTORS
330
1B4
102
}
330
1B4
100
AcDbDictionary
281
     1
1001
ACAD
1000
<All
  0
SORTENTSTABLE
  5
D14
102
{ACAD_REACTORS
330
D13
102
}
330
D13
100
AcDbSortentsTable
330
2
331
20
  5
20
331
21
  5
21
331
23
  5
23
331
1F
  5
1F
  0
GROUP
  5
E0D
102
{ACAD_REACTORS
330
18
102
}
330
18
100
AcDbGroup
300

 70
     1
 71
     1
  0
GROUP
  5
A0DC
102
{ACAD_REACTORS
330
18
102
}
330
18
100
AcDbGroup
300

 70
     1
 71
     1
  0
GROUP
  5
136A
102
{ACAD_REACTORS
330
18
102
}
330
18
100
AcDbGroup
300

 70
     1
 71
     1
  0
GROUP
  5
46A5
102
{ACAD_REACTORS
330
18
102
}
330
18
100
AcDbGroup
300

 70
     1
 71
     1
  0
GROUP
  5
4B49
102
{ACAD_REACTORS
330
18
102
}
330
18
100
AcDbGroup
300

 70
     1
 71
     1
  0
GROUP
  5
2A17
102
{ACAD_REACTORS
330
18
102
}
330
18
100
AcDbGroup
300

 70
     1
 71
     1
  0
GROUP
  5
4E16
102
{ACAD_REACTORS
330
18
102
}
330
18
100
AcDbGroup
300

 70
     1
 71
     1
  0
GROUP
  5
8919
102
{ACAD_REACTORS
330
18
102
}
330
18
100
AcDbGroup
300

 70
     1
 71
     1
  0
GROUP
  5
8BB8
102
{ACAD_REACTORS
330
18
102
}
330
18
100
AcDbGroup
300

 70
     1
 71
     1
  0
GROUP
  5
8F11
102
{ACAD_REACTORS
330
18
102
}
330
18
100
AcDbGroup
300

 70
     1
 71
     1
  0
GROUP
  5
8F12
102
{ACAD_REACTORS
330
18
102
}
330
18
100
AcDbGroup
300

 70
     1
 71
     1
  0
GROUP
  5
9092
102
{ACAD_REACTORS
330
18
102
}
330
18
100
AcDbGroup
300

 70
     1
 71
     1
  0
GROUP
  5
A10F
102
{ACAD_REACTORS
330
18
102
}
330
18
100
AcDbGroup
300

 70
     1
 71
     1
  0
GROUP
  5
9163
102
{ACAD_REACTORS
330
18
102
}
330
18
100
AcDbGroup
300

 70
     1
 71
     1
  0
GROUP
  5
9432
102
{ACAD_REACTORS
330
18
102
}
330
18
100
AcDbGroup
300

 70
     1
 71
     1
  0
GROUP
  5
964B
102
{ACAD_REACTORS
330
18
102
}
330
18
100
AcDbGroup
300

 70
     1
 71
     1
  0
GROUP
  5
A154
102
{ACAD_REACTORS
330
18
102
}
330
18
100
AcDbGroup
300

 70
     1
 71
     1
  0
GROUP
  5
52B0
102
{ACAD_REACTORS
330
18
102
}
330
18
100
AcDbGroup
300

 70
     1
 71
     1
  0
GROUP
  5
A1CC
102
{ACAD_REACTORS
330
18
102
}
330
18
100
AcDbGroup
300

 70
     1
 71
     1
  0
GROUP
  5
A2F5
102
{ACAD_REACTORS
330
18
102
}
330
18
100
AcDbGroup
300

 70
     1
 71
     1
  0
GROUP
  5
A407
102
{ACAD_REACTORS
330
18
102
}
330
18
100
AcDbGroup
300

 70
     1
 71
     1
  0
GROUP
  5
A4D9
102
{ACAD_REACTORS
330
18
102
}
330
18
100
AcDbGroup
300

 70
     1
 71
     1
340
A4D8
340
A4D7
340
A4D6
340
A4D5
340
A4D4
340
A4D3
340
A4D2
340
A4D1
340
A4D0
340
A4CF
340
A4CE
340
A4CD
340
A4CC
340
A4CB
340
A4CA
340
A4C9
340
A4C8
340
A4C7
340
A4C6
340
A4C5
340
A4C4
340
A4C3
340
A4C2
340
A4C1
340
A4C0
340
A4BF
340
A4BE
340
A4BD
340
A4BC
340
A4BB
340
A4BA
340
A4B9
340
A48C
340
A48B
340
A48A
340
A489
340
A488
340
A485
340
A484
340
A483
340
A482
340
A481
340
A480
340
A47E
340
A47D
340
A47C
340
A47B
340
A47A
340
A479
340
A477
340
A476
340
A475
340
A474
340
A473
340
A472
340
A46F
340
A46E
340
A46D
340
A46A
340
A469
340
A468
340
A467
340
A466
340
A465
340
A464
340
A463
340
A462
340
A461
340
A460
340
A45F
340
A45E
340
A45D
340
A45C
340
A45B
340
A45A
340
A459
340
A458
340
A457
340
A456
340
A455
340
A454
340
A453
  0
GROUP
  5
36C9
102
{ACAD_REACTORS
330
18
102
}
330
18
100
AcDbGroup
300

 70
     1
 71
     1
  0
GROUP
  5
4C3E
102
{ACAD_REACTORS
330
18
102
}
330
18
100
AcDbGroup
300

 70
     1
 71
     1
  0
GROUP
  5
519C
102
{ACAD_REACTORS
330
18
102
}
330
18
100
AcDbGroup
300

 70
     1
 71
     1
  0
GROUP
  5
5396
102
{ACAD_REACTORS
330
18
102
}
330
18
100
AcDbGroup
300

 70
     1
 71
     1
  0
GROUP
  5
265A
102
{ACAD_REACTORS
330
18
102
}
330
18
100
AcDbGroup
300

 70
     1
 71
     1
  0
GROUP
  5
275E
102
{ACAD_REACTORS
330
18
102
}
330
18
100
AcDbGroup
300

 70
     1
 71
     1
  0
GROUP
  5
48BA
102
{ACAD_REACTORS
330
18
102
}
330
18
100
AcDbGroup
300

 70
     1
 71
     1
  0
GROUP
  5
5464
102
{ACAD_REACTORS
330
18
102
}
330
18
100
AcDbGroup
300

 70
     1
 71
     1
  0
GROUP
  5
556A
102
{ACAD_REACTORS
330
18
102
}
330
18
100
AcDbGroup
300

 70
     1
 71
     1
  0
GROUP
  5
4EE5
102
{ACAD_REACTORS
330
18
102
}
330
18
100
AcDbGroup
300

 70
     1
 71
     1
  0
GROUP
  5
213E
102
{ACAD_REACTORS
330
18
102
}
330
18
100
AcDbGroup
300

 70
     1
 71
     1
  0
GROUP
  5
57BF
102
{ACAD_REACTORS
330
18
102
}
330
18
100
AcDbGroup
300

 70
     1
 71
     1
  0
GROUP
  5
31DF
102
{ACAD_REACTORS
330
18
102
}
330
18
100
AcDbGroup
300

 70
     1
 71
     1
  0
GROUP
  5
98D2
102
{ACAD_REACTORS
330
18
102
}
330
18
100
AcDbGroup
300

 70
     1
 71
     1
  0
GROUP
  5
3349
102
{ACAD_REACTORS
330
18
102
}
330
18
100
AcDbGroup
300

 70
     1
 71
     1
  0
GROUP
  5
4CEC
102
{ACAD_REACTORS
330
18
102
}
330
18
100
AcDbGroup
300

 70
     1
 71
     1
  0
GROUP
  5
58EE
102
{ACAD_REACTORS
330
18
102
}
330
18
100
AcDbGroup
300

 70
     1
 71
     1
  0
GROUP
  5
382B
102
{ACAD_REACTORS
330
18
102
}
330
18
100
AcDbGroup
300

 70
     1
 71
     1
  0
GROUP
  5
1EFE
102
{ACAD_REACTORS
330
18
102
}
330
18
100
AcDbGroup
300

 70
     1
 71
     1
  0
GROUP
  5
2573
102
{ACAD_REACTORS
330
18
102
}
330
18
100
AcDbGroup
300

 70
     1
 71
     1
  0
GROUP
  5
422E
102
{ACAD_REACTORS
330
18
102
}
330
18
100
AcDbGroup
300

 70
     1
 71
     1
  0
GROUP
  5
97D7
102
{ACAD_REACTORS
330
18
102
}
330
18
100
AcDbGroup
300

 70
     1
 71
     1
  0
GROUP
  5
4516
102
{ACAD_REACTORS
330
18
102
}
330
18
100
AcDbGroup
300

 70
     1
 71
     1
  0
GROUP
  5
3878
102
{ACAD_REACTORS
330
18
102
}
330
18
100
AcDbGroup
300

 70
     1
 71
     1
  0
GROUP
  5
99FC
102
{ACAD_REACTORS
330
18
102
}
330
18
100
AcDbGroup
300

 70
     1
 71
     1
  0
GROUP
  5
5D92
102
{ACAD_REACTORS
330
18
102
}
330
18
100
AcDbGroup
300

 70
     1
 71
     1
  0
GROUP
  5
2905
102
{ACAD_REACTORS
330
18
102
}
330
18
100
AcDbGroup
300

 70
     1
 71
     1
  0
GROUP
  5
3E5C
102
{ACAD_REACTORS
330
18
102
}
330
18
100
AcDbGroup
300

 70
     1
 71
     1
  0
GROUP
  5
1555
102
{ACAD_REACTORS
330
18
102
}
330
18
100
AcDbGroup
300

 70
     1
 71
     1
  0
GROUP
  5
17BC
102
{ACAD_REACTORS
330
18
102
}
330
18
100
AcDbGroup
300

 70
     1
 71
     1
  0
GROUP
  5
3181
102
{ACAD_REACTORS
330
18
102
}
330
18
100
AcDbGroup
300

 70
     1
 71
     1
  0
GROUP
  5
2B84
102
{ACAD_REACTORS
330
18
102
}
330
18
100
AcDbGroup
300

 70
     1
 71
     1
  0
GROUP
  5
24D6
102
{ACAD_REACTORS
330
18
102
}
330
18
100
AcDbGroup
300

 70
     1
 71
     1
  0
GROUP
  5
4F64
102
{ACAD_REACTORS
330
18
102
}
330
18
100
AcDbGroup
300

 70
     1
 71
     1
  0
GROUP
  5
5F6F
102
{ACAD_REACTORS
330
18
102
}
330
18
100
AcDbGroup
300

 70
     1
 71
     1
  0
GROUP
  5
9AE5
102
{ACAD_REACTORS
330
18
102
}
330
18
100
AcDbGroup
300

 70
     1
 71
     1
  0
GROUP
  5
4A53
102
{ACAD_REACTORS
330
18
102
}
330
18
100
AcDbGroup
300

 70
     1
 71
     1
  0
GROUP
  5
626B
102
{ACAD_REACTORS
330
18
102
}
330
18
100
AcDbGroup
300

 70
     1
 71
     1
  0
GROUP
  5
6417
102
{ACAD_REACTORS
330
18
102
}
330
18
100
AcDbGroup
300

 70
     1
 71
     1
  0
GROUP
  5
307D
102
{ACAD_REACTORS
330
18
102
}
330
18
100
AcDbGroup
300

 70
     1
 71
     1
  0
GROUP
  5
668C
102
{ACAD_REACTORS
330
18
102
}
330
18
100
AcDbGroup
300

 70
     1
 71
     1
  0
GROUP
  5
4D76
102
{ACAD_REACTORS
330
18
102
}
330
18
100
AcDbGroup
300

 70
     1
 71
     1
  0
GROUP
  5
241A
102
{ACAD_REACTORS
330
18
102
}
330
18
100
AcDbGroup
300

 70
     1
 71
     1
  0
GROUP
  5
68C5
102
{ACAD_REACTORS
330
18
102
}
330
18
100
AcDbGroup
300

 70
     1
 71
     1
  0
GROUP
  5
34BB
102
{ACAD_REACTORS
330
18
102
}
330
18
100
AcDbGroup
300

 70
     1
 71
     1
  0
GROUP
  5
4781
102
{ACAD_REACTORS
330
18
102
}
330
18
100
AcDbGroup
300

 70
     1
 71
     1
  0
GROUP
  5
9B93
102
{ACAD_REACTORS
330
18
102
}
330
18
100
AcDbGroup
300

 70
     1
 71
     1
  0
GROUP
  5
6A30
102
{ACAD_REACTORS
330
18
102
}
330
18
100
AcDbGroup
300

 70
     1
 71
     1
  0
GROUP
  5
2EE1
102
{ACAD_REACTORS
330
18
102
}
330
18
100
AcDbGroup
300

 70
     1
 71
     1
  0
GROUP
  5
6A98
102
{ACAD_REACTORS
330
18
102
}
330
18
100
AcDbGroup
300

 70
     1
 71
     1
  0
GROUP
  5
1A98
102
{ACAD_REACTORS
330
18
102
}
330
18
100
AcDbGroup
300

 70
     1
 71
     1
  0
GROUP
  5
6C32
102
{ACAD_REACTORS
330
18
102
}
330
18
100
AcDbGroup
300

 70
     1
 71
     1
  0
GROUP
  5
2037
102
{ACAD_REACTORS
330
18
102
}
330
18
100
AcDbGroup
300

 70
     1
 71
     1
  0
GROUP
  5
6D00
102
{ACAD_REACTORS
330
18
102
}
330
18
100
AcDbGroup
300

 70
     1
 71
     1
  0
GROUP
  5
3988
102
{ACAD_REACTORS
330
18
102
}
330
18
100
AcDbGroup
300

 70
     1
 71
     1
  0
GROUP
  5
6DE3
102
{ACAD_REACTORS
330
18
102
}
330
18
100
AcDbGroup
300

 70
     1
 71
     1
  0
GROUP
  5
FF8
102
{ACAD_REACTORS
330
18
102
}
330
18
100
AcDbGroup
300

 70
     1
 71
     1
  0
GROUP
  5
9CE8
102
{ACAD_REACTORS
330
18
102
}
330
18
100
AcDbGroup
300

 70
     1
 71
     1
  0
GROUP
  5
5011
102
{ACAD_REACTORS
330
18
102
}
330
18
100
AcDbGroup
300

 70
     1
 71
     1
  0
GROUP
  5
6EB7
102
{ACAD_REACTORS
330
18
102
}
330
18
100
AcDbGroup
300

 70
     1
 71
     1
  0
GROUP
  5
706D
102
{ACAD_REACTORS
330
18
102
}
330
18
100
AcDbGroup
300

 70
     1
 71
     1
  0
GROUP
  5
45E5
102
{ACAD_REACTORS
330
18
102
}
330
18
100
AcDbGroup
300

 70
     1
 71
     1
  0
GROUP
  5
7170
102
{ACAD_REACTORS
330
18
102
}
330
18
100
AcDbGroup
300

 70
     1
 71
     1
  0
GROUP
  5
35A5
102
{ACAD_REACTORS
330
18
102
}
330
18
100
AcDbGroup
300

 70
     1
 71
     1
  0
GROUP
  5
3695
102
{ACAD_REACTORS
330
18
102
}
330
18
100
AcDbGroup
300

 70
     1
 71
     1
  0
GROUP
  5
401B
102
{ACAD_REACTORS
330
18
102
}
330
18
100
AcDbGroup
300

 70
     1
 71
     1
  0
GROUP
  5
1CBC
102
{ACAD_REACTORS
330
18
102
}
330
18
100
AcDbGroup
300

 70
     1
 71
     1
  0
GROUP
  5
3C81
102
{ACAD_REACTORS
330
18
102
}
330
18
100
AcDbGroup
300

 70
     1
 71
     1
  0
GROUP
  5
9E96
102
{ACAD_REACTORS
330
18
102
}
330
18
100
AcDbGroup
300

 70
     1
 71
     1
  0
GROUP
  5
7453
102
{ACAD_REACTORS
330
18
102
}
330
18
100
AcDbGroup
300

 70
     1
 71
     1
  0
GROUP
  5
2C6B
102
{ACAD_REACTORS
330
18
102
}
330
18
100
AcDbGroup
300

 70
     1
 71
     1
  0
GROUP
  5
76E3
102
{ACAD_REACTORS
330
18
102
}
330
18
100
AcDbGroup
300

 70
     1
 71
     1
  0
GROUP
  5
3A25
102
{ACAD_REACTORS
330
18
102
}
330
18
100
AcDbGroup
300

 70
     1
 71
     1
  0
GROUP
  5
7793
102
{ACAD_REACTORS
330
18
102
}
330
18
100
AcDbGroup
300

 70
     1
 71
     1
  0
GROUP
  5
2D78
102
{ACAD_REACTORS
330
18
102
}
330
18
100
AcDbGroup
300

 70
     1
 71
     1
  0
GROUP
  5
7ADA
102
{ACAD_REACTORS
330
18
102
}
330
18
100
AcDbGroup
300

 70
     1
 71
     1
  0
GROUP
  5
26DD
102
{ACAD_REACTORS
330
18
102
}
330
18
100
AcDbGroup
300

 70
     1
 71
     1
  0
GROUP
  5
7D2B
102
{ACAD_REACTORS
330
18
102
}
330
18
100
AcDbGroup
300

 70
     1
 71
     1
  0
GROUP
  5
32E4
102
{ACAD_REACTORS
330
18
102
}
330
18
100
AcDbGroup
300

 70
     1
 71
     1
  0
GROUP
  5
A089
102
{ACAD_REACTORS
330
18
102
}
330
18
100
AcDbGroup
300

 70
     1
 71
     1
  0
GROUP
  5
2F81
102
{ACAD_REACTORS
330
18
102
}
330
18
100
AcDbGroup
300

 70
     1
 71
     1
  0
GROUP
  5
4407
102
{ACAD_REACTORS
330
18
102
}
330
18
100
AcDbGroup
300

 70
     1
 71
     1
  0
GROUP
  5
22C8
102
{ACAD_REACTORS
330
18
102
}
330
18
100
AcDbGroup
300

 70
     1
 71
     1
  0
GROUP
  5
7E5C
102
{ACAD_REACTORS
330
18
102
}
330
18
100
AcDbGroup
300

 70
     1
 71
     1
  0
GROUP
  5
8108
102
{ACAD_REACTORS
330
18
102
}
330
18
100
AcDbGroup
300

 70
     1
 71
     1
  0
GROUP
  5
8393
102
{ACAD_REACTORS
330
18
102
}
330
18
100
AcDbGroup
300

 70
     1
 71
     1
  0
GROUP
  5
84B0
102
{ACAD_REACTORS
330
18
102
}
330
18
100
AcDbGroup
300

 70
     1
 71
     1
  0
GROUP
  5
8635
102
{ACAD_REACTORS
330
18
102
}
330
18
100
AcDbGroup
300

 70
     1
 71
     1
  0
GROUP
  5
3467
102
{ACAD_REACTORS
330
18
102
}
330
18
100
AcDbGroup
300

 70
     1
 71
     1
  0
GROUP
  5
87B5
102
{ACAD_REACTORS
330
18
102
}
330
18
100
AcDbGroup
300

 70
     1
 71
     1
  0
LAYOUT
  5
5A
102
{ACAD_XDICTIONARY
360
A51C
102
}
102
{ACAD_REACTORS
330
58
102
}
330
58
100
AcDbPlotSettings
  1

  2
なし
  4

  6

 40
0.0
 41
0.0
 42
0.0
 43
0.0
 44
0.0
 45
0.0
 46
0.0
 47
0.0
 48
0.0
 49
0.0
140
0.0
141
0.0
142
1.0
143
1.0
 70
  1712
 72
     0
 73
     0
 74
     0
  7
monochrome.ctb
 75
     0
147
1.0
148
0.0
149
0.0
100
AcDbLayout
  1
Model
 70
     1
 71
     0
 10
0.0
 20
0.0
 11
12.0
 21
9.0
 12
0.0
 22
0.0
 32
0.0
 14
0.0
 24
0.0
 34
0.0
 15
0.0
 25
0.0
 35
0.0
146
0.0
 13
0.0
 23
0.0
 33
0.0
 16
1.0
 26
0.0
 36
0.0
 17
0.0
 27
1.0
 37
0.0
 76
     0
330
2
  0
LAYOUT
  5
5B
102
{ACAD_XDICTIONARY
360
A51E
102
}
102
{ACAD_REACTORS
330
58
102
}
330
58
100
AcDbPlotSettings
  1

  2
なし
  4

  6

 40
0.0
 41
0.0
 42
0.0
 43
0.0
 44
0.0
 45
0.0
 46
0.0
 47
0.0
 48
0.0
 49
0.0
140
0.0
141
0.0
142
1.0
143
1.0
 70
   688
 72
     0
 73
     0
 74
     5
  7
monochrome.ctb
 75
    16
147
1.0
148
0.0
149
0.0
100
AcDbLayout
  1
ﾚｲｱｳﾄ1
 70
     1
 71
     1
 10
0.0
 20
0.0
 11
12.0
 21
9.0
 12
0.0
 22
0.0
 32
0.0
 14
1.000000000000000E+20
 24
1.000000000000000E+20
 34
1.000000000000000E+20
 15
-1.000000000000000E+20
 25
-1.000000000000000E+20
 35
-1.000000000000000E+20
146
0.0
 13
0.0
 23
0.0
 33
0.0
 16
1.0
 26
0.0
 36
0.0
 17
0.0
 27
1.0
 37
0.0
 76
     0
330
7
  0
MLINESTYLE
  5
1D
102
{ACAD_REACTORS
330
19
102
}
330
19
100
AcDbMlineStyle
  2
STANDARD
 70
     0
  3

 62
   256
 51
90.0
 52
90.0
 71
     2
 49
0.5
 62
   256
  6
BYLAYER
 49
-0.5
 62
   256
  6
BYLAYER
  0
ACDBPLACEHOLDER
  5
57
102
{ACAD_REACTORS
330
56
102
}
330
56
  0
TABLESTYLE
  5
146
102
{ACAD_REACTORS
330
145
102
}
330
145
100
AcDbTableStyle
  3
Standard
 70
     0
 71
     0
 40
0.06
 41
0.06
280
     0
281
     0
  7
STANDARD
140
0.18
170
     2
 62
     0
 63
     7
283
     0
274
    -2
284
     1
 64
     0
275
    -2
285
     1
 65
     0
276
    -2
286
     1
 66
     0
277
    -2
287
     1
 67
     0
278
    -2
288
     1
 68
     0
279
    -2
289
     1
 69
     0
  7
STANDARD
140
0.25
170
     5
 62
     0
 63
     7
283
     0
274
    -2
284
     1
 64
     0
275
    -2
285
     1
 65
     0
276
    -2
286
     1
 66
     0
277
    -2
287
     1
 67
     0
278
    -2
288
     1
 68
     0
279
    -2
289
     1
 69
     0
  7
STANDARD
140
0.18
170
     5
 62
     0
 63
     7
283
     0
274
    -2
284
     1
 64
     0
275
    -2
285
     1
 65
     0
276
    -2
286
     1
 66
     0
277
    -2
287
     1
 67
     0
278
    -2
288
     1
 68
     0
279
    -2
289
     1
 69
     0
  0
DICTIONARYVAR
  5
1D2
102
{ACAD_REACTORS
330
1D1
102
}
330
1D1
100
DictionaryVariables
280
     0
  1
STANDARD
  0
DICTIONARYVAR
  5
D03
102
{ACAD_REACTORS
330
1D1
102
}
330
1D1
100
DictionaryVariables
280
     0
  1
1
  0
DICTIONARYVAR
  5
D04
102
{ACAD_REACTORS
330
1D1
102
}
330
1D1
100
DictionaryVariables
280
     0
  1

  0
DICTIONARY
  5
A51C
330
5A
100
AcDbDictionary
280
     1
281
     1
  3
ACAD_XREC_ROUNDTRIP
360
A51D
  0
DICTIONARY
  5
A51E
330
5B
100
AcDbDictionary
280
     1
281
     1
  3
ACAD_XREC_ROUNDTRIP
360
A51F
  0
XRECORD
  5
A51D
102
{ACAD_REACTORS
330
A51C
102
}
330
A51C
100
AcDbXrecord
280
     1
102
SHADEPLOT
 70
     0
102
SHADEPLOTRESLEVEL
 70
     2
102
SHADEPLOTCUSTOMDPI
 70
   300
  0
XRECORD
  5
A51F
102
{ACAD_REACTORS
330
A51E
102
}
330
A51E
100
AcDbXrecord
280
     1
102
SHADEPLOT
 70
     0
102
SHADEPLOTRESLEVEL
 70
     2
102
SHADEPLOTCUSTOMDPI
 70
   300
  0
ENDSEC
  0
EOF
