  0
SECTION
  2
HEADER
  9
$ACADVER
  1
AC1015
  9
$ACADMAINTVER
 70
    20
  9
$DWGCODEPAGE
  3
ANSI_932
  9
$INSBASE
 10
922.019522
 20
-675.4306699999999
 30
0.0
  9
$EXTMIN
 10
-0.7343446366163047
 20
0.0
 30
0.0
  9
$EXTMAX
 10
133.4211017667494
 20
145.1722089426661
 30
0.0
  9
$LIMMIN
 10
0.0
 20
0.0
  9
$LIMMAX
 10
420.0
 20
297.0
  9
$ORTHOMODE
 70
     1
  9
$REGENMODE
 70
     1
  9
$FILLMODE
 70
     1
  9
$QTEXTMODE
 70
     0
  9
$MIRRTEXT
 70
     1
  9
$LTSCALE
 40
1.0
  9
$ATTMODE
 70
     1
  9
$TEXTSIZE
 40
30.0
  9
$TRACEWID
 40
0.05
  9
$TEXTSTYLE
  7
SUNPOU
  9
$CLAYER
  8
0
  9
$CELTYPE
  6
BYLAYER
  9
$CECOLOR
 62
   256
  9
$CELTSCALE
 40
1.0
  9
$DISPSILH
 70
     0
  9
$DIMSCALE
 40
1.0
  9
$DIMASZ
 40
2.0
  9
$DIMEXO
 40
10.0
  9
$DIMDLI
 40
0.38
  9
$DIMRND
 40
0.0
  9
$DIMDLE
 40
0.0
  9
$DIMEXE
 40
0.0
  9
$DIMTP
 40
0.0
  9
$DIMTM
 40
0.0
  9
$DIMTXT
 40
5.0
  9
$DIMCEN
 40
0.0
  9
$DIMTSZ
 40
0.0
  9
$DIMTOL
 70
     0
  9
$DIMLIM
 70
     0
  9
$DIMTIH
 70
     0
  9
$DIMTOH
 70
     0
  9
$DIMSE1
 70
     0
  9
$DIMSE2
 70
     0
  9
$DIMTAD
 70
     1
  9
$DIMZIN
 70
     0
  9
$DIMBLK
  1
Dot
  9
$DIMASO
 70
     1
  9
$DIMSHO
 70
     1
  9
$DIMPOST
  1

  9
$DIMAPOST
  1

  9
$DIMALT
 70
     0
  9
$DIMALTD
 70
     2
  9
$DIMALTF
 40
25.4
  9
$DIMLFAC
 40
1.0
  9
$DIMTOFL
 70
     0
  9
$DIMTVP
 40
0.0
  9
$DIMTIX
 70
     0
  9
$DIMSOXD
 70
     0
  9
$DIMSAH
 70
     0
  9
$DIMBLK1
  1

  9
$DIMBLK2
  1

  9
$DIMSTYLE
  2
STANDARD
  9
$DIMCLRD
 70
    60
  9
$DIMCLRE
 70
    70
  9
$DIMCLRT
 70
    60
  9
$DIMTFAC
 40
0.064286
  9
$DIMGAP
 40
3.0
  9
$DIMJUST
 70
     0
  9
$DIMSD1
 70
     0
  9
$DIMSD2
 70
     0
  9
$DIMTOLJ
 70
     1
  9
$DIMTZIN
 70
     0
  9
$DIMALTZ
 70
     0
  9
$DIMALTTZ
 70
     0
  9
$DIMUPT
 70
     0
  9
$DIMDEC
 70
     0
  9
$DIMTDEC
 70
     0
  9
$DIMALTU
 70
     2
  9
$DIMALTTD
 70
     2
  9
$DIMTXSTY
  7
SUNPOU
  9
$DIMAUNIT
 70
     0
  9
$DIMADEC
 70
     0
  9
$DIMALTRND
 40
0.0
  9
$DIMAZIN
 70
     0
  9
$DIMDSEP
 70
    46
  9
$DIMATFIT
 70
     3
  9
$DIMFRAC
 70
     0
  9
$DIMLDRBLK
  1

  9
$DIMLUNIT
 70
     2
  9
$DIMLWD
 70
    -2
  9
$DIMLWE
 70
    -2
  9
$DIMTMOVE
 70
     0
  9
$LUNITS
 70
     2
  9
$LUPREC
 70
     5
  9
$SKETCHINC
 40
0.1
  9
$FILLETRAD
 40
0.0
  9
$AUNITS
 70
     0
  9
$AUPREC
 70
     0
  9
$MENU
  1
acad
  9
$ELEVATION
 40
0.0
  9
$PELEVATION
 40
0.0
  9
$THICKNESS
 40
0.0
  9
$LIMCHECK
 70
     0
  9
$CHAMFERA
 40
0.0
  9
$CHAMFERB
 40
0.0
  9
$CHAMFERC
 40
0.0
  9
$CHAMFERD
 40
0.0
  9
$SKPOLY
 70
     0
  9
$TDCREATE
 40
2450623.654673033
  9
$TDUCREATE
 40
2450623.279673032
  9
$TDUPDATE
 40
2453879.430690197
  9
$TDUUPDATE
 40
2453879.055690197
  9
$TDINDWG
 40
1.9084754630
  9
$TDUSRTIMER
 40
1.9084752894
  9
$USRTIMER
 70
     1
  9
$ANGBASE
 50
0.0
  9
$ANGDIR
 70
     0
  9
$PDMODE
 70
     0
  9
$PDSIZE
 40
0.0
  9
$PLINEWID
 40
0.0
  9
$SPLFRAME
 70
     0
  9
$SPLINETYPE
 70
     6
  9
$SPLINESEGS
 70
     8
  9
$HANDSEED
  5
A4F6
  9
$SURFTAB1
 70
     6
  9
$SURFTAB2
 70
     6
  9
$SURFTYPE
 70
     6
  9
$SURFU
 70
     6
  9
$SURFV
 70
     6
  9
$UCSBASE
  2

  9
$UCSNAME
  2

  9
$UCSORG
 10
0.0
 20
0.0
 30
0.0
  9
$UCSXDIR
 10
1.0
 20
0.0
 30
0.0
  9
$UCSYDIR
 10
0.0
 20
1.0
 30
0.0
  9
$UCSORTHOREF
  2

  9
$UCSORTHOVIEW
 70
     0
  9
$UCSORGTOP
 10
0.0
 20
0.0
 30
0.0
  9
$UCSORGBOTTOM
 10
0.0
 20
0.0
 30
0.0
  9
$UCSORGLEFT
 10
0.0
 20
0.0
 30
0.0
  9
$UCSORGRIGHT
 10
0.0
 20
0.0
 30
0.0
  9
$UCSORGFRONT
 10
0.0
 20
0.0
 30
0.0
  9
$UCSORGBACK
 10
0.0
 20
0.0
 30
0.0
  9
$PUCSBASE
  2

  9
$PUCSNAME
  2

  9
$PUCSORG
 10
0.0
 20
0.0
 30
0.0
  9
$PUCSXDIR
 10
1.0
 20
0.0
 30
0.0
  9
$PUCSYDIR
 10
0.0
 20
1.0
 30
0.0
  9
$PUCSORTHOREF
  2

  9
$PUCSORTHOVIEW
 70
     0
  9
$PUCSORGTOP
 10
0.0
 20
0.0
 30
0.0
  9
$PUCSORGBOTTOM
 10
0.0
 20
0.0
 30
0.0
  9
$PUCSORGLEFT
 10
0.0
 20
0.0
 30
0.0
  9
$PUCSORGRIGHT
 10
0.0
 20
0.0
 30
0.0
  9
$PUCSORGFRONT
 10
0.0
 20
0.0
 30
0.0
  9
$PUCSORGBACK
 10
0.0
 20
0.0
 30
0.0
  9
$USERI1
 70
     0
  9
$USERI2
 70
     0
  9
$USERI3
 70
     0
  9
$USERI4
 70
     0
  9
$USERI5
 70
     0
  9
$USERR1
 40
0.0
  9
$USERR2
 40
0.0
  9
$USERR3
 40
0.0
  9
$USERR4
 40
0.0
  9
$USERR5
 40
0.0
  9
$WORLDVIEW
 70
     1
  9
$SHADEDGE
 70
     3
  9
$SHADEDIF
 70
    70
  9
$TILEMODE
 70
     1
  9
$MAXACTVP
 70
    16
  9
$PINSBASE
 10
0.0
 20
0.0
 30
0.0
  9
$PLIMCHECK
 70
     0
  9
$PEXTMIN
 10
1.000000000000000E+20
 20
1.000000000000000E+20
 30
1.000000000000000E+20
  9
$PEXTMAX
 10
-1.000000000000000E+20
 20
-1.000000000000000E+20
 30
-1.000000000000000E+20
  9
$PLIMMIN
 10
0.0
 20
0.0
  9
$PLIMMAX
 10
12.0
 20
9.0
  9
$UNITMODE
 70
     0
  9
$VISRETAIN
 70
     0
  9
$PLINEGEN
 70
     0
  9
$PSLTSCALE
 70
     1
  9
$TREEDEPTH
 70
  3020
  9
$CMLSTYLE
  2
STANDARD
  9
$CMLJUST
 70
     0
  9
$CMLSCALE
 40
1.0
  9
$PROXYGRAPHICS
 70
     1
  9
$MEASUREMENT
 70
     0
  9
$CELWEIGHT
370
    -1
  9
$ENDCAPS
280
     0
  9
$JOINSTYLE
280
     0
  9
$LWDISPLAY
290
     0
  9
$INSUNITS
 70
     0
  9
$HYPERLINKBASE
  1

  9
$STYLESHEET
  1

  9
$XEDIT
290
     1
  9
$CEPSNTYPE
380
     0
  9
$PSTYLEMODE
290
     1
  9
$FINGERPRINTGUID
  2
{FB88A696-E29C-4009-92AF-A3599A8169D5}
  9
$VERSIONGUID
  2
{9F6427B6-5BEF-4728-B31D-967A45337CC6}
  9
$EXTNAMES
290
     1
  9
$PSVPSCALE
 40
0.0
  9
$OLESTARTUP
290
     0
  0
ENDSEC
  0
SECTION
  2
CLASSES
  0
CLASS
  1
DICTIONARYVAR
  2
AcDbDictionaryVar
  3
ObjectDBX Classes
 90
        0
280
     0
281
     0
  0
CLASS
  1
ACDBDICTIONARYWDFLT
  2
AcDbDictionaryWithDefault
  3
ObjectDBX Classes
 90
        0
280
     0
281
     0
  0
CLASS
  1
ACDBPLACEHOLDER
  2
AcDbPlaceHolder
  3
ObjectDBX Classes
 90
        0
280
     0
281
     0
  0
CLASS
  1
LAYOUT
  2
AcDbLayout
  3
ObjectDBX Classes
 90
        0
280
     0
281
     0
  0
CLASS
  1
TABLESTYLE
  2
AcDbTableStyle
  3
ObjectDBX Classes
 90
     2047
280
     0
281
     0
  0
CLASS
  1
SORTENTSTABLE
  2
AcDbSortentsTable
  3
ObjectDBX Classes
 90
        0
280
     0
281
     0
  0
ENDSEC
  0
SECTION
  2
TABLES
  0
TABLE
  2
VPORT
  5
12
330
0
100
AcDbSymbolTable
 70
     3
  0
VPORT
  5
A4F0
330
12
100
AcDbSymbolTableRecord
100
AcDbViewportTableRecord
  2
*Active
 70
     0
 10
0.0
 20
0.0
 11
1.0
 21
1.0
 12
66.35619506536532
 22
72.87291974978342
 13
0.0
 23
0.0
 14
1.0
 24
1.0
 15
0.0
 25
0.0
 16
0.0
 26
0.0
 36
1.0
 17
0.0
 27
0.0
 37
0.0
 40
146.8634009297842
 41
1.558109833971902
 42
50.0
 43
0.0
 44
0.0
 50
0.0
 51
0.0
 71
     0
 72
 20000
 73
     1
 74
     1
 75
     0
 76
     0
 77
     0
 78
     0
281
     0
 65
     1
110
0.0
120
0.0
130
0.0
111
1.0
121
0.0
131
0.0
112
0.0
122
1.0
132
0.0
 79
     0
146
0.0
  0
ENDTAB
  0
TABLE
  2
LTYPE
  5
D
330
0
100
AcDbSymbolTable
 70
     1
  0
LTYPE
  5
E
330
D
100
AcDbSymbolTableRecord
100
AcDbLinetypeTableRecord
  2
BYBLOCK
 70
     0
  3

 72
    65
 73
     0
 40
0.0
  0
LTYPE
  5
F
330
D
100
AcDbSymbolTableRecord
100
AcDbLinetypeTableRecord
  2
BYLAYER
 70
     0
  3

 72
    65
 73
     0
 40
0.0
  0
LTYPE
  5
5
330
D
100
AcDbSymbolTableRecord
100
AcDbLinetypeTableRecord
  2
CONTINUOUS
 70
     0
  3
Solid line
 72
    65
 73
     0
 40
0.0
  0
ENDTAB
  0
TABLE
  2
LAYER
  5
A
102
{ACAD_XDICTIONARY
360
1B4
102
}
330
0
100
AcDbSymbolTable
 70
     6
  0
LAYER
  5
4
330
A
100
AcDbSymbolTableRecord
100
AcDbLayerTableRecord
  2
0
 70
     0
 62
     7
  6
CONTINUOUS
370
    -3
390
57
  0
LAYER
  5
25
330
A
100
AcDbSymbolTableRecord
100
AcDbLayerTableRecord
  2
KIJUN
 70
     0
 62
     7
  6
CONTINUOUS
370
    -3
390
57
  0
LAYER
  5
22
330
A
100
AcDbSymbolTableRecord
100
AcDbLayerTableRecord
  2
HOJO
 70
     0
 62
     3
  6
CONTINUOUS
370
    -3
390
57
  0
LAYER
  5
1B
330
A
100
AcDbSymbolTableRecord
100
AcDbLayerTableRecord
  2
WAKU
 70
     0
 62
     1
  6
CONTINUOUS
370
    -3
390
57
  0
LAYER
  5
31
330
A
100
AcDbSymbolTableRecord
100
AcDbLayerTableRecord
  2
DEFPOINTS
 70
     0
 62
     7
  6
CONTINUOUS
290
     0
370
    -3
390
57
  0
LAYER
  5
28
330
A
100
AcDbSymbolTableRecord
100
AcDbLayerTableRecord
  2
SUNPOU
 70
     0
 62
    70
  6
CONTINUOUS
370
    -3
390
57
  0
ENDTAB
  0
TABLE
  2
STYLE
  5
B
330
0
100
AcDbSymbolTable
 70
     2
  0
STYLE
  5
C
330
B
100
AcDbSymbolTableRecord
100
AcDbTextStyleTableRecord
  2
STANDARD
 70
     0
 40
0.0
 41
1.0
 50
0.0
 71
     0
 42
0.2
  3
txt
  4

  0
STYLE
  5
1C
330
B
100
AcDbSymbolTableRecord
100
AcDbTextStyleTableRecord
  2
SUNPOU
 70
     0
 40
0.0
 41
1.0
 50
0.0
 71
     0
 42
30.0
  3
txt
  4
bigfont
  0
ENDTAB
  0
TABLE
  2
VIEW
  5
10
330
0
100
AcDbSymbolTable
 70
     0
  0
ENDTAB
  0
TABLE
  2
UCS
  5
11
330
0
100
AcDbSymbolTable
 70
     0
  0
ENDTAB
  0
TABLE
  2
APPID
  5
14
330
0
100
AcDbSymbolTable
 70
    10
  0
APPID
  5
15
330
14
100
AcDbSymbolTableRecord
100
AcDbRegAppTableRecord
  2
ACAD
 70
     0
  0
APPID
  5
1D3
330
14
100
AcDbSymbolTableRecord
100
AcDbRegAppTableRecord
  2
ACAD_DSTYLE_DIMTEXT_FILL
 70
     0
  0
APPID
  5
1D4
330
14
100
AcDbSymbolTableRecord
100
AcDbRegAppTableRecord
  2
ACAD_DSTYLE_DIMEXT_LENGTH
 70
     0
  0
APPID
  5
1D5
330
14
100
AcDbSymbolTableRecord
100
AcDbRegAppTableRecord
  2
ACAD_DSTYLE_DIMEXT_ENABLED
 70
     0
  0
APPID
  5
1D6
330
14
100
AcDbSymbolTableRecord
100
AcDbRegAppTableRecord
  2
ACAD_DSTYLE_DIM_LINETYPE
 70
     0
  0
APPID
  5
1D7
330
14
100
AcDbSymbolTableRecord
100
AcDbRegAppTableRecord
  2
ACAD_DSTYLE_DIM_EXT1_LINETYPE
 70
     0
  0
APPID
  5
1D8
330
14
100
AcDbSymbolTableRecord
100
AcDbRegAppTableRecord
  2
ACAD_DSTYLE_DIM_EXT2_LINETYPE
 70
     0
  0
APPID
  5
294
330
14
100
AcDbSymbolTableRecord
100
AcDbRegAppTableRecord
  2
ACAD_DSTYLE_DIMJOGGED_JOGANGLE_SYMBOL
 70
     0
  0
APPID
  5
478
330
14
100
AcDbSymbolTableRecord
100
AcDbRegAppTableRecord
  2
ACAD_DSTYLE_DIMARC_LENGTH_SYMBOL
 70
     0
  0
APPID
  5
F55
330
14
100
AcDbSymbolTableRecord
100
AcDbRegAppTableRecord
  2
ACAD_EXEMPT_FROM_CAD_STANDARDS
 70
     0
  0
ENDTAB
  0
TABLE
  2
DIMSTYLE
  5
16
330
0
100
AcDbSymbolTable
 70
     8
100
AcDbDimStyleTable
 71
     1
340
1E
  0
DIMSTYLE
105
1E
102
{ACAD_REACTORS
330
A48D
330
A49A
102
}
330
16
100
AcDbSymbolTableRecord
100
AcDbDimStyleTableRecord
  2
STANDARD
 70
     0
340
C
  0
ENDTAB
  0
TABLE
  2
BLOCK_RECORD
  5
1
330
0
100
AcDbSymbolTable
 70
    28
  0
BLOCK_RECORD
  5
2
102
{ACAD_XDICTIONARY
360
D13
102
}
330
1
100
AcDbSymbolTableRecord
100
AcDbBlockTableRecord
  2
*MODEL_SPACE
340
5A
  0
BLOCK_RECORD
  5
7
330
1
100
AcDbSymbolTableRecord
100
AcDbBlockTableRecord
  2
*PAPER_SPACE
340
5B
  0
BLOCK_RECORD
  5
109
330
1
100
AcDbSymbolTableRecord
100
AcDbBlockTableRecord
  2
_Dot
340
0
102
{BLKREFS
331
98B9
331
98BA
331
98CB
331
98CC
331
9A00
331
9A01
331
9A12
331
9A13
331
9AD6
331
9AD7
331
9ADF
331
9AE0
331
9B7B
331
9B7C
331
9B8D
331
9B8E
331
9CEC
331
9CED
331
9CF5
331
9CF6
331
9EA3
331
9EA4
331
9EB5
331
9EB6
331
A096
331
A097
331
A0A8
331
A0A9
331
A14E
331
A14F
331
A1A5
331
A1A6
331
A1B2
331
A1B3
331
A302
331
A303
331
A314
331
A315
331
A3A6
331
A3A7
331
A3B3
331
A3B4
331
A492
331
A493
331
A49F
331
A4A0
102
}
  0
BLOCK_RECORD
  5
A48E
330
1
100
AcDbSymbolTableRecord
100
AcDbBlockTableRecord
  2
*D26
340
0
  0
BLOCK_RECORD
  5
A49B
330
1
100
AcDbSymbolTableRecord
100
AcDbBlockTableRecord
  2
*D27
340
0
  0
ENDTAB
  0
ENDSEC
  0
SECTION
  2
BLOCKS
  0
BLOCK
  5
3
330
2
100
AcDbEntity
  8
0
100
AcDbBlockBegin
  2
*MODEL_SPACE
 70
     0
 10
0.0
 20
0.0
 30
0.0
  3
*MODEL_SPACE
  1

  0
ENDBLK
  5
6
330
2
100
AcDbEntity
  8
0
100
AcDbBlockEnd
  0
BLOCK
  5
8
330
7
100
AcDbEntity
 67
     1
  8
0
100
AcDbBlockBegin
  2
*PAPER_SPACE
 70
     0
 10
0.0
 20
0.0
 30
0.0
  3
*PAPER_SPACE
  1

  0
ENDBLK
  5
9
330
7
100
AcDbEntity
 67
     1
  8
0
100
AcDbBlockEnd
  0
BLOCK
  5
10C
330
109
100
AcDbEntity
  8
0
100
AcDbBlockBegin
  2
_Dot
 70
     0
 10
0.0
 20
0.0
 30
0.0
  3
_Dot
  1

  0
LWPOLYLINE
  5
10A
330
109
100
AcDbEntity
  8
0
  6
ByBlock
 62
     0
100
AcDbPolyline
 90
        2
 70
     1
 43
0.5
 10
-0.25
 20
0.0
 42
1.0
 10
0.25
 20
0.0
 42
1.0
  0
LINE
  5
10B
330
109
100
AcDbEntity
  8
0
  6
ByBlock
 62
     0
370
    -2
100
AcDbLine
 10
-0.5
 20
0.0
 30
0.0
 11
-1.0
 21
0.0
 31
0.0
  0
ENDBLK
  5
10D
330
109
100
AcDbEntity
  8
0
100
AcDbBlockEnd
  0
BLOCK
  5
A498
330
A48E
100
AcDbEntity
  8
0
100
AcDbBlockBegin
  2
*D26
 70
     1
 10
0.0
 20
0.0
 30
0.0
  3
*D26
  1

  0
LINE
  5
A48F
330
A48E
100
AcDbEntity
  8
SUNPOU
 62
    70
370
    -2
100
AcDbLine
 10
34.85391072676828
 20
120.7453219182393
 30
0.0
 11
34.85391072676828
 21
137.1722089426661
 31
0.0
  0
LINE
  5
A490
330
A48E
100
AcDbEntity
  8
SUNPOU
 62
    70
370
    -2
100
AcDbLine
 10
106.8539107267669
 20
120.7453219182379
 30
0.0
 11
106.8539107267669
 21
137.1722089426661
 31
0.0
  0
LINE
  5
A491
330
A48E
100
AcDbEntity
  8
SUNPOU
 62
    60
370
    -2
100
AcDbLine
 10
36.85391072676828
 20
137.1722089426661
 30
0.0
 11
104.8539107267669
 21
137.1722089426661
 31
0.0
  0
INSERT
  5
A492
330
A48E
100
AcDbEntity
  8
SUNPOU
 62
    60
370
    -2
100
AcDbBlockReference
  2
_Dot
 10
34.85391072676828
 20
137.1722089426661
 30
0.0
 41
2.0
 42
2.0
 43
2.0
 50
180.0
  0
INSERT
  5
A493
330
A48E
100
AcDbEntity
  8
SUNPOU
 62
    60
370
    -2
100
AcDbBlockReference
  2
_Dot
 10
106.8539107267669
 20
137.1722089426661
 30
0.0
 41
2.0
 42
2.0
 43
2.0
  0
MTEXT
  5
A494
330
A48E
100
AcDbEntity
  8
SUNPOU
 62
    60
100
AcDbMText
 10
70.8539107267676
 20
142.6722089426661
 30
0.0
 40
5.0
 41
0.0
 71
     5
 72
     1
  1
\A1;72
  7
SUNPOU
 73
     1
 44
1.0
1001
ACAD
1000
MTEXTBEGIN
1070
    73
1070
     1
1070
    44
1040
1.0
1070
    74
1070
     0
1000
MTEXTEND
  0
POINT
  5
A495
330
A48E
100
AcDbEntity
  8
DEFPOINTS
 62
     0
100
AcDbPoint
 10
34.85391072676828
 20
110.7453219182393
 30
0.0
  0
POINT
  5
A496
330
A48E
100
AcDbEntity
  8
DEFPOINTS
 62
     0
100
AcDbPoint
 10
106.8539107267669
 20
110.7453219182379
 30
0.0
  0
POINT
  5
A497
330
A48E
100
AcDbEntity
  8
DEFPOINTS
 62
     0
100
AcDbPoint
 10
106.8539107267669
 20
137.1722089426661
 30
0.0
  0
ENDBLK
  5
A499
330
A48E
100
AcDbEntity
  8
0
100
AcDbBlockEnd
  0
BLOCK
  5
A4A5
330
A49B
100
AcDbEntity
  8
0
100
AcDbBlockBegin
  2
*D27
 70
     1
 10
0.0
 20
0.0
 30
0.0
  3
*D27
  1

  0
LINE
  5
A49C
330
A49B
100
AcDbEntity
  8
SUNPOU
 62
    70
370
    -2
100
AcDbLine
 10
24.85391072676828
 20
110.7453219182393
 30
0.0
 11
7.265655363383714
 21
110.7453219182393
 31
0.0
  0
LINE
  5
A49D
330
A49B
100
AcDbEntity
  8
SUNPOU
 62
    70
370
    -2
100
AcDbLine
 10
24.85391072676828
 20
38.74532191823929
 30
0.0
 11
7.265655363383698
 21
38.74532191823929
 31
0.0
  0
LINE
  5
A49E
330
A49B
100
AcDbEntity
  8
SUNPOU
 62
    60
370
    -2
100
AcDbLine
 10
7.265655363383714
 20
108.7453219182393
 30
0.0
 11
7.265655363383699
 21
40.74532191823929
 31
0.0
  0
INSERT
  5
A49F
330
A49B
100
AcDbEntity
  8
SUNPOU
 62
    60
370
    -2
100
AcDbBlockReference
  2
_Dot
 10
7.265655363383715
 20
110.7453219182393
 30
0.0
 41
2.0
 42
2.0
 43
2.0
 50
90.0
  0
INSERT
  5
A4A0
330
A49B
100
AcDbEntity
  8
SUNPOU
 62
    60
370
    -2
100
AcDbBlockReference
  2
_Dot
 10
7.265655363383699
 20
38.74532191823929
 30
0.0
 41
2.0
 42
2.0
 43
2.0
 50
270.0
  0
MTEXT
  5
A4A1
330
A49B
100
AcDbEntity
  8
SUNPOU
 62
    60
100
AcDbMText
 10
1.765655363383695
 20
74.7453219182393
 30
0.0
 40
5.0
 41
0.0
 71
     5
 72
     1
  1
\A1;72
  7
SUNPOU
 11
0.0000000000000001
 21
1.0
 31
0.0
 73
     1
 44
1.0
1001
ACAD
1000
MTEXTBEGIN
1070
    73
1070
     1
1070
    44
1040
1.0
1070
    74
1070
     0
1000
MTEXTEND
  0
POINT
  5
A4A2
330
A49B
100
AcDbEntity
  8
DEFPOINTS
 62
     0
100
AcDbPoint
 10
34.85391072676828
 20
110.7453219182393
 30
0.0
  0
POINT
  5
A4A3
330
A49B
100
AcDbEntity
  8
DEFPOINTS
 62
     0
100
AcDbPoint
 10
34.85391072676828
 20
38.74532191823929
 30
0.0
  0
POINT
  5
A4A4
330
A49B
100
AcDbEntity
  8
DEFPOINTS
 62
     0
100
AcDbPoint
 10
7.265655363383699
 20
38.74532191823929
 30
0.0
  0
ENDBLK
  5
A4A6
330
A49B
100
AcDbEntity
  8
0
100
AcDbBlockEnd
  0
ENDSEC
  0
SECTION
  2
ENTITIES
  0
LINE
  5
1F
330
2
100
AcDbEntity
  8
WAKU
100
AcDbLine
 10
0.0
 20
14.0
 30
0.0
 11
133.4211017667494
 21
13.99999999999999
 31
0.0
  0
LINE
  5
20
330
2
100
AcDbEntity
  8
WAKU
100
AcDbLine
 10
0.0
 20
0.0
 30
0.0
 11
133.4211017667494
 21
0.0
 31
0.0
  0
TEXT
  5
21
330
2
100
AcDbEntity
  8
HOJO
100
AcDbText
 10
9.653966000000025
 20
2.366626000000024
 30
0.0
 40
9.0
  1
TR90
  7
SUNPOU
100
AcDbText
  0
TEXT
  5
23
330
2
100
AcDbEntity
  8
HOJO
100
AcDbText
 10
75.8077226877416
 20
5.044386000000031
 30
0.0
 40
6.0
  1
72×72×8
  7
SUNPOU
100
AcDbText
  0
CIRCLE
  5
A453
102
{ACAD_REACTORS
330
A4D9
102
}
330
2
100
AcDbEntity
  8
KIJUN
100
AcDbCircle
 10
70.85391072676827
 20
74.74532191823929
 30
0.0
 40
9.0
  0
ARC
  5
A454
102
{ACAD_REACTORS
330
A4D9
102
}
330
2
100
AcDbEntity
  8
KIJUN
100
AcDbCircle
 10
71.1945265494171
 20
91.31629306185997
 30
0.0
 40
13.42125648129091
100
AcDbArc
 50
252.001215481692
 51
283.7714254726638
  0
ARC
  5
A455
102
{ACAD_REACTORS
330
A4D9
102
}
330
2
100
AcDbEntity
  8
KIJUN
100
AcDbCircle
 10
53.14374414463236
 20
74.36266134108294
 30
0.0
 40
14.52104754253617
100
AcDbArc
 50
347.4598105473194
 51
16.76754849832178
  0
LINE
  5
A456
102
{ACAD_REACTORS
330
A4D9
102
}
330
2
100
AcDbEntity
  8
KIJUN
100
AcDbLine
 10
67.04740099719504
 20
78.55183164781252
 30
0.0
 11
64.48994969608929
 21
81.10928294891825
 31
0.0
  0
LINE
  5
A457
102
{ACAD_REACTORS
330
A4D9
102
}
330
2
100
AcDbEntity
  8
KIJUN
100
AcDbLine
 10
74.66042045634151
 20
70.93881218866605
 30
0.0
 11
77.21787175744726
 21
68.3813608875603
 31
0.0
  0
ARC
  5
A458
102
{ACAD_REACTORS
330
A4D9
102
}
330
2
100
AcDbEntity
  8
KIJUN
100
AcDbCircle
 10
87.42488187038896
 20
75.08593774088822
 30
0.0
 40
13.42125648129096
100
AcDbArc
 50
166.2285745273369
 51
197.9987845183083
  0
ARC
  5
A459
102
{ACAD_REACTORS
330
A4D9
102
}
330
2
100
AcDbEntity
  8
KIJUN
100
AcDbCircle
 10
70.47125014961193
 20
57.03515533610269
 30
0.0
 40
14.52104754253681
100
AcDbArc
 50
73.23245150167844
 51
102.5401894526806
  0
LINE
  5
A45A
102
{ACAD_REACTORS
330
A4D9
102
}
330
2
100
AcDbEntity
  8
KIJUN
100
AcDbLine
 10
74.66042045634151
 20
70.93881218866605
 30
0.0
 11
77.21787175744726
 21
68.3813608875603
 31
0.0
  0
LINE
  5
A45B
102
{ACAD_REACTORS
330
A4D9
102
}
330
2
100
AcDbEntity
  8
KIJUN
100
AcDbLine
 10
67.31837682083551
 20
71.20978801230652
 30
0.0
 11
64.48994969608929
 21
68.3813608875603
 31
0.0
  0
LINE
  5
A45C
102
{ACAD_REACTORS
330
A4D9
102
}
330
2
100
AcDbEntity
  8
KIJUN
100
AcDbLine
 10
74.38944463270104
 20
78.28085582417205
 30
0.0
 11
77.21787175744726
 21
81.10928294891825
 31
0.0
  0
ARC
  5
A45D
102
{ACAD_REACTORS
330
A4D9
102
}
330
2
100
AcDbEntity
  8
KIJUN
100
AcDbCircle
 10
59.45589343435597
 20
74.74532191823906
 30
0.0
 40
6.101693380508836
100
AcDbArc
 50
308.2672855582485
 51
51.73271444175145
  0
ARC
  5
A45E
102
{ACAD_REACTORS
330
A4D9
102
}
330
2
100
AcDbEntity
  8
KIJUN
100
AcDbCircle
 10
70.8539107267685
 20
86.14333921065158
 30
0.0
 40
6.101693380508836
100
AcDbArc
 50
218.2672855582479
 51
321.7327144417521
  0
ARC
  5
A45F
102
{ACAD_REACTORS
330
A4D9
102
}
330
2
100
AcDbEntity
  8
KIJUN
100
AcDbCircle
 10
82.25192801918058
 20
74.74532191823951
 30
0.0
 40
6.101693380508836
100
AcDbArc
 50
128.2672855582485
 51
231.7327144417514
  0
ARC
  5
A460
102
{ACAD_REACTORS
330
A4D9
102
}
330
2
100
AcDbEntity
  8
KIJUN
100
AcDbCircle
 10
70.85391072676805
 20
63.34730462582697
 30
0.0
 40
6.101693380508836
100
AcDbArc
 50
38.26728555824792
 51
141.7327144417521
  0
ARC
  5
A461
102
{ACAD_REACTORS
330
A4D9
102
}
330
2
100
AcDbEntity
  8
KIJUN
100
AcDbCircle
 10
40.12485974089066
 20
74.74532191823894
 30
0.0
 40
21.72905098587763
100
AcDbArc
 50
314.6839142532724
 51
45.31608574675224
  0
LINE
  5
A462
102
{ACAD_REACTORS
330
A4D9
102
}
330
2
100
AcDbEntity
  8
KIJUN
100
AcDbLine
 10
34.85391072676828
 20
110.7453219182393
 30
0.0
 11
55.40462232766595
 21
90.19461031734241
 31
0.0
  0
LINE
  5
A463
102
{ACAD_REACTORS
330
A4D9
102
}
330
2
100
AcDbEntity
  8
KIJUN
100
AcDbLine
 10
34.85391072676828
 20
38.74532191823929
 30
0.0
 11
55.40462232766595
 21
59.29603351913616
 31
0.0
  0
ARC
  5
A464
102
{ACAD_REACTORS
330
A4D9
102
}
330
2
100
AcDbEntity
  8
KIJUN
100
AcDbCircle
 10
70.85391072676862
 20
105.4743729041169
 30
0.0
 40
21.72905098587763
100
AcDbArc
 50
224.6839142532493
 51
315.3160857467292
  0
LINE
  5
A465
102
{ACAD_REACTORS
330
A4D9
102
}
330
2
100
AcDbEntity
  8
KIJUN
100
AcDbLine
 10
106.8539107267669
 20
110.7453219182379
 30
0.0
 11
86.30319912587003
 21
90.19461031734024
 31
0.0
  0
ARC
  5
A466
102
{ACAD_REACTORS
330
A4D9
102
}
330
2
100
AcDbEntity
  8
KIJUN
100
AcDbCircle
 10
71.62679588068272
 20
117.0972413928375
 30
0.0
 40
30.64552774875354
100
AcDbArc
 50
230.7030353852391
 51
298.6141376454906
  0
ARC
  5
A467
102
{ACAD_REACTORS
330
A4D9
102
}
330
2
100
AcDbEntity
  8
KIJUN
100
AcDbCircle
 10
30.21753135063091
 20
74.57738476905857
 30
0.0
 40
28.89664239526322
100
AcDbArc
 50
322.9987509518081
 51
41.85095751221079
  0
SPLINE
  5
A468
102
{ACAD_REACTORS
330
A4D9
102
}
330
2
100
AcDbEntity
  8
KIJUN
100
AcDbSpline
210
0.0
220
0.0
230
1.0
 70
     8
 71
     3
 72
    14
 73
    10
 74
     8
 42
0.0000000001
 43
0.0000000001
 44
0.0000000001
 40
0.0
 40
0.0
 40
0.0
 40
0.0
 40
5.081852348711455
 40
9.966612983493078
 40
15.12097674168449
 40
21.23749699115106
 40
26.01640839104752
 40
29.57948289263593
 40
33.19314430242358
 40
33.19314430242358
 40
33.19314430242358
 40
33.19314430242358
 10
70.85391072676862
 20
90.74532191823928
 30
0.0
 10
69.70781004973853
 20
92.2369105258884
 30
0.0
 10
67.46005842213079
 20
95.16223880442359
 30
0.0
 10
70.89565361688414
 20
100.0341210910145
 30
0.0
 10
70.6532526245899
 20
104.8150538678418
 30
0.0
 10
69.5228892932052
 20
112.9783258722994
 30
0.0
 10
63.97900319317503
 20
108.0648967829525
 30
0.0
 10
64.54471220435749
 20
104.1021494912865
 30
0.0
 10
64.69551436320511
 20
101.7155602717073
 30
0.0
 10
64.77144692484171
 20
100.51385444467
 30
0.0
 11
70.85391072676862
 21
90.74532191823928
 31
0.0
 11
68.58872455837524
 21
95.29440478367749
 31
0.0
 11
70.25871246320708
 21
99.8848325259285
 31
0.0
 11
70.53704378067902
 21
105.0316759691926
 31
0.0
 11
68.35391072676827
 21
110.7453219182393
 31
0.0
 11
64.69208537452357
 21
107.6746494743406
 31
0.0
 11
64.49578614824634
 21
104.1169864046231
 31
0.0
 11
64.77144692484171
 21
100.51385444467
 31
0.0
  0
SPLINE
  5
A469
102
{ACAD_REACTORS
330
A4D9
102
}
330
2
100
AcDbEntity
  8
KIJUN
100
AcDbSpline
210
0.0
220
0.0
230
1.0
 70
     8
 71
     3
 72
    14
 73
    10
 74
     0
 42
0.0000000001
 43
0.0000000001
 40
4.120789840172591
 40
4.120789840172591
 40
4.120789840172591
 40
4.120789840172591
 40
5.95949213525284
 40
10.16553135436204
 40
12.41368375192779
 40
17.17256486464659
 40
19.67643480276264
 40
27.33279800525386
 40
35.95979873889827
 40
35.95979873889827
 40
35.95979873889827
 40
35.95979873889827
 10
64.43978125607611
 20
104.6522266310014
 30
0.0
 10
64.33475896237087
 20
105.2534093142349
 30
0.0
 10
63.86695588216287
 20
107.1982621515134
 30
0.0
 10
62.4258716016858
 20
109.6607326535435
 30
0.0
 10
58.61514745307954
 20
111.5920767433913
 30
0.0
 10
56.36584431099902
 20
107.6303448895961
 30
0.0
 10
56.60738017109065
 20
102.7942598150298
 30
0.0
 10
59.85009948909669
 20
97.03316802640976
 30
0.0
 10
63.2881091163008
 20
92.89591376222702
 30
0.0
 10
65.10958235073156
 20
90.70397751905492
 30
0.0
  0
SPLINE
  5
A46A
102
{ACAD_REACTORS
330
A4D9
102
}
330
2
100
AcDbEntity
  8
KIJUN
100
AcDbSpline
210
0.0
220
0.0
230
1.0
 70
     8
 71
     3
 72
    12
 73
     8
 74
     6
 42
0.0000000001
 43
0.0000000001
 44
0.0000000001
 40
0.0
 40
0.0
 40
0.0
 40
0.0
 40
4.605523385933628
 40
10.89856001240958
 40
15.29087800578935
 40
21.76235609801114
 40
27.3280927520216
 40
27.3280927520216
 40
27.3280927520216
 40
27.3280927520216
 10
56.6204771678365
 20
104.4752602681796
 30
0.0
 10
56.22997811709732
 20
105.9370159883947
 30
0.0
 10
55.30589696873787
 20
109.3961304267024
 30
0.0
 10
47.90608871568788
 20
112.5825105684964
 30
0.0
 10
47.48111459333371
 20
105.1274640216368
 30
0.0
 10
50.0386193966115
 20
100.3263625200556
 30
0.0
 10
53.49260832860323
 20
98.12200203343437
 30
0.0
 10
55.08965492174059
 20
97.10275545374864
 30
0.0
 11
56.6204771678365
 21
104.4752602681796
 31
0.0
 11
54.67215794553272
 21
108.6483763540779
 31
0.0
 11
48.68803461988534
 21
110.595830591181
 31
0.0
 11
47.85304066746937
 21
106.2836104606222
 31
0.0
 11
50.63635384218912
 21
100.4412482269415
 31
0.0
 11
55.08965492174059
 21
97.10275545374864
 31
0.0
  0
SPLINE
  5
A46D
102
{ACAD_REACTORS
330
A4D9
102
}
330
2
100
AcDbEntity
  8
KIJUN
100
AcDbSpline
210
0.0
220
0.0
230
1.0
 70
     8
 71
     3
 72
    14
 73
    10
 74
     0
 42
0.0000000001
 43
0.0000000001
 40
4.120789840172591
 40
4.120789840172591
 40
4.120789840172591
 40
4.120789840172591
 40
5.95949213525284
 40
10.16553135436204
 40
12.41368375192779
 40
17.17256486464659
 40
19.67643480276264
 40
27.33279800525386
 40
35.95979873889827
 40
35.95979873889827
 40
35.95979873889827
 40
35.95979873889827
 10
77.26804019745873
 20
104.6522266309997
 30
0.0
 10
77.37306249116421
 20
105.2534093142332
 30
0.0
 10
77.84086557137266
 20
107.1982621515116
 30
0.0
 10
79.28194985185029
 20
109.6607326535413
 30
0.0
 10
83.09267400045712
 20
111.5920767433881
 30
0.0
 10
85.34197714253663
 20
107.6303448895924
 30
0.0
 10
85.10044128244373
 20
102.7942598150262
 30
0.0
 10
81.85772196443622
 20
97.03316802640692
 30
0.0
 10
78.41971233723109
 20
92.89591376222508
 30
0.0
 10
76.59823910279976
 20
90.70397751905344
 30
0.0
  0
SPLINE
  5
A46E
102
{ACAD_REACTORS
330
A4D9
102
}
330
2
100
AcDbEntity
  8
KIJUN
100
AcDbSpline
210
0.0
220
0.0
230
1.0
 70
     8
 71
     3
 72
    12
 73
     8
 74
     6
 42
0.0000000001
 43
0.0000000001
 44
0.0000000001
 40
0.0
 40
0.0
 40
0.0
 40
0.0
 40
4.60552338593365
 40
10.89856001240954
 40
15.29087800578922
 40
21.76235609801103
 40
27.32809275202154
 40
27.32809275202154
 40
27.32809275202154
 40
27.32809275202154
 10
85.08734428569836
 20
104.4752602681759
 30
0.0
 10
85.47784333643788
 20
105.9370159883909
 30
0.0
 10
86.40192448479814
 20
109.3961304266985
 30
0.0
 10
93.80173273784889
 20
112.5825105684905
 30
0.0
 10
94.22670686020135
 20
105.127464021631
 30
0.0
 10
91.66920205692228
 20
100.3263625200503
 30
0.0
 10
88.21521312492995
 20
98.12200203343003
 30
0.0
 10
86.61816653179233
 20
97.10275545374466
 30
0.0
 11
85.08734428569836
 21
104.4752602681759
 31
0.0
 11
87.03566350800315
 21
108.6483763540738
 31
0.0
 11
93.01978683365097
 21
110.5958305911753
 31
0.0
 11
93.85478078606594
 21
106.2836104606164
 31
0.0
 11
91.07146761134471
 21
100.4412482269364
 31
0.0
 11
86.61816653179233
 21
97.10275545374466
 31
0.0
  0
SPLINE
  5
A46F
102
{ACAD_REACTORS
330
A4D9
102
}
330
2
100
AcDbEntity
  8
KIJUN
100
AcDbSpline
210
0.0
220
0.0
230
1.0
 70
     8
 71
     3
 72
    14
 73
    10
 74
     8
 42
0.0000000001
 43
0.0000000001
 44
0.0000000001
 40
0.0
 40
0.0
 40
0.0
 40
0.0
 40
5.081852348711453
 40
9.96661298349297
 40
15.12097674168442
 40
21.23749699115099
 40
26.01640839104743
 40
29.57948289263578
 40
33.19314430242351
 40
33.19314430242351
 40
33.19314430242351
 40
33.19314430242351
 10
70.8539107267627
 20
90.74532191823928
 30
0.0
 10
72.00001140379317
 20
92.23691052588812
 30
0.0
 10
74.24776303140162
 20
95.16223880442273
 30
0.0
 10
70.81216783664959
 20
100.0341210910145
 30
0.0
 10
71.05456882894499
 20
104.8150538678417
 30
0.0
 10
72.18493216033178
 20
112.978325872299
 30
0.0
 10
77.72881826036073
 20
108.0648967829507
 30
0.0
 10
77.16310924917721
 20
104.1021494912849
 30
0.0
 10
77.01230709032902
 20
101.7155602717057
 30
0.0
 10
76.93637452869211
 20
100.5138544446684
 30
0.0
 11
70.8539107267627
 21
90.74532191823928
 31
0.0
 11
73.11909689515721
 21
95.29440478367693
 31
0.0
 11
71.44910899032663
 21
99.88483252592827
 31
0.0
 11
71.17077767285593
 21
105.0316759691925
 31
0.0
 11
73.35391072676817
 21
110.7453219182386
 31
0.0
 11
77.01573607901207
 21
107.6746494743391
 31
0.0
 11
77.21203530528839
 21
104.1169864046215
 31
0.0
 11
76.93637452869211
 21
100.5138544446684
 31
0.0
  0
SPLINE
  5
A472
102
{ACAD_REACTORS
330
A4D9
102
}
330
2
100
AcDbEntity
  8
KIJUN
100
AcDbSpline
210
0.0
220
0.0
230
1.0
 70
     8
 71
     3
 72
    14
 73
    10
 74
     8
 42
0.0000000001
 43
0.0000000001
 44
0.0000000001
 40
0.0
 40
0.0
 40
0.0
 40
0.0
 40
5.081852348711453
 40
9.96661298349297
 40
15.12097674168442
 40
21.23749699115099
 40
26.01640839104743
 40
29.57948289263578
 40
33.19314430242351
 40
33.19314430242351
 40
33.19314430242351
 40
33.19314430242351
 10
54.85391072676828
 20
74.74532191824474
 30
0.0
 10
53.36232211911944
 20
73.59922124121428
 30
0.0
 10
50.43699384058487
 20
71.35146961360587
 30
0.0
 10
45.56511155399301
 20
74.78706480835781
 30
0.0
 10
40.78417877716588
 20
74.54466381606247
 30
0.0
 10
32.62090677270852
 20
73.41430048467564
 30
0.0
 10
37.53433586205684
 20
67.87041438464673
 30
0.0
 10
41.49708315372262
 20
68.43612339583024
 30
0.0
 10
43.88367237330181
 20
68.58692555467841
 30
0.0
 10
45.08537820033916
 20
68.66285811631533
 30
0.0
 11
54.85391072676828
 21
74.74532191824474
 31
0.0
 11
50.30482786133063
 21
72.48013574985023
 31
0.0
 11
45.7144001190793
 21
74.15012365468081
 31
0.0
 11
40.56755667581501
 21
74.42845497215151
 31
0.0
 11
34.85391072676896
 21
72.24532191823929
 31
0.0
 11
37.92458317066849
 21
68.58349656599537
 31
0.0
 11
41.48224624038607
 21
68.38719733971905
 31
0.0
 11
45.08537820033916
 21
68.66285811631533
 31
0.0
  0
SPLINE
  5
A473
102
{ACAD_REACTORS
330
A4D9
102
}
330
2
100
AcDbEntity
  8
KIJUN
100
AcDbSpline
210
0.0
220
0.0
230
1.0
 70
     8
 71
     3
 72
    12
 73
     8
 74
     6
 42
0.0000000001
 43
0.0000000001
 44
0.0000000001
 40
0.0
 40
0.0
 40
0.0
 40
0.0
 40
4.60552338593365
 40
10.89856001240954
 40
15.29087800578922
 40
21.76235609801103
 40
27.32809275202154
 40
27.32809275202154
 40
27.32809275202154
 40
27.32809275202154
 10
41.1239723768316
 20
60.5118883593091
 30
0.0
 10
39.6622166566166
 20
60.12138930856956
 30
0.0
 10
36.20310221830904
 20
59.19730816020929
 30
0.0
 10
33.01672207651704
 20
51.79749990715855
 30
0.0
 10
40.4717686233766
 20
51.37252578480612
 30
0.0
 10
45.27287012495721
 20
53.93003058808513
 30
0.0
 10
47.47723061157755
 20
57.38401952007749
 30
0.0
 10
48.4964771912629
 20
58.98106611321512
 30
0.0
 11
41.1239723768316
 21
60.5118883593091
 31
0.0
 11
36.95085629093376
 21
58.56356913700429
 31
0.0
 11
35.00340205383225
 21
52.57944581135646
 31
0.0
 11
39.31562218439115
 21
51.74445185894152
 31
0.0
 11
45.15798441807112
 21
54.52776503366274
 31
0.0
 11
48.4964771912629
 21
58.98106611321512
 31
0.0
  0
SPLINE
  5
A474
102
{ACAD_REACTORS
330
A4D9
102
}
330
2
100
AcDbEntity
  8
KIJUN
100
AcDbSpline
210
0.0
220
0.0
230
1.0
 70
     8
 71
     3
 72
    14
 73
    10
 74
     0
 42
0.0000000001
 43
0.0000000001
 40
4.120789840172591
 40
4.120789840172591
 40
4.120789840172591
 40
4.120789840172591
 40
5.95949213525284
 40
10.16553135436204
 40
12.41368375192779
 40
17.17256486464659
 40
19.67643480276264
 40
27.33279800525386
 40
35.95979873889827
 40
35.95979873889827
 40
35.95979873889827
 40
35.95979873889827
 10
40.9470060140078
 20
68.33119244754872
 30
0.0
 10
40.34582333077435
 20
68.22617015384324
 30
0.0
 10
38.40097049349595
 20
67.75836707363478
 30
0.0
 10
35.93849999146619
 20
66.31728279315715
 30
0.0
 10
34.0071559016194
 20
62.50655864455032
 30
0.0
 10
37.96888775541515
 20
60.25725550247083
 30
0.0
 10
42.80497282998135
 20
60.49879136256371
 30
0.0
 10
48.56606461860065
 20
63.74151068057122
 30
0.0
 10
52.70331888278247
 20
67.17952030777635
 30
0.0
 10
54.89525512595412
 20
69.00099354220768
 30
0.0
  0
SPLINE
  5
A475
102
{ACAD_REACTORS
330
A4D9
102
}
330
2
100
AcDbEntity
  8
KIJUN
100
AcDbSpline
210
0.0
220
0.0
230
1.0
 70
     8
 71
     3
 72
    14
 73
    10
 74
     0
 42
0.0000000001
 43
0.0000000001
 40
4.120789840172591
 40
4.120789840172591
 40
4.120789840172591
 40
4.120789840172591
 40
5.95949213525284
 40
10.16553135436204
 40
12.41368375192779
 40
17.17256486464659
 40
19.67643480276264
 40
27.33279800525386
 40
35.95979873889827
 40
35.95979873889827
 40
35.95979873889827
 40
35.95979873889827
 10
40.94700601400609
 20
81.15945138893133
 30
0.0
 10
40.34582333077264
 20
81.26447368263658
 30
0.0
 10
38.40097049349413
 20
81.73227676284458
 30
0.0
 10
35.93849999146403
 20
83.17336104332165
 30
0.0
 10
34.00715590161622
 20
86.9840851919279
 30
0.0
 10
37.96888775541129
 20
89.23338833400842
 30
0.0
 10
42.80497282997759
 20
88.99185247391679
 30
0.0
 10
48.5660646185978
 20
85.74913315591075
 30
0.0
 10
52.70331888278054
 20
82.31112352870665
 30
0.0
 10
54.89525512595264
 20
80.4896502942759
 30
0.0
  0
SPLINE
  5
A476
102
{ACAD_REACTORS
330
A4D9
102
}
330
2
100
AcDbEntity
  8
KIJUN
100
AcDbSpline
210
0.0
220
0.0
230
1.0
 70
     8
 71
     3
 72
    14
 73
    10
 74
     8
 42
0.0000000001
 43
0.0000000001
 44
0.0000000001
 40
0.0
 40
0.0
 40
0.0
 40
0.0
 40
5.081852348711455
 40
9.966612983493078
 40
15.12097674168449
 40
21.23749699115106
 40
26.01640839104752
 40
29.57948289263593
 40
33.19314430242358
 40
33.19314430242358
 40
33.19314430242358
 40
33.19314430242358
 10
54.85391072676828
 20
74.74532191823882
 30
0.0
 10
53.36232211911916
 20
75.89142259526892
 30
0.0
 10
50.43699384058395
 20
78.13917422287665
 30
0.0
 10
45.565111553993
 20
74.70357902812327
 30
0.0
 10
40.78417877716578
 20
74.94598002041758
 30
0.0
 10
32.62090677270812
 20
76.07634335180222
 30
0.0
 10
37.53433586205509
 20
81.62022945183244
 30
0.0
 10
41.49708315372099
 20
81.05452044064991
 30
0.0
 10
43.88367237330024
 20
80.90371828180234
 30
0.0
 10
45.08537820033757
 20
80.82778572016573
 30
0.0
 11
54.85391072676828
 21
74.74532191823882
 31
0.0
 11
50.30482786133006
 21
77.0105080866322
 31
0.0
 11
45.71440011907907
 21
75.34052018180037
 31
0.0
 11
40.5675566758149
 21
75.06218886432842
 31
0.0
 11
34.85391072676828
 21
77.24532191823917
 31
0.0
 11
37.92458317066689
 21
80.90714727048387
 31
0.0
 11
41.48224624038448
 21
81.10344649676111
 31
0.0
 11
45.08537820033757
 21
80.82778572016573
 31
0.0
  0
SPLINE
  5
A477
102
{ACAD_REACTORS
330
A4D9
102
}
330
2
100
AcDbEntity
  8
KIJUN
100
AcDbSpline
210
0.0
220
0.0
230
1.0
 70
     8
 71
     3
 72
    12
 73
     8
 74
     6
 42
0.0000000001
 43
0.0000000001
 44
0.0000000001
 40
0.0
 40
0.0
 40
0.0
 40
0.0
 40
4.605523385933628
 40
10.89856001240958
 40
15.29087800578935
 40
21.76235609801114
 40
27.3280927520216
 40
27.3280927520216
 40
27.3280927520216
 40
27.3280927520216
 10
41.12397237682785
 20
88.97875547717095
 30
0.0
 10
39.66221665661277
 20
89.36925452791012
 30
0.0
 10
36.203102218305
 20
90.29333567626956
 30
0.0
 10
33.016722076511
 20
97.69314392931956
 30
0.0
 10
40.47176862337058
 20
98.11811805167375
 30
0.0
 10
45.27287012495182
 20
95.56061324839596
 30
0.0
 10
47.47723061157304
 20
92.1066243164042
 30
0.0
 10
48.4964771912588
 20
90.50957772326686
 30
0.0
 11
41.12397237682785
 21
88.97875547717095
 31
0.0
 11
36.95085629092955
 21
90.92707469947473
 31
0.0
 11
35.00340205382645
 21
96.91119802512211
 31
0.0
 11
39.31562218438524
 21
97.74619197753807
 31
0.0
 11
45.15798441806589
 21
94.96287880281832
 31
0.0
 11
48.4964771912588
 21
90.50957772326686
 31
0.0
  0
SPLINE
  5
A479
102
{ACAD_REACTORS
330
A4D9
102
}
330
2
100
AcDbEntity
  8
KIJUN
100
AcDbSpline
210
0.0
220
0.0
230
1.0
 70
     8
 71
     3
 72
    14
 73
    10
 74
     8
 42
0.0000000001
 43
0.0000000001
 44
0.0000000001
 40
0.0
 40
0.0
 40
0.0
 40
0.0
 40
5.081852348711453
 40
9.96661298349297
 40
15.12097674168442
 40
21.23749699115099
 40
26.01640839104743
 40
29.57948289263578
 40
33.19314430242351
 40
33.19314430242351
 40
33.19314430242351
 40
33.19314430242351
 10
86.85391072676827
 20
74.74532191823371
 30
0.0
 10
88.34549933441712
 20
75.89142259526417
 30
0.0
 10
91.27082761295172
 20
78.13917422287261
 30
0.0
 10
96.14270989954352
 20
74.70357902812061
 30
0.0
 10
100.9236426763706
 20
74.94598002041598
 30
0.0
 10
109.086914680828
 20
76.07634335180282
 30
0.0
 10
104.1734855914797
 20
81.62022945183171
 30
0.0
 10
100.2107382998139
 20
81.05452044064822
 30
0.0
 10
97.82414908023474
 20
80.90371828180002
 30
0.0
 10
96.6224432531974
 20
80.82778572016312
 30
0.0
 11
86.85391072676827
 21
74.74532191823371
 31
0.0
 11
91.40299359220591
 21
77.01050808662822
 31
0.0
 11
95.99342133445725
 21
75.34052018179764
 31
0.0
 11
101.1402647777215
 21
75.06218886432694
 31
0.0
 11
106.8539107267676
 21
77.24532191823917
 31
0.0
 11
103.783238282868
 21
80.90714727048307
 31
0.0
 11
100.2255752131504
 21
81.10344649675941
 31
0.0
 11
96.6224432531974
 21
80.82778572016312
 31
0.0
  0
SPLINE
  5
A47A
102
{ACAD_REACTORS
330
A4D9
102
}
330
2
100
AcDbEntity
  8
KIJUN
100
AcDbSpline
210
0.0
220
0.0
230
1.0
 70
     8
 71
     3
 72
    12
 73
     8
 74
     6
 42
0.0000000001
 43
0.0000000001
 44
0.0000000001
 40
0.0
 40
0.0
 40
0.0
 40
0.0
 40
4.60552338593365
 40
10.89856001240954
 40
15.29087800578922
 40
21.76235609801103
 40
27.32809275202154
 40
27.32809275202154
 40
27.32809275202154
 40
27.32809275202154
 10
100.5838490767049
 20
88.97875547716935
 30
0.0
 10
102.0456047969199
 20
89.36925452790887
 30
0.0
 10
105.5047192352275
 20
90.29333567626915
 30
0.0
 10
108.6910993770195
 20
97.69314392931988
 30
0.0
 10
101.2360528301599
 20
98.11811805167236
 30
0.0
 10
96.43495132857934
 20
95.56061324839332
 30
0.0
 10
94.230590841959
 20
92.10662431640098
 30
0.0
 10
93.21134426227365
 20
90.50957772326333
 30
0.0
 11
100.5838490767049
 21
88.97875547716935
 31
0.0
 11
104.7569651626028
 21
90.92707469947416
 31
0.0
 11
106.7044193997043
 21
96.91119802512199
 31
0.0
 11
102.3921992691454
 21
97.74619197753693
 31
0.0
 11
96.54983703546543
 21
94.9628788028157
 31
0.0
 11
93.21134426227365
 21
90.50957772326333
 31
0.0
  0
SPLINE
  5
A47B
102
{ACAD_REACTORS
330
A4D9
102
}
330
2
100
AcDbEntity
  8
KIJUN
100
AcDbSpline
210
0.0
220
0.0
230
1.0
 70
     8
 71
     3
 72
    14
 73
    10
 74
     0
 42
0.0000000001
 43
0.0000000001
 40
4.120789840172591
 40
4.120789840172591
 40
4.120789840172591
 40
4.120789840172591
 40
5.95949213525284
 40
10.16553135436204
 40
12.41368375192779
 40
17.17256486464659
 40
19.67643480276264
 40
27.33279800525386
 40
35.95979873889827
 40
35.95979873889827
 40
35.95979873889827
 40
35.95979873889827
 10
100.7608154395287
 20
81.15945138892973
 30
0.0
 10
101.3619981227622
 20
81.26447368263521
 30
0.0
 10
103.3068509600406
 20
81.73227676284367
 30
0.0
 10
105.7693214620703
 20
83.17336104332131
 30
0.0
 10
107.7006655519171
 20
86.98408519192813
 30
0.0
 10
103.7389336981214
 20
89.23338833400762
 30
0.0
 10
98.90284862355521
 20
88.99185247391475
 30
0.0
 10
93.14175683493591
 20
85.74913315590723
 30
0.0
 10
89.00450257075409
 20
82.3111235287021
 30
0.0
 10
86.81256632758243
 20
80.48965029427078
 30
0.0
  0
SPLINE
  5
A47C
102
{ACAD_REACTORS
330
A4D9
102
}
330
2
100
AcDbEntity
  8
KIJUN
100
AcDbSpline
210
0.0
220
0.0
230
1.0
 70
     8
 71
     3
 72
    14
 73
    10
 74
     0
 42
0.0000000001
 43
0.0000000001
 40
4.120789840172591
 40
4.120789840172591
 40
4.120789840172591
 40
4.120789840172591
 40
5.95949213525284
 40
10.16553135436204
 40
12.41368375192779
 40
17.17256486464659
 40
19.67643480276264
 40
27.33279800525386
 40
35.95979873889827
 40
35.95979873889827
 40
35.95979873889827
 40
35.95979873889827
 10
100.7608154395304
 20
68.33119244754712
 30
0.0
 10
101.3619981227639
 20
68.22617015384188
 30
0.0
 10
103.3068509600424
 20
67.75836707363388
 30
0.0
 10
105.7693214620725
 20
66.3172827931568
 30
0.0
 10
107.7006655519203
 20
62.50655864455055
 30
0.0
 10
103.7389336981251
 20
60.25725550247003
 30
0.0
 10
98.90284862355883
 20
60.49879136256166
 30
0.0
 10
93.14175683493875
 20
63.7415106805677
 30
0.0
 10
89.00450257075602
 20
67.17952030777181
 30
0.0
 10
86.8125663275839
 20
69.00099354220256
 30
0.0
  0
SPLINE
  5
A47D
102
{ACAD_REACTORS
330
A4D9
102
}
330
2
100
AcDbEntity
  8
KIJUN
100
AcDbSpline
210
0.0
220
0.0
230
1.0
 70
     8
 71
     3
 72
    14
 73
    10
 74
     8
 42
0.0000000001
 43
0.0000000001
 44
0.0000000001
 40
0.0
 40
0.0
 40
0.0
 40
0.0
 40
5.081852348711455
 40
9.966612983493078
 40
15.12097674168449
 40
21.23749699115106
 40
26.01640839104752
 40
29.57948289263593
 40
33.19314430242358
 40
33.19314430242358
 40
33.19314430242358
 40
33.19314430242358
 10
86.85391072676827
 20
74.74532191823962
 30
0.0
 10
88.34549933441739
 20
73.59922124120953
 30
0.0
 10
91.27082761295259
 20
71.35146961360181
 30
0.0
 10
96.14270989954354
 20
74.78706480835516
 30
0.0
 10
100.9236426763708
 20
74.54466381606088
 30
0.0
 10
109.0869146808284
 20
73.41430048467621
 30
0.0
 10
104.1734855914815
 20
67.87041438464602
 30
0.0
 10
100.2107382998155
 20
68.43612339582851
 30
0.0
 10
97.82414908023634
 20
68.58692555467611
 30
0.0
 10
96.62244325319898
 20
68.66285811631271
 30
0.0
 11
86.85391072676827
 21
74.74532191823962
 31
0.0
 11
91.40299359220648
 21
72.48013574984625
 31
0.0
 11
95.99342133445748
 21
74.15012365467808
 31
0.0
 11
101.1402647777216
 21
74.42845497215003
 31
0.0
 11
106.8539107267683
 21
72.24532191823929
 31
0.0
 11
103.7832382828696
 21
68.58349656599457
 31
0.0
 11
100.225575213152
 21
68.38719733971735
 31
0.0
 11
96.62244325319898
 21
68.66285811631271
 31
0.0
  0
SPLINE
  5
A47E
102
{ACAD_REACTORS
330
A4D9
102
}
330
2
100
AcDbEntity
  8
KIJUN
100
AcDbSpline
210
0.0
220
0.0
230
1.0
 70
     8
 71
     3
 72
    12
 73
     8
 74
     6
 42
0.0000000001
 43
0.0000000001
 44
0.0000000001
 40
0.0
 40
0.0
 40
0.0
 40
0.0
 40
4.605523385933628
 40
10.89856001240958
 40
15.29087800578935
 40
21.76235609801114
 40
27.3280927520216
 40
27.3280927520216
 40
27.3280927520216
 40
27.3280927520216
 10
100.5838490767086
 20
60.51188835930751
 30
0.0
 10
102.0456047969236
 20
60.12138930856833
 30
0.0
 10
105.5047192352314
 20
59.19730816020887
 30
0.0
 10
108.6910993770254
 20
51.79749990715888
 30
0.0
 10
101.2360528301658
 20
51.37252578480472
 30
0.0
 10
96.43495132858465
 20
53.93003058808251
 30
0.0
 10
94.23059084196337
 20
57.38401952007425
 30
0.0
 10
93.21134426227763
 20
58.9810661132116
 30
0.0
 11
100.5838490767086
 21
60.51188835930751
 31
0.0
 11
104.7569651626069
 21
58.56356913700373
 31
0.0
 11
106.70441939971
 21
52.57944581135635
 31
0.0
 11
102.3921992691512
 21
51.74445185894038
 31
0.0
 11
96.54983703547054
 21
54.52776503366013
 31
0.0
 11
93.21134426227763
 21
58.9810661132116
 31
0.0
  0
SPLINE
  5
A480
102
{ACAD_REACTORS
330
A4D9
102
}
330
2
100
AcDbEntity
  8
KIJUN
100
AcDbSpline
210
0.0
220
0.0
230
1.0
 70
     8
 71
     3
 72
    14
 73
    10
 74
     0
 42
0.0000000001
 43
0.0000000001
 40
4.120789840172591
 40
4.120789840172591
 40
4.120789840172591
 40
4.120789840172591
 40
5.95949213525284
 40
10.16553135436204
 40
12.41368375192779
 40
17.17256486464659
 40
19.67643480276264
 40
27.33279800525386
 40
35.95979873889827
 40
35.95979873889827
 40
35.95979873889827
 40
35.95979873889827
 10
77.26804019746032
 20
44.8384172054771
 30
0.0
 10
77.37306249116556
 20
44.23723452224365
 30
0.0
 10
77.84086557137356
 20
42.29238168496514
 30
0.0
 10
79.28194985185064
 20
39.82991118293504
 30
0.0
 10
83.09267400045689
 20
37.89856709308722
 30
0.0
 10
85.34197714253741
 20
41.86029894688229
 30
0.0
 10
85.10044128244578
 20
46.69638402144861
 30
0.0
 10
81.85772196443975
 20
52.45747581006881
 30
0.0
 10
78.41971233723564
 20
56.59473007425154
 30
0.0
 10
76.59823910280488
 20
58.78666631742365
 30
0.0
  0
SPLINE
  5
A481
102
{ACAD_REACTORS
330
A4D9
102
}
330
2
100
AcDbEntity
  8
KIJUN
100
AcDbSpline
210
0.0
220
0.0
230
1.0
 70
     8
 71
     3
 72
    14
 73
    10
 74
     8
 42
0.0000000001
 43
0.0000000001
 44
0.0000000001
 40
0.0
 40
0.0
 40
0.0
 40
0.0
 40
5.081852348711455
 40
9.966612983493078
 40
15.12097674168449
 40
21.23749699115106
 40
26.01640839104752
 40
29.57948289263593
 40
33.19314430242358
 40
33.19314430242358
 40
33.19314430242358
 40
33.19314430242358
 10
70.85391072676782
 20
58.74532191823928
 30
0.0
 10
72.00001140379791
 20
57.25373331059016
 30
0.0
 10
74.24776303140567
 20
54.32840503205498
 30
0.0
 10
70.81216783665225
 20
49.45652274546402
 30
0.0
 10
71.05456882894657
 20
44.67558996863679
 30
0.0
 10
72.18493216033121
 20
36.51231796417913
 30
0.0
 10
77.7288182603614
 20
41.42574705352608
 30
0.0
 10
77.1631092491789
 20
45.388494345192
 30
0.0
 10
77.01230709033135
 20
47.77508356477125
 30
0.0
 10
76.93637452869473
 20
48.97678939180858
 30
0.0
 11
70.85391072676782
 21
58.74532191823928
 31
0.0
 11
73.11909689516119
 21
54.19623905280108
 31
0.0
 11
71.44910899032936
 21
49.60581131055008
 31
0.0
 11
71.17077767285741
 21
44.45896786728591
 31
0.0
 11
73.35391072676817
 21
38.74532191823929
 31
0.0
 11
77.01573607901287
 21
41.81599436213789
 31
0.0
 11
77.2120353052901
 21
45.37365743185548
 31
0.0
 11
76.93637452869473
 21
48.97678939180858
 31
0.0
  0
SPLINE
  5
A482
102
{ACAD_REACTORS
330
A4D9
102
}
330
2
100
AcDbEntity
  8
KIJUN
100
AcDbSpline
210
0.0
220
0.0
230
1.0
 70
     8
 71
     3
 72
    14
 73
    10
 74
     0
 42
0.0000000001
 43
0.0000000001
 40
4.120789840172591
 40
4.120789840172591
 40
4.120789840172591
 40
4.120789840172591
 40
5.95949213525284
 40
10.16553135436204
 40
12.41368375192779
 40
17.17256486464659
 40
19.67643480276264
 40
27.33279800525386
 40
35.95979873889827
 40
35.95979873889827
 40
35.95979873889827
 40
35.95979873889827
 10
64.4397812560777
 20
44.8384172054788
 30
0.0
 10
64.33475896237223
 20
44.23723452224535
 30
0.0
 10
63.86695588216378
 20
42.29238168496695
 30
0.0
 10
62.42587160168614
 20
39.8299111829372
 30
0.0
 10
58.61514745307932
 20
37.89856709309041
 30
0.0
 10
56.36584431099982
 20
41.86029894688616
 30
0.0
 10
56.6073801710927
 20
46.69638402145236
 30
0.0
 10
59.85009948910022
 20
52.45747581007165
 30
0.0
 10
63.28810911630535
 20
56.59473007425347
 30
0.0
 10
65.10958235073667
 20
58.78666631742513
 30
0.0
  0
SPLINE
  5
A483
102
{ACAD_REACTORS
330
A4D9
102
}
330
2
100
AcDbEntity
  8
KIJUN
100
AcDbSpline
210
0.0
220
0.0
230
1.0
 70
     8
 71
     3
 72
    12
 73
     8
 74
     6
 42
0.0000000001
 43
0.0000000001
 44
0.0000000001
 40
0.0
 40
0.0
 40
0.0
 40
0.0
 40
4.60552338593365
 40
10.89856001240954
 40
15.29087800578922
 40
21.76235609801103
 40
27.32809275202154
 40
27.32809275202154
 40
27.32809275202154
 40
27.32809275202154
 10
56.62047716783809
 20
45.01538356830261
 30
0.0
 10
56.22997811709855
 20
43.5536278480876
 30
0.0
 10
55.30589696873828
 20
40.09451340978006
 30
0.0
 10
47.90608871568753
 20
36.90813326798804
 30
0.0
 10
47.48111459333512
 20
44.36317981484761
 30
0.0
 10
50.03861939661414
 20
49.16428131642821
 30
0.0
 10
53.49260832860649
 20
51.36864180304858
 30
0.0
 10
55.08965492174411
 20
52.3878883827339
 30
0.0
 11
56.62047716783809
 21
45.01538356830261
 31
0.0
 11
54.67215794553329
 21
40.84226748240476
 31
0.0
 11
48.68803461988545
 21
38.89481324530326
 31
0.0
 11
47.85304066747051
 21
43.20703337586215
 31
0.0
 11
50.63635384219174
 21
49.04939560954213
 31
0.0
 11
55.08965492174411
 21
52.3878883827339
 31
0.0
  0
SPLINE
  5
A484
102
{ACAD_REACTORS
330
A4D9
102
}
330
2
100
AcDbEntity
  8
KIJUN
100
AcDbSpline
210
0.0
220
0.0
230
1.0
 70
     8
 71
     3
 72
    14
 73
    10
 74
     8
 42
0.0000000001
 43
0.0000000001
 44
0.0000000001
 40
0.0
 40
0.0
 40
0.0
 40
0.0
 40
5.081852348711453
 40
9.96661298349297
 40
15.12097674168442
 40
21.23749699115099
 40
26.01640839104743
 40
29.57948289263578
 40
33.19314430242351
 40
33.19314430242351
 40
33.19314430242351
 40
33.19314430242351
 10
70.85391072677373
 20
58.74532191823928
 30
0.0
 10
69.70781004974327
 20
57.25373331059046
 30
0.0
 10
67.46005842213486
 20
54.32840503205587
 30
0.0
 10
70.89565361688681
 20
49.45652274546404
 30
0.0
 10
70.65325262459146
 20
44.67558996863688
 30
0.0
 10
69.52288929320464
 20
36.51231796417953
 30
0.0
 10
63.97900319317571
 20
41.42574705352784
 30
0.0
 10
64.54471220435924
 20
45.38849434519362
 30
0.0
 10
64.69551436320742
 20
47.77508356477283
 30
0.0
 10
64.77144692484433
 20
48.97678939181017
 30
0.0
 11
70.85391072677373
 21
58.74532191823928
 31
0.0
 11
68.58872455837922
 21
54.19623905280165
 31
0.0
 11
70.2587124632098
 21
49.60581131055031
 31
0.0
 11
70.53704378068051
 21
44.45896786728602
 31
0.0
 11
68.35391072676827
 21
38.74532191823997
 31
0.0
 11
64.69208537452437
 21
41.81599436213949
 31
0.0
 11
64.49578614824805
 21
45.37365743185708
 31
0.0
 11
64.77144692484433
 21
48.97678939181017
 31
0.0
  0
SPLINE
  5
A485
102
{ACAD_REACTORS
330
A4D9
102
}
330
2
100
AcDbEntity
  8
KIJUN
100
AcDbSpline
210
0.0
220
0.0
230
1.0
 70
     8
 71
     3
 72
    12
 73
     8
 74
     6
 42
0.0000000001
 43
0.0000000001
 44
0.0000000001
 40
0.0
 40
0.0
 40
0.0
 40
0.0
 40
4.605523385933628
 40
10.89856001240958
 40
15.29087800578935
 40
21.76235609801114
 40
27.3280927520216
 40
27.3280927520216
 40
27.3280927520216
 40
27.3280927520216
 10
85.08734428569994
 20
45.01538356829885
 30
0.0
 10
85.47784333643912
 20
43.55362784808377
 30
0.0
 10
86.40192448479856
 20
40.09451340977601
 30
0.0
 10
93.80173273784858
 20
36.90813326798201
 30
0.0
 10
94.22670686020271
 20
44.36317981484158
 30
0.0
 10
91.66920205692496
 20
49.16428131642284
 30
0.0
 10
88.2152131249332
 20
51.36864180304405
 30
0.0
 10
86.61816653179585
 20
52.38788838272981
 30
0.0
 11
85.08734428569994
 21
45.01538356829885
 31
0.0
 11
87.03566350800372
 21
40.84226748240055
 31
0.0
 11
93.0197868336511
 21
38.89481324529746
 31
0.0
 11
93.85478078606707
 21
43.20703337585624
 31
0.0
 11
91.07146761134732
 21
49.0493956095369
 31
0.0
 11
86.61816653179585
 21
52.38788838272981
 31
0.0
  0
ARC
  5
A488
102
{ACAD_REACTORS
330
A4D9
102
}
330
2
100
AcDbEntity
  8
KIJUN
100
AcDbCircle
 10
113.2058302013757
 20
75.51820707214474
 30
0.0
 40
30.64552774875354
100
AcDbArc
 50
151.3858623545121
 51
219.2969646147604
  0
ARC
  5
A489
102
{ACAD_REACTORS
330
A4D9
102
}
330
2
100
AcDbEntity
  8
KIJUN
100
AcDbCircle
 10
101.5829617126551
 20
74.74532191823053
 30
0.0
 40
21.72905098587763
100
AcDbArc
 50
134.6839142532723
 51
225.3160857467523
  0
ARC
  5
A48A
102
{ACAD_REACTORS
330
A4D9
102
}
330
2
100
AcDbEntity
  8
KIJUN
100
AcDbCircle
 10
70.68597357759689
 20
34.10894254209271
 30
0.0
 40
28.89664239526322
100
AcDbArc
 50
48.14904248778905
 51
127.0012490481907
  0
ARC
  5
A48B
102
{ACAD_REACTORS
330
A4D9
102
}
330
2
100
AcDbEntity
  8
KIJUN
100
AcDbCircle
 10
70.85391072677726
 20
44.01627093235245
 30
0.0
 40
21.72905098587763
100
AcDbArc
 50
44.68391425324933
 51
135.3160857467292
  0
LINE
  5
A48C
102
{ACAD_REACTORS
330
A4D9
102
}
330
2
100
AcDbEntity
  8
KIJUN
100
AcDbLine
 10
106.8539107267776
 20
38.74532191823019
 30
0.0
 11
86.30319912588072
 21
59.29603351912786
 31
0.0
  0
DIMENSION
  5
A48D
330
2
100
AcDbEntity
  8
SUNPOU
100
AcDbDimension
  2
*D26
 10
106.8539107267669
 20
137.1722089426661
 30
0.0
 11
70.8539107267676
 21
142.6722089426661
 31
0.0
 70
    32
 71
     5
 42
71.99999999999864
  3
STANDARD
100
AcDbAlignedDimension
 13
34.85391072676828
 23
110.7453219182393
 33
0.0
 14
106.8539107267669
 24
110.7453219182379
 34
0.0
100
AcDbRotatedDimension
1001
ACAD
1000
DSTYLE
1002
{
1070
    41
1040
2.0
1070
    42
1040
10.0
1070
    44
1040
0.0
1070
    73
1070
     0
1070
    74
1070
     0
1070
    77
1070
     1
1070
   140
1040
5.0
1070
   141
1040
0.0
1070
   146
1040
0.064286
1070
   147
1040
3.0
1070
   176
1070
    60
1070
   177
1070
    70
1070
   178
1070
    60
1070
   271
1070
     0
1070
   272
1070
     0
1070
   340
1005
1C
1070
   342
1005
109
1002
}
  0
DIMENSION
  5
A49A
330
2
100
AcDbEntity
  8
SUNPOU
100
AcDbDimension
  2
*D27
 10
7.265655363383699
 20
38.74532191823929
 30
0.0
 11
1.765655363383695
 21
74.7453219182393
 31
0.0
 70
    32
 71
     5
 42
72.0
  3
STANDARD
100
AcDbAlignedDimension
 13
34.85391072676828
 23
110.7453219182393
 33
0.0
 14
34.85391072676828
 24
38.74532191823929
 34
0.0
 50
90.0
100
AcDbRotatedDimension
1001
ACAD
1000
DSTYLE
1002
{
1070
    41
1040
2.0
1070
    42
1040
10.0
1070
    44
1040
0.0
1070
    73
1070
     0
1070
    74
1070
     0
1070
    77
1070
     1
1070
   140
1040
5.0
1070
   141
1040
0.0
1070
   146
1040
0.064286
1070
   147
1040
3.0
1070
   176
1070
    60
1070
   177
1070
    70
1070
   178
1070
    60
1070
   271
1070
     0
1070
   272
1070
     0
1070
   340
1005
1C
1070
   342
1005
109
1002
}
  0
ARC
  5
A4B9
102
{ACAD_REACTORS
330
A4D9
102
}
330
2
100
AcDbEntity
  8
KIJUN
100
AcDbCircle
 10
13.02779061708644
 20
106.4151222471773
 30
0.0
 40
22.25152013309462
100
AcDbArc
 50
354.3113448336776
 51
11.22149902881762
  0
ARC
  5
A4BA
102
{ACAD_REACTORS
330
A4D9
102
}
330
2
100
AcDbEntity
  8
KIJUN
100
AcDbCircle
 10
38.88862074109976
 20
102.2338425632653
 30
0.0
 40
3.740865831055717
100
AcDbArc
 50
188.0326545169581
 51
233.2529987714654
  0
ARC
  5
A4BB
102
{ACAD_REACTORS
330
A4D9
102
}
330
2
100
AcDbEntity
  8
KIJUN
100
AcDbCircle
 10
46.45407987239898
 20
103.0267898009687
 30
0.0
 40
11.34616260348564
100
AcDbArc
 50
174.0167342313904
 51
186.6589248003825
  0
ARC
  5
A4BC
102
{ACAD_REACTORS
330
A4D9
102
}
330
2
100
AcDbEntity
  8
KIJUN
100
AcDbCircle
 10
46.31718830428879
 20
111.6858019364447
 30
0.0
 40
15.76177055186317
100
AcDbArc
 50
232.1716444771246
 51
241.8440322426973
  0
ARC
  5
A4BD
102
{ACAD_REACTORS
330
A4D9
102
}
330
2
100
AcDbEntity
  8
KIJUN
100
AcDbCircle
 10
39.18411039783018
 20
132.5714420279211
 30
0.0
 40
22.25152013309462
100
AcDbArc
 50
258.7785009711815
 51
275.688655166322
  0
ARC
  5
A4BE
102
{ACAD_REACTORS
330
A4D9
102
}
330
2
100
AcDbEntity
  8
KIJUN
100
AcDbCircle
 10
43.36539008174227
 20
106.7106119039078
 30
0.0
 40
3.740865831055717
100
AcDbArc
 50
36.747001228534
 51
81.96734548304149
  0
ARC
  5
A4BF
102
{ACAD_REACTORS
330
A4D9
102
}
330
2
100
AcDbEntity
  8
KIJUN
100
AcDbCircle
 10
42.57244284403888
 20
99.14515277260859
 30
0.0
 40
11.34616260348564
100
AcDbArc
 50
83.34107519961793
 51
95.98326576861023
  0
ARC
  5
A4C0
102
{ACAD_REACTORS
330
A4D9
102
}
330
2
100
AcDbEntity
  8
KIJUN
100
AcDbCircle
 10
33.91343070856283
 20
99.28204434071876
 30
0.0
 40
15.76177055186317
100
AcDbArc
 50
28.15596775730233
 51
37.82835552287501
  0
ARC
  5
A4C1
102
{ACAD_REACTORS
330
A4D9
102
}
330
2
100
AcDbEntity
  8
KIJUN
100
AcDbCircle
 10
13.02779061708644
 20
43.07552158930119
 30
0.0
 40
22.25152013309462
100
AcDbArc
 50
348.7785009711816
 51
5.688655166321915
  0
ARC
  5
A4C2
102
{ACAD_REACTORS
330
A4D9
102
}
330
2
100
AcDbEntity
  8
KIJUN
100
AcDbCircle
 10
38.88862074109976
 20
47.25680127321328
 30
0.0
 40
3.740865831055717
100
AcDbArc
 50
126.7470012285345
 51
171.9673454830416
  0
ARC
  5
A4C3
102
{ACAD_REACTORS
330
A4D9
102
}
330
2
100
AcDbEntity
  8
KIJUN
100
AcDbCircle
 10
46.45407987239898
 20
46.46385403550988
 30
0.0
 40
11.34616260348564
100
AcDbArc
 50
173.3410751996179
 51
185.9832657686103
  0
ARC
  5
A4C4
102
{ACAD_REACTORS
330
A4D9
102
}
330
2
100
AcDbEntity
  8
KIJUN
100
AcDbCircle
 10
46.31718830428879
 20
37.80484190003384
 30
0.0
 40
15.76177055186317
100
AcDbArc
 50
118.1559677573028
 51
127.8283555228753
  0
ARC
  5
A4C5
102
{ACAD_REACTORS
330
A4D9
102
}
330
2
100
AcDbEntity
  8
KIJUN
100
AcDbCircle
 10
39.18411039783018
 20
16.91920180855746
 30
0.0
 40
22.25152013309462
100
AcDbArc
 50
84.31134483367793
 51
101.2214990288186
  0
ARC
  5
A4C6
102
{ACAD_REACTORS
330
A4D9
102
}
330
2
100
AcDbEntity
  8
KIJUN
100
AcDbCircle
 10
43.36539008174227
 20
42.78003193257077
 30
0.0
 40
3.740865831055717
100
AcDbArc
 50
278.0326545169586
 51
323.2529987714662
  0
ARC
  5
A4C7
102
{ACAD_REACTORS
330
A4D9
102
}
330
2
100
AcDbEntity
  8
KIJUN
100
AcDbCircle
 10
42.57244284403888
 20
50.34549106386998
 30
0.0
 40
11.34616260348564
100
AcDbArc
 50
264.0167342313897
 51
276.6589248003821
  0
ARC
  5
A4C8
102
{ACAD_REACTORS
330
A4D9
102
}
330
2
100
AcDbEntity
  8
KIJUN
100
AcDbCircle
 10
33.91343070856283
 20
50.20859949575982
 30
0.0
 40
15.76177055186317
100
AcDbArc
 50
322.171644477125
 51
331.8440322426979
  0
ARC
  5
A4C9
102
{ACAD_REACTORS
330
A4D9
102
}
330
2
100
AcDbEntity
  8
KIJUN
100
AcDbCircle
 10
128.6800308364501
 20
106.4151222471773
 30
0.0
 40
22.25152013309462
100
AcDbArc
 50
168.7785009711823
 51
185.6886551663225
  0
ARC
  5
A4CA
102
{ACAD_REACTORS
330
A4D9
102
}
330
2
100
AcDbEntity
  8
KIJUN
100
AcDbCircle
 10
102.8192007124367
 20
102.2338425632653
 30
0.0
 40
3.740865831055717
100
AcDbArc
 50
306.7470012285341
 51
351.9673454830418
  0
ARC
  5
A4CB
102
{ACAD_REACTORS
330
A4D9
102
}
330
2
100
AcDbEntity
  8
KIJUN
100
AcDbCircle
 10
95.25374158113757
 20
103.0267898009687
 30
0.0
 40
11.34616260348564
100
AcDbArc
 50
353.3410751996175
 51
5.983265768609458
  0
ARC
  5
A4CC
102
{ACAD_REACTORS
330
A4D9
102
}
330
2
100
AcDbEntity
  8
KIJUN
100
AcDbCircle
 10
95.39063314924774
 20
111.6858019364447
 30
0.0
 40
15.76177055186317
100
AcDbArc
 50
298.1559677573022
 51
307.8283555228751
  0
ARC
  5
A4CD
102
{ACAD_REACTORS
330
A4D9
102
}
330
2
100
AcDbEntity
  8
KIJUN
100
AcDbCircle
 10
102.5237110557063
 20
132.5714420279211
 30
0.0
 40
22.25152013309462
100
AcDbArc
 50
264.3113448336781
 51
281.2214990288184
  0
ARC
  5
A4CE
102
{ACAD_REACTORS
330
A4D9
102
}
330
2
100
AcDbEntity
  8
KIJUN
100
AcDbCircle
 10
98.34243137179427
 20
106.7106119039078
 30
0.0
 40
3.740865831055717
100
AcDbArc
 50
98.03265451695841
 51
143.2529987714658
  0
ARC
  5
A4CF
102
{ACAD_REACTORS
330
A4D9
102
}
330
2
100
AcDbEntity
  8
KIJUN
100
AcDbCircle
 10
99.13537860949768
 20
99.14515277260859
 30
0.0
 40
11.34616260348564
100
AcDbArc
 50
84.01673423138969
 51
96.65892480038209
  0
ARC
  5
A4D0
102
{ACAD_REACTORS
330
A4D9
102
}
330
2
100
AcDbEntity
  8
KIJUN
100
AcDbCircle
 10
107.7943907449737
 20
99.28204434071876
 30
0.0
 40
15.76177055186317
100
AcDbArc
 50
142.171644477125
 51
151.8440322426974
  0
ARC
  5
A4D1
102
{ACAD_REACTORS
330
A4D9
102
}
330
2
100
AcDbEntity
  8
KIJUN
100
AcDbCircle
 10
128.6800308364501
 20
43.07552158930119
 30
0.0
 40
22.25152013309462
100
AcDbArc
 50
174.311344833678
 51
191.2214990288185
  0
ARC
  5
A4D2
102
{ACAD_REACTORS
330
A4D9
102
}
330
2
100
AcDbEntity
  8
KIJUN
100
AcDbCircle
 10
102.8192007124367
 20
47.25680127321328
 30
0.0
 40
3.740865831055717
100
AcDbArc
 50
8.032654516958503
 51
53.25299877146595
  0
ARC
  5
A4D3
102
{ACAD_REACTORS
330
A4D9
102
}
330
2
100
AcDbEntity
  8
KIJUN
100
AcDbCircle
 10
95.25374158113757
 20
46.46385403550988
 30
0.0
 40
11.34616260348564
100
AcDbArc
 50
354.0167342313896
 51
6.658924800382084
  0
ARC
  5
A4D4
102
{ACAD_REACTORS
330
A4D9
102
}
330
2
100
AcDbEntity
  8
KIJUN
100
AcDbCircle
 10
95.39063314924774
 20
37.80484190003384
 30
0.0
 40
15.76177055186317
100
AcDbArc
 50
52.17164447712491
 51
61.84403224269778
  0
ARC
  5
A4D5
102
{ACAD_REACTORS
330
A4D9
102
}
330
2
100
AcDbEntity
  8
KIJUN
100
AcDbCircle
 10
102.5237110557063
 20
16.91920180855746
 30
0.0
 40
22.25152013309462
100
AcDbArc
 50
78.77850097118155
 51
95.68865516632191
  0
ARC
  5
A4D6
102
{ACAD_REACTORS
330
A4D9
102
}
330
2
100
AcDbEntity
  8
KIJUN
100
AcDbCircle
 10
98.34243137179427
 20
42.78003193257077
 30
0.0
 40
3.740865831055717
100
AcDbArc
 50
216.747001228534
 51
261.9673454830416
  0
ARC
  5
A4D7
102
{ACAD_REACTORS
330
A4D9
102
}
330
2
100
AcDbEntity
  8
KIJUN
100
AcDbCircle
 10
99.13537860949768
 20
50.34549106386998
 30
0.0
 40
11.34616260348564
100
AcDbArc
 50
263.341075199618
 51
275.9832657686103
  0
ARC
  5
A4D8
102
{ACAD_REACTORS
330
A4D9
102
}
330
2
100
AcDbEntity
  8
KIJUN
100
AcDbCircle
 10
107.7943907449737
 20
50.20859949575982
 30
0.0
 40
15.76177055186317
100
AcDbArc
 50
208.1559677573024
 51
217.828355522875
  0
ENDSEC
  0
SECTION
  2
OBJECTS
  0
DICTIONARY
  5
1A
330
0
100
AcDbDictionary
281
     1
  3
ACAD_COLOR
350
144
  3
ACAD_GROUP
350
18
  3
ACAD_LAYOUT
350
58
  3
ACAD_MATERIAL
350
143
  3
ACAD_MLINESTYLE
350
19
  3
ACAD_PLOTSETTINGS
350
59
  3
ACAD_PLOTSTYLENAME
350
56
  3
ACAD_TABLESTYLE
350
145
  3
ACDBHEADERROUNDTRIPXREC
350
A4F1
  3
AcDbVariableDictionary
350
1D1
  0
DICTIONARY
  5
1B4
330
A
100
AcDbDictionary
280
     1
281
     1
  3
ACAD_LAYERFILTERS
360
7795
  3
ACLYDICTIONARY
360
7794
  0
DICTIONARY
  5
D13
330
2
100
AcDbDictionary
280
     1
281
     1
  3
ACAD_SORTENTS
360
D14
  0
DICTIONARY
  5
144
102
{ACAD_REACTORS
330
1A
102
}
330
1A
100
AcDbDictionary
281
     1
  0
DICTIONARY
  5
18
102
{ACAD_REACTORS
330
1A
102
}
330
1A
100
AcDbDictionary
281
     1
  3
*A1
350
E0D
  3
*A10
350
A0DC
  3
*A100
350
136A
  3
*A101
350
46A5
  3
*A102
350
4B49
  3
*A103
350
2A17
  3
*A104
350
4E16
  3
*A105
350
8919
  3
*A106
350
8BB8
  3
*A107
350
8F11
  3
*A108
350
8F12
  3
*A109
350
9092
  3
*A11
350
A10F
  3
*A110
350
9163
  3
*A111
350
9432
  3
*A112
350
964B
  3
*A12
350
A154
  3
*A13
350
52B0
  3
*A14
350
A1CC
  3
*A15
350
A2F5
  3
*A16
350
A407
  3
*A17
350
A4D9
  3
*A18
350
36C9
  3
*A19
350
4C3E
  3
*A2
350
519C
  3
*A20
350
5396
  3
*A21
350
265A
  3
*A22
350
275E
  3
*A23
350
48BA
  3
*A24
350
5464
  3
*A25
350
556A
  3
*A26
350
4EE5
  3
*A27
350
213E
  3
*A28
350
57BF
  3
*A29
350
31DF
  3
*A3
350
98D2
  3
*A30
350
3349
  3
*A31
350
4CEC
  3
*A32
350
58EE
  3
*A33
350
382B
  3
*A34
350
1EFE
  3
*A35
350
2573
  3
*A36
350
422E
  3
*A37
350
97D7
  3
*A38
350
4516
  3
*A39
350
3878
  3
*A4
350
99FC
  3
*A40
350
5D92
  3
*A41
350
2905
  3
*A42
350
3E5C
  3
*A43
350
1555
  3
*A44
350
17BC
  3
*A45
350
3181
  3
*A46
350
2B84
  3
*A47
350
24D6
  3
*A48
350
4F64
  3
*A49
350
5F6F
  3
*A5
350
9AE5
  3
*A50
350
4A53
  3
*A51
350
626B
  3
*A52
350
6417
  3
*A53
350
307D
  3
*A54
350
668C
  3
*A55
350
4D76
  3
*A56
350
241A
  3
*A57
350
68C5
  3
*A58
350
34BB
  3
*A59
350
4781
  3
*A6
350
9B93
  3
*A60
350
6A30
  3
*A61
350
2EE1
  3
*A62
350
6A98
  3
*A63
350
1A98
  3
*A64
350
6C32
  3
*A65
350
2037
  3
*A66
350
6D00
  3
*A67
350
3988
  3
*A68
350
6DE3
  3
*A69
350
FF8
  3
*A7
350
9CE8
  3
*A70
350
5011
  3
*A71
350
6EB7
  3
*A72
350
706D
  3
*A73
350
45E5
  3
*A74
350
7170
  3
*A75
350
35A5
  3
*A76
350
3695
  3
*A77
350
401B
  3
*A78
350
1CBC
  3
*A79
350
3C81
  3
*A8
350
9E96
  3
*A80
350
7453
  3
*A81
350
2C6B
  3
*A82
350
76E3
  3
*A83
350
3A25
  3
*A84
350
7793
  3
*A85
350
2D78
  3
*A86
350
7ADA
  3
*A87
350
26DD
  3
*A88
350
7D2B
  3
*A89
350
32E4
  3
*A9
350
A089
  3
*A90
350
2F81
  3
*A91
350
4407
  3
*A92
350
22C8
  3
*A93
350
7E5C
  3
*A94
350
8108
  3
*A95
350
8393
  3
*A96
350
84B0
  3
*A97
350
8635
  3
*A98
350
3467
  3
*A99
350
87B5
  0
DICTIONARY
  5
58
102
{ACAD_REACTORS
330
1A
102
}
330
1A
100
AcDbDictionary
281
     1
  3
Model
350
5A
  3
ﾚｲｱｳﾄ1
350
5B
  0
DICTIONARY
  5
143
102
{ACAD_REACTORS
330
1A
102
}
330
1A
100
AcDbDictionary
281
     1
  0
DICTIONARY
  5
19
102
{ACAD_REACTORS
330
1A
102
}
330
1A
100
AcDbDictionary
281
     1
  3
STANDARD
350
1D
  0
DICTIONARY
  5
59
102
{ACAD_REACTORS
330
1A
102
}
330
1A
100
AcDbDictionary
281
     1
  0
ACDBDICTIONARYWDFLT
  5
56
102
{ACAD_REACTORS
330
1A
102
}
330
1A
100
AcDbDictionary
281
     1
  3
Normal
350
57
100
AcDbDictionaryWithDefault
340
57
  0
DICTIONARY
  5
145
102
{ACAD_REACTORS
330
1A
102
}
330
1A
100
AcDbDictionary
281
     1
  3
Standard
350
146
  0
DICTIONARY
  5
A4F1
102
{ACAD_REACTORS
330
1A
102
}
330
1A
100
AcDbDictionary
281
     1
  0
DICTIONARY
  5
1D1
102
{ACAD_REACTORS
330
1A
102
}
330
1A
100
AcDbDictionary
281
     1
  3
CTABLESTYLE
350
1D2
  3
DIMASSOC
350
D03
  3
PROJECTNAME
350
D04
  0
DICTIONARY
  5
7795
102
{ACAD_REACTORS
330
1B4
102
}
330
1B4
100
AcDbDictionary
281
     1
  0
DICTIONARY
  5
7794
102
{ACAD_REACTORS
330
1B4
102
}
330
1B4
100
AcDbDictionary
281
     1
1001
ACAD
1000
<All
  0
SORTENTSTABLE
  5
D14
102
{ACAD_REACTORS
330
D13
102
}
330
D13
100
AcDbSortentsTable
330
2
331
20
  5
20
331
21
  5
21
331
23
  5
23
331
1F
  5
1F
  0
GROUP
  5
E0D
102
{ACAD_REACTORS
330
18
102
}
330
18
100
AcDbGroup
300

 70
     1
 71
     1
  0
GROUP
  5
A0DC
102
{ACAD_REACTORS
330
18
102
}
330
18
100
AcDbGroup
300

 70
     1
 71
     1
  0
GROUP
  5
136A
102
{ACAD_REACTORS
330
18
102
}
330
18
100
AcDbGroup
300

 70
     1
 71
     1
  0
GROUP
  5
46A5
102
{ACAD_REACTORS
330
18
102
}
330
18
100
AcDbGroup
300

 70
     1
 71
     1
  0
GROUP
  5
4B49
102
{ACAD_REACTORS
330
18
102
}
330
18
100
AcDbGroup
300

 70
     1
 71
     1
  0
GROUP
  5
2A17
102
{ACAD_REACTORS
330
18
102
}
330
18
100
AcDbGroup
300

 70
     1
 71
     1
  0
GROUP
  5
4E16
102
{ACAD_REACTORS
330
18
102
}
330
18
100
AcDbGroup
300

 70
     1
 71
     1
  0
GROUP
  5
8919
102
{ACAD_REACTORS
330
18
102
}
330
18
100
AcDbGroup
300

 70
     1
 71
     1
  0
GROUP
  5
8BB8
102
{ACAD_REACTORS
330
18
102
}
330
18
100
AcDbGroup
300

 70
     1
 71
     1
  0
GROUP
  5
8F11
102
{ACAD_REACTORS
330
18
102
}
330
18
100
AcDbGroup
300

 70
     1
 71
     1
  0
GROUP
  5
8F12
102
{ACAD_REACTORS
330
18
102
}
330
18
100
AcDbGroup
300

 70
     1
 71
     1
  0
GROUP
  5
9092
102
{ACAD_REACTORS
330
18
102
}
330
18
100
AcDbGroup
300

 70
     1
 71
     1
  0
GROUP
  5
A10F
102
{ACAD_REACTORS
330
18
102
}
330
18
100
AcDbGroup
300

 70
     1
 71
     1
  0
GROUP
  5
9163
102
{ACAD_REACTORS
330
18
102
}
330
18
100
AcDbGroup
300

 70
     1
 71
     1
  0
GROUP
  5
9432
102
{ACAD_REACTORS
330
18
102
}
330
18
100
AcDbGroup
300

 70
     1
 71
     1
  0
GROUP
  5
964B
102
{ACAD_REACTORS
330
18
102
}
330
18
100
AcDbGroup
300

 70
     1
 71
     1
  0
GROUP
  5
A154
102
{ACAD_REACTORS
330
18
102
}
330
18
100
AcDbGroup
300

 70
     1
 71
     1
  0
GROUP
  5
52B0
102
{ACAD_REACTORS
330
18
102
}
330
18
100
AcDbGroup
300

 70
     1
 71
     1
  0
GROUP
  5
A1CC
102
{ACAD_REACTORS
330
18
102
}
330
18
100
AcDbGroup
300

 70
     1
 71
     1
  0
GROUP
  5
A2F5
102
{ACAD_REACTORS
330
18
102
}
330
18
100
AcDbGroup
300

 70
     1
 71
     1
  0
GROUP
  5
A407
102
{ACAD_REACTORS
330
18
102
}
330
18
100
AcDbGroup
300

 70
     1
 71
     1
  0
GROUP
  5
A4D9
102
{ACAD_REACTORS
330
18
102
}
330
18
100
AcDbGroup
300

 70
     1
 71
     1
340
A4D8
340
A4D7
340
A4D6
340
A4D5
340
A4D4
340
A4D3
340
A4D2
340
A4D1
340
A4D0
340
A4CF
340
A4CE
340
A4CD
340
A4CC
340
A4CB
340
A4CA
340
A4C9
340
A4C8
340
A4C7
340
A4C6
340
A4C5
340
A4C4
340
A4C3
340
A4C2
340
A4C1
340
A4C0
340
A4BF
340
A4BE
340
A4BD
340
A4BC
340
A4BB
340
A4BA
340
A4B9
340
A48C
340
A48B
340
A48A
340
A489
340
A488
340
A485
340
A484
340
A483
340
A482
340
A481
340
A480
340
A47E
340
A47D
340
A47C
340
A47B
340
A47A
340
A479
340
A477
340
A476
340
A475
340
A474
340
A473
340
A472
340
A46F
340
A46E
340
A46D
340
A46A
340
A469
340
A468
340
A467
340
A466
340
A465
340
A464
340
A463
340
A462
340
A461
340
A460
340
A45F
340
A45E
340
A45D
340
A45C
340
A45B
340
A45A
340
A459
340
A458
340
A457
340
A456
340
A455
340
A454
340
A453
  0
GROUP
  5
36C9
102
{ACAD_REACTORS
330
18
102
}
330
18
100
AcDbGroup
300

 70
     1
 71
     1
  0
GROUP
  5
4C3E
102
{ACAD_REACTORS
330
18
102
}
330
18
100
AcDbGroup
300

 70
     1
 71
     1
  0
GROUP
  5
519C
102
{ACAD_REACTORS
330
18
102
}
330
18
100
AcDbGroup
300

 70
     1
 71
     1
  0
GROUP
  5
5396
102
{ACAD_REACTORS
330
18
102
}
330
18
100
AcDbGroup
300

 70
     1
 71
     1
  0
GROUP
  5
265A
102
{ACAD_REACTORS
330
18
102
}
330
18
100
AcDbGroup
300

 70
     1
 71
     1
  0
GROUP
  5
275E
102
{ACAD_REACTORS
330
18
102
}
330
18
100
AcDbGroup
300

 70
     1
 71
     1
  0
GROUP
  5
48BA
102
{ACAD_REACTORS
330
18
102
}
330
18
100
AcDbGroup
300

 70
     1
 71
     1
  0
GROUP
  5
5464
102
{ACAD_REACTORS
330
18
102
}
330
18
100
AcDbGroup
300

 70
     1
 71
     1
  0
GROUP
  5
556A
102
{ACAD_REACTORS
330
18
102
}
330
18
100
AcDbGroup
300

 70
     1
 71
     1
  0
GROUP
  5
4EE5
102
{ACAD_REACTORS
330
18
102
}
330
18
100
AcDbGroup
300

 70
     1
 71
     1
  0
GROUP
  5
213E
102
{ACAD_REACTORS
330
18
102
}
330
18
100
AcDbGroup
300

 70
     1
 71
     1
  0
GROUP
  5
57BF
102
{ACAD_REACTORS
330
18
102
}
330
18
100
AcDbGroup
300

 70
     1
 71
     1
  0
GROUP
  5
31DF
102
{ACAD_REACTORS
330
18
102
}
330
18
100
AcDbGroup
300

 70
     1
 71
     1
  0
GROUP
  5
98D2
102
{ACAD_REACTORS
330
18
102
}
330
18
100
AcDbGroup
300

 70
     1
 71
     1
  0
GROUP
  5
3349
102
{ACAD_REACTORS
330
18
102
}
330
18
100
AcDbGroup
300

 70
     1
 71
     1
  0
GROUP
  5
4CEC
102
{ACAD_REACTORS
330
18
102
}
330
18
100
AcDbGroup
300

 70
     1
 71
     1
  0
GROUP
  5
58EE
102
{ACAD_REACTORS
330
18
102
}
330
18
100
AcDbGroup
300

 70
     1
 71
     1
  0
GROUP
  5
382B
102
{ACAD_REACTORS
330
18
102
}
330
18
100
AcDbGroup
300

 70
     1
 71
     1
  0
GROUP
  5
1EFE
102
{ACAD_REACTORS
330
18
102
}
330
18
100
AcDbGroup
300

 70
     1
 71
     1
  0
GROUP
  5
2573
102
{ACAD_REACTORS
330
18
102
}
330
18
100
AcDbGroup
300

 70
     1
 71
     1
  0
GROUP
  5
422E
102
{ACAD_REACTORS
330
18
102
}
330
18
100
AcDbGroup
300

 70
     1
 71
     1
  0
GROUP
  5
97D7
102
{ACAD_REACTORS
330
18
102
}
330
18
100
AcDbGroup
300

 70
     1
 71
     1
  0
GROUP
  5
4516
102
{ACAD_REACTORS
330
18
102
}
330
18
100
AcDbGroup
300

 70
     1
 71
     1
  0
GROUP
  5
3878
102
{ACAD_REACTORS
330
18
102
}
330
18
100
AcDbGroup
300

 70
     1
 71
     1
  0
GROUP
  5
99FC
102
{ACAD_REACTORS
330
18
102
}
330
18
100
AcDbGroup
300

 70
     1
 71
     1
  0
GROUP
  5
5D92
102
{ACAD_REACTORS
330
18
102
}
330
18
100
AcDbGroup
300

 70
     1
 71
     1
  0
GROUP
  5
2905
102
{ACAD_REACTORS
330
18
102
}
330
18
100
AcDbGroup
300

 70
     1
 71
     1
  0
GROUP
  5
3E5C
102
{ACAD_REACTORS
330
18
102
}
330
18
100
AcDbGroup
300

 70
     1
 71
     1
  0
GROUP
  5
1555
102
{ACAD_REACTORS
330
18
102
}
330
18
100
AcDbGroup
300

 70
     1
 71
     1
  0
GROUP
  5
17BC
102
{ACAD_REACTORS
330
18
102
}
330
18
100
AcDbGroup
300

 70
     1
 71
     1
  0
GROUP
  5
3181
102
{ACAD_REACTORS
330
18
102
}
330
18
100
AcDbGroup
300

 70
     1
 71
     1
  0
GROUP
  5
2B84
102
{ACAD_REACTORS
330
18
102
}
330
18
100
AcDbGroup
300

 70
     1
 71
     1
  0
GROUP
  5
24D6
102
{ACAD_REACTORS
330
18
102
}
330
18
100
AcDbGroup
300

 70
     1
 71
     1
  0
GROUP
  5
4F64
102
{ACAD_REACTORS
330
18
102
}
330
18
100
AcDbGroup
300

 70
     1
 71
     1
  0
GROUP
  5
5F6F
102
{ACAD_REACTORS
330
18
102
}
330
18
100
AcDbGroup
300

 70
     1
 71
     1
  0
GROUP
  5
9AE5
102
{ACAD_REACTORS
330
18
102
}
330
18
100
AcDbGroup
300

 70
     1
 71
     1
  0
GROUP
  5
4A53
102
{ACAD_REACTORS
330
18
102
}
330
18
100
AcDbGroup
300

 70
     1
 71
     1
  0
GROUP
  5
626B
102
{ACAD_REACTORS
330
18
102
}
330
18
100
AcDbGroup
300

 70
     1
 71
     1
  0
GROUP
  5
6417
102
{ACAD_REACTORS
330
18
102
}
330
18
100
AcDbGroup
300

 70
     1
 71
     1
  0
GROUP
  5
307D
102
{ACAD_REACTORS
330
18
102
}
330
18
100
AcDbGroup
300

 70
     1
 71
     1
  0
GROUP
  5
668C
102
{ACAD_REACTORS
330
18
102
}
330
18
100
AcDbGroup
300

 70
     1
 71
     1
  0
GROUP
  5
4D76
102
{ACAD_REACTORS
330
18
102
}
330
18
100
AcDbGroup
300

 70
     1
 71
     1
  0
GROUP
  5
241A
102
{ACAD_REACTORS
330
18
102
}
330
18
100
AcDbGroup
300

 70
     1
 71
     1
  0
GROUP
  5
68C5
102
{ACAD_REACTORS
330
18
102
}
330
18
100
AcDbGroup
300

 70
     1
 71
     1
  0
GROUP
  5
34BB
102
{ACAD_REACTORS
330
18
102
}
330
18
100
AcDbGroup
300

 70
     1
 71
     1
  0
GROUP
  5
4781
102
{ACAD_REACTORS
330
18
102
}
330
18
100
AcDbGroup
300

 70
     1
 71
     1
  0
GROUP
  5
9B93
102
{ACAD_REACTORS
330
18
102
}
330
18
100
AcDbGroup
300

 70
     1
 71
     1
  0
GROUP
  5
6A30
102
{ACAD_REACTORS
330
18
102
}
330
18
100
AcDbGroup
300

 70
     1
 71
     1
  0
GROUP
  5
2EE1
102
{ACAD_REACTORS
330
18
102
}
330
18
100
AcDbGroup
300

 70
     1
 71
     1
  0
GROUP
  5
6A98
102
{ACAD_REACTORS
330
18
102
}
330
18
100
AcDbGroup
300

 70
     1
 71
     1
  0
GROUP
  5
1A98
102
{ACAD_REACTORS
330
18
102
}
330
18
100
AcDbGroup
300

 70
     1
 71
     1
  0
GROUP
  5
6C32
102
{ACAD_REACTORS
330
18
102
}
330
18
100
AcDbGroup
300

 70
     1
 71
     1
  0
GROUP
  5
2037
102
{ACAD_REACTORS
330
18
102
}
330
18
100
AcDbGroup
300

 70
     1
 71
     1
  0
GROUP
  5
6D00
102
{ACAD_REACTORS
330
18
102
}
330
18
100
AcDbGroup
300

 70
     1
 71
     1
  0
GROUP
  5
3988
102
{ACAD_REACTORS
330
18
102
}
330
18
100
AcDbGroup
300

 70
     1
 71
     1
  0
GROUP
  5
6DE3
102
{ACAD_REACTORS
330
18
102
}
330
18
100
AcDbGroup
300

 70
     1
 71
     1
  0
GROUP
  5
FF8
102
{ACAD_REACTORS
330
18
102
}
330
18
100
AcDbGroup
300

 70
     1
 71
     1
  0
GROUP
  5
9CE8
102
{ACAD_REACTORS
330
18
102
}
330
18
100
AcDbGroup
300

 70
     1
 71
     1
  0
GROUP
  5
5011
102
{ACAD_REACTORS
330
18
102
}
330
18
100
AcDbGroup
300

 70
     1
 71
     1
  0
GROUP
  5
6EB7
102
{ACAD_REACTORS
330
18
102
}
330
18
100
AcDbGroup
300

 70
     1
 71
     1
  0
GROUP
  5
706D
102
{ACAD_REACTORS
330
18
102
}
330
18
100
AcDbGroup
300

 70
     1
 71
     1
  0
GROUP
  5
45E5
102
{ACAD_REACTORS
330
18
102
}
330
18
100
AcDbGroup
300

 70
     1
 71
     1
  0
GROUP
  5
7170
102
{ACAD_REACTORS
330
18
102
}
330
18
100
AcDbGroup
300

 70
     1
 71
     1
  0
GROUP
  5
35A5
102
{ACAD_REACTORS
330
18
102
}
330
18
100
AcDbGroup
300

 70
     1
 71
     1
  0
GROUP
  5
3695
102
{ACAD_REACTORS
330
18
102
}
330
18
100
AcDbGroup
300

 70
     1
 71
     1
  0
GROUP
  5
401B
102
{ACAD_REACTORS
330
18
102
}
330
18
100
AcDbGroup
300

 70
     1
 71
     1
  0
GROUP
  5
1CBC
102
{ACAD_REACTORS
330
18
102
}
330
18
100
AcDbGroup
300

 70
     1
 71
     1
  0
GROUP
  5
3C81
102
{ACAD_REACTORS
330
18
102
}
330
18
100
AcDbGroup
300

 70
     1
 71
     1
  0
GROUP
  5
9E96
102
{ACAD_REACTORS
330
18
102
}
330
18
100
AcDbGroup
300

 70
     1
 71
     1
  0
GROUP
  5
7453
102
{ACAD_REACTORS
330
18
102
}
330
18
100
AcDbGroup
300

 70
     1
 71
     1
  0
GROUP
  5
2C6B
102
{ACAD_REACTORS
330
18
102
}
330
18
100
AcDbGroup
300

 70
     1
 71
     1
  0
GROUP
  5
76E3
102
{ACAD_REACTORS
330
18
102
}
330
18
100
AcDbGroup
300

 70
     1
 71
     1
  0
GROUP
  5
3A25
102
{ACAD_REACTORS
330
18
102
}
330
18
100
AcDbGroup
300

 70
     1
 71
     1
  0
GROUP
  5
7793
102
{ACAD_REACTORS
330
18
102
}
330
18
100
AcDbGroup
300

 70
     1
 71
     1
  0
GROUP
  5
2D78
102
{ACAD_REACTORS
330
18
102
}
330
18
100
AcDbGroup
300

 70
     1
 71
     1
  0
GROUP
  5
7ADA
102
{ACAD_REACTORS
330
18
102
}
330
18
100
AcDbGroup
300

 70
     1
 71
     1
  0
GROUP
  5
26DD
102
{ACAD_REACTORS
330
18
102
}
330
18
100
AcDbGroup
300

 70
     1
 71
     1
  0
GROUP
  5
7D2B
102
{ACAD_REACTORS
330
18
102
}
330
18
100
AcDbGroup
300

 70
     1
 71
     1
  0
GROUP
  5
32E4
102
{ACAD_REACTORS
330
18
102
}
330
18
100
AcDbGroup
300

 70
     1
 71
     1
  0
GROUP
  5
A089
102
{ACAD_REACTORS
330
18
102
}
330
18
100
AcDbGroup
300

 70
     1
 71
     1
  0
GROUP
  5
2F81
102
{ACAD_REACTORS
330
18
102
}
330
18
100
AcDbGroup
300

 70
     1
 71
     1
  0
GROUP
  5
4407
102
{ACAD_REACTORS
330
18
102
}
330
18
100
AcDbGroup
300

 70
     1
 71
     1
  0
GROUP
  5
22C8
102
{ACAD_REACTORS
330
18
102
}
330
18
100
AcDbGroup
300

 70
     1
 71
     1
  0
GROUP
  5
7E5C
102
{ACAD_REACTORS
330
18
102
}
330
18
100
AcDbGroup
300

 70
     1
 71
     1
  0
GROUP
  5
8108
102
{ACAD_REACTORS
330
18
102
}
330
18
100
AcDbGroup
300

 70
     1
 71
     1
  0
GROUP
  5
8393
102
{ACAD_REACTORS
330
18
102
}
330
18
100
AcDbGroup
300

 70
     1
 71
     1
  0
GROUP
  5
84B0
102
{ACAD_REACTORS
330
18
102
}
330
18
100
AcDbGroup
300

 70
     1
 71
     1
  0
GROUP
  5
8635
102
{ACAD_REACTORS
330
18
102
}
330
18
100
AcDbGroup
300

 70
     1
 71
     1
  0
GROUP
  5
3467
102
{ACAD_REACTORS
330
18
102
}
330
18
100
AcDbGroup
300

 70
     1
 71
     1
  0
GROUP
  5
87B5
102
{ACAD_REACTORS
330
18
102
}
330
18
100
AcDbGroup
300

 70
     1
 71
     1
  0
LAYOUT
  5
5A
102
{ACAD_XDICTIONARY
360
A4F2
102
}
102
{ACAD_REACTORS
330
58
102
}
330
58
100
AcDbPlotSettings
  1

  2
なし
  4

  6

 40
0.0
 41
0.0
 42
0.0
 43
0.0
 44
0.0
 45
0.0
 46
0.0
 47
0.0
 48
0.0
 49
0.0
140
0.0
141
0.0
142
1.0
143
1.0
 70
  1712
 72
     0
 73
     0
 74
     0
  7
monochrome.ctb
 75
     0
147
1.0
148
0.0
149
0.0
100
AcDbLayout
  1
Model
 70
     1
 71
     0
 10
0.0
 20
0.0
 11
12.0
 21
9.0
 12
0.0
 22
0.0
 32
0.0
 14
0.0
 24
0.0
 34
0.0
 15
0.0
 25
0.0
 35
0.0
146
0.0
 13
0.0
 23
0.0
 33
0.0
 16
1.0
 26
0.0
 36
0.0
 17
0.0
 27
1.0
 37
0.0
 76
     0
330
2
  0
LAYOUT
  5
5B
102
{ACAD_XDICTIONARY
360
A4F4
102
}
102
{ACAD_REACTORS
330
58
102
}
330
58
100
AcDbPlotSettings
  1

  2
なし
  4

  6

 40
0.0
 41
0.0
 42
0.0
 43
0.0
 44
0.0
 45
0.0
 46
0.0
 47
0.0
 48
0.0
 49
0.0
140
0.0
141
0.0
142
1.0
143
1.0
 70
   688
 72
     0
 73
     0
 74
     5
  7
monochrome.ctb
 75
    16
147
1.0
148
0.0
149
0.0
100
AcDbLayout
  1
ﾚｲｱｳﾄ1
 70
     1
 71
     1
 10
0.0
 20
0.0
 11
12.0
 21
9.0
 12
0.0
 22
0.0
 32
0.0
 14
1.000000000000000E+20
 24
1.000000000000000E+20
 34
1.000000000000000E+20
 15
-1.000000000000000E+20
 25
-1.000000000000000E+20
 35
-1.000000000000000E+20
146
0.0
 13
0.0
 23
0.0
 33
0.0
 16
1.0
 26
0.0
 36
0.0
 17
0.0
 27
1.0
 37
0.0
 76
     0
330
7
  0
MLINESTYLE
  5
1D
102
{ACAD_REACTORS
330
19
102
}
330
19
100
AcDbMlineStyle
  2
STANDARD
 70
     0
  3

 62
   256
 51
90.0
 52
90.0
 71
     2
 49
0.5
 62
   256
  6
BYLAYER
 49
-0.5
 62
   256
  6
BYLAYER
  0
ACDBPLACEHOLDER
  5
57
102
{ACAD_REACTORS
330
56
102
}
330
56
  0
TABLESTYLE
  5
146
102
{ACAD_REACTORS
330
145
102
}
330
145
100
AcDbTableStyle
  3
Standard
 70
     0
 71
     0
 40
0.06
 41
0.06
280
     0
281
     0
  7
STANDARD
140
0.18
170
     2
 62
     0
 63
     7
283
     0
274
    -2
284
     1
 64
     0
275
    -2
285
     1
 65
     0
276
    -2
286
     1
 66
     0
277
    -2
287
     1
 67
     0
278
    -2
288
     1
 68
     0
279
    -2
289
     1
 69
     0
  7
STANDARD
140
0.25
170
     5
 62
     0
 63
     7
283
     0
274
    -2
284
     1
 64
     0
275
    -2
285
     1
 65
     0
276
    -2
286
     1
 66
     0
277
    -2
287
     1
 67
     0
278
    -2
288
     1
 68
     0
279
    -2
289
     1
 69
     0
  7
STANDARD
140
0.18
170
     5
 62
     0
 63
     7
283
     0
274
    -2
284
     1
 64
     0
275
    -2
285
     1
 65
     0
276
    -2
286
     1
 66
     0
277
    -2
287
     1
 67
     0
278
    -2
288
     1
 68
     0
279
    -2
289
     1
 69
     0
  0
DICTIONARYVAR
  5
1D2
102
{ACAD_REACTORS
330
1D1
102
}
330
1D1
100
DictionaryVariables
280
     0
  1
STANDARD
  0
DICTIONARYVAR
  5
D03
102
{ACAD_REACTORS
330
1D1
102
}
330
1D1
100
DictionaryVariables
280
     0
  1
1
  0
DICTIONARYVAR
  5
D04
102
{ACAD_REACTORS
330
1D1
102
}
330
1D1
100
DictionaryVariables
280
     0
  1

  0
DICTIONARY
  5
A4F2
330
5A
100
AcDbDictionary
280
     1
281
     1
  3
ACAD_XREC_ROUNDTRIP
360
A4F3
  0
DICTIONARY
  5
A4F4
330
5B
100
AcDbDictionary
280
     1
281
     1
  3
ACAD_XREC_ROUNDTRIP
360
A4F5
  0
XRECORD
  5
A4F3
102
{ACAD_REACTORS
330
A4F2
102
}
330
A4F2
100
AcDbXrecord
280
     1
102
SHADEPLOT
 70
     0
102
SHADEPLOTRESLEVEL
 70
     2
102
SHADEPLOTCUSTOMDPI
 70
   300
  0
XRECORD
  5
A4F5
102
{ACAD_REACTORS
330
A4F4
102
}
330
A4F4
100
AcDbXrecord
280
     1
102
SHADEPLOT
 70
     0
102
SHADEPLOTRESLEVEL
 70
     2
102
SHADEPLOTCUSTOMDPI
 70
   300
  0
ENDSEC
  0
EOF
