  0
SECTION
  2
HEADER
  9
$ACADVER
  1
AC1015
  9
$ACADMAINTVER
 70
    20
  9
$DWGCODEPAGE
  3
ANSI_932
  9
$INSBASE
 10
922.019522
 20
-675.4306699999999
 30
0.0
  9
$EXTMIN
 10
-12.18616163516413
 20
0.0
 30
0.0
  9
$EXTMAX
 10
133.4211017667494
 20
153.7360857746673
 30
0.0
  9
$LIMMIN
 10
0.0
 20
0.0
  9
$LIMMAX
 10
420.0
 20
297.0
  9
$ORTHOMODE
 70
     1
  9
$REGENMODE
 70
     1
  9
$FILLMODE
 70
     1
  9
$QTEXTMODE
 70
     0
  9
$MIRRTEXT
 70
     1
  9
$LTSCALE
 40
1.0
  9
$ATTMODE
 70
     1
  9
$TEXTSIZE
 40
30.0
  9
$TRACEWID
 40
0.05
  9
$TEXTSTYLE
  7
SUNPOU
  9
$CLAYER
  8
0
  9
$CELTYPE
  6
BYLAYER
  9
$CECOLOR
 62
   256
  9
$CELTSCALE
 40
1.0
  9
$DISPSILH
 70
     0
  9
$DIMSCALE
 40
1.0
  9
$DIMASZ
 40
2.0
  9
$DIMEXO
 40
10.0
  9
$DIMDLI
 40
0.38
  9
$DIMRND
 40
0.0
  9
$DIMDLE
 40
0.0
  9
$DIMEXE
 40
0.0
  9
$DIMTP
 40
0.0
  9
$DIMTM
 40
0.0
  9
$DIMTXT
 40
5.0
  9
$DIMCEN
 40
0.0
  9
$DIMTSZ
 40
0.0
  9
$DIMTOL
 70
     0
  9
$DIMLIM
 70
     0
  9
$DIMTIH
 70
     0
  9
$DIMTOH
 70
     0
  9
$DIMSE1
 70
     0
  9
$DIMSE2
 70
     0
  9
$DIMTAD
 70
     1
  9
$DIMZIN
 70
     0
  9
$DIMBLK
  1
Dot
  9
$DIMASO
 70
     1
  9
$DIMSHO
 70
     1
  9
$DIMPOST
  1

  9
$DIMAPOST
  1

  9
$DIMALT
 70
     0
  9
$DIMALTD
 70
     2
  9
$DIMALTF
 40
25.4
  9
$DIMLFAC
 40
1.0
  9
$DIMTOFL
 70
     0
  9
$DIMTVP
 40
0.0
  9
$DIMTIX
 70
     0
  9
$DIMSOXD
 70
     0
  9
$DIMSAH
 70
     0
  9
$DIMBLK1
  1

  9
$DIMBLK2
  1

  9
$DIMSTYLE
  2
STANDARD
  9
$DIMCLRD
 70
    60
  9
$DIMCLRE
 70
    70
  9
$DIMCLRT
 70
    60
  9
$DIMTFAC
 40
0.064286
  9
$DIMGAP
 40
3.0
  9
$DIMJUST
 70
     0
  9
$DIMSD1
 70
     0
  9
$DIMSD2
 70
     0
  9
$DIMTOLJ
 70
     1
  9
$DIMTZIN
 70
     0
  9
$DIMALTZ
 70
     0
  9
$DIMALTTZ
 70
     0
  9
$DIMUPT
 70
     0
  9
$DIMDEC
 70
     0
  9
$DIMTDEC
 70
     0
  9
$DIMALTU
 70
     2
  9
$DIMALTTD
 70
     2
  9
$DIMTXSTY
  7
SUNPOU
  9
$DIMAUNIT
 70
     0
  9
$DIMADEC
 70
     0
  9
$DIMALTRND
 40
0.0
  9
$DIMAZIN
 70
     0
  9
$DIMDSEP
 70
    46
  9
$DIMATFIT
 70
     3
  9
$DIMFRAC
 70
     0
  9
$DIMLDRBLK
  1

  9
$DIMLUNIT
 70
     2
  9
$DIMLWD
 70
    -2
  9
$DIMLWE
 70
    -2
  9
$DIMTMOVE
 70
     0
  9
$LUNITS
 70
     2
  9
$LUPREC
 70
     5
  9
$SKETCHINC
 40
0.1
  9
$FILLETRAD
 40
0.0
  9
$AUNITS
 70
     0
  9
$AUPREC
 70
     0
  9
$MENU
  1
acad
  9
$ELEVATION
 40
0.0
  9
$PELEVATION
 40
0.0
  9
$THICKNESS
 40
0.0
  9
$LIMCHECK
 70
     0
  9
$CHAMFERA
 40
0.0
  9
$CHAMFERB
 40
0.0
  9
$CHAMFERC
 40
0.0
  9
$CHAMFERD
 40
0.0
  9
$SKPOLY
 70
     0
  9
$TDCREATE
 40
2450623.654673033
  9
$TDUCREATE
 40
2450623.279673032
  9
$TDUPDATE
 40
2453879.431056100
  9
$TDUUPDATE
 40
2453879.056056100
  9
$TDINDWG
 40
1.9030891551
  9
$TDUSRTIMER
 40
1.9030889815
  9
$USRTIMER
 70
     1
  9
$ANGBASE
 50
0.0
  9
$ANGDIR
 70
     0
  9
$PDMODE
 70
     0
  9
$PDSIZE
 40
0.0
  9
$PLINEWID
 40
0.0
  9
$SPLFRAME
 70
     0
  9
$SPLINETYPE
 70
     6
  9
$SPLINESEGS
 70
     8
  9
$HANDSEED
  5
A41E
  9
$SURFTAB1
 70
     6
  9
$SURFTAB2
 70
     6
  9
$SURFTYPE
 70
     6
  9
$SURFU
 70
     6
  9
$SURFV
 70
     6
  9
$UCSBASE
  2

  9
$UCSNAME
  2

  9
$UCSORG
 10
0.0
 20
0.0
 30
0.0
  9
$UCSXDIR
 10
1.0
 20
0.0
 30
0.0
  9
$UCSYDIR
 10
0.0
 20
1.0
 30
0.0
  9
$UCSORTHOREF
  2

  9
$UCSORTHOVIEW
 70
     0
  9
$UCSORGTOP
 10
0.0
 20
0.0
 30
0.0
  9
$UCSORGBOTTOM
 10
0.0
 20
0.0
 30
0.0
  9
$UCSORGLEFT
 10
0.0
 20
0.0
 30
0.0
  9
$UCSORGRIGHT
 10
0.0
 20
0.0
 30
0.0
  9
$UCSORGFRONT
 10
0.0
 20
0.0
 30
0.0
  9
$UCSORGBACK
 10
0.0
 20
0.0
 30
0.0
  9
$PUCSBASE
  2

  9
$PUCSNAME
  2

  9
$PUCSORG
 10
0.0
 20
0.0
 30
0.0
  9
$PUCSXDIR
 10
1.0
 20
0.0
 30
0.0
  9
$PUCSYDIR
 10
0.0
 20
1.0
 30
0.0
  9
$PUCSORTHOREF
  2

  9
$PUCSORTHOVIEW
 70
     0
  9
$PUCSORGTOP
 10
0.0
 20
0.0
 30
0.0
  9
$PUCSORGBOTTOM
 10
0.0
 20
0.0
 30
0.0
  9
$PUCSORGLEFT
 10
0.0
 20
0.0
 30
0.0
  9
$PUCSORGRIGHT
 10
0.0
 20
0.0
 30
0.0
  9
$PUCSORGFRONT
 10
0.0
 20
0.0
 30
0.0
  9
$PUCSORGBACK
 10
0.0
 20
0.0
 30
0.0
  9
$USERI1
 70
     0
  9
$USERI2
 70
     0
  9
$USERI3
 70
     0
  9
$USERI4
 70
     0
  9
$USERI5
 70
     0
  9
$USERR1
 40
0.0
  9
$USERR2
 40
0.0
  9
$USERR3
 40
0.0
  9
$USERR4
 40
0.0
  9
$USERR5
 40
0.0
  9
$WORLDVIEW
 70
     1
  9
$SHADEDGE
 70
     3
  9
$SHADEDIF
 70
    70
  9
$TILEMODE
 70
     1
  9
$MAXACTVP
 70
    16
  9
$PINSBASE
 10
0.0
 20
0.0
 30
0.0
  9
$PLIMCHECK
 70
     0
  9
$PEXTMIN
 10
1.000000000000000E+20
 20
1.000000000000000E+20
 30
1.000000000000000E+20
  9
$PEXTMAX
 10
-1.000000000000000E+20
 20
-1.000000000000000E+20
 30
-1.000000000000000E+20
  9
$PLIMMIN
 10
0.0
 20
0.0
  9
$PLIMMAX
 10
12.0
 20
9.0
  9
$UNITMODE
 70
     0
  9
$VISRETAIN
 70
     0
  9
$PLINEGEN
 70
     0
  9
$PSLTSCALE
 70
     1
  9
$TREEDEPTH
 70
  3020
  9
$CMLSTYLE
  2
STANDARD
  9
$CMLJUST
 70
     0
  9
$CMLSCALE
 40
1.0
  9
$PROXYGRAPHICS
 70
     1
  9
$MEASUREMENT
 70
     0
  9
$CELWEIGHT
370
    -1
  9
$ENDCAPS
280
     0
  9
$JOINSTYLE
280
     0
  9
$LWDISPLAY
290
     0
  9
$INSUNITS
 70
     0
  9
$HYPERLINKBASE
  1

  9
$STYLESHEET
  1

  9
$XEDIT
290
     1
  9
$CEPSNTYPE
380
     0
  9
$PSTYLEMODE
290
     1
  9
$FINGERPRINTGUID
  2
{FB88A696-E29C-4009-92AF-A3599A8169D5}
  9
$VERSIONGUID
  2
{49339FB9-00BE-4E63-8059-B611CC7C2A71}
  9
$EXTNAMES
290
     1
  9
$PSVPSCALE
 40
0.0
  9
$OLESTARTUP
290
     0
  0
ENDSEC
  0
SECTION
  2
CLASSES
  0
CLASS
  1
DICTIONARYVAR
  2
AcDbDictionaryVar
  3
ObjectDBX Classes
 90
        0
280
     0
281
     0
  0
CLASS
  1
ACDBDICTIONARYWDFLT
  2
AcDbDictionaryWithDefault
  3
ObjectDBX Classes
 90
        0
280
     0
281
     0
  0
CLASS
  1
ACDBPLACEHOLDER
  2
AcDbPlaceHolder
  3
ObjectDBX Classes
 90
        0
280
     0
281
     0
  0
CLASS
  1
LAYOUT
  2
AcDbLayout
  3
ObjectDBX Classes
 90
        0
280
     0
281
     0
  0
CLASS
  1
TABLESTYLE
  2
AcDbTableStyle
  3
ObjectDBX Classes
 90
     2047
280
     0
281
     0
  0
CLASS
  1
SORTENTSTABLE
  2
AcDbSortentsTable
  3
ObjectDBX Classes
 90
        0
280
     0
281
     0
  0
ENDSEC
  0
SECTION
  2
TABLES
  0
TABLE
  2
VPORT
  5
12
330
0
100
AcDbSymbolTable
 70
     3
  0
VPORT
  5
A418
330
12
100
AcDbSymbolTableRecord
100
AcDbViewportTableRecord
  2
*Active
 70
     0
 10
0.0
 20
0.0
 11
1.0
 21
1.0
 12
60.6297096732095
 22
77.17233850726747
 13
0.0
 23
0.0
 14
1.0
 24
1.0
 15
0.0
 25
0.0
 16
0.0
 26
0.0
 36
1.0
 17
0.0
 27
0.0
 37
0.0
 40
155.5280436149209
 41
1.558109833971902
 42
50.0
 43
0.0
 44
0.0
 50
0.0
 51
0.0
 71
     0
 72
 20000
 73
     1
 74
     1
 75
     0
 76
     0
 77
     0
 78
     0
281
     0
 65
     1
110
0.0
120
0.0
130
0.0
111
1.0
121
0.0
131
0.0
112
0.0
122
1.0
132
0.0
 79
     0
146
0.0
  0
ENDTAB
  0
TABLE
  2
LTYPE
  5
D
330
0
100
AcDbSymbolTable
 70
     1
  0
LTYPE
  5
E
330
D
100
AcDbSymbolTableRecord
100
AcDbLinetypeTableRecord
  2
BYBLOCK
 70
     0
  3

 72
    65
 73
     0
 40
0.0
  0
LTYPE
  5
F
330
D
100
AcDbSymbolTableRecord
100
AcDbLinetypeTableRecord
  2
BYLAYER
 70
     0
  3

 72
    65
 73
     0
 40
0.0
  0
LTYPE
  5
5
330
D
100
AcDbSymbolTableRecord
100
AcDbLinetypeTableRecord
  2
CONTINUOUS
 70
     0
  3
Solid line
 72
    65
 73
     0
 40
0.0
  0
ENDTAB
  0
TABLE
  2
LAYER
  5
A
102
{ACAD_XDICTIONARY
360
1B4
102
}
330
0
100
AcDbSymbolTable
 70
     6
  0
LAYER
  5
4
330
A
100
AcDbSymbolTableRecord
100
AcDbLayerTableRecord
  2
0
 70
     0
 62
     7
  6
CONTINUOUS
370
    -3
390
57
  0
LAYER
  5
25
330
A
100
AcDbSymbolTableRecord
100
AcDbLayerTableRecord
  2
KIJUN
 70
     0
 62
     7
  6
CONTINUOUS
370
    -3
390
57
  0
LAYER
  5
22
330
A
100
AcDbSymbolTableRecord
100
AcDbLayerTableRecord
  2
HOJO
 70
     0
 62
     3
  6
CONTINUOUS
370
    -3
390
57
  0
LAYER
  5
1B
330
A
100
AcDbSymbolTableRecord
100
AcDbLayerTableRecord
  2
WAKU
 70
     0
 62
     1
  6
CONTINUOUS
370
    -3
390
57
  0
LAYER
  5
31
330
A
100
AcDbSymbolTableRecord
100
AcDbLayerTableRecord
  2
DEFPOINTS
 70
     0
 62
     7
  6
CONTINUOUS
290
     0
370
    -3
390
57
  0
LAYER
  5
28
330
A
100
AcDbSymbolTableRecord
100
AcDbLayerTableRecord
  2
SUNPOU
 70
     0
 62
    70
  6
CONTINUOUS
370
    -3
390
57
  0
ENDTAB
  0
TABLE
  2
STYLE
  5
B
330
0
100
AcDbSymbolTable
 70
     2
  0
STYLE
  5
C
330
B
100
AcDbSymbolTableRecord
100
AcDbTextStyleTableRecord
  2
STANDARD
 70
     0
 40
0.0
 41
1.0
 50
0.0
 71
     0
 42
0.2
  3
txt
  4

  0
STYLE
  5
1C
330
B
100
AcDbSymbolTableRecord
100
AcDbTextStyleTableRecord
  2
SUNPOU
 70
     0
 40
0.0
 41
1.0
 50
0.0
 71
     0
 42
30.0
  3
txt
  4
bigfont
  0
ENDTAB
  0
TABLE
  2
VIEW
  5
10
330
0
100
AcDbSymbolTable
 70
     0
  0
ENDTAB
  0
TABLE
  2
UCS
  5
11
330
0
100
AcDbSymbolTable
 70
     0
  0
ENDTAB
  0
TABLE
  2
APPID
  5
14
330
0
100
AcDbSymbolTable
 70
    10
  0
APPID
  5
15
330
14
100
AcDbSymbolTableRecord
100
AcDbRegAppTableRecord
  2
ACAD
 70
     0
  0
APPID
  5
1D3
330
14
100
AcDbSymbolTableRecord
100
AcDbRegAppTableRecord
  2
ACAD_DSTYLE_DIMTEXT_FILL
 70
     0
  0
APPID
  5
1D4
330
14
100
AcDbSymbolTableRecord
100
AcDbRegAppTableRecord
  2
ACAD_DSTYLE_DIMEXT_LENGTH
 70
     0
  0
APPID
  5
1D5
330
14
100
AcDbSymbolTableRecord
100
AcDbRegAppTableRecord
  2
ACAD_DSTYLE_DIMEXT_ENABLED
 70
     0
  0
APPID
  5
1D6
330
14
100
AcDbSymbolTableRecord
100
AcDbRegAppTableRecord
  2
ACAD_DSTYLE_DIM_LINETYPE
 70
     0
  0
APPID
  5
1D7
330
14
100
AcDbSymbolTableRecord
100
AcDbRegAppTableRecord
  2
ACAD_DSTYLE_DIM_EXT1_LINETYPE
 70
     0
  0
APPID
  5
1D8
330
14
100
AcDbSymbolTableRecord
100
AcDbRegAppTableRecord
  2
ACAD_DSTYLE_DIM_EXT2_LINETYPE
 70
     0
  0
APPID
  5
294
330
14
100
AcDbSymbolTableRecord
100
AcDbRegAppTableRecord
  2
ACAD_DSTYLE_DIMJOGGED_JOGANGLE_SYMBOL
 70
     0
  0
APPID
  5
478
330
14
100
AcDbSymbolTableRecord
100
AcDbRegAppTableRecord
  2
ACAD_DSTYLE_DIMARC_LENGTH_SYMBOL
 70
     0
  0
APPID
  5
F55
330
14
100
AcDbSymbolTableRecord
100
AcDbRegAppTableRecord
  2
ACAD_EXEMPT_FROM_CAD_STANDARDS
 70
     0
  0
ENDTAB
  0
TABLE
  2
DIMSTYLE
  5
16
330
0
100
AcDbSymbolTable
 70
     8
100
AcDbDimStyleTable
 71
     1
340
1E
  0
DIMSTYLE
105
1E
102
{ACAD_REACTORS
330
A3A1
330
A3AE
102
}
330
16
100
AcDbSymbolTableRecord
100
AcDbDimStyleTableRecord
  2
STANDARD
 70
     0
340
C
  0
ENDTAB
  0
TABLE
  2
BLOCK_RECORD
  5
1
330
0
100
AcDbSymbolTable
 70
    26
  0
BLOCK_RECORD
  5
2
102
{ACAD_XDICTIONARY
360
D13
102
}
330
1
100
AcDbSymbolTableRecord
100
AcDbBlockTableRecord
  2
*MODEL_SPACE
340
5A
  0
BLOCK_RECORD
  5
7
330
1
100
AcDbSymbolTableRecord
100
AcDbBlockTableRecord
  2
*PAPER_SPACE
340
5B
  0
BLOCK_RECORD
  5
109
330
1
100
AcDbSymbolTableRecord
100
AcDbBlockTableRecord
  2
_Dot
340
0
102
{BLKREFS
331
98B9
331
98BA
331
98CB
331
98CC
331
9A00
331
9A01
331
9A12
331
9A13
331
9AD6
331
9AD7
331
9ADF
331
9AE0
331
9B7B
331
9B7C
331
9B8D
331
9B8E
331
9CEC
331
9CED
331
9CF5
331
9CF6
331
9EA3
331
9EA4
331
9EB5
331
9EB6
331
A096
331
A097
331
A0A8
331
A0A9
331
A14E
331
A14F
331
A1A5
331
A1A6
331
A1B2
331
A1B3
331
A302
331
A303
331
A314
331
A315
331
A3A6
331
A3A7
331
A3B3
331
A3B4
102
}
  0
BLOCK_RECORD
  5
A3A2
330
1
100
AcDbSymbolTableRecord
100
AcDbBlockTableRecord
  2
*D24
340
0
  0
BLOCK_RECORD
  5
A3AF
330
1
100
AcDbSymbolTableRecord
100
AcDbBlockTableRecord
  2
*D25
340
0
  0
ENDTAB
  0
ENDSEC
  0
SECTION
  2
BLOCKS
  0
BLOCK
  5
3
330
2
100
AcDbEntity
  8
0
100
AcDbBlockBegin
  2
*MODEL_SPACE
 70
     0
 10
0.0
 20
0.0
 30
0.0
  3
*MODEL_SPACE
  1

  0
ENDBLK
  5
6
330
2
100
AcDbEntity
  8
0
100
AcDbBlockEnd
  0
BLOCK
  5
8
330
7
100
AcDbEntity
 67
     1
  8
0
100
AcDbBlockBegin
  2
*PAPER_SPACE
 70
     0
 10
0.0
 20
0.0
 30
0.0
  3
*PAPER_SPACE
  1

  0
ENDBLK
  5
9
330
7
100
AcDbEntity
 67
     1
  8
0
100
AcDbBlockEnd
  0
BLOCK
  5
10C
330
109
100
AcDbEntity
  8
0
100
AcDbBlockBegin
  2
_Dot
 70
     0
 10
0.0
 20
0.0
 30
0.0
  3
_Dot
  1

  0
LWPOLYLINE
  5
10A
330
109
100
AcDbEntity
  8
0
  6
ByBlock
 62
     0
100
AcDbPolyline
 90
        2
 70
     1
 43
0.5
 10
-0.25
 20
0.0
 42
1.0
 10
0.25
 20
0.0
 42
1.0
  0
LINE
  5
10B
330
109
100
AcDbEntity
  8
0
  6
ByBlock
 62
     0
370
    -2
100
AcDbLine
 10
-0.5
 20
0.0
 30
0.0
 11
-1.0
 21
0.0
 31
0.0
  0
ENDBLK
  5
10D
330
109
100
AcDbEntity
  8
0
100
AcDbBlockEnd
  0
BLOCK
  5
A3AC
330
A3A2
100
AcDbEntity
  8
0
100
AcDbBlockBegin
  2
*D24
 70
     1
 10
0.0
 20
0.0
 30
0.0
  3
*D24
  1

  0
LINE
  5
A3A3
330
A3A2
100
AcDbEntity
  8
SUNPOU
 62
    70
370
    -2
100
AcDbLine
 10
25.81912587825912
 20
121.8388999774429
 30
0.0
 11
25.81912587825912
 21
145.7360857746672
 31
0.0
  0
LINE
  5
A3A4
330
A3A2
100
AcDbEntity
  8
SUNPOU
 62
    70
370
    -2
100
AcDbLine
 10
95.81912587828822
 20
121.8388999774429
 30
0.0
 11
95.81912587828822
 21
145.7360857746672
 31
0.0
  0
LINE
  5
A3A5
330
A3A2
100
AcDbEntity
  8
SUNPOU
 62
    60
370
    -2
100
AcDbLine
 10
27.81912587825912
 20
145.7360857746672
 30
0.0
 11
93.81912587828821
 21
145.7360857746672
 31
0.0
  0
INSERT
  5
A3A6
330
A3A2
100
AcDbEntity
  8
SUNPOU
 62
    60
370
    -2
100
AcDbBlockReference
  2
_Dot
 10
25.81912587825912
 20
145.7360857746672
 30
0.0
 41
2.0
 42
2.0
 43
2.0
 50
180.0
  0
INSERT
  5
A3A7
330
A3A2
100
AcDbEntity
  8
SUNPOU
 62
    60
370
    -2
100
AcDbBlockReference
  2
_Dot
 10
95.81912587828822
 20
145.7360857746672
 30
0.0
 41
2.0
 42
2.0
 43
2.0
  0
MTEXT
  5
A3A8
330
A3A2
100
AcDbEntity
  8
SUNPOU
 62
    60
100
AcDbMText
 10
60.81912587827367
 20
151.2360857746672
 30
0.0
 40
5.0
 41
0.0
 71
     5
 72
     1
  1
\A1;70
  7
SUNPOU
 73
     1
 44
1.0
1001
ACAD
1000
MTEXTBEGIN
1070
    73
1070
     1
1070
    44
1040
1.0
1070
    74
1070
     0
1000
MTEXTEND
  0
POINT
  5
A3A9
330
A3A2
100
AcDbEntity
  8
DEFPOINTS
 62
     0
100
AcDbPoint
 10
25.81912587825912
 20
111.8388999774429
 30
0.0
  0
POINT
  5
A3AA
330
A3A2
100
AcDbEntity
  8
DEFPOINTS
 62
     0
100
AcDbPoint
 10
95.81912587828822
 20
111.8388999774429
 30
0.0
  0
POINT
  5
A3AB
330
A3A2
100
AcDbEntity
  8
DEFPOINTS
 62
     0
100
AcDbPoint
 10
95.81912587828822
 20
145.7360857746672
 30
0.0
  0
ENDBLK
  5
A3AD
330
A3A2
100
AcDbEntity
  8
0
100
AcDbBlockEnd
  0
BLOCK
  5
A3B9
330
A3AF
100
AcDbEntity
  8
0
100
AcDbBlockBegin
  2
*D25
 70
     1
 10
0.0
 20
0.0
 30
0.0
  3
*D25
  1

  0
LINE
  5
A3B0
330
A3AF
100
AcDbEntity
  8
SUNPOU
 62
    70
370
    -2
100
AcDbLine
 10
15.81912587825912
 20
111.8388999774429
 30
0.0
 11
-4.186161635164115
 21
111.8388999774429
 31
0.0
  0
LINE
  5
A3B1
330
A3AF
100
AcDbEntity
  8
SUNPOU
 62
    70
370
    -2
100
AcDbLine
 10
15.81912587825911
 20
41.83889997744658
 30
0.0
 11
-4.186161635164131
 21
41.83889997744658
 31
0.0
  0
LINE
  5
A3B2
330
A3AF
100
AcDbEntity
  8
SUNPOU
 62
    60
370
    -2
100
AcDbLine
 10
-4.186161635164114
 20
109.8388999774429
 30
0.0
 11
-4.186161635164128
 21
43.83889997744658
 31
0.0
  0
INSERT
  5
A3B3
330
A3AF
100
AcDbEntity
  8
SUNPOU
 62
    60
370
    -2
100
AcDbBlockReference
  2
_Dot
 10
-4.186161635164113
 20
111.8388999774429
 30
0.0
 41
2.0
 42
2.0
 43
2.0
 50
90.0
  0
INSERT
  5
A3B4
330
A3AF
100
AcDbEntity
  8
SUNPOU
 62
    60
370
    -2
100
AcDbBlockReference
  2
_Dot
 10
-4.186161635164129
 20
41.83889997744658
 30
0.0
 41
2.0
 42
2.0
 43
2.0
 50
270.0
  0
MTEXT
  5
A3B5
330
A3AF
100
AcDbEntity
  8
SUNPOU
 62
    60
100
AcDbMText
 10
-9.686161635164133
 20
76.83889997744476
 30
0.0
 40
5.0
 41
0.0
 71
     5
 72
     1
  1
\A1;70
  7
SUNPOU
 11
0.0000000000000001
 21
1.0
 31
0.0
 73
     1
 44
1.0
1001
ACAD
1000
MTEXTBEGIN
1070
    73
1070
     1
1070
    44
1040
1.0
1070
    74
1070
     0
1000
MTEXTEND
  0
POINT
  5
A3B6
330
A3AF
100
AcDbEntity
  8
DEFPOINTS
 62
     0
100
AcDbPoint
 10
25.81912587825912
 20
111.8388999774429
 30
0.0
  0
POINT
  5
A3B7
330
A3AF
100
AcDbEntity
  8
DEFPOINTS
 62
     0
100
AcDbPoint
 10
25.81912587825912
 20
41.83889997744657
 30
0.0
  0
POINT
  5
A3B8
330
A3AF
100
AcDbEntity
  8
DEFPOINTS
 62
     0
100
AcDbPoint
 10
-4.186161635164129
 20
41.83889997744658
 30
0.0
  0
ENDBLK
  5
A3BA
330
A3AF
100
AcDbEntity
  8
0
100
AcDbBlockEnd
  0
ENDSEC
  0
SECTION
  2
ENTITIES
  0
LINE
  5
1F
330
2
100
AcDbEntity
  8
WAKU
100
AcDbLine
 10
0.0
 20
14.0
 30
0.0
 11
133.4211017667494
 21
13.99999999999999
 31
0.0
  0
LINE
  5
20
330
2
100
AcDbEntity
  8
WAKU
100
AcDbLine
 10
0.0
 20
0.0
 30
0.0
 11
133.4211017667494
 21
0.0
 31
0.0
  0
TEXT
  5
21
330
2
100
AcDbEntity
  8
HOJO
100
AcDbText
 10
9.653966000000025
 20
2.366626000000024
 30
0.0
 40
9.0
  1
TR89
  7
SUNPOU
100
AcDbText
  0
TEXT
  5
23
330
2
100
AcDbEntity
  8
HOJO
100
AcDbText
 10
75.8077226877416
 20
5.044386000000031
 30
0.0
 40
6.0
  1
70×70×9
  7
SUNPOU
100
AcDbText
  0
ARC
  5
A390
102
{ACAD_REACTORS
330
A407
102
}
330
2
100
AcDbEntity
  8
KIJUN
 62
     0
100
AcDbCircle
 10
145.8191258781718
 20
76.83889997745021
 30
0.0
 40
71.9999999999278
100
AcDbArc
 50
168.4071835912525
 51
191.5928164087475
  0
ARC
  5
A391
102
{ACAD_REACTORS
330
A407
102
}
330
2
100
AcDbEntity
  8
KIJUN
 62
     0
100
AcDbCircle
 10
60.81912587825911
 20
161.8388999773665
 30
0.0
 40
71.9999999999278
100
AcDbArc
 50
258.407183591909
 51
281.592816408091
  0
ARC
  5
A392
102
{ACAD_REACTORS
330
A407
102
}
330
2
100
AcDbEntity
  8
KIJUN
 62
     0
100
AcDbCircle
 10
60.81912587825911
 20
-8.161100022477029
 30
0.0
 40
71.9999999999278
100
AcDbArc
 50
78.40718359190903
 51
101.5928164080909
  0
ARC
  5
A393
102
{ACAD_REACTORS
330
A407
102
}
330
2
100
AcDbEntity
  8
KIJUN
 62
     0
100
AcDbCircle
 10
-24.18087412165358
 20
76.83889997745021
 30
0.0
 40
71.9999999999278
100
AcDbArc
 50
348.4071835912526
 51
11.59281640874746
  0
ARC
  5
A394
102
{ACAD_REACTORS
330
A407
102
}
330
2
100
AcDbEntity
  8
KIJUN
 62
     0
100
AcDbCircle
 10
145.8191258781718
 20
76.83889997745021
 30
0.0
 40
66.9999999999278
100
AcDbArc
 50
161.2236870233873
 51
198.7763129766126
  0
ARC
  5
A395
102
{ACAD_REACTORS
330
A407
102
}
330
2
100
AcDbEntity
  8
KIJUN
 62
     0
100
AcDbCircle
 10
60.81912587825911
 20
161.8388999773665
 30
0.0
 40
66.9999999999278
100
AcDbArc
 50
251.2236870232233
 51
288.7763129767766
  0
ARC
  5
A396
102
{ACAD_REACTORS
330
A407
102
}
330
2
100
AcDbEntity
  8
KIJUN
 62
     0
100
AcDbCircle
 10
60.81912587825911
 20
-8.161100022477029
 30
0.0
 40
66.9999999999278
100
AcDbArc
 50
71.22368702322335
 51
108.7763129767767
  0
ARC
  5
A397
102
{ACAD_REACTORS
330
A407
102
}
330
2
100
AcDbEntity
  8
KIJUN
 62
     0
100
AcDbCircle
 10
-24.18087412165358
 20
76.83889997745021
 30
0.0
 40
66.9999999999278
100
AcDbArc
 50
341.2236870233873
 51
18.77631297661269
  0
ARC
  5
A398
102
{ACAD_REACTORS
330
A407
102
}
330
2
100
AcDbEntity
  8
KIJUN
 62
     0
100
AcDbCircle
 10
145.8191258781427
 20
76.8388999774593
 30
0.0
 40
62.99999999992779
100
AcDbArc
 50
157.3801350516704
 51
202.6198649483295
  0
ARC
  5
A399
102
{ACAD_REACTORS
330
A407
102
}
330
2
100
AcDbEntity
  8
KIJUN
 62
     0
100
AcDbCircle
 10
145.8191258781427
 20
76.8388999774593
 30
0.0
 40
59.99999999992779
100
AcDbArc
 50
157.3801350516704
 51
202.6198649483295
  0
ARC
  5
A39A
102
{ACAD_REACTORS
330
A407
102
}
330
2
100
AcDbEntity
  8
KIJUN
 62
     0
100
AcDbCircle
 10
60.81912587825911
 20
-8.161100022477029
 30
0.0
 40
59.99999999992779
100
AcDbArc
 50
67.38013505147076
 51
112.6198649485292
  0
ARC
  5
A39B
102
{ACAD_REACTORS
330
A407
102
}
330
2
100
AcDbEntity
  8
KIJUN
 62
     0
100
AcDbCircle
 10
60.81912587825911
 20
-8.161100022477029
 30
0.0
 40
62.99999999992779
100
AcDbArc
 50
67.38013505147076
 51
112.6198649485292
  0
ARC
  5
A39C
102
{ACAD_REACTORS
330
A407
102
}
330
2
100
AcDbEntity
  8
KIJUN
 62
     0
100
AcDbCircle
 10
-24.18087412162447
 20
76.8388999774593
 30
0.0
 40
59.99999999992779
100
AcDbArc
 50
337.3801350516704
 51
22.61986494832953
  0
ARC
  5
A39D
102
{ACAD_REACTORS
330
A407
102
}
330
2
100
AcDbEntity
  8
KIJUN
 62
     0
100
AcDbCircle
 10
-24.18087412162447
 20
76.8388999774593
 30
0.0
 40
62.99999999992779
100
AcDbArc
 50
337.3801350516704
 51
22.61986494832953
  0
CIRCLE
  5
A39E
102
{ACAD_REACTORS
330
A407
102
}
330
2
100
AcDbEntity
  8
KIJUN
 62
     0
100
AcDbCircle
 10
60.81912587825911
 20
76.83889997744476
 30
0.0
 40
8.5
  0
ARC
  5
A39F
102
{ACAD_REACTORS
330
A407
102
}
330
2
100
AcDbEntity
  8
KIJUN
 62
     0
100
AcDbCircle
 10
60.81912587825911
 20
161.8388999773665
 30
0.0
 40
62.99999999992779
100
AcDbArc
 50
247.3801350514708
 51
292.6198649485293
  0
ARC
  5
A3A0
102
{ACAD_REACTORS
330
A407
102
}
330
2
100
AcDbEntity
  8
KIJUN
 62
     0
100
AcDbCircle
 10
60.81912587825911
 20
161.8388999773665
 30
0.0
 40
59.99999999992779
100
AcDbArc
 50
247.3801350514708
 51
292.6198649485293
  0
DIMENSION
  5
A3A1
330
2
100
AcDbEntity
  8
SUNPOU
100
AcDbDimension
  2
*D24
 10
95.81912587828822
 20
145.7360857746672
 30
0.0
 11
60.81912587827367
 21
151.2360857746672
 31
0.0
 70
    32
 71
     5
 42
70.0000000000291
  3
STANDARD
100
AcDbAlignedDimension
 13
25.81912587825912
 23
111.8388999774429
 33
0.0
 14
95.81912587828822
 24
111.8388999774429
 34
0.0
100
AcDbRotatedDimension
1001
ACAD
1000
DSTYLE
1002
{
1070
    41
1040
2.0
1070
    42
1040
10.0
1070
    44
1040
0.0
1070
    73
1070
     0
1070
    74
1070
     0
1070
    77
1070
     1
1070
   140
1040
5.0
1070
   141
1040
0.0
1070
   146
1040
0.064286
1070
   147
1040
3.0
1070
   176
1070
    60
1070
   177
1070
    70
1070
   178
1070
    60
1070
   271
1070
     0
1070
   272
1070
     0
1070
   340
1005
1C
1070
   342
1005
109
1002
}
  0
DIMENSION
  5
A3AE
330
2
100
AcDbEntity
  8
SUNPOU
100
AcDbDimension
  2
*D25
 10
-4.186161635164129
 20
41.83889997744658
 30
0.0
 11
-9.686161635164133
 21
76.83889997744476
 31
0.0
 70
    32
 71
     5
 42
69.99999999999636
  3
STANDARD
100
AcDbAlignedDimension
 13
25.81912587825912
 23
111.8388999774429
 33
0.0
 14
25.81912587825912
 24
41.83889997744657
 34
0.0
 50
90.0
100
AcDbRotatedDimension
1001
ACAD
1000
DSTYLE
1002
{
1070
    41
1040
2.0
1070
    42
1040
10.0
1070
    44
1040
0.0
1070
    73
1070
     0
1070
    74
1070
     0
1070
    77
1070
     1
1070
   140
1040
5.0
1070
   141
1040
0.0
1070
   146
1040
0.064286
1070
   147
1040
3.0
1070
   176
1070
    60
1070
   177
1070
    70
1070
   178
1070
    60
1070
   271
1070
     0
1070
   272
1070
     0
1070
   340
1005
1C
1070
   342
1005
109
1002
}
  0
ARC
  5
A3BB
102
{ACAD_REACTORS
330
A407
102
}
330
2
100
AcDbEntity
  8
KIJUN
100
AcDbCircle
 10
37.59598376671176
 20
112.6457478407178
 30
0.0
 40
11.80446462993039
100
AcDbArc
 50
183.9192839803617
 51
223.5719867619255
  0
ARC
  5
A3BC
102
{ACAD_REACTORS
330
A407
102
}
330
2
100
AcDbEntity
  8
KIJUN
100
AcDbCircle
 10
48.92136797266072
 20
127.7444242940019
 30
0.0
 40
30.57772228387204
100
AcDbArc
 50
229.4527145602939
 51
240.7339533185635
  0
ARC
  5
A3BD
102
{ACAD_REACTORS
330
A407
102
}
330
2
100
AcDbEntity
  8
KIJUN
100
AcDbCircle
 10
29.54461574527357
 20
104.5112237076581
 30
0.0
 40
2.657724018119948
100
AcDbArc
 50
136.5064215455827
 51
222.144323125087
  0
ARC
  5
A3BE
102
{ACAD_REACTORS
330
A407
102
}
330
2
100
AcDbEntity
  8
KIJUN
100
AcDbCircle
 10
41.22338213221544
 20
116.5973957659717
 30
0.0
 40
19.45939544989896
100
AcDbArc
 50
225.4583577529139
 51
239.0092352645123
  0
ARC
  5
A3C0
102
{ACAD_REACTORS
330
A407
102
}
330
2
100
AcDbEntity
  8
KIJUN
100
AcDbCircle
 10
9.913601561701881
 20
88.73665788304316
 30
0.0
 40
30.57772228387204
100
AcDbArc
 50
29.26604668143632
 51
40.54728543970575
  0
ARC
  5
A3C1
102
{ACAD_REACTORS
330
A407
102
}
330
2
100
AcDbEntity
  8
KIJUN
100
AcDbCircle
 10
33.1468021480457
 20
108.1134101104303
 30
0.0
 40
2.657724018119948
100
AcDbArc
 50
47.855676874913
 51
133.493578454418
  0
ARC
  5
A3C2
102
{ACAD_REACTORS
330
A407
102
}
330
2
100
AcDbEntity
  8
KIJUN
100
AcDbCircle
 10
21.06063008973214
 20
96.43464372348844
 30
0.0
 40
19.45939544989896
100
AcDbArc
 50
30.99076473548672
 51
44.54164224708573
  0
ARC
  5
A3C3
102
{ACAD_REACTORS
330
A407
102
}
330
2
100
AcDbEntity
  8
KIJUN
100
AcDbCircle
 10
59.20445313413721
 20
107.2560553941652
 30
0.0
 40
5.09306234795935
100
AcDbArc
 50
135.742002951863
 51
252.3423461570542
  0
ARC
  5
A3C4
102
{ACAD_REACTORS
330
A407
102
}
330
2
100
AcDbEntity
  8
KIJUN
100
AcDbCircle
 10
53.05757936255083
 20
107.7291303836526
 30
0.0
 40
3.96743722647942
100
AcDbArc
 50
50.95519699724754
 51
159.6019639998787
  0
ARC
  5
A3C5
102
{ACAD_REACTORS
330
A407
102
}
330
2
100
AcDbEntity
  8
KIJUN
100
AcDbCircle
 10
54.29072991964047
 20
107.3840745214584
 30
0.0
 40
5.244606579946988
100
AcDbArc
 50
160.7642512690963
 51
252.0789917023757
  0
ARC
  5
A3C6
102
{ACAD_REACTORS
330
A407
102
}
330
2
100
AcDbEntity
  8
KIJUN
100
AcDbCircle
 10
30.40197046153867
 20
78.45357272156665
 30
0.0
 40
5.09306234795935
100
AcDbArc
 50
17.65765384294522
 51
134.2579970481365
  0
ARC
  5
A3C7
102
{ACAD_REACTORS
330
A407
102
}
330
2
100
AcDbEntity
  8
KIJUN
100
AcDbCircle
 10
29.92889547205121
 20
84.60044649315301
 30
0.0
 40
3.96743722647942
100
AcDbArc
 50
110.3980360001213
 51
219.0448030027525
  0
ARC
  5
A3C8
102
{ACAD_REACTORS
330
A407
102
}
330
2
100
AcDbEntity
  8
KIJUN
100
AcDbCircle
 10
30.27395133424545
 20
83.36729593606339
 30
0.0
 40
5.244606579946988
100
AcDbArc
 50
17.9210082976246
 51
109.2357487309043
  0
ARC
  5
A3C9
102
{ACAD_REACTORS
330
A407
102
}
330
2
100
AcDbEntity
  8
KIJUN
100
AcDbCircle
 10
25.01227801498607
 20
100.0620420889921
 30
0.0
 40
11.80446462993039
100
AcDbArc
 50
46.42801323807464
 51
86.08071601963883
  0
ARC
  5
A3DC
102
{ACAD_REACTORS
330
A407
102
}
330
2
100
AcDbEntity
  8
KIJUN
100
AcDbCircle
 10
37.59598376671176
 20
41.03205211417175
 30
0.0
 40
11.80446462993039
100
AcDbArc
 50
136.4280132380741
 51
176.0807160196388
  0
ARC
  5
A3DD
102
{ACAD_REACTORS
330
A407
102
}
330
2
100
AcDbEntity
  8
KIJUN
100
AcDbCircle
 10
48.92136797266072
 20
25.93337566088758
 30
0.0
 40
30.57772228387204
100
AcDbArc
 50
119.2660466814363
 51
130.5472854397067
  0
ARC
  5
A3DE
102
{ACAD_REACTORS
330
A407
102
}
330
2
100
AcDbEntity
  8
KIJUN
100
AcDbCircle
 10
29.54461574527357
 20
49.16657624723137
 30
0.0
 40
2.657724018119948
100
AcDbArc
 50
137.8556768749135
 51
223.4935784544167
  0
ARC
  5
A3DF
102
{ACAD_REACTORS
330
A407
102
}
330
2
100
AcDbEntity
  8
KIJUN
100
AcDbCircle
 10
41.22338213221544
 20
37.08040418891783
 30
0.0
 40
19.45939544989896
100
AcDbArc
 50
120.9907647354873
 51
134.5416422470858
  0
ARC
  5
A3E0
102
{ACAD_REACTORS
330
A407
102
}
330
2
100
AcDbEntity
  8
KIJUN
100
AcDbCircle
 10
9.913601561701881
 20
64.94114207184636
 30
0.0
 40
30.57772228387204
100
AcDbArc
 50
319.4527145602939
 51
330.7339533185635
  0
ARC
  5
A3E1
102
{ACAD_REACTORS
330
A407
102
}
330
2
100
AcDbEntity
  8
KIJUN
100
AcDbCircle
 10
33.1468021480457
 20
45.56438984445922
 30
0.0
 40
2.657724018119948
100
AcDbArc
 50
226.506421545582
 51
312.1443231250875
  0
ARC
  5
A3E2
102
{ACAD_REACTORS
330
A407
102
}
330
2
100
AcDbEntity
  8
KIJUN
100
AcDbCircle
 10
21.06063008973214
 20
57.2431562314011
 30
0.0
 40
19.45939544989896
100
AcDbArc
 50
315.4583577529141
 51
329.0092352645132
  0
ARC
  5
A3E3
102
{ACAD_REACTORS
330
A407
102
}
330
2
100
AcDbEntity
  8
KIJUN
100
AcDbCircle
 10
59.20445313413721
 20
46.42174456072436
 30
0.0
 40
5.09306234795935
100
AcDbArc
 50
107.6576538429456
 51
224.2579970481365
  0
ARC
  5
A3E4
102
{ACAD_REACTORS
330
A407
102
}
330
2
100
AcDbEntity
  8
KIJUN
100
AcDbCircle
 10
53.05757936255083
 20
45.94866957123691
 30
0.0
 40
3.96743722647942
100
AcDbArc
 50
200.3980360001215
 51
309.0448030027525
  0
ARC
  5
A3E5
102
{ACAD_REACTORS
330
A407
102
}
330
2
100
AcDbEntity
  8
KIJUN
100
AcDbCircle
 10
54.29072991964047
 20
46.29372543343115
 30
0.0
 40
5.244606579946988
100
AcDbArc
 50
107.9210082976244
 51
199.2357487309041
  0
ARC
  5
A3E6
102
{ACAD_REACTORS
330
A407
102
}
330
2
100
AcDbEntity
  8
KIJUN
100
AcDbCircle
 10
30.40197046153867
 20
75.22422723332288
 30
0.0
 40
5.09306234795935
100
AcDbArc
 50
225.7420029518633
 51
342.3423461570547
  0
ARC
  5
A3E7
102
{ACAD_REACTORS
330
A407
102
}
330
2
100
AcDbEntity
  8
KIJUN
100
AcDbCircle
 10
29.92889547205121
 20
69.07735346173651
 30
0.0
 40
3.96743722647942
100
AcDbArc
 50
140.9551969972475
 51
249.6019639998789
  0
ARC
  5
A3E8
102
{ACAD_REACTORS
330
A407
102
}
330
2
100
AcDbEntity
  8
KIJUN
100
AcDbCircle
 10
30.27395133424545
 20
70.31050401882613
 30
0.0
 40
5.244606579946988
100
AcDbArc
 50
250.7642512690956
 51
342.0789917023756
  0
ARC
  5
A3E9
102
{ACAD_REACTORS
330
A407
102
}
330
2
100
AcDbEntity
  8
KIJUN
100
AcDbCircle
 10
25.01227801498607
 20
53.61575786589745
 30
0.0
 40
11.80446462993039
100
AcDbArc
 50
273.9192839803612
 51
313.5719867619249
  0
ARC
  5
A3EB
102
{ACAD_REACTORS
330
A407
102
}
330
2
100
AcDbEntity
  8
KIJUN
100
AcDbCircle
 10
84.04226798980648
 20
112.6457478407178
 30
0.0
 40
11.80446462993039
100
AcDbArc
 50
316.4280132380745
 51
356.0807160196382
  0
ARC
  5
A3EC
102
{ACAD_REACTORS
330
A407
102
}
330
2
100
AcDbEntity
  8
KIJUN
100
AcDbCircle
 10
72.71688378385751
 20
127.7444242940019
 30
0.0
 40
30.57772228387204
100
AcDbArc
 50
299.2660466814365
 51
310.5472854397063
  0
ARC
  5
A3ED
102
{ACAD_REACTORS
330
A407
102
}
330
2
100
AcDbEntity
  8
KIJUN
100
AcDbCircle
 10
92.09363601124465
 20
104.5112237076581
 30
0.0
 40
2.657724018119948
100
AcDbArc
 50
317.855676874913
 51
43.49357845441709
  0
ARC
  5
A3EE
102
{ACAD_REACTORS
330
A407
102
}
330
2
100
AcDbEntity
  8
KIJUN
100
AcDbCircle
 10
80.41486962430278
 20
116.5973957659717
 30
0.0
 40
19.45939544989896
100
AcDbArc
 50
300.9907647354877
 51
314.541642247086
  0
ARC
  5
A3EF
102
{ACAD_REACTORS
330
A407
102
}
330
2
100
AcDbEntity
  8
KIJUN
100
AcDbCircle
 10
111.7246501948163
 20
88.73665788304316
 30
0.0
 40
30.57772228387204
100
AcDbArc
 50
139.4527145602941
 51
150.7339533185638
  0
ARC
  5
A3F0
102
{ACAD_REACTORS
330
A407
102
}
330
2
100
AcDbEntity
  8
KIJUN
100
AcDbCircle
 10
88.49144960847253
 20
108.1134101104303
 30
0.0
 40
2.657724018119948
100
AcDbArc
 50
46.50642154558176
 51
132.1443231250871
  0
ARC
  5
A3F1
102
{ACAD_REACTORS
330
A407
102
}
330
2
100
AcDbEntity
  8
KIJUN
100
AcDbCircle
 10
100.5776216667861
 20
96.43464372348844
 30
0.0
 40
19.45939544989896
100
AcDbArc
 50
135.4583577529144
 51
149.0092352645133
  0
ARC
  5
A3F2
102
{ACAD_REACTORS
330
A407
102
}
330
2
100
AcDbEntity
  8
KIJUN
100
AcDbCircle
 10
62.43379862238102
 20
107.2560553941652
 30
0.0
 40
5.09306234795935
100
AcDbArc
 50
287.6576538429461
 51
44.25799704813694
  0
ARC
  5
A3F3
102
{ACAD_REACTORS
330
A407
102
}
330
2
100
AcDbEntity
  8
KIJUN
100
AcDbCircle
 10
68.58067239396739
 20
107.7291303836526
 30
0.0
 40
3.96743722647942
100
AcDbArc
 50
20.39803600012137
 51
129.0448030027524
  0
ARC
  5
A3F4
102
{ACAD_REACTORS
330
A407
102
}
330
2
100
AcDbEntity
  8
KIJUN
100
AcDbCircle
 10
67.34752183687776
 20
107.3840745214584
 30
0.0
 40
5.244606579946988
100
AcDbArc
 50
287.9210082976245
 51
19.23574873090363
  0
ARC
  5
A3F5
102
{ACAD_REACTORS
330
A407
102
}
330
2
100
AcDbEntity
  8
KIJUN
100
AcDbCircle
 10
91.23628129497957
 20
78.45357272156665
 30
0.0
 40
5.09306234795935
100
AcDbArc
 50
45.74200295186364
 51
162.3423461570548
  0
ARC
  5
A3F6
102
{ACAD_REACTORS
330
A407
102
}
330
2
100
AcDbEntity
  8
KIJUN
100
AcDbCircle
 10
91.70935628446702
 20
84.60044649315301
 30
0.0
 40
3.96743722647942
100
AcDbArc
 50
320.9551969972474
 51
69.6019639998785
  0
ARC
  5
A3F7
102
{ACAD_REACTORS
330
A407
102
}
330
2
100
AcDbEntity
  8
KIJUN
100
AcDbCircle
 10
91.36430042227278
 20
83.36729593606339
 30
0.0
 40
5.244606579946988
100
AcDbArc
 50
70.7642512690958
 51
162.0789917023754
  0
ARC
  5
A3F8
102
{ACAD_REACTORS
330
A407
102
}
330
2
100
AcDbEntity
  8
KIJUN
100
AcDbCircle
 10
96.62597374153216
 20
100.0620420889921
 30
0.0
 40
11.80446462993039
100
AcDbArc
 50
93.91928398036114
 51
133.5719867619252
  0
ARC
  5
A3F9
102
{ACAD_REACTORS
330
A407
102
}
330
2
100
AcDbEntity
  8
KIJUN
100
AcDbCircle
 10
84.04226798980648
 20
41.03205211417175
 30
0.0
 40
11.80446462993039
100
AcDbArc
 50
3.919283980361171
 51
43.57198676192572
  0
ARC
  5
A3FA
102
{ACAD_REACTORS
330
A407
102
}
330
2
100
AcDbEntity
  8
KIJUN
100
AcDbCircle
 10
72.71688378385751
 20
25.93337566088758
 30
0.0
 40
30.57772228387204
100
AcDbArc
 50
49.45271456029349
 51
60.73395331856353
  0
ARC
  5
A3FB
102
{ACAD_REACTORS
330
A407
102
}
330
2
100
AcDbEntity
  8
KIJUN
100
AcDbCircle
 10
92.09363601124465
 20
49.16657624723137
 30
0.0
 40
2.657724018119948
100
AcDbArc
 50
316.5064215455832
 51
42.14432312508669
  0
ARC
  5
A3FC
102
{ACAD_REACTORS
330
A407
102
}
330
2
100
AcDbEntity
  8
KIJUN
100
AcDbCircle
 10
80.41486962430278
 20
37.08040418891783
 30
0.0
 40
19.45939544989896
100
AcDbArc
 50
45.45835775291412
 51
59.00923526451236
  0
ARC
  5
A3FD
102
{ACAD_REACTORS
330
A407
102
}
330
2
100
AcDbEntity
  8
KIJUN
100
AcDbCircle
 10
111.7246501948163
 20
64.94114207184636
 30
0.0
 40
30.57772228387204
100
AcDbArc
 50
209.2660466814367
 51
220.5472854397061
  0
ARC
  5
A3FE
102
{ACAD_REACTORS
330
A407
102
}
330
2
100
AcDbEntity
  8
KIJUN
100
AcDbCircle
 10
88.49144960847253
 20
45.56438984445922
 30
0.0
 40
2.657724018119948
100
AcDbArc
 50
227.8556768749127
 51
313.4935784544182
  0
ARC
  5
A3FF
102
{ACAD_REACTORS
330
A407
102
}
330
2
100
AcDbEntity
  8
KIJUN
100
AcDbCircle
 10
100.5776216667861
 20
57.2431562314011
 30
0.0
 40
19.45939544989896
100
AcDbArc
 50
210.9907647354867
 51
224.5416422470857
  0
ARC
  5
A400
102
{ACAD_REACTORS
330
A407
102
}
330
2
100
AcDbEntity
  8
KIJUN
100
AcDbCircle
 10
62.43379862238102
 20
46.42174456072436
 30
0.0
 40
5.09306234795935
100
AcDbArc
 50
315.7420029518632
 51
72.34234615705467
  0
ARC
  5
A401
102
{ACAD_REACTORS
330
A407
102
}
330
2
100
AcDbEntity
  8
KIJUN
100
AcDbCircle
 10
68.58067239396739
 20
45.94866957123691
 30
0.0
 40
3.96743722647942
100
AcDbArc
 50
230.9551969972475
 51
339.6019639998785
  0
ARC
  5
A402
102
{ACAD_REACTORS
330
A407
102
}
330
2
100
AcDbEntity
  8
KIJUN
100
AcDbCircle
 10
67.34752183687776
 20
46.29372543343115
 30
0.0
 40
5.244606579946988
100
AcDbArc
 50
340.764251269096
 51
72.07899170237556
  0
ARC
  5
A403
102
{ACAD_REACTORS
330
A407
102
}
330
2
100
AcDbEntity
  8
KIJUN
100
AcDbCircle
 10
91.23628129497957
 20
75.22422723332288
 30
0.0
 40
5.09306234795935
100
AcDbArc
 50
197.6576538429452
 51
314.257997048137
  0
ARC
  5
A404
102
{ACAD_REACTORS
330
A407
102
}
330
2
100
AcDbEntity
  8
KIJUN
100
AcDbCircle
 10
91.70935628446702
 20
69.07735346173651
 30
0.0
 40
3.96743722647942
100
AcDbArc
 50
290.3980360001207
 51
39.04480300275255
  0
ARC
  5
A405
102
{ACAD_REACTORS
330
A407
102
}
330
2
100
AcDbEntity
  8
KIJUN
100
AcDbCircle
 10
91.36430042227278
 20
70.31050401882613
 30
0.0
 40
5.244606579946988
100
AcDbArc
 50
197.9210082976243
 51
289.2357487309042
  0
ARC
  5
A406
102
{ACAD_REACTORS
330
A407
102
}
330
2
100
AcDbEntity
  8
KIJUN
100
AcDbCircle
 10
96.62597374153216
 20
53.61575786589745
 30
0.0
 40
11.80446462993039
100
AcDbArc
 50
226.428013238075
 51
266.0807160196388
  0
ENDSEC
  0
SECTION
  2
OBJECTS
  0
DICTIONARY
  5
1A
330
0
100
AcDbDictionary
281
     1
  3
ACAD_COLOR
350
144
  3
ACAD_GROUP
350
18
  3
ACAD_LAYOUT
350
58
  3
ACAD_MATERIAL
350
143
  3
ACAD_MLINESTYLE
350
19
  3
ACAD_PLOTSETTINGS
350
59
  3
ACAD_PLOTSTYLENAME
350
56
  3
ACAD_TABLESTYLE
350
145
  3
ACDBHEADERROUNDTRIPXREC
350
A419
  3
AcDbVariableDictionary
350
1D1
  0
DICTIONARY
  5
1B4
330
A
100
AcDbDictionary
280
     1
281
     1
  3
ACAD_LAYERFILTERS
360
7795
  3
ACLYDICTIONARY
360
7794
  0
DICTIONARY
  5
D13
330
2
100
AcDbDictionary
280
     1
281
     1
  3
ACAD_SORTENTS
360
D14
  0
DICTIONARY
  5
144
102
{ACAD_REACTORS
330
1A
102
}
330
1A
100
AcDbDictionary
281
     1
  0
DICTIONARY
  5
18
102
{ACAD_REACTORS
330
1A
102
}
330
1A
100
AcDbDictionary
281
     1
  3
*A1
350
E0D
  3
*A10
350
A0DC
  3
*A100
350
46A5
  3
*A101
350
4B49
  3
*A102
350
2A17
  3
*A103
350
4E16
  3
*A104
350
8919
  3
*A105
350
8BB8
  3
*A106
350
8F11
  3
*A107
350
8F12
  3
*A108
350
9092
  3
*A109
350
9163
  3
*A11
350
A10F
  3
*A110
350
9432
  3
*A111
350
964B
  3
*A12
350
A154
  3
*A13
350
52B0
  3
*A14
350
A1CC
  3
*A15
350
A2F5
  3
*A16
350
A407
  3
*A17
350
36C9
  3
*A18
350
4C3E
  3
*A19
350
5396
  3
*A2
350
519C
  3
*A20
350
265A
  3
*A21
350
275E
  3
*A22
350
48BA
  3
*A23
350
5464
  3
*A24
350
556A
  3
*A25
350
4EE5
  3
*A26
350
213E
  3
*A27
350
57BF
  3
*A28
350
31DF
  3
*A29
350
3349
  3
*A3
350
98D2
  3
*A30
350
4CEC
  3
*A31
350
58EE
  3
*A32
350
382B
  3
*A33
350
1EFE
  3
*A34
350
2573
  3
*A35
350
422E
  3
*A36
350
97D7
  3
*A37
350
4516
  3
*A38
350
3878
  3
*A39
350
5D92
  3
*A4
350
99FC
  3
*A40
350
2905
  3
*A41
350
3E5C
  3
*A42
350
1555
  3
*A43
350
17BC
  3
*A44
350
3181
  3
*A45
350
2B84
  3
*A46
350
24D6
  3
*A47
350
4F64
  3
*A48
350
5F6F
  3
*A49
350
4A53
  3
*A5
350
9AE5
  3
*A50
350
626B
  3
*A51
350
6417
  3
*A52
350
307D
  3
*A53
350
668C
  3
*A54
350
4D76
  3
*A55
350
241A
  3
*A56
350
68C5
  3
*A57
350
34BB
  3
*A58
350
4781
  3
*A59
350
6A30
  3
*A6
350
9B93
  3
*A60
350
2EE1
  3
*A61
350
6A98
  3
*A62
350
1A98
  3
*A63
350
6C32
  3
*A64
350
2037
  3
*A65
350
6D00
  3
*A66
350
3988
  3
*A67
350
6DE3
  3
*A68
350
FF8
  3
*A69
350
5011
  3
*A7
350
9CE8
  3
*A70
350
6EB7
  3
*A71
350
706D
  3
*A72
350
45E5
  3
*A73
350
7170
  3
*A74
350
35A5
  3
*A75
350
3695
  3
*A76
350
401B
  3
*A77
350
1CBC
  3
*A78
350
3C81
  3
*A79
350
7453
  3
*A8
350
9E96
  3
*A80
350
2C6B
  3
*A81
350
76E3
  3
*A82
350
3A25
  3
*A83
350
7793
  3
*A84
350
2D78
  3
*A85
350
7ADA
  3
*A86
350
26DD
  3
*A87
350
7D2B
  3
*A88
350
32E4
  3
*A89
350
2F81
  3
*A9
350
A089
  3
*A90
350
4407
  3
*A91
350
22C8
  3
*A92
350
7E5C
  3
*A93
350
8108
  3
*A94
350
8393
  3
*A95
350
84B0
  3
*A96
350
8635
  3
*A97
350
3467
  3
*A98
350
87B5
  3
*A99
350
136A
  0
DICTIONARY
  5
58
102
{ACAD_REACTORS
330
1A
102
}
330
1A
100
AcDbDictionary
281
     1
  3
Model
350
5A
  3
ﾚｲｱｳﾄ1
350
5B
  0
DICTIONARY
  5
143
102
{ACAD_REACTORS
330
1A
102
}
330
1A
100
AcDbDictionary
281
     1
  0
DICTIONARY
  5
19
102
{ACAD_REACTORS
330
1A
102
}
330
1A
100
AcDbDictionary
281
     1
  3
STANDARD
350
1D
  0
DICTIONARY
  5
59
102
{ACAD_REACTORS
330
1A
102
}
330
1A
100
AcDbDictionary
281
     1
  0
ACDBDICTIONARYWDFLT
  5
56
102
{ACAD_REACTORS
330
1A
102
}
330
1A
100
AcDbDictionary
281
     1
  3
Normal
350
57
100
AcDbDictionaryWithDefault
340
57
  0
DICTIONARY
  5
145
102
{ACAD_REACTORS
330
1A
102
}
330
1A
100
AcDbDictionary
281
     1
  3
Standard
350
146
  0
DICTIONARY
  5
A419
102
{ACAD_REACTORS
330
1A
102
}
330
1A
100
AcDbDictionary
281
     1
  0
DICTIONARY
  5
1D1
102
{ACAD_REACTORS
330
1A
102
}
330
1A
100
AcDbDictionary
281
     1
  3
CTABLESTYLE
350
1D2
  3
DIMASSOC
350
D03
  3
PROJECTNAME
350
D04
  0
DICTIONARY
  5
7795
102
{ACAD_REACTORS
330
1B4
102
}
330
1B4
100
AcDbDictionary
281
     1
  0
DICTIONARY
  5
7794
102
{ACAD_REACTORS
330
1B4
102
}
330
1B4
100
AcDbDictionary
281
     1
1001
ACAD
1000
<All
  0
SORTENTSTABLE
  5
D14
102
{ACAD_REACTORS
330
D13
102
}
330
D13
100
AcDbSortentsTable
330
2
331
20
  5
20
331
21
  5
21
331
23
  5
23
331
1F
  5
1F
  0
GROUP
  5
E0D
102
{ACAD_REACTORS
330
18
102
}
330
18
100
AcDbGroup
300

 70
     1
 71
     1
  0
GROUP
  5
A0DC
102
{ACAD_REACTORS
330
18
102
}
330
18
100
AcDbGroup
300

 70
     1
 71
     1
  0
GROUP
  5
46A5
102
{ACAD_REACTORS
330
18
102
}
330
18
100
AcDbGroup
300

 70
     1
 71
     1
  0
GROUP
  5
4B49
102
{ACAD_REACTORS
330
18
102
}
330
18
100
AcDbGroup
300

 70
     1
 71
     1
  0
GROUP
  5
2A17
102
{ACAD_REACTORS
330
18
102
}
330
18
100
AcDbGroup
300

 70
     1
 71
     1
  0
GROUP
  5
4E16
102
{ACAD_REACTORS
330
18
102
}
330
18
100
AcDbGroup
300

 70
     1
 71
     1
  0
GROUP
  5
8919
102
{ACAD_REACTORS
330
18
102
}
330
18
100
AcDbGroup
300

 70
     1
 71
     1
  0
GROUP
  5
8BB8
102
{ACAD_REACTORS
330
18
102
}
330
18
100
AcDbGroup
300

 70
     1
 71
     1
  0
GROUP
  5
8F11
102
{ACAD_REACTORS
330
18
102
}
330
18
100
AcDbGroup
300

 70
     1
 71
     1
  0
GROUP
  5
8F12
102
{ACAD_REACTORS
330
18
102
}
330
18
100
AcDbGroup
300

 70
     1
 71
     1
  0
GROUP
  5
9092
102
{ACAD_REACTORS
330
18
102
}
330
18
100
AcDbGroup
300

 70
     1
 71
     1
  0
GROUP
  5
9163
102
{ACAD_REACTORS
330
18
102
}
330
18
100
AcDbGroup
300

 70
     1
 71
     1
  0
GROUP
  5
A10F
102
{ACAD_REACTORS
330
18
102
}
330
18
100
AcDbGroup
300

 70
     1
 71
     1
  0
GROUP
  5
9432
102
{ACAD_REACTORS
330
18
102
}
330
18
100
AcDbGroup
300

 70
     1
 71
     1
  0
GROUP
  5
964B
102
{ACAD_REACTORS
330
18
102
}
330
18
100
AcDbGroup
300

 70
     1
 71
     1
  0
GROUP
  5
A154
102
{ACAD_REACTORS
330
18
102
}
330
18
100
AcDbGroup
300

 70
     1
 71
     1
  0
GROUP
  5
52B0
102
{ACAD_REACTORS
330
18
102
}
330
18
100
AcDbGroup
300

 70
     1
 71
     1
  0
GROUP
  5
A1CC
102
{ACAD_REACTORS
330
18
102
}
330
18
100
AcDbGroup
300

 70
     1
 71
     1
  0
GROUP
  5
A2F5
102
{ACAD_REACTORS
330
18
102
}
330
18
100
AcDbGroup
300

 70
     1
 71
     1
  0
GROUP
  5
A407
102
{ACAD_REACTORS
330
18
102
}
330
18
100
AcDbGroup
300

 70
     1
 71
     1
340
A406
340
A405
340
A404
340
A403
340
A402
340
A401
340
A400
340
A3FF
340
A3FE
340
A3FD
340
A3FC
340
A3FB
340
A3FA
340
A3F9
340
A3F8
340
A3F7
340
A3F6
340
A3F5
340
A3F4
340
A3F3
340
A3F2
340
A3F1
340
A3F0
340
A3EF
340
A3EE
340
A3ED
340
A3EC
340
A3EB
340
A3E9
340
A3E8
340
A3E7
340
A3E6
340
A3E5
340
A3E4
340
A3E3
340
A3E2
340
A3E1
340
A3E0
340
A3DF
340
A3DE
340
A3DD
340
A3DC
340
A3C9
340
A3C8
340
A3C7
340
A3C6
340
A3C5
340
A3C4
340
A3C3
340
A3C2
340
A3C1
340
A3C0
340
A3BE
340
A3BD
340
A3BC
340
A3BB
340
A3A0
340
A39F
340
A39E
340
A39D
340
A39C
340
A39B
340
A39A
340
A399
340
A398
340
A397
340
A396
340
A395
340
A394
340
A393
340
A392
340
A391
340
A390
  0
GROUP
  5
36C9
102
{ACAD_REACTORS
330
18
102
}
330
18
100
AcDbGroup
300

 70
     1
 71
     1
  0
GROUP
  5
4C3E
102
{ACAD_REACTORS
330
18
102
}
330
18
100
AcDbGroup
300

 70
     1
 71
     1
  0
GROUP
  5
5396
102
{ACAD_REACTORS
330
18
102
}
330
18
100
AcDbGroup
300

 70
     1
 71
     1
  0
GROUP
  5
519C
102
{ACAD_REACTORS
330
18
102
}
330
18
100
AcDbGroup
300

 70
     1
 71
     1
  0
GROUP
  5
265A
102
{ACAD_REACTORS
330
18
102
}
330
18
100
AcDbGroup
300

 70
     1
 71
     1
  0
GROUP
  5
275E
102
{ACAD_REACTORS
330
18
102
}
330
18
100
AcDbGroup
300

 70
     1
 71
     1
  0
GROUP
  5
48BA
102
{ACAD_REACTORS
330
18
102
}
330
18
100
AcDbGroup
300

 70
     1
 71
     1
  0
GROUP
  5
5464
102
{ACAD_REACTORS
330
18
102
}
330
18
100
AcDbGroup
300

 70
     1
 71
     1
  0
GROUP
  5
556A
102
{ACAD_REACTORS
330
18
102
}
330
18
100
AcDbGroup
300

 70
     1
 71
     1
  0
GROUP
  5
4EE5
102
{ACAD_REACTORS
330
18
102
}
330
18
100
AcDbGroup
300

 70
     1
 71
     1
  0
GROUP
  5
213E
102
{ACAD_REACTORS
330
18
102
}
330
18
100
AcDbGroup
300

 70
     1
 71
     1
  0
GROUP
  5
57BF
102
{ACAD_REACTORS
330
18
102
}
330
18
100
AcDbGroup
300

 70
     1
 71
     1
  0
GROUP
  5
31DF
102
{ACAD_REACTORS
330
18
102
}
330
18
100
AcDbGroup
300

 70
     1
 71
     1
  0
GROUP
  5
3349
102
{ACAD_REACTORS
330
18
102
}
330
18
100
AcDbGroup
300

 70
     1
 71
     1
  0
GROUP
  5
98D2
102
{ACAD_REACTORS
330
18
102
}
330
18
100
AcDbGroup
300

 70
     1
 71
     1
  0
GROUP
  5
4CEC
102
{ACAD_REACTORS
330
18
102
}
330
18
100
AcDbGroup
300

 70
     1
 71
     1
  0
GROUP
  5
58EE
102
{ACAD_REACTORS
330
18
102
}
330
18
100
AcDbGroup
300

 70
     1
 71
     1
  0
GROUP
  5
382B
102
{ACAD_REACTORS
330
18
102
}
330
18
100
AcDbGroup
300

 70
     1
 71
     1
  0
GROUP
  5
1EFE
102
{ACAD_REACTORS
330
18
102
}
330
18
100
AcDbGroup
300

 70
     1
 71
     1
  0
GROUP
  5
2573
102
{ACAD_REACTORS
330
18
102
}
330
18
100
AcDbGroup
300

 70
     1
 71
     1
  0
GROUP
  5
422E
102
{ACAD_REACTORS
330
18
102
}
330
18
100
AcDbGroup
300

 70
     1
 71
     1
  0
GROUP
  5
97D7
102
{ACAD_REACTORS
330
18
102
}
330
18
100
AcDbGroup
300

 70
     1
 71
     1
  0
GROUP
  5
4516
102
{ACAD_REACTORS
330
18
102
}
330
18
100
AcDbGroup
300

 70
     1
 71
     1
  0
GROUP
  5
3878
102
{ACAD_REACTORS
330
18
102
}
330
18
100
AcDbGroup
300

 70
     1
 71
     1
  0
GROUP
  5
5D92
102
{ACAD_REACTORS
330
18
102
}
330
18
100
AcDbGroup
300

 70
     1
 71
     1
  0
GROUP
  5
99FC
102
{ACAD_REACTORS
330
18
102
}
330
18
100
AcDbGroup
300

 70
     1
 71
     1
  0
GROUP
  5
2905
102
{ACAD_REACTORS
330
18
102
}
330
18
100
AcDbGroup
300

 70
     1
 71
     1
  0
GROUP
  5
3E5C
102
{ACAD_REACTORS
330
18
102
}
330
18
100
AcDbGroup
300

 70
     1
 71
     1
  0
GROUP
  5
1555
102
{ACAD_REACTORS
330
18
102
}
330
18
100
AcDbGroup
300

 70
     1
 71
     1
  0
GROUP
  5
17BC
102
{ACAD_REACTORS
330
18
102
}
330
18
100
AcDbGroup
300

 70
     1
 71
     1
  0
GROUP
  5
3181
102
{ACAD_REACTORS
330
18
102
}
330
18
100
AcDbGroup
300

 70
     1
 71
     1
  0
GROUP
  5
2B84
102
{ACAD_REACTORS
330
18
102
}
330
18
100
AcDbGroup
300

 70
     1
 71
     1
  0
GROUP
  5
24D6
102
{ACAD_REACTORS
330
18
102
}
330
18
100
AcDbGroup
300

 70
     1
 71
     1
  0
GROUP
  5
4F64
102
{ACAD_REACTORS
330
18
102
}
330
18
100
AcDbGroup
300

 70
     1
 71
     1
  0
GROUP
  5
5F6F
102
{ACAD_REACTORS
330
18
102
}
330
18
100
AcDbGroup
300

 70
     1
 71
     1
  0
GROUP
  5
4A53
102
{ACAD_REACTORS
330
18
102
}
330
18
100
AcDbGroup
300

 70
     1
 71
     1
  0
GROUP
  5
9AE5
102
{ACAD_REACTORS
330
18
102
}
330
18
100
AcDbGroup
300

 70
     1
 71
     1
  0
GROUP
  5
626B
102
{ACAD_REACTORS
330
18
102
}
330
18
100
AcDbGroup
300

 70
     1
 71
     1
  0
GROUP
  5
6417
102
{ACAD_REACTORS
330
18
102
}
330
18
100
AcDbGroup
300

 70
     1
 71
     1
  0
GROUP
  5
307D
102
{ACAD_REACTORS
330
18
102
}
330
18
100
AcDbGroup
300

 70
     1
 71
     1
  0
GROUP
  5
668C
102
{ACAD_REACTORS
330
18
102
}
330
18
100
AcDbGroup
300

 70
     1
 71
     1
  0
GROUP
  5
4D76
102
{ACAD_REACTORS
330
18
102
}
330
18
100
AcDbGroup
300

 70
     1
 71
     1
  0
GROUP
  5
241A
102
{ACAD_REACTORS
330
18
102
}
330
18
100
AcDbGroup
300

 70
     1
 71
     1
  0
GROUP
  5
68C5
102
{ACAD_REACTORS
330
18
102
}
330
18
100
AcDbGroup
300

 70
     1
 71
     1
  0
GROUP
  5
34BB
102
{ACAD_REACTORS
330
18
102
}
330
18
100
AcDbGroup
300

 70
     1
 71
     1
  0
GROUP
  5
4781
102
{ACAD_REACTORS
330
18
102
}
330
18
100
AcDbGroup
300

 70
     1
 71
     1
  0
GROUP
  5
6A30
102
{ACAD_REACTORS
330
18
102
}
330
18
100
AcDbGroup
300

 70
     1
 71
     1
  0
GROUP
  5
9B93
102
{ACAD_REACTORS
330
18
102
}
330
18
100
AcDbGroup
300

 70
     1
 71
     1
  0
GROUP
  5
2EE1
102
{ACAD_REACTORS
330
18
102
}
330
18
100
AcDbGroup
300

 70
     1
 71
     1
  0
GROUP
  5
6A98
102
{ACAD_REACTORS
330
18
102
}
330
18
100
AcDbGroup
300

 70
     1
 71
     1
  0
GROUP
  5
1A98
102
{ACAD_REACTORS
330
18
102
}
330
18
100
AcDbGroup
300

 70
     1
 71
     1
  0
GROUP
  5
6C32
102
{ACAD_REACTORS
330
18
102
}
330
18
100
AcDbGroup
300

 70
     1
 71
     1
  0
GROUP
  5
2037
102
{ACAD_REACTORS
330
18
102
}
330
18
100
AcDbGroup
300

 70
     1
 71
     1
  0
GROUP
  5
6D00
102
{ACAD_REACTORS
330
18
102
}
330
18
100
AcDbGroup
300

 70
     1
 71
     1
  0
GROUP
  5
3988
102
{ACAD_REACTORS
330
18
102
}
330
18
100
AcDbGroup
300

 70
     1
 71
     1
  0
GROUP
  5
6DE3
102
{ACAD_REACTORS
330
18
102
}
330
18
100
AcDbGroup
300

 70
     1
 71
     1
  0
GROUP
  5
FF8
102
{ACAD_REACTORS
330
18
102
}
330
18
100
AcDbGroup
300

 70
     1
 71
     1
  0
GROUP
  5
5011
102
{ACAD_REACTORS
330
18
102
}
330
18
100
AcDbGroup
300

 70
     1
 71
     1
  0
GROUP
  5
9CE8
102
{ACAD_REACTORS
330
18
102
}
330
18
100
AcDbGroup
300

 70
     1
 71
     1
  0
GROUP
  5
6EB7
102
{ACAD_REACTORS
330
18
102
}
330
18
100
AcDbGroup
300

 70
     1
 71
     1
  0
GROUP
  5
706D
102
{ACAD_REACTORS
330
18
102
}
330
18
100
AcDbGroup
300

 70
     1
 71
     1
  0
GROUP
  5
45E5
102
{ACAD_REACTORS
330
18
102
}
330
18
100
AcDbGroup
300

 70
     1
 71
     1
  0
GROUP
  5
7170
102
{ACAD_REACTORS
330
18
102
}
330
18
100
AcDbGroup
300

 70
     1
 71
     1
  0
GROUP
  5
35A5
102
{ACAD_REACTORS
330
18
102
}
330
18
100
AcDbGroup
300

 70
     1
 71
     1
  0
GROUP
  5
3695
102
{ACAD_REACTORS
330
18
102
}
330
18
100
AcDbGroup
300

 70
     1
 71
     1
  0
GROUP
  5
401B
102
{ACAD_REACTORS
330
18
102
}
330
18
100
AcDbGroup
300

 70
     1
 71
     1
  0
GROUP
  5
1CBC
102
{ACAD_REACTORS
330
18
102
}
330
18
100
AcDbGroup
300

 70
     1
 71
     1
  0
GROUP
  5
3C81
102
{ACAD_REACTORS
330
18
102
}
330
18
100
AcDbGroup
300

 70
     1
 71
     1
  0
GROUP
  5
7453
102
{ACAD_REACTORS
330
18
102
}
330
18
100
AcDbGroup
300

 70
     1
 71
     1
  0
GROUP
  5
9E96
102
{ACAD_REACTORS
330
18
102
}
330
18
100
AcDbGroup
300

 70
     1
 71
     1
  0
GROUP
  5
2C6B
102
{ACAD_REACTORS
330
18
102
}
330
18
100
AcDbGroup
300

 70
     1
 71
     1
  0
GROUP
  5
76E3
102
{ACAD_REACTORS
330
18
102
}
330
18
100
AcDbGroup
300

 70
     1
 71
     1
  0
GROUP
  5
3A25
102
{ACAD_REACTORS
330
18
102
}
330
18
100
AcDbGroup
300

 70
     1
 71
     1
  0
GROUP
  5
7793
102
{ACAD_REACTORS
330
18
102
}
330
18
100
AcDbGroup
300

 70
     1
 71
     1
  0
GROUP
  5
2D78
102
{ACAD_REACTORS
330
18
102
}
330
18
100
AcDbGroup
300

 70
     1
 71
     1
  0
GROUP
  5
7ADA
102
{ACAD_REACTORS
330
18
102
}
330
18
100
AcDbGroup
300

 70
     1
 71
     1
  0
GROUP
  5
26DD
102
{ACAD_REACTORS
330
18
102
}
330
18
100
AcDbGroup
300

 70
     1
 71
     1
  0
GROUP
  5
7D2B
102
{ACAD_REACTORS
330
18
102
}
330
18
100
AcDbGroup
300

 70
     1
 71
     1
  0
GROUP
  5
32E4
102
{ACAD_REACTORS
330
18
102
}
330
18
100
AcDbGroup
300

 70
     1
 71
     1
  0
GROUP
  5
2F81
102
{ACAD_REACTORS
330
18
102
}
330
18
100
AcDbGroup
300

 70
     1
 71
     1
  0
GROUP
  5
A089
102
{ACAD_REACTORS
330
18
102
}
330
18
100
AcDbGroup
300

 70
     1
 71
     1
  0
GROUP
  5
4407
102
{ACAD_REACTORS
330
18
102
}
330
18
100
AcDbGroup
300

 70
     1
 71
     1
  0
GROUP
  5
22C8
102
{ACAD_REACTORS
330
18
102
}
330
18
100
AcDbGroup
300

 70
     1
 71
     1
  0
GROUP
  5
7E5C
102
{ACAD_REACTORS
330
18
102
}
330
18
100
AcDbGroup
300

 70
     1
 71
     1
  0
GROUP
  5
8108
102
{ACAD_REACTORS
330
18
102
}
330
18
100
AcDbGroup
300

 70
     1
 71
     1
  0
GROUP
  5
8393
102
{ACAD_REACTORS
330
18
102
}
330
18
100
AcDbGroup
300

 70
     1
 71
     1
  0
GROUP
  5
84B0
102
{ACAD_REACTORS
330
18
102
}
330
18
100
AcDbGroup
300

 70
     1
 71
     1
  0
GROUP
  5
8635
102
{ACAD_REACTORS
330
18
102
}
330
18
100
AcDbGroup
300

 70
     1
 71
     1
  0
GROUP
  5
3467
102
{ACAD_REACTORS
330
18
102
}
330
18
100
AcDbGroup
300

 70
     1
 71
     1
  0
GROUP
  5
87B5
102
{ACAD_REACTORS
330
18
102
}
330
18
100
AcDbGroup
300

 70
     1
 71
     1
  0
GROUP
  5
136A
102
{ACAD_REACTORS
330
18
102
}
330
18
100
AcDbGroup
300

 70
     1
 71
     1
  0
LAYOUT
  5
5A
102
{ACAD_XDICTIONARY
360
A41A
102
}
102
{ACAD_REACTORS
330
58
102
}
330
58
100
AcDbPlotSettings
  1

  2
なし
  4

  6

 40
0.0
 41
0.0
 42
0.0
 43
0.0
 44
0.0
 45
0.0
 46
0.0
 47
0.0
 48
0.0
 49
0.0
140
0.0
141
0.0
142
1.0
143
1.0
 70
  1712
 72
     0
 73
     0
 74
     0
  7
monochrome.ctb
 75
     0
147
1.0
148
0.0
149
0.0
100
AcDbLayout
  1
Model
 70
     1
 71
     0
 10
0.0
 20
0.0
 11
12.0
 21
9.0
 12
0.0
 22
0.0
 32
0.0
 14
0.0
 24
0.0
 34
0.0
 15
0.0
 25
0.0
 35
0.0
146
0.0
 13
0.0
 23
0.0
 33
0.0
 16
1.0
 26
0.0
 36
0.0
 17
0.0
 27
1.0
 37
0.0
 76
     0
330
2
  0
LAYOUT
  5
5B
102
{ACAD_XDICTIONARY
360
A41C
102
}
102
{ACAD_REACTORS
330
58
102
}
330
58
100
AcDbPlotSettings
  1

  2
なし
  4

  6

 40
0.0
 41
0.0
 42
0.0
 43
0.0
 44
0.0
 45
0.0
 46
0.0
 47
0.0
 48
0.0
 49
0.0
140
0.0
141
0.0
142
1.0
143
1.0
 70
   688
 72
     0
 73
     0
 74
     5
  7
monochrome.ctb
 75
    16
147
1.0
148
0.0
149
0.0
100
AcDbLayout
  1
ﾚｲｱｳﾄ1
 70
     1
 71
     1
 10
0.0
 20
0.0
 11
12.0
 21
9.0
 12
0.0
 22
0.0
 32
0.0
 14
1.000000000000000E+20
 24
1.000000000000000E+20
 34
1.000000000000000E+20
 15
-1.000000000000000E+20
 25
-1.000000000000000E+20
 35
-1.000000000000000E+20
146
0.0
 13
0.0
 23
0.0
 33
0.0
 16
1.0
 26
0.0
 36
0.0
 17
0.0
 27
1.0
 37
0.0
 76
     0
330
7
  0
MLINESTYLE
  5
1D
102
{ACAD_REACTORS
330
19
102
}
330
19
100
AcDbMlineStyle
  2
STANDARD
 70
     0
  3

 62
   256
 51
90.0
 52
90.0
 71
     2
 49
0.5
 62
   256
  6
BYLAYER
 49
-0.5
 62
   256
  6
BYLAYER
  0
ACDBPLACEHOLDER
  5
57
102
{ACAD_REACTORS
330
56
102
}
330
56
  0
TABLESTYLE
  5
146
102
{ACAD_REACTORS
330
145
102
}
330
145
100
AcDbTableStyle
  3
Standard
 70
     0
 71
     0
 40
0.06
 41
0.06
280
     0
281
     0
  7
STANDARD
140
0.18
170
     2
 62
     0
 63
     7
283
     0
274
    -2
284
     1
 64
     0
275
    -2
285
     1
 65
     0
276
    -2
286
     1
 66
     0
277
    -2
287
     1
 67
     0
278
    -2
288
     1
 68
     0
279
    -2
289
     1
 69
     0
  7
STANDARD
140
0.25
170
     5
 62
     0
 63
     7
283
     0
274
    -2
284
     1
 64
     0
275
    -2
285
     1
 65
     0
276
    -2
286
     1
 66
     0
277
    -2
287
     1
 67
     0
278
    -2
288
     1
 68
     0
279
    -2
289
     1
 69
     0
  7
STANDARD
140
0.18
170
     5
 62
     0
 63
     7
283
     0
274
    -2
284
     1
 64
     0
275
    -2
285
     1
 65
     0
276
    -2
286
     1
 66
     0
277
    -2
287
     1
 67
     0
278
    -2
288
     1
 68
     0
279
    -2
289
     1
 69
     0
  0
DICTIONARYVAR
  5
1D2
102
{ACAD_REACTORS
330
1D1
102
}
330
1D1
100
DictionaryVariables
280
     0
  1
STANDARD
  0
DICTIONARYVAR
  5
D03
102
{ACAD_REACTORS
330
1D1
102
}
330
1D1
100
DictionaryVariables
280
     0
  1
1
  0
DICTIONARYVAR
  5
D04
102
{ACAD_REACTORS
330
1D1
102
}
330
1D1
100
DictionaryVariables
280
     0
  1

  0
DICTIONARY
  5
A41A
330
5A
100
AcDbDictionary
280
     1
281
     1
  3
ACAD_XREC_ROUNDTRIP
360
A41B
  0
DICTIONARY
  5
A41C
330
5B
100
AcDbDictionary
280
     1
281
     1
  3
ACAD_XREC_ROUNDTRIP
360
A41D
  0
XRECORD
  5
A41B
102
{ACAD_REACTORS
330
A41A
102
}
330
A41A
100
AcDbXrecord
280
     1
102
SHADEPLOT
 70
     0
102
SHADEPLOTRESLEVEL
 70
     2
102
SHADEPLOTCUSTOMDPI
 70
   300
  0
XRECORD
  5
A41D
102
{ACAD_REACTORS
330
A41C
102
}
330
A41C
100
AcDbXrecord
280
     1
102
SHADEPLOT
 70
     0
102
SHADEPLOTRESLEVEL
 70
     2
102
SHADEPLOTCUSTOMDPI
 70
   300
  0
ENDSEC
  0
EOF
