  0
SECTION
  2
HEADER
  9
$ACADVER
  1
AC1015
  9
$ACADMAINTVER
 70
    20
  9
$DWGCODEPAGE
  3
ANSI_932
  9
$INSBASE
 10
922.019522
 20
-675.4306699999998
 30
0.0
  9
$EXTMIN
 10
-11.11350532676184
 20
0.0
 30
0.0
  9
$EXTMAX
 10
97.89436946899641
 20
189.5853996213826
 30
0.0
  9
$LIMMIN
 10
0.0
 20
0.0
  9
$LIMMAX
 10
420.0
 20
297.0
  9
$ORTHOMODE
 70
     1
  9
$REGENMODE
 70
     1
  9
$FILLMODE
 70
     1
  9
$QTEXTMODE
 70
     0
  9
$MIRRTEXT
 70
     1
  9
$LTSCALE
 40
1.0
  9
$ATTMODE
 70
     1
  9
$TEXTSIZE
 40
30.0
  9
$TRACEWID
 40
0.05
  9
$TEXTSTYLE
  7
SUNPOU
  9
$CLAYER
  8
0
  9
$CELTYPE
  6
BYLAYER
  9
$CECOLOR
 62
   256
  9
$CELTSCALE
 40
1.0
  9
$DISPSILH
 70
     0
  9
$DIMSCALE
 40
1.0
  9
$DIMASZ
 40
2.0
  9
$DIMEXO
 40
10.0
  9
$DIMDLI
 40
0.38
  9
$DIMRND
 40
0.0
  9
$DIMDLE
 40
0.0
  9
$DIMEXE
 40
0.0
  9
$DIMTP
 40
0.0
  9
$DIMTM
 40
0.0
  9
$DIMTXT
 40
10.0
  9
$DIMCEN
 40
0.0
  9
$DIMTSZ
 40
0.0
  9
$DIMTOL
 70
     0
  9
$DIMLIM
 70
     0
  9
$DIMTIH
 70
     0
  9
$DIMTOH
 70
     0
  9
$DIMSE1
 70
     0
  9
$DIMSE2
 70
     0
  9
$DIMTAD
 70
     1
  9
$DIMZIN
 70
     0
  9
$DIMBLK
  1
Dot
  9
$DIMASO
 70
     1
  9
$DIMSHO
 70
     1
  9
$DIMPOST
  1

  9
$DIMAPOST
  1

  9
$DIMALT
 70
     0
  9
$DIMALTD
 70
     2
  9
$DIMALTF
 40
25.4
  9
$DIMLFAC
 40
1.0
  9
$DIMTOFL
 70
     0
  9
$DIMTVP
 40
0.0
  9
$DIMTIX
 70
     0
  9
$DIMSOXD
 70
     0
  9
$DIMSAH
 70
     0
  9
$DIMBLK1
  1

  9
$DIMBLK2
  1

  9
$DIMSTYLE
  2
STANDARD
  9
$DIMCLRD
 70
    60
  9
$DIMCLRE
 70
    70
  9
$DIMCLRT
 70
    60
  9
$DIMTFAC
 40
0.064286
  9
$DIMGAP
 40
3.0
  9
$DIMJUST
 70
     0
  9
$DIMSD1
 70
     0
  9
$DIMSD2
 70
     0
  9
$DIMTOLJ
 70
     1
  9
$DIMTZIN
 70
     0
  9
$DIMALTZ
 70
     0
  9
$DIMALTTZ
 70
     0
  9
$DIMUPT
 70
     0
  9
$DIMDEC
 70
     0
  9
$DIMTDEC
 70
     0
  9
$DIMALTU
 70
     2
  9
$DIMALTTD
 70
     2
  9
$DIMTXSTY
  7
SUNPOU
  9
$DIMAUNIT
 70
     0
  9
$DIMADEC
 70
     0
  9
$DIMALTRND
 40
0.0
  9
$DIMAZIN
 70
     0
  9
$DIMDSEP
 70
    46
  9
$DIMATFIT
 70
     3
  9
$DIMFRAC
 70
     0
  9
$DIMLDRBLK
  1

  9
$DIMLUNIT
 70
     2
  9
$DIMLWD
 70
    -2
  9
$DIMLWE
 70
    -2
  9
$DIMTMOVE
 70
     0
  9
$LUNITS
 70
     2
  9
$LUPREC
 70
     5
  9
$SKETCHINC
 40
0.1
  9
$FILLETRAD
 40
0.0
  9
$AUNITS
 70
     0
  9
$AUPREC
 70
     0
  9
$MENU
  1
acad
  9
$ELEVATION
 40
0.0
  9
$PELEVATION
 40
0.0
  9
$THICKNESS
 40
0.0
  9
$LIMCHECK
 70
     0
  9
$CHAMFERA
 40
0.0
  9
$CHAMFERB
 40
0.0
  9
$CHAMFERC
 40
0.0
  9
$CHAMFERD
 40
0.0
  9
$SKPOLY
 70
     0
  9
$TDCREATE
 40
2450623.654673033
  9
$TDUCREATE
 40
2450623.279673032
  9
$TDUPDATE
 40
2454902.575733843
  9
$TDUUPDATE
 40
2454902.200733843
  9
$TDINDWG
 40
0.1350399306
  9
$TDUSRTIMER
 40
0.1350393981
  9
$USRTIMER
 70
     1
  9
$ANGBASE
 50
0.0
  9
$ANGDIR
 70
     0
  9
$PDMODE
 70
     0
  9
$PDSIZE
 40
0.0
  9
$PLINEWID
 40
0.0
  9
$SPLFRAME
 70
     0
  9
$SPLINETYPE
 70
     6
  9
$SPLINESEGS
 70
     8
  9
$HANDSEED
  5
387C
  9
$SURFTAB1
 70
     6
  9
$SURFTAB2
 70
     6
  9
$SURFTYPE
 70
     6
  9
$SURFU
 70
     6
  9
$SURFV
 70
     6
  9
$UCSBASE
  2

  9
$UCSNAME
  2

  9
$UCSORG
 10
0.0
 20
0.0
 30
0.0
  9
$UCSXDIR
 10
1.0
 20
0.0
 30
0.0
  9
$UCSYDIR
 10
0.0
 20
1.0
 30
0.0
  9
$UCSORTHOREF
  2

  9
$UCSORTHOVIEW
 70
     0
  9
$UCSORGTOP
 10
0.0
 20
0.0
 30
0.0
  9
$UCSORGBOTTOM
 10
0.0
 20
0.0
 30
0.0
  9
$UCSORGLEFT
 10
0.0
 20
0.0
 30
0.0
  9
$UCSORGRIGHT
 10
0.0
 20
0.0
 30
0.0
  9
$UCSORGFRONT
 10
0.0
 20
0.0
 30
0.0
  9
$UCSORGBACK
 10
0.0
 20
0.0
 30
0.0
  9
$PUCSBASE
  2

  9
$PUCSNAME
  2

  9
$PUCSORG
 10
0.0
 20
0.0
 30
0.0
  9
$PUCSXDIR
 10
1.0
 20
0.0
 30
0.0
  9
$PUCSYDIR
 10
0.0
 20
1.0
 30
0.0
  9
$PUCSORTHOREF
  2

  9
$PUCSORTHOVIEW
 70
     0
  9
$PUCSORGTOP
 10
0.0
 20
0.0
 30
0.0
  9
$PUCSORGBOTTOM
 10
0.0
 20
0.0
 30
0.0
  9
$PUCSORGLEFT
 10
0.0
 20
0.0
 30
0.0
  9
$PUCSORGRIGHT
 10
0.0
 20
0.0
 30
0.0
  9
$PUCSORGFRONT
 10
0.0
 20
0.0
 30
0.0
  9
$PUCSORGBACK
 10
0.0
 20
0.0
 30
0.0
  9
$USERI1
 70
     0
  9
$USERI2
 70
     0
  9
$USERI3
 70
     0
  9
$USERI4
 70
     0
  9
$USERI5
 70
     0
  9
$USERR1
 40
0.0
  9
$USERR2
 40
0.0
  9
$USERR3
 40
0.0
  9
$USERR4
 40
0.0
  9
$USERR5
 40
0.0
  9
$WORLDVIEW
 70
     1
  9
$SHADEDGE
 70
     3
  9
$SHADEDIF
 70
    70
  9
$TILEMODE
 70
     1
  9
$MAXACTVP
 70
    16
  9
$PINSBASE
 10
0.0
 20
0.0
 30
0.0
  9
$PLIMCHECK
 70
     0
  9
$PEXTMIN
 10
1.000000000000000E+20
 20
1.000000000000000E+20
 30
1.000000000000000E+20
  9
$PEXTMAX
 10
-1.000000000000000E+20
 20
-1.000000000000000E+20
 30
-1.000000000000000E+20
  9
$PLIMMIN
 10
0.0
 20
0.0
  9
$PLIMMAX
 10
12.0
 20
9.0
  9
$UNITMODE
 70
     0
  9
$VISRETAIN
 70
     0
  9
$PLINEGEN
 70
     0
  9
$PSLTSCALE
 70
     1
  9
$TREEDEPTH
 70
  3020
  9
$CMLSTYLE
  2
STANDARD
  9
$CMLJUST
 70
     0
  9
$CMLSCALE
 40
1.0
  9
$PROXYGRAPHICS
 70
     1
  9
$MEASUREMENT
 70
     0
  9
$CELWEIGHT
370
    -1
  9
$ENDCAPS
280
     0
  9
$JOINSTYLE
280
     0
  9
$LWDISPLAY
290
     0
  9
$INSUNITS
 70
     0
  9
$HYPERLINKBASE
  1

  9
$STYLESHEET
  1

  9
$XEDIT
290
     1
  9
$CEPSNTYPE
380
     0
  9
$PSTYLEMODE
290
     1
  9
$FINGERPRINTGUID
  2
{FB88A696-E29C-4009-92AF-A3599A8169D5}
  9
$VERSIONGUID
  2
{CC2D992B-2AA8-47BA-844F-8CC869720434}
  9
$EXTNAMES
290
     1
  9
$PSVPSCALE
 40
0.0
  9
$OLESTARTUP
290
     0
  0
ENDSEC
  0
SECTION
  2
CLASSES
  0
CLASS
  1
DICTIONARYVAR
  2
AcDbDictionaryVar
  3
ObjectDBX Classes
 90
        0
280
     0
281
     0
  0
CLASS
  1
ACDBDICTIONARYWDFLT
  2
AcDbDictionaryWithDefault
  3
ObjectDBX Classes
 90
        0
280
     0
281
     0
  0
CLASS
  1
ACDBPLACEHOLDER
  2
AcDbPlaceHolder
  3
ObjectDBX Classes
 90
        0
280
     0
281
     0
  0
CLASS
  1
LAYOUT
  2
AcDbLayout
  3
ObjectDBX Classes
 90
        0
280
     0
281
     0
  0
CLASS
  1
TABLESTYLE
  2
AcDbTableStyle
  3
ObjectDBX Classes
 90
     4095
280
     0
281
     0
  0
CLASS
  1
SORTENTSTABLE
  2
AcDbSortentsTable
  3
ObjectDBX Classes
 90
        0
280
     0
281
     0
  0
CLASS
  1
MATERIAL
  2
AcDbMaterial
  3
ObjectDBX Classes
 90
     1153
280
     0
281
     0
  0
CLASS
  1
VISUALSTYLE
  2
AcDbVisualStyle
  3
ObjectDBX Classes
 90
     4095
280
     0
281
     0
  0
CLASS
  1
SCALE
  2
AcDbScale
  3
ObjectDBX Classes
 90
     1153
280
     0
281
     0
  0
CLASS
  1
MLEADERSTYLE
  2
AcDbMLeaderStyle
  3
ACDB_MLEADERSTYLE_CLASS
 90
     4095
280
     0
281
     0
  0
CLASS
  1
CELLSTYLEMAP
  2
AcDbCellStyleMap
  3
ObjectDBX Classes
 90
     1152
280
     0
281
     0
  0
ENDSEC
  0
SECTION
  2
TABLES
  0
TABLE
  2
VPORT
  5
12
330
0
100
AcDbSymbolTable
 70
     1
  0
VPORT
  5
3800
330
12
100
AcDbSymbolTableRecord
100
AcDbViewportTableRecord
  2
*Active
 70
     0
 10
0.0
 20
0.0
 11
1.0
 21
1.0
 12
66.04752777272541
 22
94.79783186208186
 13
0.0
 23
0.0
 14
1.0
 24
1.0
 15
0.0
 25
0.0
 16
0.0
 26
0.0
 36
1.0
 17
0.0
 27
0.0
 37
0.0
 40
191.040653236395
 41
1.778443113772454
 42
50.0
 43
0.0
 44
0.0
 50
0.0
 51
0.0
 71
     0
 72
 20000
 73
     1
 74
     1
 75
     0
 76
     0
 77
     0
 78
     0
281
     0
 65
     1
110
0.0
120
0.0
130
0.0
111
1.0
121
0.0
131
0.0
112
0.0
122
1.0
132
0.0
 79
     0
146
0.0
  0
ENDTAB
  0
TABLE
  2
LTYPE
  5
D
330
0
100
AcDbSymbolTable
 70
     1
  0
LTYPE
  5
E
330
D
100
AcDbSymbolTableRecord
100
AcDbLinetypeTableRecord
  2
BYBLOCK
 70
     0
  3

 72
    65
 73
     0
 40
0.0
  0
LTYPE
  5
F
330
D
100
AcDbSymbolTableRecord
100
AcDbLinetypeTableRecord
  2
BYLAYER
 70
     0
  3

 72
    65
 73
     0
 40
0.0
  0
LTYPE
  5
5
330
D
100
AcDbSymbolTableRecord
100
AcDbLinetypeTableRecord
  2
CONTINUOUS
 70
     0
  3
Solid line
 72
    65
 73
     0
 40
0.0
  0
ENDTAB
  0
TABLE
  2
LAYER
  5
A
102
{ACAD_XDICTIONARY
360
1B4
102
}
330
0
100
AcDbSymbolTable
 70
     6
  0
LAYER
  5
4
102
{ACAD_XDICTIONARY
360
3862
102
}
330
A
100
AcDbSymbolTableRecord
100
AcDbLayerTableRecord
  2
0
 70
     0
 62
     7
  6
CONTINUOUS
370
    -3
390
57
  0
LAYER
  5
25
102
{ACAD_XDICTIONARY
360
3864
102
}
330
A
100
AcDbSymbolTableRecord
100
AcDbLayerTableRecord
  2
KIJUN
 70
     0
 62
     7
  6
CONTINUOUS
370
    -3
390
57
  0
LAYER
  5
22
102
{ACAD_XDICTIONARY
360
3866
102
}
330
A
100
AcDbSymbolTableRecord
100
AcDbLayerTableRecord
  2
HOJO
 70
     0
 62
     3
  6
CONTINUOUS
370
    -3
390
57
  0
LAYER
  5
1B
102
{ACAD_XDICTIONARY
360
3868
102
}
330
A
100
AcDbSymbolTableRecord
100
AcDbLayerTableRecord
  2
WAKU
 70
     0
 62
     1
  6
CONTINUOUS
370
    -3
390
57
  0
LAYER
  5
31
330
A
100
AcDbSymbolTableRecord
100
AcDbLayerTableRecord
  2
DEFPOINTS
 70
     0
 62
     7
  6
CONTINUOUS
290
     0
370
    -3
390
57
  0
LAYER
  5
28
102
{ACAD_XDICTIONARY
360
386A
102
}
330
A
100
AcDbSymbolTableRecord
100
AcDbLayerTableRecord
  2
SUNPOU
 70
     0
 62
    70
  6
CONTINUOUS
370
    -3
390
57
  0
ENDTAB
  0
TABLE
  2
STYLE
  5
B
330
0
100
AcDbSymbolTable
 70
     3
  0
STYLE
  5
C
330
B
100
AcDbSymbolTableRecord
100
AcDbTextStyleTableRecord
  2
STANDARD
 70
     0
 40
0.0
 41
1.0
 50
0.0
 71
     0
 42
0.2
  3
txt
  4

  0
STYLE
  5
1C
330
B
100
AcDbSymbolTableRecord
100
AcDbTextStyleTableRecord
  2
SUNPOU
 70
     0
 40
0.0
 41
1.0
 50
0.0
 71
     0
 42
30.0
  3
txt
  4
bigfont
  0
STYLE
  5
14A
330
B
100
AcDbSymbolTableRecord
100
AcDbTextStyleTableRecord
  2
LIFE
 70
     0
 40
0.0
 41
0.7
 50
0.0
 71
     0
 42
10.0
  3
romans
  4
extfont
  0
ENDTAB
  0
TABLE
  2
VIEW
  5
10
330
0
100
AcDbSymbolTable
 70
     0
  0
ENDTAB
  0
TABLE
  2
UCS
  5
11
330
0
100
AcDbSymbolTable
 70
     0
  0
ENDTAB
  0
TABLE
  2
APPID
  5
14
330
0
100
AcDbSymbolTable
 70
    11
  0
APPID
  5
15
330
14
100
AcDbSymbolTableRecord
100
AcDbRegAppTableRecord
  2
ACAD
 70
     0
  0
APPID
  5
1D3
330
14
100
AcDbSymbolTableRecord
100
AcDbRegAppTableRecord
  2
ACAD_DSTYLE_DIMTEXT_FILL
 70
     0
  0
APPID
  5
1D4
330
14
100
AcDbSymbolTableRecord
100
AcDbRegAppTableRecord
  2
ACAD_DSTYLE_DIMEXT_LENGTH
 70
     0
  0
APPID
  5
1D5
330
14
100
AcDbSymbolTableRecord
100
AcDbRegAppTableRecord
  2
ACAD_DSTYLE_DIMEXT_ENABLED
 70
     0
  0
APPID
  5
1D6
330
14
100
AcDbSymbolTableRecord
100
AcDbRegAppTableRecord
  2
ACAD_DSTYLE_DIM_LINETYPE
 70
     0
  0
APPID
  5
1D7
330
14
100
AcDbSymbolTableRecord
100
AcDbRegAppTableRecord
  2
ACAD_DSTYLE_DIM_EXT1_LINETYPE
 70
     0
  0
APPID
  5
1D8
330
14
100
AcDbSymbolTableRecord
100
AcDbRegAppTableRecord
  2
ACAD_DSTYLE_DIM_EXT2_LINETYPE
 70
     0
  0
APPID
  5
294
330
14
100
AcDbSymbolTableRecord
100
AcDbRegAppTableRecord
  2
ACAD_DSTYLE_DIMJOGGED_JOGANGLE_SYMBOL
 70
     0
  0
APPID
  5
478
330
14
100
AcDbSymbolTableRecord
100
AcDbRegAppTableRecord
  2
ACAD_DSTYLE_DIMARC_LENGTH_SYMBOL
 70
     0
  0
APPID
  5
157B
330
14
100
AcDbSymbolTableRecord
100
AcDbRegAppTableRecord
  2
ACAD_EXEMPT_FROM_CAD_STANDARDS
 70
     0
  0
APPID
  5
3857
330
14
100
AcDbSymbolTableRecord
100
AcDbRegAppTableRecord
  2
ACAD_MLEADERVER
 70
     0
  0
ENDTAB
  0
TABLE
  2
DIMSTYLE
  5
16
330
0
100
AcDbSymbolTable
 70
     1
100
AcDbDimStyleTable
 71
     1
340
1E
  0
DIMSTYLE
105
1E
102
{ACAD_REACTORS
330
37B0
102
}
330
16
100
AcDbSymbolTableRecord
100
AcDbDimStyleTableRecord
  2
STANDARD
 70
     0
340
C
  0
ENDTAB
  0
TABLE
  2
BLOCK_RECORD
  5
1
330
0
100
AcDbSymbolTable
 70
     2
  0
BLOCK_RECORD
  5
2
102
{ACAD_XDICTIONARY
360
1578
102
}
330
1
100
AcDbSymbolTableRecord
100
AcDbBlockTableRecord
  2
*MODEL_SPACE
340
5A
  0
BLOCK_RECORD
  5
7
330
1
100
AcDbSymbolTableRecord
100
AcDbBlockTableRecord
  2
*PAPER_SPACE
340
5B
  0
BLOCK_RECORD
  5
109
330
1
100
AcDbSymbolTableRecord
100
AcDbBlockTableRecord
  2
_Dot
340
0
102
{BLKREFS
331
37EE
331
37EF
102
}
  0
BLOCK_RECORD
  5
37B1
330
1
100
AcDbSymbolTableRecord
100
AcDbBlockTableRecord
  2
*D1
340
0
  0
ENDTAB
  0
ENDSEC
  0
SECTION
  2
BLOCKS
  0
BLOCK
  5
3
330
2
100
AcDbEntity
  8
0
100
AcDbBlockBegin
  2
*MODEL_SPACE
 70
     0
 10
0.0
 20
0.0
 30
0.0
  3
*MODEL_SPACE
  1

  0
ENDBLK
  5
6
330
2
100
AcDbEntity
  8
0
100
AcDbBlockEnd
  0
BLOCK
  5
8
330
7
100
AcDbEntity
 67
     1
  8
0
100
AcDbBlockBegin
  2
*PAPER_SPACE
 70
     0
 10
0.0
 20
0.0
 30
0.0
  3
*PAPER_SPACE
  1

  0
ENDBLK
  5
9
330
7
100
AcDbEntity
 67
     1
  8
0
100
AcDbBlockEnd
  0
BLOCK
  5
10C
330
109
100
AcDbEntity
  8
0
100
AcDbBlockBegin
  2
_Dot
 70
     0
 10
0.0
 20
0.0
 30
0.0
  3
_Dot
  1

  0
LWPOLYLINE
  5
10A
330
109
100
AcDbEntity
  8
0
  6
ByBlock
 62
     0
100
AcDbPolyline
 90
        2
 70
     1
 43
0.5
 10
-0.25
 20
0.0
 42
1.0
 10
0.25
 20
0.0
 42
1.0
  0
LINE
  5
10B
330
109
100
AcDbEntity
  8
0
  6
ByBlock
 62
     0
370
    -2
100
AcDbLine
 10
-0.5
 20
0.0
 30
0.0
 11
-1.0
 21
0.0
 31
0.0
  0
ENDBLK
  5
10D
330
109
100
AcDbEntity
  8
0
100
AcDbBlockEnd
  0
BLOCK
  5
37BB
330
37B1
100
AcDbEntity
  8
0
100
AcDbBlockBegin
  2
*D1
 70
     1
 10
0.0
 20
0.0
 30
0.0
  3
*D1
  1

  0
LINE
  5
37EB
330
37B1
100
AcDbEntity
  8
SUNPOU
 62
    70
370
    -2
100
AcDbLine
 10
-10.11350532676185
 20
103.990342281713
 30
0.0
 11
-10.11350532676184
 21
176.5853996213826
 31
0.0
  0
LINE
  5
37EC
330
37B1
100
AcDbEntity
  8
SUNPOU
 62
    70
370
    -2
100
AcDbLine
 10
94.88649467313315
 20
103.990342281713
 30
0.0
 11
94.88649467313315
 21
176.5853996213826
 31
0.0
  0
LINE
  5
37ED
330
37B1
100
AcDbEntity
  8
SUNPOU
 62
    60
370
    -2
100
AcDbLine
 10
-8.113505326761842
 20
176.5853996213826
 30
0.0
 11
92.88649467313318
 21
176.5853996213826
 31
0.0
  0
INSERT
  5
37EE
330
37B1
100
AcDbEntity
  8
SUNPOU
 62
    60
370
    -2
100
AcDbBlockReference
  2
_Dot
 10
-10.11350532676184
 20
176.5853996213826
 30
0.0
 41
2.0
 42
2.0
 43
2.0
 50
180.0
  0
INSERT
  5
37EF
330
37B1
100
AcDbEntity
  8
SUNPOU
 62
    60
370
    -2
100
AcDbBlockReference
  2
_Dot
 10
94.88649467313315
 20
176.5853996213826
 30
0.0
 41
2.0
 42
2.0
 43
2.0
  0
MTEXT
  5
37F0
330
37B1
100
AcDbEntity
  8
SUNPOU
 62
    60
100
AcDbMText
 10
42.38649467318565
 20
184.5853996213826
 30
0.0
 40
10.0
 41
0.0
 71
     5
 72
     1
  1
\A1;105φ
  7
SUNPOU
 73
     1
 44
1.0
1001
ACAD
1000
MTEXTBEGIN
1070
    73
1070
     1
1070
    44
1040
1.0
1070
    74
1070
     0
1000
MTEXTEND
  0
POINT
  5
37F1
330
37B1
100
AcDbEntity
  8
DEFPOINTS
 62
     0
100
AcDbPoint
 10
-10.11350532676185
 20
93.990342281713
 30
0.0
  0
POINT
  5
37F2
330
37B1
100
AcDbEntity
  8
DEFPOINTS
 62
     0
100
AcDbPoint
 10
94.88649467313315
 20
93.990342281713
 30
0.0
  0
POINT
  5
37F3
330
37B1
100
AcDbEntity
  8
DEFPOINTS
 62
     0
100
AcDbPoint
 10
94.88649467313315
 20
176.5853996213826
 30
0.0
  0
ENDBLK
  5
37BC
330
37B1
100
AcDbEntity
  8
0
100
AcDbBlockEnd
  0
ENDSEC
  0
SECTION
  2
ENTITIES
  0
LINE
  5
1F
330
2
100
AcDbEntity
  8
WAKU
100
AcDbLine
 10
0.0
 20
14.0
 30
0.0
 11
97.89436946899641
 21
14.0
 31
0.0
  0
LINE
  5
20
330
2
100
AcDbEntity
  8
WAKU
100
AcDbLine
 10
0.0
 20
0.0
 30
0.0
 11
97.89436946899641
 21
0.0
 31
0.0
  0
TEXT
  5
21
330
2
100
AcDbEntity
  8
HOJO
100
AcDbText
 10
9.653966000000023
 20
2.366626000000023
 30
0.0
 40
9.0
  1
TR36
  7
SUNPOU
100
AcDbText
  0
TEXT
  5
23
330
2
100
AcDbEntity
  8
HOJO
100
AcDbText
 10
59.20044070727659
 20
5.044386000000031
 30
0.0
 40
6.0
  1
105φ×12
  7
SUNPOU
100
AcDbText
  0
CIRCLE
  5
3785
102
{ACAD_REACTORS
330
37CF
102
}
330
2
100
AcDbEntity
  8
KIJUN
100
AcDbCircle
 10
42.38649467318565
 20
93.990342281713
 30
0.0
 40
52.49999999994749
  0
CIRCLE
  5
3786
102
{ACAD_REACTORS
330
37CF
102
}
330
2
100
AcDbEntity
  8
KIJUN
100
AcDbCircle
 10
42.38649467318565
 20
93.990342281713
 30
0.0
 40
47.999999999952
  0
ARC
  5
3787
102
{ACAD_REACTORS
330
37CF
102
}
330
2
100
AcDbEntity
  8
KIJUN
100
AcDbCircle
 10
33.99904284815097
 20
124.4654893445383
 30
0.0
 40
25.78765682713497
100
AcDbArc
 50
172.2758106294739
 51
265.975007152408
  0
ARC
  5
3788
102
{ACAD_REACTORS
330
37CF
102
}
330
2
100
AcDbEntity
  8
KIJUN
100
AcDbCircle
 10
14.90648746505485
 20
78.37198319828416
 30
0.0
 40
25.78765682713497
100
AcDbArc
 50
49.02499284756634
 51
142.7241893711246
  0
ARC
  5
3789
102
{ACAD_REACTORS
330
37CF
102
}
330
2
100
AcDbEntity
  8
KIJUN
100
AcDbCircle
 10
14.90648746505485
 20
109.6087013651266
 30
0.0
 40
25.78765682713497
100
AcDbArc
 50
217.2758106288753
 51
310.9750071524337
  0
ARC
  5
378A
102
{ACAD_REACTORS
330
37CF
102
}
330
2
100
AcDbEntity
  8
KIJUN
100
AcDbCircle
 10
33.99904284815097
 20
63.51519521891734
 30
0.0
 40
25.78765682713497
100
AcDbArc
 50
94.02499284759199
 51
187.724189370526
  0
LINE
  5
378B
102
{ACAD_REACTORS
330
37CF
102
}
330
2
100
AcDbEntity
  8
KIJUN
100
AcDbLine
 10
-1.505244632347331
 20
113.420093199578
 30
0.0
 11
8.595413413398667
 21
120.0316584754629
 31
0.0
  0
LINE
  5
378C
102
{ACAD_REACTORS
330
37CF
102
}
330
2
100
AcDbEntity
  8
KIJUN
100
AcDbLine
 10
8.756565416268161
 20
68.78971678348517
 30
0.0
 11
-2.388560458627821
 21
76.69310441148152
 31
0.0
  0
LINE
  5
378D
102
{ACAD_REACTORS
330
37CF
102
}
330
2
100
AcDbEntity
  8
KIJUN
100
AcDbLine
 10
-2.388560458627821
 20
76.69310441148152
 30
0.0
 11
0.0786006991470552
 21
88.51043085091161
 31
0.0
  0
LINE
  5
378E
102
{ACAD_REACTORS
330
37CF
102
}
330
2
100
AcDbEntity
  8
KIJUN
100
AcDbLine
 10
0.7870104648541978
 20
99.95076013015358
 30
0.0
 11
-1.505244632347331
 21
113.420093199578
 31
0.0
  0
CIRCLE
  5
378F
102
{ACAD_REACTORS
330
37CF
102
}
330
2
100
AcDbEntity
  8
KIJUN
100
AcDbCircle
 10
42.38649467318565
 20
93.990342281713
 30
0.0
 40
11.24999999998875
  0
ARC
  5
3790
102
{ACAD_REACTORS
330
37CF
102
}
330
2
100
AcDbEntity
  8
KIJUN
100
AcDbCircle
 10
50.77394649822871
 20
63.51519521893215
 30
0.0
 40
25.78765682713497
100
AcDbArc
 50
352.2758106294739
 51
85.97500715240801
  0
ARC
  5
3791
102
{ACAD_REACTORS
330
37CF
102
}
330
2
100
AcDbEntity
  8
KIJUN
100
AcDbCircle
 10
69.86650188135418
 20
109.6087013651412
 30
0.0
 40
25.78765682713497
100
AcDbArc
 50
229.0249928475663
 51
322.7241893711247
  0
ARC
  5
3792
102
{ACAD_REACTORS
330
37CF
102
}
330
2
100
AcDbEntity
  8
KIJUN
100
AcDbCircle
 10
72.86164173600329
 20
85.6028904567151
 30
0.0
 40
25.78765682713497
100
AcDbArc
 50
184.0249928480103
 51
277.7241893708687
  0
LINE
  5
3793
102
{ACAD_REACTORS
330
37CF
102
}
330
2
100
AcDbEntity
  8
KIJUN
100
AcDbLine
 10
67.58712017146578
 20
60.3604130247769
 30
0.0
 11
59.68373254346012
 21
49.21528714990838
 31
0.0
  0
LINE
  5
3794
102
{ACAD_REACTORS
330
37CF
102
}
330
2
100
AcDbEntity
  8
KIJUN
100
AcDbLine
 10
65.3817712408167
 20
68.64505885218637
 30
0.0
 11
49.9458003342876
 21
85.65851187525945
 31
0.0
  0
ARC
  5
3795
102
{ACAD_REACTORS
330
37CF
102
}
330
2
100
AcDbEntity
  8
KIJUN
100
AcDbCircle
 10
11.91134761036659
 20
85.60289045668476
 30
0.0
 40
25.78765682713497
100
AcDbArc
 50
262.2758106291314
 51
355.9750071519896
  0
ARC
  5
3796
102
{ACAD_REACTORS
330
37CF
102
}
330
2
100
AcDbEntity
  8
KIJUN
100
AcDbCircle
 10
58.00485375660734
 20
66.5103350735908
 30
0.0
 40
25.78765682713497
100
AcDbArc
 50
139.0249928478534
 51
232.7241893710521
  0
ARC
  5
3797
102
{ACAD_REACTORS
330
37CF
102
}
330
2
100
AcDbEntity
  8
KIJUN
100
AcDbCircle
 10
26.76813558977208
 20
66.5103350735908
 30
0.0
 40
25.78765682713497
100
AcDbArc
 50
307.275810628948
 51
40.97500715214656
  0
LINE
  5
3798
102
{ACAD_REACTORS
330
37CF
102
}
330
2
100
AcDbEntity
  8
KIJUN
100
AcDbLine
 10
22.95674375532779
 20
50.09860297619389
 30
0.0
 11
16.34517847944936
 21
60.19926102194109
 31
0.0
  0
LINE
  5
3799
102
{ACAD_REACTORS
330
37CF
102
}
330
2
100
AcDbEntity
  8
KIJUN
100
AcDbLine
 10
36.42607682474535
 20
52.39085807339541
 30
0.0
 11
22.95674375532779
 21
50.09860297619389
 31
0.0
  0
LINE
  5
379A
102
{ACAD_REACTORS
330
37CF
102
}
330
2
100
AcDbEntity
  8
KIJUN
100
AcDbLine
 10
59.68373254346012
 20
49.21528714990838
 30
0.0
 11
47.86640610403836
 21
51.68244830767394
 31
0.0
  0
LINE
  5
379B
102
{ACAD_REACTORS
330
37CF
102
}
330
2
100
AcDbEntity
  8
KIJUN
100
AcDbLine
 10
42.33398593938211
 20
63.49828670672927
 30
0.0
 11
42.36712168018121
 21
82.74035896228895
 31
0.0
  0
LINE
  5
379C
102
{ACAD_REACTORS
330
37CF
102
}
330
2
100
AcDbEntity
  8
KIJUN
100
AcDbLine
 10
20.1959812876536
 20
71.36981961192804
 30
0.0
 11
34.50824227922668
 21
85.95942457468876
 31
0.0
  0
LINE
  5
379D
102
{ACAD_REACTORS
330
37CF
102
}
330
2
100
AcDbEntity
  8
KIJUN
100
AcDbLine
 10
86.27823397874896
 20
74.56059136383031
 30
0.0
 11
76.17757593299652
 21
67.94902608797816
 31
0.0
  0
LINE
  5
379E
102
{ACAD_REACTORS
330
37CF
102
}
330
2
100
AcDbEntity
  8
KIJUN
100
AcDbLine
 10
83.98597888154005
 20
88.02992443325718
 30
0.0
 11
86.27823397874896
 21
74.56059136383031
 31
0.0
  0
ARC
  5
379F
102
{ACAD_REACTORS
330
37CF
102
}
330
2
100
AcDbEntity
  8
KIJUN
100
AcDbCircle
 10
69.86650188135418
 20
78.37198319831447
 30
0.0
 40
25.78765682713497
100
AcDbArc
 50
37.27581062887535
 51
130.9750071524336
  0
ARC
  5
37A0
102
{ACAD_REACTORS
330
37CF
102
}
330
2
100
AcDbEntity
  8
KIJUN
100
AcDbCircle
 10
50.77394649822871
 20
124.4654893445204
 30
0.0
 40
25.78765682713497
100
AcDbArc
 50
274.024992847592
 51
7.724189370526057
  0
ARC
  5
37A1
102
{ACAD_REACTORS
330
37CF
102
}
330
2
100
AcDbEntity
  8
KIJUN
100
AcDbCircle
 10
72.86164173600329
 20
102.3777941067405
 30
0.0
 40
25.78765682713497
100
AcDbArc
 50
82.27581062913129
 51
175.9750071519896
  0
LINE
  5
37A2
102
{ACAD_REACTORS
330
37CF
102
}
330
2
100
AcDbEntity
  8
KIJUN
100
AcDbLine
 10
61.81624559105165
 20
137.8820815872462
 30
0.0
 11
68.42781086692816
 21
127.7814235414852
 31
0.0
  0
LINE
  5
37A3
102
{ACAD_REACTORS
330
37CF
102
}
330
2
100
AcDbEntity
  8
KIJUN
100
AcDbLine
 10
65.3817712408167
 20
117.0852603369233
 30
0.0
 11
50.32422975901611
 21
101.9624725934342
 31
0.0
  0
LINE
  5
37A4
102
{ACAD_REACTORS
330
37CF
102
}
330
2
100
AcDbEntity
  8
KIJUN
100
AcDbLine
 10
78.42196560596756
 20
93.77341345434912
 30
0.0
 11
53.63649467317546
 21
93.990342281713
 31
0.0
  0
ARC
  5
37A5
102
{ACAD_REACTORS
330
37CF
102
}
330
2
100
AcDbEntity
  8
KIJUN
100
AcDbCircle
 10
58.00485375660734
 20
121.4703494898345
 30
0.0
 40
25.78765682713497
100
AcDbArc
 50
127.2758106289479
 51
220.9750071521466
  0
ARC
  5
37A6
102
{ACAD_REACTORS
330
37CF
102
}
330
2
100
AcDbEntity
  8
KIJUN
100
AcDbCircle
 10
26.76813558977208
 20
121.4703494898345
 30
0.0
 40
25.78765682713497
100
AcDbArc
 50
319.0249928478534
 51
52.72418937105203
  0
ARC
  5
37A7
102
{ACAD_REACTORS
330
37CF
102
}
330
2
100
AcDbEntity
  8
KIJUN
100
AcDbCircle
 10
11.91134761036659
 20
102.3777941067711
 30
0.0
 40
25.78765682713497
100
AcDbArc
 50
4.024992848010303
 51
97.72418937086868
  0
LINE
  5
37A8
102
{ACAD_REACTORS
330
37CF
102
}
330
2
100
AcDbEntity
  8
KIJUN
100
AcDbLine
 10
48.34691252163433
 20
135.5898264900423
 30
0.0
 11
61.81624559105165
 21
137.8820815872462
 31
0.0
  0
LINE
  5
37A9
102
{ACAD_REACTORS
330
37CF
102
}
330
2
100
AcDbEntity
  8
KIJUN
100
AcDbLine
 10
25.08925680293315
 20
138.7653974135317
 30
0.0
 11
36.90658324237876
 21
136.2982362557514
 31
0.0
  0
LINE
  5
37AA
102
{ACAD_REACTORS
330
37CF
102
}
330
2
100
AcDbEntity
  8
KIJUN
100
AcDbLine
 10
17.18586917495041
 20
127.6202715386305
 30
0.0
 11
25.08925680293315
 21
138.7653974135317
 31
0.0
  0
LINE
  5
37AB
102
{ACAD_REACTORS
330
37CF
102
}
330
2
100
AcDbEntity
  8
KIJUN
100
AcDbLine
 10
42.38649467318565
 20
105.2403422817018
 30
0.0
 11
42.38649467318565
 21
128.5898078616716
 31
0.0
  0
LINE
  5
37AC
102
{ACAD_REACTORS
330
37CF
102
}
330
2
100
AcDbEntity
  8
KIJUN
100
AcDbLine
 10
11.09817100107711
 20
93.77341345434912
 30
0.0
 11
31.13676505460284
 21
93.91234543278583
 31
0.0
  0
LINE
  5
37AD
102
{ACAD_REACTORS
330
37CF
102
}
330
2
100
AcDbEntity
  8
KIJUN
100
AcDbLine
 10
19.28620063794325
 20
117.9935141967317
 30
0.0
 11
34.58545662467651
 21
102.0962848774454
 31
0.0
  0
LINE
  5
37AE
102
{ACAD_REACTORS
330
37CF
102
}
330
2
100
AcDbEntity
  8
KIJUN
100
AcDbLine
 10
87.16154980499794
 20
111.2875801519428
 30
0.0
 11
84.69438864723237
 21
99.47025371251037
 31
0.0
  0
LINE
  5
37AF
102
{ACAD_REACTORS
330
37CF
102
}
330
2
100
AcDbEntity
  8
KIJUN
100
AcDbLine
 10
76.0164239301115
 20
119.1909677799241
 30
0.0
 11
87.16154980499794
 21
111.2875801519428
 31
0.0
  0
DIMENSION
  5
37B0
330
2
100
AcDbEntity
  8
SUNPOU
100
AcDbDimension
  2
*D1
 10
94.88649467313315
 20
176.5853996213826
 30
0.0
 11
42.38649467318565
 21
184.5853996213826
 31
0.0
 70
    32
  1
105φ
 71
     5
 42
104.999999999895
  3
STANDARD
100
AcDbAlignedDimension
 13
-10.11350532676185
 23
93.990342281713
 33
0.0
 14
94.88649467313315
 24
93.990342281713
 34
0.0
100
AcDbRotatedDimension
1001
ACAD
1000
DSTYLE
1002
{
1070
    41
1040
2.0
1070
    42
1040
10.0
1070
    44
1040
0.0
1070
    73
1070
     0
1070
    74
1070
     0
1070
    77
1070
     1
1070
   140
1040
10.0
1070
   141
1040
0.0
1070
   146
1040
0.064286
1070
   147
1040
3.0
1070
   176
1070
    60
1070
   177
1070
    70
1070
   178
1070
    60
1070
   271
1070
     0
1070
   272
1070
     0
1070
   340
1005
1C
1070
   342
1005
109
1002
}
  0
ENDSEC
  0
SECTION
  2
OBJECTS
  0
DICTIONARY
  5
1A
330
0
100
AcDbDictionary
281
     1
  3
ACAD_COLOR
350
144
  3
ACAD_GROUP
350
18
  3
ACAD_LAYOUT
350
58
  3
ACAD_MATERIAL
350
143
  3
ACAD_MLEADERSTYLE
350
3855
  3
ACAD_MLINESTYLE
350
19
  3
ACAD_PLOTSETTINGS
350
59
  3
ACAD_PLOTSTYLENAME
350
56
  3
ACAD_SCALELIST
350
3833
  3
ACAD_TABLESTYLE
350
145
  3
ACAD_VISUALSTYLE
350
3822
  3
ACDB_RECOMPOSE_DATA
350
3872
  3
AcDbVariableDictionary
350
1D1
  3
DWGPROPS
350
3873
  0
DICTIONARY
  5
1B4
330
A
100
AcDbDictionary
280
     1
281
     1
  3
ACAD_LAYERFILTERS
360
1C2
  3
ACLYDICTIONARY
360
1C1
  0
DICTIONARY
  5
3862
330
4
100
AcDbDictionary
280
     1
281
     1
  3
ADSK_XREC_LAYER_RECONCILED
360
3863
  0
DICTIONARY
  5
3864
330
25
100
AcDbDictionary
280
     1
281
     1
  3
ADSK_XREC_LAYER_RECONCILED
360
3865
  0
DICTIONARY
  5
3866
330
22
100
AcDbDictionary
280
     1
281
     1
  3
ADSK_XREC_LAYER_RECONCILED
360
3867
  0
DICTIONARY
  5
3868
330
1B
100
AcDbDictionary
280
     1
281
     1
  3
ADSK_XREC_LAYER_RECONCILED
360
3869
  0
DICTIONARY
  5
386A
330
28
100
AcDbDictionary
280
     1
281
     1
  3
ADSK_XREC_LAYER_RECONCILED
360
386B
  0
DICTIONARY
  5
1578
330
2
100
AcDbDictionary
280
     1
281
     1
  3
ACAD_SORTENTS
360
1579
  0
DICTIONARY
  5
144
102
{ACAD_REACTORS
330
1A
102
}
330
1A
100
AcDbDictionary
281
     1
  0
DICTIONARY
  5
18
102
{ACAD_REACTORS
330
1A
102
}
330
1A
100
AcDbDictionary
281
     1
  3
*A1
350
CFC
  3
*A10
350
2FBC
  3
*A11
350
312A
  3
*A12
350
1682
  3
*A13
350
15D1
  3
*A14
350
3154
  3
*A15
350
327B
  3
*A16
350
32AA
  3
*A17
350
3650
  3
*A18
350
367C
  3
*A19
350
1827
  3
*A2
350
37CF
  3
*A20
350
218C
  3
*A21
350
18ED
  3
*A22
350
19E5
  3
*A23
350
1F8A
  3
*A24
350
2108
  3
*A25
350
3732
  3
*A3
350
2335
  3
*A4
350
2FE9
  3
*A5
350
2862
  3
*A6
350
299B
  3
*A7
350
2C07
  3
*A8
350
2DB5
  3
*A9
350
2E88
  0
DICTIONARY
  5
58
102
{ACAD_REACTORS
330
1A
102
}
330
1A
100
AcDbDictionary
281
     1
  3
Model
350
5A
  3
ﾚｲｱｳﾄ1
350
5B
  0
DICTIONARY
  5
143
102
{ACAD_REACTORS
330
1A
102
}
330
1A
100
AcDbDictionary
281
     1
  3
ByBlock
350
3812
  3
ByLayer
350
380A
  3
Global
350
381A
  0
DICTIONARY
  5
3855
102
{ACAD_REACTORS
330
1A
102
}
330
1A
100
AcDbDictionary
281
     1
  3
Standard
350
3856
  0
DICTIONARY
  5
19
102
{ACAD_REACTORS
330
1A
102
}
330
1A
100
AcDbDictionary
281
     1
  3
STANDARD
350
1D
  0
DICTIONARY
  5
59
102
{ACAD_REACTORS
330
1A
102
}
330
1A
100
AcDbDictionary
281
     1
  0
ACDBDICTIONARYWDFLT
  5
56
102
{ACAD_REACTORS
330
1A
102
}
330
1A
100
AcDbDictionary
281
     1
  3
Normal
350
57
100
AcDbDictionaryWithDefault
340
57
  0
DICTIONARY
  5
3833
102
{ACAD_REACTORS
330
1A
102
}
330
1A
100
AcDbDictionary
281
     1
  3
A0
350
3834
  3
A1
350
3835
  3
A2
350
3836
  3
A3
350
3837
  3
A4
350
3838
  3
A5
350
3839
  3
A6
350
383A
  3
A7
350
383B
  3
A8
350
383C
  3
A9
350
383D
  3
B0
350
383E
  3
B1
350
383F
  3
B2
350
3840
  3
B3
350
3841
  3
B4
350
3842
  3
B5
350
3843
  3
B6
350
3844
  3
B7
350
3845
  3
B8
350
3846
  3
B9
350
3847
  3
C0
350
3848
  3
C1
350
3849
  3
C2
350
384A
  3
C3
350
384B
  3
C4
350
384C
  3
C5
350
384D
  3
C6
350
384E
  3
C7
350
384F
  3
C8
350
3850
  3
C9
350
3851
  3
D0
350
3852
  3
D1
350
3853
  3
D2
350
3854
  0
DICTIONARY
  5
145
102
{ACAD_REACTORS
330
1A
102
}
330
1A
100
AcDbDictionary
281
     1
  3
Standard
350
146
  0
DICTIONARY
  5
3822
102
{ACAD_REACTORS
330
1A
102
}
330
1A
100
AcDbDictionary
281
     1
  3
2dWireframe
350
3828
  3
3D Hidden
350
382A
  3
3dWireframe
350
3829
  3
Basic
350
3827
  3
Brighten
350
382E
  3
ColorChange
350
3832
  3
Conceptual
350
382B
  3
Dim
350
382D
  3
Facepattern
350
3831
  3
Flat
350
3823
  3
FlatWithEdges
350
3824
  3
Gouraud
350
3825
  3
GouraudWithEdges
350
3826
  3
Linepattern
350
3830
  3
Realistic
350
382C
  3
Thicken
350
382F
  0
XRECORD
  5
3872
102
{ACAD_REACTORS
330
1A
102
}
330
1A
100
AcDbXrecord
280
     1
 90
        1
330
146
  0
DICTIONARY
  5
1D1
102
{ACAD_REACTORS
330
1A
102
}
330
1A
100
AcDbDictionary
281
     1
  3
CANNOSCALE
350
386D
  3
CMLEADERSTYLE
350
386C
  3
CTABLESTYLE
350
1D2
  3
DIMASSOC
350
D03
  3
INDEXCTL
350
386F
  3
PROJECTNAME
350
D04
  3
SORTENTS
350
386E
  0
XRECORD
  5
3873
102
{ACAD_REACTORS
330
1A
102
}
330
1A
100
AcDbXrecord
280
     1
  1
DWGPROPS COOKIE
  2

  3

  4

  6

  7

  8
y.kohno
  9

300
=
301
=
302
=
303
=
304
=
305
=
306
=
307
=
308
=
309
=
 40
0.1350395717592593
 41
2450623.654673033
 42
2454902.575733843
  1

 90
        0
  0
DICTIONARY
  5
1C2
102
{ACAD_REACTORS
330
1B4
102
}
330
1B4
100
AcDbDictionary
281
     1
  0
DICTIONARY
  5
1C1
102
{ACAD_REACTORS
330
1B4
102
}
330
1B4
100
AcDbDictionary
281
     1
1001
ACAD
1000
<All
  0
XRECORD
  5
3863
102
{ACAD_REACTORS
330
3862
102
}
330
3862
100
AcDbXrecord
280
     1
290
     1
  0
XRECORD
  5
3865
102
{ACAD_REACTORS
330
3864
102
}
330
3864
100
AcDbXrecord
280
     1
290
     1
  0
XRECORD
  5
3867
102
{ACAD_REACTORS
330
3866
102
}
330
3866
100
AcDbXrecord
280
     1
290
     1
  0
XRECORD
  5
3869
102
{ACAD_REACTORS
330
3868
102
}
330
3868
100
AcDbXrecord
280
     1
290
     1
  0
XRECORD
  5
386B
102
{ACAD_REACTORS
330
386A
102
}
330
386A
100
AcDbXrecord
280
     1
290
     1
  0
SORTENTSTABLE
  5
1579
102
{ACAD_REACTORS
330
1578
102
}
330
1578
100
AcDbSortentsTable
330
2
331
20
  5
20
331
1F
  5
1F
331
23
  5
23
331
21
  5
21
  0
GROUP
  5
CFC
102
{ACAD_REACTORS
330
18
102
}
330
18
100
AcDbGroup
300

 70
     1
 71
     1
  0
GROUP
  5
2FBC
102
{ACAD_REACTORS
330
18
102
}
330
18
100
AcDbGroup
300

 70
     1
 71
     1
  0
GROUP
  5
312A
102
{ACAD_REACTORS
330
18
102
}
330
18
100
AcDbGroup
300

 70
     1
 71
     1
  0
GROUP
  5
1682
102
{ACAD_REACTORS
330
18
102
}
330
18
100
AcDbGroup
300

 70
     1
 71
     1
  0
GROUP
  5
15D1
102
{ACAD_REACTORS
330
18
102
}
330
18
100
AcDbGroup
300

 70
     1
 71
     1
  0
GROUP
  5
3154
102
{ACAD_REACTORS
330
18
102
}
330
18
100
AcDbGroup
300

 70
     1
 71
     1
  0
GROUP
  5
327B
102
{ACAD_REACTORS
330
18
102
}
330
18
100
AcDbGroup
300

 70
     1
 71
     1
  0
GROUP
  5
32AA
102
{ACAD_REACTORS
330
18
102
}
330
18
100
AcDbGroup
300

 70
     1
 71
     1
  0
GROUP
  5
3650
102
{ACAD_REACTORS
330
18
102
}
330
18
100
AcDbGroup
300

 70
     1
 71
     1
  0
GROUP
  5
367C
102
{ACAD_REACTORS
330
18
102
}
330
18
100
AcDbGroup
300

 70
     1
 71
     1
  0
GROUP
  5
1827
102
{ACAD_REACTORS
330
18
102
}
330
18
100
AcDbGroup
300

 70
     1
 71
     1
  0
GROUP
  5
37CF
102
{ACAD_REACTORS
330
18
102
}
330
18
100
AcDbGroup
300

 70
     1
 71
     1
340
37AF
340
37AE
340
37AD
340
37AC
340
37AB
340
37AA
340
37A9
340
37A8
340
37A7
340
37A6
340
37A5
340
37A4
340
37A3
340
37A2
340
37A1
340
37A0
340
379F
340
379E
340
379D
340
379C
340
379B
340
379A
340
3799
340
3798
340
3797
340
3796
340
3795
340
3794
340
3793
340
3792
340
3791
340
3790
340
378F
340
378E
340
378D
340
378C
340
378B
340
378A
340
3789
340
3788
340
3787
340
3786
340
3785
  0
GROUP
  5
218C
102
{ACAD_REACTORS
330
18
102
}
330
18
100
AcDbGroup
300

 70
     1
 71
     1
  0
GROUP
  5
18ED
102
{ACAD_REACTORS
330
18
102
}
330
18
100
AcDbGroup
300

 70
     1
 71
     1
  0
GROUP
  5
19E5
102
{ACAD_REACTORS
330
18
102
}
330
18
100
AcDbGroup
300

 70
     1
 71
     1
  0
GROUP
  5
1F8A
102
{ACAD_REACTORS
330
18
102
}
330
18
100
AcDbGroup
300

 70
     1
 71
     1
  0
GROUP
  5
2108
102
{ACAD_REACTORS
330
18
102
}
330
18
100
AcDbGroup
300

 70
     1
 71
     1
  0
GROUP
  5
3732
102
{ACAD_REACTORS
330
18
102
}
330
18
100
AcDbGroup
300

 70
     1
 71
     1
  0
GROUP
  5
2335
102
{ACAD_REACTORS
330
18
102
}
330
18
100
AcDbGroup
300

 70
     1
 71
     1
  0
GROUP
  5
2FE9
102
{ACAD_REACTORS
330
18
102
}
330
18
100
AcDbGroup
300

 70
     1
 71
     1
  0
GROUP
  5
2862
102
{ACAD_REACTORS
330
18
102
}
330
18
100
AcDbGroup
300

 70
     1
 71
     1
  0
GROUP
  5
299B
102
{ACAD_REACTORS
330
18
102
}
330
18
100
AcDbGroup
300

 70
     1
 71
     1
  0
GROUP
  5
2C07
102
{ACAD_REACTORS
330
18
102
}
330
18
100
AcDbGroup
300

 70
     1
 71
     1
  0
GROUP
  5
2DB5
102
{ACAD_REACTORS
330
18
102
}
330
18
100
AcDbGroup
300

 70
     1
 71
     1
  0
GROUP
  5
2E88
102
{ACAD_REACTORS
330
18
102
}
330
18
100
AcDbGroup
300

 70
     1
 71
     1
  0
LAYOUT
  5
5A
102
{ACAD_XDICTIONARY
360
3874
102
}
102
{ACAD_REACTORS
330
58
102
}
330
58
100
AcDbPlotSettings
  1

  2
なし
  4

  6

 40
0.0
 41
0.0
 42
0.0
 43
0.0
 44
0.0
 45
0.0
 46
0.0
 47
0.0
 48
0.0
 49
0.0
140
0.0
141
0.0
142
1.0
143
1.0
 70
  1712
 72
     0
 73
     0
 74
     0
  7
monochrome.ctb
 75
     0
147
1.0
148
0.0
149
0.0
100
AcDbLayout
  1
Model
 70
     1
 71
     0
 10
0.0
 20
0.0
 11
12.0
 21
9.0
 12
0.0
 22
0.0
 32
0.0
 14
0.0
 24
0.0
 34
0.0
 15
0.0
 25
0.0
 35
0.0
146
0.0
 13
0.0
 23
0.0
 33
0.0
 16
1.0
 26
0.0
 36
0.0
 17
0.0
 27
1.0
 37
0.0
 76
     0
330
2
331
3800
  0
LAYOUT
  5
5B
102
{ACAD_XDICTIONARY
360
3876
102
}
102
{ACAD_REACTORS
330
58
102
}
330
58
100
AcDbPlotSettings
  1

  2
なし
  4

  6

 40
0.0
 41
0.0
 42
0.0
 43
0.0
 44
0.0
 45
0.0
 46
0.0
 47
0.0
 48
0.0
 49
0.0
140
0.0
141
0.0
142
1.0
143
1.0
 70
   688
 72
     0
 73
     0
 74
     5
  7
monochrome.ctb
 75
    16
147
1.0
148
0.0
149
0.0
100
AcDbLayout
  1
ﾚｲｱｳﾄ1
 70
     1
 71
     1
 10
0.0
 20
0.0
 11
12.0
 21
9.0
 12
0.0
 22
0.0
 32
0.0
 14
1.000000000000000E+20
 24
1.000000000000000E+20
 34
1.000000000000000E+20
 15
-1.000000000000000E+20
 25
-1.000000000000000E+20
 35
-1.000000000000000E+20
146
0.0
 13
0.0
 23
0.0
 33
0.0
 16
1.0
 26
0.0
 36
0.0
 17
0.0
 27
1.0
 37
0.0
 76
     0
330
7
  0
MATERIAL
  5
3812
102
{ACAD_XDICTIONARY
360
3813
102
}
102
{ACAD_REACTORS
330
143
102
}
330
143
100
AcDbMaterial
  1
ByBlock
 72
     0
 43
0.0208333333333333
 43
0.0
 43
0.0
 43
0.0
 43
0.0
 43
0.0208333333333333
 43
0.0
 43
0.0
 43
0.0
 43
0.0
 43
1.0
 43
0.0
 43
0.0
 43
0.0
 43
0.0
 43
1.0
 77
     0
 47
0.0208333333333333
 47
0.0
 47
0.0
 47
0.0
 47
0.0
 47
0.0208333333333333
 47
0.0
 47
0.0
 47
0.0
 47
0.0
 47
1.0
 47
0.0
 47
0.0
 47
0.0
 47
0.0
 47
1.0
171
     0
 49
0.0208333333333333
 49
0.0
 49
0.0
 49
0.0
 49
0.0
 49
0.0208333333333333
 49
0.0
 49
0.0
 49
0.0
 49
0.0
 49
1.0
 49
0.0
 49
0.0
 49
0.0
 49
0.0
 49
1.0
175
     0
142
0.0208333333333333
142
0.0
142
0.0
142
0.0
142
0.0
142
0.0208333333333333
142
0.0
142
0.0
142
0.0
142
0.0
142
1.0
142
0.0
142
0.0
142
0.0
142
0.0
142
1.0
179
     0
144
0.0208333333333333
144
0.0
144
0.0
144
0.0
144
0.0
144
0.0208333333333333
144
0.0
144
0.0
144
0.0
144
0.0
144
1.0
144
0.0
144
0.0
144
0.0
144
0.0
144
1.0
147
0.0208333333333333
147
0.0
147
0.0
147
0.0
147
0.0
147
0.0208333333333333
147
0.0
147
0.0
147
0.0
147
0.0
147
1.0
147
0.0
147
0.0
147
0.0
147
0.0
147
1.0
  0
MATERIAL
  5
380A
102
{ACAD_XDICTIONARY
360
380B
102
}
102
{ACAD_REACTORS
330
143
102
}
330
143
100
AcDbMaterial
  1
ByLayer
 72
     0
 43
0.0208333333333333
 43
0.0
 43
0.0
 43
0.0
 43
0.0
 43
0.0208333333333333
 43
0.0
 43
0.0
 43
0.0
 43
0.0
 43
1.0
 43
0.0
 43
0.0
 43
0.0
 43
0.0
 43
1.0
 77
     0
 47
0.0208333333333333
 47
0.0
 47
0.0
 47
0.0
 47
0.0
 47
0.0208333333333333
 47
0.0
 47
0.0
 47
0.0
 47
0.0
 47
1.0
 47
0.0
 47
0.0
 47
0.0
 47
0.0
 47
1.0
171
     0
 49
0.0208333333333333
 49
0.0
 49
0.0
 49
0.0
 49
0.0
 49
0.0208333333333333
 49
0.0
 49
0.0
 49
0.0
 49
0.0
 49
1.0
 49
0.0
 49
0.0
 49
0.0
 49
0.0
 49
1.0
175
     0
142
0.0208333333333333
142
0.0
142
0.0
142
0.0
142
0.0
142
0.0208333333333333
142
0.0
142
0.0
142
0.0
142
0.0
142
1.0
142
0.0
142
0.0
142
0.0
142
0.0
142
1.0
179
     0
144
0.0208333333333333
144
0.0
144
0.0
144
0.0
144
0.0
144
0.0208333333333333
144
0.0
144
0.0
144
0.0
144
0.0
144
1.0
144
0.0
144
0.0
144
0.0
144
0.0
144
1.0
147
0.0208333333333333
147
0.0
147
0.0
147
0.0
147
0.0
147
0.0208333333333333
147
0.0
147
0.0
147
0.0
147
0.0
147
1.0
147
0.0
147
0.0
147
0.0
147
0.0
147
1.0
  0
MATERIAL
  5
381A
102
{ACAD_XDICTIONARY
360
381B
102
}
102
{ACAD_REACTORS
330
143
102
}
330
143
100
AcDbMaterial
  1
Global
 72
     0
 43
0.0208333333333333
 43
0.0
 43
0.0
 43
0.0
 43
0.0
 43
0.0208333333333333
 43
0.0
 43
0.0
 43
0.0
 43
0.0
 43
1.0
 43
0.0
 43
0.0
 43
0.0
 43
0.0
 43
1.0
 77
     0
 47
0.0208333333333333
 47
0.0
 47
0.0
 47
0.0
 47
0.0
 47
0.0208333333333333
 47
0.0
 47
0.0
 47
0.0
 47
0.0
 47
1.0
 47
0.0
 47
0.0
 47
0.0
 47
0.0
 47
1.0
171
     0
 49
0.0208333333333333
 49
0.0
 49
0.0
 49
0.0
 49
0.0
 49
0.0208333333333333
 49
0.0
 49
0.0
 49
0.0
 49
0.0
 49
1.0
 49
0.0
 49
0.0
 49
0.0
 49
0.0
 49
1.0
175
     0
142
0.0208333333333333
142
0.0
142
0.0
142
0.0
142
0.0
142
0.0208333333333333
142
0.0
142
0.0
142
0.0
142
0.0
142
1.0
142
0.0
142
0.0
142
0.0
142
0.0
142
1.0
179
     0
144
0.0208333333333333
144
0.0
144
0.0
144
0.0
144
0.0
144
0.0208333333333333
144
0.0
144
0.0
144
0.0
144
0.0
144
1.0
144
0.0
144
0.0
144
0.0
144
0.0
144
1.0
147
0.0208333333333333
147
0.0
147
0.0
147
0.0
147
0.0
147
0.0208333333333333
147
0.0
147
0.0
147
0.0
147
0.0
147
1.0
147
0.0
147
0.0
147
0.0
147
0.0
147
1.0
  0
MLEADERSTYLE
  5
3856
102
{ACAD_REACTORS
330
3855
102
}
330
3855
100
AcDbMLeaderStyle
170
     2
171
     1
172
     0
 90
        2
 40
0.0
 41
0.0
173
     1
 91
-1056964608
340
E
 92
       -2
290
     1
 42
0.09
291
     1
 43
0.36
  3
Standard
 44
0.18
300

342
C
174
     1
178
     6
175
     1
176
     0
 93
-1056964608
 45
0.18
292
     0
297
     0
 46
0.18
 94
-1056964608
 47
1.0
 49
1.0
140
1.0
293
     1
141
0.0
294
     1
177
     0
142
1.0
295
     0
296
     0
143
0.125
1001
ACAD_MLEADERVER
1070
     2
  0
MLINESTYLE
  5
1D
102
{ACAD_REACTORS
330
19
102
}
330
19
100
AcDbMlineStyle
  2
STANDARD
 70
     0
  3

 62
   256
 51
90.0
 52
90.0
 71
     2
 49
0.5
 62
   256
  6
BYLAYER
 49
-0.5
 62
   256
  6
BYLAYER
  0
ACDBPLACEHOLDER
  5
57
102
{ACAD_REACTORS
330
56
102
}
330
56
  0
SCALE
  5
3834
102
{ACAD_REACTORS
330
3833
102
}
330
3833
100
AcDbScale
 70
     0
300
1:1
140
1.0
141
1.0
290
     1
  0
SCALE
  5
3835
102
{ACAD_REACTORS
330
3833
102
}
330
3833
100
AcDbScale
 70
     0
300
1:2
140
1.0
141
2.0
290
     0
  0
SCALE
  5
3836
102
{ACAD_REACTORS
330
3833
102
}
330
3833
100
AcDbScale
 70
     0
300
1:4
140
1.0
141
4.0
290
     0
  0
SCALE
  5
3837
102
{ACAD_REACTORS
330
3833
102
}
330
3833
100
AcDbScale
 70
     0
300
1:5
140
1.0
141
5.0
290
     0
  0
SCALE
  5
3838
102
{ACAD_REACTORS
330
3833
102
}
330
3833
100
AcDbScale
 70
     0
300
1:8
140
1.0
141
8.0
290
     0
  0
SCALE
  5
3839
102
{ACAD_REACTORS
330
3833
102
}
330
3833
100
AcDbScale
 70
     0
300
1:10
140
1.0
141
10.0
290
     0
  0
SCALE
  5
383A
102
{ACAD_REACTORS
330
3833
102
}
330
3833
100
AcDbScale
 70
     0
300
1:16
140
1.0
141
16.0
290
     0
  0
SCALE
  5
383B
102
{ACAD_REACTORS
330
3833
102
}
330
3833
100
AcDbScale
 70
     0
300
1:20
140
1.0
141
20.0
290
     0
  0
SCALE
  5
383C
102
{ACAD_REACTORS
330
3833
102
}
330
3833
100
AcDbScale
 70
     0
300
1:30
140
1.0
141
30.0
290
     0
  0
SCALE
  5
383D
102
{ACAD_REACTORS
330
3833
102
}
330
3833
100
AcDbScale
 70
     0
300
1:40
140
1.0
141
40.0
290
     0
  0
SCALE
  5
383E
102
{ACAD_REACTORS
330
3833
102
}
330
3833
100
AcDbScale
 70
     0
300
1:50
140
1.0
141
50.0
290
     0
  0
SCALE
  5
383F
102
{ACAD_REACTORS
330
3833
102
}
330
3833
100
AcDbScale
 70
     0
300
1:100
140
1.0
141
100.0
290
     0
  0
SCALE
  5
3840
102
{ACAD_REACTORS
330
3833
102
}
330
3833
100
AcDbScale
 70
     0
300
2:1
140
2.0
141
1.0
290
     0
  0
SCALE
  5
3841
102
{ACAD_REACTORS
330
3833
102
}
330
3833
100
AcDbScale
 70
     0
300
4:1
140
4.0
141
1.0
290
     0
  0
SCALE
  5
3842
102
{ACAD_REACTORS
330
3833
102
}
330
3833
100
AcDbScale
 70
     0
300
8:1
140
8.0
141
1.0
290
     0
  0
SCALE
  5
3843
102
{ACAD_REACTORS
330
3833
102
}
330
3833
100
AcDbScale
 70
     0
300
10:1
140
10.0
141
1.0
290
     0
  0
SCALE
  5
3844
102
{ACAD_REACTORS
330
3833
102
}
330
3833
100
AcDbScale
 70
     0
300
100:1
140
100.0
141
1.0
290
     0
  0
SCALE
  5
3845
102
{ACAD_REACTORS
330
3833
102
}
330
3833
100
AcDbScale
 70
     0
300
1/128" = 1'-0"
140
0.0078125
141
12.0
290
     0
  0
SCALE
  5
3846
102
{ACAD_REACTORS
330
3833
102
}
330
3833
100
AcDbScale
 70
     0
300
1/64" = 1'-0"
140
0.015625
141
12.0
290
     0
  0
SCALE
  5
3847
102
{ACAD_REACTORS
330
3833
102
}
330
3833
100
AcDbScale
 70
     0
300
1/32" = 1'-0"
140
0.03125
141
12.0
290
     0
  0
SCALE
  5
3848
102
{ACAD_REACTORS
330
3833
102
}
330
3833
100
AcDbScale
 70
     0
300
1/16" = 1'-0"
140
0.0625
141
12.0
290
     0
  0
SCALE
  5
3849
102
{ACAD_REACTORS
330
3833
102
}
330
3833
100
AcDbScale
 70
     0
300
3/32" = 1'-0"
140
0.09375
141
12.0
290
     0
  0
SCALE
  5
384A
102
{ACAD_REACTORS
330
3833
102
}
330
3833
100
AcDbScale
 70
     0
300
1/8" = 1'-0"
140
0.125
141
12.0
290
     0
  0
SCALE
  5
384B
102
{ACAD_REACTORS
330
3833
102
}
330
3833
100
AcDbScale
 70
     0
300
3/16" = 1'-0"
140
0.1875
141
12.0
290
     0
  0
SCALE
  5
384C
102
{ACAD_REACTORS
330
3833
102
}
330
3833
100
AcDbScale
 70
     0
300
1/4" = 1'-0"
140
0.25
141
12.0
290
     0
  0
SCALE
  5
384D
102
{ACAD_REACTORS
330
3833
102
}
330
3833
100
AcDbScale
 70
     0
300
3/8" = 1'-0"
140
0.375
141
12.0
290
     0
  0
SCALE
  5
384E
102
{ACAD_REACTORS
330
3833
102
}
330
3833
100
AcDbScale
 70
     0
300
1/2" = 1'-0"
140
0.5
141
12.0
290
     0
  0
SCALE
  5
384F
102
{ACAD_REACTORS
330
3833
102
}
330
3833
100
AcDbScale
 70
     0
300
3/4" = 1'-0"
140
0.75
141
12.0
290
     0
  0
SCALE
  5
3850
102
{ACAD_REACTORS
330
3833
102
}
330
3833
100
AcDbScale
 70
     0
300
1" = 1'-0"
140
1.0
141
12.0
290
     0
  0
SCALE
  5
3851
102
{ACAD_REACTORS
330
3833
102
}
330
3833
100
AcDbScale
 70
     0
300
1-1/2" = 1'-0"
140
1.5
141
12.0
290
     0
  0
SCALE
  5
3852
102
{ACAD_REACTORS
330
3833
102
}
330
3833
100
AcDbScale
 70
     0
300
3" = 1'-0"
140
3.0
141
12.0
290
     0
  0
SCALE
  5
3853
102
{ACAD_REACTORS
330
3833
102
}
330
3833
100
AcDbScale
 70
     0
300
6" = 1'-0"
140
6.0
141
12.0
290
     0
  0
SCALE
  5
3854
102
{ACAD_REACTORS
330
3833
102
}
330
3833
100
AcDbScale
 70
     0
300
1'-0" = 1'-0"
140
12.0
141
12.0
290
     0
  0
TABLESTYLE
  5
146
102
{ACAD_XDICTIONARY
360
3870
102
}
102
{ACAD_REACTORS
330
145
102
}
330
145
100
AcDbTableStyle
  3
Standard
 70
     0
 71
     0
 40
0.06
 41
0.06
280
     0
281
     0
  7
STANDARD
140
0.18
170
     2
 62
     0
 63
     7
283
     0
274
    -2
284
     1
 64
     0
275
    -2
285
     1
 65
     0
276
    -2
286
     1
 66
     0
277
    -2
287
     1
 67
     0
278
    -2
288
     1
 68
     0
279
    -2
289
     1
 69
     0
  7
STANDARD
140
0.25
170
     5
 62
     0
 63
     7
283
     0
274
    -2
284
     1
 64
     0
275
    -2
285
     1
 65
     0
276
    -2
286
     1
 66
     0
277
    -2
287
     1
 67
     0
278
    -2
288
     1
 68
     0
279
    -2
289
     1
 69
     0
  7
STANDARD
140
0.18
170
     5
 62
     0
 63
     7
283
     0
274
    -2
284
     1
 64
     0
275
    -2
285
     1
 65
     0
276
    -2
286
     1
 66
     0
277
    -2
287
     1
 67
     0
278
    -2
288
     1
 68
     0
279
    -2
289
     1
 69
     0
  0
VISUALSTYLE
  5
3828
102
{ACAD_REACTORS
330
3822
102
}
330
3822
100
AcDbVisualStyle
  2
2dWireframe
 70
     4
 71
     0
 72
     2
 73
     0
 90
        0
 40
-0.6
 41
-30.0
 62
     5
 63
     7
 74
     1
 91
        4
 64
     7
 65
   257
 75
     1
175
     1
 42
1.0
 92
        0
 66
   257
 43
1.0
 76
     1
 77
     6
 78
     2
 67
     7
 79
     5
170
     0
171
     0
290
     0
174
     0
 93
        1
 44
0.0
173
     0
291
     0
 45
0.0
1001
ACAD
1000
AcDbSavedByObjectVersion
1070
     0
  0
VISUALSTYLE
  5
382A
102
{ACAD_REACTORS
330
3822
102
}
330
3822
100
AcDbVisualStyle
  2
3D Hidden
 70
     6
 71
     1
 72
     2
 73
     2
 90
        0
 40
-0.6
 41
-30.0
 62
     5
 63
     7
 74
     2
 91
        2
 64
     7
 65
   257
 75
     2
175
     1
 42
40.0
 92
        0
 66
   257
 43
1.0
 76
     1
 77
     6
 78
     2
 67
     7
 79
     3
170
     0
171
     0
290
     0
174
     0
 93
        1
 44
0.0
173
     0
291
     0
 45
0.0
1001
ACAD
1000
AcDbSavedByObjectVersion
1070
     0
  0
VISUALSTYLE
  5
3829
102
{ACAD_REACTORS
330
3822
102
}
330
3822
100
AcDbVisualStyle
  2
3dWireframe
 70
     5
 71
     0
 72
     2
 73
     0
 90
        0
 40
-0.6
 41
-30.0
 62
     5
 63
     7
 74
     1
 91
        4
 64
     7
 65
   257
 75
     1
175
     1
 42
1.0
 92
        0
 66
   257
 43
1.0
 76
     1
 77
     6
 78
     2
 67
     7
 79
     5
170
     0
171
     0
290
     0
174
     0
 93
        1
 44
0.0
173
     0
291
     0
 45
0.0
1001
ACAD
1000
AcDbSavedByObjectVersion
1070
     0
  0
VISUALSTYLE
  5
3827
102
{ACAD_REACTORS
330
3822
102
}
330
3822
100
AcDbVisualStyle
  2
Basic
 70
     7
 71
     1
 72
     0
 73
     1
 90
        0
 40
-0.6
 41
-30.0
 62
     5
 63
     7
 74
     0
 91
        4
 64
     7
 65
   257
 75
     1
175
     1
 42
1.0
 92
        8
 66
     7
 43
1.0
 76
     1
 77
     6
 78
     2
 67
     7
 79
     5
170
     0
171
     0
290
     0
174
     0
 93
        1
 44
0.0
173
     0
291
     1
 45
0.0
1001
ACAD
1000
AcDbSavedByObjectVersion
1070
     0
  0
VISUALSTYLE
  5
382E
102
{ACAD_REACTORS
330
3822
102
}
330
3822
100
AcDbVisualStyle
  2
Brighten
 70
    12
 71
     2
 72
     2
 73
     0
 90
        0
 40
-0.6
 41
-30.0
 62
     5
 63
     7
 74
     1
 91
        4
 64
     7
 65
   257
 75
     1
175
     1
 42
1.0
 92
        8
 66
     7
 43
1.0
 76
     1
 77
     6
 78
     2
 67
     7
 79
     5
170
     0
171
     0
290
     0
174
     0
 93
        1
 44
50.0
173
     0
291
     1
 45
0.0
1001
ACAD
1000
AcDbSavedByObjectVersion
1070
     0
  0
VISUALSTYLE
  5
3832
102
{ACAD_REACTORS
330
3822
102
}
330
3822
100
AcDbVisualStyle
  2
ColorChange
 70
    16
 71
     2
 72
     2
 73
     3
 90
        0
 40
-0.6
 41
-30.0
 62
     5
 63
     8
 74
     1
 91
        4
 64
     7
 65
   257
 75
     1
175
     1
 42
1.0
 92
        8
 66
     8
 43
1.0
 76
     1
 77
     6
 78
     2
 67
     7
 79
     5
170
     0
171
     0
290
     0
174
     0
 93
        1
 44
0.0
173
     0
291
     1
 45
0.0
1001
ACAD
1000
AcDbSavedByObjectVersion
1070
     0
  0
VISUALSTYLE
  5
382B
102
{ACAD_REACTORS
330
3822
102
}
330
3822
100
AcDbVisualStyle
  2
Conceptual
 70
     9
 71
     3
 72
     2
 73
     0
 90
        0
 40
-0.6
 41
-30.0
 62
     5
 63
     7
 74
     2
 91
        2
 64
     7
 65
   257
 75
     1
175
     1
 42
40.0
 92
        8
 66
     7
 43
1.0
 76
     1
 77
     6
 78
     2
 67
     7
 79
     3
170
     0
171
     0
290
     0
174
     0
 93
        1
 44
0.0
173
     0
291
     0
 45
0.0
1001
ACAD
1000
AcDbSavedByObjectVersion
1070
     0
  0
VISUALSTYLE
  5
382D
102
{ACAD_REACTORS
330
3822
102
}
330
3822
100
AcDbVisualStyle
  2
Dim
 70
    11
 71
     2
 72
     2
 73
     0
 90
        0
 40
-0.6
 41
-30.0
 62
     5
 63
     7
 74
     1
 91
        4
 64
     7
 65
   257
 75
     1
175
     1
 42
1.0
 92
        8
 66
     7
 43
1.0
 76
     1
 77
     6
 78
     2
 67
     7
 79
     5
170
     0
171
     0
290
     0
174
     0
 93
        1
 44
-50.0
173
     0
291
     1
 45
0.0
1001
ACAD
1000
AcDbSavedByObjectVersion
1070
     0
  0
VISUALSTYLE
  5
3831
102
{ACAD_REACTORS
330
3822
102
}
330
3822
100
AcDbVisualStyle
  2
Facepattern
 70
    15
 71
     2
 72
     2
 73
     0
 90
        0
 40
-0.6
 41
-30.0
 62
     5
 63
     7
 74
     1
 91
        4
 64
     7
 65
   257
 75
     1
175
     1
 42
1.0
 92
        8
 66
     7
 43
1.0
 76
     1
 77
     6
 78
     2
 67
     7
 79
     5
170
     0
171
     0
290
     0
174
     0
 93
        1
 44
0.0
173
     0
291
     1
 45
0.0
1001
ACAD
1000
AcDbSavedByObjectVersion
1070
     0
  0
VISUALSTYLE
  5
3823
102
{ACAD_REACTORS
330
3822
102
}
330
3822
100
AcDbVisualStyle
  2
Flat
 70
     0
 71
     2
 72
     1
 73
     1
 90
        2
 40
-0.6
 41
30.0
 62
     5
 63
     7
 74
     0
 91
        4
 64
     7
 65
   257
 75
     1
175
     1
 42
1.0
 92
        8
 66
     7
 43
1.0
 76
     1
 77
     6
 78
     2
 67
     7
 79
     5
170
     0
171
     0
290
     0
174
     0
 93
       13
 44
0.0
173
     0
291
     1
 45
0.0
1001
ACAD
1000
AcDbSavedByObjectVersion
1070
     0
  0
VISUALSTYLE
  5
3824
102
{ACAD_REACTORS
330
3822
102
}
330
3822
100
AcDbVisualStyle
  2
FlatWithEdges
 70
     1
 71
     2
 72
     1
 73
     1
 90
        2
 40
-0.6
 41
30.0
 62
     5
 63
     7
 74
     1
 91
        4
 64
     7
 65
   257
 75
     1
175
     1
 42
1.0
 92
        0
 66
   257
 43
1.0
 76
     1
 77
     6
 78
     2
 67
     7
 79
     5
170
     0
171
     0
290
     0
174
     0
 93
       13
 44
0.0
173
     0
291
     1
 45
0.0
1001
ACAD
1000
AcDbSavedByObjectVersion
1070
     0
  0
VISUALSTYLE
  5
3825
102
{ACAD_REACTORS
330
3822
102
}
330
3822
100
AcDbVisualStyle
  2
Gouraud
 70
     2
 71
     2
 72
     2
 73
     1
 90
        2
 40
-0.6
 41
30.0
 62
     5
 63
     7
 74
     0
 91
        4
 64
     7
 65
   257
 75
     1
175
     1
 42
1.0
 92
        0
 66
     7
 43
1.0
 76
     1
 77
     6
 78
     2
 67
     7
 79
     5
170
     0
171
     0
290
     0
174
     0
 93
       13
 44
0.0
173
     0
291
     1
 45
0.0
1001
ACAD
1000
AcDbSavedByObjectVersion
1070
     0
  0
VISUALSTYLE
  5
3826
102
{ACAD_REACTORS
330
3822
102
}
330
3822
100
AcDbVisualStyle
  2
GouraudWithEdges
 70
     3
 71
     2
 72
     2
 73
     1
 90
        2
 40
-0.6
 41
30.0
 62
     5
 63
     7
 74
     1
 91
        4
 64
     7
 65
   257
 75
     1
175
     1
 42
1.0
 92
        0
 66
   257
 43
1.0
 76
     1
 77
     6
 78
     2
 67
     7
 79
     5
170
     0
171
     0
290
     0
174
     0
 93
       13
 44
0.0
173
     0
291
     1
 45
0.0
1001
ACAD
1000
AcDbSavedByObjectVersion
1070
     0
  0
VISUALSTYLE
  5
3830
102
{ACAD_REACTORS
330
3822
102
}
330
3822
100
AcDbVisualStyle
  2
Linepattern
 70
    14
 71
     2
 72
     2
 73
     0
 90
        0
 40
-0.6
 41
-30.0
 62
     5
 63
     7
 74
     1
 91
        4
 64
     7
 65
   257
 75
     7
175
     7
 42
1.0
 92
        8
 66
     7
 43
1.0
 76
     1
 77
     6
 78
     2
 67
     7
 79
     5
170
     0
171
     0
290
     0
174
     0
 93
        1
 44
0.0
173
     0
291
     1
 45
0.0
1001
ACAD
1000
AcDbSavedByObjectVersion
1070
     0
  0
VISUALSTYLE
  5
382C
102
{ACAD_REACTORS
330
3822
102
}
330
3822
100
AcDbVisualStyle
  2
Realistic
 70
     8
 71
     2
 72
     2
 73
     0
 90
        0
 40
-0.6
 41
-30.0
 62
     5
 63
     7
 74
     1
 91
        0
 64
     7
 65
   257
 75
     1
175
     1
 42
1.0
 92
        8
 66
     8
 43
1.0
 76
     1
 77
     6
 78
     2
 67
     7
 79
     5
170
     0
171
     0
290
     0
174
     0
 93
       13
 44
0.0
173
     0
291
     0
 45
0.0
1001
ACAD
1000
AcDbSavedByObjectVersion
1070
     0
  0
VISUALSTYLE
  5
382F
102
{ACAD_REACTORS
330
3822
102
}
330
3822
100
AcDbVisualStyle
  2
Thicken
 70
    13
 71
     2
 72
     2
 73
     0
 90
        0
 40
-0.6
 41
-30.0
 62
     5
 63
     7
 74
     1
 91
        4
 64
     7
 65
   257
 75
     1
175
     1
 42
1.0
 92
       12
 66
     7
 43
1.0
 76
     1
 77
     6
 78
     2
 67
     7
 79
     5
170
     0
171
     0
290
     0
174
     0
 93
        1
 44
0.0
173
     0
291
     1
 45
0.0
1001
ACAD
1000
AcDbSavedByObjectVersion
1070
     0
  0
DICTIONARYVAR
  5
386D
102
{ACAD_REACTORS
330
1D1
102
}
330
1D1
100
DictionaryVariables
280
     0
  1
1:1
  0
DICTIONARYVAR
  5
386C
102
{ACAD_REACTORS
330
1D1
102
}
330
1D1
100
DictionaryVariables
280
     0
  1
STANDARD
  0
DICTIONARYVAR
  5
1D2
102
{ACAD_REACTORS
330
1D1
102
}
330
1D1
100
DictionaryVariables
280
     0
  1
STANDARD
  0
DICTIONARYVAR
  5
D03
102
{ACAD_REACTORS
330
1D1
102
}
330
1D1
100
DictionaryVariables
280
     0
  1
1
  0
DICTIONARYVAR
  5
386F
102
{ACAD_REACTORS
330
1D1
102
}
330
1D1
100
DictionaryVariables
280
     0
  1
0
  0
DICTIONARYVAR
  5
D04
102
{ACAD_REACTORS
330
1D1
102
}
330
1D1
100
DictionaryVariables
280
     0
  1

  0
DICTIONARYVAR
  5
386E
102
{ACAD_REACTORS
330
1D1
102
}
330
1D1
100
DictionaryVariables
280
     0
  1
127
  0
DICTIONARY
  5
3874
330
5A
100
AcDbDictionary
280
     1
281
     1
  3
ACAD_XREC_ROUNDTRIP
360
3875
  0
DICTIONARY
  5
3876
330
5B
100
AcDbDictionary
280
     1
281
     1
  3
ACAD_XREC_ROUNDTRIP
360
3877
  0
DICTIONARY
  5
3813
330
3812
100
AcDbDictionary
280
     1
281
     1
  3
ACAD_XREC_ROUNDTRIP
360
387A
  3
BUMPTILE
360
3815
  3
DIFFUSETILE
360
3814
  3
OPACITYTILE
360
3818
  3
REFLECTIONTILE
360
3817
  3
REFRACTIONTILE
360
3819
  3
SPECULARTILE
360
3816
  0
DICTIONARY
  5
380B
330
380A
100
AcDbDictionary
280
     1
281
     1
  3
ACAD_XREC_ROUNDTRIP
360
3879
  3
BUMPTILE
360
380D
  3
DIFFUSETILE
360
380C
  3
OPACITYTILE
360
3810
  3
REFLECTIONTILE
360
380F
  3
REFRACTIONTILE
360
3811
  3
SPECULARTILE
360
380E
  0
DICTIONARY
  5
381B
330
381A
100
AcDbDictionary
280
     1
281
     1
  3
ACAD_XREC_ROUNDTRIP
360
387B
  3
BUMPTILE
360
381D
  3
DIFFUSETILE
360
381C
  3
OPACITYTILE
360
3820
  3
REFLECTIONTILE
360
381F
  3
REFRACTIONTILE
360
3821
  3
SPECULARTILE
360
381E
  0
DICTIONARY
  5
3870
330
146
100
AcDbDictionary
280
     1
281
     1
  3
ACAD_ROUNDTRIP_2008_TABLESTYLE_CELLSTYLEMAP
360
3871
  3
ACAD_XREC_ROUNDTRIP
360
3878
  0
XRECORD
  5
3875
102
{ACAD_REACTORS
330
3874
102
}
330
3874
100
AcDbXrecord
280
     1
102
SHADEPLOT
 70
     0
102
SHADEPLOTRESLEVEL
 70
     2
102
SHADEPLOTCUSTOMDPI
 70
   300
  0
XRECORD
  5
3877
102
{ACAD_REACTORS
330
3876
102
}
330
3876
100
AcDbXrecord
280
     1
102
SHADEPLOT
 70
     0
102
SHADEPLOTRESLEVEL
 70
     2
102
SHADEPLOTCUSTOMDPI
 70
   300
  0
XRECORD
  5
387A
102
{ACAD_REACTORS
330
3813
102
}
330
3813
100
AcDbXrecord
280
     1
102
MATERIAL
148
0.0
149
0.0
149
0.0
 93
        0
 94
      127
282
     0
 72
     0
 77
     0
171
     0
175
     0
179
     0
273
     0
  0
XRECORD
  5
3815
102
{ACAD_REACTORS
330
3813
102
}
330
3813
100
AcDbXrecord
280
     1
270
     1
271
     1
  0
XRECORD
  5
3814
102
{ACAD_REACTORS
330
3813
102
}
330
3813
100
AcDbXrecord
280
     1
270
     1
271
     1
  0
XRECORD
  5
3818
102
{ACAD_REACTORS
330
3813
102
}
330
3813
100
AcDbXrecord
280
     1
270
     1
271
     1
  0
XRECORD
  5
3817
102
{ACAD_REACTORS
330
3813
102
}
330
3813
100
AcDbXrecord
280
     1
270
     1
271
     1
  0
XRECORD
  5
3819
102
{ACAD_REACTORS
330
3813
102
}
330
3813
100
AcDbXrecord
280
     1
270
     1
271
     1
  0
XRECORD
  5
3816
102
{ACAD_REACTORS
330
3813
102
}
330
3813
100
AcDbXrecord
280
     1
270
     1
271
     1
  0
XRECORD
  5
3879
102
{ACAD_REACTORS
330
380B
102
}
330
380B
100
AcDbXrecord
280
     1
102
MATERIAL
148
0.0
149
0.0
149
0.0
 93
        0
 94
      127
282
     0
 72
     0
 77
     0
171
     0
175
     0
179
     0
273
     0
  0
XRECORD
  5
380D
102
{ACAD_REACTORS
330
380B
102
}
330
380B
100
AcDbXrecord
280
     1
270
     1
271
     1
  0
XRECORD
  5
380C
102
{ACAD_REACTORS
330
380B
102
}
330
380B
100
AcDbXrecord
280
     1
270
     1
271
     1
  0
XRECORD
  5
3810
102
{ACAD_REACTORS
330
380B
102
}
330
380B
100
AcDbXrecord
280
     1
270
     1
271
     1
  0
XRECORD
  5
380F
102
{ACAD_REACTORS
330
380B
102
}
330
380B
100
AcDbXrecord
280
     1
270
     1
271
     1
  0
XRECORD
  5
3811
102
{ACAD_REACTORS
330
380B
102
}
330
380B
100
AcDbXrecord
280
     1
270
     1
271
     1
  0
XRECORD
  5
380E
102
{ACAD_REACTORS
330
380B
102
}
330
380B
100
AcDbXrecord
280
     1
270
     1
271
     1
  0
XRECORD
  5
387B
102
{ACAD_REACTORS
330
381B
102
}
330
381B
100
AcDbXrecord
280
     1
102
MATERIAL
148
0.0
149
0.0
149
0.0
 93
        0
 94
      127
282
     0
 72
     0
 77
     0
171
     0
175
     0
179
     0
273
     0
  0
XRECORD
  5
381D
102
{ACAD_REACTORS
330
381B
102
}
330
381B
100
AcDbXrecord
280
     1
270
     1
271
     1
  0
XRECORD
  5
381C
102
{ACAD_REACTORS
330
381B
102
}
330
381B
100
AcDbXrecord
280
     1
270
     1
271
     1
  0
XRECORD
  5
3820
102
{ACAD_REACTORS
330
381B
102
}
330
381B
100
AcDbXrecord
280
     1
270
     1
271
     1
  0
XRECORD
  5
381F
102
{ACAD_REACTORS
330
381B
102
}
330
381B
100
AcDbXrecord
280
     1
270
     1
271
     1
  0
XRECORD
  5
3821
102
{ACAD_REACTORS
330
381B
102
}
330
381B
100
AcDbXrecord
280
     1
270
     1
271
     1
  0
XRECORD
  5
381E
102
{ACAD_REACTORS
330
381B
102
}
330
381B
100
AcDbXrecord
280
     1
270
     1
271
     1
  0
CELLSTYLEMAP
  5
3871
102
{ACAD_REACTORS
330
3870
102
}
330
3870
100
AcDbCellStyleMap
 90
        3
300
CELLSTYLE
  1
TABLEFORMAT_BEGIN
 90
        5
170
     1
 91
        0
 92
    32768
 62
   257
 93
        1
300
CONTENTFORMAT
  1
CONTENTFORMAT_BEGIN
 90
        0
 91
        0
 92
        4
 93
        0
300

 40
0.0
140
1.0
 94
        5
 62
     0
340
C
144
0.25
309
CONTENTFORMAT_END
171
     0
 94
        6
 95
        1
302
GRIDFORMAT
  1
GRIDFORMAT_BEGIN
 90
        0
 91
        1
 62
     0
 92
       -2
340
0
 93
        0
 40
0.045
309
GRIDFORMAT_END
 95
        2
302
GRIDFORMAT
  1
GRIDFORMAT_BEGIN
 90
        0
 91
        1
 62
     0
 92
       -2
340
0
 93
        0
 40
0.045
309
GRIDFORMAT_END
 95
        4
302
GRIDFORMAT
  1
GRIDFORMAT_BEGIN
 90
        0
 91
        1
 62
     0
 92
       -2
340
0
 93
        0
 40
0.045
309
GRIDFORMAT_END
 95
        8
302
GRIDFORMAT
  1
GRIDFORMAT_BEGIN
 90
        0
 91
        1
 62
     0
 92
       -2
340
0
 93
        0
 40
0.045
309
GRIDFORMAT_END
 95
       16
302
GRIDFORMAT
  1
GRIDFORMAT_BEGIN
 90
        0
 91
        1
 62
     0
 92
       -2
340
0
 93
        0
 40
0.045
309
GRIDFORMAT_END
 95
       32
302
GRIDFORMAT
  1
GRIDFORMAT_BEGIN
 90
        0
 91
        1
 62
     0
 92
       -2
340
0
 93
        0
 40
0.045
309
GRIDFORMAT_END
309
TABLEFORMAT_END
  1
CELLSTYLE_BEGIN
 90
        1
 91
        1
300
_TITLE
309
CELLSTYLE_END
300
CELLSTYLE
  1
TABLEFORMAT_BEGIN
 90
        5
170
     1
 91
        0
 92
        0
 62
   257
 93
        1
300
CONTENTFORMAT
  1
CONTENTFORMAT_BEGIN
 90
        0
 91
        0
 92
        4
 93
        0
300

 40
0.0
140
1.0
 94
        5
 62
     0
340
C
144
0.18
309
CONTENTFORMAT_END
171
     0
 94
        6
 95
        1
302
GRIDFORMAT
  1
GRIDFORMAT_BEGIN
 90
        0
 91
        1
 62
     0
 92
       -2
340
0
 93
        0
 40
0.045
309
GRIDFORMAT_END
 95
        2
302
GRIDFORMAT
  1
GRIDFORMAT_BEGIN
 90
        0
 91
        1
 62
     0
 92
       -2
340
0
 93
        0
 40
0.045
309
GRIDFORMAT_END
 95
        4
302
GRIDFORMAT
  1
GRIDFORMAT_BEGIN
 90
        0
 91
        1
 62
     0
 92
       -2
340
0
 93
        0
 40
0.045
309
GRIDFORMAT_END
 95
        8
302
GRIDFORMAT
  1
GRIDFORMAT_BEGIN
 90
        0
 91
        1
 62
     0
 92
       -2
340
0
 93
        0
 40
0.045
309
GRIDFORMAT_END
 95
       16
302
GRIDFORMAT
  1
GRIDFORMAT_BEGIN
 90
        0
 91
        1
 62
     0
 92
       -2
340
0
 93
        0
 40
0.045
309
GRIDFORMAT_END
 95
       32
302
GRIDFORMAT
  1
GRIDFORMAT_BEGIN
 90
        0
 91
        1
 62
     0
 92
       -2
340
0
 93
        0
 40
0.045
309
GRIDFORMAT_END
309
TABLEFORMAT_END
  1
CELLSTYLE_BEGIN
 90
        2
 91
        1
300
_HEADER
309
CELLSTYLE_END
300
CELLSTYLE
  1
TABLEFORMAT_BEGIN
 90
        5
170
     1
 91
        0
 92
        0
 62
   257
 93
        1
300
CONTENTFORMAT
  1
CONTENTFORMAT_BEGIN
 90
        0
 91
        0
 92
        4
 93
        0
300

 40
0.0
140
1.0
 94
        2
 62
     0
340
C
144
0.18
309
CONTENTFORMAT_END
171
     0
 94
        6
 95
        1
302
GRIDFORMAT
  1
GRIDFORMAT_BEGIN
 90
        0
 91
        1
 62
     0
 92
       -2
340
0
 93
        0
 40
0.045
309
GRIDFORMAT_END
 95
        2
302
GRIDFORMAT
  1
GRIDFORMAT_BEGIN
 90
        0
 91
        1
 62
     0
 92
       -2
340
0
 93
        0
 40
0.045
309
GRIDFORMAT_END
 95
        4
302
GRIDFORMAT
  1
GRIDFORMAT_BEGIN
 90
        0
 91
        1
 62
     0
 92
       -2
340
0
 93
        0
 40
0.045
309
GRIDFORMAT_END
 95
        8
302
GRIDFORMAT
  1
GRIDFORMAT_BEGIN
 90
        0
 91
        1
 62
     0
 92
       -2
340
0
 93
        0
 40
0.045
309
GRIDFORMAT_END
 95
       16
302
GRIDFORMAT
  1
GRIDFORMAT_BEGIN
 90
        0
 91
        1
 62
     0
 92
       -2
340
0
 93
        0
 40
0.045
309
GRIDFORMAT_END
 95
       32
302
GRIDFORMAT
  1
GRIDFORMAT_BEGIN
 90
        0
 91
        1
 62
     0
 92
       -2
340
0
 93
        0
 40
0.045
309
GRIDFORMAT_END
309
TABLEFORMAT_END
  1
CELLSTYLE_BEGIN
 90
        3
 91
        2
300
_DATA
309
CELLSTYLE_END
  0
XRECORD
  5
3878
102
{ACAD_REACTORS
330
3870
102
}
330
3870
100
AcDbXrecord
280
     1
102
ACAD_ROUNDTRIP_PRE2007_TABLESTYLE
 90
        4
 91
        0
  1

 92
        4
 93
        0
  2

 94
        4
 95
        0
  3

  0
ENDSEC
  0
EOF
