  0
SECTION
  2
HEADER
  9
$ACADVER
  1
AC1015
  9
$ACADMAINTVER
 70
    20
  9
$DWGCODEPAGE
  3
ANSI_932
  9
$INSBASE
 10
922.019522
 20
-675.4306699999999
 30
0.0
  9
$EXTMIN
 10
-0.0184868748590361
 20
-0.0271718913477344
 30
-0.0000000000000053
  9
$EXTMAX
 10
141.26302222594
 20
605.1571025915977
 30
0.0000000000000099
  9
$LIMMIN
 10
0.0
 20
0.0
  9
$LIMMAX
 10
420.0
 20
297.0
  9
$ORTHOMODE
 70
     1
  9
$REGENMODE
 70
     1
  9
$FILLMODE
 70
     1
  9
$QTEXTMODE
 70
     0
  9
$MIRRTEXT
 70
     1
  9
$LTSCALE
 40
1.0
  9
$ATTMODE
 70
     1
  9
$TEXTSIZE
 40
30.0
  9
$TRACEWID
 40
0.05
  9
$TEXTSTYLE
  7
SUNPOU
  9
$CLAYER
  8
0
  9
$CELTYPE
  6
BYLAYER
  9
$CECOLOR
 62
   256
  9
$CELTSCALE
 40
1.0
  9
$DISPSILH
 70
     0
  9
$DIMSCALE
 40
1.0
  9
$DIMASZ
 40
2.0
  9
$DIMEXO
 40
10.0
  9
$DIMDLI
 40
0.38
  9
$DIMRND
 40
0.0
  9
$DIMDLE
 40
0.0
  9
$DIMEXE
 40
0.0
  9
$DIMTP
 40
0.0
  9
$DIMTM
 40
0.0
  9
$DIMTXT
 40
10.0
  9
$DIMCEN
 40
0.0
  9
$DIMTSZ
 40
0.0
  9
$DIMTOL
 70
     0
  9
$DIMLIM
 70
     0
  9
$DIMTIH
 70
     0
  9
$DIMTOH
 70
     0
  9
$DIMSE1
 70
     0
  9
$DIMSE2
 70
     0
  9
$DIMTAD
 70
     1
  9
$DIMZIN
 70
     0
  9
$DIMBLK
  1
Dot
  9
$DIMASO
 70
     1
  9
$DIMSHO
 70
     1
  9
$DIMPOST
  1

  9
$DIMAPOST
  1

  9
$DIMALT
 70
     0
  9
$DIMALTD
 70
     2
  9
$DIMALTF
 40
25.4
  9
$DIMLFAC
 40
1.0
  9
$DIMTOFL
 70
     0
  9
$DIMTVP
 40
0.0
  9
$DIMTIX
 70
     0
  9
$DIMSOXD
 70
     0
  9
$DIMSAH
 70
     0
  9
$DIMBLK1
  1

  9
$DIMBLK2
  1

  9
$DIMSTYLE
  2
STANDARD
  9
$DIMCLRD
 70
    60
  9
$DIMCLRE
 70
    70
  9
$DIMCLRT
 70
    60
  9
$DIMTFAC
 40
0.064286
  9
$DIMGAP
 40
3.0
  9
$DIMJUST
 70
     0
  9
$DIMSD1
 70
     0
  9
$DIMSD2
 70
     0
  9
$DIMTOLJ
 70
     1
  9
$DIMTZIN
 70
     0
  9
$DIMALTZ
 70
     0
  9
$DIMALTTZ
 70
     0
  9
$DIMUPT
 70
     0
  9
$DIMDEC
 70
     0
  9
$DIMTDEC
 70
     0
  9
$DIMALTU
 70
     2
  9
$DIMALTTD
 70
     2
  9
$DIMTXSTY
  7
SUNPOU
  9
$DIMAUNIT
 70
     0
  9
$DIMADEC
 70
     0
  9
$DIMALTRND
 40
0.0
  9
$DIMAZIN
 70
     0
  9
$DIMDSEP
 70
    46
  9
$DIMATFIT
 70
     3
  9
$DIMFRAC
 70
     0
  9
$DIMLDRBLK
  1

  9
$DIMLUNIT
 70
     2
  9
$DIMLWD
 70
    -2
  9
$DIMLWE
 70
    -2
  9
$DIMTMOVE
 70
     0
  9
$LUNITS
 70
     2
  9
$LUPREC
 70
     5
  9
$SKETCHINC
 40
0.1
  9
$FILLETRAD
 40
0.0
  9
$AUNITS
 70
     0
  9
$AUPREC
 70
     0
  9
$MENU
  1
acad
  9
$ELEVATION
 40
0.0
  9
$PELEVATION
 40
0.0
  9
$THICKNESS
 40
0.0
  9
$LIMCHECK
 70
     0
  9
$CHAMFERA
 40
0.0
  9
$CHAMFERB
 40
0.0
  9
$CHAMFERC
 40
0.0
  9
$CHAMFERD
 40
0.0
  9
$SKPOLY
 70
     0
  9
$TDCREATE
 40
2450623.654673033
  9
$TDUCREATE
 40
2450623.279673032
  9
$TDUPDATE
 40
2453938.655755023
  9
$TDUUPDATE
 40
2453938.280755023
  9
$TDINDWG
 40
0.6362033796
  9
$TDUSRTIMER
 40
0.6362032060
  9
$USRTIMER
 70
     1
  9
$ANGBASE
 50
0.0
  9
$ANGDIR
 70
     0
  9
$PDMODE
 70
     0
  9
$PDSIZE
 40
0.0
  9
$PLINEWID
 40
0.0
  9
$SPLFRAME
 70
     0
  9
$SPLINETYPE
 70
     6
  9
$SPLINESEGS
 70
     8
  9
$HANDSEED
  5
79B3
  9
$SURFTAB1
 70
     6
  9
$SURFTAB2
 70
     6
  9
$SURFTYPE
 70
     6
  9
$SURFU
 70
     6
  9
$SURFV
 70
     6
  9
$UCSBASE
  2

  9
$UCSNAME
  2

  9
$UCSORG
 10
0.0
 20
0.0
 30
0.0
  9
$UCSXDIR
 10
1.0
 20
0.0
 30
0.0
  9
$UCSYDIR
 10
0.0
 20
1.0
 30
0.0
  9
$UCSORTHOREF
  2

  9
$UCSORTHOVIEW
 70
     0
  9
$UCSORGTOP
 10
0.0
 20
0.0
 30
0.0
  9
$UCSORGBOTTOM
 10
0.0
 20
0.0
 30
0.0
  9
$UCSORGLEFT
 10
0.0
 20
0.0
 30
0.0
  9
$UCSORGRIGHT
 10
0.0
 20
0.0
 30
0.0
  9
$UCSORGFRONT
 10
0.0
 20
0.0
 30
0.0
  9
$UCSORGBACK
 10
0.0
 20
0.0
 30
0.0
  9
$PUCSBASE
  2

  9
$PUCSNAME
  2

  9
$PUCSORG
 10
0.0
 20
0.0
 30
0.0
  9
$PUCSXDIR
 10
1.0
 20
0.0
 30
0.0
  9
$PUCSYDIR
 10
0.0
 20
1.0
 30
0.0
  9
$PUCSORTHOREF
  2

  9
$PUCSORTHOVIEW
 70
     0
  9
$PUCSORGTOP
 10
0.0
 20
0.0
 30
0.0
  9
$PUCSORGBOTTOM
 10
0.0
 20
0.0
 30
0.0
  9
$PUCSORGLEFT
 10
0.0
 20
0.0
 30
0.0
  9
$PUCSORGRIGHT
 10
0.0
 20
0.0
 30
0.0
  9
$PUCSORGFRONT
 10
0.0
 20
0.0
 30
0.0
  9
$PUCSORGBACK
 10
0.0
 20
0.0
 30
0.0
  9
$USERI1
 70
     0
  9
$USERI2
 70
     0
  9
$USERI3
 70
     0
  9
$USERI4
 70
     0
  9
$USERI5
 70
     0
  9
$USERR1
 40
0.0
  9
$USERR2
 40
0.0
  9
$USERR3
 40
0.0
  9
$USERR4
 40
0.0
  9
$USERR5
 40
0.0
  9
$WORLDVIEW
 70
     1
  9
$SHADEDGE
 70
     3
  9
$SHADEDIF
 70
    70
  9
$TILEMODE
 70
     1
  9
$MAXACTVP
 70
    16
  9
$PINSBASE
 10
0.0
 20
0.0
 30
0.0
  9
$PLIMCHECK
 70
     0
  9
$PEXTMIN
 10
1.000000000000000E+20
 20
1.000000000000000E+20
 30
1.000000000000000E+20
  9
$PEXTMAX
 10
-1.000000000000000E+20
 20
-1.000000000000000E+20
 30
-1.000000000000000E+20
  9
$PLIMMIN
 10
0.0
 20
0.0
  9
$PLIMMAX
 10
12.0
 20
9.0
  9
$UNITMODE
 70
     0
  9
$VISRETAIN
 70
     0
  9
$PLINEGEN
 70
     0
  9
$PSLTSCALE
 70
     1
  9
$TREEDEPTH
 70
  3020
  9
$CMLSTYLE
  2
STANDARD
  9
$CMLJUST
 70
     0
  9
$CMLSCALE
 40
1.0
  9
$PROXYGRAPHICS
 70
     1
  9
$MEASUREMENT
 70
     0
  9
$CELWEIGHT
370
    -1
  9
$ENDCAPS
280
     0
  9
$JOINSTYLE
280
     0
  9
$LWDISPLAY
290
     0
  9
$INSUNITS
 70
     0
  9
$HYPERLINKBASE
  1

  9
$STYLESHEET
  1
monochrome.ctb
  9
$XEDIT
290
     1
  9
$CEPSNTYPE
380
     0
  9
$PSTYLEMODE
290
     1
  9
$FINGERPRINTGUID
  2
{FB88A696-E29C-4009-92AF-A3599A8169D5}
  9
$VERSIONGUID
  2
{CD3A4A54-B8E1-400C-A80E-E63E4D964530}
  9
$EXTNAMES
290
     1
  9
$PSVPSCALE
 40
0.0
  9
$OLESTARTUP
290
     0
  0
ENDSEC
  0
SECTION
  2
CLASSES
  0
CLASS
  1
DICTIONARYVAR
  2
AcDbDictionaryVar
  3
ObjectDBX Classes
 90
        0
280
     0
281
     0
  0
CLASS
  1
ACDBDICTIONARYWDFLT
  2
AcDbDictionaryWithDefault
  3
ObjectDBX Classes
 90
        0
280
     0
281
     0
  0
CLASS
  1
ACDBPLACEHOLDER
  2
AcDbPlaceHolder
  3
ObjectDBX Classes
 90
        0
280
     0
281
     0
  0
CLASS
  1
LAYOUT
  2
AcDbLayout
  3
ObjectDBX Classes
 90
        0
280
     0
281
     0
  0
CLASS
  1
TABLESTYLE
  2
AcDbTableStyle
  3
ObjectDBX Classes
 90
     2047
280
     0
281
     0
  0
CLASS
  1
SORTENTSTABLE
  2
AcDbSortentsTable
  3
ObjectDBX Classes
 90
        0
280
     0
281
     0
  0
ENDSEC
  0
SECTION
  2
TABLES
  0
TABLE
  2
VPORT
  5
12
330
0
100
AcDbSymbolTable
 70
     3
  0
VPORT
  5
79AD
330
12
100
AcDbSymbolTableRecord
100
AcDbViewportTableRecord
  2
*Active
 70
     0
 10
0.0
 20
0.0
 11
1.0
 21
1.0
 12
70.62226767554051
 22
302.564965350125
 13
0.0
 23
0.0
 14
1.0
 24
1.0
 15
0.0
 25
0.0
 16
0.0
 26
0.0
 36
1.0
 17
0.0
 27
0.0
 37
0.0
 40
609.845514081017
 41
1.5719794344473
 42
50.0
 43
0.0
 44
0.0
 50
0.0
 51
0.0
 71
     0
 72
 20000
 73
     1
 74
     1
 75
     0
 76
     0
 77
     0
 78
     0
281
     0
 65
     1
110
0.0
120
0.0
130
0.0
111
1.0
121
0.0
131
0.0
112
0.0
122
1.0
132
0.0
 79
     0
146
0.0
  0
ENDTAB
  0
TABLE
  2
LTYPE
  5
D
330
0
100
AcDbSymbolTable
 70
     1
  0
LTYPE
  5
E
330
D
100
AcDbSymbolTableRecord
100
AcDbLinetypeTableRecord
  2
BYBLOCK
 70
     0
  3

 72
    65
 73
     0
 40
0.0
  0
LTYPE
  5
F
330
D
100
AcDbSymbolTableRecord
100
AcDbLinetypeTableRecord
  2
BYLAYER
 70
     0
  3

 72
    65
 73
     0
 40
0.0
  0
LTYPE
  5
5
330
D
100
AcDbSymbolTableRecord
100
AcDbLinetypeTableRecord
  2
CONTINUOUS
 70
     0
  3
Solid line
 72
    65
 73
     0
 40
0.0
  0
ENDTAB
  0
TABLE
  2
LAYER
  5
A
102
{ACAD_XDICTIONARY
360
1B4
102
}
330
0
100
AcDbSymbolTable
 70
     6
  0
LAYER
  5
4
330
A
100
AcDbSymbolTableRecord
100
AcDbLayerTableRecord
  2
0
 70
     0
 62
     7
  6
CONTINUOUS
370
    -3
390
57
  0
LAYER
  5
25
330
A
100
AcDbSymbolTableRecord
100
AcDbLayerTableRecord
  2
KIJUN
 70
     0
 62
     7
  6
CONTINUOUS
370
    -3
390
57
  0
LAYER
  5
22
330
A
100
AcDbSymbolTableRecord
100
AcDbLayerTableRecord
  2
HOJO
 70
     0
 62
     3
  6
CONTINUOUS
370
    -3
390
57
  0
LAYER
  5
1B
330
A
100
AcDbSymbolTableRecord
100
AcDbLayerTableRecord
  2
WAKU
 70
     0
 62
     1
  6
CONTINUOUS
370
    -3
390
57
  0
LAYER
  5
31
330
A
100
AcDbSymbolTableRecord
100
AcDbLayerTableRecord
  2
DEFPOINTS
 70
     0
 62
     7
  6
CONTINUOUS
290
     0
370
    -3
390
57
  0
LAYER
  5
28
330
A
100
AcDbSymbolTableRecord
100
AcDbLayerTableRecord
  2
SUNPOU
 70
     0
 62
    70
  6
CONTINUOUS
370
    -3
390
57
  0
ENDTAB
  0
TABLE
  2
STYLE
  5
B
330
0
100
AcDbSymbolTable
 70
     2
  0
STYLE
  5
C
330
B
100
AcDbSymbolTableRecord
100
AcDbTextStyleTableRecord
  2
STANDARD
 70
     0
 40
0.0
 41
1.0
 50
0.0
 71
     0
 42
0.2
  3
txt
  4

  0
STYLE
  5
1C
330
B
100
AcDbSymbolTableRecord
100
AcDbTextStyleTableRecord
  2
SUNPOU
 70
     0
 40
0.0
 41
1.0
 50
0.0
 71
     0
 42
30.0
  3
txt
  4
bigfont
  0
ENDTAB
  0
TABLE
  2
VIEW
  5
10
330
0
100
AcDbSymbolTable
 70
     0
  0
ENDTAB
  0
TABLE
  2
UCS
  5
11
330
0
100
AcDbSymbolTable
 70
     0
  0
ENDTAB
  0
TABLE
  2
APPID
  5
14
330
0
100
AcDbSymbolTable
 70
    11
  0
APPID
  5
15
330
14
100
AcDbSymbolTableRecord
100
AcDbRegAppTableRecord
  2
ACAD
 70
     0
  0
APPID
  5
1D3
330
14
100
AcDbSymbolTableRecord
100
AcDbRegAppTableRecord
  2
ACAD_DSTYLE_DIMTEXT_FILL
 70
     0
  0
APPID
  5
1D4
330
14
100
AcDbSymbolTableRecord
100
AcDbRegAppTableRecord
  2
ACAD_DSTYLE_DIMEXT_LENGTH
 70
     0
  0
APPID
  5
1D5
330
14
100
AcDbSymbolTableRecord
100
AcDbRegAppTableRecord
  2
ACAD_DSTYLE_DIMEXT_ENABLED
 70
     0
  0
APPID
  5
1D6
330
14
100
AcDbSymbolTableRecord
100
AcDbRegAppTableRecord
  2
ACAD_DSTYLE_DIM_LINETYPE
 70
     0
  0
APPID
  5
1D7
330
14
100
AcDbSymbolTableRecord
100
AcDbRegAppTableRecord
  2
ACAD_DSTYLE_DIM_EXT1_LINETYPE
 70
     0
  0
APPID
  5
1D8
330
14
100
AcDbSymbolTableRecord
100
AcDbRegAppTableRecord
  2
ACAD_DSTYLE_DIM_EXT2_LINETYPE
 70
     0
  0
APPID
  5
294
330
14
100
AcDbSymbolTableRecord
100
AcDbRegAppTableRecord
  2
ACAD_DSTYLE_DIMJOGGED_JOGANGLE_SYMBOL
 70
     0
  0
APPID
  5
478
330
14
100
AcDbSymbolTableRecord
100
AcDbRegAppTableRecord
  2
ACAD_DSTYLE_DIMARC_LENGTH_SYMBOL
 70
     0
  0
APPID
  5
157B
330
14
100
AcDbSymbolTableRecord
100
AcDbRegAppTableRecord
  2
ACAD_EXEMPT_FROM_CAD_STANDARDS
 70
     0
  0
APPID
  5
5228
330
14
100
AcDbSymbolTableRecord
100
AcDbRegAppTableRecord
  2
ACAD_PSEXT
 70
     0
  0
ENDTAB
  0
TABLE
  2
DIMSTYLE
  5
16
330
0
100
AcDbSymbolTable
 70
     1
100
AcDbDimStyleTable
 71
     1
340
1E
  0
DIMSTYLE
105
1E
102
{ACAD_REACTORS
330
66EC
330
66F9
102
}
330
16
100
AcDbSymbolTableRecord
100
AcDbDimStyleTableRecord
  2
STANDARD
 70
     0
340
C
  0
ENDTAB
  0
TABLE
  2
BLOCK_RECORD
  5
1
330
0
100
AcDbSymbolTable
 70
     3
  0
BLOCK_RECORD
  5
2
102
{ACAD_XDICTIONARY
360
1578
102
}
330
1
100
AcDbSymbolTableRecord
100
AcDbBlockTableRecord
  2
*MODEL_SPACE
340
5A
  0
BLOCK_RECORD
  5
7
330
1
100
AcDbSymbolTableRecord
100
AcDbBlockTableRecord
  2
*PAPER_SPACE
340
5B
  0
BLOCK_RECORD
  5
109
330
1
100
AcDbSymbolTableRecord
100
AcDbBlockTableRecord
  2
_Dot
340
0
102
{BLKREFS
331
798E
331
798F
331
7997
331
7998
102
}
  0
BLOCK_RECORD
  5
66ED
330
1
100
AcDbSymbolTableRecord
100
AcDbBlockTableRecord
  2
*D1
340
0
  0
BLOCK_RECORD
  5
66FA
330
1
100
AcDbSymbolTableRecord
100
AcDbBlockTableRecord
  2
*D2
340
0
  0
ENDTAB
  0
ENDSEC
  0
SECTION
  2
BLOCKS
  0
BLOCK
  5
3
330
2
100
AcDbEntity
  8
0
100
AcDbBlockBegin
  2
*MODEL_SPACE
 70
     0
 10
0.0
 20
0.0
 30
0.0
  3
*MODEL_SPACE
  1

  0
ENDBLK
  5
6
330
2
100
AcDbEntity
  8
0
100
AcDbBlockEnd
  0
BLOCK
  5
8
330
7
100
AcDbEntity
 67
     1
  8
0
100
AcDbBlockBegin
  2
*PAPER_SPACE
 70
     0
 10
0.0
 20
0.0
 30
0.0
  3
*PAPER_SPACE
  1

  0
ENDBLK
  5
9
330
7
100
AcDbEntity
 67
     1
  8
0
100
AcDbBlockEnd
  0
BLOCK
  5
10C
330
109
100
AcDbEntity
  8
0
100
AcDbBlockBegin
  2
_Dot
 70
     0
 10
0.0
 20
0.0
 30
0.0
  3
_Dot
  1

  0
LWPOLYLINE
  5
10A
330
109
100
AcDbEntity
  8
0
  6
ByBlock
 62
     0
100
AcDbPolyline
 90
        2
 70
     1
 43
0.5
 10
-0.25
 20
0.0
 42
1.0
 10
0.25
 20
0.0
 42
1.0
  0
LINE
  5
10B
330
109
100
AcDbEntity
  8
0
  6
ByBlock
 62
     0
370
    -2
100
AcDbLine
 10
-0.5
 20
0.0
 30
0.0
 11
-1.0
 21
0.0
 31
0.0
  0
ENDBLK
  5
10D
330
109
100
AcDbEntity
  8
0
100
AcDbBlockEnd
  0
BLOCK
  5
66F7
330
66ED
100
AcDbEntity
  8
0
100
AcDbBlockBegin
  2
*D1
 70
     1
 10
0.0
 20
0.0
 30
0.0
  3
*D1
  1

  0
LINE
  5
798B
330
66ED
100
AcDbEntity
  8
SUNPOU
 62
    70
370
    -2
100
AcDbLine
 10
58.54330339045282
 20
49.11611696944742
 30
0.0
 11
17.32779637757165
 21
49.11611696944743
 31
0.0
  0
LINE
  5
798C
330
66ED
100
AcDbEntity
  8
SUNPOU
 62
    70
370
    -2
100
AcDbLine
 10
53.43828862863233
 20
555.1161169694474
 30
0.0
 11
17.32779637757176
 21
555.1161169694474
 31
0.0
  0
LINE
  5
798D
330
66ED
100
AcDbEntity
  8
SUNPOU
 62
    60
370
    -2
100
AcDbLine
 10
17.32779637757165
 20
51.11611696944743
 30
0.0
 11
17.32779637757176
 21
553.1161169694475
 31
0.0
  0
INSERT
  5
798E
330
66ED
100
AcDbEntity
  8
SUNPOU
 62
    60
370
    -2
100
AcDbBlockReference
  2
_Dot
 10
17.32779637757165
 20
49.11611696944743
 30
0.0
 41
2.0
 42
2.0
 43
2.0
 50
270.0
  0
INSERT
  5
798F
330
66ED
100
AcDbEntity
  8
SUNPOU
 62
    60
370
    -2
100
AcDbBlockReference
  2
_Dot
 10
17.32779637757176
 20
555.1161169694474
 30
0.0
 41
2.0
 42
2.0
 43
2.0
 50
90.0
  0
MTEXT
  5
7990
330
66ED
100
AcDbEntity
  8
SUNPOU
 62
    60
100
AcDbMText
 10
9.327796377571655
 20
302.1161169694475
 30
0.0
 40
10.0
 41
0.0
 71
     5
 72
     1
  1
\A1;506
  7
SUNPOU
 11
0.0000000000000001
 21
1.0
 31
0.0
 73
     1
 44
1.0
1001
ACAD
1000
MTEXTBEGIN
1070
    73
1070
     1
1070
    44
1040
1.0
1070
    74
1070
     0
1000
MTEXTEND
  0
POINT
  5
7991
330
66ED
100
AcDbEntity
  8
DEFPOINTS
 62
     0
100
AcDbPoint
 10
68.54330339045282
 20
49.11611696944742
 30
0.0
  0
POINT
  5
7992
330
66ED
100
AcDbEntity
  8
DEFPOINTS
 62
     0
100
AcDbPoint
 10
63.43828862863233
 20
555.1161169694474
 30
0.0
  0
POINT
  5
7993
330
66ED
100
AcDbEntity
  8
DEFPOINTS
 62
     0
100
AcDbPoint
 10
17.32779637757176
 20
555.1161169694474
 30
0.0
  0
ENDBLK
  5
66F8
330
66ED
100
AcDbEntity
  8
0
100
AcDbBlockEnd
  0
BLOCK
  5
6704
330
66FA
100
AcDbEntity
  8
0
100
AcDbBlockBegin
  2
*D2
 70
     1
 10
0.0
 20
0.0
 30
0.0
  3
*D2
  1

  0
LINE
  5
7994
330
66FA
100
AcDbEntity
  8
SUNPOU
 62
    70
370
    -2
100
AcDbLine
 10
54.54330339045283
 20
565.1161169694474
 30
0.0
 11
54.54330339045283
 21
592.1255180227799
 31
0.0
  0
LINE
  5
7995
330
66FA
100
AcDbEntity
  8
SUNPOU
 62
    70
370
    -2
100
AcDbLine
 10
82.5433033904528
 20
565.1161169694474
 30
0.0
 11
82.5433033904528
 21
592.1255180227799
 31
0.0
  0
LINE
  5
7996
330
66FA
100
AcDbEntity
  8
SUNPOU
 62
    60
370
    -2
100
AcDbLine
 10
56.54330339045284
 20
592.1255180227799
 30
0.0
 11
80.5433033904528
 21
592.1255180227799
 31
0.0
  0
INSERT
  5
7997
330
66FA
100
AcDbEntity
  8
SUNPOU
 62
    60
370
    -2
100
AcDbBlockReference
  2
_Dot
 10
54.54330339045283
 20
592.1255180227799
 30
0.0
 41
2.0
 42
2.0
 43
2.0
 50
180.0
  0
INSERT
  5
7998
330
66FA
100
AcDbEntity
  8
SUNPOU
 62
    60
370
    -2
100
AcDbBlockReference
  2
_Dot
 10
82.5433033904528
 20
592.1255180227799
 30
0.0
 41
2.0
 42
2.0
 43
2.0
  0
MTEXT
  5
7999
330
66FA
100
AcDbEntity
  8
SUNPOU
 62
    60
100
AcDbMText
 10
68.54330339045282
 20
600.1255180227799
 30
0.0
 40
10.0
 41
0.0
 71
     5
 72
     1
  1
\A1;28
  7
SUNPOU
 73
     1
 44
1.0
1001
ACAD
1000
MTEXTBEGIN
1070
    73
1070
     1
1070
    44
1040
1.0
1070
    74
1070
     0
1000
MTEXTEND
  0
POINT
  5
799A
330
66FA
100
AcDbEntity
  8
DEFPOINTS
 62
     0
100
AcDbPoint
 10
54.54330339045283
 20
555.1161169694474
 30
0.0
  0
POINT
  5
799B
330
66FA
100
AcDbEntity
  8
DEFPOINTS
 62
     0
100
AcDbPoint
 10
82.5433033904528
 20
555.1161169694474
 30
0.0
  0
POINT
  5
799C
330
66FA
100
AcDbEntity
  8
DEFPOINTS
 62
     0
100
AcDbPoint
 10
82.5433033904528
 20
592.1255180227799
 30
0.0
  0
ENDBLK
  5
6705
330
66FA
100
AcDbEntity
  8
0
100
AcDbBlockEnd
  0
ENDSEC
  0
SECTION
  2
ENTITIES
  0
LINE
  5
1F
330
2
100
AcDbEntity
  8
WAKU
100
AcDbLine
 10
0.0
 20
14.0
 30
0.0
 11
141.2350666841796
 21
14.0
 31
0.0
  0
LINE
  5
20
330
2
100
AcDbEntity
  8
WAKU
100
AcDbLine
 10
0.0
 20
0.0
 30
0.0
 11
141.2350666841796
 21
0.0
 31
0.0
  0
TEXT
  5
21
330
2
100
AcDbEntity
  8
HOJO
100
AcDbText
 10
9.653966000000025
 20
2.366626000000024
 30
0.0
 40
9.0
  1
TP853
  7
SUNPOU
100
AcDbText
  0
TEXT
  5
23
330
2
100
AcDbEntity
  8
HOJO
100
AcDbText
 10
75.65253479254602
 20
5.044386000000031
 30
0.0
 40
6.0
  1
28×506×7
  7
SUNPOU
100
AcDbText
  0
DIMENSION
  5
66EC
330
2
100
AcDbEntity
  8
SUNPOU
100
AcDbDimension
  2
*D1
 10
17.32779637757176
 20
555.1161169694474
 30
0.0
 11
9.327796377571655
 21
302.1161169694475
 31
0.0
 70
    32
 71
     5
 42
506.0
  3
STANDARD
100
AcDbAlignedDimension
 13
68.54330339045282
 23
49.11611696944742
 33
0.0
 14
63.43828862863233
 24
555.1161169694474
 34
0.0
 50
90.0
100
AcDbRotatedDimension
1001
ACAD
1000
DSTYLE
1002
{
1070
    41
1040
2.0
1070
    42
1040
10.0
1070
    44
1040
0.0
1070
    73
1070
     0
1070
    74
1070
     0
1070
    77
1070
     1
1070
   140
1040
10.0
1070
   141
1040
0.0
1070
   146
1040
0.064286
1070
   147
1040
3.0
1070
   176
1070
    60
1070
   177
1070
    70
1070
   178
1070
    60
1070
   271
1070
     0
1070
   272
1070
     0
1070
   340
1005
1C
1070
   342
1005
109
1002
}
  0
DIMENSION
  5
66F9
330
2
100
AcDbEntity
  8
SUNPOU
100
AcDbDimension
  2
*D2
 10
82.5433033904528
 20
592.1255180227799
 30
0.0
 11
68.54330339045282
 21
600.1255180227799
 31
0.0
 70
    32
 71
     5
 42
27.99999999999997
  3
STANDARD
100
AcDbAlignedDimension
 13
54.54330339045283
 23
555.1161169694474
 33
0.0
 14
82.5433033904528
 24
555.1161169694474
 34
0.0
100
AcDbRotatedDimension
1001
ACAD
1000
DSTYLE
1002
{
1070
    41
1040
2.0
1070
    42
1040
10.0
1070
    44
1040
0.0
1070
    73
1070
     0
1070
    74
1070
     0
1070
    77
1070
     1
1070
   140
1040
10.0
1070
   141
1040
0.0
1070
   146
1040
0.064286
1070
   147
1040
3.0
1070
   176
1070
    60
1070
   177
1070
    70
1070
   178
1070
    60
1070
   271
1070
     0
1070
   272
1070
     0
1070
   340
1005
1C
1070
   342
1005
109
1002
}
  0
ARC
  5
74DB
102
{ACAD_REACTORS
330
7938
102
}
330
2
100
AcDbEntity
  8
KIJUN
100
AcDbCircle
 10
44.46555435692403
 20
436.4910576666921
 30
0.0
 40
13.0096494651798
100
AcDbArc
 50
328.3768668024829
 51
17.51956265642971
  0
ARC
  5
74DC
102
{ACAD_REACTORS
330
7938
102
}
330
2
100
AcDbEntity
  8
KIJUN
100
AcDbCircle
 10
57.00615519354312
 20
427.8500933174251
 30
0.0
 40
2.334621617602437
100
AcDbArc
 50
128.793777687136
 51
237.0159432264788
  0
ARC
  5
74DD
102
{ACAD_REACTORS
330
7938
102
}
330
2
100
AcDbEntity
  8
KIJUN
100
AcDbCircle
 10
52.6877769052445
 20
436.1076822046152
 30
0.0
 40
7.042900724966569
100
AcDbArc
 50
293.9206554578991
 51
347.3779614051157
  0
ARC
  5
74DE
102
{ACAD_REACTORS
330
7938
102
}
330
2
100
AcDbEntity
  8
KIJUN
100
AcDbCircle
 10
62.94458801840426
 20
452.8109072827732
 30
0.0
 40
5.802925549834638
100
AcDbArc
 50
15.24525599163459
 51
131.4394498763542
  0
ARC
  5
74E9
102
{ACAD_REACTORS
330
7938
102
}
330
2
100
AcDbEntity
  8
KIJUN
100
AcDbCircle
 10
70.84320663143774
 20
447.0713643192783
 30
0.0
 40
15.47936230451577
100
AcDbArc
 50
139.3211325264868
 51
205.4998206195671
  0
ARC
  5
74EC
102
{ACAD_REACTORS
330
7938
102
}
330
2
100
AcDbEntity
  8
KIJUN
100
AcDbCircle
 10
54.7778227106611
 20
419.2020456981492
 30
0.0
 40
6.661091915403553
100
AcDbArc
 50
316.368065829617
 51
45.9049597771112
  0
ARC
  5
74EE
102
{ACAD_REACTORS
330
7938
102
}
330
2
100
AcDbEntity
  8
KIJUN
100
AcDbCircle
 10
52.53421353318845
 20
418.7023098783824
 30
0.0
 40
13.0725803103046
100
AcDbArc
 50
314.0457306437804
 51
0.2136741698368403
  0
ARC
  5
74EF
102
{ACAD_REACTORS
330
7938
102
}
330
2
100
AcDbEntity
  8
KIJUN
100
AcDbCircle
 10
58.7581951548018
 20
412.644082267441
 30
0.0
 40
4.398702940071996
100
AcDbArc
 50
252.7397757668984
 51
310.6332188291333
  0
ARC
  5
74F5
102
{ACAD_REACTORS
330
7938
102
}
330
2
100
AcDbEntity
  8
KIJUN
100
AcDbCircle
 10
60.27911594290458
 20
410.2073948756748
 30
0.0
 40
5.735812552451749
100
AcDbArc
 50
127.7420527220675
 51
258.2583796416807
  0
ARC
  5
74F6
102
{ACAD_REACTORS
330
7938
102
}
330
2
100
AcDbEntity
  8
KIJUN
100
AcDbCircle
 10
58.11537434426305
 20
413.2684903807178
 30
0.0
 40
1.997370252473639
100
AcDbArc
 50
277.1041490909059
 51
132.414037599396
  0
ARC
  5
74F9
102
{ACAD_REACTORS
330
7938
102
}
330
2
100
AcDbEntity
  8
KIJUN
100
AcDbCircle
 10
102.2472882317053
 20
511.1479305596362
 30
0.0
 40
97.11843900077658
100
AcDbArc
 50
241.3850089966528
 51
243.8289392216816
  0
ARC
  5
750E
102
{ACAD_REACTORS
330
7938
102
}
330
2
100
AcDbEntity
  8
KIJUN
100
AcDbCircle
 10
50.37582132873672
 20
437.5130875983442
 30
0.0
 40
9.645067583439468
100
AcDbArc
 50
342.2252142675799
 51
35.76817211480557
  0
ARC
  5
750F
102
{ACAD_REACTORS
330
7938
102
}
330
2
100
AcDbEntity
  8
KIJUN
100
AcDbCircle
 10
55.26011345282995
 20
434.1880299625729
 30
0.0
 40
7.386403198274019
100
AcDbArc
 50
282.511341779855
 51
351.0304521335976
  0
ARC
  5
7510
102
{ACAD_REACTORS
330
7938
102
}
330
2
100
AcDbEntity
  8
KIJUN
100
AcDbCircle
 10
47.15781786349509
 20
435.5700463616876
 30
0.0
 40
15.60542072616852
100
AcDbArc
 50
350.6563521911982
 51
20.36504555139053
  0
ARC
  5
7511
102
{ACAD_REACTORS
330
7938
102
}
330
2
100
AcDbEntity
  8
KIJUN
100
AcDbCircle
 10
57.93216618771123
 20
439.2975543359121
 30
0.0
 40
8.676153616895698
100
AcDbArc
 50
329.3885801950678
 51
35.47924123411394
  0
ARC
  5
7513
102
{ACAD_REACTORS
330
7938
102
}
330
2
100
AcDbEntity
  8
KIJUN
100
AcDbCircle
 10
62.88954081037832
 20
447.6237828267776
 30
0.0
 40
3.907750954262793
100
AcDbArc
 50
302.6428167647985
 51
64.79220757584403
  0
ARC
  5
7514
102
{ACAD_REACTORS
330
7938
102
}
330
2
100
AcDbEntity
  8
KIJUN
100
AcDbCircle
 10
67.19195651968289
 20
447.9033281074212
 30
0.0
 40
4.190646826681388
100
AcDbArc
 50
129.0147075873566
 51
238.4203167532843
  0
ARC
  5
7515
102
{ACAD_REACTORS
330
7938
102
}
330
2
100
AcDbEntity
  8
KIJUN
100
AcDbCircle
 10
68.54330339045327
 20
417.9100522012271
 30
0.0
 40
7.160627071259285
100
AcDbArc
 50
73.79008205605053
 51
106.2099179439629
  0
ARC
  5
7516
102
{ACAD_REACTORS
330
7938
102
}
330
2
100
AcDbEntity
  8
KIJUN
100
AcDbCircle
 10
-74.55588365413087
 20
436.1647328432788
 30
0.0
 40
141.5583080900729
100
AcDbArc
 50
355.3894840032271
 51
0.1645668482453407
  0
ARC
  5
7517
102
{ACAD_REACTORS
330
7938
102
}
330
2
100
AcDbEntity
  8
KIJUN
100
AcDbCircle
 10
92.62105242398162
 20
436.4910576666921
 30
0.0
 40
13.0096494651798
100
AcDbArc
 50
162.4804373435687
 51
211.6231331975171
  0
ARC
  5
7518
102
{ACAD_REACTORS
330
7938
102
}
330
2
100
AcDbEntity
  8
KIJUN
100
AcDbCircle
 10
80.08045158736264
 20
427.8500933174251
 30
0.0
 40
2.334621617602437
100
AcDbArc
 50
302.9840567735212
 51
51.20622231286397
  0
ARC
  5
7519
102
{ACAD_REACTORS
330
7938
102
}
330
2
100
AcDbEntity
  8
KIJUN
100
AcDbCircle
 10
84.39882987566125
 20
436.1076822046152
 30
0.0
 40
7.042900724966569
100
AcDbArc
 50
192.6220385948843
 51
246.079344542101
  0
ARC
  5
751A
102
{ACAD_REACTORS
330
7938
102
}
330
2
100
AcDbEntity
  8
KIJUN
100
AcDbCircle
 10
74.14201876250138
 20
452.8109072827732
 30
0.0
 40
5.802925549834638
100
AcDbArc
 50
48.56055012364571
 51
164.7547440083654
  0
ARC
  5
751B
102
{ACAD_REACTORS
330
7938
102
}
330
2
100
AcDbEntity
  8
KIJUN
100
AcDbCircle
 10
66.2434001494679
 20
447.0713643192783
 30
0.0
 40
15.47936230451577
100
AcDbArc
 50
334.5001793804329
 51
40.67886747351317
  0
ARC
  5
751C
102
{ACAD_REACTORS
330
7938
102
}
330
2
100
AcDbEntity
  8
KIJUN
100
AcDbCircle
 10
82.30878407024453
 20
419.2020456981492
 30
0.0
 40
6.661091915403553
100
AcDbArc
 50
134.0950402228888
 51
223.631934170383
  0
ARC
  5
751D
102
{ACAD_REACTORS
330
7938
102
}
330
2
100
AcDbEntity
  8
KIJUN
100
AcDbCircle
 10
84.55239324771719
 20
418.7023098783824
 30
0.0
 40
13.0725803103046
100
AcDbArc
 50
179.7863258301631
 51
225.9542693562195
  0
ARC
  5
751E
102
{ACAD_REACTORS
330
7938
102
}
330
2
100
AcDbEntity
  8
KIJUN
100
AcDbCircle
 10
78.32841162610384
 20
412.644082267441
 30
0.0
 40
4.398702940071996
100
AcDbArc
 50
229.3667811708667
 51
287.2602242331016
  0
ARC
  5
751F
102
{ACAD_REACTORS
330
7938
102
}
330
2
100
AcDbEntity
  8
KIJUN
100
AcDbCircle
 10
76.80749083800106
 20
410.2073948756748
 30
0.0
 40
5.735812552451749
100
AcDbArc
 50
281.7416203583193
 51
52.25794727793215
  0
ARC
  5
7520
102
{ACAD_REACTORS
330
7938
102
}
330
2
100
AcDbEntity
  8
KIJUN
100
AcDbCircle
 10
78.97123243664259
 20
413.2684903807178
 30
0.0
 40
1.997370252473639
100
AcDbArc
 50
47.58596240060622
 51
262.8958509090941
  0
ARC
  5
7521
102
{ACAD_REACTORS
330
7938
102
}
330
2
100
AcDbEntity
  8
KIJUN
100
AcDbCircle
 10
34.83931854920036
 20
511.1479305596362
 30
0.0
 40
97.11843900077658
100
AcDbArc
 50
296.1710607783184
 51
298.6149910033473
  0
ARC
  5
7522
102
{ACAD_REACTORS
330
7938
102
}
330
2
100
AcDbEntity
  8
KIJUN
100
AcDbCircle
 10
86.71078545216891
 20
437.5130875983442
 30
0.0
 40
9.645067583439468
100
AcDbArc
 50
144.2318278851944
 51
197.77478573242
  0
ARC
  5
7523
102
{ACAD_REACTORS
330
7938
102
}
330
2
100
AcDbEntity
  8
KIJUN
100
AcDbCircle
 10
81.82649332807569
 20
434.1880299625729
 30
0.0
 40
7.386403198274019
100
AcDbArc
 50
188.9695478664024
 51
257.4886582201386
  0
ARC
  5
7524
102
{ACAD_REACTORS
330
7938
102
}
330
2
100
AcDbEntity
  8
KIJUN
100
AcDbCircle
 10
89.92878891741055
 20
435.5700463616876
 30
0.0
 40
15.60542072616852
100
AcDbArc
 50
159.6349544486095
 51
189.3436478088018
  0
ARC
  5
7525
102
{ACAD_REACTORS
330
7938
102
}
330
2
100
AcDbEntity
  8
KIJUN
100
AcDbCircle
 10
79.1544405931944
 20
439.2975543359121
 30
0.0
 40
8.676153616895698
100
AcDbArc
 50
144.520758765886
 51
210.61141980493
  0
ARC
  5
7526
102
{ACAD_REACTORS
330
7938
102
}
330
2
100
AcDbEntity
  8
KIJUN
100
AcDbCircle
 10
74.19706597052732
 20
447.6237828267776
 30
0.0
 40
3.907750954262793
100
AcDbArc
 50
115.2077924241559
 51
237.3571832352015
  0
ARC
  5
7527
102
{ACAD_REACTORS
330
7938
102
}
330
2
100
AcDbEntity
  8
KIJUN
100
AcDbCircle
 10
69.89465026122275
 20
447.9033281074212
 30
0.0
 40
4.190646826681388
100
AcDbArc
 50
301.5796832467153
 51
50.98529241264333
  0
ARC
  5
7529
102
{ACAD_REACTORS
330
7938
102
}
330
2
100
AcDbEntity
  8
KIJUN
100
AcDbCircle
 10
211.6424904350366
 20
436.1647328432787
 30
0.0
 40
141.5583080900729
100
AcDbArc
 50
179.8354331517546
 51
184.6105159967729
  0
ARC
  5
752A
102
{ACAD_REACTORS
330
7938
102
}
330
2
100
AcDbEntity
  8
KIJUN
100
AcDbCircle
 10
66.1329492442544
 20
307.3988346075505
 30
0.0
 40
102.1380860082488
100
AcDbArc
 50
86.08078118897847
 51
90.42426867989659
  0
ARC
  5
752B
102
{ACAD_REACTORS
330
7938
102
}
330
2
100
AcDbEntity
  8
KIJUN
100
AcDbCircle
 10
69.36339041141104
 20
413.284895268373
 30
0.0
 40
7.197163051062951
100
AcDbArc
 50
230.0495784690079
 51
306.4554713998701
  0
ARC
  5
752E
102
{ACAD_REACTORS
330
7938
102
}
330
2
100
AcDbEntity
  8
KIJUN
100
AcDbCircle
 10
65.38404015419633
 20
408.5341478101444
 30
0.0
 40
1.0
100
AcDbArc
 50
90.42426867989659
 51
230.0495784690079
  0
ARC
  5
752F
102
{ACAD_REACTORS
330
7938
102
}
330
2
100
AcDbEntity
  8
KIJUN
100
AcDbCircle
 10
73.04573151618672
 20
408.3003999208438
 30
0.0
 40
1.0
100
AcDbArc
 50
306.4554713998688
 51
86.08078118897847
  0
ARC
  5
7530
102
{ACAD_REACTORS
330
7938
102
}
330
2
100
AcDbEntity
  8
KIJUN
100
AcDbCircle
 10
44.46555435692403
 20
487.5061235889402
 30
0.0
 40
13.0096494651798
100
AcDbArc
 50
328.3768668024829
 51
17.51956265642971
  0
ARC
  5
7531
102
{ACAD_REACTORS
330
7938
102
}
330
2
100
AcDbEntity
  8
KIJUN
100
AcDbCircle
 10
57.00615519354312
 20
478.8651592396733
 30
0.0
 40
2.334621617602437
100
AcDbArc
 50
128.793777687136
 51
237.0159432264788
  0
ARC
  5
7532
102
{ACAD_REACTORS
330
7938
102
}
330
2
100
AcDbEntity
  8
KIJUN
100
AcDbCircle
 10
52.6877769052445
 20
487.1227481268634
 30
0.0
 40
7.042900724966569
100
AcDbArc
 50
293.9206554578991
 51
347.3779614051157
  0
ARC
  5
7533
102
{ACAD_REACTORS
330
7938
102
}
330
2
100
AcDbEntity
  8
KIJUN
100
AcDbCircle
 10
62.94458801840426
 20
501.4045386053926
 30
0.0
 40
5.802925549834638
100
AcDbArc
 50
15.24525599163459
 51
131.4394498763542
  0
ARC
  5
7534
102
{ACAD_REACTORS
330
7938
102
}
330
2
100
AcDbEntity
  8
KIJUN
100
AcDbCircle
 10
72.7642051711382
 20
496.287121504252
 30
0.0
 40
16.62033606217272
100
AcDbArc
 50
145.2748564517479
 51
197.0193546060048
  0
ARC
  5
7535
102
{ACAD_REACTORS
330
7938
102
}
330
2
100
AcDbEntity
  8
KIJUN
100
AcDbCircle
 10
54.7778227106611
 20
470.2171116203974
 30
0.0
 40
6.661091915403553
100
AcDbArc
 50
316.368065829617
 51
45.9049597771112
  0
ARC
  5
7536
102
{ACAD_REACTORS
330
7938
102
}
330
2
100
AcDbEntity
  8
KIJUN
100
AcDbCircle
 10
52.53421353318845
 20
469.7173758006306
 30
0.0
 40
13.0725803103046
100
AcDbArc
 50
314.0457306437804
 51
0.2136741698368403
  0
ARC
  5
7537
102
{ACAD_REACTORS
330
7938
102
}
330
2
100
AcDbEntity
  8
KIJUN
100
AcDbCircle
 10
58.7581951548018
 20
463.6591481896892
 30
0.0
 40
4.398702940071996
100
AcDbArc
 50
252.7397757668984
 51
310.6332188291333
  0
ARC
  5
7538
102
{ACAD_REACTORS
330
7938
102
}
330
2
100
AcDbEntity
  8
KIJUN
100
AcDbCircle
 10
60.27911594290458
 20
461.2224607979229
 30
0.0
 40
5.735812552451749
100
AcDbArc
 50
127.7420527220675
 51
248.0081402136564
  0
ARC
  5
7539
102
{ACAD_REACTORS
330
7938
102
}
330
2
100
AcDbEntity
  8
KIJUN
100
AcDbCircle
 10
58.11537434426305
 20
464.283556302966
 30
0.0
 40
1.997370252473639
100
AcDbArc
 50
277.1041490909059
 51
132.414037599396
  0
ARC
  5
753A
102
{ACAD_REACTORS
330
7938
102
}
330
2
100
AcDbEntity
  8
KIJUN
100
AcDbCircle
 10
102.2472882317053
 20
562.1629964818843
 30
0.0
 40
97.11843900077658
100
AcDbArc
 50
241.3850089966528
 51
243.8289392216816
  0
ARC
  5
753B
102
{ACAD_REACTORS
330
7938
102
}
330
2
100
AcDbEntity
  8
KIJUN
100
AcDbCircle
 10
50.37582132873672
 20
488.5281535205924
 30
0.0
 40
9.645067583439468
100
AcDbArc
 50
342.2252142675799
 51
35.76817211480557
  0
ARC
  5
753C
102
{ACAD_REACTORS
330
7938
102
}
330
2
100
AcDbEntity
  8
KIJUN
100
AcDbCircle
 10
55.26011345282995
 20
485.203095884821
 30
0.0
 40
7.386403198274019
100
AcDbArc
 50
282.511341779855
 51
351.0304521335976
  0
ARC
  5
753D
102
{ACAD_REACTORS
330
7938
102
}
330
2
100
AcDbEntity
  8
KIJUN
100
AcDbCircle
 10
47.15781786349509
 20
486.5851122839357
 30
0.0
 40
15.60542072616852
100
AcDbArc
 50
350.6563521911982
 51
20.36504555139053
  0
ARC
  5
753E
102
{ACAD_REACTORS
330
7938
102
}
330
2
100
AcDbEntity
  8
KIJUN
100
AcDbCircle
 10
57.93216618771123
 20
487.9675941363216
 30
0.0
 40
8.676153616895698
100
AcDbArc
 50
329.3885801950678
 51
35.47924123411394
  0
ARC
  5
753F
102
{ACAD_REACTORS
330
7938
102
}
330
2
100
AcDbEntity
  8
KIJUN
100
AcDbCircle
 10
62.88954081037832
 20
496.2938226271871
 30
0.0
 40
3.907750954262793
100
AcDbArc
 50
302.6428167647985
 51
64.79220757584403
  0
ARC
  5
7540
102
{ACAD_REACTORS
330
7938
102
}
330
2
100
AcDbEntity
  8
KIJUN
100
AcDbCircle
 10
67.19195651968289
 20
496.5733679078307
 30
0.0
 40
4.190646826681388
100
AcDbArc
 50
129.0147075873566
 51
238.4203167532843
  0
ARC
  5
7541
102
{ACAD_REACTORS
330
7938
102
}
330
2
100
AcDbEntity
  8
KIJUN
100
AcDbCircle
 10
68.54330339045327
 20
468.9251181234753
 30
0.0
 40
7.160627071259285
100
AcDbArc
 50
73.79008205605053
 51
106.2099179439629
  0
ARC
  5
7542
102
{ACAD_REACTORS
330
7938
102
}
330
2
100
AcDbEntity
  8
KIJUN
100
AcDbCircle
 10
-74.55588365413087
 20
487.1797987655269
 30
0.0
 40
141.5583080900729
100
AcDbArc
 50
355.3894840032271
 51
0.1645668482453407
  0
ARC
  5
7543
102
{ACAD_REACTORS
330
7938
102
}
330
2
100
AcDbEntity
  8
KIJUN
100
AcDbCircle
 10
92.62105242398162
 20
487.5061235889402
 30
0.0
 40
13.0096494651798
100
AcDbArc
 50
162.4804373435687
 51
211.6231331975171
  0
ARC
  5
7544
102
{ACAD_REACTORS
330
7938
102
}
330
2
100
AcDbEntity
  8
KIJUN
100
AcDbCircle
 10
80.08045158736264
 20
478.8651592396733
 30
0.0
 40
2.334621617602437
100
AcDbArc
 50
302.9840567735212
 51
51.20622231286397
  0
ARC
  5
7545
102
{ACAD_REACTORS
330
7938
102
}
330
2
100
AcDbEntity
  8
KIJUN
100
AcDbCircle
 10
84.39882987566125
 20
487.1227481268634
 30
0.0
 40
7.042900724966569
100
AcDbArc
 50
192.6220385948843
 51
246.079344542101
  0
ARC
  5
7546
102
{ACAD_REACTORS
330
7938
102
}
330
2
100
AcDbEntity
  8
KIJUN
100
AcDbCircle
 10
74.14201876250138
 20
501.4045386053926
 30
0.0
 40
5.802925549834638
100
AcDbArc
 50
48.56055012364571
 51
164.7547440083654
  0
ARC
  5
7547
102
{ACAD_REACTORS
330
7938
102
}
330
2
100
AcDbEntity
  8
KIJUN
100
AcDbCircle
 10
68.44883513837612
 20
496.9298284713822
 30
0.0
 40
12.99118306617349
100
AcDbArc
 50
334.9168529981562
 51
42.78893594408815
  0
ARC
  5
7548
102
{ACAD_REACTORS
330
7938
102
}
330
2
100
AcDbEntity
  8
KIJUN
100
AcDbCircle
 10
82.30878407024453
 20
470.2171116203974
 30
0.0
 40
6.661091915403553
100
AcDbArc
 50
134.0950402228888
 51
223.631934170383
  0
ARC
  5
7549
102
{ACAD_REACTORS
330
7938
102
}
330
2
100
AcDbEntity
  8
KIJUN
100
AcDbCircle
 10
84.55239324771719
 20
469.7173758006306
 30
0.0
 40
13.0725803103046
100
AcDbArc
 50
179.7863258301631
 51
225.9542693562195
  0
ARC
  5
754A
102
{ACAD_REACTORS
330
7938
102
}
330
2
100
AcDbEntity
  8
KIJUN
100
AcDbCircle
 10
78.32841162610384
 20
463.6591481896892
 30
0.0
 40
4.398702940071996
100
AcDbArc
 50
229.3667811708667
 51
287.2602242331016
  0
ARC
  5
754B
102
{ACAD_REACTORS
330
7938
102
}
330
2
100
AcDbEntity
  8
KIJUN
100
AcDbCircle
 10
76.80749083800106
 20
461.2224607979229
 30
0.0
 40
5.735812552451749
100
AcDbArc
 50
291.9918597863436
 51
52.25794727793215
  0
ARC
  5
754C
102
{ACAD_REACTORS
330
7938
102
}
330
2
100
AcDbEntity
  8
KIJUN
100
AcDbCircle
 10
78.97123243664259
 20
464.283556302966
 30
0.0
 40
1.997370252473639
100
AcDbArc
 50
47.58596240060622
 51
262.8958509090941
  0
ARC
  5
754D
102
{ACAD_REACTORS
330
7938
102
}
330
2
100
AcDbEntity
  8
KIJUN
100
AcDbCircle
 10
34.83931854920036
 20
562.1629964818843
 30
0.0
 40
97.11843900077658
100
AcDbArc
 50
296.1710607783184
 51
298.6149910033473
  0
ARC
  5
754E
102
{ACAD_REACTORS
330
7938
102
}
330
2
100
AcDbEntity
  8
KIJUN
100
AcDbCircle
 10
86.71078545216891
 20
488.5281535205924
 30
0.0
 40
9.645067583439468
100
AcDbArc
 50
144.2318278851944
 51
197.77478573242
  0
ARC
  5
754F
102
{ACAD_REACTORS
330
7938
102
}
330
2
100
AcDbEntity
  8
KIJUN
100
AcDbCircle
 10
81.82649332807569
 20
485.203095884821
 30
0.0
 40
7.386403198274019
100
AcDbArc
 50
188.9695478664024
 51
257.4886582201386
  0
ARC
  5
7550
102
{ACAD_REACTORS
330
7938
102
}
330
2
100
AcDbEntity
  8
KIJUN
100
AcDbCircle
 10
89.92878891741055
 20
486.5851122839357
 30
0.0
 40
15.60542072616852
100
AcDbArc
 50
159.6349544486095
 51
189.3436478088018
  0
ARC
  5
7551
102
{ACAD_REACTORS
330
7938
102
}
330
2
100
AcDbEntity
  8
KIJUN
100
AcDbCircle
 10
79.1544405931944
 20
487.9675941363216
 30
0.0
 40
8.676153616895698
100
AcDbArc
 50
144.520758765886
 51
210.61141980493
  0
ARC
  5
7552
102
{ACAD_REACTORS
330
7938
102
}
330
2
100
AcDbEntity
  8
KIJUN
100
AcDbCircle
 10
74.19706597052732
 20
496.2938226271871
 30
0.0
 40
3.907750954262793
100
AcDbArc
 50
115.2077924241559
 51
237.3571832352015
  0
ARC
  5
7553
102
{ACAD_REACTORS
330
7938
102
}
330
2
100
AcDbEntity
  8
KIJUN
100
AcDbCircle
 10
69.89465026122275
 20
496.5733679078307
 30
0.0
 40
4.190646826681388
100
AcDbArc
 50
301.5796832467153
 51
50.98529241264333
  0
ARC
  5
7554
102
{ACAD_REACTORS
330
7938
102
}
330
2
100
AcDbEntity
  8
KIJUN
100
AcDbCircle
 10
211.6424904350366
 20
487.1797987655268
 30
0.0
 40
141.5583080900729
100
AcDbArc
 50
179.8354331517546
 51
184.6105159967729
  0
ARC
  5
7555
102
{ACAD_REACTORS
330
7938
102
}
330
2
100
AcDbEntity
  8
KIJUN
100
AcDbCircle
 10
66.1329492442544
 20
359.9619872632914
 30
0.0
 40
102.1380860082488
100
AcDbArc
 50
86.08078118897847
 51
90.42426867989659
  0
ARC
  5
7556
102
{ACAD_REACTORS
330
7938
102
}
330
2
100
AcDbEntity
  8
KIJUN
100
AcDbCircle
 10
73.04573151618672
 20
460.8635525765846
 30
0.0
 40
1.0
100
AcDbArc
 50
306.4554713998688
 51
86.08078118897847
  0
ARC
  5
7557
102
{ACAD_REACTORS
330
7938
102
}
330
2
100
AcDbEntity
  8
KIJUN
100
AcDbCircle
 10
65.38404015419633
 20
461.0973004658852
 30
0.0
 40
1.0
100
AcDbArc
 50
90.42426867989659
 51
230.0495784690079
  0
ARC
  5
7558
102
{ACAD_REACTORS
330
7938
102
}
330
2
100
AcDbEntity
  8
KIJUN
100
AcDbCircle
 10
69.36339041141104
 20
465.8480479241139
 30
0.0
 40
7.197163051062951
100
AcDbArc
 50
230.0495784690079
 51
306.4554713998701
  0
ARC
  5
7570
102
{ACAD_REACTORS
330
7938
102
}
330
2
100
AcDbEntity
  8
KIJUN
100
AcDbCircle
 10
48.56037558608727
 20
536.283296890618
 30
0.0
 40
9.034322742441149
100
AcDbArc
 50
320.6196867742153
 51
23.07733818406404
  0
ARC
  5
7571
102
{ACAD_REACTORS
330
7938
102
}
330
2
100
AcDbEntity
  8
KIJUN
100
AcDbCircle
 10
57.00615519354312
 20
528.73171750746
 30
0.0
 40
2.334621617602437
100
AcDbArc
 50
128.793777687136
 51
237.0159432264788
  0
ARC
  5
7572
102
{ACAD_REACTORS
330
7938
102
}
330
2
100
AcDbEntity
  8
KIJUN
100
AcDbCircle
 10
52.6877769052445
 20
536.9893063946501
 30
0.0
 40
7.042900724966569
100
AcDbArc
 50
293.9206554578991
 51
347.3779614051157
  0
ARC
  5
7573
102
{ACAD_REACTORS
330
7938
102
}
330
2
100
AcDbEntity
  8
KIJUN
100
AcDbCircle
 10
63.43828862863233
 20
549.6981001875623
 30
0.0
 40
5.418016781885046
100
AcDbArc
 50
19.57060801042354
 51
136.288498121822
  0
ARC
  5
7574
102
{ACAD_REACTORS
330
7938
102
}
330
2
100
AcDbEntity
  8
KIJUN
100
AcDbCircle
 10
68.9497429767049
 20
544.5405830387428
 30
0.0
 40
12.96608937172054
100
AcDbArc
 50
136.6445157512324
 51
201.3290537177812
  0
ARC
  5
7575
102
{ACAD_REACTORS
330
7938
102
}
330
2
100
AcDbEntity
  8
KIJUN
100
AcDbCircle
 10
54.7778227106611
 20
520.0836698881841
 30
0.0
 40
6.661091915403553
100
AcDbArc
 50
316.368065829617
 51
45.9049597771112
  0
ARC
  5
7576
102
{ACAD_REACTORS
330
7938
102
}
330
2
100
AcDbEntity
  8
KIJUN
100
AcDbCircle
 10
52.53421353318845
 20
519.5839340684174
 30
0.0
 40
13.0725803103046
100
AcDbArc
 50
314.0457306437804
 51
0.2136741698368403
  0
ARC
  5
7577
102
{ACAD_REACTORS
330
7938
102
}
330
2
100
AcDbEntity
  8
KIJUN
100
AcDbCircle
 10
58.7581951548018
 20
513.5257064574759
 30
0.0
 40
4.398702940071996
100
AcDbArc
 50
252.7397757668984
 51
310.6332188291333
  0
ARC
  5
7578
102
{ACAD_REACTORS
330
7938
102
}
330
2
100
AcDbEntity
  8
KIJUN
100
AcDbCircle
 10
60.27911594290458
 20
511.0890190657097
 30
0.0
 40
5.735812552451749
100
AcDbArc
 50
127.7420527220675
 51
256.4879777637754
  0
ARC
  5
7579
102
{ACAD_REACTORS
330
7938
102
}
330
2
100
AcDbEntity
  8
KIJUN
100
AcDbCircle
 10
58.11537434426305
 20
514.1501145707527
 30
0.0
 40
1.997370252473639
100
AcDbArc
 50
277.1041490909059
 51
132.414037599396
  0
ARC
  5
757A
102
{ACAD_REACTORS
330
7938
102
}
330
2
100
AcDbEntity
  8
KIJUN
100
AcDbCircle
 10
102.2472882317053
 20
612.0295547496712
 30
0.0
 40
97.11843900077658
100
AcDbArc
 50
241.3850089966528
 51
243.8289392216816
  0
ARC
  5
757B
102
{ACAD_REACTORS
330
7938
102
}
330
2
100
AcDbEntity
  8
KIJUN
100
AcDbCircle
 10
50.37582132873672
 20
538.3947117883791
 30
0.0
 40
9.645067583439468
100
AcDbArc
 50
342.2252142675799
 51
35.76817211480557
  0
ARC
  5
757C
102
{ACAD_REACTORS
330
7938
102
}
330
2
100
AcDbEntity
  8
KIJUN
100
AcDbCircle
 10
55.26011345282995
 20
535.0696541526079
 30
0.0
 40
7.386403198274019
100
AcDbArc
 50
282.511341779855
 51
351.0304521335976
  0
ARC
  5
757D
102
{ACAD_REACTORS
330
7938
102
}
330
2
100
AcDbEntity
  8
KIJUN
100
AcDbCircle
 10
47.15781786349509
 20
536.4516705517225
 30
0.0
 40
15.60542072616852
100
AcDbArc
 50
350.6563521911982
 51
20.36504555139053
  0
ARC
  5
757E
102
{ACAD_REACTORS
330
7938
102
}
330
2
100
AcDbEntity
  8
KIJUN
100
AcDbCircle
 10
57.93216618771123
 20
537.2004122611183
 30
0.0
 40
8.676153616895698
100
AcDbArc
 50
329.3885801950678
 51
35.47924123411394
  0
ARC
  5
757F
102
{ACAD_REACTORS
330
7938
102
}
330
2
100
AcDbEntity
  8
KIJUN
100
AcDbCircle
 10
62.88954081037832
 20
545.5266407519839
 30
0.0
 40
3.907750954262793
100
AcDbArc
 50
302.6428167647985
 51
64.79220757584403
  0
ARC
  5
7580
102
{ACAD_REACTORS
330
7938
102
}
330
2
100
AcDbEntity
  8
KIJUN
100
AcDbCircle
 10
67.19195651968289
 20
545.8061860326274
 30
0.0
 40
4.190646826681388
100
AcDbArc
 50
129.0147075873566
 51
238.4203167532843
  0
ARC
  5
7581
102
{ACAD_REACTORS
330
7938
102
}
330
2
100
AcDbEntity
  8
KIJUN
100
AcDbCircle
 10
68.54330339045327
 20
518.791676391262
 30
0.0
 40
7.160627071259285
100
AcDbArc
 50
73.79008205605053
 51
106.2099179439565
  0
ARC
  5
7582
102
{ACAD_REACTORS
330
7938
102
}
330
2
100
AcDbEntity
  8
KIJUN
100
AcDbCircle
 10
-74.55588365413087
 20
537.0463570333137
 30
0.0
 40
141.5583080900729
100
AcDbArc
 50
355.3894840032271
 51
0.1645668482453407
  0
ARC
  5
7595
102
{ACAD_REACTORS
330
7938
102
}
330
2
100
AcDbEntity
  8
KIJUN
100
AcDbCircle
 10
66.1329492442544
 20
409.8285455310781
 30
0.0
 40
102.1380860082488
100
AcDbArc
 50
86.08078118897847
 51
90.42426867989659
  0
ARC
  5
7596
102
{ACAD_REACTORS
330
7938
102
}
330
2
100
AcDbEntity
  8
KIJUN
100
AcDbCircle
 10
73.04573151618672
 20
510.7301108443714
 30
0.0
 40
1.0
100
AcDbArc
 50
306.4554713998688
 51
86.08078118897847
  0
ARC
  5
7597
102
{ACAD_REACTORS
330
7938
102
}
330
2
100
AcDbEntity
  8
KIJUN
100
AcDbCircle
 10
65.38404015419633
 20
510.963858733672
 30
0.0
 40
1.0
100
AcDbArc
 50
90.42426867989659
 51
230.0495784690079
  0
ARC
  5
7598
102
{ACAD_REACTORS
330
7938
102
}
330
2
100
AcDbEntity
  8
KIJUN
100
AcDbCircle
 10
69.36339041141104
 20
515.7146061919006
 30
0.0
 40
7.197163051062951
100
AcDbArc
 50
230.0495784690079
 51
306.4554713998701
  0
ARC
  5
759B
102
{ACAD_REACTORS
330
7938
102
}
330
2
100
AcDbEntity
  8
KIJUN
100
AcDbCircle
 10
88.52623119481837
 20
536.283296890618
 30
0.0
 40
9.034322742441149
100
AcDbArc
 50
156.9226618159359
 51
219.3803132257847
  0
ARC
  5
759C
102
{ACAD_REACTORS
330
7938
102
}
330
2
100
AcDbEntity
  8
KIJUN
100
AcDbCircle
 10
80.08045158736251
 20
528.73171750746
 30
0.0
 40
2.334621617602437
100
AcDbArc
 50
302.9840567735212
 51
51.20622231286397
  0
ARC
  5
759D
102
{ACAD_REACTORS
330
7938
102
}
330
2
100
AcDbEntity
  8
KIJUN
100
AcDbCircle
 10
84.39882987566113
 20
536.9893063946501
 30
0.0
 40
7.042900724966569
100
AcDbArc
 50
192.6220385948876
 51
246.079344542101
  0
ARC
  5
759E
102
{ACAD_REACTORS
330
7938
102
}
330
2
100
AcDbEntity
  8
KIJUN
100
AcDbCircle
 10
73.6483181522733
 20
549.6981001875623
 30
0.0
 40
5.418016781885046
100
AcDbArc
 50
43.71150187817792
 51
160.4293919895764
  0
ARC
  5
759F
102
{ACAD_REACTORS
330
7938
102
}
330
2
100
AcDbEntity
  8
KIJUN
100
AcDbCircle
 10
68.13686380420074
 20
544.5405830387428
 30
0.0
 40
12.96608937172054
100
AcDbArc
 50
338.6709462822188
 51
43.35548424876756
  0
ARC
  5
75A0
102
{ACAD_REACTORS
330
7938
102
}
330
2
100
AcDbEntity
  8
KIJUN
100
AcDbCircle
 10
82.30878407024453
 20
520.0836698881841
 30
0.0
 40
6.661091915403553
100
AcDbArc
 50
134.0950402228888
 51
223.631934170383
  0
ARC
  5
75A1
102
{ACAD_REACTORS
330
7938
102
}
330
2
100
AcDbEntity
  8
KIJUN
100
AcDbCircle
 10
84.55239324771719
 20
519.5839340684174
 30
0.0
 40
13.0725803103046
100
AcDbArc
 50
179.7863258301631
 51
225.9542693562195
  0
ARC
  5
75A2
102
{ACAD_REACTORS
330
7938
102
}
330
2
100
AcDbEntity
  8
KIJUN
100
AcDbCircle
 10
78.32841162610384
 20
513.5257064574759
 30
0.0
 40
4.398702940071996
100
AcDbArc
 50
229.3667811708667
 51
287.2602242331016
  0
ARC
  5
75A3
102
{ACAD_REACTORS
330
7938
102
}
330
2
100
AcDbEntity
  8
KIJUN
100
AcDbCircle
 10
76.80749083800106
 20
511.0890190657097
 30
0.0
 40
5.735812552451749
100
AcDbArc
 50
283.5120222362243
 51
52.25794727793215
  0
ARC
  5
75A4
102
{ACAD_REACTORS
330
7938
102
}
330
2
100
AcDbEntity
  8
KIJUN
100
AcDbCircle
 10
78.97123243664259
 20
514.1501145707527
 30
0.0
 40
1.997370252473639
100
AcDbArc
 50
47.58596240060622
 51
262.8958509090941
  0
ARC
  5
75A5
102
{ACAD_REACTORS
330
7938
102
}
330
2
100
AcDbEntity
  8
KIJUN
100
AcDbCircle
 10
34.83931854920036
 20
612.0295547496712
 30
0.0
 40
97.11843900077658
100
AcDbArc
 50
296.1710607783184
 51
298.6149910033473
  0
ARC
  5
75A6
102
{ACAD_REACTORS
330
7938
102
}
330
2
100
AcDbEntity
  8
KIJUN
100
AcDbCircle
 10
86.71078545216891
 20
538.3947117883791
 30
0.0
 40
9.645067583439468
100
AcDbArc
 50
144.2318278851944
 51
197.77478573242
  0
ARC
  5
75A7
102
{ACAD_REACTORS
330
7938
102
}
330
2
100
AcDbEntity
  8
KIJUN
100
AcDbCircle
 10
81.82649332807569
 20
535.0696541526079
 30
0.0
 40
7.386403198274019
100
AcDbArc
 50
188.9695478664024
 51
257.4886582201386
  0
ARC
  5
75A8
102
{ACAD_REACTORS
330
7938
102
}
330
2
100
AcDbEntity
  8
KIJUN
100
AcDbCircle
 10
89.92878891741055
 20
536.4516705517225
 30
0.0
 40
15.60542072616852
100
AcDbArc
 50
159.6349544486095
 51
189.3436478088018
  0
ARC
  5
75A9
102
{ACAD_REACTORS
330
7938
102
}
330
2
100
AcDbEntity
  8
KIJUN
100
AcDbCircle
 10
79.1544405931944
 20
537.2004122611183
 30
0.0
 40
8.676153616895698
100
AcDbArc
 50
144.520758765886
 51
210.6114198049322
  0
ARC
  5
75AA
102
{ACAD_REACTORS
330
7938
102
}
330
2
100
AcDbEntity
  8
KIJUN
100
AcDbCircle
 10
74.19706597052732
 20
545.5266407519839
 30
0.0
 40
3.907750954262793
100
AcDbArc
 50
115.2077924241559
 51
237.3571832352015
  0
ARC
  5
75AB
102
{ACAD_REACTORS
330
7938
102
}
330
2
100
AcDbEntity
  8
KIJUN
100
AcDbCircle
 10
69.89465026122275
 20
545.8061860326274
 30
0.0
 40
4.190646826681388
100
AcDbArc
 50
301.5796832467153
 51
50.98529241264333
  0
ARC
  5
75AC
102
{ACAD_REACTORS
330
7938
102
}
330
2
100
AcDbEntity
  8
KIJUN
100
AcDbCircle
 10
211.6424904350366
 20
537.0463570333136
 30
0.0
 40
141.5583080900729
100
AcDbArc
 50
179.8354331517546
 51
184.6105159967729
  0
ARC
  5
76CC
102
{ACAD_REACTORS
330
7938
102
}
330
2
100
AcDbEntity
  8
KIJUN
100
AcDbCircle
 10
44.46555435692403
 20
383.9146506111033
 30
0.0
 40
13.0096494651798
100
AcDbArc
 50
328.3768668024829
 51
17.51956265642971
  0
ARC
  5
76CD
102
{ACAD_REACTORS
330
7938
102
}
330
2
100
AcDbEntity
  8
KIJUN
100
AcDbCircle
 10
57.00615519354312
 20
375.2736862618363
 30
0.0
 40
2.334621617602437
100
AcDbArc
 50
128.793777687136
 51
237.0159432264788
  0
ARC
  5
76CE
102
{ACAD_REACTORS
330
7938
102
}
330
2
100
AcDbEntity
  8
KIJUN
100
AcDbCircle
 10
52.6877769052445
 20
383.5312751490264
 30
0.0
 40
7.042900724966569
100
AcDbArc
 50
293.9206554578991
 51
347.3779614051157
  0
ARC
  5
76CF
102
{ACAD_REACTORS
330
7938
102
}
330
2
100
AcDbEntity
  8
KIJUN
100
AcDbCircle
 10
62.94458801840426
 20
400.2345002271844
 30
0.0
 40
5.802925549834638
100
AcDbArc
 50
15.24525599163459
 51
131.4394498763542
  0
ARC
  5
76D0
102
{ACAD_REACTORS
330
7938
102
}
330
2
100
AcDbEntity
  8
KIJUN
100
AcDbCircle
 10
70.84320663143774
 20
394.4949572636896
 30
0.0
 40
15.47936230451577
100
AcDbArc
 50
139.3211325264868
 51
205.4998206195671
  0
ARC
  5
76D1
102
{ACAD_REACTORS
330
7938
102
}
330
2
100
AcDbEntity
  8
KIJUN
100
AcDbCircle
 10
54.7778227106611
 20
366.6256386425605
 30
0.0
 40
6.661091915403553
100
AcDbArc
 50
316.368065829617
 51
45.9049597771112
  0
ARC
  5
76D2
102
{ACAD_REACTORS
330
7938
102
}
330
2
100
AcDbEntity
  8
KIJUN
100
AcDbCircle
 10
52.53421353318845
 20
366.1259028227937
 30
0.0
 40
13.0725803103046
100
AcDbArc
 50
314.0457306437804
 51
0.2136741698368403
  0
ARC
  5
76D3
102
{ACAD_REACTORS
330
7938
102
}
330
2
100
AcDbEntity
  8
KIJUN
100
AcDbCircle
 10
58.7581951548018
 20
360.0676752118523
 30
0.0
 40
4.398702940071996
100
AcDbArc
 50
252.7397757668984
 51
310.6332188291333
  0
ARC
  5
76D4
102
{ACAD_REACTORS
330
7938
102
}
330
2
100
AcDbEntity
  8
KIJUN
100
AcDbCircle
 10
60.27911594290458
 20
357.630987820086
 30
0.0
 40
5.735812552451749
100
AcDbArc
 50
127.7420527220675
 51
260.1685055537691
  0
ARC
  5
76D5
102
{ACAD_REACTORS
330
7938
102
}
330
2
100
AcDbEntity
  8
KIJUN
100
AcDbCircle
 10
58.11537434426305
 20
360.692083325129
 30
0.0
 40
1.997370252473639
100
AcDbArc
 50
277.1041490909059
 51
132.414037599396
  0
ARC
  5
76D6
102
{ACAD_REACTORS
330
7938
102
}
330
2
100
AcDbEntity
  8
KIJUN
100
AcDbCircle
 10
102.2472882317053
 20
458.5715235040474
 30
0.0
 40
97.11843900077658
100
AcDbArc
 50
241.3850089966528
 51
243.8289392216816
  0
ARC
  5
76D7
102
{ACAD_REACTORS
330
7938
102
}
330
2
100
AcDbEntity
  8
KIJUN
100
AcDbCircle
 10
50.37582132873672
 20
384.9366805427554
 30
0.0
 40
9.645067583439468
100
AcDbArc
 50
342.2252142675799
 51
35.76817211480557
  0
ARC
  5
76D8
102
{ACAD_REACTORS
330
7938
102
}
330
2
100
AcDbEntity
  8
KIJUN
100
AcDbCircle
 10
55.26011345282995
 20
381.6116229069842
 30
0.0
 40
7.386403198274019
100
AcDbArc
 50
282.511341779855
 51
351.0304521335976
  0
ARC
  5
76D9
102
{ACAD_REACTORS
330
7938
102
}
330
2
100
AcDbEntity
  8
KIJUN
100
AcDbCircle
 10
47.15781786349509
 20
382.9936393060988
 30
0.0
 40
15.60542072616852
100
AcDbArc
 50
350.6563521911982
 51
20.36504555139053
  0
ARC
  5
76DA
102
{ACAD_REACTORS
330
7938
102
}
330
2
100
AcDbEntity
  8
KIJUN
100
AcDbCircle
 10
57.93216618771123
 20
386.7211472803233
 30
0.0
 40
8.676153616895698
100
AcDbArc
 50
329.3885801950678
 51
35.47924123411394
  0
ARC
  5
76DB
102
{ACAD_REACTORS
330
7938
102
}
330
2
100
AcDbEntity
  8
KIJUN
100
AcDbCircle
 10
62.88954081037832
 20
395.0473757711888
 30
0.0
 40
3.907750954262793
100
AcDbArc
 50
302.6428167647985
 51
64.79220757584403
  0
ARC
  5
76DC
102
{ACAD_REACTORS
330
7938
102
}
330
2
100
AcDbEntity
  8
KIJUN
100
AcDbCircle
 10
67.19195651968289
 20
395.3269210518324
 30
0.0
 40
4.190646826681388
100
AcDbArc
 50
129.0147075873566
 51
238.4203167532843
  0
ARC
  5
76DD
102
{ACAD_REACTORS
330
7938
102
}
330
2
100
AcDbEntity
  8
KIJUN
100
AcDbCircle
 10
68.54330339045327
 20
365.3336451456383
 30
0.0
 40
7.160627071259285
100
AcDbArc
 50
73.79008205605053
 51
106.2099179439629
  0
ARC
  5
76DE
102
{ACAD_REACTORS
330
7938
102
}
330
2
100
AcDbEntity
  8
KIJUN
100
AcDbCircle
 10
-74.55588365413087
 20
383.58832578769
 30
0.0
 40
141.5583080900729
100
AcDbArc
 50
355.3894840032271
 51
0.1645668482453407
  0
ARC
  5
76DF
102
{ACAD_REACTORS
330
7938
102
}
330
2
100
AcDbEntity
  8
KIJUN
100
AcDbCircle
 10
92.62105242398162
 20
383.9146506111033
 30
0.0
 40
13.0096494651798
100
AcDbArc
 50
162.4804373435687
 51
211.6231331975171
  0
ARC
  5
76E0
102
{ACAD_REACTORS
330
7938
102
}
330
2
100
AcDbEntity
  8
KIJUN
100
AcDbCircle
 10
80.08045158736264
 20
375.2736862618363
 30
0.0
 40
2.334621617602437
100
AcDbArc
 50
302.9840567735212
 51
51.20622231286397
  0
ARC
  5
76E1
102
{ACAD_REACTORS
330
7938
102
}
330
2
100
AcDbEntity
  8
KIJUN
100
AcDbCircle
 10
84.39882987566125
 20
383.5312751490264
 30
0.0
 40
7.042900724966569
100
AcDbArc
 50
192.6220385948843
 51
246.079344542101
  0
ARC
  5
76E2
102
{ACAD_REACTORS
330
7938
102
}
330
2
100
AcDbEntity
  8
KIJUN
100
AcDbCircle
 10
74.14201876250138
 20
400.2345002271844
 30
0.0
 40
5.802925549834638
100
AcDbArc
 50
48.56055012364571
 51
164.7547440083654
  0
ARC
  5
76E3
102
{ACAD_REACTORS
330
7938
102
}
330
2
100
AcDbEntity
  8
KIJUN
100
AcDbCircle
 10
66.2434001494679
 20
394.4949572636896
 30
0.0
 40
15.47936230451577
100
AcDbArc
 50
334.5001793804329
 51
40.67886747351317
  0
ARC
  5
76E4
102
{ACAD_REACTORS
330
7938
102
}
330
2
100
AcDbEntity
  8
KIJUN
100
AcDbCircle
 10
82.30878407024453
 20
366.6256386425605
 30
0.0
 40
6.661091915403553
100
AcDbArc
 50
134.0950402228888
 51
223.631934170383
  0
ARC
  5
76E5
102
{ACAD_REACTORS
330
7938
102
}
330
2
100
AcDbEntity
  8
KIJUN
100
AcDbCircle
 10
84.55239324771719
 20
366.1259028227937
 30
0.0
 40
13.0725803103046
100
AcDbArc
 50
179.7863258301631
 51
225.9542693562195
  0
ARC
  5
76E6
102
{ACAD_REACTORS
330
7938
102
}
330
2
100
AcDbEntity
  8
KIJUN
100
AcDbCircle
 10
78.32841162610384
 20
360.0676752118523
 30
0.0
 40
4.398702940071996
100
AcDbArc
 50
229.3667811708667
 51
287.2602242331016
  0
ARC
  5
76E7
102
{ACAD_REACTORS
330
7938
102
}
330
2
100
AcDbEntity
  8
KIJUN
100
AcDbCircle
 10
76.80749083800106
 20
357.630987820086
 30
0.0
 40
5.735812552451749
100
AcDbArc
 50
279.8314944462309
 51
52.25794727793215
  0
ARC
  5
76E8
102
{ACAD_REACTORS
330
7938
102
}
330
2
100
AcDbEntity
  8
KIJUN
100
AcDbCircle
 10
78.97123243664259
 20
360.692083325129
 30
0.0
 40
1.997370252473639
100
AcDbArc
 50
47.58596240060622
 51
262.8958509090941
  0
ARC
  5
76E9
102
{ACAD_REACTORS
330
7938
102
}
330
2
100
AcDbEntity
  8
KIJUN
100
AcDbCircle
 10
34.83931854920036
 20
458.5715235040474
 30
0.0
 40
97.11843900077658
100
AcDbArc
 50
296.1710607783184
 51
298.6149910033473
  0
ARC
  5
76EA
102
{ACAD_REACTORS
330
7938
102
}
330
2
100
AcDbEntity
  8
KIJUN
100
AcDbCircle
 10
86.71078545216891
 20
384.9366805427554
 30
0.0
 40
9.645067583439468
100
AcDbArc
 50
144.2318278851944
 51
197.77478573242
  0
ARC
  5
76EB
102
{ACAD_REACTORS
330
7938
102
}
330
2
100
AcDbEntity
  8
KIJUN
100
AcDbCircle
 10
81.82649332807569
 20
381.6116229069842
 30
0.0
 40
7.386403198274019
100
AcDbArc
 50
188.9695478664024
 51
257.4886582201386
  0
ARC
  5
76EC
102
{ACAD_REACTORS
330
7938
102
}
330
2
100
AcDbEntity
  8
KIJUN
100
AcDbCircle
 10
89.92878891741055
 20
382.9936393060988
 30
0.0
 40
15.60542072616852
100
AcDbArc
 50
159.6349544486095
 51
189.3436478088018
  0
ARC
  5
76ED
102
{ACAD_REACTORS
330
7938
102
}
330
2
100
AcDbEntity
  8
KIJUN
100
AcDbCircle
 10
79.1544405931944
 20
386.7211472803233
 30
0.0
 40
8.676153616895698
100
AcDbArc
 50
144.520758765886
 51
210.61141980493
  0
ARC
  5
76EE
102
{ACAD_REACTORS
330
7938
102
}
330
2
100
AcDbEntity
  8
KIJUN
100
AcDbCircle
 10
74.19706597052732
 20
395.0473757711888
 30
0.0
 40
3.907750954262793
100
AcDbArc
 50
115.2077924241559
 51
237.3571832352015
  0
ARC
  5
76EF
102
{ACAD_REACTORS
330
7938
102
}
330
2
100
AcDbEntity
  8
KIJUN
100
AcDbCircle
 10
69.89465026122275
 20
395.3269210518324
 30
0.0
 40
4.190646826681388
100
AcDbArc
 50
301.5796832467153
 51
50.98529241264333
  0
ARC
  5
76F0
102
{ACAD_REACTORS
330
7938
102
}
330
2
100
AcDbEntity
  8
KIJUN
100
AcDbCircle
 10
211.6424904350366
 20
383.5883257876899
 30
0.0
 40
141.5583080900729
100
AcDbArc
 50
179.8354331517546
 51
184.6105159967729
  0
ARC
  5
76F1
102
{ACAD_REACTORS
330
7938
102
}
330
2
100
AcDbEntity
  8
KIJUN
100
AcDbCircle
 10
66.1329492442544
 20
254.8224275519617
 30
0.0
 40
102.1380860082488
100
AcDbArc
 50
86.08078118897847
 51
90.42426867989659
  0
ARC
  5
76F2
102
{ACAD_REACTORS
330
7938
102
}
330
2
100
AcDbEntity
  8
KIJUN
100
AcDbCircle
 10
73.04573151618672
 20
355.723992865255
 30
0.0
 40
1.0
100
AcDbArc
 50
306.4554713998688
 51
86.08078118897847
  0
ARC
  5
76F3
102
{ACAD_REACTORS
330
7938
102
}
330
2
100
AcDbEntity
  8
KIJUN
100
AcDbCircle
 10
65.38404015419633
 20
355.9577407545556
 30
0.0
 40
1.0
100
AcDbArc
 50
90.42426867989659
 51
230.0495784690079
  0
ARC
  5
76F4
102
{ACAD_REACTORS
330
7938
102
}
330
2
100
AcDbEntity
  8
KIJUN
100
AcDbCircle
 10
69.36339041141104
 20
360.7084882127842
 30
0.0
 40
7.197163051062951
100
AcDbArc
 50
230.0495784690079
 51
306.4554713998701
  0
ARC
  5
76F5
102
{ACAD_REACTORS
330
7938
102
}
330
2
100
AcDbEntity
  8
KIJUN
100
AcDbCircle
 10
44.46555435692403
 20
331.1441561894811
 30
0.0
 40
13.0096494651798
100
AcDbArc
 50
328.3768668024829
 51
17.51956265642971
  0
ARC
  5
76F6
102
{ACAD_REACTORS
330
7938
102
}
330
2
100
AcDbEntity
  8
KIJUN
100
AcDbCircle
 10
57.00615519354312
 20
322.5031918402143
 30
0.0
 40
2.334621617602437
100
AcDbArc
 50
128.793777687136
 51
237.0159432264788
  0
ARC
  5
76F7
102
{ACAD_REACTORS
330
7938
102
}
330
2
100
AcDbEntity
  8
KIJUN
100
AcDbCircle
 10
52.6877769052445
 20
330.7607807274043
 30
0.0
 40
7.042900724966569
100
AcDbArc
 50
293.9206554578991
 51
347.3779614051157
  0
ARC
  5
76F8
102
{ACAD_REACTORS
330
7938
102
}
330
2
100
AcDbEntity
  8
KIJUN
100
AcDbCircle
 10
62.94458801840426
 20
347.4640058055625
 30
0.0
 40
5.802925549834638
100
AcDbArc
 50
15.24525599163459
 51
131.4394498763542
  0
ARC
  5
76F9
102
{ACAD_REACTORS
330
7938
102
}
330
2
100
AcDbEntity
  8
KIJUN
100
AcDbCircle
 10
70.84320663143774
 20
341.7244628420675
 30
0.0
 40
15.47936230451577
100
AcDbArc
 50
139.3211325264868
 51
205.4998206195671
  0
ARC
  5
76FA
102
{ACAD_REACTORS
330
7938
102
}
330
2
100
AcDbEntity
  8
KIJUN
100
AcDbCircle
 10
54.7778227106611
 20
313.8551442209384
 30
0.0
 40
6.661091915403553
100
AcDbArc
 50
316.368065829617
 51
45.9049597771112
  0
ARC
  5
76FB
102
{ACAD_REACTORS
330
7938
102
}
330
2
100
AcDbEntity
  8
KIJUN
100
AcDbCircle
 10
52.53421353318845
 20
313.3554084011716
 30
0.0
 40
13.0725803103046
100
AcDbArc
 50
314.0457306437804
 51
0.2136741698368403
  0
ARC
  5
76FC
102
{ACAD_REACTORS
330
7938
102
}
330
2
100
AcDbEntity
  8
KIJUN
100
AcDbCircle
 10
58.7581951548018
 20
307.2971807902302
 30
0.0
 40
4.398702940071996
100
AcDbArc
 50
252.7397757668984
 51
310.6332188291333
  0
ARC
  5
76FD
102
{ACAD_REACTORS
330
7938
102
}
330
2
100
AcDbEntity
  8
KIJUN
100
AcDbCircle
 10
60.27911594290458
 20
304.860493398464
 30
0.0
 40
5.735812552451749
100
AcDbArc
 50
127.7420527220675
 51
254.7251789689261
  0
ARC
  5
76FE
102
{ACAD_REACTORS
330
7938
102
}
330
2
100
AcDbEntity
  8
KIJUN
100
AcDbCircle
 10
58.11537434426305
 20
307.9215889035069
 30
0.0
 40
1.997370252473639
100
AcDbArc
 50
277.1041490909059
 51
132.414037599396
  0
ARC
  5
76FF
102
{ACAD_REACTORS
330
7938
102
}
330
2
100
AcDbEntity
  8
KIJUN
100
AcDbCircle
 10
102.2472882317053
 20
405.8010290824254
 30
0.0
 40
97.11843900077658
100
AcDbArc
 50
241.3850089966528
 51
243.8289392216816
  0
ARC
  5
7700
102
{ACAD_REACTORS
330
7938
102
}
330
2
100
AcDbEntity
  8
KIJUN
100
AcDbCircle
 10
50.37582132873672
 20
332.1661861211333
 30
0.0
 40
9.645067583439468
100
AcDbArc
 50
342.2252142675799
 51
35.76817211480557
  0
ARC
  5
7701
102
{ACAD_REACTORS
330
7938
102
}
330
2
100
AcDbEntity
  8
KIJUN
100
AcDbCircle
 10
55.26011345282995
 20
328.8411284853621
 30
0.0
 40
7.386403198274019
100
AcDbArc
 50
282.511341779855
 51
351.0304521335976
  0
ARC
  5
7702
102
{ACAD_REACTORS
330
7938
102
}
330
2
100
AcDbEntity
  8
KIJUN
100
AcDbCircle
 10
47.15781786349509
 20
330.2231448844767
 30
0.0
 40
15.60542072616852
100
AcDbArc
 50
350.6563521911982
 51
20.36504555139053
  0
ARC
  5
7703
102
{ACAD_REACTORS
330
7938
102
}
330
2
100
AcDbEntity
  8
KIJUN
100
AcDbCircle
 10
57.93216618771123
 20
333.9506528587012
 30
0.0
 40
8.676153616895698
100
AcDbArc
 50
329.3885801950678
 51
35.47924123411394
  0
ARC
  5
7704
102
{ACAD_REACTORS
330
7938
102
}
330
2
100
AcDbEntity
  8
KIJUN
100
AcDbCircle
 10
62.88954081037832
 20
342.2768813495667
 30
0.0
 40
3.907750954262793
100
AcDbArc
 50
302.6428167647985
 51
64.79220757584403
  0
ARC
  5
7705
102
{ACAD_REACTORS
330
7938
102
}
330
2
100
AcDbEntity
  8
KIJUN
100
AcDbCircle
 10
67.19195651968289
 20
342.5564266302103
 30
0.0
 40
4.190646826681388
100
AcDbArc
 50
129.0147075873566
 51
238.4203167532843
  0
ARC
  5
7706
102
{ACAD_REACTORS
330
7938
102
}
330
2
100
AcDbEntity
  8
KIJUN
100
AcDbCircle
 10
68.54330339045327
 20
312.5631507240163
 30
0.0
 40
7.160627071259285
100
AcDbArc
 50
73.79008205605053
 51
106.2099179439565
  0
ARC
  5
7707
102
{ACAD_REACTORS
330
7938
102
}
330
2
100
AcDbEntity
  8
KIJUN
100
AcDbCircle
 10
-74.55588365413087
 20
330.8178313660679
 30
0.0
 40
141.5583080900729
100
AcDbArc
 50
355.3894840032271
 51
0.1645668482453407
  0
ARC
  5
7708
102
{ACAD_REACTORS
330
7938
102
}
330
2
100
AcDbEntity
  8
KIJUN
100
AcDbCircle
 10
92.62105242398162
 20
331.1441561894811
 30
0.0
 40
13.0096494651798
100
AcDbArc
 50
162.4804373435687
 51
211.6231331975171
  0
ARC
  5
7709
102
{ACAD_REACTORS
330
7938
102
}
330
2
100
AcDbEntity
  8
KIJUN
100
AcDbCircle
 10
80.08045158736264
 20
322.5031918402143
 30
0.0
 40
2.334621617602437
100
AcDbArc
 50
302.9840567735212
 51
51.20622231286397
  0
ARC
  5
770A
102
{ACAD_REACTORS
330
7938
102
}
330
2
100
AcDbEntity
  8
KIJUN
100
AcDbCircle
 10
84.39882987566125
 20
330.7607807274043
 30
0.0
 40
7.042900724966569
100
AcDbArc
 50
192.6220385948843
 51
246.079344542101
  0
ARC
  5
770B
102
{ACAD_REACTORS
330
7938
102
}
330
2
100
AcDbEntity
  8
KIJUN
100
AcDbCircle
 10
74.14201876250138
 20
347.4640058055625
 30
0.0
 40
5.802925549834638
100
AcDbArc
 50
48.56055012364571
 51
164.7547440083654
  0
ARC
  5
770C
102
{ACAD_REACTORS
330
7938
102
}
330
2
100
AcDbEntity
  8
KIJUN
100
AcDbCircle
 10
66.2434001494679
 20
341.7244628420675
 30
0.0
 40
15.47936230451577
100
AcDbArc
 50
334.5001793804329
 51
40.67886747351317
  0
ARC
  5
770D
102
{ACAD_REACTORS
330
7938
102
}
330
2
100
AcDbEntity
  8
KIJUN
100
AcDbCircle
 10
82.30878407024453
 20
313.8551442209384
 30
0.0
 40
6.661091915403553
100
AcDbArc
 50
134.0950402228888
 51
223.631934170383
  0
ARC
  5
770E
102
{ACAD_REACTORS
330
7938
102
}
330
2
100
AcDbEntity
  8
KIJUN
100
AcDbCircle
 10
84.55239324771719
 20
313.3554084011716
 30
0.0
 40
13.0725803103046
100
AcDbArc
 50
179.7863258301631
 51
225.9542693562195
  0
ARC
  5
770F
102
{ACAD_REACTORS
330
7938
102
}
330
2
100
AcDbEntity
  8
KIJUN
100
AcDbCircle
 10
78.32841162610384
 20
307.2971807902302
 30
0.0
 40
4.398702940071996
100
AcDbArc
 50
229.3667811708667
 51
287.2602242331016
  0
ARC
  5
7710
102
{ACAD_REACTORS
330
7938
102
}
330
2
100
AcDbEntity
  8
KIJUN
100
AcDbCircle
 10
76.80749083800106
 20
304.860493398464
 30
0.0
 40
5.735812552451749
100
AcDbArc
 50
285.2748210310739
 51
52.25794727793215
  0
ARC
  5
7711
102
{ACAD_REACTORS
330
7938
102
}
330
2
100
AcDbEntity
  8
KIJUN
100
AcDbCircle
 10
78.97123243664259
 20
307.9215889035069
 30
0.0
 40
1.997370252473639
100
AcDbArc
 50
47.58596240060622
 51
262.8958509090941
  0
ARC
  5
7712
102
{ACAD_REACTORS
330
7938
102
}
330
2
100
AcDbEntity
  8
KIJUN
100
AcDbCircle
 10
34.83931854920036
 20
405.8010290824254
 30
0.0
 40
97.11843900077658
100
AcDbArc
 50
296.1710607783184
 51
298.6149910033473
  0
ARC
  5
7713
102
{ACAD_REACTORS
330
7938
102
}
330
2
100
AcDbEntity
  8
KIJUN
100
AcDbCircle
 10
86.71078545216891
 20
332.1661861211333
 30
0.0
 40
9.645067583439468
100
AcDbArc
 50
144.2318278851944
 51
197.77478573242
  0
ARC
  5
7714
102
{ACAD_REACTORS
330
7938
102
}
330
2
100
AcDbEntity
  8
KIJUN
100
AcDbCircle
 10
81.82649332807569
 20
328.8411284853621
 30
0.0
 40
7.386403198274019
100
AcDbArc
 50
188.9695478664024
 51
257.4886582201386
  0
ARC
  5
7715
102
{ACAD_REACTORS
330
7938
102
}
330
2
100
AcDbEntity
  8
KIJUN
100
AcDbCircle
 10
89.92878891741055
 20
330.2231448844767
 30
0.0
 40
15.60542072616852
100
AcDbArc
 50
159.6349544486095
 51
189.3436478088018
  0
ARC
  5
7716
102
{ACAD_REACTORS
330
7938
102
}
330
2
100
AcDbEntity
  8
KIJUN
100
AcDbCircle
 10
79.1544405931944
 20
333.9506528587012
 30
0.0
 40
8.676153616895698
100
AcDbArc
 50
144.520758765886
 51
210.61141980493
  0
ARC
  5
7717
102
{ACAD_REACTORS
330
7938
102
}
330
2
100
AcDbEntity
  8
KIJUN
100
AcDbCircle
 10
74.19706597052732
 20
342.2768813495667
 30
0.0
 40
3.907750954262793
100
AcDbArc
 50
115.2077924241559
 51
237.3571832352015
  0
ARC
  5
7718
102
{ACAD_REACTORS
330
7938
102
}
330
2
100
AcDbEntity
  8
KIJUN
100
AcDbCircle
 10
69.89465026122275
 20
342.5564266302103
 30
0.0
 40
4.190646826681388
100
AcDbArc
 50
301.5796832467153
 51
50.98529241264333
  0
ARC
  5
7719
102
{ACAD_REACTORS
330
7938
102
}
330
2
100
AcDbEntity
  8
KIJUN
100
AcDbCircle
 10
211.6424904350366
 20
330.8178313660679
 30
0.0
 40
141.5583080900729
100
AcDbArc
 50
179.8354331517546
 51
184.6105159967729
  0
ARC
  5
771A
102
{ACAD_REACTORS
330
7938
102
}
330
2
100
AcDbEntity
  8
KIJUN
100
AcDbCircle
 10
66.1329492442544
 20
202.0519331303396
 30
0.0
 40
102.1380860082488
100
AcDbArc
 50
86.08078118897847
 51
90.42426867989659
  0
ARC
  5
771B
102
{ACAD_REACTORS
330
7938
102
}
330
2
100
AcDbEntity
  8
KIJUN
100
AcDbCircle
 10
73.04573151618672
 20
302.953498443633
 30
0.0
 40
1.0
100
AcDbArc
 50
306.4554713998688
 51
86.08078118897847
  0
ARC
  5
771C
102
{ACAD_REACTORS
330
7938
102
}
330
2
100
AcDbEntity
  8
KIJUN
100
AcDbCircle
 10
65.38404015419633
 20
303.1872463329336
 30
0.0
 40
1.0
100
AcDbArc
 50
90.42426867989659
 51
230.0495784690079
  0
ARC
  5
771D
102
{ACAD_REACTORS
330
7938
102
}
330
2
100
AcDbEntity
  8
KIJUN
100
AcDbCircle
 10
69.36339041141104
 20
307.9379937911621
 30
0.0
 40
7.197163051062951
100
AcDbArc
 50
230.0495784690079
 51
306.4554713998701
  0
ARC
  5
771E
102
{ACAD_REACTORS
330
7938
102
}
330
2
100
AcDbEntity
  8
KIJUN
100
AcDbCircle
 10
44.46555435692403
 20
279.0619331898682
 30
0.0
 40
13.0096494651798
100
AcDbArc
 50
328.3768668024829
 51
17.51956265642971
  0
ARC
  5
771F
102
{ACAD_REACTORS
330
7938
102
}
330
2
100
AcDbEntity
  8
KIJUN
100
AcDbCircle
 10
57.00615519354312
 20
270.4209688406014
 30
0.0
 40
2.334621617602437
100
AcDbArc
 50
128.793777687136
 51
237.0159432264788
  0
ARC
  5
7720
102
{ACAD_REACTORS
330
7938
102
}
330
2
100
AcDbEntity
  8
KIJUN
100
AcDbCircle
 10
52.6877769052445
 20
278.6785577277914
 30
0.0
 40
7.042900724966569
100
AcDbArc
 50
293.9206554578991
 51
347.3779614051123
  0
ARC
  5
7721
102
{ACAD_REACTORS
330
7938
102
}
330
2
100
AcDbEntity
  8
KIJUN
100
AcDbCircle
 10
62.94458801840426
 20
295.3817828059495
 30
0.0
 40
5.802925549834638
100
AcDbArc
 50
15.24525599163459
 51
131.4394498763542
  0
ARC
  5
7722
102
{ACAD_REACTORS
330
7938
102
}
330
2
100
AcDbEntity
  8
KIJUN
100
AcDbCircle
 10
70.84320663143774
 20
289.6422398424546
 30
0.0
 40
15.47936230451577
100
AcDbArc
 50
139.3211325264868
 51
205.4998206195671
  0
ARC
  5
7723
102
{ACAD_REACTORS
330
7938
102
}
330
2
100
AcDbEntity
  8
KIJUN
100
AcDbCircle
 10
54.7778227106611
 20
261.7729212213255
 30
0.0
 40
6.661091915403553
100
AcDbArc
 50
316.368065829617
 51
45.9049597771112
  0
ARC
  5
7724
102
{ACAD_REACTORS
330
7938
102
}
330
2
100
AcDbEntity
  8
KIJUN
100
AcDbCircle
 10
52.53421353318845
 20
261.2731854015588
 30
0.0
 40
13.0725803103046
100
AcDbArc
 50
314.0457306437804
 51
0.2136741698368403
  0
ARC
  5
7725
102
{ACAD_REACTORS
330
7938
102
}
330
2
100
AcDbEntity
  8
KIJUN
100
AcDbCircle
 10
58.7581951548018
 20
255.2149577906173
 30
0.0
 40
4.398702940071996
100
AcDbArc
 50
252.7397757668984
 51
310.6332188291333
  0
ARC
  5
7726
102
{ACAD_REACTORS
330
7938
102
}
330
2
100
AcDbEntity
  8
KIJUN
100
AcDbCircle
 10
60.27911594290458
 20
252.7782703988511
 30
0.0
 40
5.735812552451749
100
AcDbArc
 50
127.7420527220675
 51
253.5447791385128
  0
ARC
  5
7727
102
{ACAD_REACTORS
330
7938
102
}
330
2
100
AcDbEntity
  8
KIJUN
100
AcDbCircle
 10
58.11537434426305
 20
255.839365903894
 30
0.0
 40
1.997370252473639
100
AcDbArc
 50
277.1041490909059
 51
132.414037599396
  0
ARC
  5
7728
102
{ACAD_REACTORS
330
7938
102
}
330
2
100
AcDbEntity
  8
KIJUN
100
AcDbCircle
 10
102.2472882317053
 20
353.7188060828125
 30
0.0
 40
97.11843900077658
100
AcDbArc
 50
241.3850089966528
 51
243.8289392216816
  0
ARC
  5
7729
102
{ACAD_REACTORS
330
7938
102
}
330
2
100
AcDbEntity
  8
KIJUN
100
AcDbCircle
 10
50.37582132873672
 20
280.0839631215205
 30
0.0
 40
9.645067583439468
100
AcDbArc
 50
342.2252142675799
 51
35.76817211480557
  0
ARC
  5
772A
102
{ACAD_REACTORS
330
7938
102
}
330
2
100
AcDbEntity
  8
KIJUN
100
AcDbCircle
 10
55.26011345282995
 20
276.7589054857492
 30
0.0
 40
7.386403198274019
100
AcDbArc
 50
282.511341779855
 51
351.0304521335976
  0
ARC
  5
772B
102
{ACAD_REACTORS
330
7938
102
}
330
2
100
AcDbEntity
  8
KIJUN
100
AcDbCircle
 10
47.15781786349509
 20
278.1409218848638
 30
0.0
 40
15.60542072616852
100
AcDbArc
 50
350.6563521911982
 51
20.36504555139053
  0
ARC
  5
772C
102
{ACAD_REACTORS
330
7938
102
}
330
2
100
AcDbEntity
  8
KIJUN
100
AcDbCircle
 10
57.93216618771123
 20
281.8684298590883
 30
0.0
 40
8.676153616895698
100
AcDbArc
 50
329.3885801950678
 51
35.47924123411394
  0
ARC
  5
772D
102
{ACAD_REACTORS
330
7938
102
}
330
2
100
AcDbEntity
  8
KIJUN
100
AcDbCircle
 10
62.88954081037832
 20
290.1946583499538
 30
0.0
 40
3.907750954262793
100
AcDbArc
 50
302.6428167647985
 51
64.79220757584403
  0
ARC
  5
772E
102
{ACAD_REACTORS
330
7938
102
}
330
2
100
AcDbEntity
  8
KIJUN
100
AcDbCircle
 10
67.19195651968289
 20
290.4742036305975
 30
0.0
 40
4.190646826681388
100
AcDbArc
 50
129.0147075873566
 51
238.4203167532843
  0
ARC
  5
772F
102
{ACAD_REACTORS
330
7938
102
}
330
2
100
AcDbEntity
  8
KIJUN
100
AcDbCircle
 10
68.54330339045327
 20
260.4809277244034
 30
0.0
 40
7.160627071259285
100
AcDbArc
 50
73.79008205605053
 51
106.2099179439629
  0
ARC
  5
7730
102
{ACAD_REACTORS
330
7938
102
}
330
2
100
AcDbEntity
  8
KIJUN
100
AcDbCircle
 10
-74.55588365413087
 20
278.735608366455
 30
0.0
 40
141.5583080900729
100
AcDbArc
 50
355.3894840032271
 51
0.1645668482453407
  0
ARC
  5
7731
102
{ACAD_REACTORS
330
7938
102
}
330
2
100
AcDbEntity
  8
KIJUN
100
AcDbCircle
 10
92.62105242398162
 20
279.0619331898682
 30
0.0
 40
13.0096494651798
100
AcDbArc
 50
162.4804373435687
 51
211.6231331975171
  0
ARC
  5
7732
102
{ACAD_REACTORS
330
7938
102
}
330
2
100
AcDbEntity
  8
KIJUN
100
AcDbCircle
 10
80.08045158736264
 20
270.4209688406014
 30
0.0
 40
2.334621617602437
100
AcDbArc
 50
302.9840567735212
 51
51.20622231286397
  0
ARC
  5
7733
102
{ACAD_REACTORS
330
7938
102
}
330
2
100
AcDbEntity
  8
KIJUN
100
AcDbCircle
 10
84.39882987566125
 20
278.6785577277914
 30
0.0
 40
7.042900724966569
100
AcDbArc
 50
192.6220385948843
 51
246.079344542101
  0
ARC
  5
7734
102
{ACAD_REACTORS
330
7938
102
}
330
2
100
AcDbEntity
  8
KIJUN
100
AcDbCircle
 10
74.14201876250138
 20
295.3817828059495
 30
0.0
 40
5.802925549834638
100
AcDbArc
 50
48.56055012364571
 51
164.7547440083654
  0
ARC
  5
7735
102
{ACAD_REACTORS
330
7938
102
}
330
2
100
AcDbEntity
  8
KIJUN
100
AcDbCircle
 10
66.2434001494679
 20
289.6422398424546
 30
0.0
 40
15.47936230451577
100
AcDbArc
 50
334.5001793804329
 51
40.67886747351317
  0
ARC
  5
7736
102
{ACAD_REACTORS
330
7938
102
}
330
2
100
AcDbEntity
  8
KIJUN
100
AcDbCircle
 10
82.30878407024453
 20
261.7729212213255
 30
0.0
 40
6.661091915403553
100
AcDbArc
 50
134.0950402228888
 51
223.631934170383
  0
ARC
  5
7737
102
{ACAD_REACTORS
330
7938
102
}
330
2
100
AcDbEntity
  8
KIJUN
100
AcDbCircle
 10
84.55239324771719
 20
261.2731854015588
 30
0.0
 40
13.0725803103046
100
AcDbArc
 50
179.7863258301631
 51
225.9542693562195
  0
ARC
  5
7738
102
{ACAD_REACTORS
330
7938
102
}
330
2
100
AcDbEntity
  8
KIJUN
100
AcDbCircle
 10
78.32841162610384
 20
255.2149577906173
 30
0.0
 40
4.398702940071996
100
AcDbArc
 50
229.3667811708667
 51
287.2602242331016
  0
ARC
  5
7739
102
{ACAD_REACTORS
330
7938
102
}
330
2
100
AcDbEntity
  8
KIJUN
100
AcDbCircle
 10
76.80749083800106
 20
252.7782703988511
 30
0.0
 40
5.735812552451749
100
AcDbArc
 50
286.4552208614873
 51
52.25794727793215
  0
ARC
  5
773A
102
{ACAD_REACTORS
330
7938
102
}
330
2
100
AcDbEntity
  8
KIJUN
100
AcDbCircle
 10
78.97123243664259
 20
255.839365903894
 30
0.0
 40
1.997370252473639
100
AcDbArc
 50
47.58596240060622
 51
262.8958509090941
  0
ARC
  5
773B
102
{ACAD_REACTORS
330
7938
102
}
330
2
100
AcDbEntity
  8
KIJUN
100
AcDbCircle
 10
34.83931854920036
 20
353.7188060828125
 30
0.0
 40
97.11843900077658
100
AcDbArc
 50
296.1710607783184
 51
298.6149910033473
  0
ARC
  5
773C
102
{ACAD_REACTORS
330
7938
102
}
330
2
100
AcDbEntity
  8
KIJUN
100
AcDbCircle
 10
86.71078545216891
 20
280.0839631215205
 30
0.0
 40
9.645067583439468
100
AcDbArc
 50
144.2318278851944
 51
197.77478573242
  0
ARC
  5
773D
102
{ACAD_REACTORS
330
7938
102
}
330
2
100
AcDbEntity
  8
KIJUN
100
AcDbCircle
 10
81.82649332807569
 20
276.7589054857492
 30
0.0
 40
7.386403198274019
100
AcDbArc
 50
188.9695478664024
 51
257.4886582201386
  0
ARC
  5
773E
102
{ACAD_REACTORS
330
7938
102
}
330
2
100
AcDbEntity
  8
KIJUN
100
AcDbCircle
 10
89.92878891741055
 20
278.1409218848638
 30
0.0
 40
15.60542072616852
100
AcDbArc
 50
159.6349544486095
 51
189.3436478088018
  0
ARC
  5
773F
102
{ACAD_REACTORS
330
7938
102
}
330
2
100
AcDbEntity
  8
KIJUN
100
AcDbCircle
 10
79.1544405931944
 20
281.8684298590883
 30
0.0
 40
8.676153616895698
100
AcDbArc
 50
144.520758765886
 51
210.61141980493
  0
ARC
  5
7740
102
{ACAD_REACTORS
330
7938
102
}
330
2
100
AcDbEntity
  8
KIJUN
100
AcDbCircle
 10
74.19706597052732
 20
290.1946583499538
 30
0.0
 40
3.907750954262793
100
AcDbArc
 50
115.2077924241559
 51
237.3571832352015
  0
ARC
  5
7741
102
{ACAD_REACTORS
330
7938
102
}
330
2
100
AcDbEntity
  8
KIJUN
100
AcDbCircle
 10
69.89465026122275
 20
290.4742036305975
 30
0.0
 40
4.190646826681388
100
AcDbArc
 50
301.5796832467153
 51
50.98529241264333
  0
ARC
  5
7742
102
{ACAD_REACTORS
330
7938
102
}
330
2
100
AcDbEntity
  8
KIJUN
100
AcDbCircle
 10
211.6424904350366
 20
278.735608366455
 30
0.0
 40
141.5583080900729
100
AcDbArc
 50
179.8354331517546
 51
184.6105159967729
  0
ARC
  5
7743
102
{ACAD_REACTORS
330
7938
102
}
330
2
100
AcDbEntity
  8
KIJUN
100
AcDbCircle
 10
66.1329492442544
 20
149.9697101307268
 30
0.0
 40
102.1380860082488
100
AcDbArc
 50
86.08078118897847
 51
90.42426867989659
  0
ARC
  5
7744
102
{ACAD_REACTORS
330
7938
102
}
330
2
100
AcDbEntity
  8
KIJUN
100
AcDbCircle
 10
73.04573151618672
 20
250.8712754440201
 30
0.0
 40
1.0
100
AcDbArc
 50
306.4554713998688
 51
86.08078118897847
  0
ARC
  5
7745
102
{ACAD_REACTORS
330
7938
102
}
330
2
100
AcDbEntity
  8
KIJUN
100
AcDbCircle
 10
65.38404015419633
 20
251.1050233333207
 30
0.0
 40
1.0
100
AcDbArc
 50
90.42426867989659
 51
230.0495784690079
  0
ARC
  5
7746
102
{ACAD_REACTORS
330
7938
102
}
330
2
100
AcDbEntity
  8
KIJUN
100
AcDbCircle
 10
69.36339041141104
 20
255.8557707915491
 30
0.0
 40
7.197163051062951
100
AcDbArc
 50
230.0495784690079
 51
306.4554713998701
  0
ARC
  5
7747
102
{ACAD_REACTORS
330
7938
102
}
330
2
100
AcDbEntity
  8
KIJUN
100
AcDbCircle
 10
44.46555435692403
 20
227.1554587453733
 30
0.0
 40
13.0096494651798
100
AcDbArc
 50
328.3768668024829
 51
17.51956265643485
  0
ARC
  5
7748
102
{ACAD_REACTORS
330
7938
102
}
330
2
100
AcDbEntity
  8
KIJUN
100
AcDbCircle
 10
57.00615519354312
 20
218.5144943961065
 30
0.0
 40
2.334621617602437
100
AcDbArc
 50
128.793777687136
 51
237.0159432264788
  0
ARC
  5
7749
102
{ACAD_REACTORS
330
7938
102
}
330
2
100
AcDbEntity
  8
KIJUN
100
AcDbCircle
 10
52.6877769052445
 20
226.7720832832964
 30
0.0
 40
7.042900724966569
100
AcDbArc
 50
293.9206554578991
 51
347.3779614051123
  0
ARC
  5
774A
102
{ACAD_REACTORS
330
7938
102
}
330
2
100
AcDbEntity
  8
KIJUN
100
AcDbCircle
 10
62.94458801840426
 20
243.4753083614546
 30
0.0
 40
5.802925549834638
100
AcDbArc
 50
15.24525599163459
 51
131.4394498763542
  0
ARC
  5
774B
102
{ACAD_REACTORS
330
7938
102
}
330
2
100
AcDbEntity
  8
KIJUN
100
AcDbCircle
 10
70.84320663143774
 20
237.7357653979597
 30
0.0
 40
15.47936230451577
100
AcDbArc
 50
139.3211325264868
 51
205.4998206195671
  0
ARC
  5
774C
102
{ACAD_REACTORS
330
7938
102
}
330
2
100
AcDbEntity
  8
KIJUN
100
AcDbCircle
 10
54.7778227106611
 20
209.8664467768306
 30
0.0
 40
6.661091915403553
100
AcDbArc
 50
316.368065829617
 51
45.9049597771112
  0
ARC
  5
774D
102
{ACAD_REACTORS
330
7938
102
}
330
2
100
AcDbEntity
  8
KIJUN
100
AcDbCircle
 10
52.53421353318845
 20
209.3667109570638
 30
0.0
 40
13.0725803103046
100
AcDbArc
 50
314.0457306437804
 51
0.2136741698368403
  0
ARC
  5
774E
102
{ACAD_REACTORS
330
7938
102
}
330
2
100
AcDbEntity
  8
KIJUN
100
AcDbCircle
 10
58.7581951548018
 20
203.3084833461223
 30
0.0
 40
4.398702940071996
100
AcDbArc
 50
252.7397757668984
 51
310.6332188291333
  0
ARC
  5
774F
102
{ACAD_REACTORS
330
7938
102
}
330
2
100
AcDbEntity
  8
KIJUN
100
AcDbCircle
 10
60.27911594290458
 20
200.8717959543561
 30
0.0
 40
5.735812552451749
100
AcDbArc
 50
127.7420527220675
 51
251.9020300663829
  0
ARC
  5
7750
102
{ACAD_REACTORS
330
7938
102
}
330
2
100
AcDbEntity
  8
KIJUN
100
AcDbCircle
 10
58.11537434426305
 20
203.932891459399
 30
0.0
 40
1.997370252473639
100
AcDbArc
 50
277.1041490909059
 51
132.414037599396
  0
ARC
  5
7751
102
{ACAD_REACTORS
330
7938
102
}
330
2
100
AcDbEntity
  8
KIJUN
100
AcDbCircle
 10
102.2472882317053
 20
301.8123316383176
 30
0.0
 40
97.11843900077658
100
AcDbArc
 50
241.3850089966528
 51
243.8289392216816
  0
ARC
  5
7752
102
{ACAD_REACTORS
330
7938
102
}
330
2
100
AcDbEntity
  8
KIJUN
100
AcDbCircle
 10
50.37582132873672
 20
228.1774886770255
 30
0.0
 40
9.645067583439468
100
AcDbArc
 50
342.2252142675799
 51
35.76817211480557
  0
ARC
  5
7753
102
{ACAD_REACTORS
330
7938
102
}
330
2
100
AcDbEntity
  8
KIJUN
100
AcDbCircle
 10
55.26011345282995
 20
224.8524310412542
 30
0.0
 40
7.386403198274019
100
AcDbArc
 50
282.511341779855
 51
351.0304521335976
  0
ARC
  5
7754
102
{ACAD_REACTORS
330
7938
102
}
330
2
100
AcDbEntity
  8
KIJUN
100
AcDbCircle
 10
47.15781786349509
 20
226.2344474403688
 30
0.0
 40
15.60542072616852
100
AcDbArc
 50
350.6563521911949
 51
20.36504555139053
  0
ARC
  5
7755
102
{ACAD_REACTORS
330
7938
102
}
330
2
100
AcDbEntity
  8
KIJUN
100
AcDbCircle
 10
57.93216618771123
 20
229.9619554145934
 30
0.0
 40
8.676153616895698
100
AcDbArc
 50
329.38858019507
 51
35.47924123411394
  0
ARC
  5
7756
102
{ACAD_REACTORS
330
7938
102
}
330
2
100
AcDbEntity
  8
KIJUN
100
AcDbCircle
 10
62.88954081037832
 20
238.2881839054588
 30
0.0
 40
3.907750954262793
100
AcDbArc
 50
302.6428167647985
 51
64.79220757584403
  0
ARC
  5
7757
102
{ACAD_REACTORS
330
7938
102
}
330
2
100
AcDbEntity
  8
KIJUN
100
AcDbCircle
 10
67.19195651968289
 20
238.5677291861025
 30
0.0
 40
4.190646826681388
100
AcDbArc
 50
129.0147075873566
 51
238.4203167532843
  0
ARC
  5
7758
102
{ACAD_REACTORS
330
7938
102
}
330
2
100
AcDbEntity
  8
KIJUN
100
AcDbCircle
 10
68.54330339045327
 20
208.5744532799084
 30
0.0
 40
7.160627071259285
100
AcDbArc
 50
73.79008205605053
 51
106.2099179439629
  0
ARC
  5
7759
102
{ACAD_REACTORS
330
7938
102
}
330
2
100
AcDbEntity
  8
KIJUN
100
AcDbCircle
 10
-74.55588365413087
 20
226.8291339219601
 30
0.0
 40
141.5583080900729
100
AcDbArc
 50
355.3894840032239
 51
0.1645668482453407
  0
ARC
  5
775A
102
{ACAD_REACTORS
330
7938
102
}
330
2
100
AcDbEntity
  8
KIJUN
100
AcDbCircle
 10
92.62105242398162
 20
227.1554587453733
 30
0.0
 40
13.0096494651798
100
AcDbArc
 50
162.4804373435651
 51
211.6231331975171
  0
ARC
  5
775B
102
{ACAD_REACTORS
330
7938
102
}
330
2
100
AcDbEntity
  8
KIJUN
100
AcDbCircle
 10
80.08045158736264
 20
218.5144943961065
 30
0.0
 40
2.334621617602437
100
AcDbArc
 50
302.9840567735212
 51
51.20622231286397
  0
ARC
  5
775C
102
{ACAD_REACTORS
330
7938
102
}
330
2
100
AcDbEntity
  8
KIJUN
100
AcDbCircle
 10
84.39882987566125
 20
226.7720832832964
 30
0.0
 40
7.042900724966569
100
AcDbArc
 50
192.6220385948876
 51
246.079344542101
  0
ARC
  5
775D
102
{ACAD_REACTORS
330
7938
102
}
330
2
100
AcDbEntity
  8
KIJUN
100
AcDbCircle
 10
74.14201876250138
 20
243.4753083614546
 30
0.0
 40
5.802925549834638
100
AcDbArc
 50
48.56055012364571
 51
164.7547440083654
  0
ARC
  5
775E
102
{ACAD_REACTORS
330
7938
102
}
330
2
100
AcDbEntity
  8
KIJUN
100
AcDbCircle
 10
66.2434001494679
 20
237.7357653979597
 30
0.0
 40
15.47936230451577
100
AcDbArc
 50
334.5001793804329
 51
40.67886747351317
  0
ARC
  5
775F
102
{ACAD_REACTORS
330
7938
102
}
330
2
100
AcDbEntity
  8
KIJUN
100
AcDbCircle
 10
82.30878407024453
 20
209.8664467768306
 30
0.0
 40
6.661091915403553
100
AcDbArc
 50
134.0950402228888
 51
223.631934170383
  0
ARC
  5
7760
102
{ACAD_REACTORS
330
7938
102
}
330
2
100
AcDbEntity
  8
KIJUN
100
AcDbCircle
 10
84.55239324771719
 20
209.3667109570638
 30
0.0
 40
13.0725803103046
100
AcDbArc
 50
179.7863258301631
 51
225.9542693562195
  0
ARC
  5
7761
102
{ACAD_REACTORS
330
7938
102
}
330
2
100
AcDbEntity
  8
KIJUN
100
AcDbCircle
 10
78.32841162610384
 20
203.3084833461223
 30
0.0
 40
4.398702940071996
100
AcDbArc
 50
229.3667811708667
 51
287.2602242331016
  0
ARC
  5
7762
102
{ACAD_REACTORS
330
7938
102
}
330
2
100
AcDbEntity
  8
KIJUN
100
AcDbCircle
 10
76.80749083800106
 20
200.8717959543561
 30
0.0
 40
5.735812552451749
100
AcDbArc
 50
288.0979699336172
 51
52.25794727793215
  0
ARC
  5
7763
102
{ACAD_REACTORS
330
7938
102
}
330
2
100
AcDbEntity
  8
KIJUN
100
AcDbCircle
 10
78.97123243664259
 20
203.932891459399
 30
0.0
 40
1.997370252473639
100
AcDbArc
 50
47.58596240060622
 51
262.8958509090941
  0
ARC
  5
7764
102
{ACAD_REACTORS
330
7938
102
}
330
2
100
AcDbEntity
  8
KIJUN
100
AcDbCircle
 10
34.83931854920036
 20
301.8123316383176
 30
0.0
 40
97.11843900077658
100
AcDbArc
 50
296.1710607783184
 51
298.6149910033473
  0
ARC
  5
7765
102
{ACAD_REACTORS
330
7938
102
}
330
2
100
AcDbEntity
  8
KIJUN
100
AcDbCircle
 10
86.71078545216891
 20
228.1774886770255
 30
0.0
 40
9.645067583439468
100
AcDbArc
 50
144.2318278851944
 51
197.77478573242
  0
ARC
  5
7766
102
{ACAD_REACTORS
330
7938
102
}
330
2
100
AcDbEntity
  8
KIJUN
100
AcDbCircle
 10
81.82649332807569
 20
224.8524310412542
 30
0.0
 40
7.386403198274019
100
AcDbArc
 50
188.9695478664024
 51
257.4886582201386
  0
ARC
  5
7767
102
{ACAD_REACTORS
330
7938
102
}
330
2
100
AcDbEntity
  8
KIJUN
100
AcDbCircle
 10
89.92878891741055
 20
226.2344474403688
 30
0.0
 40
15.60542072616852
100
AcDbArc
 50
159.6349544486095
 51
189.3436478088018
  0
ARC
  5
7768
102
{ACAD_REACTORS
330
7938
102
}
330
2
100
AcDbEntity
  8
KIJUN
100
AcDbCircle
 10
79.1544405931944
 20
229.9619554145934
 30
0.0
 40
8.676153616895698
100
AcDbArc
 50
144.520758765886
 51
210.61141980493
  0
ARC
  5
7769
102
{ACAD_REACTORS
330
7938
102
}
330
2
100
AcDbEntity
  8
KIJUN
100
AcDbCircle
 10
74.19706597052732
 20
238.2881839054588
 30
0.0
 40
3.907750954262793
100
AcDbArc
 50
115.2077924241559
 51
237.3571832352015
  0
ARC
  5
776A
102
{ACAD_REACTORS
330
7938
102
}
330
2
100
AcDbEntity
  8
KIJUN
100
AcDbCircle
 10
69.89465026122275
 20
238.5677291861025
 30
0.0
 40
4.190646826681388
100
AcDbArc
 50
301.5796832467153
 51
50.98529241264333
  0
ARC
  5
776B
102
{ACAD_REACTORS
330
7938
102
}
330
2
100
AcDbEntity
  8
KIJUN
100
AcDbCircle
 10
211.6424904350366
 20
226.8291339219601
 30
0.0
 40
141.5583080900729
100
AcDbArc
 50
179.8354331517546
 51
184.6105159967761
  0
ARC
  5
776C
102
{ACAD_REACTORS
330
7938
102
}
330
2
100
AcDbEntity
  8
KIJUN
100
AcDbCircle
 10
66.1329492442544
 20
98.06323568623184
 30
0.0
 40
102.1380860082488
100
AcDbArc
 50
86.08078118897847
 51
90.42426867989659
  0
ARC
  5
776D
102
{ACAD_REACTORS
330
7938
102
}
330
2
100
AcDbEntity
  8
KIJUN
100
AcDbCircle
 10
73.04573151618672
 20
198.9648009995251
 30
0.0
 40
1.0
100
AcDbArc
 50
306.4554713998688
 51
86.08078118897847
  0
ARC
  5
776E
102
{ACAD_REACTORS
330
7938
102
}
330
2
100
AcDbEntity
  8
KIJUN
100
AcDbCircle
 10
65.38404015419633
 20
199.1985488888257
 30
0.0
 40
1.0
100
AcDbArc
 50
90.42426867989659
 51
230.0495784690079
  0
ARC
  5
776F
102
{ACAD_REACTORS
330
7938
102
}
330
2
100
AcDbEntity
  8
KIJUN
100
AcDbCircle
 10
69.36339041141104
 20
203.9492963470542
 30
0.0
 40
7.197163051062951
100
AcDbArc
 50
230.0495784690079
 51
306.4554713998701
  0
ARC
  5
7770
102
{ACAD_REACTORS
330
7938
102
}
330
2
100
AcDbEntity
  8
KIJUN
100
AcDbCircle
 10
44.46555435692403
 20
175.5018917048841
 30
0.0
 40
13.0096494651798
100
AcDbArc
 50
328.3768668024829
 51
17.51956265643485
  0
ARC
  5
7771
102
{ACAD_REACTORS
330
7938
102
}
330
2
100
AcDbEntity
  8
KIJUN
100
AcDbCircle
 10
57.00615519354312
 20
166.8609273556172
 30
0.0
 40
2.334621617602437
100
AcDbArc
 50
128.793777687136
 51
237.0159432264788
  0
ARC
  5
7772
102
{ACAD_REACTORS
330
7938
102
}
330
2
100
AcDbEntity
  8
KIJUN
100
AcDbCircle
 10
52.6877769052445
 20
175.1185162428072
 30
0.0
 40
7.042900724966569
100
AcDbArc
 50
293.9206554578991
 51
347.3779614051123
  0
ARC
  5
7773
102
{ACAD_REACTORS
330
7938
102
}
330
2
100
AcDbEntity
  8
KIJUN
100
AcDbCircle
 10
62.94458801840426
 20
191.8217413209654
 30
0.0
 40
5.802925549834638
100
AcDbArc
 50
15.24525599163459
 51
131.4394498763542
  0
ARC
  5
7774
102
{ACAD_REACTORS
330
7938
102
}
330
2
100
AcDbEntity
  8
KIJUN
100
AcDbCircle
 10
70.84320663143774
 20
186.0821983574705
 30
0.0
 40
15.47936230451577
100
AcDbArc
 50
139.3211325264868
 51
205.4998206195671
  0
ARC
  5
7775
102
{ACAD_REACTORS
330
7938
102
}
330
2
100
AcDbEntity
  8
KIJUN
100
AcDbCircle
 10
54.7778227106611
 20
158.2128797363414
 30
0.0
 40
6.661091915403553
100
AcDbArc
 50
322.3082913820276
 51
45.9049597771112
  0
ARC
  5
7776
102
{ACAD_REACTORS
330
7938
102
}
330
2
100
AcDbEntity
  8
KIJUN
100
AcDbCircle
 10
52.53421353318845
 20
160.0752797932177
 30
0.0
 40
13.0725803103046
100
AcDbArc
 50
314.0457306437804
 51
0.2136741698368403
  0
ARC
  5
7777
102
{ACAD_REACTORS
330
7938
102
}
330
2
100
AcDbEntity
  8
KIJUN
100
AcDbCircle
 10
58.7581951548018
 20
154.0170521822763
 30
0.0
 40
4.398702940071996
100
AcDbArc
 50
252.7397757668984
 51
310.6332188291333
  0
ARC
  5
7778
102
{ACAD_REACTORS
330
7938
102
}
330
2
100
AcDbEntity
  8
KIJUN
100
AcDbCircle
 10
60.27911594290458
 20
151.5803647905101
 30
0.0
 40
5.735812552451749
100
AcDbArc
 50
127.7420527220675
 51
261.8837478795961
  0
ARC
  5
7779
102
{ACAD_REACTORS
330
7938
102
}
330
2
100
AcDbEntity
  8
KIJUN
100
AcDbCircle
 10
58.11537434426305
 20
154.641460295553
 30
0.0
 40
1.997370252473639
100
AcDbArc
 50
277.1041490909059
 51
132.414037599396
  0
ARC
  5
777A
102
{ACAD_REACTORS
330
7938
102
}
330
2
100
AcDbEntity
  8
KIJUN
100
AcDbCircle
 10
102.2472882317053
 20
250.1587645978284
 30
0.0
 40
97.11843900077658
100
AcDbArc
 50
241.3850089966528
 51
243.8289392216816
  0
ARC
  5
777B
102
{ACAD_REACTORS
330
7938
102
}
330
2
100
AcDbEntity
  8
KIJUN
100
AcDbCircle
 10
50.37582132873672
 20
176.5239216365363
 30
0.0
 40
9.645067583439468
100
AcDbArc
 50
342.2252142675799
 51
35.76817211480557
  0
ARC
  5
777C
102
{ACAD_REACTORS
330
7938
102
}
330
2
100
AcDbEntity
  8
KIJUN
100
AcDbCircle
 10
55.26011345282995
 20
173.198864000765
 30
0.0
 40
7.386403198274019
100
AcDbArc
 50
282.511341779855
 51
351.0304521335976
  0
ARC
  5
777D
102
{ACAD_REACTORS
330
7938
102
}
330
2
100
AcDbEntity
  8
KIJUN
100
AcDbCircle
 10
47.15781786349509
 20
174.5808803998796
 30
0.0
 40
15.60542072616852
100
AcDbArc
 50
350.6563521911949
 51
20.36504555139053
  0
ARC
  5
777E
102
{ACAD_REACTORS
330
7938
102
}
330
2
100
AcDbEntity
  8
KIJUN
100
AcDbCircle
 10
57.93216618771123
 20
178.3083883741042
 30
0.0
 40
8.676153616895698
100
AcDbArc
 50
329.38858019507
 51
35.47924123411394
  0
ARC
  5
777F
102
{ACAD_REACTORS
330
7938
102
}
330
2
100
AcDbEntity
  8
KIJUN
100
AcDbCircle
 10
62.88954081037832
 20
186.6346168649696
 30
0.0
 40
3.907750954262793
100
AcDbArc
 50
302.6428167647985
 51
64.79220757584403
  0
ARC
  5
7780
102
{ACAD_REACTORS
330
7938
102
}
330
2
100
AcDbEntity
  8
KIJUN
100
AcDbCircle
 10
67.19195651968289
 20
186.9141621456133
 30
0.0
 40
4.190646826681388
100
AcDbArc
 50
129.0147075873566
 51
238.4203167532843
  0
ARC
  5
7781
102
{ACAD_REACTORS
330
7938
102
}
330
2
100
AcDbEntity
  8
KIJUN
100
AcDbCircle
 10
68.54330339045327
 20
156.9208862394192
 30
0.0
 40
7.160627071259285
100
AcDbArc
 50
73.79008205605053
 51
106.2099179439629
  0
ARC
  5
7782
102
{ACAD_REACTORS
330
7938
102
}
330
2
100
AcDbEntity
  8
KIJUN
100
AcDbCircle
 10
-74.55588365413087
 20
175.1755668814709
 30
0.0
 40
141.5583080900729
100
AcDbArc
 50
355.3894840032239
 51
0.1645668482453407
  0
ARC
  5
7783
102
{ACAD_REACTORS
330
7938
102
}
330
2
100
AcDbEntity
  8
KIJUN
100
AcDbCircle
 10
92.62105242398162
 20
175.5018917048841
 30
0.0
 40
13.0096494651798
100
AcDbArc
 50
162.4804373435651
 51
211.6231331975171
  0
ARC
  5
7784
102
{ACAD_REACTORS
330
7938
102
}
330
2
100
AcDbEntity
  8
KIJUN
100
AcDbCircle
 10
80.08045158736264
 20
166.8609273556172
 30
0.0
 40
2.334621617602437
100
AcDbArc
 50
302.9840567735212
 51
51.20622231286397
  0
ARC
  5
7785
102
{ACAD_REACTORS
330
7938
102
}
330
2
100
AcDbEntity
  8
KIJUN
100
AcDbCircle
 10
84.39882987566125
 20
175.1185162428072
 30
0.0
 40
7.042900724966569
100
AcDbArc
 50
192.6220385948876
 51
246.079344542101
  0
ARC
  5
7786
102
{ACAD_REACTORS
330
7938
102
}
330
2
100
AcDbEntity
  8
KIJUN
100
AcDbCircle
 10
74.14201876250138
 20
191.8217413209654
 30
0.0
 40
5.802925549834638
100
AcDbArc
 50
48.56055012364571
 51
164.7547440083654
  0
ARC
  5
7787
102
{ACAD_REACTORS
330
7938
102
}
330
2
100
AcDbEntity
  8
KIJUN
100
AcDbCircle
 10
66.2434001494679
 20
186.0821983574705
 30
0.0
 40
15.47936230451577
100
AcDbArc
 50
334.5001793804329
 51
40.67886747351317
  0
ARC
  5
7788
102
{ACAD_REACTORS
330
7938
102
}
330
2
100
AcDbEntity
  8
KIJUN
100
AcDbCircle
 10
82.30878407024453
 20
158.2128797363414
 30
0.0
 40
6.661091915403553
100
AcDbArc
 50
134.0950402228888
 51
217.6917086179724
  0
ARC
  5
7789
102
{ACAD_REACTORS
330
7938
102
}
330
2
100
AcDbEntity
  8
KIJUN
100
AcDbCircle
 10
84.55239324771719
 20
160.0752797932177
 30
0.0
 40
13.0725803103046
100
AcDbArc
 50
179.7863258301631
 51
225.9542693562195
  0
ARC
  5
778A
102
{ACAD_REACTORS
330
7938
102
}
330
2
100
AcDbEntity
  8
KIJUN
100
AcDbCircle
 10
78.32841162610384
 20
154.0170521822763
 30
0.0
 40
4.398702940071996
100
AcDbArc
 50
229.3667811708667
 51
287.2602242331016
  0
ARC
  5
778B
102
{ACAD_REACTORS
330
7938
102
}
330
2
100
AcDbEntity
  8
KIJUN
100
AcDbCircle
 10
76.80749083800106
 20
151.5803647905101
 30
0.0
 40
5.735812552451749
100
AcDbArc
 50
278.1162521204036
 51
52.25794727793215
  0
ARC
  5
778C
102
{ACAD_REACTORS
330
7938
102
}
330
2
100
AcDbEntity
  8
KIJUN
100
AcDbCircle
 10
78.97123243664259
 20
154.641460295553
 30
0.0
 40
1.997370252473639
100
AcDbArc
 50
47.58596240060622
 51
262.8958509090941
  0
ARC
  5
778D
102
{ACAD_REACTORS
330
7938
102
}
330
2
100
AcDbEntity
  8
KIJUN
100
AcDbCircle
 10
34.83931854920036
 20
250.1587645978284
 30
0.0
 40
97.11843900077658
100
AcDbArc
 50
296.1710607783184
 51
298.6149910033473
  0
ARC
  5
778E
102
{ACAD_REACTORS
330
7938
102
}
330
2
100
AcDbEntity
  8
KIJUN
100
AcDbCircle
 10
86.71078545216891
 20
176.5239216365363
 30
0.0
 40
9.645067583439468
100
AcDbArc
 50
144.2318278851944
 51
197.77478573242
  0
ARC
  5
778F
102
{ACAD_REACTORS
330
7938
102
}
330
2
100
AcDbEntity
  8
KIJUN
100
AcDbCircle
 10
81.82649332807569
 20
173.198864000765
 30
0.0
 40
7.386403198274019
100
AcDbArc
 50
188.9695478664024
 51
257.4886582201386
  0
ARC
  5
7790
102
{ACAD_REACTORS
330
7938
102
}
330
2
100
AcDbEntity
  8
KIJUN
100
AcDbCircle
 10
89.92878891741055
 20
174.5808803998796
 30
0.0
 40
15.60542072616852
100
AcDbArc
 50
159.6349544486095
 51
189.3436478088018
  0
ARC
  5
7791
102
{ACAD_REACTORS
330
7938
102
}
330
2
100
AcDbEntity
  8
KIJUN
100
AcDbCircle
 10
79.1544405931944
 20
178.3083883741042
 30
0.0
 40
8.676153616895698
100
AcDbArc
 50
144.520758765886
 51
210.61141980493
  0
ARC
  5
7792
102
{ACAD_REACTORS
330
7938
102
}
330
2
100
AcDbEntity
  8
KIJUN
100
AcDbCircle
 10
74.19706597052732
 20
186.6346168649696
 30
0.0
 40
3.907750954262793
100
AcDbArc
 50
115.2077924241559
 51
237.3571832352015
  0
ARC
  5
7793
102
{ACAD_REACTORS
330
7938
102
}
330
2
100
AcDbEntity
  8
KIJUN
100
AcDbCircle
 10
69.89465026122275
 20
186.9141621456133
 30
0.0
 40
4.190646826681388
100
AcDbArc
 50
301.5796832467153
 51
50.98529241264333
  0
ARC
  5
7794
102
{ACAD_REACTORS
330
7938
102
}
330
2
100
AcDbEntity
  8
KIJUN
100
AcDbCircle
 10
211.6424904350366
 20
175.1755668814709
 30
0.0
 40
141.5583080900729
100
AcDbArc
 50
179.8354331517546
 51
184.6105159967761
  0
ARC
  5
7795
102
{ACAD_REACTORS
330
7938
102
}
330
2
100
AcDbEntity
  8
KIJUN
100
AcDbCircle
 10
66.1329492442544
 20
48.77180452238582
 30
0.0
 40
102.1380860082488
100
AcDbArc
 50
86.08078118897847
 51
90.42426867989659
  0
ARC
  5
7796
102
{ACAD_REACTORS
330
7938
102
}
330
2
100
AcDbEntity
  8
KIJUN
100
AcDbCircle
 10
73.04573151618672
 20
149.6733698356791
 30
0.0
 40
1.0
100
AcDbArc
 50
306.4554713998688
 51
86.08078118897847
  0
ARC
  5
7797
102
{ACAD_REACTORS
330
7938
102
}
330
2
100
AcDbEntity
  8
KIJUN
100
AcDbCircle
 10
65.38404015419633
 20
149.9071177249797
 30
0.0
 40
1.0
100
AcDbArc
 50
90.42426867989659
 51
230.0495784690079
  0
ARC
  5
7798
102
{ACAD_REACTORS
330
7938
102
}
330
2
100
AcDbEntity
  8
KIJUN
100
AcDbCircle
 10
69.36339041141104
 20
154.6578651832082
 30
0.0
 40
7.197163051062951
100
AcDbArc
 50
230.0495784690079
 51
306.4554713998701
  0
ARC
  5
78C7
102
{ACAD_REACTORS
330
7938
102
}
330
2
100
AcDbEntity
  8
KIJUN
100
AcDbCircle
 10
48.38831809680119
 20
126.1945501362449
 30
0.0
 40
8.885105113257411
100
AcDbArc
 50
323.6389849854037
 51
24.93508748924675
  0
ARC
  5
78C8
102
{ACAD_REACTORS
330
7938
102
}
330
2
100
AcDbEntity
  8
KIJUN
100
AcDbCircle
 10
57.00615519354312
 20
119.1072100967136
 30
0.0
 40
2.334621617602437
100
AcDbArc
 50
128.793777687136
 51
237.0159432264788
  0
ARC
  5
78C9
102
{ACAD_REACTORS
330
7938
102
}
330
2
100
AcDbEntity
  8
KIJUN
100
AcDbCircle
 10
52.6877769052445
 20
127.3647989839036
 30
0.0
 40
7.042900724966569
100
AcDbArc
 50
293.9206554578991
 51
347.3779614051123
  0
ARC
  5
78CA
102
{ACAD_REACTORS
330
7938
102
}
330
2
100
AcDbEntity
  8
KIJUN
100
AcDbCircle
 10
62.94458801840426
 20
141.254803667041
 30
0.0
 40
5.802925549834638
100
AcDbArc
 50
15.24525599163459
 51
131.4394498763542
  0
ARC
  5
78CB
102
{ACAD_REACTORS
330
7938
102
}
330
2
100
AcDbEntity
  8
KIJUN
100
AcDbCircle
 10
73.46403298610255
 20
135.1096584013365
 30
0.0
 40
17.78654925500967
100
AcDbArc
 50
143.8378983797037
 51
196.8954120730561
  0
ARC
  5
78CC
102
{ACAD_REACTORS
330
7938
102
}
330
2
100
AcDbEntity
  8
KIJUN
100
AcDbCircle
 10
54.7778227106611
 20
110.4591624774378
 30
0.0
 40
6.661091915403553
100
AcDbArc
 50
322.3082913820276
 51
45.9049597771112
  0
ARC
  5
78CD
102
{ACAD_REACTORS
330
7938
102
}
330
2
100
AcDbEntity
  8
KIJUN
100
AcDbCircle
 10
52.53421353318845
 20
112.3215625343141
 30
0.0
 40
13.0725803103046
100
AcDbArc
 50
314.0457306437804
 51
0.2136741698368403
  0
ARC
  5
78CE
102
{ACAD_REACTORS
330
7938
102
}
330
2
100
AcDbEntity
  8
KIJUN
100
AcDbCircle
 10
58.7581951548018
 20
106.2633349233727
 30
0.0
 40
4.398702940071996
100
AcDbArc
 50
252.7397757668984
 51
310.6332188291333
  0
ARC
  5
78CF
102
{ACAD_REACTORS
330
7938
102
}
330
2
100
AcDbEntity
  8
KIJUN
100
AcDbCircle
 10
60.27911594290458
 20
103.8266475316064
 30
0.0
 40
5.735812552451749
100
AcDbArc
 50
127.7420527220675
 51
242.5541104995465
  0
ARC
  5
78D0
102
{ACAD_REACTORS
330
7938
102
}
330
2
100
AcDbEntity
  8
KIJUN
100
AcDbCircle
 10
58.11537434426305
 20
106.8877430366494
 30
0.0
 40
1.997370252473639
100
AcDbArc
 50
277.1041490909059
 51
132.414037599396
  0
ARC
  5
78D1
102
{ACAD_REACTORS
330
7938
102
}
330
2
100
AcDbEntity
  8
KIJUN
100
AcDbCircle
 10
102.2472882317053
 20
202.4050473389248
 30
0.0
 40
97.11843900077658
100
AcDbArc
 50
241.3850089966528
 51
243.8289392216816
  0
ARC
  5
78D2
102
{ACAD_REACTORS
330
7938
102
}
330
2
100
AcDbEntity
  8
KIJUN
100
AcDbCircle
 10
50.37582132873672
 20
128.7702043776327
 30
0.0
 40
9.645067583439468
100
AcDbArc
 50
342.2252142675799
 51
35.76817211480557
  0
ARC
  5
78D3
102
{ACAD_REACTORS
330
7938
102
}
330
2
100
AcDbEntity
  8
KIJUN
100
AcDbCircle
 10
55.26011345282995
 20
125.4451467418615
 30
0.0
 40
7.386403198274019
100
AcDbArc
 50
282.511341779855
 51
351.0304521335976
  0
ARC
  5
78D4
102
{ACAD_REACTORS
330
7938
102
}
330
2
100
AcDbEntity
  8
KIJUN
100
AcDbCircle
 10
47.15781786349509
 20
126.827163140976
 30
0.0
 40
15.60542072616852
100
AcDbArc
 50
350.6563521911949
 51
20.36504555139053
  0
ARC
  5
78D5
102
{ACAD_REACTORS
330
7938
102
}
330
2
100
AcDbEntity
  8
KIJUN
100
AcDbCircle
 10
57.93216618771123
 20
122.4185387909165
 30
0.0
 40
8.676153616895698
100
AcDbArc
 50
329.38858019507
 51
35.47924123411394
  0
ARC
  5
78D6
102
{ACAD_REACTORS
330
7938
102
}
330
2
100
AcDbEntity
  8
KIJUN
100
AcDbCircle
 10
62.88954081037832
 20
130.744767281782
 30
0.0
 40
3.907750954262793
100
AcDbArc
 50
302.6428167647985
 51
64.79220757584403
  0
ARC
  5
78D7
102
{ACAD_REACTORS
330
7938
102
}
330
2
100
AcDbEntity
  8
KIJUN
100
AcDbCircle
 10
67.19195651968289
 20
131.0243125624257
 30
0.0
 40
4.190646826681388
100
AcDbArc
 50
129.0147075873566
 51
238.4203167532843
  0
ARC
  5
78D8
102
{ACAD_REACTORS
330
7938
102
}
330
2
100
AcDbEntity
  8
KIJUN
100
AcDbCircle
 10
68.54330339045327
 20
103.9952629581211
 30
0.0
 40
7.160627071259285
100
AcDbArc
 50
73.79008205604344
 51
106.2099179439629
  0
ARC
  5
78D9
102
{ACAD_REACTORS
330
7938
102
}
330
2
100
AcDbEntity
  8
KIJUN
100
AcDbCircle
 10
-74.55588365413087
 20
122.2499436001727
 30
0.0
 40
141.5583080900729
100
AcDbArc
 50
355.3894840032239
 51
0.1645668482453407
  0
ARC
  5
78DA
102
{ACAD_REACTORS
330
7938
102
}
330
2
100
AcDbEntity
  8
KIJUN
100
AcDbCircle
 10
87.99274436818109
 20
126.1239662205581
 30
0.0
 40
8.282975393354808
100
AcDbArc
 50
152.5638222045399
 51
218.8621053209945
  0
ARC
  5
78DB
102
{ACAD_REACTORS
330
7938
102
}
330
2
100
AcDbEntity
  8
KIJUN
100
AcDbCircle
 10
80.08045158736264
 20
119.1072100967136
 30
0.0
 40
2.334621617602437
100
AcDbArc
 50
302.9840567735212
 51
51.20622231286397
  0
ARC
  5
78DC
102
{ACAD_REACTORS
330
7938
102
}
330
2
100
AcDbEntity
  8
KIJUN
100
AcDbCircle
 10
84.39882987566125
 20
127.3647989839036
 30
0.0
 40
7.042900724966569
100
AcDbArc
 50
192.6220385948876
 51
246.079344542101
  0
ARC
  5
78DD
102
{ACAD_REACTORS
330
7938
102
}
330
2
100
AcDbEntity
  8
KIJUN
100
AcDbCircle
 10
74.14201876250138
 20
141.254803667041
 30
0.0
 40
5.802925549834638
100
AcDbArc
 50
48.56055012364571
 51
164.7547440083654
  0
ARC
  5
78DF
102
{ACAD_REACTORS
330
7938
102
}
330
2
100
AcDbEntity
  8
KIJUN
100
AcDbCircle
 10
82.30878407024453
 20
110.4591624774378
 30
0.0
 40
6.661091915403553
100
AcDbArc
 50
134.0950402228888
 51
217.6917086179724
  0
ARC
  5
78E0
102
{ACAD_REACTORS
330
7938
102
}
330
2
100
AcDbEntity
  8
KIJUN
100
AcDbCircle
 10
84.55239324771719
 20
112.3215625343141
 30
0.0
 40
13.0725803103046
100
AcDbArc
 50
179.7863258301631
 51
225.9542693562195
  0
ARC
  5
78E1
102
{ACAD_REACTORS
330
7938
102
}
330
2
100
AcDbEntity
  8
KIJUN
100
AcDbCircle
 10
78.32841162610384
 20
106.2633349233727
 30
0.0
 40
4.398702940071996
100
AcDbArc
 50
229.3667811708667
 51
287.2602242331016
  0
ARC
  5
78E2
102
{ACAD_REACTORS
330
7938
102
}
330
2
100
AcDbEntity
  8
KIJUN
100
AcDbCircle
 10
76.80749083800106
 20
103.8266475316064
 30
0.0
 40
5.735812552451749
100
AcDbArc
 50
297.4458895004535
 51
52.25794727793215
  0
ARC
  5
78E3
102
{ACAD_REACTORS
330
7938
102
}
330
2
100
AcDbEntity
  8
KIJUN
100
AcDbCircle
 10
78.97123243664259
 20
106.8877430366494
 30
0.0
 40
1.997370252473639
100
AcDbArc
 50
47.58596240060622
 51
262.8958509090941
  0
ARC
  5
78E4
102
{ACAD_REACTORS
330
7938
102
}
330
2
100
AcDbEntity
  8
KIJUN
100
AcDbCircle
 10
34.83931854920036
 20
202.4050473389248
 30
0.0
 40
97.11843900077658
100
AcDbArc
 50
296.1710607783184
 51
298.6149910033473
  0
ARC
  5
78E5
102
{ACAD_REACTORS
330
7938
102
}
330
2
100
AcDbEntity
  8
KIJUN
100
AcDbCircle
 10
86.71078545216891
 20
128.7702043776327
 30
0.0
 40
9.645067583439468
100
AcDbArc
 50
144.2318278851944
 51
197.77478573242
  0
ARC
  5
78E6
102
{ACAD_REACTORS
330
7938
102
}
330
2
100
AcDbEntity
  8
KIJUN
100
AcDbCircle
 10
81.82649332807569
 20
125.4451467418615
 30
0.0
 40
7.386403198274019
100
AcDbArc
 50
188.9695478664024
 51
257.4886582201386
  0
ARC
  5
78E7
102
{ACAD_REACTORS
330
7938
102
}
330
2
100
AcDbEntity
  8
KIJUN
100
AcDbCircle
 10
89.92878891741055
 20
126.827163140976
 30
0.0
 40
15.60542072616852
100
AcDbArc
 50
159.6349544486095
 51
189.3436478088018
  0
ARC
  5
78E8
102
{ACAD_REACTORS
330
7938
102
}
330
2
100
AcDbEntity
  8
KIJUN
100
AcDbCircle
 10
79.1544405931944
 20
122.4185387909165
 30
0.0
 40
8.676153616895698
100
AcDbArc
 50
144.520758765886
 51
210.61141980493
  0
ARC
  5
78E9
102
{ACAD_REACTORS
330
7938
102
}
330
2
100
AcDbEntity
  8
KIJUN
100
AcDbCircle
 10
74.19706597052732
 20
130.744767281782
 30
0.0
 40
3.907750954262793
100
AcDbArc
 50
115.2077924241559
 51
237.3571832352015
  0
ARC
  5
78EA
102
{ACAD_REACTORS
330
7938
102
}
330
2
100
AcDbEntity
  8
KIJUN
100
AcDbCircle
 10
69.89465026122275
 20
131.0243125624257
 30
0.0
 40
4.190646826681388
100
AcDbArc
 50
301.5796832467153
 51
50.98529241264333
  0
ARC
  5
78EB
102
{ACAD_REACTORS
330
7938
102
}
330
2
100
AcDbEntity
  8
KIJUN
100
AcDbCircle
 10
211.6424904350366
 20
122.2499436001727
 30
0.0
 40
141.5583080900729
100
AcDbArc
 50
179.8354331517546
 51
184.6105159967761
  0
ARC
  5
78EC
102
{ACAD_REACTORS
330
7938
102
}
330
2
100
AcDbEntity
  8
KIJUN
100
AcDbCircle
 10
66.1329492442544
 20
1.018087263482158
 30
0.0
 40
102.1380860082488
100
AcDbArc
 50
86.08078118897847
 51
90.42426867989659
  0
ARC
  5
78ED
102
{ACAD_REACTORS
330
7938
102
}
330
2
100
AcDbEntity
  8
KIJUN
100
AcDbCircle
 10
73.04573151618672
 20
101.9196525767755
 30
0.0
 40
1.0
100
AcDbArc
 50
306.4554713998688
 51
86.08078118897847
  0
ARC
  5
78EE
102
{ACAD_REACTORS
330
7938
102
}
330
2
100
AcDbEntity
  8
KIJUN
100
AcDbCircle
 10
65.38404015419633
 20
102.153400466076
 30
0.0
 40
1.0
100
AcDbArc
 50
90.42426867989659
 51
230.0495784690079
  0
ARC
  5
78EF
102
{ACAD_REACTORS
330
7938
102
}
330
2
100
AcDbEntity
  8
KIJUN
100
AcDbCircle
 10
69.36339041141104
 20
106.9041479243046
 30
0.0
 40
7.197163051062951
100
AcDbArc
 50
230.0495784690079
 51
306.4554713998701
  0
ARC
  5
78F7
102
{ACAD_REACTORS
330
7938
102
}
330
2
100
AcDbEntity
  8
KIJUN
100
AcDbCircle
 10
63.6225737948032
 20
135.1096584013364
 30
0.0
 40
17.7865492550096
100
AcDbArc
 50
343.1045879269439
 51
36.16210162029625
  0
ARC
  5
78F8
102
{ACAD_REACTORS
330
7938
102
}
330
2
100
AcDbEntity
  8
KIJUN
100
AcDbCircle
 10
48.38831809680119
 20
80.9133627316989
 30
0.0
 40
8.885105113257411
100
AcDbArc
 50
323.6389849854037
 51
24.93508748924675
  0
ARC
  5
78F9
102
{ACAD_REACTORS
330
7938
102
}
330
2
100
AcDbEntity
  8
KIJUN
100
AcDbCircle
 10
57.00615519354312
 20
73.82602269216761
 30
0.0
 40
2.334621617602437
100
AcDbArc
 50
128.793777687136
 51
237.0159432264788
  0
ARC
  5
78FA
102
{ACAD_REACTORS
330
7938
102
}
330
2
100
AcDbEntity
  8
KIJUN
100
AcDbCircle
 10
52.6877769052445
 20
82.08361157935764
 30
0.0
 40
7.042900724966569
100
AcDbArc
 50
293.9206554578991
 51
347.3779614051123
  0
ARC
  5
78FB
102
{ACAD_REACTORS
330
7938
102
}
330
2
100
AcDbEntity
  8
KIJUN
100
AcDbCircle
 10
62.94458801840426
 20
92.22345805857964
 30
0.0
 40
5.802925549834638
100
AcDbArc
 50
15.24525599163459
 51
131.4394498763542
  0
ARC
  5
78FC
102
{ACAD_REACTORS
330
7938
102
}
330
2
100
AcDbEntity
  8
KIJUN
100
AcDbCircle
 10
67.545443722041
 20
88.43597593226439
 30
0.0
 40
11.72514184593175
100
AcDbArc
 50
136.0495040941487
 51
198.7902961672537
  0
ARC
  5
78FD
102
{ACAD_REACTORS
330
7938
102
}
330
2
100
AcDbEntity
  8
KIJUN
100
AcDbCircle
 10
54.7778227106611
 20
65.1779750728918
 30
0.0
 40
6.661091915403553
100
AcDbArc
 50
322.3082913820276
 51
45.9049597771112
  0
ARC
  5
78FE
102
{ACAD_REACTORS
330
7938
102
}
330
2
100
AcDbEntity
  8
KIJUN
100
AcDbCircle
 10
52.53421353318845
 20
67.0403751297681
 30
0.0
 40
13.0725803103046
100
AcDbArc
 50
314.0457306437804
 51
0.2136741698368403
  0
ARC
  5
78FF
102
{ACAD_REACTORS
330
7938
102
}
330
2
100
AcDbEntity
  8
KIJUN
100
AcDbCircle
 10
58.7581951548018
 20
60.98214751882671
 30
0.0
 40
4.398702940071996
100
AcDbArc
 50
252.7397757668984
 51
310.6332188291333
  0
ARC
  5
7900
102
{ACAD_REACTORS
330
7938
102
}
330
2
100
AcDbEntity
  8
KIJUN
100
AcDbCircle
 10
60.27911594290458
 20
58.54546012706044
 30
0.0
 40
5.735812552451749
100
AcDbArc
 50
127.7420527220675
 51
288.4646149116838
  0
ARC
  5
7901
102
{ACAD_REACTORS
330
7938
102
}
330
2
100
AcDbEntity
  8
KIJUN
100
AcDbCircle
 10
58.11537434426305
 20
61.60655563210338
 30
0.0
 40
1.997370252473639
100
AcDbArc
 50
277.1041490909059
 51
132.414037599396
  0
ARC
  5
7902
102
{ACAD_REACTORS
330
7938
102
}
330
2
100
AcDbEntity
  8
KIJUN
100
AcDbCircle
 10
102.2472882317053
 20
157.1238599343787
 30
0.0
 40
97.11843900077658
100
AcDbArc
 50
241.3850089966528
 51
243.8289392216816
  0
ARC
  5
7903
102
{ACAD_REACTORS
330
7938
102
}
330
2
100
AcDbEntity
  8
KIJUN
100
AcDbCircle
 10
50.37582132873672
 20
83.48901697308667
 30
0.0
 40
9.645067583439468
100
AcDbArc
 50
342.2252142675799
 51
35.76817211480557
  0
ARC
  5
7904
102
{ACAD_REACTORS
330
7938
102
}
330
2
100
AcDbEntity
  8
KIJUN
100
AcDbCircle
 10
55.26011345282995
 20
80.16395933731548
 30
0.0
 40
7.386403198274019
100
AcDbArc
 50
282.511341779855
 51
351.0304521335976
  0
ARC
  5
7905
102
{ACAD_REACTORS
330
7938
102
}
330
2
100
AcDbEntity
  8
KIJUN
100
AcDbCircle
 10
47.15781786349509
 20
81.54597573643002
 30
0.0
 40
15.60542072616852
100
AcDbArc
 50
350.6563521911949
 51
20.36504555139053
  0
ARC
  5
7906
102
{ACAD_REACTORS
330
7938
102
}
330
2
100
AcDbEntity
  8
KIJUN
100
AcDbCircle
 10
57.93216618771123
 20
77.13735138637054
 30
0.0
 40
8.676153616895698
100
AcDbArc
 50
329.38858019507
 51
35.47924123411394
  0
ARC
  5
7907
102
{ACAD_REACTORS
330
7938
102
}
330
2
100
AcDbEntity
  8
KIJUN
100
AcDbCircle
 10
62.88954081037832
 20
85.46357987723599
 30
0.0
 40
3.907750954262793
100
AcDbArc
 50
302.6428167647985
 51
64.79220757584403
  0
ARC
  5
7908
102
{ACAD_REACTORS
330
7938
102
}
330
2
100
AcDbEntity
  8
KIJUN
100
AcDbCircle
 10
67.19195651968289
 20
85.74312515787966
 30
0.0
 40
4.190646826681388
100
AcDbArc
 50
129.0147075873566
 51
238.4203167532843
  0
ARC
  5
7909
102
{ACAD_REACTORS
330
7938
102
}
330
2
100
AcDbEntity
  8
KIJUN
100
AcDbCircle
 10
68.54330339045327
 20
58.71407555357507
 30
0.0
 40
7.160627071259285
100
AcDbArc
 50
73.79008205604344
 51
106.2099179439565
  0
ARC
  5
790A
102
{ACAD_REACTORS
330
7938
102
}
330
2
100
AcDbEntity
  8
KIJUN
100
AcDbCircle
 10
-74.55588365413087
 20
76.96875619562672
 30
0.0
 40
141.5583080900729
100
AcDbArc
 50
355.3894840032239
 51
0.1645668482453407
  0
ARC
  5
790B
102
{ACAD_REACTORS
330
7938
102
}
330
2
100
AcDbEntity
  8
KIJUN
100
AcDbCircle
 10
87.99274436818109
 20
80.84277881601213
 30
0.0
 40
8.282975393354808
100
AcDbArc
 50
152.5638222045399
 51
218.8621053209945
  0
ARC
  5
790C
102
{ACAD_REACTORS
330
7938
102
}
330
2
100
AcDbEntity
  8
KIJUN
100
AcDbCircle
 10
80.08045158736264
 20
73.82602269216761
 30
0.0
 40
2.334621617602437
100
AcDbArc
 50
302.9840567735212
 51
51.20622231286397
  0
ARC
  5
790D
102
{ACAD_REACTORS
330
7938
102
}
330
2
100
AcDbEntity
  8
KIJUN
100
AcDbCircle
 10
84.39882987566125
 20
82.08361157935764
 30
0.0
 40
7.042900724966569
100
AcDbArc
 50
192.6220385948876
 51
246.079344542101
  0
ARC
  5
790E
102
{ACAD_REACTORS
330
7938
102
}
330
2
100
AcDbEntity
  8
KIJUN
100
AcDbCircle
 10
74.14201876250138
 20
92.22345805857964
 30
0.0
 40
5.802925549834638
100
AcDbArc
 50
48.56055012364571
 51
164.7547440083654
  0
ARC
  5
790F
102
{ACAD_REACTORS
330
7938
102
}
330
2
100
AcDbEntity
  8
KIJUN
100
AcDbCircle
 10
82.30878407024453
 20
65.1779750728918
 30
0.0
 40
6.661091915403553
100
AcDbArc
 50
134.0950402228888
 51
217.6917086179724
  0
ARC
  5
7910
102
{ACAD_REACTORS
330
7938
102
}
330
2
100
AcDbEntity
  8
KIJUN
100
AcDbCircle
 10
84.55239324771719
 20
67.0403751297681
 30
0.0
 40
13.0725803103046
100
AcDbArc
 50
179.7863258301631
 51
225.9542693562195
  0
ARC
  5
7911
102
{ACAD_REACTORS
330
7938
102
}
330
2
100
AcDbEntity
  8
KIJUN
100
AcDbCircle
 10
78.32841162610384
 20
60.98214751882671
 30
0.0
 40
4.398702940071996
100
AcDbArc
 50
229.3667811708667
 51
287.2602242331016
  0
ARC
  5
7913
102
{ACAD_REACTORS
330
7938
102
}
330
2
100
AcDbEntity
  8
KIJUN
100
AcDbCircle
 10
78.97123243664259
 20
61.60655563210338
 30
0.0
 40
1.997370252473639
100
AcDbArc
 50
47.58596240060622
 51
262.8958509090941
  0
ARC
  5
7914
102
{ACAD_REACTORS
330
7938
102
}
330
2
100
AcDbEntity
  8
KIJUN
100
AcDbCircle
 10
34.83931854920036
 20
157.1238599343788
 30
0.0
 40
97.11843900077658
100
AcDbArc
 50
296.1710607783184
 51
298.6149910033473
  0
ARC
  5
7915
102
{ACAD_REACTORS
330
7938
102
}
330
2
100
AcDbEntity
  8
KIJUN
100
AcDbCircle
 10
86.71078545216891
 20
83.48901697308667
 30
0.0
 40
9.645067583439468
100
AcDbArc
 50
144.2318278851944
 51
197.77478573242
  0
ARC
  5
7916
102
{ACAD_REACTORS
330
7938
102
}
330
2
100
AcDbEntity
  8
KIJUN
100
AcDbCircle
 10
81.82649332807569
 20
80.16395933731548
 30
0.0
 40
7.386403198274019
100
AcDbArc
 50
188.9695478664024
 51
257.4886582201386
  0
ARC
  5
7917
102
{ACAD_REACTORS
330
7938
102
}
330
2
100
AcDbEntity
  8
KIJUN
100
AcDbCircle
 10
89.92878891741055
 20
81.54597573643002
 30
0.0
 40
15.60542072616852
100
AcDbArc
 50
159.6349544486095
 51
189.3436478088018
  0
ARC
  5
7918
102
{ACAD_REACTORS
330
7938
102
}
330
2
100
AcDbEntity
  8
KIJUN
100
AcDbCircle
 10
79.1544405931944
 20
77.13735138637054
 30
0.0
 40
8.676153616895698
100
AcDbArc
 50
144.520758765886
 51
210.61141980493
  0
ARC
  5
7919
102
{ACAD_REACTORS
330
7938
102
}
330
2
100
AcDbEntity
  8
KIJUN
100
AcDbCircle
 10
74.19706597052732
 20
85.46357987723599
 30
0.0
 40
3.907750954262793
100
AcDbArc
 50
115.2077924241559
 51
237.3571832352015
  0
ARC
  5
791A
102
{ACAD_REACTORS
330
7938
102
}
330
2
100
AcDbEntity
  8
KIJUN
100
AcDbCircle
 10
69.89465026122275
 20
85.74312515787966
 30
0.0
 40
4.190646826681388
100
AcDbArc
 50
301.5796832467153
 51
50.98529241264333
  0
ARC
  5
791B
102
{ACAD_REACTORS
330
7938
102
}
330
2
100
AcDbEntity
  8
KIJUN
100
AcDbCircle
 10
211.6424904350366
 20
76.96875619562667
 30
0.0
 40
141.5583080900729
100
AcDbArc
 50
179.8354331517546
 51
184.6105159967761
  0
ARC
  5
791C
102
{ACAD_REACTORS
330
7938
102
}
330
2
100
AcDbEntity
  8
KIJUN
100
AcDbCircle
 10
66.1329492442544
 20
-44.26310014106386
 30
0.0
 40
102.1380860082488
100
AcDbArc
 50
86.08078118897847
 51
90.42426867989659
  0
ARC
  5
791D
102
{ACAD_REACTORS
330
7938
102
}
330
2
100
AcDbEntity
  8
KIJUN
100
AcDbCircle
 10
73.04573151618672
 20
56.63846517222947
 30
0.0
 40
1.0
100
AcDbArc
 50
306.4554713998688
 51
86.08078118897847
  0
ARC
  5
791E
102
{ACAD_REACTORS
330
7938
102
}
330
2
100
AcDbEntity
  8
KIJUN
100
AcDbCircle
 10
65.38404015419633
 20
56.87221306153003
 30
0.0
 40
1.0
100
AcDbArc
 50
90.42426867989659
 51
230.0495784690079
  0
ARC
  5
791F
102
{ACAD_REACTORS
330
7938
102
}
330
2
100
AcDbEntity
  8
KIJUN
100
AcDbCircle
 10
69.36339041141104
 20
61.62296051975857
 30
0.0
 40
7.197163051062951
100
AcDbArc
 50
230.0495784690079
 51
306.4554713998701
  0
ARC
  5
7920
102
{ACAD_REACTORS
330
7938
102
}
330
2
100
AcDbEntity
  8
KIJUN
100
AcDbCircle
 10
67.81838947044343
 20
88.05151861746043
 30
0.0
 40
13.26412880174723
100
AcDbArc
 50
345.1820907886216
 51
39.97810894997527
  0
ARC
  5
7921
102
{ACAD_REACTORS
330
7938
102
}
330
2
100
AcDbEntity
  8
KIJUN
100
AcDbCircle
 10
-25.57791370564155
 20
40.65028023249675
 30
0.0
 40
101.4813202988029
100
AcDbArc
 50
33.44049242582777
 51
34.91653832009735
  0
ARC
  5
7922
102
{ACAD_REACTORS
330
7938
102
}
330
2
100
AcDbEntity
  8
KIJUN
100
AcDbCircle
 10
162.6645204865473
 20
40.65028023249675
 30
0.0
 40
101.4813202988029
100
AcDbArc
 50
145.0834616799004
 51
146.5595075741722
  0
ARC
  5
7936
102
{ACAD_REACTORS
330
7938
102
}
330
2
100
AcDbEntity
  8
KIJUN
100
AcDbCircle
 10
68.54330339045282
 20
56.32145466581722
 30
0.0
 40
7.20533769636979
100
AcDbArc
 50
206.5134915958135
 51
333.4865084041865
  0
ARC
  5
7937
102
{ACAD_REACTORS
330
7938
102
}
330
2
100
AcDbEntity
  8
KIJUN
100
AcDbCircle
 10
76.80749083800106
 20
58.54546012706044
 30
0.0
 40
5.735812552451749
100
AcDbArc
 50
251.5353850883162
 51
52.25794727793215
  0
ENDSEC
  0
SECTION
  2
OBJECTS
  0
DICTIONARY
  5
1A
330
0
100
AcDbDictionary
281
     1
  3
ACAD_COLOR
350
144
  3
ACAD_GROUP
350
18
  3
ACAD_LAYOUT
350
58
  3
ACAD_MATERIAL
350
143
  3
ACAD_MLINESTYLE
350
19
  3
ACAD_PLOTSETTINGS
350
59
  3
ACAD_PLOTSTYLENAME
350
56
  3
ACAD_TABLESTYLE
350
145
  3
ACDBHEADERROUNDTRIPXREC
350
79AE
  3
AcDbVariableDictionary
350
1D1
  0
DICTIONARY
  5
1B4
330
A
100
AcDbDictionary
280
     1
281
     1
  3
ACAD_LAYERFILTERS
360
6BAE
  3
ACAD_LAYERSTATES
360
677E
  3
ACLYDICTIONARY
360
6BAD
  0
DICTIONARY
  5
1578
330
2
100
AcDbDictionary
280
     1
281
     1
  3
ACAD_SORTENTS
360
1579
  0
DICTIONARY
  5
144
102
{ACAD_REACTORS
330
1A
102
}
330
1A
100
AcDbDictionary
281
     1
  0
DICTIONARY
  5
18
102
{ACAD_REACTORS
330
1A
102
}
330
1A
100
AcDbDictionary
281
     1
  3
*A1
350
CFC
  3
*A10
350
61CC
  3
*A11
350
2C07
  3
*A12
350
3BBC
  3
*A13
350
2DB5
  3
*A14
350
2FBC
  3
*A15
350
4B40
  3
*A16
350
38C3
  3
*A17
350
1827
  3
*A18
350
2E88
  3
*A19
350
640B
  3
*A2
350
439B
  3
*A20
350
6570
  3
*A21
350
5075
  3
*A22
350
5167
  3
*A23
350
58EE
  3
*A24
350
674B
  3
*A25
350
15D1
  3
*A26
350
4CED
  3
*A27
350
3837
  3
*A28
350
3154
  3
*A29
350
32AA
  3
*A3
350
4590
  3
*A30
350
4EB3
  3
*A31
350
6B36
  3
*A32
350
218C
  3
*A33
350
527D
  3
*A34
350
18ED
  3
*A35
350
1F8A
  3
*A36
350
3FA3
  3
*A37
350
52B3
  3
*A38
350
6E41
  3
*A39
350
6EAB
  3
*A4
350
563B
  3
*A40
350
39C3
  3
*A41
350
2FE9
  3
*A42
350
3650
  3
*A43
350
2862
  3
*A44
350
367C
  3
*A45
350
5A5E
  3
*A46
350
1682
  3
*A47
350
2108
  3
*A48
350
4989
  3
*A49
350
3732
  3
*A5
350
312A
  3
*A50
350
37CF
  3
*A51
350
2335
  3
*A52
350
5141
  3
*A53
350
3AB4
  3
*A54
350
7938
  3
*A55
350
3D8C
  3
*A56
350
419F
  3
*A57
350
327B
  3
*A58
350
5AF5
  3
*A6
350
481A
  3
*A7
350
299B
  3
*A8
350
19E5
  3
*A9
350
46F3
  0
DICTIONARY
  5
58
102
{ACAD_REACTORS
330
1A
102
}
330
1A
100
AcDbDictionary
281
     1
  3
Model
350
5A
  3
ﾚｲｱｳﾄ1
350
5B
  0
DICTIONARY
  5
143
102
{ACAD_REACTORS
330
1A
102
}
330
1A
100
AcDbDictionary
281
     1
  0
DICTIONARY
  5
19
102
{ACAD_REACTORS
330
1A
102
}
330
1A
100
AcDbDictionary
281
     1
  3
STANDARD
350
1D
  0
DICTIONARY
  5
59
102
{ACAD_REACTORS
330
1A
102
}
330
1A
100
AcDbDictionary
281
     1
  0
ACDBDICTIONARYWDFLT
  5
56
102
{ACAD_REACTORS
330
1A
102
}
330
1A
100
AcDbDictionary
281
     1
  3
Normal
350
57
100
AcDbDictionaryWithDefault
340
57
  0
DICTIONARY
  5
145
102
{ACAD_REACTORS
330
1A
102
}
330
1A
100
AcDbDictionary
281
     1
  3
Standard
350
146
  0
DICTIONARY
  5
79AE
102
{ACAD_REACTORS
330
1A
102
}
330
1A
100
AcDbDictionary
281
     1
  0
DICTIONARY
  5
1D1
102
{ACAD_REACTORS
330
1A
102
}
330
1A
100
AcDbDictionary
281
     1
  3
CTABLESTYLE
350
1D2
  3
DIMASSOC
350
D03
  3
PROJECTNAME
350
D04
  0
DICTIONARY
  5
6BAE
102
{ACAD_REACTORS
330
1B4
102
}
330
1B4
100
AcDbDictionary
281
     1
  0
DICTIONARY
  5
677E
102
{ACAD_REACTORS
330
1B4
102
}
330
1B4
100
AcDbDictionary
281
     1
  0
DICTIONARY
  5
6BAD
102
{ACAD_REACTORS
330
1B4
102
}
330
1B4
100
AcDbDictionary
281
     1
1001
ACAD
1000
<All
  0
SORTENTSTABLE
  5
1579
102
{ACAD_REACTORS
330
1578
102
}
330
1578
100
AcDbSortentsTable
330
2
331
20
  5
23
331
7515
  5
7515
331
751D
  5
751D
331
7525
  5
7525
331
74DE
  5
74DE
331
74EE
  5
74EE
331
74F6
  5
74F6
331
750E
  5
750E
331
21
  5
66EC
331
7516
  5
7516
331
751E
  5
751E
331
7526
  5
7526
331
752E
  5
752C
331
74EF
  5
74EF
331
750F
  5
750F
331
66F9
  5
71ED
331
7517
  5
7517
331
751F
  5
751F
331
7527
  5
7527
331
752F
  5
752B
331
23
  5
66F9
331
7510
  5
7510
331
7518
  5
7518
331
7520
  5
7520
331
74E9
  5
74E9
331
74F9
  5
74F9
331
7511
  5
7511
331
7519
  5
7519
331
7521
  5
7521
331
7529
  5
7529
331
66EC
  5
6C5E
331
751A
  5
751A
331
7522
  5
7522
331
74DB
  5
74DB
331
752A
  5
752A
331
7513
  5
7513
331
751B
  5
751B
331
7523
  5
7523
331
74DC
  5
74DC
331
752B
  5
752F
331
1F
  5
21
331
74EC
  5
74EC
331
7514
  5
7514
331
751C
  5
751C
331
7524
  5
7524
331
74DD
  5
74DD
331
74F5
  5
74F5
  0
GROUP
  5
CFC
102
{ACAD_REACTORS
330
18
102
}
330
18
100
AcDbGroup
300

 70
     1
 71
     1
  0
GROUP
  5
61CC
102
{ACAD_REACTORS
330
18
102
}
330
18
100
AcDbGroup
300

 70
     1
 71
     1
  0
GROUP
  5
2C07
102
{ACAD_REACTORS
330
18
102
}
330
18
100
AcDbGroup
300

 70
     1
 71
     1
  0
GROUP
  5
3BBC
102
{ACAD_REACTORS
330
18
102
}
330
18
100
AcDbGroup
300

 70
     1
 71
     1
  0
GROUP
  5
2DB5
102
{ACAD_REACTORS
330
18
102
}
330
18
100
AcDbGroup
300

 70
     1
 71
     1
  0
GROUP
  5
2FBC
102
{ACAD_REACTORS
330
18
102
}
330
18
100
AcDbGroup
300

 70
     1
 71
     1
  0
GROUP
  5
4B40
102
{ACAD_REACTORS
330
18
102
}
330
18
100
AcDbGroup
300

 70
     1
 71
     1
  0
GROUP
  5
38C3
102
{ACAD_REACTORS
330
18
102
}
330
18
100
AcDbGroup
300

 70
     1
 71
     1
  0
GROUP
  5
1827
102
{ACAD_REACTORS
330
18
102
}
330
18
100
AcDbGroup
300

 70
     1
 71
     1
  0
GROUP
  5
2E88
102
{ACAD_REACTORS
330
18
102
}
330
18
100
AcDbGroup
300

 70
     1
 71
     1
  0
GROUP
  5
640B
102
{ACAD_REACTORS
330
18
102
}
330
18
100
AcDbGroup
300

 70
     1
 71
     1
  0
GROUP
  5
439B
102
{ACAD_REACTORS
330
18
102
}
330
18
100
AcDbGroup
300

 70
     1
 71
     1
  0
GROUP
  5
6570
102
{ACAD_REACTORS
330
18
102
}
330
18
100
AcDbGroup
300

 70
     1
 71
     1
  0
GROUP
  5
5075
102
{ACAD_REACTORS
330
18
102
}
330
18
100
AcDbGroup
300

 70
     1
 71
     1
  0
GROUP
  5
5167
102
{ACAD_REACTORS
330
18
102
}
330
18
100
AcDbGroup
300

 70
     1
 71
     1
  0
GROUP
  5
58EE
102
{ACAD_REACTORS
330
18
102
}
330
18
100
AcDbGroup
300

 70
     1
 71
     1
  0
GROUP
  5
674B
102
{ACAD_REACTORS
330
18
102
}
330
18
100
AcDbGroup
300

 70
     1
 71
     1
  0
GROUP
  5
15D1
102
{ACAD_REACTORS
330
18
102
}
330
18
100
AcDbGroup
300

 70
     1
 71
     1
  0
GROUP
  5
4CED
102
{ACAD_REACTORS
330
18
102
}
330
18
100
AcDbGroup
300

 70
     1
 71
     1
  0
GROUP
  5
3837
102
{ACAD_REACTORS
330
18
102
}
330
18
100
AcDbGroup
300

 70
     1
 71
     1
  0
GROUP
  5
3154
102
{ACAD_REACTORS
330
18
102
}
330
18
100
AcDbGroup
300

 70
     1
 71
     1
  0
GROUP
  5
32AA
102
{ACAD_REACTORS
330
18
102
}
330
18
100
AcDbGroup
300

 70
     1
 71
     1
  0
GROUP
  5
4590
102
{ACAD_REACTORS
330
18
102
}
330
18
100
AcDbGroup
300

 70
     1
 71
     1
  0
GROUP
  5
4EB3
102
{ACAD_REACTORS
330
18
102
}
330
18
100
AcDbGroup
300

 70
     1
 71
     1
  0
GROUP
  5
6B36
102
{ACAD_REACTORS
330
18
102
}
330
18
100
AcDbGroup
300

 70
     1
 71
     1
  0
GROUP
  5
218C
102
{ACAD_REACTORS
330
18
102
}
330
18
100
AcDbGroup
300

 70
     1
 71
     1
  0
GROUP
  5
527D
102
{ACAD_REACTORS
330
18
102
}
330
18
100
AcDbGroup
300

 70
     1
 71
     1
  0
GROUP
  5
18ED
102
{ACAD_REACTORS
330
18
102
}
330
18
100
AcDbGroup
300

 70
     1
 71
     1
  0
GROUP
  5
1F8A
102
{ACAD_REACTORS
330
18
102
}
330
18
100
AcDbGroup
300

 70
     1
 71
     1
  0
GROUP
  5
3FA3
102
{ACAD_REACTORS
330
18
102
}
330
18
100
AcDbGroup
300

 70
     1
 71
     1
  0
GROUP
  5
52B3
102
{ACAD_REACTORS
330
18
102
}
330
18
100
AcDbGroup
300

 70
     1
 71
     1
  0
GROUP
  5
6E41
102
{ACAD_REACTORS
330
18
102
}
330
18
100
AcDbGroup
300

 70
     1
 71
     1
  0
GROUP
  5
6EAB
102
{ACAD_REACTORS
330
18
102
}
330
18
100
AcDbGroup
300

 70
     1
 71
     1
  0
GROUP
  5
563B
102
{ACAD_REACTORS
330
18
102
}
330
18
100
AcDbGroup
300

 70
     1
 71
     1
  0
GROUP
  5
39C3
102
{ACAD_REACTORS
330
18
102
}
330
18
100
AcDbGroup
300

 70
     1
 71
     1
  0
GROUP
  5
2FE9
102
{ACAD_REACTORS
330
18
102
}
330
18
100
AcDbGroup
300

 70
     1
 71
     1
  0
GROUP
  5
3650
102
{ACAD_REACTORS
330
18
102
}
330
18
100
AcDbGroup
300

 70
     1
 71
     1
  0
GROUP
  5
2862
102
{ACAD_REACTORS
330
18
102
}
330
18
100
AcDbGroup
300

 70
     1
 71
     1
  0
GROUP
  5
367C
102
{ACAD_REACTORS
330
18
102
}
330
18
100
AcDbGroup
300

 70
     1
 71
     1
  0
GROUP
  5
5A5E
102
{ACAD_REACTORS
330
18
102
}
330
18
100
AcDbGroup
300

 70
     1
 71
     1
  0
GROUP
  5
1682
102
{ACAD_REACTORS
330
18
102
}
330
18
100
AcDbGroup
300

 70
     1
 71
     1
  0
GROUP
  5
2108
102
{ACAD_REACTORS
330
18
102
}
330
18
100
AcDbGroup
300

 70
     1
 71
     1
  0
GROUP
  5
4989
102
{ACAD_REACTORS
330
18
102
}
330
18
100
AcDbGroup
300

 70
     1
 71
     1
  0
GROUP
  5
3732
102
{ACAD_REACTORS
330
18
102
}
330
18
100
AcDbGroup
300

 70
     1
 71
     1
  0
GROUP
  5
312A
102
{ACAD_REACTORS
330
18
102
}
330
18
100
AcDbGroup
300

 70
     1
 71
     1
  0
GROUP
  5
37CF
102
{ACAD_REACTORS
330
18
102
}
330
18
100
AcDbGroup
300

 70
     1
 71
     1
  0
GROUP
  5
2335
102
{ACAD_REACTORS
330
18
102
}
330
18
100
AcDbGroup
300

 70
     1
 71
     1
  0
GROUP
  5
5141
102
{ACAD_REACTORS
330
18
102
}
330
18
100
AcDbGroup
300

 70
     1
 71
     1
  0
GROUP
  5
3AB4
102
{ACAD_REACTORS
330
18
102
}
330
18
100
AcDbGroup
300

 70
     1
 71
     1
  0
GROUP
  5
7938
102
{ACAD_REACTORS
330
18
102
}
330
18
100
AcDbGroup
300

 70
     1
 71
     1
340
7937
340
7936
340
7922
340
7921
340
7920
340
791F
340
791E
340
791D
340
791C
340
791B
340
791A
340
7919
340
7918
340
7917
340
7916
340
7915
340
7914
340
7913
340
7911
340
7910
340
790F
340
790E
340
790D
340
790C
340
790B
340
790A
340
7909
340
7908
340
7907
340
7906
340
7905
340
7904
340
7903
340
7902
340
7901
340
7900
340
78FF
340
78FE
340
78FD
340
78FC
340
78FB
340
78FA
340
78F9
340
78F8
340
78F7
340
78EF
340
78EE
340
78ED
340
78EC
340
78EB
340
78EA
340
78E9
340
78E8
340
78E7
340
78E6
340
78E5
340
78E4
340
78E3
340
78E2
340
78E1
340
78E0
340
78DF
340
78DD
340
78DC
340
78DB
340
78DA
340
78D9
340
78D8
340
78D7
340
78D6
340
78D5
340
78D4
340
78D3
340
78D2
340
78D1
340
78D0
340
78CF
340
78CE
340
78CD
340
78CC
340
78CB
340
78CA
340
78C9
340
78C8
340
78C7
340
7798
340
7797
340
7796
340
7795
340
7794
340
7793
340
7792
340
7791
340
7790
340
778F
340
778E
340
778D
340
778C
340
778B
340
778A
340
7789
340
7788
340
7787
340
7786
340
7785
340
7784
340
7783
340
7782
340
7781
340
7780
340
777F
340
777E
340
777D
340
777C
340
777B
340
777A
340
7779
340
7778
340
7777
340
7776
340
7775
340
7774
340
7773
340
7772
340
7771
340
7770
340
776F
340
776E
340
776D
340
776C
340
776B
340
776A
340
7769
340
7768
340
7767
340
7766
340
7765
340
7764
340
7763
340
7762
340
7761
340
7760
340
775F
340
775E
340
775D
340
775C
340
775B
340
775A
340
7759
340
7758
340
7757
340
7756
340
7755
340
7754
340
7753
340
7752
340
7751
340
7750
340
774F
340
774E
340
774D
340
774C
340
774B
340
774A
340
7749
340
7748
340
7747
340
7746
340
7745
340
7744
340
7743
340
7742
340
7741
340
7740
340
773F
340
773E
340
773D
340
773C
340
773B
340
773A
340
7739
340
7738
340
7737
340
7736
340
7735
340
7734
340
7733
340
7732
340
7731
340
7730
340
772F
340
772E
340
772D
340
772C
340
772B
340
772A
340
7729
340
7728
340
7727
340
7726
340
7725
340
7724
340
7723
340
7722
340
7721
340
7720
340
771F
340
771E
340
771D
340
771C
340
771B
340
771A
340
7719
340
7718
340
7717
340
7716
340
7715
340
7714
340
7713
340
7712
340
7711
340
7710
340
770F
340
770E
340
770D
340
770C
340
770B
340
770A
340
7709
340
7708
340
7707
340
7706
340
7705
340
7704
340
7703
340
7702
340
7701
340
7700
340
76FF
340
76FE
340
76FD
340
76FC
340
76FB
340
76FA
340
76F9
340
76F8
340
76F7
340
76F6
340
76F5
340
76F4
340
76F3
340
76F2
340
76F1
340
76F0
340
76EF
340
76EE
340
76ED
340
76EC
340
76EB
340
76EA
340
76E9
340
76E8
340
76E7
340
76E6
340
76E5
340
76E4
340
76E3
340
76E2
340
76E1
340
76E0
340
76DF
340
76DE
340
76DD
340
76DC
340
76DB
340
76DA
340
76D9
340
76D8
340
76D7
340
76D6
340
76D5
340
76D4
340
76D3
340
76D2
340
76D1
340
76D0
340
76CF
340
76CE
340
76CD
340
76CC
340
75AC
340
75AB
340
75AA
340
75A9
340
75A8
340
75A7
340
75A6
340
75A5
340
75A4
340
75A3
340
75A2
340
75A1
340
75A0
340
759F
340
759E
340
759D
340
759C
340
759B
340
7598
340
7597
340
7596
340
7595
340
7582
340
7581
340
7580
340
757F
340
757E
340
757D
340
757C
340
757B
340
757A
340
7579
340
7578
340
7577
340
7576
340
7575
340
7574
340
7573
340
7572
340
7571
340
7570
340
7558
340
7557
340
7556
340
7555
340
7554
340
7553
340
7552
340
7551
340
7550
340
754F
340
754E
340
754D
340
754C
340
754B
340
754A
340
7549
340
7548
340
7547
340
7546
340
7545
340
7544
340
7543
340
7542
340
7541
340
7540
340
753F
340
753E
340
753D
340
753C
340
753B
340
753A
340
7539
340
7538
340
7537
340
7536
340
7535
340
7534
340
7533
340
7532
340
7531
340
7530
340
752B
340
752E
340
752F
340
752A
340
7529
340
7527
340
7526
340
7525
340
7524
340
7523
340
7522
340
7521
340
7520
340
751F
340
751E
340
751D
340
751C
340
751B
340
751A
340
7519
340
7518
340
7517
340
7516
340
7515
340
7514
340
7513
340
7511
340
7510
340
750F
340
750E
340
74F9
340
74F6
340
74F5
340
74EF
340
74EE
340
74EC
340
74E9
340
74DE
340
74DD
340
74DC
340
74DB
  0
GROUP
  5
3D8C
102
{ACAD_REACTORS
330
18
102
}
330
18
100
AcDbGroup
300

 70
     1
 71
     1
  0
GROUP
  5
419F
102
{ACAD_REACTORS
330
18
102
}
330
18
100
AcDbGroup
300

 70
     1
 71
     1
  0
GROUP
  5
327B
102
{ACAD_REACTORS
330
18
102
}
330
18
100
AcDbGroup
300

 70
     1
 71
     1
  0
GROUP
  5
5AF5
102
{ACAD_REACTORS
330
18
102
}
330
18
100
AcDbGroup
300

 70
     1
 71
     1
  0
GROUP
  5
481A
102
{ACAD_REACTORS
330
18
102
}
330
18
100
AcDbGroup
300

 70
     1
 71
     1
  0
GROUP
  5
299B
102
{ACAD_REACTORS
330
18
102
}
330
18
100
AcDbGroup
300

 70
     1
 71
     1
  0
GROUP
  5
19E5
102
{ACAD_REACTORS
330
18
102
}
330
18
100
AcDbGroup
300

 70
     1
 71
     1
  0
GROUP
  5
46F3
102
{ACAD_REACTORS
330
18
102
}
330
18
100
AcDbGroup
300

 70
     1
 71
     1
  0
LAYOUT
  5
5A
102
{ACAD_XDICTIONARY
360
79AF
102
}
102
{ACAD_REACTORS
330
58
102
}
330
58
100
AcDbPlotSettings
  1

  2
none_device
  4
Letter_(8.50_x_11.00_Inches)
  6

 40
6.349999904632568
 41
6.349999904632568
 42
6.350006103515625
 43
6.350006103515625
 44
215.8999938964844
 45
279.3999938964844
 46
0.0
 47
0.0
 48
0.0
 49
0.0
140
0.0
141
0.0
142
1.0
143
76.54229552604896
 70
 11952
 72
     0
 73
     1
 74
     0
  7
monochrome.ctb
 75
     0
147
0.0130646721936851
148
9973.459437949902
149
463.9633285297773
100
AcDbLayout
  1
Model
 70
     1
 71
     0
 10
0.0
 20
0.0
 11
12.0
 21
9.0
 12
0.0
 22
0.0
 32
0.0
 14
0.0
 24
0.0
 34
0.0
 15
0.0
 25
0.0
 35
0.0
146
0.0
 13
0.0
 23
0.0
 33
0.0
 16
1.0
 26
0.0
 36
0.0
 17
0.0
 27
1.0
 37
0.0
 76
     0
330
2
1001
ACAD_PSEXT
1000
なし
1000
なし
1000
適切ではありません
1000
新しいプロッタ環境設定名を選択しない限り、レイアウトは印刷されません。
1070
     0
  0
LAYOUT
  5
5B
102
{ACAD_XDICTIONARY
360
79B1
102
}
102
{ACAD_REACTORS
330
58
102
}
330
58
100
AcDbPlotSettings
  1

  2
なし
  4

  6

 40
0.0
 41
0.0
 42
0.0
 43
0.0
 44
0.0
 45
0.0
 46
0.0
 47
0.0
 48
0.0
 49
0.0
140
0.0
141
0.0
142
1.0
143
1.0
 70
   688
 72
     0
 73
     0
 74
     5
  7
monochrome.ctb
 75
    16
147
1.0
148
0.0
149
0.0
100
AcDbLayout
  1
ﾚｲｱｳﾄ1
 70
     1
 71
     1
 10
0.0
 20
0.0
 11
12.0
 21
9.0
 12
0.0
 22
0.0
 32
0.0
 14
1.000000000000000E+20
 24
1.000000000000000E+20
 34
1.000000000000000E+20
 15
-1.000000000000000E+20
 25
-1.000000000000000E+20
 35
-1.000000000000000E+20
146
0.0
 13
0.0
 23
0.0
 33
0.0
 16
1.0
 26
0.0
 36
0.0
 17
0.0
 27
1.0
 37
0.0
 76
     0
330
7
  0
MLINESTYLE
  5
1D
102
{ACAD_REACTORS
330
19
102
}
330
19
100
AcDbMlineStyle
  2
STANDARD
 70
     0
  3

 62
   256
 51
90.0
 52
90.0
 71
     2
 49
0.5
 62
   256
  6
BYLAYER
 49
-0.5
 62
   256
  6
BYLAYER
  0
ACDBPLACEHOLDER
  5
57
102
{ACAD_REACTORS
330
56
102
}
330
56
  0
TABLESTYLE
  5
146
102
{ACAD_REACTORS
330
145
102
}
330
145
100
AcDbTableStyle
  3
Standard
 70
     0
 71
     0
 40
0.06
 41
0.06
280
     0
281
     0
  7
STANDARD
140
0.18
170
     2
 62
     0
 63
     7
283
     0
274
    -2
284
     1
 64
     0
275
    -2
285
     1
 65
     0
276
    -2
286
     1
 66
     0
277
    -2
287
     1
 67
     0
278
    -2
288
     1
 68
     0
279
    -2
289
     1
 69
     0
  7
STANDARD
140
0.25
170
     5
 62
     0
 63
     7
283
     0
274
    -2
284
     1
 64
     0
275
    -2
285
     1
 65
     0
276
    -2
286
     1
 66
     0
277
    -2
287
     1
 67
     0
278
    -2
288
     1
 68
     0
279
    -2
289
     1
 69
     0
  7
STANDARD
140
0.18
170
     5
 62
     0
 63
     7
283
     0
274
    -2
284
     1
 64
     0
275
    -2
285
     1
 65
     0
276
    -2
286
     1
 66
     0
277
    -2
287
     1
 67
     0
278
    -2
288
     1
 68
     0
279
    -2
289
     1
 69
     0
  0
DICTIONARYVAR
  5
1D2
102
{ACAD_REACTORS
330
1D1
102
}
330
1D1
100
DictionaryVariables
280
     0
  1
STANDARD
  0
DICTIONARYVAR
  5
D03
102
{ACAD_REACTORS
330
1D1
102
}
330
1D1
100
DictionaryVariables
280
     0
  1
1
  0
DICTIONARYVAR
  5
D04
102
{ACAD_REACTORS
330
1D1
102
}
330
1D1
100
DictionaryVariables
280
     0
  1

  0
DICTIONARY
  5
79AF
330
5A
100
AcDbDictionary
280
     1
281
     1
  3
ACAD_XREC_ROUNDTRIP
360
79B0
  0
DICTIONARY
  5
79B1
330
5B
100
AcDbDictionary
280
     1
281
     1
  3
ACAD_XREC_ROUNDTRIP
360
79B2
  0
XRECORD
  5
79B0
102
{ACAD_REACTORS
330
79AF
102
}
330
79AF
100
AcDbXrecord
280
     1
102
SHADEPLOT
 70
     0
102
SHADEPLOTRESLEVEL
 70
     2
102
SHADEPLOTCUSTOMDPI
 70
   300
  0
XRECORD
  5
79B2
102
{ACAD_REACTORS
330
79B1
102
}
330
79B1
100
AcDbXrecord
280
     1
102
SHADEPLOT
 70
     0
102
SHADEPLOTRESLEVEL
 70
     2
102
SHADEPLOTCUSTOMDPI
 70
   300
  0
ENDSEC
  0
EOF
