  0
SECTION
  2
HEADER
  9
$ACADVER
  1
AC1015
  9
$ACADMAINTVER
 70
    20
  9
$DWGCODEPAGE
  3
ANSI_932
  9
$INSBASE
 10
922.019522
 20
-675.4306699999999
 30
0.0
  9
$EXTMIN
 10
-38.91112270711733
 20
-0.0349866239912444
 30
-0.0000000349181948
  9
$EXTMAX
 10
148.6844594138472
 20
296.0612381777301
 30
0.0000000814935746
  9
$LIMMIN
 10
0.0
 20
0.0
  9
$LIMMAX
 10
420.0
 20
297.0
  9
$ORTHOMODE
 70
     1
  9
$REGENMODE
 70
     1
  9
$FILLMODE
 70
     1
  9
$QTEXTMODE
 70
     0
  9
$MIRRTEXT
 70
     1
  9
$LTSCALE
 40
1.0
  9
$ATTMODE
 70
     1
  9
$TEXTSIZE
 40
30.0
  9
$TRACEWID
 40
0.05
  9
$TEXTSTYLE
  7
SUNPOU
  9
$CLAYER
  8
0
  9
$CELTYPE
  6
BYLAYER
  9
$CECOLOR
 62
   256
  9
$CELTSCALE
 40
1.0
  9
$DISPSILH
 70
     0
  9
$DIMSCALE
 40
1.0
  9
$DIMASZ
 40
2.0
  9
$DIMEXO
 40
10.0
  9
$DIMDLI
 40
0.38
  9
$DIMRND
 40
0.0
  9
$DIMDLE
 40
0.0
  9
$DIMEXE
 40
0.0
  9
$DIMTP
 40
0.0
  9
$DIMTM
 40
0.0
  9
$DIMTXT
 40
5.0
  9
$DIMCEN
 40
0.0
  9
$DIMTSZ
 40
0.0
  9
$DIMTOL
 70
     0
  9
$DIMLIM
 70
     0
  9
$DIMTIH
 70
     0
  9
$DIMTOH
 70
     0
  9
$DIMSE1
 70
     0
  9
$DIMSE2
 70
     0
  9
$DIMTAD
 70
     1
  9
$DIMZIN
 70
     0
  9
$DIMBLK
  1
Dot
  9
$DIMASO
 70
     1
  9
$DIMSHO
 70
     1
  9
$DIMPOST
  1

  9
$DIMAPOST
  1

  9
$DIMALT
 70
     0
  9
$DIMALTD
 70
     2
  9
$DIMALTF
 40
25.4
  9
$DIMLFAC
 40
1.0
  9
$DIMTOFL
 70
     0
  9
$DIMTVP
 40
0.0
  9
$DIMTIX
 70
     0
  9
$DIMSOXD
 70
     0
  9
$DIMSAH
 70
     0
  9
$DIMBLK1
  1

  9
$DIMBLK2
  1

  9
$DIMSTYLE
  2
STANDARD
  9
$DIMCLRD
 70
    60
  9
$DIMCLRE
 70
    70
  9
$DIMCLRT
 70
    60
  9
$DIMTFAC
 40
0.064286
  9
$DIMGAP
 40
3.0
  9
$DIMJUST
 70
     0
  9
$DIMSD1
 70
     0
  9
$DIMSD2
 70
     0
  9
$DIMTOLJ
 70
     1
  9
$DIMTZIN
 70
     0
  9
$DIMALTZ
 70
     0
  9
$DIMALTTZ
 70
     0
  9
$DIMUPT
 70
     0
  9
$DIMDEC
 70
     0
  9
$DIMTDEC
 70
     0
  9
$DIMALTU
 70
     2
  9
$DIMALTTD
 70
     2
  9
$DIMTXSTY
  7
SUNPOU
  9
$DIMAUNIT
 70
     0
  9
$DIMADEC
 70
     0
  9
$DIMALTRND
 40
0.0
  9
$DIMAZIN
 70
     0
  9
$DIMDSEP
 70
    46
  9
$DIMATFIT
 70
     3
  9
$DIMFRAC
 70
     0
  9
$DIMLDRBLK
  1

  9
$DIMLUNIT
 70
     2
  9
$DIMLWD
 70
    -2
  9
$DIMLWE
 70
    -2
  9
$DIMTMOVE
 70
     0
  9
$LUNITS
 70
     2
  9
$LUPREC
 70
     5
  9
$SKETCHINC
 40
0.1
  9
$FILLETRAD
 40
0.0
  9
$AUNITS
 70
     0
  9
$AUPREC
 70
     0
  9
$MENU
  1
acad
  9
$ELEVATION
 40
0.0
  9
$PELEVATION
 40
0.0
  9
$THICKNESS
 40
0.0
  9
$LIMCHECK
 70
     0
  9
$CHAMFERA
 40
0.0
  9
$CHAMFERB
 40
0.0
  9
$CHAMFERC
 40
0.0
  9
$CHAMFERD
 40
0.0
  9
$SKPOLY
 70
     0
  9
$TDCREATE
 40
2450623.654673033
  9
$TDUCREATE
 40
2450623.279673032
  9
$TDUPDATE
 40
2453872.662980046
  9
$TDUUPDATE
 40
2453872.287980046
  9
$TDINDWG
 40
0.9416819444
  9
$TDUSRTIMER
 40
0.9416817708
  9
$USRTIMER
 70
     1
  9
$ANGBASE
 50
0.0
  9
$ANGDIR
 70
     0
  9
$PDMODE
 70
     0
  9
$PDSIZE
 40
0.0
  9
$PLINEWID
 40
0.0
  9
$SPLFRAME
 70
     0
  9
$SPLINETYPE
 70
     6
  9
$SPLINESEGS
 70
     8
  9
$HANDSEED
  5
66BD
  9
$SURFTAB1
 70
     6
  9
$SURFTAB2
 70
     6
  9
$SURFTYPE
 70
     6
  9
$SURFU
 70
     6
  9
$SURFV
 70
     6
  9
$UCSBASE
  2

  9
$UCSNAME
  2

  9
$UCSORG
 10
0.0
 20
0.0
 30
0.0
  9
$UCSXDIR
 10
1.0
 20
0.0
 30
0.0
  9
$UCSYDIR
 10
0.0
 20
1.0
 30
0.0
  9
$UCSORTHOREF
  2

  9
$UCSORTHOVIEW
 70
     0
  9
$UCSORGTOP
 10
0.0
 20
0.0
 30
0.0
  9
$UCSORGBOTTOM
 10
0.0
 20
0.0
 30
0.0
  9
$UCSORGLEFT
 10
0.0
 20
0.0
 30
0.0
  9
$UCSORGRIGHT
 10
0.0
 20
0.0
 30
0.0
  9
$UCSORGFRONT
 10
0.0
 20
0.0
 30
0.0
  9
$UCSORGBACK
 10
0.0
 20
0.0
 30
0.0
  9
$PUCSBASE
  2

  9
$PUCSNAME
  2

  9
$PUCSORG
 10
0.0
 20
0.0
 30
0.0
  9
$PUCSXDIR
 10
1.0
 20
0.0
 30
0.0
  9
$PUCSYDIR
 10
0.0
 20
1.0
 30
0.0
  9
$PUCSORTHOREF
  2

  9
$PUCSORTHOVIEW
 70
     0
  9
$PUCSORGTOP
 10
0.0
 20
0.0
 30
0.0
  9
$PUCSORGBOTTOM
 10
0.0
 20
0.0
 30
0.0
  9
$PUCSORGLEFT
 10
0.0
 20
0.0
 30
0.0
  9
$PUCSORGRIGHT
 10
0.0
 20
0.0
 30
0.0
  9
$PUCSORGFRONT
 10
0.0
 20
0.0
 30
0.0
  9
$PUCSORGBACK
 10
0.0
 20
0.0
 30
0.0
  9
$USERI1
 70
     0
  9
$USERI2
 70
     0
  9
$USERI3
 70
     0
  9
$USERI4
 70
     0
  9
$USERI5
 70
     0
  9
$USERR1
 40
0.0
  9
$USERR2
 40
0.0
  9
$USERR3
 40
0.0
  9
$USERR4
 40
0.0
  9
$USERR5
 40
0.0
  9
$WORLDVIEW
 70
     1
  9
$SHADEDGE
 70
     3
  9
$SHADEDIF
 70
    70
  9
$TILEMODE
 70
     1
  9
$MAXACTVP
 70
    16
  9
$PINSBASE
 10
0.0
 20
0.0
 30
0.0
  9
$PLIMCHECK
 70
     0
  9
$PEXTMIN
 10
1.000000000000000E+20
 20
1.000000000000000E+20
 30
1.000000000000000E+20
  9
$PEXTMAX
 10
-1.000000000000000E+20
 20
-1.000000000000000E+20
 30
-1.000000000000000E+20
  9
$PLIMMIN
 10
0.0
 20
0.0
  9
$PLIMMAX
 10
12.0
 20
9.0
  9
$UNITMODE
 70
     0
  9
$VISRETAIN
 70
     0
  9
$PLINEGEN
 70
     0
  9
$PSLTSCALE
 70
     1
  9
$TREEDEPTH
 70
  3020
  9
$CMLSTYLE
  2
STANDARD
  9
$CMLJUST
 70
     0
  9
$CMLSCALE
 40
1.0
  9
$PROXYGRAPHICS
 70
     1
  9
$MEASUREMENT
 70
     0
  9
$CELWEIGHT
370
    -1
  9
$ENDCAPS
280
     0
  9
$JOINSTYLE
280
     0
  9
$LWDISPLAY
290
     0
  9
$INSUNITS
 70
     0
  9
$HYPERLINKBASE
  1

  9
$STYLESHEET
  1

  9
$XEDIT
290
     1
  9
$CEPSNTYPE
380
     0
  9
$PSTYLEMODE
290
     1
  9
$FINGERPRINTGUID
  2
{FB88A696-E29C-4009-92AF-A3599A8169D5}
  9
$VERSIONGUID
  2
{68D8CC43-9350-44E3-B4BB-EF80407EBDF3}
  9
$EXTNAMES
290
     1
  9
$PSVPSCALE
 40
0.0
  9
$OLESTARTUP
290
     0
  0
ENDSEC
  0
SECTION
  2
CLASSES
  0
CLASS
  1
DICTIONARYVAR
  2
AcDbDictionaryVar
  3
ObjectDBX Classes
 90
        0
280
     0
281
     0
  0
CLASS
  1
ACDBDICTIONARYWDFLT
  2
AcDbDictionaryWithDefault
  3
ObjectDBX Classes
 90
        0
280
     0
281
     0
  0
CLASS
  1
ACDBPLACEHOLDER
  2
AcDbPlaceHolder
  3
ObjectDBX Classes
 90
        0
280
     0
281
     0
  0
CLASS
  1
LAYOUT
  2
AcDbLayout
  3
ObjectDBX Classes
 90
        0
280
     0
281
     0
  0
CLASS
  1
TABLESTYLE
  2
AcDbTableStyle
  3
ObjectDBX Classes
 90
     2047
280
     0
281
     0
  0
CLASS
  1
SORTENTSTABLE
  2
AcDbSortentsTable
  3
ObjectDBX Classes
 90
        0
280
     0
281
     0
  0
ENDSEC
  0
SECTION
  2
TABLES
  0
TABLE
  2
VPORT
  5
12
330
0
100
AcDbSymbolTable
 70
    15
  0
VPORT
  5
66B7
330
12
100
AcDbSymbolTableRecord
100
AcDbViewportTableRecord
  2
*Active
 70
     0
 10
0.0
 20
0.0
 11
1.0
 21
1.0
 12
54.88666835336497
 22
148.0131257768694
 13
0.0
 23
0.0
 14
1.0
 24
1.0
 15
0.0
 25
0.0
 16
0.0
 26
0.0
 36
1.0
 17
0.0
 27
0.0
 37
0.0
 40
298.3565013269252
 41
1.555414012738853
 42
50.0
 43
0.0
 44
0.0
 50
0.0
 51
0.0
 71
     0
 72
 20000
 73
     1
 74
     1
 75
     0
 76
     0
 77
     0
 78
     0
281
     0
 65
     1
110
0.0
120
0.0
130
0.0
111
1.0
121
0.0
131
0.0
112
0.0
122
1.0
132
0.0
 79
     0
146
0.0
  0
ENDTAB
  0
TABLE
  2
LTYPE
  5
D
330
0
100
AcDbSymbolTable
 70
     2
  0
LTYPE
  5
E
330
D
100
AcDbSymbolTableRecord
100
AcDbLinetypeTableRecord
  2
BYBLOCK
 70
     0
  3

 72
    65
 73
     0
 40
0.0
  0
LTYPE
  5
F
330
D
100
AcDbSymbolTableRecord
100
AcDbLinetypeTableRecord
  2
BYLAYER
 70
     0
  3

 72
    65
 73
     0
 40
0.0
  0
LTYPE
  5
5
330
D
100
AcDbSymbolTableRecord
100
AcDbLinetypeTableRecord
  2
CONTINUOUS
 70
     0
  3
Solid line
 72
    65
 73
     0
 40
0.0
  0
ENDTAB
  0
TABLE
  2
LAYER
  5
A
102
{ACAD_XDICTIONARY
360
1B4
102
}
330
0
100
AcDbSymbolTable
 70
     6
  0
LAYER
  5
4
330
A
100
AcDbSymbolTableRecord
100
AcDbLayerTableRecord
  2
0
 70
     0
 62
     7
  6
CONTINUOUS
370
    -3
390
57
  0
LAYER
  5
25
330
A
100
AcDbSymbolTableRecord
100
AcDbLayerTableRecord
  2
KIJUN
 70
     0
 62
     7
  6
CONTINUOUS
370
    -3
390
57
  0
LAYER
  5
22
330
A
100
AcDbSymbolTableRecord
100
AcDbLayerTableRecord
  2
HOJO
 70
     0
 62
     3
  6
CONTINUOUS
370
    -3
390
57
  0
LAYER
  5
1B
330
A
100
AcDbSymbolTableRecord
100
AcDbLayerTableRecord
  2
WAKU
 70
     0
 62
     1
  6
CONTINUOUS
370
    -3
390
57
  0
LAYER
  5
31
330
A
100
AcDbSymbolTableRecord
100
AcDbLayerTableRecord
  2
DEFPOINTS
 70
     0
 62
     7
  6
CONTINUOUS
290
     0
370
    -3
390
57
  0
LAYER
  5
28
330
A
100
AcDbSymbolTableRecord
100
AcDbLayerTableRecord
  2
SUNPOU
 70
     0
 62
    70
  6
CONTINUOUS
370
    -3
390
57
  0
ENDTAB
  0
TABLE
  2
STYLE
  5
B
330
0
100
AcDbSymbolTable
 70
     2
  0
STYLE
  5
C
330
B
100
AcDbSymbolTableRecord
100
AcDbTextStyleTableRecord
  2
STANDARD
 70
     0
 40
0.0
 41
1.0
 50
0.0
 71
     0
 42
0.2
  3
txt
  4

  0
STYLE
  5
1C
330
B
100
AcDbSymbolTableRecord
100
AcDbTextStyleTableRecord
  2
SUNPOU
 70
     0
 40
0.0
 41
1.0
 50
0.0
 71
     0
 42
30.0
  3
txt
  4
bigfont
  0
ENDTAB
  0
TABLE
  2
VIEW
  5
10
330
0
100
AcDbSymbolTable
 70
     0
  0
ENDTAB
  0
TABLE
  2
UCS
  5
11
330
0
100
AcDbSymbolTable
 70
     0
  0
ENDTAB
  0
TABLE
  2
APPID
  5
14
330
0
100
AcDbSymbolTable
 70
    10
  0
APPID
  5
15
330
14
100
AcDbSymbolTableRecord
100
AcDbRegAppTableRecord
  2
ACAD
 70
     0
  0
APPID
  5
1D3
330
14
100
AcDbSymbolTableRecord
100
AcDbRegAppTableRecord
  2
ACAD_DSTYLE_DIMTEXT_FILL
 70
     0
  0
APPID
  5
1D4
330
14
100
AcDbSymbolTableRecord
100
AcDbRegAppTableRecord
  2
ACAD_DSTYLE_DIMEXT_LENGTH
 70
     0
  0
APPID
  5
1D5
330
14
100
AcDbSymbolTableRecord
100
AcDbRegAppTableRecord
  2
ACAD_DSTYLE_DIMEXT_ENABLED
 70
     0
  0
APPID
  5
1D6
330
14
100
AcDbSymbolTableRecord
100
AcDbRegAppTableRecord
  2
ACAD_DSTYLE_DIM_LINETYPE
 70
     0
  0
APPID
  5
1D7
330
14
100
AcDbSymbolTableRecord
100
AcDbRegAppTableRecord
  2
ACAD_DSTYLE_DIM_EXT1_LINETYPE
 70
     0
  0
APPID
  5
1D8
330
14
100
AcDbSymbolTableRecord
100
AcDbRegAppTableRecord
  2
ACAD_DSTYLE_DIM_EXT2_LINETYPE
 70
     0
  0
APPID
  5
294
330
14
100
AcDbSymbolTableRecord
100
AcDbRegAppTableRecord
  2
ACAD_DSTYLE_DIMJOGGED_JOGANGLE_SYMBOL
 70
     0
  0
APPID
  5
478
330
14
100
AcDbSymbolTableRecord
100
AcDbRegAppTableRecord
  2
ACAD_DSTYLE_DIMARC_LENGTH_SYMBOL
 70
     0
  0
APPID
  5
F55
330
14
100
AcDbSymbolTableRecord
100
AcDbRegAppTableRecord
  2
ACAD_EXEMPT_FROM_CAD_STANDARDS
 70
     0
  0
ENDTAB
  0
TABLE
  2
DIMSTYLE
  5
16
330
0
100
AcDbSymbolTable
 70
     4
100
AcDbDimStyleTable
 71
     1
340
1E
  0
DIMSTYLE
105
1E
102
{ACAD_REACTORS
330
6608
330
6627
102
}
330
16
100
AcDbSymbolTableRecord
100
AcDbDimStyleTableRecord
  2
STANDARD
 70
     0
340
C
  0
ENDTAB
  0
TABLE
  2
BLOCK_RECORD
  5
1
330
0
100
AcDbSymbolTable
 70
    18
  0
BLOCK_RECORD
  5
2
102
{ACAD_XDICTIONARY
360
D13
102
}
330
1
100
AcDbSymbolTableRecord
100
AcDbBlockTableRecord
  2
*MODEL_SPACE
340
5A
  0
BLOCK_RECORD
  5
7
330
1
100
AcDbSymbolTableRecord
100
AcDbBlockTableRecord
  2
*PAPER_SPACE
340
5B
  0
BLOCK_RECORD
  5
109
330
1
100
AcDbSymbolTableRecord
100
AcDbBlockTableRecord
  2
_Dot
340
0
102
{BLKREFS
331
58E8
331
58E9
331
58F2
331
58F3
331
5D83
331
5D84
331
5D8C
331
5D8D
331
5F73
331
5F74
331
5F8E
331
5F8F
331
625C
331
625D
331
6265
331
6266
331
63F0
331
63F1
331
63FD
331
63FE
331
6699
331
669A
331
66AB
331
66AC
102
}
  0
BLOCK_RECORD
  5
6609
330
1
100
AcDbSymbolTableRecord
100
AcDbBlockTableRecord
  2
*D16
340
0
  0
BLOCK_RECORD
  5
6628
330
1
100
AcDbSymbolTableRecord
100
AcDbBlockTableRecord
  2
*D17
340
0
  0
ENDTAB
  0
ENDSEC
  0
SECTION
  2
BLOCKS
  0
BLOCK
  5
3
330
2
100
AcDbEntity
  8
0
100
AcDbBlockBegin
  2
*MODEL_SPACE
 70
     0
 10
0.0
 20
0.0
 30
0.0
  3
*MODEL_SPACE
  1

  0
ENDBLK
  5
6
330
2
100
AcDbEntity
  8
0
100
AcDbBlockEnd
  0
BLOCK
  5
8
330
7
100
AcDbEntity
 67
     1
  8
0
100
AcDbBlockBegin
  2
*PAPER_SPACE
 70
     0
 10
0.0
 20
0.0
 30
0.0
  3
*PAPER_SPACE
  1

  0
ENDBLK
  5
9
330
7
100
AcDbEntity
 67
     1
  8
0
100
AcDbBlockEnd
  0
BLOCK
  5
10C
330
109
100
AcDbEntity
  8
0
100
AcDbBlockBegin
  2
_Dot
 70
     0
 10
0.0
 20
0.0
 30
0.0
  3
_Dot
  1

  0
LWPOLYLINE
  5
10A
330
109
100
AcDbEntity
  8
0
  6
ByBlock
 62
     0
100
AcDbPolyline
 90
        2
 70
     1
 43
0.5
 10
-0.25
 20
0.0
 42
1.0
 10
0.25
 20
0.0
 42
1.0
  0
LINE
  5
10B
330
109
100
AcDbEntity
  8
0
  6
ByBlock
 62
     0
370
    -2
100
AcDbLine
 10
-0.5
 20
0.0
 30
0.0
 11
-1.0
 21
0.0
 31
0.0
  0
ENDBLK
  5
10D
330
109
100
AcDbEntity
  8
0
100
AcDbBlockEnd
  0
BLOCK
  5
6613
330
6609
100
AcDbEntity
  8
0
100
AcDbBlockBegin
  2
*D16
 70
     1
 10
0.0
 20
0.0
 30
0.0
  3
*D16
  1

  0
LINE
  5
6696
330
6609
100
AcDbEntity
  8
SUNPOU
 62
    70
370
    -2
100
AcDbLine
 10
9.372142541307056
 20
264.9325567742736
 30
0.0
 11
9.372142541307058
 21
288.0267221327974
 31
0.0
  0
LINE
  5
6697
330
6609
100
AcDbEntity
  8
SUNPOU
 62
    70
370
    -2
100
AcDbLine
 10
129.372142541307
 20
266.0214427853687
 30
0.0
 11
129.372142541307
 21
288.0267221327974
 31
0.0
  0
LINE
  5
6698
330
6609
100
AcDbEntity
  8
SUNPOU
 62
    60
370
    -2
100
AcDbLine
 10
11.37214254130705
 20
288.0267221327974
 30
0.0
 11
127.372142541307
 21
288.0267221327974
 31
0.0
  0
INSERT
  5
6699
330
6609
100
AcDbEntity
  8
SUNPOU
 62
    60
370
    -2
100
AcDbBlockReference
  2
_Dot
 10
9.372142541307058
 20
288.0267221327974
 30
0.0
 41
2.0
 42
2.0
 43
2.0
 50
180.0
  0
INSERT
  5
669A
330
6609
100
AcDbEntity
  8
SUNPOU
 62
    60
370
    -2
100
AcDbBlockReference
  2
_Dot
 10
129.372142541307
 20
288.0267221327974
 30
0.0
 41
2.0
 42
2.0
 43
2.0
  0
MTEXT
  5
669B
330
6609
100
AcDbEntity
  8
SUNPOU
 62
    60
100
AcDbMText
 10
69.37214254130705
 20
293.5267221327974
 30
0.0
 40
5.0
 41
0.0
 71
     5
 72
     1
  1
\A1;120
  7
SUNPOU
 73
     1
 44
1.0
1001
ACAD
1000
MTEXTBEGIN
1070
    73
1070
     1
1070
    44
1040
1.0
1070
    74
1070
     0
1000
MTEXTEND
  0
POINT
  5
669C
330
6609
100
AcDbEntity
  8
DEFPOINTS
 62
     0
100
AcDbPoint
 10
9.372142541307056
 20
254.9325567742736
 30
0.0
  0
POINT
  5
669D
330
6609
100
AcDbEntity
  8
DEFPOINTS
 62
     0
100
AcDbPoint
 10
129.372142541307
 20
256.0214427853686
 30
0.0
  0
POINT
  5
669E
330
6609
100
AcDbEntity
  8
DEFPOINTS
 62
     0
100
AcDbPoint
 10
129.372142541307
 20
288.0267221327974
 30
0.0
  0
ENDBLK
  5
6614
330
6609
100
AcDbEntity
  8
0
100
AcDbBlockEnd
  0
BLOCK
  5
6632
330
6628
100
AcDbEntity
  8
0
100
AcDbBlockBegin
  2
*D17
 70
     1
 10
0.0
 20
0.0
 30
0.0
  3
*D17
  1

  0
LINE
  5
66A8
330
6628
100
AcDbEntity
  8
SUNPOU
 62
    70
370
    -2
100
AcDbLine
 10
-0.627857458692944
 20
254.9325567742736
 30
0.0
 11
-30.88864094795688
 21
254.9325567742736
 31
0.0
  0
LINE
  5
66A9
330
6628
100
AcDbEntity
  8
SUNPOU
 62
    70
370
    -2
100
AcDbLine
 10
10.13145285946257
 20
31.9325567742734
 30
0.0
 11
-30.88864094795693
 21
31.93255677427341
 31
0.0
  0
LINE
  5
66AA
330
6628
100
AcDbEntity
  8
SUNPOU
 62
    60
370
    -2
100
AcDbLine
 10
-30.88864094795688
 20
252.9325567742736
 30
0.0
 11
-30.88864094795693
 21
33.93255677427341
 31
0.0
  0
INSERT
  5
66AB
330
6628
100
AcDbEntity
  8
SUNPOU
 62
    60
370
    -2
100
AcDbBlockReference
  2
_Dot
 10
-30.88864094795688
 20
254.9325567742736
 30
0.0
 41
2.0
 42
2.0
 43
2.0
 50
90.0
  0
INSERT
  5
66AC
330
6628
100
AcDbEntity
  8
SUNPOU
 62
    60
370
    -2
100
AcDbBlockReference
  2
_Dot
 10
-30.88864094795693
 20
31.93255677427341
 30
0.0
 41
2.0
 42
2.0
 43
2.0
 50
270.0
  0
MTEXT
  5
66AD
330
6628
100
AcDbEntity
  8
SUNPOU
 62
    60
100
AcDbMText
 10
-36.38864094795693
 20
143.4325567742735
 30
0.0
 40
5.0
 41
0.0
 71
     5
 72
     1
  1
\A1;223
  7
SUNPOU
 11
0.0000000000000001
 21
1.0
 31
0.0
 73
     1
 44
1.0
1001
ACAD
1000
MTEXTBEGIN
1070
    73
1070
     1
1070
    44
1040
1.0
1070
    74
1070
     0
1000
MTEXTEND
  0
POINT
  5
66AE
330
6628
100
AcDbEntity
  8
DEFPOINTS
 62
     0
100
AcDbPoint
 10
9.372142541307056
 20
254.9325567742736
 30
0.0
  0
POINT
  5
66AF
330
6628
100
AcDbEntity
  8
DEFPOINTS
 62
     0
100
AcDbPoint
 10
20.13145285946257
 20
31.9325567742734
 30
0.0
  0
POINT
  5
66B0
330
6628
100
AcDbEntity
  8
DEFPOINTS
 62
     0
100
AcDbPoint
 10
-30.88864094795693
 20
31.93255677427341
 30
0.0
  0
ENDBLK
  5
6633
330
6628
100
AcDbEntity
  8
0
100
AcDbBlockEnd
  0
ENDSEC
  0
SECTION
  2
ENTITIES
  0
LINE
  5
1F
330
2
100
AcDbEntity
  8
WAKU
100
AcDbLine
 10
0.0
 20
14.0
 30
0.0
 11
148.6829221395387
 21
14.0
 31
0.0
  0
LINE
  5
20
330
2
100
AcDbEntity
  8
WAKU
100
AcDbLine
 10
0.0
 20
0.0
 30
0.0
 11
148.6829221395387
 21
0.0
 31
0.0
  0
TEXT
  5
21
330
2
100
AcDbEntity
  8
HOJO
100
AcDbText
 10
9.653966000000025
 20
2.366626000000024
 30
0.0
 40
9.0
  1
TM498
  7
SUNPOU
100
AcDbText
  0
TEXT
  5
23
330
2
100
AcDbEntity
  8
HOJO
100
AcDbText
 10
85.84696046283864
 20
5.044386000000031
 30
0.0
 40
6.0
  1
120×223×7
  7
SUNPOU
100
AcDbText
  0
LINE
  5
6519
102
{ACAD_REACTORS
330
668C
102
}
330
2
100
AcDbEntity
  8
KIJUN
100
AcDbLine
 10
48.63700986578123
 20
31.9325567742734
 30
0.0
 11
90.10727521683287
 21
31.9325567742734
 31
0.0
  0
ARC
  5
651A
102
{ACAD_REACTORS
330
668C
102
}
330
2
100
AcDbEntity
  8
KIJUN
100
AcDbCircle
 10
71.07788772344907
 20
248.2268115921313
 30
0.0
 40
6.919290792720198
100
AcDbArc
 50
104.2716926159069
 51
165.7283073840856
  0
ARC
  5
651B
102
{ACAD_REACTORS
330
668C
102
}
330
2
100
AcDbEntity
  8
KIJUN
100
AcDbCircle
 10
64.25691054850108
 20
245.3555464844482
 30
0.0
 40
4.578460615243092
100
AcDbArc
 50
88.55781131768717
 51
211.952426088421
  0
ARC
  5
651C
102
{ACAD_REACTORS
330
668C
102
}
330
2
100
AcDbEntity
  8
KIJUN
100
AcDbCircle
 10
60.2525929342155
 20
239.6390733099705
 30
0.0
 40
3.295652505679483
100
AcDbArc
 50
87.92114277054942
 51
235.2089595836157
  0
SPLINE
  5
651D
102
{ACAD_REACTORS
330
668C
102
}
330
2
100
AcDbEntity
  8
KIJUN
100
AcDbSpline
210
0.0
220
0.0
230
1.0
 70
     8
 71
     3
 72
    11
 73
     7
 74
     5
 42
0.0000000001
 43
0.0000000001
 44
0.0000000001
 40
0.0
 40
0.0
 40
0.0
 40
0.0
 40
4.437132110607764
 40
11.19612657105391
 40
14.24818173203208
 40
18.83095665355593
 40
18.83095665355593
 40
18.83095665355593
 40
18.83095665355593
 10
41.37214254130708
 20
242.9325567742734
 30
0.0
 10
42.24879842097561
 20
241.6746706336547
 30
0.0
 10
44.46084664116773
 20
238.5006717327266
 30
0.0
 10
49.72605463356939
 20
238.0556016658623
 30
0.0
 10
54.49296353865117
 20
238.4234248344518
 30
0.0
 10
56.91707796493426
 20
237.4917754390801
 30
0.0
 10
58.37214254130708
 20
236.9325567742734
 30
0.0
 11
41.37214254130708
 21
242.9325567742734
 31
0.0
 11
44.30450296333197
 21
239.6024811411491
 31
0.0
 11
50.91729019887975
 21
238.2042497247812
 31
0.0
 11
53.96934535985792
 21
238.2042497247812
 31
0.0
 11
58.37214254130708
 21
236.9325567742734
 31
0.0
  0
ARC
  5
651E
102
{ACAD_REACTORS
330
668C
102
}
330
2
100
AcDbEntity
  8
KIJUN
100
AcDbCircle
 10
33.47100758599982
 20
244.871535314497
 30
0.0
 40
8.135574433401892
100
AcDbArc
 50
346.2118070360266
 51
97.76261795561243
  0
ARC
  5
6520
102
{ACAD_REACTORS
330
668C
102
}
330
2
100
AcDbEntity
  8
KIJUN
100
AcDbCircle
 10
30.59208318844867
 20
227.1417625783128
 30
0.0
 40
5.110804274059923
100
AcDbArc
 50
69.61703322174385
 51
209.309959846535
  0
ARC
  5
6521
102
{ACAD_REACTORS
330
668C
102
}
330
2
100
AcDbEntity
  8
KIJUN
100
AcDbCircle
 10
34.77812955324989
 20
200.7490594814177
 30
0.0
 40
25.40598701194283
100
AcDbArc
 50
109.8877887907943
 51
222.8544195905203
  0
ARC
  5
6523
102
{ACAD_REACTORS
330
668C
102
}
330
2
100
AcDbEntity
  8
KIJUN
100
AcDbCircle
 10
34.20389216424152
 20
80.40457350877096
 30
0.0
 40
25.54152965346871
100
AcDbArc
 50
91.86614390185866
 51
166.4609885046877
  0
ARC
  5
6524
102
{ACAD_REACTORS
330
668C
102
}
330
2
100
AcDbEntity
  8
KIJUN
100
AcDbCircle
 10
22.20758570743851
 20
87.65829538449304
 30
0.0
 40
12.89854035774904
100
AcDbArc
 50
185.6695626815489
 51
303.7420496173975
  0
ARC
  5
6525
102
{ACAD_REACTORS
330
668C
102
}
330
2
100
AcDbEntity
  8
KIJUN
100
AcDbCircle
 10
56.85206550347243
 20
79.89510517944643
 30
0.0
 40
27.63915445630612
100
AcDbArc
 50
186.1531635699008
 51
249.9409214937549
  0
LINE
  5
6528
102
{ACAD_REACTORS
330
668C
102
}
330
2
100
AcDbEntity
  8
KIJUN
100
AcDbLine
 10
69.37214254130708
 20
208.9325567742734
 30
0.0
 11
68.37214254130708
 21
208.9325567742734
 31
0.0
  0
LINE
  5
6529
102
{ACAD_REACTORS
330
668C
102
}
330
2
100
AcDbEntity
  8
KIJUN
100
AcDbLine
 10
68.37214254130708
 20
208.9325567742734
 30
0.0
 11
68.37214254130708
 21
205.8087527758956
 31
0.0
  0
ARC
  5
652A
102
{ACAD_REACTORS
330
668C
102
}
330
2
100
AcDbEntity
  8
KIJUN
100
AcDbCircle
 10
28.54546813904017
 20
207.370654775083
 30
0.0
 40
39.85728956915231
100
AcDbArc
 50
318.4465064266179
 51
2.24584545728163
  0
ARC
  5
652B
102
{ACAD_REACTORS
330
668C
102
}
330
2
100
AcDbEntity
  8
KIJUN
100
AcDbCircle
 10
57.42017079595917
 20
179.2065709015994
 30
0.0
 40
1.971110711403814
100
AcDbArc
 50
352.0091423961753
 51
61.12095995798359
  0
ARC
  5
652C
102
{ACAD_REACTORS
330
668C
102
}
330
2
100
AcDbEntity
  8
KIJUN
100
AcDbCircle
 10
60.20811698435887
 20
171.3701158831561
 30
0.0
 40
7.608506128083107
100
AcDbArc
 50
19.68120069865831
 51
96.30803288517959
  0
SPLINE
  5
652D
102
{ACAD_REACTORS
330
668C
102
}
330
2
100
AcDbEntity
  8
KIJUN
100
AcDbSpline
210
0.0
220
0.0
230
1.0
 70
     8
 71
     3
 72
    10
 73
     6
 74
     4
 42
0.0000000001
 43
0.0000000001
 44
0.0000000001
 40
0.0
 40
0.0
 40
0.0
 40
0.0
 40
3.92526462736175
 40
8.001005475020612
 40
13.53604972191602
 40
13.53604972191602
 40
13.53604972191602
 40
13.53604972191602
 10
67.37214254130709
 20
173.9325567742734
 30
0.0
 10
66.66412196852627
 20
172.8112986176189
 30
0.0
 10
65.22093863771118
 20
170.5257985298622
 30
0.0
 10
61.21350509300197
 20
168.186865028901
 30
0.0
 10
59.41051865730242
 20
165.4872939826779
 30
0.0
 10
58.37214254130708
 20
163.9325567742734
 30
0.0
 11
67.37214254130709
 21
173.9325567742734
 31
0.0
 11
65.02531130867487
 21
170.7861166333587
 31
0.0
 11
61.8330008524897
 21
168.2521834439068
 31
0.0
 11
58.37214254130708
 21
163.9325567742734
 31
0.0
  0
ARC
  5
652E
102
{ACAD_REACTORS
330
668C
102
}
330
2
100
AcDbEntity
  8
KIJUN
100
AcDbCircle
 10
56.44272598440284
 20
161.6227512553054
 30
0.0
 40
3.00962618700598
100
AcDbArc
 50
346.7424312179091
 51
50.12746642793443
  0
SPLINE
  5
652F
102
{ACAD_REACTORS
330
668C
102
}
330
2
100
AcDbEntity
  8
KIJUN
100
AcDbSpline
210
0.0
220
0.0
230
1.0
 70
     8
 71
     3
 72
    11
 73
     7
 74
     5
 42
0.0000000001
 43
0.0000000001
 44
0.0000000001
 40
0.0
 40
0.0
 40
0.0
 40
0.0
 40
1.724583215254317
 40
5.094193709256075
 40
11.36516982769055
 40
17.3356015660737
 40
17.3356015660737
 40
17.3356015660737
 40
17.3356015660737
 10
59.37214254130708
 20
160.9325567742734
 30
0.0
 10
58.90538548532726
 20
160.5803956020366
 30
0.0
 10
57.52664606742524
 20
159.5401574665934
 30
0.0
 10
53.60932976692123
 20
159.415379028726
 30
0.0
 10
48.62417843261187
 20
156.7387062079346
 30
0.0
 10
47.11043295349407
 20
152.8360008868418
 30
0.0
 10
46.37214254130708
 20
150.9325567742734
 30
0.0
 11
59.37214254130708
 21
160.9325567742734
 31
0.0
 11
57.92865088934854
 21
159.9888835696824
 31
0.0
 11
54.63921130262065
 21
159.2582249034407
 31
0.0
 11
49.15681229238725
 21
156.2138132081262
 31
0.0
 11
46.37214254130708
 21
150.9325567742734
 31
0.0
  0
SPLINE
  5
6530
102
{ACAD_REACTORS
330
668C
102
}
330
2
100
AcDbEntity
  8
KIJUN
100
AcDbSpline
210
0.0
220
0.0
230
1.0
 70
     8
 71
     3
 72
     9
 73
     5
 74
     3
 42
0.0000000001
 43
0.0000000001
 44
0.0000000001
 40
0.0
 40
0.0
 40
0.0
 40
0.0
 40
7.041567771978941
 40
9.733885368058516
 40
9.733885368058516
 40
9.733885368058516
 40
9.733885368058516
 10
46.37214254130731
 20
150.9325567742734
 30
0.0
 10
49.2519282716388
 20
151.9546615191011
 30
0.0
 10
53.23278950756492
 20
153.367564262137
 30
0.0
 10
54.12528513605275
 20
149.8934656482697
 30
0.0
 10
54.37214254130708
 20
148.9325567742734
 30
0.0
 11
46.37214254130731
 21
150.9325567742734
 31
0.0
 11
53.39530018926507
 21
151.4414117038013
 31
0.0
 11
54.37214254130708
 21
148.9325567742734
 31
0.0
  0
SPLINE
  5
6531
102
{ACAD_REACTORS
330
668C
102
}
330
2
100
AcDbEntity
  8
KIJUN
100
AcDbSpline
210
0.0
220
0.0
230
1.0
 70
     8
 71
     3
 72
    13
 73
     9
 74
     7
 42
0.0000000001
 43
0.0000000001
 44
0.0000000001
 40
0.0
 40
0.0
 40
0.0
 40
0.0
 40
5.22504753884036
 40
11.08732878463038
 40
13.28611225942159
 40
14.24252700950834
 40
18.88217838101829
 40
23.72311376418765
 40
23.72311376418765
 40
23.72311376418765
 40
23.72311376418765
 10
54.37214254130708
 20
148.9325567742734
 30
0.0
 10
55.96547602805646
 20
148.3669080347125
 30
0.0
 10
59.34646196164528
 20
147.166625452496
 30
0.0
 10
64.05845243581552
 20
145.1312055304674
 30
0.0
 10
63.05670125115302
 20
140.2863556487806
 30
0.0
 10
60.58854792160508
 20
142.4753138813053
 30
0.0
 10
57.78631092812628
 20
138.1781706733017
 30
0.0
 10
54.86421187062422
 20
137.3535969639637
 30
0.0
 10
53.37214254130708
 20
136.9325567742734
 30
0.0
 11
54.37214254130708
 21
148.9325567742734
 31
0.0
 11
59.27455707063154
 21
147.12494687006
 31
0.0
 11
63.37214254130708
 21
142.9325567742734
 31
0.0
 11
62.60372777200223
 21
140.8724141793715
 31
0.0
 11
61.76267455834227
 21
141.3277806976573
 31
0.0
 11
57.75014710506638
 21
138.9984056128198
 31
0.0
 11
53.37214254130708
 21
136.9325567742734
 31
0.0
  0
SPLINE
  5
6532
102
{ACAD_REACTORS
330
668C
102
}
330
2
100
AcDbEntity
  8
KIJUN
100
AcDbSpline
210
0.0
220
0.0
230
1.0
 70
     8
 71
     3
 72
    11
 73
     7
 74
     5
 42
0.0000000001
 43
0.0000000001
 44
0.0000000001
 40
0.0
 40
0.0
 40
0.0
 40
0.0
 40
3.000730878344063
 40
6.286961747899905
 40
10.0392762823597
 40
15.35050952598772
 40
15.35050952598772
 40
15.35050952598772
 40
15.35050952598772
 10
53.37214254130708
 20
136.9325567742732
 30
0.0
 10
54.21871897555286
 20
136.3458676620868
 30
0.0
 10
55.99241807572474
 20
135.1166697913799
 30
0.0
 10
55.81620878453572
 20
130.5391243693941
 30
0.0
 10
50.65126829156366
 20
131.1296567537577
 30
0.0
 10
48.41278060365033
 20
128.9947281650702
 30
0.0
 10
47.10102823972056
 20
127.7436613675382
 30
0.0
 11
53.37214254130708
 21
136.9325567742732
 31
0.0
 11
55.48266723652227
 21
134.7994671570433
 31
0.0
 11
55.20963839729938
 21
131.5245979106497
 31
0.0
 11
51.56926260273803
 21
130.6149120088737
 31
0.0
 11
47.10102823972056
 21
127.7436613675382
 31
0.0
  0
ARC
  5
6533
102
{ACAD_REACTORS
330
668C
102
}
330
2
100
AcDbEntity
  8
KIJUN
100
AcDbCircle
 10
75.26526528880253
 20
117.8377777881345
 30
0.0
 40
29.85549828834854
100
AcDbArc
 50
160.6222827408493
 51
225.2661688867068
  0
ARC
  5
6534
102
{ACAD_REACTORS
330
668C
102
}
330
2
100
AcDbEntity
  8
KIJUN
100
AcDbCircle
 10
34.35603900452679
 20
212.5696626539946
 30
0.0
 40
34.20999618540271
100
AcDbArc
 50
353.8969472446463
 51
45.41070087146436
  0
ARC
  5
6535
102
{ACAD_REACTORS
330
668C
102
}
330
2
100
AcDbEntity
  8
KIJUN
100
AcDbCircle
 10
47.21105751715595
 20
225.7939164558567
 30
0.0
 40
21.60895996981309
100
AcDbArc
 50
14.66604574189238
 51
52.47866194403579
  0
ARC
  5
6536
102
{ACAD_REACTORS
330
668C
102
}
330
2
100
AcDbEntity
  8
KIJUN
100
AcDbCircle
 10
49.25352764613831
 20
237.2902485792155
 30
0.0
 40
19.62055371387402
100
AcDbArc
 50
10.59517528991271
 51
40.12174966647712
  0
LINE
  5
6537
102
{ACAD_REACTORS
330
668C
102
}
330
2
100
AcDbEntity
  8
KIJUN
100
AcDbLine
 10
34.93925034112181
 20
191.7855277281309
 30
0.0
 11
43.62787474005403
 21
191.7855277281309
 31
0.0
  0
CIRCLE
  5
6538
102
{ACAD_REACTORS
330
668C
102
}
330
2
100
AcDbEntity
  8
KIJUN
100
AcDbCircle
 10
30.43925034112181
 20
191.7855277281309
 30
0.0
 40
4.5
  0
ARC
  5
6539
102
{ACAD_REACTORS
330
668C
102
}
330
2
100
AcDbEntity
  8
KIJUN
100
AcDbCircle
 10
38.63404483512295
 20
196.67482247487
 30
0.0
 40
6.988815367419107
100
AcDbArc
 50
315.6060026807301
 51
101.7338356268976
  0
LINE
  5
653A
102
{ACAD_REACTORS
330
668C
102
}
330
2
100
AcDbEntity
  8
KIJUN
100
AcDbLine
 10
32.68925034112181
 20
195.6826420451607
 30
0.0
 11
37.21276067127587
 21
203.5175917655498
 31
0.0
  0
ARC
  5
653B
102
{ACAD_REACTORS
330
668C
102
}
330
2
100
AcDbEntity
  8
KIJUN
100
AcDbCircle
 10
30.30239413085633
 20
201.3270753120981
 30
0.0
 40
6.988815367419107
100
AcDbArc
 50
15.60600268073027
 51
161.7338356268956
  0
LINE
  5
653C
102
{ACAD_REACTORS
330
668C
102
}
330
2
100
AcDbEntity
  8
KIJUN
100
AcDbLine
 10
32.68925034112181
 20
195.6826420451607
 30
0.0
 11
37.03356254058781
 21
203.2072114985773
 31
0.0
  0
LINE
  5
653D
102
{ACAD_REACTORS
330
668C
102
}
330
2
100
AcDbEntity
  8
KIJUN
100
AcDbLine
 10
28.18925034112181
 20
195.6826420451607
 30
0.0
 11
23.66574001096819
 21
203.5175917655499
 31
0.0
  0
ARC
  5
653E
102
{ACAD_REACTORS
330
668C
102
}
330
2
100
AcDbEntity
  8
KIJUN
100
AcDbCircle
 10
22.10759963685541
 20
196.4377805653594
 30
0.0
 40
6.988815367419107
100
AcDbArc
 50
75.60600268073035
 51
221.7338356268905
  0
LINE
  5
653F
102
{ACAD_REACTORS
330
668C
102
}
330
2
100
AcDbEntity
  8
KIJUN
100
AcDbLine
 10
28.18925034112181
 20
195.6826420451609
 30
0.0
 11
23.8449381416558
 21
203.2072114985774
 31
0.0
  0
LINE
  5
6540
102
{ACAD_REACTORS
330
668C
102
}
330
2
100
AcDbEntity
  8
KIJUN
100
AcDbLine
 10
25.93925034112203
 20
191.785527728131
 30
0.0
 11
16.89222968081412
 21
191.7855277281312
 31
0.0
  0
ARC
  5
6541
102
{ACAD_REACTORS
330
668C
102
}
330
2
100
AcDbEntity
  8
KIJUN
100
AcDbCircle
 10
22.24445584712066
 20
186.8962329813917
 30
0.0
 40
6.988815367419107
100
AcDbArc
 50
135.6060026807301
 51
281.7338356268976
  0
LINE
  5
6542
102
{ACAD_REACTORS
330
668C
102
}
330
2
100
AcDbEntity
  8
KIJUN
100
AcDbLine
 10
25.93925034112181
 20
191.7855277281308
 30
0.0
 11
17.25062594218957
 21
191.7855277281308
 31
0.0
  0
LINE
  5
6543
102
{ACAD_REACTORS
330
668C
102
}
330
2
100
AcDbEntity
  8
KIJUN
100
AcDbLine
 10
28.18925034112181
 20
187.8884134111009
 30
0.0
 11
23.66574001096774
 21
180.0534636907118
 31
0.0
  0
ARC
  5
6544
102
{ACAD_REACTORS
330
668C
102
}
330
2
100
AcDbEntity
  8
KIJUN
100
AcDbCircle
 10
30.57610655138706
 20
182.2439801441634
 30
0.0
 40
6.988815367419107
100
AcDbArc
 50
195.6060026807303
 51
341.7338356268955
  0
LINE
  5
6545
102
{ACAD_REACTORS
330
668C
102
}
330
2
100
AcDbEntity
  8
KIJUN
100
AcDbLine
 10
28.18925034112181
 20
187.8884134111009
 30
0.0
 11
23.84493814165558
 21
180.3638439576842
 31
0.0
  0
LINE
  5
6546
102
{ACAD_REACTORS
330
668C
102
}
330
2
100
AcDbEntity
  8
KIJUN
100
AcDbLine
 10
32.68925034112158
 20
187.8884134111009
 30
0.0
 11
37.21276067127519
 21
180.0534636907117
 31
0.0
  0
ARC
  5
6547
102
{ACAD_REACTORS
330
668C
102
}
330
2
100
AcDbEntity
  8
KIJUN
100
AcDbCircle
 10
38.77090104538865
 20
187.1332748909024
 30
0.0
 40
6.988815367419107
100
AcDbArc
 50
255.6060026807303
 51
41.73383562689053
  0
LINE
  5
6548
102
{ACAD_REACTORS
330
668C
102
}
330
2
100
AcDbEntity
  8
KIJUN
100
AcDbLine
 10
32.68925034112181
 20
187.8884134111009
 30
0.0
 11
37.03356254058804
 21
180.3638439576842
 31
0.0
  0
LINE
  5
6549
102
{ACAD_REACTORS
330
668C
102
}
330
2
100
AcDbEntity
  8
KIJUN
100
AcDbLine
 10
34.93925034112181
 20
191.7855277281309
 30
0.0
 11
43.98627100142948
 21
191.7855277281306
 31
0.0
  0
SPLINE
  5
654A
102
{ACAD_REACTORS
330
668C
102
}
330
2
100
AcDbEntity
  8
KIJUN
100
AcDbSpline
210
0.0
220
0.0
230
1.0
 70
     8
 71
     3
 72
    13
 73
     9
 74
     7
 42
0.0000000001
 43
0.0000000001
 44
0.0000000001
 40
0.0
 40
0.0
 40
0.0
 40
0.0
 40
5.639930643814334
 40
9.907910354695545
 40
12.98881224839112
 40
18.79070793469265
 40
22.28731163067121
 40
28.02224996387543
 40
28.02224996387543
 40
28.02224996387543
 40
28.02224996387543
 10
33.461272002339
 20
195.1198020238561
 30
0.0
 10
34.15729986208862
 20
196.9206407029796
 30
0.0
 10
35.38004213930668
 20
200.0842519817092
 30
0.0
 10
39.96142352188423
 20
202.1250538776943
 30
0.0
 10
44.09945289431482
 20
199.8295154462883
 30
0.0
 10
44.98710437327156
 20
194.1602805624753
 30
0.0
 10
39.76311499301983
 20
191.9758648008873
 30
0.0
 10
36.72228798164554
 20
192.4574325881139
 30
0.0
 10
34.83322596610742
 20
192.7565983779973
 30
0.0
 11
33.461272002339
 21
195.1198020238561
 31
0.0
 11
36.2855327900179
 21
200.0016427289811
 31
0.0
 11
40.2857947221512
 21
201.4894448955405
 31
0.0
 11
42.9836459396497
 21
200.0016427289811
 31
0.0
 11
43.63485174843662
 21
194.2364086010964
 31
0.0
 11
40.56488318389961
 21
192.5626313102105
 31
0.0
 11
34.83322596610742
 21
192.7565983779973
 31
0.0
  0
SPLINE
  5
654B
102
{ACAD_REACTORS
330
668C
102
}
330
2
100
AcDbEntity
  8
KIJUN
100
AcDbSpline
210
0.0
220
0.0
230
1.0
 70
     8
 71
     3
 72
     9
 73
     5
 74
     3
 42
0.0000000001
 43
0.0000000001
 44
0.0000000001
 40
0.0
 40
0.0
 40
0.0
 40
0.0
 40
3.69514394493067
 40
7.201775807965824
 40
7.201775807965824
 40
7.201775807965824
 40
7.201775807965824
 10
34.34603572119681
 20
194.0186931931225
 30
0.0
 10
35.33256545394926
 20
194.7715266554637
 30
0.0
 10
37.2552959535073
 20
196.2387869022406
 30
0.0
 10
39.54367338352211
 20
197.0183903055247
 30
0.0
 10
40.6579120691897
 20
197.3979886445154
 30
0.0
 11
34.34603572119681
 21
194.0186931931225
 31
0.0
 11
37.40188483113343
 21
196.0961616022824
 31
0.0
 11
40.6579120691897
 21
197.3979886445154
 31
0.0
  0
SPLINE
  5
654C
102
{ACAD_REACTORS
330
668C
102
}
330
2
100
AcDbEntity
  8
KIJUN
100
AcDbSpline
210
0.0
220
0.0
230
1.0
 70
     8
 71
     3
 72
     9
 73
     5
 74
     3
 42
0.0000000001
 43
0.0000000001
 44
0.0000000001
 40
0.0
 40
0.0
 40
0.0
 40
0.0
 40
3.695143944930586
 40
7.201775807965749
 40
7.201775807965749
 40
7.201775807965749
 40
7.201775807965749
 10
30.45866500762236
 20
196.2854858469052
 30
0.0
 10
30.29995697079221
 20
197.516262388228
 30
0.0
 10
29.9906375728994
 20
199.9150259688649
 30
0.0
 10
30.45966993578583
 20
202.2866206583467
 30
0.0
 10
30.68804747381932
 20
203.4413788355096
 30
0.0
 11
30.45866500762236
 21
196.2854858469052
 31
0.0
 11
30.18744914469858
 21
199.9706630108222
 31
0.0
 11
30.68804747381932
 21
203.4413788355096
 31
0.0
  0
SPLINE
  5
654D
102
{ACAD_REACTORS
330
668C
102
}
330
2
100
AcDbEntity
  8
KIJUN
100
AcDbSpline
210
0.0
220
0.0
230
1.0
 70
     8
 71
     3
 72
    13
 73
     9
 74
     7
 42
0.0000000001
 43
0.0000000001
 44
0.0000000001
 40
0.0
 40
0.0
 40
0.0
 40
0.0
 40
5.639930643814395
 40
9.907910354695481
 40
12.98881224839089
 40
18.79070793469247
 40
22.28731163067095
 40
28.02224996387513
 40
28.02224996387513
 40
28.02224996387513
 40
28.02224996387513
 10
29.06269492844695
 20
196.0698124053942
 30
0.0
 10
27.85113681408319
 20
197.5730095532409
 30
0.0
 10
25.72274021761342
 20
200.2137410669578
 30
0.0
 10
26.24604462288761
 20
205.2017346766875
 30
0.0
 10
30.30305390606384
 20
207.6376040191156
 30
0.0
 10
35.65658107494505
 20
205.5717153076925
 30
0.0
 10
34.93634592678183
 20
199.9553999145003
 30
0.0
 10
32.99888248371213
 20
197.5627503677496
 30
0.0
 10
31.79526630196074
 20
196.0763575679111
 30
0.0
 11
29.06269492844695
 21
196.0698124053942
 31
0.0
 11
26.24702725441921
 21
200.956614346999
 31
0.0
 11
26.95868374843986
 21
205.1648438852978
 31
0.0
 11
29.59608382923489
 21
206.7573504920026
 31
0.0
 11
34.91452594714156
 21
204.4386942015617
 31
0.0
 11
34.8290753190579
 21
200.9431347904101
 31
0.0
 11
31.79526630196074
 21
196.0763575679111
 31
0.0
  0
SPLINE
  5
654E
102
{ACAD_REACTORS
330
668C
102
}
330
2
100
AcDbEntity
  8
KIJUN
100
AcDbSpline
210
0.0
220
0.0
230
1.0
 70
     8
 71
     3
 72
     9
 73
     5
 74
     3
 42
0.0000000001
 43
0.0000000001
 44
0.0000000001
 40
0.0
 40
0.0
 40
0.0
 40
0.0
 40
3.695143944930606
 40
7.201775807965844
 40
7.201775807965844
 40
7.201775807965844
 40
7.201775807965844
 10
26.55187962754758
 20
194.0523203819136
 30
0.0
 10
25.40664185796499
 20
194.5302634608953
 30
0.0
 10
23.17459196051402
 20
195.4617667947553
 30
0.0
 10
21.35524689338575
 20
197.0537580809529
 30
0.0
 10
20.46938574575165
 20
197.8289179191251
 30
0.0
 11
26.55187962754758
 21
194.0523203819136
 31
0.0
 11
23.22481465468718
 21
195.6600291366708
 31
0.0
 11
20.46938574575165
 21
197.8289179191251
 31
0.0
  0
SPLINE
  5
654F
102
{ACAD_REACTORS
330
668C
102
}
330
2
100
AcDbEntity
  8
KIJUN
100
AcDbSpline
210
0.0
220
0.0
230
1.0
 70
     8
 71
     3
 72
    13
 73
     9
 74
     7
 42
0.0000000001
 43
0.0000000001
 44
0.0000000001
 40
0.0
 40
0.0
 40
0.0
 40
0.0
 40
5.639930643814331
 40
9.907910354695399
 40
12.98881224839108
 40
18.79070793469261
 40
22.28731163067105
 40
28.02224996387546
 40
28.02224996387546
 40
28.02224996387546
 40
28.02224996387546
 10
26.04067326722975
 20
192.7355381096693
 30
0.0
 10
24.13308729311637
 20
192.4378965783923
 30
0.0
 10
20.78194841942849
 20
191.9150168133796
 30
0.0
 10
16.72387144212547
 20
194.8622085271244
 30
0.0
 10
16.64285135287082
 20
199.5936163009584
 30
0.0
 10
21.10872704279558
 20
203.1969624733483
 30
0.0
 10
25.61248127488381
 20
199.7650628417442
 30
0.0
 10
26.71584484318851
 20
196.8908455077668
 30
0.0
 10
27.40129067697535
 20
195.1052869180448
 30
0.0
 11
26.04067326722975
 21
192.7355381096693
 31
0.0
 11
20.40074480552312
 21
192.7404993461489
 31
0.0
 11
17.11213936741069
 21
195.4609267178885
 31
0.0
 11
17.05168823070721
 21
198.5412354911527
 31
0.0
 11
21.71892453982696
 21
201.9878133285965
 31
0.0
 11
24.70344247628009
 21
200.1660312083309
 31
0.0
 11
27.40129067697535
 21
195.1052869180448
 31
0.0
  0
SPLINE
  5
6550
102
{ACAD_REACTORS
330
668C
102
}
330
2
100
AcDbEntity
  8
KIJUN
100
AcDbSpline
210
0.0
220
0.0
230
1.0
 70
     8
 71
     3
 72
     9
 73
     5
 74
     3
 42
0.0000000001
 43
0.0000000001
 44
0.0000000001
 40
0.0
 40
0.0
 40
0.0
 40
0.0
 40
3.69514394493067
 40
7.201775807965824
 40
7.201775807965824
 40
7.201775807965824
 40
7.201775807965824
 10
26.5324649610468
 20
189.5523622631391
 30
0.0
 10
25.54593522829435
 20
188.799528800798
 30
0.0
 10
23.62320472873631
 20
187.332268554021
 30
0.0
 10
21.33482729872151
 20
186.5526651507369
 30
0.0
 10
20.2205886130539
 20
186.1730668117462
 30
0.0
 11
26.5324649610468
 21
189.5523622631391
 31
0.0
 11
23.47661585111018
 21
187.4748938539792
 31
0.0
 11
20.2205886130539
 21
186.1730668117462
 31
0.0
  0
SPLINE
  5
6551
102
{ACAD_REACTORS
330
668C
102
}
330
2
100
AcDbEntity
  8
KIJUN
100
AcDbSpline
210
0.0
220
0.0
230
1.0
 70
     8
 71
     3
 72
    13
 73
     9
 74
     7
 42
0.0000000001
 43
0.0000000001
 44
0.0000000001
 40
0.0
 40
0.0
 40
0.0
 40
0.0
 40
5.639930643814334
 40
9.907910354695545
 40
12.98881224839112
 40
18.79070793469265
 40
22.28731163067121
 40
28.02224996387543
 40
28.02224996387543
 40
28.02224996387543
 40
28.02224996387543
 10
27.41722867990461
 20
188.4512534324055
 30
0.0
 10
26.72120082015499
 20
186.6504147532821
 30
0.0
 10
25.49845854293693
 20
183.4868034745524
 30
0.0
 10
20.91707716035938
 20
181.4460015785673
 30
0.0
 10
16.77904778792879
 20
183.7415400099734
 30
0.0
 10
15.89139630897205
 20
189.4107748937863
 30
0.0
 10
21.11538568922378
 20
191.5951906553743
 30
0.0
 10
24.15621270059808
 20
191.1136228681477
 30
0.0
 10
26.04527471613619
 20
190.8144570782643
 30
0.0
 11
27.41722867990461
 21
188.4512534324055
 31
0.0
 11
24.59296789222572
 21
183.5694127272805
 31
0.0
 11
20.59270596009242
 21
182.0816105607212
 31
0.0
 11
17.89485474259391
 21
183.5694127272805
 31
0.0
 11
17.24364893380698
 21
189.3346468551652
 31
0.0
 11
20.313617498344
 21
191.0084241460512
 31
0.0
 11
26.04527471613619
 21
190.8144570782643
 31
0.0
  0
SPLINE
  5
6552
102
{ACAD_REACTORS
330
668C
102
}
330
2
100
AcDbEntity
  8
KIJUN
100
AcDbSpline
210
0.0
220
0.0
230
1.0
 70
     8
 71
     3
 72
     9
 73
     5
 74
     3
 42
0.0000000001
 43
0.0000000001
 44
0.0000000001
 40
0.0
 40
0.0
 40
0.0
 40
0.0
 40
3.6951439449307
 40
7.201775807965749
 40
7.201775807965749
 40
7.201775807965749
 40
7.201775807965749
 10
30.41983567462103
 20
187.2855696093564
 30
0.0
 10
30.57854371145118
 20
186.0547930680336
 30
0.0
 10
30.88786310934404
 20
183.6560294873967
 30
0.0
 10
30.41883074645756
 20
181.2844347979149
 30
0.0
 10
30.19045320842406
 20
180.1296766207521
 30
0.0
 11
30.41983567462103
 21
187.2855696093564
 31
0.0
 11
30.69105153754481
 21
183.6003924454393
 31
0.0
 11
30.19045320842406
 21
180.1296766207521
 31
0.0
  0
SPLINE
  5
6553
102
{ACAD_REACTORS
330
668C
102
}
330
2
100
AcDbEntity
  8
KIJUN
100
AcDbSpline
210
0.0
220
0.0
230
1.0
 70
     8
 71
     3
 72
    13
 73
     9
 74
     7
 42
0.0000000001
 43
0.0000000001
 44
0.0000000001
 40
0.0
 40
0.0
 40
0.0
 40
0.0
 40
5.639930643814395
 40
9.907910354695481
 40
12.98881224839134
 40
18.79070793469271
 40
22.2873116306713
 40
28.02224996387548
 40
28.02224996387548
 40
28.02224996387548
 40
28.02224996387548
 10
31.81580575379667
 20
187.5012430508674
 30
0.0
 10
33.02736386816042
 20
185.9980459030207
 30
0.0
 10
35.15576046463019
 20
183.3573143893038
 30
0.0
 10
34.632456059356
 20
178.369320779574
 30
0.0
 10
30.57544677617944
 20
175.933451437146
 30
0.0
 10
25.22191960729833
 20
177.9993401485692
 30
0.0
 10
25.9421547554615
 20
183.6156555417613
 30
0.0
 10
27.87961819853126
 20
186.0083050885119
 30
0.0
 10
29.08323438028265
 20
187.4946978883505
 30
0.0
 11
31.81580575379667
 21
187.5012430508674
 31
0.0
 11
34.6314734278244
 21
182.6144411092626
 31
0.0
 11
33.91981693380376
 21
178.4062115709638
 31
0.0
 11
31.28241685300827
 21
176.8137049642589
 31
0.0
 11
25.96397473510183
 21
179.1323612546998
 31
0.0
 11
26.04942536318549
 21
182.6279206658515
 31
0.0
 11
29.08323438028265
 21
187.4946978883505
 31
0.0
  0
SPLINE
  5
6554
102
{ACAD_REACTORS
330
668C
102
}
330
2
100
AcDbEntity
  8
KIJUN
100
AcDbSpline
210
0.0
220
0.0
230
1.0
 70
     8
 71
     3
 72
     9
 73
     5
 74
     3
 42
0.0000000001
 43
0.0000000001
 44
0.0000000001
 40
0.0
 40
0.0
 40
0.0
 40
0.0
 40
3.695143944930704
 40
7.201775807965942
 40
7.201775807965942
 40
7.201775807965942
 40
7.201775807965942
 10
34.32662105469626
 20
189.5187350743482
 30
0.0
 10
35.47185882427886
 20
189.0407919953664
 30
0.0
 10
37.70390872172976
 20
188.1092886615063
 30
0.0
 10
39.52325378885809
 20
186.5172973753087
 30
0.0
 10
40.40911493649218
 20
185.7421375371365
 30
0.0
 11
34.32662105469626
 21
189.5187350743482
 31
0.0
 11
37.65368602755666
 21
187.9110263195908
 31
0.0
 11
40.40911493649218
 21
185.7421375371365
 31
0.0
  0
SPLINE
  5
6555
102
{ACAD_REACTORS
330
668C
102
}
330
2
100
AcDbEntity
  8
KIJUN
100
AcDbSpline
210
0.0
220
0.0
230
1.0
 70
     8
 71
     3
 72
    13
 73
     9
 74
     7
 42
0.0000000001
 43
0.0000000001
 44
0.0000000001
 40
0.0
 40
0.0
 40
0.0
 40
0.0
 40
5.639930643814103
 40
9.907910354695346
 40
12.98881224839102
 40
18.79070793469256
 40
22.2873116306712
 40
28.0222499638755
 40
28.0222499638755
 40
28.0222499638755
 40
28.0222499638755
 10
34.83782741501409
 20
190.8355173465926
 30
0.0
 10
36.74541338912735
 20
191.1331588778695
 30
0.0
 10
40.09655226281518
 20
191.6560386428822
 30
0.0
 10
44.15462924011842
 20
188.7088469291376
 30
0.0
 10
44.23564932937296
 20
183.9774391553033
 30
0.0
 10
39.76977363944826
 20
180.3740929829137
 30
0.0
 10
35.26601940735975
 20
183.8059926145175
 30
0.0
 10
34.16265583905522
 20
186.680209948495
 30
0.0
 10
33.47721000526849
 20
188.465768538217
 30
0.0
 11
34.83782741501409
 21
190.8355173465926
 31
0.0
 11
40.47775587672049
 21
190.830556110113
 31
0.0
 11
43.76636131483315
 21
188.1101287383734
 31
0.0
 11
43.82681245153662
 21
185.0298199651091
 31
0.0
 11
39.15957614241688
 21
181.5832421276653
 31
0.0
 11
36.17505820596353
 21
183.405024247931
 31
0.0
 11
33.47721000526849
 21
188.465768538217
 31
0.0
  0
SPLINE
  5
6556
102
{ACAD_REACTORS
330
668C
102
}
330
2
100
AcDbEntity
  8
KIJUN
100
AcDbSpline
210
0.0
220
0.0
230
1.0
 70
     8
 71
     3
 72
    17
 73
    13
 74
    11
 42
0.0000000001
 43
0.0000000001
 44
0.0000000001
 40
0.0
 40
0.0
 40
0.0
 40
0.0
 40
13.4578338204089
 40
25.57388941485904
 40
41.05992686704426
 40
52.05155856579044
 40
65.28270521469252
 40
74.8268854709939
 40
86.7351189094759
 40
95.62534331339152
 40
105.9872862257196
 40
111.2729373764748
 40
111.2729373764748
 40
111.2729373764748
 40
111.2729373764748
 10
15.31869997464378
 20
187.8329537694205
 30
0.0
 10
13.55691522961609
 20
192.0584368446526
 30
0.0
 10
10.20899989321211
 20
200.0881122242421
 30
0.0
 10
14.58102940361857
 20
214.6602222545363
 30
0.0
 10
27.49651062735825
 20
220.123957027195
 30
0.0
 10
40.86153936813377
 20
221.3983874151183
 30
0.0
 10
51.46631035842251
 20
215.7126393661763
 30
0.0
 10
58.26600298422761
 20
205.8006524286502
 30
0.0
 10
57.95683422440089
 20
195.101348025062
 30
0.0
 10
54.77303072220497
 20
185.2695339284142
 30
0.0
 10
52.00738483463914
 20
177.5350586814503
 30
0.0
 10
49.6137694126229
 20
172.8981496645654
 30
0.0
 10
48.80522235683656
 20
171.3318332467036
 30
0.0
 11
15.31869997464378
 21
187.8329537694205
 31
0.0
 11
11.71453743916117
 21
200.799190831713
 31
0.0
 11
15.43571090954628
 21
212.3296579155352
 31
0.0
 11
29.01799588232916
 21
219.7686693343058
 31
0.0
 11
39.99545852290362
 21
220.3265952932591
 31
0.0
 11
51.71715676049416
 21
214.1894109167213
 31
0.0
 11
56.92679961903309
 21
206.1924741249711
 31
0.0
 11
57.2989169660716
 21
194.2900562065222
 31
0.0
 11
54.88015421032128
 21
185.7351934558188
 31
0.0
 11
51.15897983699756
 21
176.064478787209
 31
0.0
 11
48.80522235683656
 21
171.3318332467036
 31
0.0
  0
ARC
  5
6557
102
{ACAD_REACTORS
330
668C
102
}
330
2
100
AcDbEntity
  8
KIJUN
100
AcDbCircle
 10
63.32871969238704
 20
165.7694856622213
 30
0.0
 40
15.9526293319865
100
AcDbArc
 50
108.1017805879035
 51
139.5986865372394
  0
ARC
  5
6558
102
{ACAD_REACTORS
330
668C
102
}
330
2
100
AcDbEntity
  8
KIJUN
100
AcDbCircle
 10
71.89126929054123
 20
150.382115159698
 30
0.0
 40
31.17460907453728
100
AcDbArc
 50
113.6770437894268
 51
137.7774408963303
  0
ARC
  5
6559
102
{ACAD_REACTORS
330
668C
102
}
330
2
100
AcDbEntity
  8
KIJUN
100
AcDbCircle
 10
55.65954020792696
 20
151.7042588397481
 30
0.0
 40
12.52555315323738
100
AcDbArc
 50
77.49261366319645
 51
176.8728591990979
  0
ARC
  5
655A
102
{ACAD_REACTORS
330
668C
102
}
330
2
100
AcDbEntity
  8
KIJUN
100
AcDbCircle
 10
58.62182937349075
 20
127.6687418082445
 30
0.0
 40
21.68431841403254
100
AcDbArc
 50
101.3019622734008
 51
163.8713616344489
  0
SPLINE
  5
655B
102
{ACAD_REACTORS
330
668C
102
}
330
2
100
AcDbEntity
  8
KIJUN
100
AcDbSpline
210
0.0
220
0.0
230
1.0
 70
     8
 71
     3
 72
    10
 73
     6
 74
     4
 42
0.0000000001
 43
0.0000000001
 44
0.0000000001
 40
0.0
 40
0.0
 40
0.0
 40
0.0
 40
5.422223027631821
 40
12.76357879259347
 40
25.55611787172756
 40
25.55611787172756
 40
25.55611787172756
 40
25.55611787172756
 10
53.37214254130708
 20
136.9325567742732
 30
0.0
 10
51.53253814583479
 20
136.7881404400461
 30
0.0
 10
47.20222278824866
 20
136.4481932907951
 30
0.0
 10
40.65868367505226
 20
129.3558355942906
 30
0.0
 10
41.90425421935208
 20
122.3437393168705
 30
0.0
 10
42.69565647843592
 20
117.8884406103785
 30
0.0
 11
53.37214254130708
 21
136.9325567742732
 31
0.0
 11
48.04503634529033
 21
135.9213979649161
 31
0.0
 11
42.90543625810437
 21
130.6792595261171
 31
0.0
 11
42.69565647843592
 21
117.8884406103785
 31
0.0
  0
SPLINE
  5
655C
102
{ACAD_REACTORS
330
668C
102
}
330
2
100
AcDbEntity
  8
KIJUN
100
AcDbSpline
210
0.0
220
0.0
230
1.0
 70
     8
 71
     3
 72
     9
 73
     5
 74
     3
 42
0.0000000001
 43
0.0000000001
 44
0.0000000001
 40
0.0
 40
0.0
 40
0.0
 40
0.0
 40
5.863434337318901
 40
13.4575427644701
 40
13.4575427644701
 40
13.4575427644701
 40
13.4575427644701
 10
53.60419599181364
 20
133.8245424722017
 30
0.0
 10
51.50929393468152
 20
133.7457509573289
 30
0.0
 10
46.70115037932577
 20
133.5649115175266
 30
0.0
 10
44.60995116798449
 20
129.1063582119359
 30
0.0
 10
43.429884804337
 20
126.5903909344414
 30
0.0
 11
53.60419599181364
 21
133.8245424722017
 31
0.0
 11
47.83525656562187
 21
132.7761150188314
 31
0.0
 11
43.429884804337
 21
126.5903909344414
 31
0.0
  0
ARC
  5
655D
102
{ACAD_REACTORS
330
668C
102
}
330
2
100
AcDbEntity
  8
KIJUN
100
AcDbCircle
 10
56.59100936231721
 20
125.6723238589068
 30
0.0
 40
17.74542963027602
100
AcDbArc
 50
67.67462843391488
 51
189.262518480665
  0
SPLINE
  5
655E
102
{ACAD_REACTORS
330
668C
102
}
330
2
100
AcDbEntity
  8
KIJUN
100
AcDbSpline
210
0.0
220
0.0
230
1.0
 70
     8
 71
     3
 72
    11
 73
     7
 74
     5
 42
0.0000000001
 43
0.0000000001
 44
0.0000000001
 40
0.0
 40
0.0
 40
0.0
 40
0.0
 40
6.688048382753598
 40
15.9769895700728
 40
35.04225960365321
 40
57.25895493880283
 40
57.25895493880283
 40
57.25895493880283
 40
57.25895493880283
 10
67.37214254130709
 20
173.9325567742734
 30
0.0
 10
65.11169698055244
 20
174.1365158705858
 30
0.0
 10
59.71174873241716
 20
174.623751035168
 30
0.0
 10
49.03777062251293
 20
168.6191368804503
 30
0.0
 10
38.24369189408117
 20
154.9840236181527
 30
0.0
 10
35.10308681788439
 20
141.4322319777608
 30
0.0
 10
33.41290890308142
 20
134.1390708254075
 30
0.0
 11
67.37214254130709
 21
173.9325567742734
 31
0.0
 11
60.68425768652559
 21
173.9793257729524
 31
0.0
 11
52.29307372329322
 21
169.9953001610032
 31
0.0
 11
40.12585643484294
 21
155.3173117120033
 31
0.0
 11
33.41290890308142
 21
134.1390708254075
 31
0.0
  0
LINE
  5
655F
102
{ACAD_REACTORS
330
668C
102
}
330
2
100
AcDbEntity
  8
KIJUN
100
AcDbLine
 10
45.37214254130709
 20
180.9325567742734
 30
0.0
 11
34.37214254130708
 21
159.9325567742734
 31
0.0
  0
ARC
  5
6560
102
{ACAD_REACTORS
330
668C
102
}
330
2
100
AcDbEntity
  8
KIJUN
100
AcDbCircle
 10
30.44786697126415
 20
160.5461434192088
 30
0.0
 40
3.971955100511459
100
AcDbArc
 50
351.1133750810186
 51
121.5064898670239
  0
ARC
  5
6561
102
{ACAD_REACTORS
330
668C
102
}
330
2
100
AcDbEntity
  8
KIJUN
100
AcDbCircle
 10
15.0268898479128
 20
168.8621190498237
 30
0.0
 40
14.22660724414222
100
AcDbArc
 50
339.7264277005129
 51
29.80085568094691
  0
LINE
  5
6562
102
{ACAD_REACTORS
330
668C
102
}
330
2
100
AcDbEntity
  8
KIJUN
100
AcDbLine
 10
45.37214254130709
 20
180.9325567742734
 30
0.0
 11
43.8648582176695
 21
182.3483882081436
 31
0.0
  0
ARC
  5
6563
102
{ACAD_REACTORS
330
668C
102
}
330
2
100
AcDbEntity
  8
KIJUN
100
AcDbCircle
 10
46.4590481752482
 20
192.7445099531879
 30
0.0
 40
5.654646216889338
100
AcDbArc
 50
262.8958223341421
 51
321.0862474026141
  0
ARC
  5
6564
102
{ACAD_REACTORS
330
668C
102
}
330
2
100
AcDbEntity
  8
KIJUN
100
AcDbCircle
 10
45.46177629384533
 20
197.776866770789
 30
0.0
 40
4.82889375563928
100
AcDbArc
 50
259.6591053236768
 51
342.7427287225195
  0
ARC
  5
6565
102
{ACAD_REACTORS
330
668C
102
}
330
2
100
AcDbEntity
  8
KIJUN
100
AcDbCircle
 10
40.64760914829344
 20
206.2004456770401
 30
0.0
 40
6.746799514800219
100
AcDbArc
 50
303.938784511389
 51
25.23613385092413
  0
ARC
  5
6566
102
{ACAD_REACTORS
330
668C
102
}
330
2
100
AcDbEntity
  8
KIJUN
100
AcDbCircle
 10
31.05808663009702
 20
210.3878032782051
 30
0.0
 40
9.223872222758817
100
AcDbArc
 50
311.8555494396031
 51
21.92485553509088
  0
ARC
  5
6567
102
{ACAD_REACTORS
330
668C
102
}
330
2
100
AcDbEntity
  8
KIJUN
100
AcDbCircle
 10
24.07056467274242
 20
209.535207869515
 30
0.0
 40
6.472350544770037
100
AcDbArc
 50
349.131255636375
 51
57.94284721126259
  0
ARC
  5
6568
102
{ACAD_REACTORS
330
668C
102
}
330
2
100
AcDbEntity
  8
KIJUN
100
AcDbCircle
 10
19.09800219627413
 20
203.8221294838495
 30
0.0
 40
6.576003389057101
100
AcDbArc
 50
20.75810248995535
 51
94.93544872997016
  0
ARC
  5
6569
102
{ACAD_REACTORS
330
668C
102
}
330
2
100
AcDbEntity
  8
KIJUN
100
AcDbCircle
 10
15.23549518800041
 20
197.5483551743314
 30
0.0
 40
9.043203744815281
100
AcDbArc
 50
40.54292188047639
 51
90.3474572486005
  0
SPLINE
  5
656A
102
{ACAD_REACTORS
330
668C
102
}
330
2
100
AcDbEntity
  8
KIJUN
100
AcDbSpline
210
0.0
220
0.0
230
1.0
 70
     8
 71
     3
 72
     9
 73
     5
 74
     3
 42
0.0000000001
 43
0.0000000001
 44
0.0000000001
 40
0.0
 40
0.0
 40
0.0
 40
0.0
 40
6.420478941895315
 40
22.7411968094653
 40
22.7411968094653
 40
22.7411968094653
 40
22.7411968094653
 10
28.37214254130095
 20
163.9325567742563
 30
0.0
 10
27.13933803143874
 20
162.113639606007
 30
0.0
 10
22.77277126280819
 20
155.6710745454225
 30
0.0
 10
24.83167914192262
 20
147.7565194460079
 30
0.0
 10
26.30929946647643
 20
142.0764656692815
 30
0.0
 11
28.37214254130095
 21
163.9325567742563
 31
0.0
 11
25.18589818187161
 21
158.3584741837912
 31
0.0
 11
26.30929946647643
 21
142.0764656692815
 31
0.0
  0
SPLINE
  5
656B
102
{ACAD_REACTORS
330
668C
102
}
330
2
100
AcDbEntity
  8
KIJUN
100
AcDbSpline
210
0.0
220
0.0
230
1.0
 70
     8
 71
     3
 72
     9
 73
     5
 74
     3
 42
0.0000000001
 43
0.0000000001
 44
0.0000000001
 40
0.0
 40
0.0
 40
0.0
 40
0.0
 40
9.092271016268197
 40
23.60155848221317
 40
23.60155848221317
 40
23.60155848221317
 40
23.60155848221317
 10
17.74336794451801
 20
167.9031002284184
 30
0.0
 10
17.06082128932621
 20
164.9023256777925
 30
0.0
 10
15.28907858934224
 20
157.1129674501487
 30
0.0
 10
17.85255028195075
 20
149.4526195982006
 30
0.0
 10
19.42846941995594
 20
144.7433463035233
 30
0.0
 11
17.74336794451801
 21
167.9031002284184
 31
0.0
 11
16.3391174674357
 21
158.9199230159348
 31
0.0
 11
19.42846941995594
 21
144.7433463035233
 31
0.0
  0
SPLINE
  5
656C
102
{ACAD_REACTORS
330
668C
102
}
330
2
100
AcDbEntity
  8
KIJUN
100
AcDbSpline
210
0.0
220
0.0
230
1.0
 70
     8
 71
     3
 72
     9
 73
     5
 74
     3
 42
0.0000000001
 43
0.0000000001
 44
0.0000000001
 40
0.0
 40
0.0
 40
0.0
 40
0.0
 40
7.328058198310469
 40
19.21923281600651
 40
19.21923281600651
 40
19.21923281600651
 40
19.21923281600651
 10
34.37214254130708
 20
159.9325567742734
 30
0.0
 10
33.46192739710136
 20
157.6527001658837
 30
0.0
 10
31.07471426427208
 20
151.673340592313
 30
0.0
 10
30.64654210772721
 20
145.2243574995241
 30
0.0
 10
30.38162675295462
 20
141.2342927140528
 30
0.0
 11
34.37214254130708
 21
159.9325567742734
 31
0.0
 11
31.92630318068405
 21
153.0247129153075
 31
0.0
 11
30.38162675295462
 21
141.2342927140528
 31
0.0
  0
SPLINE
  5
656D
102
{ACAD_REACTORS
330
668C
102
}
330
2
100
AcDbEntity
  8
KIJUN
100
AcDbSpline
210
0.0
220
0.0
230
1.0
 70
     8
 71
     3
 72
    13
 73
     9
 74
     7
 42
0.0000000001
 43
0.0000000001
 44
0.0000000001
 40
0.0
 40
0.0
 40
0.0
 40
0.0
 40
7.574301143589717
 40
13.87677270057506
 40
29.77209517399983
 40
42.40837711179294
 40
55.22589610961684
 40
63.61815633973211
 40
63.61815633973211
 40
63.61815633973211
 40
63.61815633973211
 10
26.1401573520634
 20
224.6316477054735
 30
0.0
 10
28.67116728845059
 20
224.5862261688748
 30
0.0
 10
33.3081956986382
 20
224.5030099978854
 30
0.0
 10
43.11011529032225
 20
224.1722268173071
 30
0.0
 10
55.6318253038321
 20
220.9104766224228
 30
0.0
 10
61.51760311162758
 20
207.3345910927824
 30
0.0
 10
62.14986969120293
 20
195.8162604787664
 30
0.0
 10
59.64686636939245
 20
189.1438246421165
 30
0.0
 10
58.65648099066084
 20
186.5036831626546
 30
0.0
 11
26.1401573520634
 21
224.6316477054735
 31
0.0
 11
33.7128227461335
 21
224.4742417232567
 31
0.0
 11
40.00594796335644
 21
224.1311342663837
 31
0.0
 11
54.88060658267795
 21
218.5270458041263
 31
0.0
 11
60.71604925998736
 21
207.3188688796112
 31
0.0
 11
61.17373089696229
 21
194.5095238230225
 31
0.0
 11
58.65648099066084
 21
186.5036831626546
 31
0.0
  0
SPLINE
  5
656E
102
{ACAD_REACTORS
330
668C
102
}
330
2
100
AcDbEntity
  8
KIJUN
100
AcDbSpline
210
0.0
220
0.0
230
1.0
 70
     8
 71
     3
 72
     9
 73
     5
 74
     3
 42
0.0000000001
 43
0.0000000001
 44
0.0000000001
 40
0.0
 40
0.0
 40
0.0
 40
0.0
 40
7.926676241998396
 40
18.41418269936571
 40
18.41418269936571
 40
18.41418269936571
 40
18.41418269936571
 10
32.37214254130686
 20
231.9325567742735
 30
0.0
 10
34.79679632790766
 20
230.8600867559978
 30
0.0
 10
40.42942423474892
 20
228.3686693884654
 30
0.0
 10
45.30654177354977
 20
224.5937242061427
 30
0.0
 10
48.08422691530063
 20
222.4437638944543
 30
0.0
 11
32.37214254130686
 21
231.9325567742735
 31
0.0
 11
39.50610720920986
 21
228.4773079608632
 31
0.0
 11
48.08422691530063
 21
222.4437638944543
 31
0.0
  0
SPLINE
  5
656F
102
{ACAD_REACTORS
330
668C
102
}
330
2
100
AcDbEntity
  8
KIJUN
100
AcDbSpline
210
0.0
220
0.0
230
1.0
 70
     8
 71
     3
 72
    18
 73
    14
 74
    12
 42
0.0000000001
 43
0.0000000001
 44
0.0000000001
 40
0.0
 40
0.0
 40
0.0
 40
0.0
 40
2.09654495451645
 40
5.439521752838338
 40
8.504794281231978
 40
12.8967014396066
 40
18.12306730134447
 40
26.72421856838973
 40
37.66230650956844
 40
48.29365334231908
 40
60.56238130852653
 40
74.74956934741076
 40
87.81365353603588
 40
87.81365353603588
 40
87.81365353603588
 40
87.81365353603588
 10
41.60264222509886
 20
245.1246942717271
 30
0.0
 10
40.84392497628051
 20
245.0006329386695
 30
0.0
 10
38.87542009384981
 20
244.6787536875715
 30
0.0
 10
37.6880660590561
 20
248.0247293381203
 30
0.0
 10
33.78610270210641
 20
248.9461855798667
 30
0.0
 10
29.66135680054913
 20
245.8992893976683
 30
0.0
 10
31.33071513714117
 20
239.0388543098286
 30
0.0
 10
37.83137171602311
 20
233.7734139144304
 30
0.0
 10
46.1073697815226
 20
228.2200134421919
 30
0.0
 10
57.10331163249356
 20
223.9055867202083
 30
0.0
 10
62.47471697675724
 20
212.0535208866129
 30
0.0
 10
65.59490722961737
 20
198.575862406673
 30
0.0
 10
60.9048595883014
 20
190.4156407888287
 30
0.0
 10
58.65648099066061
 20
186.5036831626545
 30
0.0
 11
41.60264222509886
 21
245.1246942717271
 31
0.0
 11
39.50610720920986
 21
245.1182387733199
 31
0.0
 11
37.26270691353261
 21
247.5966755765234
 31
0.0
 11
34.31086351628164
 21
248.4228209822667
 31
0.0
 11
30.76865252310722
 21
245.8263638253668
 31
0.0
 11
31.35902102196951
 21
240.6334489255932
 31
0.0
 11
37.26270691353261
 21
234.3783473267099
 31
0.0
 11
46.472457301664
 21
228.4773079608632
 31
0.0
 11
55.6822076897954
 21
223.1663727073932
 31
0.0
 11
61.82204098090346
 21
212.5445022004532
 31
0.0
 11
63.82929387703575
 21
198.5000285448964
 31
0.0
 11
58.65648099066061
 21
186.5036831626545
 31
0.0
  0
SPLINE
  5
6570
102
{ACAD_REACTORS
330
668C
102
}
330
2
100
AcDbEntity
  8
KIJUN
100
AcDbSpline
210
0.0
220
0.0
230
1.0
 70
     8
 71
     3
 72
    13
 73
     9
 74
     7
 42
0.0000000001
 43
0.0000000001
 44
0.0000000001
 40
0.0
 40
0.0
 40
0.0
 40
0.0
 40
5.639930643814395
 40
9.907910354695481
 40
12.98881224839134
 40
18.79070793469271
 40
22.2873116306713
 40
28.02224996387548
 40
28.02224996387548
 40
28.02224996387548
 40
28.02224996387548
 10
70.7233283485532
 20
96.1197922087623
 30
0.0
 10
71.93488646291695
 20
94.61659506091567
 30
0.0
 10
74.06328305938671
 20
91.97586354719877
 30
0.0
 10
73.53997865411253
 20
86.98786993746891
 30
0.0
 10
69.48296937093596
 20
84.55200059504091
 30
0.0
 10
64.12944220205486
 20
86.61788930646407
 30
0.0
 10
64.84967735021803
 20
92.23420469965622
 30
0.0
 10
66.78714079328779
 20
94.62685424640689
 30
0.0
 10
67.99075697503917
 20
96.11324704624543
 30
0.0
 11
70.7233283485532
 21
96.1197922087623
 31
0.0
 11
73.53899602258093
 21
91.23299026715756
 31
0.0
 11
72.82733952856029
 21
87.02476072885872
 31
0.0
 11
70.1899394477648
 21
85.43225412215383
 31
0.0
 11
64.87149732985836
 21
87.75091041259475
 31
0.0
 11
64.95694795794202
 21
91.24646982374645
 31
0.0
 11
67.99075697503917
 21
96.11324704624543
 31
0.0
  0
SPLINE
  5
6571
102
{ACAD_REACTORS
330
668C
102
}
330
2
100
AcDbEntity
  8
KIJUN
100
AcDbSpline
210
0.0
220
0.0
230
1.0
 70
     8
 71
     3
 72
    13
 73
     9
 74
     7
 42
0.0000000001
 43
0.0000000001
 44
0.0000000001
 40
0.0
 40
0.0
 40
0.0
 40
0.0
 40
5.639930643814395
 40
9.907910354695481
 40
12.98881224839089
 40
18.79070793469247
 40
22.28731163067095
 40
28.02224996387513
 40
28.02224996387513
 40
28.02224996387513
 40
28.02224996387513
 10
67.97021752320347
 20
104.6883615632891
 30
0.0
 10
66.75865940883972
 20
106.1915587111358
 30
0.0
 10
64.63026281236995
 20
108.8322902248527
 30
0.0
 10
65.15356721764414
 20
113.8202838345824
 30
0.0
 10
69.21057650082037
 20
116.2561531770105
 30
0.0
 10
74.56410366970158
 20
114.1902644655874
 30
0.0
 10
73.84386852153835
 20
108.5739490723952
 30
0.0
 10
71.90640507846865
 20
106.1812995256445
 30
0.0
 10
70.70278889671726
 20
104.694906725806
 30
0.0
 11
67.97021752320347
 21
104.6883615632891
 31
0.0
 11
65.15454984917574
 21
109.5751635048939
 31
0.0
 11
65.86620634319638
 21
113.7833930431927
 31
0.0
 11
68.50360642399142
 21
115.3758996498975
 31
0.0
 11
73.82204854189808
 21
113.0572433594566
 31
0.0
 11
73.73659791381442
 21
109.561683948305
 31
0.0
 11
70.70278889671726
 21
104.694906725806
 31
0.0
  0
ARC
  5
6572
102
{ACAD_REACTORS
330
668C
102
}
330
2
100
AcDbEntity
  8
KIJUN
100
AcDbCircle
 10
69.48362914614358
 20
90.8625293020583
 30
0.0
 40
6.988815367419107
100
AcDbArc
 50
195.6060026807303
 51
341.7338356268955
  0
CIRCLE
  5
6573
102
{ACAD_REACTORS
330
668C
102
}
330
2
100
AcDbEntity
  8
KIJUN
100
AcDbCircle
 10
69.34677293587833
 20
100.4040768860258
 30
0.0
 40
4.5
  0
SPLINE
  5
6574
102
{ACAD_REACTORS
330
668C
102
}
330
2
100
AcDbEntity
  8
KIJUN
100
AcDbSpline
210
0.0
220
0.0
230
1.0
 70
     8
 71
     3
 72
     9
 73
     5
 74
     3
 42
0.0000000001
 43
0.0000000001
 44
0.0000000001
 40
0.0
 40
0.0
 40
0.0
 40
0.0
 40
3.6951439449307
 40
7.201775807965749
 40
7.201775807965749
 40
7.201775807965749
 40
7.201775807965749
 10
69.32735826937755
 20
95.90411876725136
 30
0.0
 10
69.4860663062077
 20
94.67334222592851
 30
0.0
 10
69.79538570410051
 20
92.27457864529162
 30
0.0
 10
69.32635334121409
 20
89.90298395580978
 30
0.0
 10
69.09797580318059
 20
88.748225778647
 30
0.0
 11
69.32735826937755
 21
95.90411876725136
 31
0.0
 11
69.59857413230134
 21
92.2189416033342
 31
0.0
 11
69.09797580318059
 21
88.748225778647
 31
0.0
  0
SPLINE
  5
6575
102
{ACAD_REACTORS
330
668C
102
}
330
2
100
AcDbEntity
  8
KIJUN
100
AcDbSpline
210
0.0
220
0.0
230
1.0
 70
     8
 71
     3
 72
    13
 73
     9
 74
     7
 42
0.0000000001
 43
0.0000000001
 44
0.0000000001
 40
0.0
 40
0.0
 40
0.0
 40
0.0
 40
5.639930643814334
 40
9.907910354695545
 40
12.98881224839112
 40
18.79070793469265
 40
22.28731163067121
 40
28.02224996387543
 40
28.02224996387543
 40
28.02224996387543
 40
28.02224996387543
 10
66.32475127466114
 20
97.06980259030046
 30
0.0
 10
65.62872341491152
 20
95.26896391117697
 30
0.0
 10
64.40598113769346
 20
92.10535263244734
 30
0.0
 10
59.82459975511591
 20
90.06455073646224
 30
0.0
 10
55.68657038268532
 20
92.36008916786827
 30
0.0
 10
54.79891890372858
 20
98.02932405168119
 30
0.0
 10
60.02290828398031
 20
100.2137398132692
 30
0.0
 10
63.0637352953546
 20
99.73217202604265
 30
0.0
 10
64.95279731089272
 20
99.43300623615925
 30
0.0
 11
66.32475127466114
 21
97.06980259030046
 31
0.0
 11
63.50049048698224
 21
92.18796188517547
 31
0.0
 11
59.50022855484895
 21
90.70015971861607
 31
0.0
 11
56.80237733735044
 21
92.18796188517547
 31
0.0
 11
56.15117152856351
 21
97.95319601306017
 31
0.0
 11
59.22114009310053
 21
99.62697330394611
 31
0.0
 11
64.95279731089272
 21
99.43300623615925
 31
0.0
  0
SPLINE
  5
6576
102
{ACAD_REACTORS
330
668C
102
}
330
2
100
AcDbEntity
  8
KIJUN
100
AcDbSpline
210
0.0
220
0.0
230
1.0
 70
     8
 71
     3
 72
     9
 73
     5
 74
     3
 42
0.0000000001
 43
0.0000000001
 44
0.0000000001
 40
0.0
 40
0.0
 40
0.0
 40
0.0
 40
3.69514394493067
 40
7.201775807965824
 40
7.201775807965824
 40
7.201775807965824
 40
7.201775807965824
 10
65.43998755580332
 20
98.17091142103402
 30
0.0
 10
64.45345782305088
 20
97.41807795869291
 30
0.0
 10
62.53072732349284
 20
95.95081771191591
 30
0.0
 10
60.24234989347803
 20
95.17121430863179
 30
0.0
 10
59.12811120781043
 20
94.79161596964116
 30
0.0
 11
65.43998755580332
 21
98.17091142103402
 31
0.0
 11
62.38413844586671
 21
96.09344301187412
 31
0.0
 11
59.12811120781043
 21
94.79161596964116
 31
0.0
  0
SPLINE
  5
6577
102
{ACAD_REACTORS
330
668C
102
}
330
2
100
AcDbEntity
  8
KIJUN
100
AcDbSpline
210
0.0
220
0.0
230
1.0
 70
     8
 71
     3
 72
    13
 73
     9
 74
     7
 42
0.0000000001
 43
0.0000000001
 44
0.0000000001
 40
0.0
 40
0.0
 40
0.0
 40
0.0
 40
5.639930643814331
 40
9.907910354695399
 40
12.98881224839108
 40
18.79070793469261
 40
22.28731163067105
 40
28.02224996387546
 40
28.02224996387546
 40
28.02224996387546
 40
28.02224996387546
 10
64.94819586198627
 20
101.3540872675642
 30
0.0
 10
63.0406098878729
 20
101.0564457362872
 30
0.0
 10
59.68947101418502
 20
100.5335659712744
 30
0.0
 10
55.631394036882
 20
103.4807576850193
 30
0.0
 10
55.55037394762734
 20
108.2121654588533
 30
0.0
 10
60.01624963755211
 20
111.8155116312431
 30
0.0
 10
64.52000386964034
 20
108.3836119996391
 30
0.0
 10
65.62336743794503
 20
105.5093946656617
 30
0.0
 10
66.30881327173188
 20
103.7238360759397
 30
0.0
 11
64.94819586198627
 21
101.3540872675642
 31
0.0
 11
59.30826740027964
 21
101.3590485040438
 31
0.0
 11
56.01966196216721
 21
104.0794758757833
 31
0.0
 11
55.95921082546374
 21
107.1597846490476
 31
0.0
 11
60.62644713458348
 21
110.6063624864914
 31
0.0
 11
63.61096507103662
 21
108.7845803662258
 31
0.0
 11
66.30881327173188
 21
103.7238360759397
 31
0.0
  0
SPLINE
  5
6578
102
{ACAD_REACTORS
330
668C
102
}
330
2
100
AcDbEntity
  8
KIJUN
100
AcDbSpline
210
0.0
220
0.0
230
1.0
 70
     8
 71
     3
 72
     9
 73
     5
 74
     3
 42
0.0000000001
 43
0.0000000001
 44
0.0000000001
 40
0.0
 40
0.0
 40
0.0
 40
0.0
 40
3.695143944930606
 40
7.201775807965844
 40
7.201775807965844
 40
7.201775807965844
 40
7.201775807965844
 10
65.4594022223041
 20
102.6708695398085
 30
0.0
 10
64.31416445272145
 20
103.1488126187902
 30
0.0
 10
62.08211455527055
 20
104.0803159526501
 30
0.0
 10
60.26276948814228
 20
105.6723072388478
 30
0.0
 10
59.37690834050818
 20
106.44746707702
 30
0.0
 11
65.4594022223041
 21
102.6708695398085
 31
0.0
 11
62.1323372494437
 21
104.2785782945657
 31
0.0
 11
59.37690834050818
 21
106.44746707702
 31
0.0
  0
SPLINE
  5
6579
102
{ACAD_REACTORS
330
668C
102
}
330
2
100
AcDbEntity
  8
KIJUN
100
AcDbSpline
210
0.0
220
0.0
230
1.0
 70
     8
 71
     3
 72
     9
 73
     5
 74
     3
 42
0.0000000001
 43
0.0000000001
 44
0.0000000001
 40
0.0
 40
0.0
 40
0.0
 40
0.0
 40
3.695143944930586
 40
7.201775807965749
 40
7.201775807965749
 40
7.201775807965749
 40
7.201775807965749
 10
69.36618760237888
 20
104.9040350048001
 30
0.0
 10
69.20747956554873
 20
106.1348115461229
 30
0.0
 10
68.89816016765593
 20
108.5335751267598
 30
0.0
 10
69.36719253054235
 20
110.9051698162416
 30
0.0
 10
69.59557006857585
 20
112.0599279934044
 30
0.0
 11
69.36618760237888
 21
104.9040350048001
 31
0.0
 11
69.0949717394551
 21
108.5892121687171
 31
0.0
 11
69.59557006857585
 21
112.0599279934044
 31
0.0
  0
LINE
  5
657A
102
{ACAD_REACTORS
330
668C
102
}
330
2
100
AcDbEntity
  8
KIJUN
100
AcDbLine
 10
67.09677293587834
 20
96.50696256899585
 30
0.0
 11
62.7524607364121
 21
88.98239311557915
 31
0.0
  0
LINE
  5
657B
102
{ACAD_REACTORS
330
668C
102
}
330
2
100
AcDbEntity
  8
KIJUN
100
AcDbLine
 10
67.09677293587834
 20
96.50696256899585
 30
0.0
 11
62.57326260572426
 21
88.67201284860675
 31
0.0
  0
LINE
  5
657C
102
{ACAD_REACTORS
330
668C
102
}
330
2
100
AcDbEntity
  8
KIJUN
100
AcDbLine
 10
64.84677293587833
 20
100.4040768860257
 30
0.0
 11
56.1581485369461
 21
100.4040768860257
 31
0.0
  0
ARC
  5
657D
102
{ACAD_REACTORS
330
668C
102
}
330
2
100
AcDbEntity
  8
KIJUN
100
AcDbCircle
 10
61.15197844187719
 20
95.51478213928659
 30
0.0
 40
6.988815367419107
100
AcDbArc
 50
135.6060026807301
 51
281.7338356268976
  0
LINE
  5
657E
102
{ACAD_REACTORS
330
668C
102
}
330
2
100
AcDbEntity
  8
KIJUN
100
AcDbLine
 10
64.84677293587856
 20
100.4040768860259
 30
0.0
 11
55.79975227557065
 21
100.4040768860261
 31
0.0
  0
LINE
  5
657F
102
{ACAD_REACTORS
330
668C
102
}
330
2
100
AcDbEntity
  8
KIJUN
100
AcDbLine
 10
67.09677293587834
 20
104.3011912030558
 30
0.0
 11
62.75246073641233
 21
111.8257606564723
 31
0.0
  0
ARC
  5
6580
102
{ACAD_REACTORS
330
668C
102
}
330
2
100
AcDbEntity
  8
KIJUN
100
AcDbCircle
 10
61.01512223161194
 20
105.0563297232543
 30
0.0
 40
6.988815367419107
100
AcDbArc
 50
75.60600268073035
 51
221.7338356268905
  0
LINE
  5
6581
102
{ACAD_REACTORS
330
668C
102
}
330
2
100
AcDbEntity
  8
KIJUN
100
AcDbLine
 10
67.09677293587834
 20
104.3011912030556
 30
0.0
 11
62.57326260572472
 21
112.1361409234448
 31
0.0
  0
SPLINE
  5
6582
102
{ACAD_REACTORS
330
668C
102
}
330
2
100
AcDbEntity
  8
KIJUN
100
AcDbSpline
210
0.0
220
0.0
230
1.0
 70
     8
 71
     3
 72
    13
 73
     9
 74
     7
 42
0.0000000001
 43
0.0000000001
 44
0.0000000001
 40
0.0
 40
0.0
 40
0.0
 40
0.0
 40
5.639930643814103
 40
9.907910354695346
 40
12.98881224839102
 40
18.79070793469256
 40
22.2873116306712
 40
28.0222499638755
 40
28.0222499638755
 40
28.0222499638755
 40
28.0222499638755
 10
73.74535000977061
 20
99.45406650448752
 30
0.0
 10
75.65293598388388
 20
99.75170803576439
 30
0.0
 10
79.0040748575717
 20
100.2745878007771
 30
0.0
 10
83.06215183487495
 20
97.32739608703248
 30
0.0
 10
83.14317192412948
 20
92.59598831319829
 30
0.0
 10
78.67729623420484
 20
88.9926421408086
 30
0.0
 10
74.17354200211628
 20
92.42454177241244
 30
0.0
 10
73.07017843381174
 20
95.2987591063899
 30
0.0
 10
72.38473260002502
 20
97.08431769611195
 30
0.0
 11
73.74535000977061
 21
99.45406650448752
 31
0.0
 11
79.38527847147702
 21
99.44910526800789
 31
0.0
 11
82.67388390958968
 21
96.72867789626833
 31
0.0
 11
82.73433504629315
 21
93.64836912300404
 31
0.0
 11
78.06709873717341
 21
90.20179128556026
 31
0.0
 11
75.08258080072005
 21
92.02357340582592
 31
0.0
 11
72.38473260002502
 21
97.08431769611195
 31
0.0
  0
SPLINE
  5
6583
102
{ACAD_REACTORS
330
668C
102
}
330
2
100
AcDbEntity
  8
KIJUN
100
AcDbSpline
210
0.0
220
0.0
230
1.0
 70
     8
 71
     3
 72
     9
 73
     5
 74
     3
 42
0.0000000001
 43
0.0000000001
 44
0.0000000001
 40
0.0
 40
0.0
 40
0.0
 40
0.0
 40
3.695143944930704
 40
7.201775807965942
 40
7.201775807965942
 40
7.201775807965942
 40
7.201775807965942
 10
73.23414364945278
 20
98.13728423224313
 30
0.0
 10
74.37938141903538
 20
97.65934115326135
 30
0.0
 10
76.61143131648628
 20
96.72783781940127
 30
0.0
 10
78.43077638361461
 20
95.13584653320359
 30
0.0
 10
79.31663753124872
 20
94.36068669503141
 30
0.0
 11
73.23414364945278
 21
98.13728423224313
 31
0.0
 11
76.56120862231318
 21
96.52957547748577
 31
0.0
 11
79.31663753124872
 21
94.36068669503141
 31
0.0
  0
SPLINE
  5
6584
102
{ACAD_REACTORS
330
668C
102
}
330
2
100
AcDbEntity
  8
KIJUN
100
AcDbSpline
210
0.0
220
0.0
230
1.0
 70
     8
 71
     3
 72
     9
 73
     5
 74
     3
 42
0.0000000001
 43
0.0000000001
 44
0.0000000001
 40
0.0
 40
0.0
 40
0.0
 40
0.0
 40
3.69514394493067
 40
7.201775807965824
 40
7.201775807965824
 40
7.201775807965824
 40
7.201775807965824
 10
73.25355831595334
 20
102.6372423510174
 30
0.0
 10
74.24008804870578
 20
103.3900758133585
 30
0.0
 10
76.16281854826382
 20
104.8573360601355
 30
0.0
 10
78.45119597827864
 20
105.6369394634196
 30
0.0
 10
79.56543466394624
 20
106.0165378024103
 30
0.0
 11
73.25355831595334
 21
102.6372423510174
 31
0.0
 11
76.30940742588996
 21
104.7147107601773
 31
0.0
 11
79.56543466394624
 21
106.0165378024103
 31
0.0
  0
SPLINE
  5
6585
102
{ACAD_REACTORS
330
668C
102
}
330
2
100
AcDbEntity
  8
KIJUN
100
AcDbSpline
210
0.0
220
0.0
230
1.0
 70
     8
 71
     3
 72
    13
 73
     9
 74
     7
 42
0.0000000001
 43
0.0000000001
 44
0.0000000001
 40
0.0
 40
0.0
 40
0.0
 40
0.0
 40
5.639930643814334
 40
9.907910354695545
 40
12.98881224839112
 40
18.79070793469265
 40
22.28731163067121
 40
28.02224996387543
 40
28.02224996387543
 40
28.02224996387543
 40
28.02224996387543
 10
72.36879459709553
 20
103.738351181751
 30
0.0
 10
73.06482245684515
 20
105.5391898608745
 30
0.0
 10
74.28756473406321
 20
108.7028011396041
 30
0.0
 10
78.86894611664075
 20
110.7436030355892
 30
0.0
 10
83.00697548907136
 20
108.4480646041832
 30
0.0
 10
83.89462696802809
 20
102.7788297203702
 30
0.0
 10
78.67063758777636
 20
100.5944139587822
 30
0.0
 10
75.62981057640207
 20
101.0759817460088
 30
0.0
 10
73.74074856086394
 20
101.3751475358922
 30
0.0
 11
72.36879459709553
 21
103.738351181751
 31
0.0
 11
75.19305538477443
 21
108.620191886876
 31
0.0
 11
79.19331731690772
 21
110.1079940534354
 31
0.0
 11
81.89116853440623
 21
108.620191886876
 31
0.0
 11
82.54237434319316
 21
102.8549577589913
 31
0.0
 11
79.47240577865613
 21
101.1811804681053
 31
0.0
 11
73.74074856086394
 21
101.3751475358922
 31
0.0
  0
LINE
  5
6586
102
{ACAD_REACTORS
330
668C
102
}
330
2
100
AcDbEntity
  8
KIJUN
100
AcDbLine
 10
73.84677293587833
 20
100.4040768860258
 30
0.0
 11
82.89379359618601
 21
100.4040768860255
 31
0.0
  0
LINE
  5
6587
102
{ACAD_REACTORS
330
668C
102
}
330
2
100
AcDbEntity
  8
KIJUN
100
AcDbLine
 10
71.59677293587833
 20
96.50696256899585
 30
0.0
 11
75.94108513534457
 21
88.98239311557915
 31
0.0
  0
ARC
  5
6588
102
{ACAD_REACTORS
330
668C
102
}
330
2
100
AcDbEntity
  8
KIJUN
100
AcDbCircle
 10
77.67842364014518
 20
95.75182404879729
 30
0.0
 40
6.988815367419107
100
AcDbArc
 50
255.6060026807303
 51
41.73383562689053
  0
LINE
  5
6589
102
{ACAD_REACTORS
330
668C
102
}
330
2
100
AcDbEntity
  8
KIJUN
100
AcDbLine
 10
71.59677293587811
 20
96.50696256899585
 30
0.0
 11
76.12028326603172
 21
88.67201284860664
 31
0.0
  0
LINE
  5
658A
102
{ACAD_REACTORS
330
668C
102
}
330
2
100
AcDbEntity
  8
KIJUN
100
AcDbLine
 10
71.59677293587833
 20
104.3011912030556
 30
0.0
 11
75.94108513534433
 21
111.8257606564722
 31
0.0
  0
ARC
  5
658B
102
{ACAD_REACTORS
330
668C
102
}
330
2
100
AcDbEntity
  8
KIJUN
100
AcDbCircle
 10
77.54156742987948
 20
105.2933716327649
 30
0.0
 40
6.988815367419107
100
AcDbArc
 50
315.6060026807301
 51
101.7338356268976
  0
LINE
  5
658C
102
{ACAD_REACTORS
330
668C
102
}
330
2
100
AcDbEntity
  8
KIJUN
100
AcDbLine
 10
73.84677293587833
 20
100.4040768860258
 30
0.0
 11
82.53539733481057
 21
100.4040768860258
 31
0.0
  0
LINE
  5
658D
102
{ACAD_REACTORS
330
668C
102
}
330
2
100
AcDbEntity
  8
KIJUN
100
AcDbLine
 10
71.59677293587833
 20
104.3011912030556
 30
0.0
 11
76.1202832660324
 21
112.1361409234447
 31
0.0
  0
ARC
  5
658E
102
{ACAD_REACTORS
330
668C
102
}
330
2
100
AcDbEntity
  8
KIJUN
100
AcDbCircle
 10
69.20991672561285
 20
109.945624469993
 30
0.0
 40
6.988815367419107
100
AcDbArc
 50
15.60600268073027
 51
161.7338356268956
  0
ARC
  5
658F
102
{ACAD_REACTORS
330
668C
102
}
330
2
100
AcDbEntity
  8
KIJUN
100
AcDbCircle
 10
64.32955976781181
 20
-28.03156790812727
 30
0.0
 40
83.69989088371539
100
AcDbArc
 50
86.54606751147994
 51
101.6889149955296
  0
LINE
  5
6590
102
{ACAD_REACTORS
330
668C
102
}
330
2
100
AcDbEntity
  8
KIJUN
100
AcDbLine
 10
46.96701891719681
 20
53.13802235335685
 30
0.0
 11
69.37214254130708
 21
53.13802235335685
 31
0.0
  0
ARC
  5
6591
102
{ACAD_REACTORS
330
668C
102
}
330
2
100
AcDbEntity
  8
KIJUN
100
AcDbCircle
 10
34.01710519574499
 20
71.14262684235677
 30
0.0
 40
5.773207009113375
100
AcDbArc
 50
41.03111165384484
 51
138.9688883461456
  0
ARC
  5
6592
102
{ACAD_REACTORS
330
668C
102
}
330
2
100
AcDbEntity
  8
KIJUN
100
AcDbCircle
 10
43.37214254130685
 20
69.68775896141278
 30
0.0
 40
7.246233787133292
100
AcDbArc
 50
46.36881305610173
 51
133.6311869438982
  0
ARC
  5
6593
102
{ACAD_REACTORS
330
668C
102
}
330
2
100
AcDbEntity
  8
KIJUN
100
AcDbCircle
 10
54.37214254130708
 20
66.9401057685767
 30
0.0
 40
9.993961830949011
100
AcDbArc
 50
53.10413514304183
 51
126.8958648569581
  0
ARC
  5
6594
102
{ACAD_REACTORS
330
668C
102
}
330
2
100
AcDbEntity
  8
KIJUN
100
AcDbCircle
 10
67.36081076654818
 20
64.73354976068868
 30
0.0
 40
12.36370606354136
100
AcDbArc
 50
80.63749349376296
 51
124.4201219245462
  0
ARC
  5
6595
102
{ACAD_REACTORS
330
668C
102
}
330
2
100
AcDbEntity
  8
KIJUN
100
AcDbCircle
 10
65.40034495259215
 20
77.78680101017233
 30
0.0
 40
27.17849215360504
100
AcDbArc
 50
186.028231911243
 51
238.4400032388277
  0
ARC
  5
6596
102
{ACAD_REACTORS
330
668C
102
}
330
2
100
AcDbEntity
  8
KIJUN
100
AcDbCircle
 10
76.8639530831897
 20
75.81503012010898
 30
0.0
 40
28.50547363508706
100
AcDbArc
 50
181.7740479886688
 51
225.8877661126206
  0
ARC
  5
6597
102
{ACAD_REACTORS
330
668C
102
}
330
2
100
AcDbEntity
  8
KIJUN
100
AcDbCircle
 10
99.37106315812071
 20
72.90543606855578
 30
0.0
 40
39.05156882421986
100
AcDbArc
 50
177.0245066376232
 51
206.1928330396331
  0
LINE
  5
6598
102
{ACAD_REACTORS
330
668C
102
}
330
2
100
AcDbEntity
  8
KIJUN
100
AcDbLine
 10
29.37214254130686
 20
80.93255677427363
 30
0.0
 11
69.37214254130708
 21
80.93255677427363
 31
0.0
  0
SPLINE
  5
6599
102
{ACAD_REACTORS
330
668C
102
}
330
2
100
AcDbEntity
  8
KIJUN
100
AcDbSpline
210
0.0
220
0.0
230
1.0
 70
     8
 71
     3
 72
     9
 73
     5
 74
     3
 42
0.0000000001
 43
0.0000000001
 44
0.0000000001
 40
0.0
 40
0.0
 40
0.0
 40
0.0
 40
9.767408027527233
 40
34.90605691089235
 40
34.90605691089235
 40
34.90605691089235
 40
34.90605691089235
 10
33.37214254130731
 20
105.9325567742733
 30
0.0
 10
35.2039819647361
 20
103.2288699960227
 30
0.0
 10
41.75047730778056
 20
93.56662958537688
 30
0.0
 10
50.87316704446959
 20
86.16938286990668
 30
0.0
 10
57.44314699803294
 20
80.84203270948785
 30
0.0
 11
33.37214254130731
 21
105.9325567742733
 31
0.0
 11
39.06937465615897
 21
97.99884353230982
 31
0.0
 11
57.44314699803294
 21
80.84203270948785
 31
0.0
  0
SPLINE
  5
659A
102
{ACAD_REACTORS
330
668C
102
}
330
2
100
AcDbEntity
  8
KIJUN
100
AcDbSpline
210
0.0
220
0.0
230
1.0
 70
     8
 71
     3
 72
    15
 73
    11
 74
     9
 42
0.0000000001
 43
0.0000000001
 44
0.0000000001
 40
0.0
 40
0.0
 40
0.0
 40
0.0
 40
4.0
 40
8.833337037316109
 40
11.42835834204736
 40
14.1977155178818
 40
16.96189702831951
 40
19.99504547538276
 40
24.90553699716341
 40
28.18107648419011
 40
28.18107648419011
 40
28.18107648419011
 40
28.18107648419011
 10
29.37214254130686
 20
76.93255677427362
 30
0.0
 10
29.40010960538882
 20
78.22506917165845
 30
0.0
 10
29.46187023113385
 20
81.07936857941087
 30
0.0
 10
29.01240771682728
 20
85.54486020828969
 30
0.0
 10
24.80762120247113
 20
86.50273695480327
 30
0.0
 10
23.39576994496781
 20
83.00878191546598
 30
0.0
 10
26.57627273285362
 20
80.87899542615437
 30
0.0
 10
22.79793502540139
 20
77.50314983174543
 30
0.0
 10
18.87647732781727
 20
79.14565074743035
 30
0.0
 10
17.00906636293604
 20
81.103181021367
 30
0.0
 10
16.26184486482612
 20
81.88646265106411
 30
0.0
 11
29.37214254130686
 21
76.93255677427362
 31
0.0
 11
29.37214254130686
 21
80.93255677427363
 31
0.0
 11
27.75135238084909
 21
85.48603743988042
 31
0.0
 11
25.17907467309124
 21
85.82885366788184
 31
0.0
 11
24.15016322881252
 21
83.2577293209904
 31
0.0
 11
25.5220451545174
 21
80.85801279511281
 31
0.0
 11
23.46422226596019
 21
78.62970526219635
 31
0.0
 11
18.66263733187088
 21
79.65815511814764
 31
0.0
 11
16.26184486482612
 21
81.88646265106411
 31
0.0
  0
SPLINE
  5
659B
102
{ACAD_REACTORS
330
668C
102
}
330
2
100
AcDbEntity
  8
KIJUN
100
AcDbSpline
210
0.0
220
0.0
230
1.0
 70
     8
 71
     3
 72
    16
 73
    12
 74
    10
 42
0.0000000001
 43
0.0000000001
 44
0.0000000001
 40
0.0
 40
0.0
 40
0.0
 40
0.0
 40
3.868797244487053
 40
8.653329884591974
 40
10.95031879849484
 40
14.20853656616641
 40
17.68038758045992
 40
20.27428602841576
 40
29.43136816522158
 40
39.46675533442667
 40
46.25812939422898
 40
46.25812939422898
 40
46.25812939422898
 40
46.25812939422898
 10
16.26184486482612
 20
81.88646265106399
 30
0.0
 10
17.43288846168684
 20
81.42779343627688
 30
0.0
 10
20.05215897717198
 20
80.40188906015186
 30
0.0
 10
25.00982020587736
 20
82.38913014509213
 30
0.0
 10
23.13632140188378
 20
86.60907481495033
 30
0.0
 10
19.70205770071828
 20
84.97719055250266
 30
0.0
 10
16.62595167127904
 20
87.08433010784267
 30
0.0
 10
16.2879999428502
 20
92.51780643778067
 30
0.0
 10
22.31507008046134
 20
97.96719067572395
 30
0.0
 10
30.64364902045407
 20
101.883619743624
 30
0.0
 10
36.07102641526791
 20
99.83378210536148
 30
0.0
 10
38.26154600191035
 20
99.00645627754238
 30
0.0
 11
16.26184486482612
 21
81.88646265106399
 31
0.0
 11
20.03451925757577
 21
81.02942120210036
 31
0.0
 11
24.08677240613383
 21
83.57323664435057
 31
0.0
 11
23.12125178453403
 21
85.65744584686797
 31
0.0
 11
19.86303401686246
 21
85.65744584686797
 31
0.0
 11
16.94778582767844
 21
87.54293715178301
 31
0.0
 11
16.60481534625228
 21
90.11406149867445
 31
0.0
 11
22.26382648390722
 21
97.31321049033352
 31
0.0
 11
31.69551111137298
 21
100.7413762861888
 31
0.0
 11
38.26154600191035
 21
99.00645627754238
 31
0.0
  0
SPLINE
  5
659C
102
{ACAD_REACTORS
330
668C
102
}
330
2
100
AcDbEntity
  8
KIJUN
100
AcDbSpline
210
0.0
220
0.0
230
1.0
 70
     8
 71
     3
 72
    14
 73
    10
 74
     8
 42
0.0000000001
 43
0.0000000001
 44
0.0000000001
 40
0.0
 40
0.0
 40
0.0
 40
0.0
 40
2.577892112159392
 40
5.80441376608948
 40
6.725886018648789
 40
8.69312340479626
 40
13.67445470780475
 40
28.94226713787822
 40
33.86179102658131
 40
33.86179102658131
 40
33.86179102658131
 40
33.86179102658131
 10
38.26154600191035
 20
99.00645627754238
 30
0.0
 10
37.49037278199597
 20
99.06180819190304
 30
0.0
 10
35.7539896212744
 20
99.18643924693395
 30
0.0
 10
32.25534602877213
 20
99.77278097638128
 30
0.0
 10
32.62200929842265
 20
97.24505885332867
 30
0.0
 10
35.89339363699906
 20
97.50702730374973
 30
0.0
 10
41.8492505297005
 20
93.12899216647284
 30
0.0
 10
47.31446153725369
 20
86.64430049546407
 30
0.0
 10
52.22923507908593
 20
82.05173533544533
 30
0.0
 10
53.42693374843043
 20
80.93255677427363
 30
0.0
 11
38.26154600191035
 21
99.00645627754238
 31
0.0
 11
35.69497033088146
 21
99.24773840870058
 31
0.0
 11
32.51231048497061
 21
98.71753251613951
 31
0.0
 11
32.66386605970502
 21
97.80860896599699
 31
0.0
 11
34.5583066806596
 21
97.27840365940949
 31
0.0
 11
39.02918575152649
 21
95.08183772959615
 31
0.0
 11
49.86538541715322
 21
84.32624043299858
 31
0.0
 11
53.42693374843043
 21
80.93255677427363
 31
0.0
  0
SPLINE
  5
659D
102
{ACAD_REACTORS
330
668C
102
}
330
2
100
AcDbEntity
  8
KIJUN
100
AcDbSpline
210
0.0
220
0.0
230
1.0
 70
     8
 71
     3
 72
    15
 73
    11
 74
     9
 42
0.0000000001
 43
0.0000000001
 44
0.0000000001
 40
0.0
 40
0.0
 40
0.0
 40
0.0
 40
5.873533026570452
 40
15.10517855938782
 40
18.31638924405582
 40
20.40291997147656
 40
25.22051463383857
 40
29.01487831009454
 40
30.69887008024299
 40
31.42933602332228
 40
31.42933602332228
 40
31.42933602332228
 40
31.42933602332228
 10
43.38016883633281
 20
80.93255677427363
 30
0.0
 10
42.06087155214151
 20
82.40303051225984
 30
0.0
 10
38.66798673128926
 20
86.18470131902844
 30
0.0
 10
33.68650324246579
 20
89.38432249794614
 30
0.0
 10
27.45574581418657
 20
89.15321482146769
 30
0.0
 10
27.65979985647431
 20
85.17742778384192
 30
0.0
 10
30.22498145474697
 20
82.09985631774037
 30
0.0
 10
33.82411156656451
 20
82.04442780371781
 30
0.0
 10
35.64695932607032
 20
80.8089978244569
 30
0.0
 10
36.46160251416836
 20
80.90385795208669
 30
0.0
 10
36.70806328314643
 20
80.93255677427363
 30
0.0
 11
43.38016883633281
 21
80.93255677427363
 31
0.0
 11
39.31413234166371
 21
85.17115765643188
 31
0.0
 11
30.974706349906
 21
89.130608801677
 31
0.0
 11
27.84742473081019
 21
88.40123664962334
 31
0.0
 11
27.74318096756883
 21
86.31731157556329
 31
0.0
 11
30.76622507905063
 21
82.56625537352443
 31
0.0
 11
34.41471925872497
 21
81.52429283649485
 31
0.0
 11
35.97836319608609
 21
80.89911612621085
 31
0.0
 11
36.70806328314643
 21
80.93255677427363
 31
0.0
  0
SPLINE
  5
659E
102
{ACAD_REACTORS
330
668C
102
}
330
2
100
AcDbEntity
  8
KIJUN
100
AcDbSpline
210
0.0
220
0.0
230
1.0
 70
     8
 71
     3
 72
    11
 73
     7
 74
     5
 42
0.0000000001
 43
0.0000000001
 44
0.0000000001
 40
0.0
 40
0.0
 40
0.0
 40
0.0
 40
7.375571291807634
 40
10.11070708648177
 40
15.58178216678657
 40
20.53835838685758
 40
20.53835838685758
 40
20.53835838685758
 40
20.53835838685758
 10
30.66976952666255
 20
89.15315580763342
 30
0.0
 10
27.0868251235126
 20
88.73726897069902
 30
0.0
 10
22.1751918500824
 20
88.16715584684681
 30
0.0
 10
24.57996182284461
 20
93.85411787613589
 30
0.0
 10
27.20636864909392
 20
97.53055147836185
 30
0.0
 10
30.86416697427092
 20
97.79503141418466
 30
0.0
 10
32.60282850735598
 20
97.92074668053022
 30
0.0
 11
30.66976952666255
 21
89.15315580763342
 31
0.0
 11
23.36498670083506
 21
90.17256727903873
 31
0.0
 11
24.19892429550941
 21
92.77746956194619
 31
0.0
 11
27.74318096756883
 21
96.94531159072973
 31
0.0
 11
32.60282850735598
 21
97.92074668053022
 31
0.0
  0
SPLINE
  5
659F
102
{ACAD_REACTORS
330
668C
102
}
330
2
100
AcDbEntity
  8
KIJUN
100
AcDbSpline
210
0.0
220
0.0
230
1.0
 70
     8
 71
     3
 72
    10
 73
     6
 74
     4
 42
0.0000000001
 43
0.0000000001
 44
0.0000000001
 40
0.0
 40
0.0
 40
0.0
 40
0.0
 40
6.561905920366951
 40
15.64102150261237
 40
20.65446192534567
 40
20.65446192534567
 40
20.65446192534567
 40
20.65446192534567
 10
23.70698698148726
 20
91.70271771318846
 30
0.0
 10
25.59946888816631
 20
92.90503669393286
 30
0.0
 10
30.11040680085375
 20
95.77089567744152
 30
0.0
 10
37.83126236564385
 20
93.84675177552727
 30
0.0
 10
41.00103813303667
 20
90.36813137287335
 30
0.0
 10
42.1286889266637
 20
89.130608801677
 30
0.0
 11
23.70698698148726
 21
91.70271771318846
 31
0.0
 11
29.61954993902669
 21
94.54880425102942
 31
0.0
 11
38.48019474698936
 21
92.56907867840686
 31
0.0
 11
42.1286889266637
 21
89.130608801677
 31
0.0
  0
SPLINE
  5
65A0
102
{ACAD_REACTORS
330
668C
102
}
330
2
100
AcDbEntity
  8
KIJUN
100
AcDbSpline
210
0.0
220
0.0
230
1.0
 70
     8
 71
     3
 72
    18
 73
    14
 74
    12
 42
0.0000000001
 43
0.0000000001
 44
0.0000000001
 40
0.0
 40
0.0
 40
0.0
 40
0.0
 40
2.09654495451645
 40
5.439521752838338
 40
8.504794281231978
 40
12.8967014396066
 40
18.12306730134447
 40
26.72421856838973
 40
37.66230650956844
 40
48.29365334231908
 40
60.56238130852653
 40
74.74956934741076
 40
87.81365353603588
 40
87.81365353603588
 40
87.81365353603588
 40
87.81365353603588
 10
97.14164285751531
 20
245.1246942717271
 30
0.0
 10
97.90036010633366
 20
245.0006329386695
 30
0.0
 10
99.86886498876437
 20
244.6787536875715
 30
0.0
 10
101.0562190235581
 20
248.0247293381203
 30
0.0
 10
104.9581823805077
 20
248.9461855798667
 30
0.0
 10
109.082928282065
 20
245.8992893976683
 30
0.0
 10
107.413569945473
 20
239.0388543098286
 30
0.0
 10
100.912913366591
 20
233.7734139144304
 30
0.0
 10
92.63691530109156
 20
228.2200134421919
 30
0.0
 10
81.64097345012061
 20
223.9055867202083
 30
0.0
 10
76.26956810585693
 20
212.0535208866129
 30
0.0
 10
73.14937785299679
 20
198.575862406673
 30
0.0
 10
77.83942549431277
 20
190.4156407888287
 30
0.0
 10
80.08780409195356
 20
186.5036831626545
 30
0.0
 11
97.14164285751531
 21
245.1246942717271
 31
0.0
 11
99.23817787340432
 21
245.1182387733199
 31
0.0
 11
101.4815781690815
 21
247.5966755765234
 31
0.0
 11
104.4334215663325
 21
248.4228209822667
 31
0.0
 11
107.9756325595069
 21
245.8263638253668
 31
0.0
 11
107.3852640606446
 21
240.6334489255932
 31
0.0
 11
101.4815781690815
 21
234.3783473267099
 31
0.0
 11
92.27182778095016
 21
228.4773079608632
 31
0.0
 11
83.06207739281877
 21
223.1663727073932
 31
0.0
 11
76.9222441017107
 21
212.5445022004532
 31
0.0
 11
74.91499120557842
 21
198.5000285448964
 31
0.0
 11
80.08780409195356
 21
186.5036831626545
 31
0.0
  0
SPLINE
  5
65A1
102
{ACAD_REACTORS
330
668C
102
}
330
2
100
AcDbEntity
  8
KIJUN
100
AcDbSpline
210
0.0
220
0.0
230
1.0
 70
     8
 71
     3
 72
    13
 73
     9
 74
     7
 42
0.0000000001
 43
0.0000000001
 44
0.0000000001
 40
0.0
 40
0.0
 40
0.0
 40
0.0
 40
7.574301143589717
 40
13.87677270057506
 40
29.77209517399983
 40
42.40837711179294
 40
55.22589610961684
 40
63.61815633973211
 40
63.61815633973211
 40
63.61815633973211
 40
63.61815633973211
 10
112.6041277305507
 20
224.6316477054735
 30
0.0
 10
110.0731177941635
 20
224.5862261688748
 30
0.0
 10
105.4360893839759
 20
224.5030099978854
 30
0.0
 10
95.63416979229192
 20
224.1722268173071
 30
0.0
 10
83.11245977878206
 20
220.9104766224228
 30
0.0
 10
77.22668197098659
 20
207.3345910927824
 30
0.0
 10
76.59441539141124
 20
195.8162604787664
 30
0.0
 10
79.09741871322172
 20
189.1438246421165
 30
0.0
 10
80.08780409195333
 20
186.5036831626546
 30
0.0
 11
112.6041277305507
 21
224.6316477054735
 31
0.0
 11
105.0314623364806
 21
224.4742417232567
 31
0.0
 11
98.73833711925772
 21
224.1311342663837
 31
0.0
 11
83.86367849993622
 21
218.5270458041263
 31
0.0
 11
78.02823582262681
 21
207.3188688796112
 31
0.0
 11
77.57055418565187
 21
194.5095238230225
 31
0.0
 11
80.08780409195333
 21
186.5036831626546
 31
0.0
  0
ARC
  5
65A2
102
{ACAD_REACTORS
330
668C
102
}
330
2
100
AcDbEntity
  8
KIJUN
100
AcDbCircle
 10
93.28250878876884
 20
197.776866770789
 30
0.0
 40
4.82889375563928
100
AcDbArc
 50
197.2572712774805
 51
280.3408946763232
  0
ARC
  5
65A3
102
{ACAD_REACTORS
330
668C
102
}
330
2
100
AcDbEntity
  8
KIJUN
100
AcDbCircle
 10
92.28523690736597
 20
192.7445099531879
 30
0.0
 40
5.654646216889338
100
AcDbArc
 50
218.913752597386
 51
277.1041776658579
  0
SPLINE
  5
65A4
102
{ACAD_REACTORS
330
668C
102
}
330
2
100
AcDbEntity
  8
KIJUN
100
AcDbSpline
210
0.0
220
0.0
230
1.0
 70
     8
 71
     3
 72
    17
 73
    13
 74
    11
 42
0.0000000001
 43
0.0000000001
 44
0.0000000001
 40
0.0
 40
0.0
 40
0.0
 40
0.0
 40
13.4578338204089
 40
25.57388941485904
 40
41.05992686704426
 40
52.05155856579044
 40
65.28270521469252
 40
74.8268854709939
 40
86.7351189094759
 40
95.62534331339152
 40
105.9872862257196
 40
111.2729373764748
 40
111.2729373764748
 40
111.2729373764748
 40
111.2729373764748
 10
123.4255851079704
 20
187.8329537694205
 30
0.0
 10
125.187369852998
 20
192.0584368446526
 30
0.0
 10
128.5352851894021
 20
200.0881122242421
 30
0.0
 10
124.1632556789956
 20
214.6602222545363
 30
0.0
 10
111.2477744552559
 20
220.123957027195
 30
0.0
 10
97.8827457144804
 20
221.3983874151183
 30
0.0
 10
87.27797472419167
 20
215.7126393661763
 30
0.0
 10
80.4782820983865
 20
205.8006524286502
 30
0.0
 10
80.78745085821328
 20
195.101348025062
 30
0.0
 10
83.97125436040914
 20
185.2695339284142
 30
0.0
 10
86.73690024797508
 20
177.5350586814503
 30
0.0
 10
89.13051566999127
 20
172.8981496645654
 30
0.0
 10
89.9390627257776
 20
171.3318332467036
 30
0.0
 11
123.4255851079704
 21
187.8329537694205
 31
0.0
 11
127.029747643453
 21
200.799190831713
 31
0.0
 11
123.3085741730679
 21
212.3296579155352
 31
0.0
 11
109.726289200285
 21
219.7686693343058
 31
0.0
 11
98.74882655971056
 21
220.3265952932591
 31
0.0
 11
87.02712832212
 21
214.1894109167213
 31
0.0
 11
81.81748546358107
 21
206.1924741249711
 31
0.0
 11
81.44536811654257
 21
194.2900562065222
 31
0.0
 11
83.86413087229289
 21
185.7351934558188
 31
0.0
 11
87.58530524561662
 21
176.064478787209
 31
0.0
 11
89.9390627257776
 21
171.3318332467036
 31
0.0
  0
SPLINE
  5
65A5
102
{ACAD_REACTORS
330
668C
102
}
330
2
100
AcDbEntity
  8
KIJUN
100
AcDbSpline
210
0.0
220
0.0
230
1.0
 70
     8
 71
     3
 72
    11
 73
     7
 74
     5
 42
0.0000000001
 43
0.0000000001
 44
0.0000000001
 40
0.0
 40
0.0
 40
0.0
 40
0.0
 40
6.688048382753598
 40
15.9769895700728
 40
35.04225960365321
 40
57.25895493880283
 40
57.25895493880283
 40
57.25895493880283
 40
57.25895493880283
 10
71.37214254130708
 20
173.9325567742734
 30
0.0
 10
73.63258810206173
 20
174.1365158705858
 30
0.0
 10
79.03253635019701
 20
174.623751035168
 30
0.0
 10
89.70651446010123
 20
168.6191368804503
 30
0.0
 10
100.500593188533
 20
154.9840236181527
 30
0.0
 10
103.6411982647297
 20
141.4322319777608
 30
0.0
 10
105.3313761795327
 20
134.1390708254075
 30
0.0
 11
71.37214254130708
 21
173.9325567742734
 31
0.0
 11
78.06002739608857
 21
173.9793257729524
 31
0.0
 11
86.45121135932095
 21
169.9953001610032
 31
0.0
 11
98.61842864777123
 21
155.3173117120033
 31
0.0
 11
105.3313761795327
 21
134.1390708254075
 31
0.0
  0
ARC
  5
65A6
102
{ACAD_REACTORS
330
668C
102
}
330
2
100
AcDbEntity
  8
KIJUN
100
AcDbCircle
 10
82.15327572029696
 20
125.6723238589068
 30
0.0
 40
17.74542963027602
100
AcDbArc
 50
350.737481519335
 51
112.3253715660851
  0
SPLINE
  5
65A7
102
{ACAD_REACTORS
330
668C
102
}
330
2
100
AcDbEntity
  8
KIJUN
100
AcDbSpline
210
0.0
220
0.0
230
1.0
 70
     8
 71
     3
 72
    11
 73
     7
 74
     5
 42
0.0000000001
 43
0.0000000001
 44
0.0000000001
 40
0.0
 40
0.0
 40
0.0
 40
0.0
 40
3.000730878344063
 40
6.286961747899905
 40
10.0392762823597
 40
15.35050952598772
 40
15.35050952598772
 40
15.35050952598772
 40
15.35050952598772
 10
85.37214254130708
 20
136.9325567742732
 30
0.0
 10
84.5255661070613
 20
136.3458676620868
 30
0.0
 10
82.75186700688937
 20
135.1166697913799
 30
0.0
 10
82.92807629807844
 20
130.5391243693941
 30
0.0
 10
88.09301679105056
 20
131.1296567537577
 30
0.0
 10
90.33150447896383
 20
128.9947281650702
 30
0.0
 10
91.64325684289361
 20
127.7436613675382
 30
0.0
 11
85.37214254130708
 21
136.9325567742732
 31
0.0
 11
83.26161784609189
 21
134.7994671570433
 31
0.0
 11
83.53464668531477
 21
131.5245979106497
 31
0.0
 11
87.17502247987614
 21
130.6149120088737
 31
0.0
 11
91.64325684289361
 21
127.7436613675382
 31
0.0
  0
SPLINE
  5
65A8
102
{ACAD_REACTORS
330
668C
102
}
330
2
100
AcDbEntity
  8
KIJUN
100
AcDbSpline
210
0.0
220
0.0
230
1.0
 70
     8
 71
     3
 72
     9
 73
     5
 74
     3
 42
0.0000000001
 43
0.0000000001
 44
0.0000000001
 40
0.0
 40
0.0
 40
0.0
 40
0.0
 40
5.863434337318901
 40
13.4575427644701
 40
13.4575427644701
 40
13.4575427644701
 40
13.4575427644701
 10
85.14008909080052
 20
133.8245424722017
 30
0.0
 10
87.23499114793259
 20
133.7457509573289
 30
0.0
 10
92.04313470328839
 20
133.5649115175266
 30
0.0
 10
94.13433391462968
 20
129.1063582119359
 30
0.0
 10
95.31440027827716
 20
126.5903909344414
 30
0.0
 11
85.14008909080052
 21
133.8245424722017
 31
0.0
 11
90.9090285169923
 21
132.7761150188314
 31
0.0
 11
95.31440027827716
 21
126.5903909344414
 31
0.0
  0
SPLINE
  5
65A9
102
{ACAD_REACTORS
330
668C
102
}
330
2
100
AcDbEntity
  8
KIJUN
100
AcDbSpline
210
0.0
220
0.0
230
1.0
 70
     8
 71
     3
 72
    10
 73
     6
 74
     4
 42
0.0000000001
 43
0.0000000001
 44
0.0000000001
 40
0.0
 40
0.0
 40
0.0
 40
0.0
 40
5.422223027631821
 40
12.76357879259347
 40
25.55611787172756
 40
25.55611787172756
 40
25.55611787172756
 40
25.55611787172756
 10
85.37214254130708
 20
136.9325567742732
 30
0.0
 10
87.21174693677937
 20
136.7881404400461
 30
0.0
 10
91.54206229436551
 20
136.4481932907951
 30
0.0
 10
98.08560140756192
 20
129.3558355942906
 30
0.0
 10
96.84003086326208
 20
122.3437393168705
 30
0.0
 10
96.04862860417824
 20
117.8884406103785
 30
0.0
 11
85.37214254130708
 21
136.9325567742732
 31
0.0
 11
90.69924873732384
 21
135.9213979649161
 31
0.0
 11
95.83884882450979
 21
130.6792595261171
 31
0.0
 11
96.04862860417824
 21
117.8884406103785
 31
0.0
  0
ARC
  5
65AA
102
{ACAD_REACTORS
330
668C
102
}
330
2
100
AcDbEntity
  8
KIJUN
100
AcDbCircle
 10
80.12245570912341
 20
127.6687418082445
 30
0.0
 40
21.68431841403254
100
AcDbArc
 50
16.12863836555072
 51
78.69803772659913
  0
ARC
  5
65AB
102
{ACAD_REACTORS
330
668C
102
}
330
2
100
AcDbEntity
  8
KIJUN
100
AcDbCircle
 10
66.85301579207294
 20
150.382115159698
 30
0.0
 40
31.17460907453728
100
AcDbArc
 50
42.22255910366962
 51
66.32295621057315
  0
ARC
  5
65AC
102
{ACAD_REACTORS
330
668C
102
}
330
2
100
AcDbEntity
  8
KIJUN
100
AcDbCircle
 10
83.08474487468719
 20
151.7042588397481
 30
0.0
 40
12.52555315323738
100
AcDbArc
 50
3.127140800902105
 51
102.5073863368035
  0
SPLINE
  5
65AD
102
{ACAD_REACTORS
330
668C
102
}
330
2
100
AcDbEntity
  8
KIJUN
100
AcDbSpline
210
0.0
220
0.0
230
1.0
 70
     8
 71
     3
 72
     9
 73
     5
 74
     3
 42
0.0000000001
 43
0.0000000001
 44
0.0000000001
 40
0.0
 40
0.0
 40
0.0
 40
0.0
 40
7.041567771978941
 40
9.733885368058516
 40
9.733885368058516
 40
9.733885368058516
 40
9.733885368058516
 10
92.37214254130686
 20
150.9325567742734
 30
0.0
 10
89.49235681097537
 20
151.9546615191011
 30
0.0
 10
85.51149557504926
 20
153.367564262137
 30
0.0
 10
84.61899994656141
 20
149.8934656482697
 30
0.0
 10
84.37214254130708
 20
148.9325567742734
 30
0.0
 11
92.37214254130686
 21
150.9325567742734
 31
0.0
 11
85.3489848933491
 21
151.4414117038013
 31
0.0
 11
84.37214254130708
 21
148.9325567742734
 31
0.0
  0
SPLINE
  5
65AE
102
{ACAD_REACTORS
330
668C
102
}
330
2
100
AcDbEntity
  8
KIJUN
100
AcDbSpline
210
0.0
220
0.0
230
1.0
 70
     8
 71
     3
 72
    11
 73
     7
 74
     5
 42
0.0000000001
 43
0.0000000001
 44
0.0000000001
 40
0.0
 40
0.0
 40
0.0
 40
0.0
 40
1.724583215254317
 40
5.094193709256075
 40
11.36516982769055
 40
17.3356015660737
 40
17.3356015660737
 40
17.3356015660737
 40
17.3356015660737
 10
79.37214254130708
 20
160.9325567742734
 30
0.0
 10
79.83889959728691
 20
160.5803956020366
 30
0.0
 10
81.21763901518892
 20
159.5401574665934
 30
0.0
 10
85.13495531569294
 20
159.415379028726
 30
0.0
 10
90.1201066500023
 20
156.7387062079346
 30
0.0
 10
91.63385212912009
 20
152.8360008868418
 30
0.0
 10
92.37214254130709
 20
150.9325567742734
 30
0.0
 11
79.37214254130708
 21
160.9325567742734
 31
0.0
 11
80.81563419326561
 21
159.9888835696824
 31
0.0
 11
84.10507377999351
 21
159.2582249034407
 31
0.0
 11
89.58747279022691
 21
156.2138132081262
 31
0.0
 11
92.37214254130709
 21
150.9325567742734
 31
0.0
  0
SPLINE
  5
65AF
102
{ACAD_REACTORS
330
668C
102
}
330
2
100
AcDbEntity
  8
KIJUN
100
AcDbSpline
210
0.0
220
0.0
230
1.0
 70
     8
 71
     3
 72
    11
 73
     7
 74
     5
 42
0.0000000001
 43
0.0000000001
 44
0.0000000001
 40
0.0
 40
0.0
 40
0.0
 40
0.0
 40
4.437132110607764
 40
11.19612657105391
 40
14.24818173203208
 40
18.83095665355593
 40
18.83095665355593
 40
18.83095665355593
 40
18.83095665355593
 10
97.37214254130709
 20
242.9325567742734
 30
0.0
 10
96.49548666163855
 20
241.6746706336547
 30
0.0
 10
94.28343844144649
 20
238.5006717327266
 30
0.0
 10
89.01823044904473
 20
238.0556016658623
 30
0.0
 10
84.25132154396306
 20
238.4234248344518
 30
0.0
 10
81.8272071176799
 20
237.4917754390801
 30
0.0
 10
80.37214254130708
 20
236.9325567742734
 30
0.0
 11
97.37214254130709
 21
242.9325567742734
 31
0.0
 11
94.4397821192822
 21
239.6024811411491
 31
0.0
 11
87.82699488373442
 21
238.2042497247812
 31
0.0
 11
84.77493972275624
 21
238.2042497247812
 31
0.0
 11
80.37214254130708
 21
236.9325567742734
 31
0.0
  0
ARC
  5
65B0
102
{ACAD_REACTORS
330
668C
102
}
330
2
100
AcDbEntity
  8
KIJUN
100
AcDbCircle
 10
63.47901979381163
 20
117.8377777881345
 30
0.0
 40
29.85549828834854
100
AcDbArc
 50
314.7338311132933
 51
19.3777172591507
  0
SPLINE
  5
65B1
102
{ACAD_REACTORS
330
668C
102
}
330
2
100
AcDbEntity
  8
KIJUN
100
AcDbSpline
210
0.0
220
0.0
230
1.0
 70
     8
 71
     3
 72
     9
 73
     5
 74
     3
 42
0.0000000001
 43
0.0000000001
 44
0.0000000001
 40
0.0
 40
0.0
 40
0.0
 40
0.0
 40
7.926676241998396
 40
18.41418269936571
 40
18.41418269936571
 40
18.41418269936571
 40
18.41418269936571
 10
106.3721425413073
 20
231.9325567742735
 30
0.0
 10
103.9474887547065
 20
230.8600867559978
 30
0.0
 10
98.31486084786526
 20
228.3686693884654
 30
0.0
 10
93.43774330906439
 20
224.5937242061427
 30
0.0
 10
90.66005816731353
 20
222.4437638944543
 30
0.0
 11
106.3721425413073
 21
231.9325567742735
 31
0.0
 11
99.23817787340432
 21
228.4773079608632
 31
0.0
 11
90.66005816731353
 21
222.4437638944543
 31
0.0
  0
ARC
  5
65B2
102
{ACAD_REACTORS
330
668C
102
}
330
2
100
AcDbEntity
  8
KIJUN
100
AcDbCircle
 10
108.1522018941655
 20
227.1417625783128
 30
0.0
 40
5.110804274059923
100
AcDbArc
 50
330.6900401534647
 51
110.3829667782561
  0
SPLINE
  5
65B3
102
{ACAD_REACTORS
330
668C
102
}
330
2
100
AcDbEntity
  8
KIJUN
100
AcDbSpline
210
0.0
220
0.0
230
1.0
 70
     8
 71
     3
 72
     9
 73
     5
 74
     3
 42
0.0000000001
 43
0.0000000001
 44
0.0000000001
 40
0.0
 40
0.0
 40
0.0
 40
0.0
 40
7.328058198310469
 40
19.21923281600651
 40
19.21923281600651
 40
19.21923281600651
 40
19.21923281600651
 10
104.3721425413071
 20
159.9325567742734
 30
0.0
 10
105.2823576855128
 20
157.6527001658837
 30
0.0
 10
107.6695708183421
 20
151.673340592313
 30
0.0
 10
108.0977429748869
 20
145.2243574995241
 30
0.0
 10
108.3626583296595
 20
141.2342927140528
 30
0.0
 11
104.3721425413071
 21
159.9325567742734
 31
0.0
 11
106.8179819019301
 21
153.0247129153075
 31
0.0
 11
108.3626583296595
 21
141.2342927140528
 31
0.0
  0
SPLINE
  5
65B4
102
{ACAD_REACTORS
330
668C
102
}
330
2
100
AcDbEntity
  8
KIJUN
100
AcDbSpline
210
0.0
220
0.0
230
1.0
 70
     8
 71
     3
 72
     9
 73
     5
 74
     3
 42
0.0000000001
 43
0.0000000001
 44
0.0000000001
 40
0.0
 40
0.0
 40
0.0
 40
0.0
 40
9.092271016268197
 40
23.60155848221317
 40
23.60155848221317
 40
23.60155848221317
 40
23.60155848221317
 10
121.0009171380961
 20
167.9031002284184
 30
0.0
 10
121.6834637932879
 20
164.9023256777925
 30
0.0
 10
123.4552064932719
 20
157.1129674501487
 30
0.0
 10
120.8917348006634
 20
149.4526195982006
 30
0.0
 10
119.3158156626582
 20
144.7433463035233
 30
0.0
 11
121.0009171380961
 21
167.9031002284184
 31
0.0
 11
122.4051676151785
 21
158.9199230159348
 31
0.0
 11
119.3158156626582
 21
144.7433463035233
 31
0.0
  0
SPLINE
  5
65B5
102
{ACAD_REACTORS
330
668C
102
}
330
2
100
AcDbEntity
  8
KIJUN
100
AcDbSpline
210
0.0
220
0.0
230
1.0
 70
     8
 71
     3
 72
     9
 73
     5
 74
     3
 42
0.0000000001
 43
0.0000000001
 44
0.0000000001
 40
0.0
 40
0.0
 40
0.0
 40
0.0
 40
6.420478941895315
 40
22.7411968094653
 40
22.7411968094653
 40
22.7411968094653
 40
22.7411968094653
 10
110.3721425413132
 20
163.9325567742563
 30
0.0
 10
111.6049470511754
 20
162.113639606007
 30
0.0
 10
115.971513819806
 20
155.6710745454225
 30
0.0
 10
113.9126059406915
 20
147.7565194460079
 30
0.0
 10
112.4349856161377
 20
142.0764656692815
 30
0.0
 11
110.3721425413132
 21
163.9325567742563
 31
0.0
 11
113.5583869007425
 21
158.3584741837912
 31
0.0
 11
112.4349856161377
 21
142.0764656692815
 31
0.0
  0
ARC
  5
65B8
102
{ACAD_REACTORS
330
668C
102
}
330
2
100
AcDbEntity
  8
KIJUN
100
AcDbCircle
 10
119.64628288634
 20
203.8221294838495
 30
0.0
 40
6.576003389057101
100
AcDbArc
 50
85.06455127002984
 51
159.2418975100446
  0
ARC
  5
65B9
102
{ACAD_REACTORS
330
668C
102
}
330
2
100
AcDbEntity
  8
KIJUN
100
AcDbCircle
 10
123.5087898946137
 20
197.5483551743314
 30
0.0
 40
9.043203744815281
100
AcDbArc
 50
89.65254275139947
 51
139.4570781195236
  0
ARC
  5
65BA
102
{ACAD_REACTORS
330
668C
102
}
330
2
100
AcDbEntity
  8
KIJUN
100
AcDbCircle
 10
114.6737204098717
 20
209.535207869515
 30
0.0
 40
6.472350544770037
100
AcDbArc
 50
122.0571527887374
 51
190.868744363625
  0
ARC
  5
65BB
102
{ACAD_REACTORS
330
668C
102
}
330
2
100
AcDbEntity
  8
KIJUN
100
AcDbCircle
 10
107.6861984525171
 20
210.3878032782051
 30
0.0
 40
9.223872222758817
100
AcDbArc
 50
158.0751444649091
 51
228.1444505603969
  0
ARC
  5
65BC
102
{ACAD_REACTORS
330
668C
102
}
330
2
100
AcDbEntity
  8
KIJUN
100
AcDbCircle
 10
98.09667593432074
 20
206.2004456770401
 30
0.0
 40
6.746799514800219
100
AcDbArc
 50
154.7638661490758
 51
236.061215488611
  0
LINE
  5
65BD
102
{ACAD_REACTORS
330
668C
102
}
330
2
100
AcDbEntity
  8
KIJUN
100
AcDbLine
 10
93.37214254130708
 20
180.9325567742734
 30
0.0
 11
94.87942686494466
 21
182.3483882081436
 31
0.0
  0
SPLINE
  5
65BE
102
{ACAD_REACTORS
330
668C
102
}
330
2
100
AcDbEntity
  8
KIJUN
100
AcDbSpline
210
0.0
220
0.0
230
1.0
 70
     8
 71
     3
 72
    13
 73
     9
 74
     7
 42
0.0000000001
 43
0.0000000001
 44
0.0000000001
 40
0.0
 40
0.0
 40
0.0
 40
0.0
 40
5.639930643814395
 40
9.907910354695481
 40
12.98881224839134
 40
18.79070793469271
 40
22.2873116306713
 40
28.02224996387548
 40
28.02224996387548
 40
28.02224996387548
 40
28.02224996387548
 10
106.9284793288175
 20
187.5012430508674
 30
0.0
 10
105.7169212144537
 20
185.9980459030207
 30
0.0
 10
103.5885246179839
 20
183.3573143893038
 30
0.0
 10
104.1118290232582
 20
178.369320779574
 30
0.0
 10
108.1688383064347
 20
175.933451437146
 30
0.0
 10
113.5223654753158
 20
177.9993401485692
 30
0.0
 10
112.8021303271526
 20
183.6156555417613
 30
0.0
 10
110.8646668840829
 20
186.0083050885119
 30
0.0
 10
109.6610507023315
 20
187.4946978883505
 30
0.0
 11
106.9284793288175
 21
187.5012430508674
 31
0.0
 11
104.1128116547897
 21
182.6144411092626
 31
0.0
 11
104.8244681488104
 21
178.4062115709638
 31
0.0
 11
107.4618682296059
 21
176.8137049642589
 31
0.0
 11
112.7803103475123
 21
179.1323612546998
 31
0.0
 11
112.6948597194286
 21
182.6279206658515
 31
0.0
 11
109.6610507023315
 21
187.4946978883505
 31
0.0
  0
SPLINE
  5
65BF
102
{ACAD_REACTORS
330
668C
102
}
330
2
100
AcDbEntity
  8
KIJUN
100
AcDbSpline
210
0.0
220
0.0
230
1.0
 70
     8
 71
     3
 72
    13
 73
     9
 74
     7
 42
0.0000000001
 43
0.0000000001
 44
0.0000000001
 40
0.0
 40
0.0
 40
0.0
 40
0.0
 40
5.639930643814395
 40
9.907910354695481
 40
12.98881224839089
 40
18.79070793469247
 40
22.28731163067095
 40
28.02224996387513
 40
28.02224996387513
 40
28.02224996387513
 40
28.02224996387513
 10
109.6815901541672
 20
196.0698124053942
 30
0.0
 10
110.893148268531
 20
197.5730095532409
 30
0.0
 10
113.0215448650007
 20
200.2137410669578
 30
0.0
 10
112.4982404597265
 20
205.2017346766875
 30
0.0
 10
108.4412311765503
 20
207.6376040191156
 30
0.0
 10
103.0877040076692
 20
205.5717153076925
 30
0.0
 10
103.8079391558323
 20
199.9553999145003
 30
0.0
 10
105.745402598902
 20
197.5627503677496
 30
0.0
 10
106.9490187806534
 20
196.0763575679111
 30
0.0
 11
109.6815901541672
 21
196.0698124053942
 31
0.0
 11
112.4972578281949
 21
200.956614346999
 31
0.0
 11
111.7856013341743
 21
205.1648438852978
 31
0.0
 11
109.1482012533793
 21
206.7573504920026
 31
0.0
 11
103.8297591354726
 21
204.4386942015617
 31
0.0
 11
103.9152097635563
 21
200.9431347904101
 31
0.0
 11
106.9490187806534
 21
196.0763575679111
 31
0.0
  0
ARC
  5
65C0
102
{ACAD_REACTORS
330
668C
102
}
330
2
100
AcDbEntity
  8
KIJUN
100
AcDbCircle
 10
108.1681785312271
 20
182.2439801441634
 30
0.0
 40
6.988815367419107
100
AcDbArc
 50
198.2661643731045
 51
344.3939973192696
  0
ARC
  5
65C1
102
{ACAD_REACTORS
330
668C
102
}
330
2
100
AcDbEntity
  8
KIJUN
100
AcDbCircle
 10
108.4418909517578
 20
201.3270753120981
 30
0.0
 40
6.988815367419107
100
AcDbArc
 50
18.26616437310434
 51
164.3939973192697
  0
CIRCLE
  5
65C2
102
{ACAD_REACTORS
330
668C
102
}
330
2
100
AcDbEntity
  8
KIJUN
100
AcDbCircle
 10
108.3050347414923
 20
191.7855277281309
 30
0.0
 40
4.5
  0
SPLINE
  5
65C3
102
{ACAD_REACTORS
330
668C
102
}
330
2
100
AcDbEntity
  8
KIJUN
100
AcDbSpline
210
0.0
220
0.0
230
1.0
 70
     8
 71
     3
 72
     9
 73
     5
 74
     3
 42
0.0000000001
 43
0.0000000001
 44
0.0000000001
 40
0.0
 40
0.0
 40
0.0
 40
0.0
 40
3.6951439449307
 40
7.201775807965749
 40
7.201775807965749
 40
7.201775807965749
 40
7.201775807965749
 10
108.3244494079931
 20
187.2855696093564
 30
0.0
 10
108.165741371163
 20
186.0547930680336
 30
0.0
 10
107.8564219732701
 20
183.6560294873967
 30
0.0
 10
108.3254543361566
 20
181.2844347979149
 30
0.0
 10
108.5538318741901
 20
180.1296766207521
 30
0.0
 11
108.3244494079931
 21
187.2855696093564
 31
0.0
 11
108.0532335450693
 21
183.6003924454393
 31
0.0
 11
108.5538318741901
 21
180.1296766207521
 31
0.0
  0
SPLINE
  5
65C4
102
{ACAD_REACTORS
330
668C
102
}
330
2
100
AcDbEntity
  8
KIJUN
100
AcDbSpline
210
0.0
220
0.0
230
1.0
 70
     8
 71
     3
 72
    13
 73
     9
 74
     7
 42
0.0000000001
 43
0.0000000001
 44
0.0000000001
 40
0.0
 40
0.0
 40
0.0
 40
0.0
 40
5.639930643814334
 40
9.907910354695545
 40
12.98881224839112
 40
18.79070793469265
 40
22.28731163067121
 40
28.02224996387543
 40
28.02224996387543
 40
28.02224996387543
 40
28.02224996387543
 10
111.3270564027095
 20
188.4512534324055
 30
0.0
 10
112.0230842624591
 20
186.6504147532821
 30
0.0
 10
113.2458265396772
 20
183.4868034745524
 30
0.0
 10
117.8272079222548
 20
181.4460015785673
 30
0.0
 10
121.9652372946854
 20
183.7415400099734
 30
0.0
 10
122.8528887736421
 20
189.4107748937863
 30
0.0
 10
117.6288993933904
 20
191.5951906553743
 30
0.0
 10
114.5880723820161
 20
191.1136228681477
 30
0.0
 10
112.699010366478
 20
190.8144570782643
 30
0.0
 11
111.3270564027095
 21
188.4512534324055
 31
0.0
 11
114.1513171903884
 21
183.5694127272805
 31
0.0
 11
118.1515791225217
 21
182.0816105607212
 31
0.0
 11
120.8494303400202
 21
183.5694127272805
 31
0.0
 11
121.5006361488072
 21
189.3346468551652
 31
0.0
 11
118.4306675842701
 21
191.0084241460512
 31
0.0
 11
112.699010366478
 21
190.8144570782643
 31
0.0
  0
SPLINE
  5
65C5
102
{ACAD_REACTORS
330
668C
102
}
330
2
100
AcDbEntity
  8
KIJUN
100
AcDbSpline
210
0.0
220
0.0
230
1.0
 70
     8
 71
     3
 72
     9
 73
     5
 74
     3
 42
0.0000000001
 43
0.0000000001
 44
0.0000000001
 40
0.0
 40
0.0
 40
0.0
 40
0.0
 40
3.69514394493067
 40
7.201775807965824
 40
7.201775807965824
 40
7.201775807965824
 40
7.201775807965824
 10
112.2118201215673
 20
189.5523622631391
 30
0.0
 10
113.1983498543198
 20
188.799528800798
 30
0.0
 10
115.1210803538779
 20
187.332268554021
 30
0.0
 10
117.4094577838926
 20
186.5526651507369
 30
0.0
 10
118.5236964695602
 20
186.1730668117462
 30
0.0
 11
112.2118201215673
 21
189.5523622631391
 31
0.0
 11
115.267669231504
 21
187.4748938539792
 31
0.0
 11
118.5236964695602
 21
186.1730668117462
 31
0.0
  0
SPLINE
  5
65C6
102
{ACAD_REACTORS
330
668C
102
}
330
2
100
AcDbEntity
  8
KIJUN
100
AcDbSpline
210
0.0
220
0.0
230
1.0
 70
     8
 71
     3
 72
    13
 73
     9
 74
     7
 42
0.0000000001
 43
0.0000000001
 44
0.0000000001
 40
0.0
 40
0.0
 40
0.0
 40
0.0
 40
5.639930643814331
 40
9.907910354695399
 40
12.98881224839108
 40
18.79070793469261
 40
22.28731163067105
 40
28.02224996387546
 40
28.02224996387546
 40
28.02224996387546
 40
28.02224996387546
 10
112.7036118153844
 20
192.7355381096693
 30
0.0
 10
114.6111977894978
 20
192.4378965783923
 30
0.0
 10
117.9623366631856
 20
191.9150168133796
 30
0.0
 10
122.0204136404887
 20
194.8622085271244
 30
0.0
 10
122.1014337297433
 20
199.5936163009584
 30
0.0
 10
117.6355580398186
 20
203.1969624733483
 30
0.0
 10
113.1318038077303
 20
199.7650628417442
 30
0.0
 10
112.0284402394256
 20
196.8908455077668
 30
0.0
 10
111.3429944056388
 20
195.1052869180448
 30
0.0
 11
112.7036118153844
 21
192.7355381096693
 31
0.0
 11
118.343540277091
 21
192.7404993461489
 31
0.0
 11
121.6321457152035
 21
195.4609267178885
 31
0.0
 11
121.6925968519069
 21
198.5412354911527
 31
0.0
 11
117.0253605427872
 21
201.9878133285965
 31
0.0
 11
114.0408426063341
 21
200.1660312083309
 31
0.0
 11
111.3429944056388
 21
195.1052869180448
 31
0.0
  0
SPLINE
  5
65C7
102
{ACAD_REACTORS
330
668C
102
}
330
2
100
AcDbEntity
  8
KIJUN
100
AcDbSpline
210
0.0
220
0.0
230
1.0
 70
     8
 71
     3
 72
     9
 73
     5
 74
     3
 42
0.0000000001
 43
0.0000000001
 44
0.0000000001
 40
0.0
 40
0.0
 40
0.0
 40
0.0
 40
3.695143944930606
 40
7.201775807965844
 40
7.201775807965844
 40
7.201775807965844
 40
7.201775807965844
 10
112.1924054550666
 20
194.0523203819136
 30
0.0
 10
113.3376432246492
 20
194.5302634608953
 30
0.0
 10
115.5696931221001
 20
195.4617667947553
 30
0.0
 10
117.3890381892284
 20
197.0537580809529
 30
0.0
 10
118.2748993368625
 20
197.8289179191251
 30
0.0
 11
112.1924054550666
 21
194.0523203819136
 31
0.0
 11
115.519470427927
 21
195.6600291366708
 31
0.0
 11
118.2748993368625
 21
197.8289179191251
 31
0.0
  0
SPLINE
  5
65C8
102
{ACAD_REACTORS
330
668C
102
}
330
2
100
AcDbEntity
  8
KIJUN
100
AcDbSpline
210
0.0
220
0.0
230
1.0
 70
     8
 71
     3
 72
     9
 73
     5
 74
     3
 42
0.0000000001
 43
0.0000000001
 44
0.0000000001
 40
0.0
 40
0.0
 40
0.0
 40
0.0
 40
3.695143944930586
 40
7.201775807965749
 40
7.201775807965749
 40
7.201775807965749
 40
7.201775807965749
 10
108.2856200749918
 20
196.2854858469052
 30
0.0
 10
108.4443281118219
 20
197.516262388228
 30
0.0
 10
108.7536475097148
 20
199.9150259688649
 30
0.0
 10
108.2846151468283
 20
202.2866206583467
 30
0.0
 10
108.0562376087948
 20
203.4413788355096
 30
0.0
 11
108.2856200749918
 21
196.2854858469052
 31
0.0
 11
108.5568359379156
 21
199.9706630108222
 31
0.0
 11
108.0562376087948
 21
203.4413788355096
 31
0.0
  0
LINE
  5
65C9
102
{ACAD_REACTORS
330
668C
102
}
330
2
100
AcDbEntity
  8
KIJUN
100
AcDbLine
 10
110.5550347414923
 20
187.8884134111009
 30
0.0
 11
114.8993469409586
 21
180.3638439576842
 31
0.0
  0
LINE
  5
65CA
102
{ACAD_REACTORS
330
668C
102
}
330
2
100
AcDbEntity
  8
KIJUN
100
AcDbLine
 10
110.5550347414923
 20
187.8884134111009
 30
0.0
 11
115.0785450716464
 21
180.0534636907118
 31
0.0
  0
LINE
  5
65CB
102
{ACAD_REACTORS
330
668C
102
}
330
2
100
AcDbEntity
  8
KIJUN
100
AcDbLine
 10
112.8050347414923
 20
191.7855277281308
 30
0.0
 11
121.4936591404246
 21
191.7855277281308
 31
0.0
  0
ARC
  5
65CC
102
{ACAD_REACTORS
330
668C
102
}
330
2
100
AcDbEntity
  8
KIJUN
100
AcDbCircle
 10
116.4998292354935
 20
186.8962329813917
 30
0.0
 40
6.988815367419107
100
AcDbArc
 50
258.2661643731024
 51
44.39399731926988
  0
LINE
  5
65CD
102
{ACAD_REACTORS
330
668C
102
}
330
2
100
AcDbEntity
  8
KIJUN
100
AcDbLine
 10
112.8050347414921
 20
191.785527728131
 30
0.0
 11
121.8520554018
 21
191.7855277281312
 31
0.0
  0
LINE
  5
65CE
102
{ACAD_REACTORS
330
668C
102
}
330
2
100
AcDbEntity
  8
KIJUN
100
AcDbLine
 10
110.5550347414923
 20
195.6826420451609
 30
0.0
 11
114.8993469409584
 21
203.2072114985774
 31
0.0
  0
ARC
  5
65CF
102
{ACAD_REACTORS
330
668C
102
}
330
2
100
AcDbEntity
  8
KIJUN
100
AcDbCircle
 10
116.6366854457587
 20
196.4377805653594
 30
0.0
 40
6.988815367419107
100
AcDbArc
 50
318.2661643731095
 51
104.3939973192696
  0
LINE
  5
65D0
102
{ACAD_REACTORS
330
668C
102
}
330
2
100
AcDbEntity
  8
KIJUN
100
AcDbLine
 10
110.5550347414923
 20
195.6826420451607
 30
0.0
 11
115.078545071646
 21
203.5175917655499
 31
0.0
  0
SPLINE
  5
65D1
102
{ACAD_REACTORS
330
668C
102
}
330
2
100
AcDbEntity
  8
KIJUN
100
AcDbSpline
210
0.0
220
0.0
230
1.0
 70
     8
 71
     3
 72
    13
 73
     9
 74
     7
 42
0.0000000001
 43
0.0000000001
 44
0.0000000001
 40
0.0
 40
0.0
 40
0.0
 40
0.0
 40
5.639930643814103
 40
9.907910354695346
 40
12.98881224839102
 40
18.79070793469256
 40
22.2873116306712
 40
28.0222499638755
 40
28.0222499638755
 40
28.0222499638755
 40
28.0222499638755
 10
103.9064576676
 20
190.8355173465926
 30
0.0
 10
101.9988716934867
 20
191.1331588778695
 30
0.0
 10
98.647732819799
 20
191.6560386428822
 30
0.0
 10
94.58965584249574
 20
188.7088469291376
 30
0.0
 10
94.50863575324115
 20
183.9774391553033
 30
0.0
 10
98.97451144316598
 20
180.3740929829137
 30
0.0
 10
103.4782656752543
 20
183.8059926145175
 30
0.0
 10
104.5816292435589
 20
186.680209948495
 30
0.0
 10
105.2670750773456
 20
188.465768538217
 30
0.0
 11
103.9064576676
 21
190.8355173465926
 31
0.0
 11
98.26652920589367
 21
190.830556110113
 31
0.0
 11
94.97792376778102
 21
188.1101287383734
 31
0.0
 11
94.91747263107754
 21
185.0298199651091
 31
0.0
 11
99.58470894019729
 21
181.5832421276653
 31
0.0
 11
102.5692268766506
 21
183.405024247931
 31
0.0
 11
105.2670750773456
 21
188.465768538217
 31
0.0
  0
SPLINE
  5
65D2
102
{ACAD_REACTORS
330
668C
102
}
330
2
100
AcDbEntity
  8
KIJUN
100
AcDbSpline
210
0.0
220
0.0
230
1.0
 70
     8
 71
     3
 72
     9
 73
     5
 74
     3
 42
0.0000000001
 43
0.0000000001
 44
0.0000000001
 40
0.0
 40
0.0
 40
0.0
 40
0.0
 40
3.695143944930704
 40
7.201775807965942
 40
7.201775807965942
 40
7.201775807965942
 40
7.201775807965942
 10
104.4176640279179
 20
189.5187350743482
 30
0.0
 10
103.2724262583353
 20
189.0407919953664
 30
0.0
 10
101.0403763608843
 20
188.1092886615063
 30
0.0
 10
99.22103129375608
 20
186.5172973753087
 30
0.0
 10
98.33517014612198
 20
185.7421375371365
 30
0.0
 11
104.4176640279179
 21
189.5187350743482
 31
0.0
 11
101.0905990550575
 21
187.9110263195908
 31
0.0
 11
98.33517014612198
 21
185.7421375371365
 31
0.0
  0
SPLINE
  5
65D3
102
{ACAD_REACTORS
330
668C
102
}
330
2
100
AcDbEntity
  8
KIJUN
100
AcDbSpline
210
0.0
220
0.0
230
1.0
 70
     8
 71
     3
 72
     9
 73
     5
 74
     3
 42
0.0000000001
 43
0.0000000001
 44
0.0000000001
 40
0.0
 40
0.0
 40
0.0
 40
0.0
 40
3.69514394493067
 40
7.201775807965824
 40
7.201775807965824
 40
7.201775807965824
 40
7.201775807965824
 10
104.3982493614173
 20
194.0186931931225
 30
0.0
 10
103.4117196286649
 20
194.7715266554637
 30
0.0
 10
101.4889891291068
 20
196.2387869022406
 30
0.0
 10
99.20061169909207
 20
197.0183903055247
 30
0.0
 10
98.08637301342447
 20
197.3979886445154
 30
0.0
 11
104.3982493614173
 21
194.0186931931225
 31
0.0
 11
101.3424002514807
 21
196.0961616022824
 31
0.0
 11
98.08637301342447
 21
197.3979886445154
 31
0.0
  0
SPLINE
  5
65D4
102
{ACAD_REACTORS
330
668C
102
}
330
2
100
AcDbEntity
  8
KIJUN
100
AcDbSpline
210
0.0
220
0.0
230
1.0
 70
     8
 71
     3
 72
    13
 73
     9
 74
     7
 42
0.0000000001
 43
0.0000000001
 44
0.0000000001
 40
0.0
 40
0.0
 40
0.0
 40
0.0
 40
5.639930643814334
 40
9.907910354695545
 40
12.98881224839112
 40
18.79070793469265
 40
22.28731163067121
 40
28.02224996387543
 40
28.02224996387543
 40
28.02224996387543
 40
28.02224996387543
 10
105.2830130802751
 20
195.1198020238561
 30
0.0
 10
104.5869852205255
 20
196.9206407029796
 30
0.0
 10
103.3642429433075
 20
200.0842519817092
 30
0.0
 10
98.78286156072988
 20
202.1250538776943
 30
0.0
 10
94.64483218829935
 20
199.8295154462883
 30
0.0
 10
93.7571807093426
 20
194.1602805624753
 30
0.0
 10
98.98117008959435
 20
191.9758648008873
 30
0.0
 10
102.0219971009686
 20
192.4574325881139
 30
0.0
 10
103.9110591165067
 20
192.7565983779973
 30
0.0
 11
105.2830130802751
 21
195.1198020238561
 31
0.0
 11
102.4587522925962
 21
200.0016427289811
 31
0.0
 11
98.45849036046297
 21
201.4894448955405
 31
0.0
 11
95.76063914296446
 21
200.0016427289811
 31
0.0
 11
95.10943333417754
 21
194.2364086010964
 31
0.0
 11
98.17940189871457
 21
192.5626313102105
 31
0.0
 11
103.9110591165067
 21
192.7565983779973
 31
0.0
  0
LINE
  5
65D5
102
{ACAD_REACTORS
330
668C
102
}
330
2
100
AcDbEntity
  8
KIJUN
100
AcDbLine
 10
103.8050347414923
 20
191.7855277281309
 30
0.0
 11
94.75801408118469
 21
191.7855277281306
 31
0.0
  0
LINE
  5
65D6
102
{ACAD_REACTORS
330
668C
102
}
330
2
100
AcDbEntity
  8
KIJUN
100
AcDbLine
 10
106.0550347414923
 20
187.8884134111009
 30
0.0
 11
101.7107225420261
 21
180.3638439576842
 31
0.0
  0
ARC
  5
65D7
102
{ACAD_REACTORS
330
668C
102
}
330
2
100
AcDbEntity
  8
KIJUN
100
AcDbCircle
 10
99.97338403722551
 20
187.1332748909024
 30
0.0
 40
6.988815367419107
100
AcDbArc
 50
138.2661643731094
 51
284.3939973192696
  0
LINE
  5
65D8
102
{ACAD_REACTORS
330
668C
102
}
330
2
100
AcDbEntity
  8
KIJUN
100
AcDbLine
 10
106.0550347414926
 20
187.8884134111009
 30
0.0
 11
101.5315244113389
 21
180.0534636907117
 31
0.0
  0
LINE
  5
65D9
102
{ACAD_REACTORS
330
668C
102
}
330
2
100
AcDbEntity
  8
KIJUN
100
AcDbLine
 10
106.0550347414923
 20
195.6826420451607
 30
0.0
 11
101.7107225420263
 21
203.2072114985773
 31
0.0
  0
ARC
  5
65DA
102
{ACAD_REACTORS
330
668C
102
}
330
2
100
AcDbEntity
  8
KIJUN
100
AcDbCircle
 10
100.1102402474912
 20
196.67482247487
 30
0.0
 40
6.988815367419107
100
AcDbArc
 50
78.2661643731024
 51
224.3939973192699
  0
LINE
  5
65DB
102
{ACAD_REACTORS
330
668C
102
}
330
2
100
AcDbEntity
  8
KIJUN
100
AcDbLine
 10
103.8050347414923
 20
191.7855277281309
 30
0.0
 11
95.11641034256014
 21
191.7855277281309
 31
0.0
  0
LINE
  5
65DC
102
{ACAD_REACTORS
330
668C
102
}
330
2
100
AcDbEntity
  8
KIJUN
100
AcDbLine
 10
106.0550347414923
 20
195.6826420451607
 30
0.0
 11
101.5315244113383
 21
203.5175917655498
 31
0.0
  0
ARC
  5
65DD
102
{ACAD_REACTORS
330
668C
102
}
330
2
100
AcDbEntity
  8
KIJUN
100
AcDbCircle
 10
108.29641811135
 20
160.5461434192088
 30
0.0
 40
3.971955100511459
100
AcDbArc
 50
58.49351013297614
 51
188.8866249189812
  0
ARC
  5
65DE
102
{ACAD_REACTORS
330
668C
102
}
330
2
100
AcDbEntity
  8
KIJUN
100
AcDbCircle
 10
123.7173952347013
 20
168.8621190498237
 30
0.0
 40
14.22660724414222
100
AcDbArc
 50
150.1991443190531
 51
200.2735722994871
  0
LINE
  5
65DF
102
{ACAD_REACTORS
330
668C
102
}
330
2
100
AcDbEntity
  8
KIJUN
100
AcDbLine
 10
93.37214254130708
 20
180.9325567742734
 30
0.0
 11
104.3721425413071
 21
159.9325567742734
 31
0.0
  0
ARC
  5
65E1
102
{ACAD_REACTORS
330
668C
102
}
330
2
100
AcDbEntity
  8
KIJUN
100
AcDbCircle
 10
105.2732774966143
 20
244.871535314497
 30
0.0
 40
8.135574433401892
100
AcDbArc
 50
82.23738204438758
 51
193.7881929639733
  0
ARC
  5
65E2
102
{ACAD_REACTORS
330
668C
102
}
330
2
100
AcDbEntity
  8
KIJUN
100
AcDbCircle
 10
91.53322756545822
 20
225.7939164558567
 30
0.0
 40
21.60895996981309
100
AcDbArc
 50
127.5213380559642
 51
165.3339542581076
  0
ARC
  5
65E3
102
{ACAD_REACTORS
330
668C
102
}
330
2
100
AcDbEntity
  8
KIJUN
100
AcDbCircle
 10
104.3882460780874
 20
212.5696626539946
 30
0.0
 40
34.20999618540271
100
AcDbArc
 50
134.5892991285356
 51
186.1030527553536
  0
SPLINE
  5
65E4
102
{ACAD_REACTORS
330
668C
102
}
330
2
100
AcDbEntity
  8
KIJUN
100
AcDbSpline
210
0.0
220
0.0
230
1.0
 70
     8
 71
     3
 72
    13
 73
     9
 74
     7
 42
0.0000000001
 43
0.0000000001
 44
0.0000000001
 40
0.0
 40
0.0
 40
0.0
 40
0.0
 40
5.22504753884036
 40
11.08732878463038
 40
13.28611225942159
 40
14.24252700950834
 40
18.88217838101829
 40
23.72311376418765
 40
23.72311376418765
 40
23.72311376418765
 40
23.72311376418765
 10
84.37214254130708
 20
148.9325567742734
 30
0.0
 10
82.77880905455772
 20
148.3669080347125
 30
0.0
 10
79.39782312096889
 20
147.166625452496
 30
0.0
 10
74.68583264679864
 20
145.1312055304674
 30
0.0
 10
75.68758383146115
 20
140.2863556487806
 30
0.0
 10
78.15573716100914
 20
142.4753138813053
 30
0.0
 10
80.95797415448783
 20
138.1781706733017
 30
0.0
 10
83.88007321198996
 20
137.3535969639637
 30
0.0
 10
85.37214254130708
 20
136.9325567742734
 30
0.0
 11
84.37214254130708
 21
148.9325567742734
 31
0.0
 11
79.46972801198262
 21
147.12494687006
 31
0.0
 11
75.37214254130709
 21
142.9325567742734
 31
0.0
 11
76.14055731061194
 21
140.8724141793715
 31
0.0
 11
76.9816105242719
 21
141.3277806976573
 31
0.0
 11
80.99413797754777
 21
138.9984056128198
 31
0.0
 11
85.37214254130708
 21
136.9325567742734
 31
0.0
  0
ARC
  5
65E5
102
{ACAD_REACTORS
330
668C
102
}
330
2
100
AcDbEntity
  8
KIJUN
100
AcDbCircle
 10
75.41556539022713
 20
165.7694856622213
 30
0.0
 40
15.9526293319865
100
AcDbArc
 50
40.40131346276061
 51
71.8982194120965
  0
ARC
  5
65E6
102
{ACAD_REACTORS
330
668C
102
}
330
2
100
AcDbEntity
  8
KIJUN
100
AcDbCircle
 10
78.5361680982553
 20
171.3701158831561
 30
0.0
 40
7.608506128083107
100
AcDbArc
 50
83.69196711482041
 51
160.3187993013417
  0
ARC
  5
65E7
102
{ACAD_REACTORS
330
668C
102
}
330
2
100
AcDbEntity
  8
KIJUN
100
AcDbCircle
 10
81.324114286655
 20
179.2065709015994
 30
0.0
 40
1.971110711403814
100
AcDbArc
 50
118.8790400420164
 51
187.990857603825
  0
LINE
  5
65E8
102
{ACAD_REACTORS
330
668C
102
}
330
2
100
AcDbEntity
  8
KIJUN
100
AcDbLine
 10
70.37214254130709
 20
208.9325567742734
 30
0.0
 11
70.37214254130709
 21
205.8087527758956
 31
0.0
  0
ARC
  5
65E9
102
{ACAD_REACTORS
330
668C
102
}
330
2
100
AcDbEntity
  8
KIJUN
100
AcDbCircle
 10
110.198816943574
 20
207.370654775083
 30
0.0
 40
39.85728956915231
100
AcDbArc
 50
177.7541545427183
 51
221.553493573382
  0
LINE
  5
65EA
102
{ACAD_REACTORS
330
668C
102
}
330
2
100
AcDbEntity
  8
KIJUN
100
AcDbLine
 10
69.37214254130708
 20
208.9325567742734
 30
0.0
 11
70.37214254130709
 21
208.9325567742734
 31
0.0
  0
ARC
  5
65EB
102
{ACAD_REACTORS
330
668C
102
}
330
2
100
AcDbEntity
  8
KIJUN
100
AcDbCircle
 10
82.30155909821133
 20
161.6227512553054
 30
0.0
 40
3.00962618700598
100
AcDbArc
 50
129.8725335720654
 51
193.2575687820908
  0
SPLINE
  5
65EC
102
{ACAD_REACTORS
330
668C
102
}
330
2
100
AcDbEntity
  8
KIJUN
100
AcDbSpline
210
0.0
220
0.0
230
1.0
 70
     8
 71
     3
 72
    10
 73
     6
 74
     4
 42
0.0000000001
 43
0.0000000001
 44
0.0000000001
 40
0.0
 40
0.0
 40
0.0
 40
0.0
 40
3.92526462736175
 40
8.001005475020612
 40
13.53604972191602
 40
13.53604972191602
 40
13.53604972191602
 40
13.53604972191602
 10
71.37214254130708
 20
173.9325567742734
 30
0.0
 10
72.0801631140879
 20
172.8112986176189
 30
0.0
 10
73.52334644490304
 20
170.5257985298622
 30
0.0
 10
77.5307799896122
 20
168.186865028901
 30
0.0
 10
79.33376642531175
 20
165.4872939826779
 30
0.0
 10
80.37214254130708
 20
163.9325567742734
 30
0.0
 11
71.37214254130708
 21
173.9325567742734
 31
0.0
 11
73.7189737739393
 21
170.7861166333587
 31
0.0
 11
76.91128423012447
 21
168.2521834439068
 31
0.0
 11
80.37214254130708
 21
163.9325567742734
 31
0.0
  0
ARC
  5
65ED
102
{ACAD_REACTORS
330
668C
102
}
330
2
100
AcDbEntity
  8
KIJUN
100
AcDbCircle
 10
67.6663973591651
 20
248.2268115921313
 30
0.0
 40
6.919290792720198
100
AcDbArc
 50
14.27169261591432
 51
75.72830738409303
  0
ARC
  5
65EE
102
{ACAD_REACTORS
330
668C
102
}
330
2
100
AcDbEntity
  8
KIJUN
100
AcDbCircle
 10
78.49169214839867
 20
239.6390733099705
 30
0.0
 40
3.295652505679483
100
AcDbArc
 50
304.7910404163844
 51
92.07885722945059
  0
ARC
  5
65EF
102
{ACAD_REACTORS
330
668C
102
}
330
2
100
AcDbEntity
  8
KIJUN
100
AcDbCircle
 10
89.49075743647586
 20
237.2902485792155
 30
0.0
 40
19.62055371387402
100
AcDbArc
 50
139.8782503335227
 51
169.4048247100872
  0
ARC
  5
65F0
102
{ACAD_REACTORS
330
668C
102
}
330
2
100
AcDbEntity
  8
KIJUN
100
AcDbCircle
 10
74.48737453411308
 20
245.3555464844482
 30
0.0
 40
4.578460615243092
100
AcDbArc
 50
328.047573911579
 51
91.44218868231282
  0
SPLINE
  5
65F1
102
{ACAD_REACTORS
330
668C
102
}
330
2
100
AcDbEntity
  8
KIJUN
100
AcDbSpline
210
0.0
220
0.0
230
1.0
 70
     8
 71
     3
 72
    15
 73
    11
 74
     9
 42
0.0000000001
 43
0.0000000001
 44
0.0000000001
 40
0.0
 40
0.0
 40
0.0
 40
0.0
 40
5.873533026570452
 40
15.10517855938782
 40
18.31638924405582
 40
20.40291997147656
 40
25.22051463383857
 40
29.01487831009454
 40
30.69887008024299
 40
31.42933602332228
 40
31.42933602332228
 40
31.42933602332228
 40
31.42933602332228
 10
95.36411624628135
 20
80.93255677427363
 30
0.0
 10
96.68341353047265
 20
82.40303051225984
 30
0.0
 10
100.0762983513249
 20
86.18470131902844
 30
0.0
 10
105.0577818401483
 20
89.38432249794614
 30
0.0
 10
111.2885392684276
 20
89.15321482146769
 30
0.0
 10
111.0844852261398
 20
85.17742778384192
 30
0.0
 10
108.5193036278672
 20
82.09985631774037
 30
0.0
 10
104.9201735160496
 20
82.04442780371781
 30
0.0
 10
103.0973257565439
 20
80.8089978244569
 30
0.0
 10
102.2826825684458
 20
80.90385795208669
 30
0.0
 10
102.0362217994677
 20
80.93255677427363
 30
0.0
 11
95.36411624628135
 21
80.93255677427363
 31
0.0
 11
99.43015274095046
 21
85.17115765643188
 31
0.0
 11
107.7695787327082
 21
89.130608801677
 31
0.0
 11
110.8968603518039
 21
88.40123664962334
 31
0.0
 11
111.0011041150453
 21
86.31731157556329
 31
0.0
 11
107.9780600035635
 21
82.56625537352443
 31
0.0
 11
104.3295658238892
 21
81.52429283649485
 31
0.0
 11
102.7659218865281
 21
80.89911612621085
 31
0.0
 11
102.0362217994677
 21
80.93255677427363
 31
0.0
  0
SPLINE
  5
65F2
102
{ACAD_REACTORS
330
668C
102
}
330
2
100
AcDbEntity
  8
KIJUN
100
AcDbSpline
210
0.0
220
0.0
230
1.0
 70
     8
 71
     3
 72
    16
 73
    12
 74
    10
 42
0.0000000001
 43
0.0000000001
 44
0.0000000001
 40
0.0
 40
0.0
 40
0.0
 40
0.0
 40
3.868797244487053
 40
8.653329884591974
 40
10.95031879849484
 40
14.20853656616641
 40
17.68038758045992
 40
20.27428602841576
 40
29.43136816522158
 40
39.46675533442667
 40
46.25812939422898
 40
46.25812939422898
 40
46.25812939422898
 40
46.25812939422898
 10
122.482440217788
 20
81.88646265106399
 30
0.0
 10
121.3113966209273
 20
81.42779343627688
 30
0.0
 10
118.6921261054422
 20
80.40188906015186
 30
0.0
 10
113.7344648767367
 20
82.38913014509213
 30
0.0
 10
115.6079636807304
 20
86.60907481495033
 30
0.0
 10
119.0422273818959
 20
84.97719055250266
 30
0.0
 10
122.1183334113351
 20
87.08433010784267
 30
0.0
 10
122.4562851397639
 20
92.51780643778067
 30
0.0
 10
116.4292150021528
 20
97.96719067572395
 30
0.0
 10
108.1006360621601
 20
101.883619743624
 30
0.0
 10
102.6732586673462
 20
99.83378210536148
 30
0.0
 10
100.4827390807038
 20
99.00645627754238
 30
0.0
 11
122.482440217788
 21
81.88646265106399
 31
0.0
 11
118.7097658250384
 21
81.02942120210036
 31
0.0
 11
114.6575126764803
 21
83.57323664435057
 31
0.0
 11
115.6230332980801
 21
85.65744584686797
 31
0.0
 11
118.8812510657517
 21
85.65744584686797
 31
0.0
 11
121.7964992549357
 21
87.54293715178301
 31
0.0
 11
122.1394697363619
 21
90.11406149867445
 31
0.0
 11
116.4804585987069
 21
97.31321049033352
 31
0.0
 11
107.0487739712412
 21
100.7413762861888
 31
0.0
 11
100.4827390807038
 21
99.00645627754238
 31
0.0
  0
SPLINE
  5
65F3
102
{ACAD_REACTORS
330
668C
102
}
330
2
100
AcDbEntity
  8
KIJUN
100
AcDbSpline
210
0.0
220
0.0
230
1.0
 70
     8
 71
     3
 72
    15
 73
    11
 74
     9
 42
0.0000000001
 43
0.0000000001
 44
0.0000000001
 40
0.0
 40
0.0
 40
0.0
 40
0.0
 40
4.0
 40
8.833337037316109
 40
11.42835834204736
 40
14.1977155178818
 40
16.96189702831951
 40
19.99504547538276
 40
24.90553699716341
 40
28.18107648419011
 40
28.18107648419011
 40
28.18107648419011
 40
28.18107648419011
 10
109.3721425413073
 20
76.93255677427362
 30
0.0
 10
109.3441754772253
 20
78.22506917165845
 30
0.0
 10
109.2824148514803
 20
81.07936857941087
 30
0.0
 10
109.7318773657868
 20
85.54486020828969
 30
0.0
 10
113.9366638801431
 20
86.50273695480327
 30
0.0
 10
115.3485151376463
 20
83.00878191546598
 30
0.0
 10
112.1680123497606
 20
80.87899542615437
 30
0.0
 10
115.9463500572128
 20
77.50314983174543
 30
0.0
 10
119.8678077547969
 20
79.14565074743035
 30
0.0
 10
121.7352187196781
 20
81.103181021367
 30
0.0
 10
122.482440217788
 20
81.88646265106411
 30
0.0
 11
109.3721425413073
 21
76.93255677427362
 31
0.0
 11
109.3721425413073
 21
80.93255677427363
 31
0.0
 11
110.9929327017651
 21
85.48603743988042
 31
0.0
 11
113.5652104095229
 21
85.82885366788184
 31
0.0
 11
114.5941218538016
 21
83.2577293209904
 31
0.0
 11
113.2222399280967
 21
80.85801279511281
 31
0.0
 11
115.280062816654
 21
78.62970526219635
 31
0.0
 11
120.0816477507433
 21
79.65815511814764
 31
0.0
 11
122.482440217788
 21
81.88646265106411
 31
0.0
  0
ARC
  5
65F4
102
{ACAD_REACTORS
330
668C
102
}
330
2
100
AcDbEntity
  8
KIJUN
100
AcDbCircle
 10
116.5366993751756
 20
87.65829538449304
 30
0.0
 40
12.89854035774904
100
AcDbArc
 50
236.2579503826025
 51
354.3304373184481
  0
SPLINE
  5
65F5
102
{ACAD_REACTORS
330
668C
102
}
330
2
100
AcDbEntity
  8
KIJUN
100
AcDbSpline
210
0.0
220
0.0
230
1.0
 70
     8
 71
     3
 72
     9
 73
     5
 74
     3
 42
0.0000000001
 43
0.0000000001
 44
0.0000000001
 40
0.0
 40
0.0
 40
0.0
 40
0.0
 40
9.767408027527233
 40
34.90605691089235
 40
34.90605691089235
 40
34.90605691089235
 40
34.90605691089235
 10
105.3721425413068
 20
105.9325567742733
 30
0.0
 10
103.540303117878
 20
103.2288699960227
 30
0.0
 10
96.99380777483362
 20
93.56662958537688
 30
0.0
 10
87.87111803814457
 20
86.16938286990668
 30
0.0
 10
81.30113808458123
 20
80.84203270948785
 30
0.0
 11
105.3721425413068
 21
105.9325567742733
 31
0.0
 11
99.67491042645519
 21
97.99884353230982
 31
0.0
 11
81.30113808458123
 21
80.84203270948785
 31
0.0
  0
SPLINE
  5
65F6
102
{ACAD_REACTORS
330
668C
102
}
330
2
100
AcDbEntity
  8
KIJUN
100
AcDbSpline
210
0.0
220
0.0
230
1.0
 70
     8
 71
     3
 72
    14
 73
    10
 74
     8
 42
0.0000000001
 43
0.0000000001
 44
0.0000000001
 40
0.0
 40
0.0
 40
0.0
 40
0.0
 40
2.577892112159392
 40
5.80441376608948
 40
6.725886018648789
 40
8.69312340479626
 40
13.67445470780475
 40
28.94226713787822
 40
33.86179102658131
 40
33.86179102658131
 40
33.86179102658131
 40
33.86179102658131
 10
100.4827390807038
 20
99.00645627754238
 30
0.0
 10
101.2539123006182
 20
99.06180819190304
 30
0.0
 10
102.9902954613398
 20
99.18643924693395
 30
0.0
 10
106.488939053842
 20
99.77278097638128
 30
0.0
 10
106.1222757841915
 20
97.24505885332867
 30
0.0
 10
102.8508914456151
 20
97.50702730374973
 30
0.0
 10
96.89503455291362
 20
93.12899216647284
 30
0.0
 10
91.42982354536048
 20
86.64430049546407
 30
0.0
 10
86.5150500035283
 20
82.05173533544533
 30
0.0
 10
85.31735133418374
 20
80.93255677427363
 30
0.0
 11
100.4827390807038
 21
99.00645627754238
 31
0.0
 11
103.0493147517327
 21
99.24773840870058
 31
0.0
 11
106.2319745976435
 21
98.71753251613951
 31
0.0
 11
106.0804190229091
 21
97.80860896599699
 31
0.0
 11
104.1859784019546
 21
97.27840365940949
 31
0.0
 11
99.71509933108769
 21
95.08183772959615
 31
0.0
 11
88.87889966546095
 21
84.32624043299858
 31
0.0
 11
85.31735133418374
 21
80.93255677427363
 31
0.0
  0
LINE
  5
65F8
102
{ACAD_REACTORS
330
668C
102
}
330
2
100
AcDbEntity
  8
KIJUN
100
AcDbLine
 10
109.3721425413073
 20
80.93255677427363
 30
0.0
 11
69.37214254130708
 21
80.93255677427363
 31
0.0
  0
ARC
  5
65F9
102
{ACAD_REACTORS
330
668C
102
}
330
2
100
AcDbEntity
  8
KIJUN
100
AcDbCircle
 10
61.88033199942447
 20
75.81503012010898
 30
0.0
 40
28.50547363508706
100
AcDbArc
 50
314.1122338873794
 51
358.2259520113312
  0
ARC
  5
65FA
102
{ACAD_REACTORS
330
668C
102
}
330
2
100
AcDbEntity
  8
KIJUN
100
AcDbCircle
 10
73.34394013002202
 20
77.78680101017233
 30
0.0
 40
27.17849215360504
100
AcDbArc
 50
301.5599967611722
 51
353.9717680887567
  0
ARC
  5
65FB
102
{ACAD_REACTORS
330
668C
102
}
330
2
100
AcDbEntity
  8
KIJUN
100
AcDbCircle
 10
84.37214254130708
 20
66.9401057685767
 30
0.0
 40
9.993961830949011
100
AcDbArc
 50
53.10413514304183
 51
126.8958648569581
  0
LINE
  5
65FC
102
{ACAD_REACTORS
330
668C
102
}
330
2
100
AcDbEntity
  8
KIJUN
100
AcDbLine
 10
91.77726616541736
 20
53.13802235335685
 30
0.0
 11
69.37214254130708
 21
53.13802235335685
 31
0.0
  0
ARC
  5
65FD
102
{ACAD_REACTORS
330
668C
102
}
330
2
100
AcDbEntity
  8
KIJUN
100
AcDbCircle
 10
74.41472531480235
 20
-28.03156790812727
 30
0.0
 40
83.69989088371539
100
AcDbArc
 50
78.31108500447034
 51
93.45393248852005
  0
ARC
  5
65FF
102
{ACAD_REACTORS
330
668C
102
}
330
2
100
AcDbEntity
  8
KIJUN
100
AcDbCircle
 10
95.37214254130731
 20
69.68775896141278
 30
0.0
 40
7.246233787133292
100
AcDbArc
 50
46.36881305610173
 51
133.6311869438982
  0
ARC
  5
6600
102
{ACAD_REACTORS
330
668C
102
}
330
2
100
AcDbEntity
  8
KIJUN
100
AcDbCircle
 10
104.7271798868692
 20
71.14262684235677
 30
0.0
 40
5.773207009113375
100
AcDbArc
 50
41.03111165385434
 51
138.9688883461551
  0
ARC
  5
6602
102
{ACAD_REACTORS
330
668C
102
}
330
2
100
AcDbEntity
  8
KIJUN
100
AcDbCircle
 10
81.89221957914174
 20
79.89510517944643
 30
0.0
 40
27.63915445630612
100
AcDbArc
 50
290.059078506245
 51
353.8468364300992
  0
ARC
  5
6603
102
{ACAD_REACTORS
330
668C
102
}
330
2
100
AcDbEntity
  8
KIJUN
100
AcDbCircle
 10
39.37322192449347
 20
72.90543606855578
 30
0.0
 40
39.05156882421986
100
AcDbArc
 50
333.8071669603667
 51
2.975493362376768
  0
ARC
  5
6604
102
{ACAD_REACTORS
330
668C
102
}
330
2
100
AcDbEntity
  8
KIJUN
100
AcDbCircle
 10
71.38347431606598
 20
64.73354976068868
 30
0.0
 40
12.36370606354136
100
AcDbArc
 50
55.57987807545381
 51
99.36250650623705
  0
ARC
  5
6605
102
{ACAD_REACTORS
330
668C
102
}
330
2
100
AcDbEntity
  8
KIJUN
100
AcDbCircle
 10
104.5403929183728
 20
80.40457350877142
 30
0.0
 40
25.54152965346824
100
AcDbArc
 50
13.53901149530995
 51
88.13385609814165
  0
SPLINE
  5
6606
102
{ACAD_REACTORS
330
668C
102
}
330
2
100
AcDbEntity
  8
KIJUN
100
AcDbSpline
210
0.0
220
0.0
230
1.0
 70
     8
 71
     3
 72
    10
 73
     6
 74
     4
 42
0.0000000001
 43
0.0000000001
 44
0.0000000001
 40
0.0
 40
0.0
 40
0.0
 40
0.0
 40
6.561905920366951
 40
15.64102150261237
 40
20.65446192534567
 40
20.65446192534567
 40
20.65446192534567
 40
20.65446192534567
 10
115.0372981011269
 20
91.70271771318846
 30
0.0
 10
113.1448161944478
 20
92.90503669393286
 30
0.0
 10
108.6338782817604
 20
95.77089567744152
 30
0.0
 10
100.9130227169703
 20
93.84675177552727
 30
0.0
 10
97.7432469495775
 20
90.36813137287335
 30
0.0
 10
96.61559615595047
 20
89.130608801677
 30
0.0
 11
115.0372981011269
 21
91.70271771318846
 31
0.0
 11
109.1247351435875
 21
94.54880425102942
 31
0.0
 11
100.2640903356248
 21
92.56907867840686
 31
0.0
 11
96.61559615595047
 21
89.130608801677
 31
0.0
  0
SPLINE
  5
6607
102
{ACAD_REACTORS
330
668C
102
}
330
2
100
AcDbEntity
  8
KIJUN
100
AcDbSpline
210
0.0
220
0.0
230
1.0
 70
     8
 71
     3
 72
    11
 73
     7
 74
     5
 42
0.0000000001
 43
0.0000000001
 44
0.0000000001
 40
0.0
 40
0.0
 40
0.0
 40
0.0
 40
7.375571291807634
 40
10.11070708648177
 40
15.58178216678657
 40
20.53835838685758
 40
20.53835838685758
 40
20.53835838685758
 40
20.53835838685758
 10
108.0745155559516
 20
89.15315580763342
 30
0.0
 10
111.6574599591016
 20
88.73726897069902
 30
0.0
 10
116.5690932325317
 20
88.16715584684681
 30
0.0
 10
114.1643232597695
 20
93.85411787613589
 30
0.0
 10
111.5379164335202
 20
97.53055147836185
 30
0.0
 10
107.8801181083432
 20
97.79503141418466
 30
0.0
 10
106.1414565752582
 20
97.92074668053022
 30
0.0
 11
108.0745155559516
 21
89.15315580763342
 31
0.0
 11
115.3792983817791
 21
90.17256727903873
 31
0.0
 11
114.5453607871047
 21
92.77746956194619
 31
0.0
 11
111.0011041150453
 21
96.94531159072973
 31
0.0
 11
106.1414565752582
 21
97.92074668053022
 31
0.0
  0
DIMENSION
  5
6608
330
2
100
AcDbEntity
  8
SUNPOU
100
AcDbDimension
  2
*D16
 10
129.372142541307
 20
288.0267221327974
 30
0.0
 11
69.37214254130705
 21
293.5267221327974
 31
0.0
 70
    32
 71
     5
 42
120.0
  3
STANDARD
100
AcDbAlignedDimension
 13
9.372142541307056
 23
254.9325567742736
 33
0.0
 14
129.372142541307
 24
256.0214427853686
 34
0.0
100
AcDbRotatedDimension
1001
ACAD
1000
DSTYLE
1002
{
1070
    41
1040
2.0
1070
    42
1040
10.0
1070
    44
1040
0.0
1070
    73
1070
     0
1070
    74
1070
     0
1070
    77
1070
     1
1070
   140
1040
5.0
1070
   141
1040
0.0
1070
   146
1040
0.064286
1070
   147
1040
3.0
1070
   176
1070
    60
1070
   177
1070
    70
1070
   178
1070
    60
1070
   271
1070
     0
1070
   272
1070
     0
1070
   340
1005
1C
1070
   342
1005
109
1002
}
  0
DIMENSION
  5
6627
330
2
100
AcDbEntity
  8
SUNPOU
100
AcDbDimension
  2
*D17
 10
-30.88864094795693
 20
31.93255677427341
 30
0.0
 11
-36.38864094795693
 21
143.4325567742735
 31
0.0
 70
    32
 71
     5
 42
223.0000000000002
  3
STANDARD
100
AcDbAlignedDimension
 13
9.372142541307056
 23
254.9325567742736
 33
0.0
 14
20.13145285946257
 24
31.9325567742734
 34
0.0
 50
90.0
100
AcDbRotatedDimension
1001
ACAD
1000
DSTYLE
1002
{
1070
    41
1040
2.0
1070
    42
1040
10.0
1070
    44
1040
0.0
1070
    73
1070
     0
1070
    74
1070
     0
1070
    77
1070
     1
1070
   140
1040
5.0
1070
   141
1040
0.0
1070
   146
1040
0.064286
1070
   147
1040
3.0
1070
   176
1070
    60
1070
   177
1070
    70
1070
   178
1070
    60
1070
   271
1070
     0
1070
   272
1070
     0
1070
   340
1005
1C
1070
   342
1005
109
1002
}
  0
ARC
  5
664A
102
{ACAD_REACTORS
330
668C
102
}
330
2
100
AcDbEntity
  8
KIJUN
100
AcDbCircle
 10
103.9661555293642
 20
200.7490594814177
 30
0.0
 40
25.40598701194283
100
AcDbArc
 50
317.1455804094792
 51
70.11221120920554
  0
ARC
  5
664B
102
{ACAD_REACTORS
330
668C
102
}
330
2
100
AcDbEntity
  8
KIJUN
100
AcDbCircle
 10
35.96913628735458
 20
243.9177687036082
 30
0.0
 40
9.705914071745668
100
AcDbArc
 50
111.752511129835
 51
193.8501082818755
  0
ARC
  5
664C
102
{ACAD_REACTORS
330
668C
102
}
330
2
100
AcDbEntity
  8
KIJUN
100
AcDbCircle
 10
47.22268506026249
 20
247.4763111745771
 30
0.0
 40
21.49760251665898
100
AcDbArc
 50
195.8792272002176
 51
226.3065355846258
  0
ARC
  5
664D
102
{ACAD_REACTORS
330
668C
102
}
330
2
100
AcDbEntity
  8
KIJUN
100
AcDbCircle
 10
102.7751487952595
 20
243.9177687036082
 30
0.0
 40
9.705914071745668
100
AcDbArc
 50
346.1498917181243
 51
68.2474888701651
  0
ARC
  5
664E
102
{ACAD_REACTORS
330
668C
102
}
330
2
100
AcDbEntity
  8
KIJUN
100
AcDbCircle
 10
91.52160002235161
 20
247.4763111745771
 30
0.0
 40
21.49760251665898
100
AcDbArc
 50
313.6934644153742
 51
344.1207727997826
  0
ARC
  5
664F
102
{ACAD_REACTORS
330
668C
102
}
330
2
100
AcDbEntity
  8
KIJUN
100
AcDbCircle
 10
41.67134974681122
 20
158.1023087907666
 30
0.0
 40
29.32123667374536
100
AcDbArc
 50
131.9493393557541
 51
194.6381325500246
  0
ARC
  5
6650
102
{ACAD_REACTORS
330
668C
102
}
330
2
100
AcDbEntity
  8
KIJUN
100
AcDbCircle
 10
181.3814691398546
 20
199.1795183453904
 30
0.0
 40
174.9335776870799
100
AcDbArc
 50
196.0916253273677
 51
212.2112286237132
  0
ARC
  5
6651
102
{ACAD_REACTORS
330
668C
102
}
330
2
100
AcDbEntity
  8
KIJUN
100
AcDbCircle
 10
55.48418042284594
 20
117.3235142352389
 30
0.0
 40
85.66504164907625
100
AcDbArc
 50
258.9555126030614
 51
265.4154821579016
  0
ARC
  5
6652
102
{ACAD_REACTORS
330
668C
102
}
330
2
100
AcDbEntity
  8
KIJUN
100
AcDbCircle
 10
48.16691019053392
 20
52.88174274300835
 30
0.0
 40
1.317522578387475
100
AcDbArc
 50
127.1014997486104
 51
232.8457513706662
  0
ARC
  5
6653
102
{ACAD_REACTORS
330
668C
102
}
330
2
100
AcDbEntity
  8
KIJUN
100
AcDbCircle
 10
45.1165579893628
 20
49.59990603639925
 30
0.0
 40
7.992240385423334
100
AcDbArc
 50
286.3928541625954
 51
329.9701594086759
  0
ARC
  5
6655
102
{ACAD_REACTORS
330
668C
102
}
330
2
100
AcDbEntity
  8
KIJUN
100
AcDbCircle
 10
58.44489188941839
 20
67.79330184695108
 30
0.0
 40
19.42681597386258
100
AcDbArc
 50
235.2482259649059
 51
243.6152591738191
  0
ARC
  5
6656
102
{ACAD_REACTORS
330
668C
102
}
330
2
100
AcDbEntity
  8
KIJUN
100
AcDbCircle
 10
46.66591676665311
 20
44.79333176434949
 30
0.0
 40
6.420317643424731
100
AcDbArc
 50
34.80969462541204
 51
60.66138172899719
  0
ARC
  5
6657
102
{ACAD_REACTORS
330
668C
102
}
330
2
100
AcDbEntity
  8
KIJUN
100
AcDbCircle
 10
49.5014961505106
 20
46.94353266878053
 30
0.0
 40
2.868465476656485
100
AcDbArc
 50
332.0748962027693
 51
31.87756568639898
  0
ARC
  5
6658
102
{ACAD_REACTORS
330
668C
102
}
330
2
100
AcDbEntity
  8
KIJUN
100
AcDbCircle
 10
46.73883514871351
 20
29.306280066839
 30
0.0
 40
12.64214941163937
100
AcDbArc
 50
87.12857099945559
 51
128.5304725255996
  0
ARC
  5
6659
102
{ACAD_REACTORS
330
668C
102
}
330
2
100
AcDbEntity
  8
KIJUN
100
AcDbCircle
 10
45.11619893747864
 20
31.73909742701831
 30
0.0
 40
9.731335416542465
100
AcDbArc
 50
129.9797574590229
 51
151.1346891216718
  0
ARC
  5
665A
102
{ACAD_REACTORS
330
668C
102
}
330
2
100
AcDbEntity
  8
KIJUN
100
AcDbCircle
 10
38.24111375685978
 20
35.44740229342267
 30
0.0
 40
1.9215657169817
100
AcDbArc
 50
149.0055748599655
 51
205.3415826834017
  0
ARC
  5
665B
102
{ACAD_REACTORS
330
668C
102
}
330
2
100
AcDbEntity
  8
KIJUN
100
AcDbCircle
 10
39.97579784486431
 20
38.00633577313774
 30
0.0
 40
4.846030686382188
100
AcDbArc
 50
224.2479586098986
 51
259.2660714072132
  0
ARC
  5
665C
102
{ACAD_REACTORS
330
668C
102
}
330
2
100
AcDbEntity
  8
KIJUN
100
AcDbCircle
 10
83.26010465976819
 20
117.3235142352389
 30
0.0
 40
85.66504164907629
100
AcDbArc
 50
274.584517842099
 51
281.0444873969383
  0
ARC
  5
665D
102
{ACAD_REACTORS
330
668C
102
}
330
2
100
AcDbEntity
  8
KIJUN
100
AcDbCircle
 10
90.57737489208021
 20
52.88174274300835
 30
0.0
 40
1.317522578387476
100
AcDbArc
 50
307.1542486293338
 51
52.89850025139022
  0
ARC
  5
665E
102
{ACAD_REACTORS
330
668C
102
}
330
2
100
AcDbEntity
  8
KIJUN
100
AcDbCircle
 10
93.62772709325131
 20
49.59990603639925
 30
0.0
 40
7.992240385423338
100
AcDbArc
 50
210.0298405913239
 51
253.6071458374045
  0
ARC
  5
665F
102
{ACAD_REACTORS
330
668C
102
}
330
2
100
AcDbEntity
  8
KIJUN
100
AcDbCircle
 10
80.29939319319572
 20
67.79330184695108
 30
0.0
 40
19.42681597386259
100
AcDbArc
 50
296.3847408261807
 51
304.751774035094
  0
ARC
  5
6660
102
{ACAD_REACTORS
330
668C
102
}
330
2
100
AcDbEntity
  8
KIJUN
100
AcDbCircle
 10
92.078368315961
 20
44.79333176434949
 30
0.0
 40
6.420317643424733
100
AcDbArc
 50
119.3386182710025
 51
145.1903053745884
  0
ARC
  5
6661
102
{ACAD_REACTORS
330
668C
102
}
330
2
100
AcDbEntity
  8
KIJUN
100
AcDbCircle
 10
89.24278893210352
 20
46.94353266878053
 30
0.0
 40
2.868465476656486
100
AcDbArc
 50
148.122434313601
 51
207.9251037972306
  0
ARC
  5
6662
102
{ACAD_REACTORS
330
668C
102
}
330
2
100
AcDbEntity
  8
KIJUN
100
AcDbCircle
 10
92.0054499339006
 20
29.306280066839
 30
0.0
 40
12.64214941163938
100
AcDbArc
 50
51.46952747440082
 51
92.87142900054378
  0
ARC
  5
6663
102
{ACAD_REACTORS
330
668C
102
}
330
2
100
AcDbEntity
  8
KIJUN
100
AcDbCircle
 10
93.62808614513548
 20
31.73909742701831
 30
0.0
 40
9.731335416542469
100
AcDbArc
 50
28.86531087832796
 51
50.02024254097755
  0
ARC
  5
6664
102
{ACAD_REACTORS
330
668C
102
}
330
2
100
AcDbEntity
  8
KIJUN
100
AcDbCircle
 10
100.5031713257543
 20
35.44740229342267
 30
0.0
 40
1.921565716981701
100
AcDbArc
 50
334.6584173165981
 51
30.99442514003459
  0
ARC
  5
6665
102
{ACAD_REACTORS
330
668C
102
}
330
2
100
AcDbEntity
  8
KIJUN
100
AcDbCircle
 10
98.76848723774983
 20
38.00633577313774
 30
0.0
 40
4.84603068638219
100
AcDbArc
 50
280.7339285927875
 51
315.7520413901012
  0
ARC
  5
6666
102
{ACAD_REACTORS
330
668C
102
}
330
2
100
AcDbEntity
  8
KIJUN
100
AcDbCircle
 10
97.07293533580291
 20
158.1023087907666
 30
0.0
 40
29.32123667374536
100
AcDbArc
 50
345.3618674499755
 51
48.05066064424631
  0
ARC
  5
6667
102
{ACAD_REACTORS
330
668C
102
}
330
2
100
AcDbEntity
  8
KIJUN
100
AcDbCircle
 10
-42.63718405724046
 20
199.1795183453904
 30
0.0
 40
174.9335776870799
100
AcDbArc
 50
327.7887713762865
 51
343.9083746726322
  0
ENDSEC
  0
SECTION
  2
OBJECTS
  0
DICTIONARY
  5
1A
330
0
100
AcDbDictionary
281
     1
  3
ACAD_COLOR
350
144
  3
ACAD_GROUP
350
18
  3
ACAD_LAYOUT
350
58
  3
ACAD_MATERIAL
350
143
  3
ACAD_MLINESTYLE
350
19
  3
ACAD_PLOTSETTINGS
350
59
  3
ACAD_PLOTSTYLENAME
350
56
  3
ACAD_TABLESTYLE
350
145
  3
ACDBHEADERROUNDTRIPXREC
350
66B8
  3
AcDbVariableDictionary
350
1D1
  0
DICTIONARY
  5
1B4
330
A
100
AcDbDictionary
280
     1
281
     1
  3
ACAD_LAYERFILTERS
360
1A2A
  3
ACLYDICTIONARY
360
1A29
  0
DICTIONARY
  5
D13
330
2
100
AcDbDictionary
280
     1
281
     1
  3
ACAD_SORTENTS
360
D14
  0
DICTIONARY
  5
144
102
{ACAD_REACTORS
330
1A
102
}
330
1A
100
AcDbDictionary
281
     1
  0
DICTIONARY
  5
18
102
{ACAD_REACTORS
330
1A
102
}
330
1A
100
AcDbDictionary
281
     1
  3
*A1
350
E0D
  3
*A10
350
265A
  3
*A11
350
26DD
  3
*A12
350
3988
  3
*A13
350
275E
  3
*A14
350
2905
  3
*A15
350
2EE1
  3
*A16
350
1CBC
  3
*A17
350
2F81
  3
*A18
350
31DF
  3
*A19
350
32E4
  3
*A2
350
2C6B
  3
*A20
350
3349
  3
*A21
350
24D6
  3
*A22
350
2037
  3
*A23
350
3A25
  3
*A24
350
3467
  3
*A25
350
422E
  3
*A26
350
4407
  3
*A27
350
4516
  3
*A28
350
307D
  3
*A29
350
FF8
  3
*A3
350
2D78
  3
*A30
350
136A
  3
*A31
350
1555
  3
*A32
350
2A17
  3
*A33
350
17BC
  3
*A34
350
34BB
  3
*A35
350
45E5
  3
*A36
350
46A5
  3
*A37
350
4781
  3
*A38
350
48BA
  3
*A39
350
4A53
  3
*A4
350
1A98
  3
*A40
350
3695
  3
*A41
350
4B49
  3
*A42
350
4C3E
  3
*A43
350
4CEC
  3
*A44
350
4D76
  3
*A45
350
3C81
  3
*A46
350
4E16
  3
*A47
350
4EE5
  3
*A48
350
4F64
  3
*A49
350
5011
  3
*A5
350
22C8
  3
*A50
350
519C
  3
*A51
350
52B0
  3
*A52
350
36C9
  3
*A53
350
5396
  3
*A54
350
5464
  3
*A55
350
556A
  3
*A56
350
213E
  3
*A57
350
57BF
  3
*A58
350
58EE
  3
*A59
350
382B
  3
*A6
350
1EFE
  3
*A60
350
2573
  3
*A61
350
3878
  3
*A62
350
5D92
  3
*A63
350
3E5C
  3
*A64
350
3181
  3
*A65
350
2B84
  3
*A66
350
5F6F
  3
*A67
350
626B
  3
*A68
350
6417
  3
*A69
350
668C
  3
*A7
350
241A
  3
*A8
350
35A5
  3
*A9
350
401B
  0
DICTIONARY
  5
58
102
{ACAD_REACTORS
330
1A
102
}
330
1A
100
AcDbDictionary
281
     1
  3
Model
350
5A
  3
ﾚｲｱｳﾄ1
350
5B
  0
DICTIONARY
  5
143
102
{ACAD_REACTORS
330
1A
102
}
330
1A
100
AcDbDictionary
281
     1
  0
DICTIONARY
  5
19
102
{ACAD_REACTORS
330
1A
102
}
330
1A
100
AcDbDictionary
281
     1
  3
STANDARD
350
1D
  0
DICTIONARY
  5
59
102
{ACAD_REACTORS
330
1A
102
}
330
1A
100
AcDbDictionary
281
     1
  0
ACDBDICTIONARYWDFLT
  5
56
102
{ACAD_REACTORS
330
1A
102
}
330
1A
100
AcDbDictionary
281
     1
  3
Normal
350
57
100
AcDbDictionaryWithDefault
340
57
  0
DICTIONARY
  5
145
102
{ACAD_REACTORS
330
1A
102
}
330
1A
100
AcDbDictionary
281
     1
  3
Standard
350
146
  0
DICTIONARY
  5
66B8
102
{ACAD_REACTORS
330
1A
102
}
330
1A
100
AcDbDictionary
281
     1
  0
DICTIONARY
  5
1D1
102
{ACAD_REACTORS
330
1A
102
}
330
1A
100
AcDbDictionary
281
     1
  3
CTABLESTYLE
350
1D2
  3
DIMASSOC
350
D03
  3
PROJECTNAME
350
D04
  0
DICTIONARY
  5
1A2A
102
{ACAD_REACTORS
330
1B4
102
}
330
1B4
100
AcDbDictionary
281
     1
  0
DICTIONARY
  5
1A29
102
{ACAD_REACTORS
330
1B4
102
}
330
1B4
100
AcDbDictionary
281
     1
1001
ACAD
1000
<All
  0
SORTENTSTABLE
  5
D14
102
{ACAD_REACTORS
330
D13
102
}
330
D13
100
AcDbSortentsTable
330
2
331
23
  5
23
331
21
  5
21
331
1F
  5
1F
331
20
  5
20
  0
GROUP
  5
E0D
102
{ACAD_REACTORS
330
18
102
}
330
18
100
AcDbGroup
300

 70
     1
 71
     1
  0
GROUP
  5
265A
102
{ACAD_REACTORS
330
18
102
}
330
18
100
AcDbGroup
300

 70
     1
 71
     1
  0
GROUP
  5
26DD
102
{ACAD_REACTORS
330
18
102
}
330
18
100
AcDbGroup
300

 70
     1
 71
     1
  0
GROUP
  5
3988
102
{ACAD_REACTORS
330
18
102
}
330
18
100
AcDbGroup
300

 70
     1
 71
     1
  0
GROUP
  5
275E
102
{ACAD_REACTORS
330
18
102
}
330
18
100
AcDbGroup
300

 70
     1
 71
     1
  0
GROUP
  5
2905
102
{ACAD_REACTORS
330
18
102
}
330
18
100
AcDbGroup
300

 70
     1
 71
     1
  0
GROUP
  5
2EE1
102
{ACAD_REACTORS
330
18
102
}
330
18
100
AcDbGroup
300

 70
     1
 71
     1
  0
GROUP
  5
1CBC
102
{ACAD_REACTORS
330
18
102
}
330
18
100
AcDbGroup
300

 70
     1
 71
     1
  0
GROUP
  5
2F81
102
{ACAD_REACTORS
330
18
102
}
330
18
100
AcDbGroup
300

 70
     1
 71
     1
  0
GROUP
  5
31DF
102
{ACAD_REACTORS
330
18
102
}
330
18
100
AcDbGroup
300

 70
     1
 71
     1
  0
GROUP
  5
32E4
102
{ACAD_REACTORS
330
18
102
}
330
18
100
AcDbGroup
300

 70
     1
 71
     1
  0
GROUP
  5
2C6B
102
{ACAD_REACTORS
330
18
102
}
330
18
100
AcDbGroup
300

 70
     1
 71
     1
  0
GROUP
  5
3349
102
{ACAD_REACTORS
330
18
102
}
330
18
100
AcDbGroup
300

 70
     1
 71
     1
  0
GROUP
  5
24D6
102
{ACAD_REACTORS
330
18
102
}
330
18
100
AcDbGroup
300

 70
     1
 71
     1
  0
GROUP
  5
2037
102
{ACAD_REACTORS
330
18
102
}
330
18
100
AcDbGroup
300

 70
     1
 71
     1
  0
GROUP
  5
3A25
102
{ACAD_REACTORS
330
18
102
}
330
18
100
AcDbGroup
300

 70
     1
 71
     1
  0
GROUP
  5
3467
102
{ACAD_REACTORS
330
18
102
}
330
18
100
AcDbGroup
300

 70
     1
 71
     1
  0
GROUP
  5
422E
102
{ACAD_REACTORS
330
18
102
}
330
18
100
AcDbGroup
300

 70
     1
 71
     1
  0
GROUP
  5
4407
102
{ACAD_REACTORS
330
18
102
}
330
18
100
AcDbGroup
300

 70
     1
 71
     1
  0
GROUP
  5
4516
102
{ACAD_REACTORS
330
18
102
}
330
18
100
AcDbGroup
300

 70
     1
 71
     1
  0
GROUP
  5
307D
102
{ACAD_REACTORS
330
18
102
}
330
18
100
AcDbGroup
300

 70
     1
 71
     1
  0
GROUP
  5
FF8
102
{ACAD_REACTORS
330
18
102
}
330
18
100
AcDbGroup
300

 70
     1
 71
     1
  0
GROUP
  5
2D78
102
{ACAD_REACTORS
330
18
102
}
330
18
100
AcDbGroup
300

 70
     1
 71
     1
  0
GROUP
  5
136A
102
{ACAD_REACTORS
330
18
102
}
330
18
100
AcDbGroup
300

 70
     1
 71
     1
  0
GROUP
  5
1555
102
{ACAD_REACTORS
330
18
102
}
330
18
100
AcDbGroup
300

 70
     1
 71
     1
  0
GROUP
  5
2A17
102
{ACAD_REACTORS
330
18
102
}
330
18
100
AcDbGroup
300

 70
     1
 71
     1
  0
GROUP
  5
17BC
102
{ACAD_REACTORS
330
18
102
}
330
18
100
AcDbGroup
300

 70
     1
 71
     1
  0
GROUP
  5
34BB
102
{ACAD_REACTORS
330
18
102
}
330
18
100
AcDbGroup
300

 70
     1
 71
     1
  0
GROUP
  5
45E5
102
{ACAD_REACTORS
330
18
102
}
330
18
100
AcDbGroup
300

 70
     1
 71
     1
  0
GROUP
  5
46A5
102
{ACAD_REACTORS
330
18
102
}
330
18
100
AcDbGroup
300

 70
     1
 71
     1
  0
GROUP
  5
4781
102
{ACAD_REACTORS
330
18
102
}
330
18
100
AcDbGroup
300

 70
     1
 71
     1
  0
GROUP
  5
48BA
102
{ACAD_REACTORS
330
18
102
}
330
18
100
AcDbGroup
300

 70
     1
 71
     1
  0
GROUP
  5
4A53
102
{ACAD_REACTORS
330
18
102
}
330
18
100
AcDbGroup
300

 70
     1
 71
     1
  0
GROUP
  5
1A98
102
{ACAD_REACTORS
330
18
102
}
330
18
100
AcDbGroup
300

 70
     1
 71
     1
  0
GROUP
  5
3695
102
{ACAD_REACTORS
330
18
102
}
330
18
100
AcDbGroup
300

 70
     1
 71
     1
  0
GROUP
  5
4B49
102
{ACAD_REACTORS
330
18
102
}
330
18
100
AcDbGroup
300

 70
     1
 71
     1
  0
GROUP
  5
4C3E
102
{ACAD_REACTORS
330
18
102
}
330
18
100
AcDbGroup
300

 70
     1
 71
     1
  0
GROUP
  5
4CEC
102
{ACAD_REACTORS
330
18
102
}
330
18
100
AcDbGroup
300

 70
     1
 71
     1
  0
GROUP
  5
4D76
102
{ACAD_REACTORS
330
18
102
}
330
18
100
AcDbGroup
300

 70
     1
 71
     1
  0
GROUP
  5
3C81
102
{ACAD_REACTORS
330
18
102
}
330
18
100
AcDbGroup
300

 70
     1
 71
     1
  0
GROUP
  5
4E16
102
{ACAD_REACTORS
330
18
102
}
330
18
100
AcDbGroup
300

 70
     1
 71
     1
  0
GROUP
  5
4EE5
102
{ACAD_REACTORS
330
18
102
}
330
18
100
AcDbGroup
300

 70
     1
 71
     1
  0
GROUP
  5
4F64
102
{ACAD_REACTORS
330
18
102
}
330
18
100
AcDbGroup
300

 70
     1
 71
     1
  0
GROUP
  5
5011
102
{ACAD_REACTORS
330
18
102
}
330
18
100
AcDbGroup
300

 70
     1
 71
     1
  0
GROUP
  5
22C8
102
{ACAD_REACTORS
330
18
102
}
330
18
100
AcDbGroup
300

 70
     1
 71
     1
  0
GROUP
  5
519C
102
{ACAD_REACTORS
330
18
102
}
330
18
100
AcDbGroup
300

 70
     1
 71
     1
  0
GROUP
  5
52B0
102
{ACAD_REACTORS
330
18
102
}
330
18
100
AcDbGroup
300

 70
     1
 71
     1
  0
GROUP
  5
36C9
102
{ACAD_REACTORS
330
18
102
}
330
18
100
AcDbGroup
300

 70
     1
 71
     1
  0
GROUP
  5
5396
102
{ACAD_REACTORS
330
18
102
}
330
18
100
AcDbGroup
300

 70
     1
 71
     1
  0
GROUP
  5
5464
102
{ACAD_REACTORS
330
18
102
}
330
18
100
AcDbGroup
300

 70
     1
 71
     1
  0
GROUP
  5
556A
102
{ACAD_REACTORS
330
18
102
}
330
18
100
AcDbGroup
300

 70
     1
 71
     1
  0
GROUP
  5
213E
102
{ACAD_REACTORS
330
18
102
}
330
18
100
AcDbGroup
300

 70
     1
 71
     1
  0
GROUP
  5
57BF
102
{ACAD_REACTORS
330
18
102
}
330
18
100
AcDbGroup
300

 70
     1
 71
     1
  0
GROUP
  5
58EE
102
{ACAD_REACTORS
330
18
102
}
330
18
100
AcDbGroup
300

 70
     1
 71
     1
  0
GROUP
  5
382B
102
{ACAD_REACTORS
330
18
102
}
330
18
100
AcDbGroup
300

 70
     1
 71
     1
  0
GROUP
  5
1EFE
102
{ACAD_REACTORS
330
18
102
}
330
18
100
AcDbGroup
300

 70
     1
 71
     1
  0
GROUP
  5
2573
102
{ACAD_REACTORS
330
18
102
}
330
18
100
AcDbGroup
300

 70
     1
 71
     1
  0
GROUP
  5
3878
102
{ACAD_REACTORS
330
18
102
}
330
18
100
AcDbGroup
300

 70
     1
 71
     1
  0
GROUP
  5
5D92
102
{ACAD_REACTORS
330
18
102
}
330
18
100
AcDbGroup
300

 70
     1
 71
     1
  0
GROUP
  5
3E5C
102
{ACAD_REACTORS
330
18
102
}
330
18
100
AcDbGroup
300

 70
     1
 71
     1
  0
GROUP
  5
3181
102
{ACAD_REACTORS
330
18
102
}
330
18
100
AcDbGroup
300

 70
     1
 71
     1
  0
GROUP
  5
2B84
102
{ACAD_REACTORS
330
18
102
}
330
18
100
AcDbGroup
300

 70
     1
 71
     1
  0
GROUP
  5
5F6F
102
{ACAD_REACTORS
330
18
102
}
330
18
100
AcDbGroup
300

 70
     1
 71
     1
  0
GROUP
  5
626B
102
{ACAD_REACTORS
330
18
102
}
330
18
100
AcDbGroup
300

 70
     1
 71
     1
  0
GROUP
  5
6417
102
{ACAD_REACTORS
330
18
102
}
330
18
100
AcDbGroup
300

 70
     1
 71
     1
  0
GROUP
  5
668C
102
{ACAD_REACTORS
330
18
102
}
330
18
100
AcDbGroup
300

 70
     1
 71
     1
340
6667
340
6666
340
6665
340
6664
340
6663
340
6662
340
6661
340
6660
340
665F
340
665E
340
665D
340
665C
340
665B
340
665A
340
6659
340
6658
340
6657
340
6656
340
6655
340
6653
340
6652
340
6651
340
6650
340
664F
340
664E
340
664D
340
664C
340
664B
340
664A
340
6607
340
6606
340
6605
340
6604
340
6603
340
6602
340
6600
340
65FF
340
65FD
340
65FC
340
65FB
340
65FA
340
65F9
340
65F8
340
65F6
340
65F5
340
65F4
340
65F3
340
65F2
340
65F1
340
65F0
340
65EF
340
65EE
340
65ED
340
65EC
340
65EB
340
65EA
340
65E9
340
65E8
340
65E7
340
65E6
340
65E5
340
65E4
340
65E3
340
65E2
340
65E1
340
65DF
340
65DE
340
65DD
340
65DC
340
65DB
340
65DA
340
65D9
340
65D8
340
65D7
340
65D6
340
65D5
340
65D4
340
65D3
340
65D2
340
65D1
340
65D0
340
65CF
340
65CE
340
65CD
340
65CC
340
65CB
340
65CA
340
65C9
340
65C8
340
65C7
340
65C6
340
65C5
340
65C4
340
65C3
340
65C2
340
65C1
340
65C0
340
65BF
340
65BE
340
65BD
340
65BC
340
65BB
340
65BA
340
65B9
340
65B8
340
65B5
340
65B4
340
65B3
340
65B2
340
65B1
340
65B0
340
65AF
340
65AE
340
65AD
340
65AC
340
65AB
340
65AA
340
65A9
340
65A8
340
65A7
340
65A6
340
65A5
340
65A4
340
65A3
340
65A2
340
65A1
340
65A0
340
659F
340
659E
340
659D
340
659C
340
659B
340
659A
340
6599
340
6598
340
6597
340
6596
340
6595
340
6594
340
6593
340
6592
340
6591
340
6590
340
658F
340
658E
340
658D
340
658C
340
658B
340
658A
340
6589
340
6588
340
6587
340
6586
340
6585
340
6584
340
6583
340
6582
340
6581
340
6580
340
657F
340
657E
340
657D
340
657C
340
657B
340
657A
340
6579
340
6578
340
6577
340
6576
340
6575
340
6574
340
6573
340
6572
340
6571
340
6570
340
656F
340
656E
340
656D
340
656C
340
656B
340
656A
340
6569
340
6568
340
6567
340
6566
340
6565
340
6564
340
6563
340
6562
340
6561
340
6560
340
655F
340
655E
340
655D
340
655C
340
655B
340
655A
340
6559
340
6558
340
6557
340
6556
340
6555
340
6554
340
6553
340
6552
340
6551
340
6550
340
654F
340
654E
340
654D
340
654C
340
654B
340
654A
340
6549
340
6548
340
6547
340
6546
340
6545
340
6544
340
6543
340
6542
340
6541
340
6540
340
653F
340
653E
340
653D
340
653C
340
653B
340
653A
340
6539
340
6538
340
6537
340
6536
340
6535
340
6534
340
6533
340
6532
340
6531
340
6530
340
652F
340
652E
340
652D
340
652C
340
652B
340
652A
340
6529
340
6528
340
6525
340
6524
340
6523
340
6521
340
6520
340
651E
340
651D
340
651C
340
651B
340
651A
340
6519
  0
GROUP
  5
241A
102
{ACAD_REACTORS
330
18
102
}
330
18
100
AcDbGroup
300

 70
     1
 71
     1
  0
GROUP
  5
35A5
102
{ACAD_REACTORS
330
18
102
}
330
18
100
AcDbGroup
300

 70
     1
 71
     1
  0
GROUP
  5
401B
102
{ACAD_REACTORS
330
18
102
}
330
18
100
AcDbGroup
300

 70
     1
 71
     1
  0
LAYOUT
  5
5A
102
{ACAD_XDICTIONARY
360
66B9
102
}
102
{ACAD_REACTORS
330
58
102
}
330
58
100
AcDbPlotSettings
  1

  2
なし
  4

  6

 40
0.0
 41
0.0
 42
0.0
 43
0.0
 44
0.0
 45
0.0
 46
0.0
 47
0.0
 48
0.0
 49
0.0
140
0.0
141
0.0
142
1.0
143
1.0
 70
  1712
 72
     0
 73
     0
 74
     0
  7
monochrome.ctb
 75
     0
147
1.0
148
0.0
149
0.0
100
AcDbLayout
  1
Model
 70
     1
 71
     0
 10
0.0
 20
0.0
 11
12.0
 21
9.0
 12
0.0
 22
0.0
 32
0.0
 14
0.0
 24
0.0
 34
0.0
 15
0.0
 25
0.0
 35
0.0
146
0.0
 13
0.0
 23
0.0
 33
0.0
 16
1.0
 26
0.0
 36
0.0
 17
0.0
 27
1.0
 37
0.0
 76
     0
330
2
  0
LAYOUT
  5
5B
102
{ACAD_XDICTIONARY
360
66BB
102
}
102
{ACAD_REACTORS
330
58
102
}
330
58
100
AcDbPlotSettings
  1

  2
なし
  4

  6

 40
0.0
 41
0.0
 42
0.0
 43
0.0
 44
0.0
 45
0.0
 46
0.0
 47
0.0
 48
0.0
 49
0.0
140
0.0
141
0.0
142
1.0
143
1.0
 70
   688
 72
     0
 73
     0
 74
     5
  7
monochrome.ctb
 75
    16
147
1.0
148
0.0
149
0.0
100
AcDbLayout
  1
ﾚｲｱｳﾄ1
 70
     1
 71
     1
 10
0.0
 20
0.0
 11
12.0
 21
9.0
 12
0.0
 22
0.0
 32
0.0
 14
1.000000000000000E+20
 24
1.000000000000000E+20
 34
1.000000000000000E+20
 15
-1.000000000000000E+20
 25
-1.000000000000000E+20
 35
-1.000000000000000E+20
146
0.0
 13
0.0
 23
0.0
 33
0.0
 16
1.0
 26
0.0
 36
0.0
 17
0.0
 27
1.0
 37
0.0
 76
     0
330
7
  0
MLINESTYLE
  5
1D
102
{ACAD_REACTORS
330
19
102
}
330
19
100
AcDbMlineStyle
  2
STANDARD
 70
     0
  3

 62
   256
 51
90.0
 52
90.0
 71
     2
 49
0.5
 62
   256
  6
BYLAYER
 49
-0.5
 62
   256
  6
BYLAYER
  0
ACDBPLACEHOLDER
  5
57
102
{ACAD_REACTORS
330
56
102
}
330
56
  0
TABLESTYLE
  5
146
102
{ACAD_REACTORS
330
145
102
}
330
145
100
AcDbTableStyle
  3
Standard
 70
     0
 71
     0
 40
0.06
 41
0.06
280
     0
281
     0
  7
STANDARD
140
0.18
170
     2
 62
     0
 63
     7
283
     0
274
    -2
284
     1
 64
     0
275
    -2
285
     1
 65
     0
276
    -2
286
     1
 66
     0
277
    -2
287
     1
 67
     0
278
    -2
288
     1
 68
     0
279
    -2
289
     1
 69
     0
  7
STANDARD
140
0.25
170
     5
 62
     0
 63
     7
283
     0
274
    -2
284
     1
 64
     0
275
    -2
285
     1
 65
     0
276
    -2
286
     1
 66
     0
277
    -2
287
     1
 67
     0
278
    -2
288
     1
 68
     0
279
    -2
289
     1
 69
     0
  7
STANDARD
140
0.18
170
     5
 62
     0
 63
     7
283
     0
274
    -2
284
     1
 64
     0
275
    -2
285
     1
 65
     0
276
    -2
286
     1
 66
     0
277
    -2
287
     1
 67
     0
278
    -2
288
     1
 68
     0
279
    -2
289
     1
 69
     0
  0
DICTIONARYVAR
  5
1D2
102
{ACAD_REACTORS
330
1D1
102
}
330
1D1
100
DictionaryVariables
280
     0
  1
STANDARD
  0
DICTIONARYVAR
  5
D03
102
{ACAD_REACTORS
330
1D1
102
}
330
1D1
100
DictionaryVariables
280
     0
  1
1
  0
DICTIONARYVAR
  5
D04
102
{ACAD_REACTORS
330
1D1
102
}
330
1D1
100
DictionaryVariables
280
     0
  1

  0
DICTIONARY
  5
66B9
330
5A
100
AcDbDictionary
280
     1
281
     1
  3
ACAD_XREC_ROUNDTRIP
360
66BA
  0
DICTIONARY
  5
66BB
330
5B
100
AcDbDictionary
280
     1
281
     1
  3
ACAD_XREC_ROUNDTRIP
360
66BC
  0
XRECORD
  5
66BA
102
{ACAD_REACTORS
330
66B9
102
}
330
66B9
100
AcDbXrecord
280
     1
102
SHADEPLOT
 70
     0
102
SHADEPLOTRESLEVEL
 70
     2
102
SHADEPLOTCUSTOMDPI
 70
   300
  0
XRECORD
  5
66BC
102
{ACAD_REACTORS
330
66BB
102
}
330
66BB
100
AcDbXrecord
280
     1
102
SHADEPLOT
 70
     0
102
SHADEPLOTRESLEVEL
 70
     2
102
SHADEPLOTCUSTOMDPI
 70
   300
  0
ENDSEC
  0
EOF
