  0
SECTION
  2
HEADER
  9
$ACADVER
  1
AC1015
  9
$ACADMAINTVER
 70
    20
  9
$DWGCODEPAGE
  3
ANSI_932
  9
$INSBASE
 10
922.019522
 20
-675.4306699999999
 30
0.0
  9
$EXTMIN
 10
-0.3529787263687467
 20
-0.2508059917890932
 30
-0.0015258207003583
  9
$EXTMAX
 10
149.2965505448956
 20
338.4943625959713
 30
0.0000000349246037
  9
$LIMMIN
 10
0.0
 20
0.0
  9
$LIMMAX
 10
420.0
 20
297.0
  9
$ORTHOMODE
 70
     1
  9
$REGENMODE
 70
     1
  9
$FILLMODE
 70
     1
  9
$QTEXTMODE
 70
     0
  9
$MIRRTEXT
 70
     1
  9
$LTSCALE
 40
1.0
  9
$ATTMODE
 70
     1
  9
$TEXTSIZE
 40
30.0
  9
$TRACEWID
 40
0.05
  9
$TEXTSTYLE
  7
SUNPOU
  9
$CLAYER
  8
0
  9
$CELTYPE
  6
BYLAYER
  9
$CECOLOR
 62
   256
  9
$CELTSCALE
 40
1.0
  9
$DISPSILH
 70
     0
  9
$DIMSCALE
 40
1.0
  9
$DIMASZ
 40
2.0
  9
$DIMEXO
 40
10.0
  9
$DIMDLI
 40
0.38
  9
$DIMRND
 40
0.0
  9
$DIMDLE
 40
0.0
  9
$DIMEXE
 40
0.0
  9
$DIMTP
 40
0.0
  9
$DIMTM
 40
0.0
  9
$DIMTXT
 40
5.0
  9
$DIMCEN
 40
0.0
  9
$DIMTSZ
 40
0.0
  9
$DIMTOL
 70
     0
  9
$DIMLIM
 70
     0
  9
$DIMTIH
 70
     0
  9
$DIMTOH
 70
     0
  9
$DIMSE1
 70
     0
  9
$DIMSE2
 70
     0
  9
$DIMTAD
 70
     1
  9
$DIMZIN
 70
     0
  9
$DIMBLK
  1
Dot
  9
$DIMASO
 70
     1
  9
$DIMSHO
 70
     1
  9
$DIMPOST
  1

  9
$DIMAPOST
  1

  9
$DIMALT
 70
     0
  9
$DIMALTD
 70
     2
  9
$DIMALTF
 40
25.4
  9
$DIMLFAC
 40
1.0
  9
$DIMTOFL
 70
     0
  9
$DIMTVP
 40
0.0
  9
$DIMTIX
 70
     0
  9
$DIMSOXD
 70
     0
  9
$DIMSAH
 70
     0
  9
$DIMBLK1
  1

  9
$DIMBLK2
  1

  9
$DIMSTYLE
  2
STANDARD
  9
$DIMCLRD
 70
    60
  9
$DIMCLRE
 70
    70
  9
$DIMCLRT
 70
    60
  9
$DIMTFAC
 40
0.064286
  9
$DIMGAP
 40
3.0
  9
$DIMJUST
 70
     0
  9
$DIMSD1
 70
     0
  9
$DIMSD2
 70
     0
  9
$DIMTOLJ
 70
     1
  9
$DIMTZIN
 70
     0
  9
$DIMALTZ
 70
     0
  9
$DIMALTTZ
 70
     0
  9
$DIMUPT
 70
     0
  9
$DIMDEC
 70
     0
  9
$DIMTDEC
 70
     0
  9
$DIMALTU
 70
     2
  9
$DIMALTTD
 70
     2
  9
$DIMTXSTY
  7
SUNPOU
  9
$DIMAUNIT
 70
     0
  9
$DIMADEC
 70
     0
  9
$DIMALTRND
 40
0.0
  9
$DIMAZIN
 70
     0
  9
$DIMDSEP
 70
    46
  9
$DIMATFIT
 70
     3
  9
$DIMFRAC
 70
     0
  9
$DIMLDRBLK
  1

  9
$DIMLUNIT
 70
     2
  9
$DIMLWD
 70
    -2
  9
$DIMLWE
 70
    -2
  9
$DIMTMOVE
 70
     0
  9
$LUNITS
 70
     2
  9
$LUPREC
 70
     5
  9
$SKETCHINC
 40
0.1
  9
$FILLETRAD
 40
0.0
  9
$AUNITS
 70
     0
  9
$AUPREC
 70
     0
  9
$MENU
  1
acad
  9
$ELEVATION
 40
0.0
  9
$PELEVATION
 40
0.0
  9
$THICKNESS
 40
0.0
  9
$LIMCHECK
 70
     0
  9
$CHAMFERA
 40
0.0
  9
$CHAMFERB
 40
0.0
  9
$CHAMFERC
 40
0.0
  9
$CHAMFERD
 40
0.0
  9
$SKPOLY
 70
     0
  9
$TDCREATE
 40
2450623.654673033
  9
$TDUCREATE
 40
2450623.279673032
  9
$TDUPDATE
 40
2453923.424652847
  9
$TDUUPDATE
 40
2453923.049652847
  9
$TDINDWG
 40
0.7106934838
  9
$TDUSRTIMER
 40
0.7106933102
  9
$USRTIMER
 70
     1
  9
$ANGBASE
 50
0.0
  9
$ANGDIR
 70
     0
  9
$PDMODE
 70
     0
  9
$PDSIZE
 40
0.0
  9
$PLINEWID
 40
0.0
  9
$SPLFRAME
 70
     0
  9
$SPLINETYPE
 70
     6
  9
$SPLINESEGS
 70
     8
  9
$HANDSEED
  5
4107
  9
$SURFTAB1
 70
     6
  9
$SURFTAB2
 70
     6
  9
$SURFTYPE
 70
     6
  9
$SURFU
 70
     6
  9
$SURFV
 70
     6
  9
$UCSBASE
  2

  9
$UCSNAME
  2

  9
$UCSORG
 10
0.0
 20
0.0
 30
0.0
  9
$UCSXDIR
 10
1.0
 20
0.0
 30
0.0
  9
$UCSYDIR
 10
0.0
 20
1.0
 30
0.0
  9
$UCSORTHOREF
  2

  9
$UCSORTHOVIEW
 70
     0
  9
$UCSORGTOP
 10
0.0
 20
0.0
 30
0.0
  9
$UCSORGBOTTOM
 10
0.0
 20
0.0
 30
0.0
  9
$UCSORGLEFT
 10
0.0
 20
0.0
 30
0.0
  9
$UCSORGRIGHT
 10
0.0
 20
0.0
 30
0.0
  9
$UCSORGFRONT
 10
0.0
 20
0.0
 30
0.0
  9
$UCSORGBACK
 10
0.0
 20
0.0
 30
0.0
  9
$PUCSBASE
  2

  9
$PUCSNAME
  2

  9
$PUCSORG
 10
0.0
 20
0.0
 30
0.0
  9
$PUCSXDIR
 10
1.0
 20
0.0
 30
0.0
  9
$PUCSYDIR
 10
0.0
 20
1.0
 30
0.0
  9
$PUCSORTHOREF
  2

  9
$PUCSORTHOVIEW
 70
     0
  9
$PUCSORGTOP
 10
0.0
 20
0.0
 30
0.0
  9
$PUCSORGBOTTOM
 10
0.0
 20
0.0
 30
0.0
  9
$PUCSORGLEFT
 10
0.0
 20
0.0
 30
0.0
  9
$PUCSORGRIGHT
 10
0.0
 20
0.0
 30
0.0
  9
$PUCSORGFRONT
 10
0.0
 20
0.0
 30
0.0
  9
$PUCSORGBACK
 10
0.0
 20
0.0
 30
0.0
  9
$USERI1
 70
     0
  9
$USERI2
 70
     0
  9
$USERI3
 70
     0
  9
$USERI4
 70
     0
  9
$USERI5
 70
     0
  9
$USERR1
 40
0.0
  9
$USERR2
 40
0.0
  9
$USERR3
 40
0.0
  9
$USERR4
 40
0.0
  9
$USERR5
 40
0.0
  9
$WORLDVIEW
 70
     1
  9
$SHADEDGE
 70
     3
  9
$SHADEDIF
 70
    70
  9
$TILEMODE
 70
     1
  9
$MAXACTVP
 70
    16
  9
$PINSBASE
 10
0.0
 20
0.0
 30
0.0
  9
$PLIMCHECK
 70
     0
  9
$PEXTMIN
 10
1.000000000000000E+20
 20
1.000000000000000E+20
 30
1.000000000000000E+20
  9
$PEXTMAX
 10
-1.000000000000000E+20
 20
-1.000000000000000E+20
 30
-1.000000000000000E+20
  9
$PLIMMIN
 10
0.0
 20
0.0
  9
$PLIMMAX
 10
12.0
 20
9.0
  9
$UNITMODE
 70
     0
  9
$VISRETAIN
 70
     0
  9
$PLINEGEN
 70
     0
  9
$PSLTSCALE
 70
     1
  9
$TREEDEPTH
 70
  3020
  9
$CMLSTYLE
  2
STANDARD
  9
$CMLJUST
 70
     0
  9
$CMLSCALE
 40
1.0
  9
$PROXYGRAPHICS
 70
     1
  9
$MEASUREMENT
 70
     0
  9
$CELWEIGHT
370
    -1
  9
$ENDCAPS
280
     0
  9
$JOINSTYLE
280
     0
  9
$LWDISPLAY
290
     0
  9
$INSUNITS
 70
     0
  9
$HYPERLINKBASE
  1

  9
$STYLESHEET
  1

  9
$XEDIT
290
     1
  9
$CEPSNTYPE
380
     0
  9
$PSTYLEMODE
290
     1
  9
$FINGERPRINTGUID
  2
{FB88A696-E29C-4009-92AF-A3599A8169D5}
  9
$VERSIONGUID
  2
{725E6CFA-2963-41CE-9095-97C0BA8E7ED5}
  9
$EXTNAMES
290
     1
  9
$PSVPSCALE
 40
0.0
  9
$OLESTARTUP
290
     0
  0
ENDSEC
  0
SECTION
  2
CLASSES
  0
CLASS
  1
DICTIONARYVAR
  2
AcDbDictionaryVar
  3
ObjectDBX Classes
 90
        0
280
     0
281
     0
  0
CLASS
  1
ACDBDICTIONARYWDFLT
  2
AcDbDictionaryWithDefault
  3
ObjectDBX Classes
 90
        0
280
     0
281
     0
  0
CLASS
  1
ACDBPLACEHOLDER
  2
AcDbPlaceHolder
  3
ObjectDBX Classes
 90
        0
280
     0
281
     0
  0
CLASS
  1
LAYOUT
  2
AcDbLayout
  3
ObjectDBX Classes
 90
        0
280
     0
281
     0
  0
CLASS
  1
TABLESTYLE
  2
AcDbTableStyle
  3
ObjectDBX Classes
 90
     2047
280
     0
281
     0
  0
CLASS
  1
SORTENTSTABLE
  2
AcDbSortentsTable
  3
ObjectDBX Classes
 90
        0
280
     0
281
     0
  0
CLASS
  1
ARC_DIMENSION
  2
AcDbArcDimension
  3
ObjectDBX Classes
 90
     1025
280
     0
281
     1
  0
ENDSEC
  0
SECTION
  2
TABLES
  0
TABLE
  2
VPORT
  5
12
330
0
100
AcDbSymbolTable
 70
    15
  0
VPORT
  5
4101
330
12
100
AcDbSymbolTableRecord
100
AcDbViewportTableRecord
  2
*Active
 70
     0
 10
0.0
 20
0.0
 11
1.0
 21
1.0
 12
74.47178590926341
 22
169.1217783020911
 13
0.0
 23
0.0
 14
1.0
 24
1.0
 15
0.0
 25
0.0
 16
0.0
 26
0.0
 36
1.0
 17
0.0
 27
0.0
 37
0.0
 40
341.3376061024627
 41
1.561941251596424
 42
50.0
 43
0.0
 44
0.0
 50
0.0
 51
0.0
 71
     0
 72
 20000
 73
     1
 74
     1
 75
     0
 76
     0
 77
     0
 78
     0
281
     0
 65
     1
110
0.0
120
0.0
130
0.0
111
1.0
121
0.0
131
0.0
112
0.0
122
1.0
132
0.0
 79
     0
146
0.0
  0
ENDTAB
  0
TABLE
  2
LTYPE
  5
D
330
0
100
AcDbSymbolTable
 70
     2
  0
LTYPE
  5
E
330
D
100
AcDbSymbolTableRecord
100
AcDbLinetypeTableRecord
  2
BYBLOCK
 70
     0
  3

 72
    65
 73
     0
 40
0.0
  0
LTYPE
  5
F
330
D
100
AcDbSymbolTableRecord
100
AcDbLinetypeTableRecord
  2
BYLAYER
 70
     0
  3

 72
    65
 73
     0
 40
0.0
  0
LTYPE
  5
5
330
D
100
AcDbSymbolTableRecord
100
AcDbLinetypeTableRecord
  2
CONTINUOUS
 70
     0
  3
Solid line
 72
    65
 73
     0
 40
0.0
  0
ENDTAB
  0
TABLE
  2
LAYER
  5
A
102
{ACAD_XDICTIONARY
360
1B4
102
}
330
0
100
AcDbSymbolTable
 70
     6
  0
LAYER
  5
4
330
A
100
AcDbSymbolTableRecord
100
AcDbLayerTableRecord
  2
0
 70
     0
 62
     7
  6
CONTINUOUS
370
    -3
390
57
  0
LAYER
  5
25
330
A
100
AcDbSymbolTableRecord
100
AcDbLayerTableRecord
  2
KIJUN
 70
     0
 62
     7
  6
CONTINUOUS
370
    -3
390
57
  0
LAYER
  5
22
330
A
100
AcDbSymbolTableRecord
100
AcDbLayerTableRecord
  2
HOJO
 70
     0
 62
     3
  6
CONTINUOUS
370
    -3
390
57
  0
LAYER
  5
1B
330
A
100
AcDbSymbolTableRecord
100
AcDbLayerTableRecord
  2
WAKU
 70
     0
 62
     1
  6
CONTINUOUS
370
    -3
390
57
  0
LAYER
  5
31
330
A
100
AcDbSymbolTableRecord
100
AcDbLayerTableRecord
  2
DEFPOINTS
 70
     0
 62
     7
  6
CONTINUOUS
290
     0
370
    -3
390
57
  0
LAYER
  5
28
330
A
100
AcDbSymbolTableRecord
100
AcDbLayerTableRecord
  2
SUNPOU
 70
     0
 62
    70
  6
CONTINUOUS
370
    -3
390
57
  0
ENDTAB
  0
TABLE
  2
STYLE
  5
B
330
0
100
AcDbSymbolTable
 70
     2
  0
STYLE
  5
C
330
B
100
AcDbSymbolTableRecord
100
AcDbTextStyleTableRecord
  2
STANDARD
 70
     0
 40
0.0
 41
1.0
 50
0.0
 71
     0
 42
0.2
  3
txt
  4

  0
STYLE
  5
1C
330
B
100
AcDbSymbolTableRecord
100
AcDbTextStyleTableRecord
  2
SUNPOU
 70
     0
 40
0.0
 41
1.0
 50
0.0
 71
     0
 42
30.0
  3
txt
  4
bigfont
  0
ENDTAB
  0
TABLE
  2
VIEW
  5
10
330
0
100
AcDbSymbolTable
 70
     0
  0
ENDTAB
  0
TABLE
  2
UCS
  5
11
330
0
100
AcDbSymbolTable
 70
     0
  0
ENDTAB
  0
TABLE
  2
APPID
  5
14
330
0
100
AcDbSymbolTable
 70
    10
  0
APPID
  5
15
330
14
100
AcDbSymbolTableRecord
100
AcDbRegAppTableRecord
  2
ACAD
 70
     0
  0
APPID
  5
1D3
330
14
100
AcDbSymbolTableRecord
100
AcDbRegAppTableRecord
  2
ACAD_DSTYLE_DIMTEXT_FILL
 70
     0
  0
APPID
  5
1D4
330
14
100
AcDbSymbolTableRecord
100
AcDbRegAppTableRecord
  2
ACAD_DSTYLE_DIMEXT_LENGTH
 70
     0
  0
APPID
  5
1D5
330
14
100
AcDbSymbolTableRecord
100
AcDbRegAppTableRecord
  2
ACAD_DSTYLE_DIMEXT_ENABLED
 70
     0
  0
APPID
  5
1D6
330
14
100
AcDbSymbolTableRecord
100
AcDbRegAppTableRecord
  2
ACAD_DSTYLE_DIM_LINETYPE
 70
     0
  0
APPID
  5
1D7
330
14
100
AcDbSymbolTableRecord
100
AcDbRegAppTableRecord
  2
ACAD_DSTYLE_DIM_EXT1_LINETYPE
 70
     0
  0
APPID
  5
1D8
330
14
100
AcDbSymbolTableRecord
100
AcDbRegAppTableRecord
  2
ACAD_DSTYLE_DIM_EXT2_LINETYPE
 70
     0
  0
APPID
  5
294
330
14
100
AcDbSymbolTableRecord
100
AcDbRegAppTableRecord
  2
ACAD_DSTYLE_DIMJOGGED_JOGANGLE_SYMBOL
 70
     0
  0
APPID
  5
478
330
14
100
AcDbSymbolTableRecord
100
AcDbRegAppTableRecord
  2
ACAD_DSTYLE_DIMARC_LENGTH_SYMBOL
 70
     0
  0
APPID
  5
F55
330
14
100
AcDbSymbolTableRecord
100
AcDbRegAppTableRecord
  2
ACAD_EXEMPT_FROM_CAD_STANDARDS
 70
     0
  0
ENDTAB
  0
TABLE
  2
DIMSTYLE
  5
16
330
0
100
AcDbSymbolTable
 70
     2
100
AcDbDimStyleTable
 71
     1
340
1E
  0
DIMSTYLE
105
1E
102
{ACAD_REACTORS
330
3628
330
3635
102
}
330
16
100
AcDbSymbolTableRecord
100
AcDbDimStyleTableRecord
  2
STANDARD
 70
     0
340
C
  0
ENDTAB
  0
TABLE
  2
BLOCK_RECORD
  5
1
330
0
100
AcDbSymbolTable
 70
    18
  0
BLOCK_RECORD
  5
2
102
{ACAD_XDICTIONARY
360
D13
102
}
330
1
100
AcDbSymbolTableRecord
100
AcDbBlockTableRecord
  2
*MODEL_SPACE
340
5A
  0
BLOCK_RECORD
  5
7
330
1
100
AcDbSymbolTableRecord
100
AcDbBlockTableRecord
  2
*PAPER_SPACE
340
5B
  0
BLOCK_RECORD
  5
109
330
1
100
AcDbSymbolTableRecord
100
AcDbBlockTableRecord
  2
_Dot
340
0
102
{BLKREFS
331
3D9C
331
3D9D
331
3DF6
331
3E64
331
3E65
331
3E6D
331
3E6E
331
3E78
331
3E79
331
3E82
331
3E88
331
3E89
331
3F57
331
3F58
331
3F79
331
3F7A
331
3FB4
331
3FB5
331
3FCC
331
3FCD
331
3FE4
331
3FE5
331
3FF0
331
3FF1
331
402F
331
4030
331
40DA
331
40DB
331
40E3
331
40E4
102
}
  0
BLOCK_RECORD
  5
3629
330
1
100
AcDbSymbolTableRecord
100
AcDbBlockTableRecord
  2
*D1
340
0
  0
BLOCK_RECORD
  5
3636
330
1
100
AcDbSymbolTableRecord
100
AcDbBlockTableRecord
  2
*D2
340
0
  0
ENDTAB
  0
ENDSEC
  0
SECTION
  2
BLOCKS
  0
BLOCK
  5
3
330
2
100
AcDbEntity
  8
0
100
AcDbBlockBegin
  2
*MODEL_SPACE
 70
     0
 10
0.0
 20
0.0
 30
0.0
  3
*MODEL_SPACE
  1

  0
ENDBLK
  5
6
330
2
100
AcDbEntity
  8
0
100
AcDbBlockEnd
  0
BLOCK
  5
8
330
7
100
AcDbEntity
 67
     1
  8
0
100
AcDbBlockBegin
  2
*PAPER_SPACE
 70
     0
 10
0.0
 20
0.0
 30
0.0
  3
*PAPER_SPACE
  1

  0
ENDBLK
  5
9
330
7
100
AcDbEntity
 67
     1
  8
0
100
AcDbBlockEnd
  0
BLOCK
  5
10C
330
109
100
AcDbEntity
  8
0
100
AcDbBlockBegin
  2
_Dot
 70
     0
 10
0.0
 20
0.0
 30
0.0
  3
_Dot
  1

  0
LWPOLYLINE
  5
10A
330
109
100
AcDbEntity
  8
0
  6
ByBlock
 62
     0
100
AcDbPolyline
 90
        2
 70
     1
 43
0.5
 10
-0.25
 20
0.0
 42
1.0
 10
0.25
 20
0.0
 42
1.0
  0
LINE
  5
10B
330
109
100
AcDbEntity
  8
0
  6
ByBlock
 62
     0
370
    -2
100
AcDbLine
 10
-0.5
 20
0.0
 30
0.0
 11
-1.0
 21
0.0
 31
0.0
  0
ENDBLK
  5
10D
330
109
100
AcDbEntity
  8
0
100
AcDbBlockEnd
  0
BLOCK
  5
3633
330
3629
100
AcDbEntity
  8
0
100
AcDbBlockBegin
  2
*D1
 70
     1
 10
0.0
 20
0.0
 30
0.0
  3
*D1
  1

  0
LINE
  5
40E0
330
3629
100
AcDbEntity
  8
SUNPOU
 62
    70
370
    -2
100
AcDbLine
 10
69.60453885086721
 20
297.8887517230725
 30
0.0
 11
69.60453885086721
 21
329.9260315897154
 31
0.0
  0
LINE
  5
40E1
330
3629
100
AcDbEntity
  8
SUNPOU
 62
    70
370
    -2
100
AcDbLine
 10
87.60453885086718
 20
297.8887517230725
 30
0.0
 11
87.60453885086718
 21
329.9260315897154
 31
0.0
  0
LINE
  5
40E2
330
3629
100
AcDbEntity
  8
SUNPOU
 62
    60
370
    -2
100
AcDbLine
 10
71.60453885086721
 20
329.9260315897154
 30
0.0
 11
85.60453885086719
 21
329.9260315897154
 31
0.0
  0
INSERT
  5
40E3
330
3629
100
AcDbEntity
  8
SUNPOU
 62
    60
370
    -2
100
AcDbBlockReference
  2
_Dot
 10
69.60453885086721
 20
329.9260315897154
 30
0.0
 41
2.0
 42
2.0
 43
2.0
 50
180.0
  0
INSERT
  5
40E4
330
3629
100
AcDbEntity
  8
SUNPOU
 62
    60
370
    -2
100
AcDbBlockReference
  2
_Dot
 10
87.60453885086718
 20
329.9260315897154
 30
0.0
 41
2.0
 42
2.0
 43
2.0
  0
MTEXT
  5
40E5
330
3629
100
AcDbEntity
  8
SUNPOU
 62
    60
100
AcDbMText
 10
78.6045388508672
 20
335.4260315897154
 30
0.0
 40
5.0
 41
0.0
 71
     5
 72
     1
  1
\A1;18
  7
SUNPOU
 73
     1
 44
1.0
1001
ACAD
1000
MTEXTBEGIN
1070
    73
1070
     1
1070
    44
1040
1.0
1070
    74
1070
     0
1000
MTEXTEND
  0
POINT
  5
40E6
330
3629
100
AcDbEntity
  8
DEFPOINTS
 62
     0
100
AcDbPoint
 10
69.60453885086721
 20
287.8887517230725
 30
0.0
  0
POINT
  5
40E7
330
3629
100
AcDbEntity
  8
DEFPOINTS
 62
     0
100
AcDbPoint
 10
87.60453885086718
 20
287.8887517230725
 30
0.0
  0
POINT
  5
40E8
330
3629
100
AcDbEntity
  8
DEFPOINTS
 62
     0
100
AcDbPoint
 10
87.60453885086718
 20
329.9260315897154
 30
0.0
  0
ENDBLK
  5
3634
330
3629
100
AcDbEntity
  8
0
100
AcDbBlockEnd
  0
BLOCK
  5
3640
330
3636
100
AcDbEntity
  8
0
100
AcDbBlockBegin
  2
*D2
 70
     1
 10
0.0
 20
0.0
 30
0.0
  3
*D2
  1

  0
LINE
  5
40D7
330
3636
100
AcDbEntity
  8
SUNPOU
 62
    70
370
    -2
100
AcDbLine
 10
68.60453885086736
 20
297.7099224117351
 30
0.0
 11
39.67125660187477
 21
297.7099224117351
 31
0.0
  0
LINE
  5
40D8
330
3636
100
AcDbEntity
  8
SUNPOU
 62
    70
370
    -2
100
AcDbLine
 10
68.60453885086736
 20
37.70992241173507
 30
0.0
 11
39.67125660187471
 21
37.70992241173507
 31
0.0
  0
LINE
  5
40D9
330
3636
100
AcDbEntity
  8
SUNPOU
 62
    60
370
    -2
100
AcDbLine
 10
39.67125660187477
 20
295.7099224117351
 30
0.0
 11
39.67125660187471
 21
39.70992241173507
 31
0.0
  0
INSERT
  5
40DA
330
3636
100
AcDbEntity
  8
SUNPOU
 62
    60
370
    -2
100
AcDbBlockReference
  2
_Dot
 10
39.67125660187477
 20
297.7099224117351
 30
0.0
 41
2.0
 42
2.0
 43
2.0
 50
90.0
  0
INSERT
  5
40DB
330
3636
100
AcDbEntity
  8
SUNPOU
 62
    60
370
    -2
100
AcDbBlockReference
  2
_Dot
 10
39.67125660187471
 20
37.70992241173507
 30
0.0
 41
2.0
 42
2.0
 43
2.0
 50
270.0
  0
MTEXT
  5
40DC
330
3636
100
AcDbEntity
  8
SUNPOU
 62
    60
100
AcDbMText
 10
34.17125660187471
 20
167.7099224117351
 30
0.0
 40
5.0
 41
0.0
 71
     5
 72
     1
  1
\A1;260
  7
SUNPOU
 11
0.0000000000000001
 21
1.0
 31
0.0
 73
     1
 44
1.0
1001
ACAD
1000
MTEXTBEGIN
1070
    73
1070
     1
1070
    44
1040
1.0
1070
    74
1070
     0
1000
MTEXTEND
  0
POINT
  5
40DD
330
3636
100
AcDbEntity
  8
DEFPOINTS
 62
     0
100
AcDbPoint
 10
78.60453885086736
 20
297.7099224117351
 30
0.0
  0
POINT
  5
40DE
330
3636
100
AcDbEntity
  8
DEFPOINTS
 62
     0
100
AcDbPoint
 10
78.60453885086736
 20
37.70992241173507
 30
0.0
  0
POINT
  5
40DF
330
3636
100
AcDbEntity
  8
DEFPOINTS
 62
     0
100
AcDbPoint
 10
39.67125660187471
 20
37.70992241173507
 30
0.0
  0
ENDBLK
  5
3641
330
3636
100
AcDbEntity
  8
0
100
AcDbBlockEnd
  0
ENDSEC
  0
SECTION
  2
ENTITIES
  0
LINE
  5
1F
330
2
100
AcDbEntity
  8
WAKU
100
AcDbLine
 10
0.0
 20
14.0
 30
0.0
 11
148.6829221395387
 21
14.0
 31
0.0
  0
LINE
  5
20
330
2
100
AcDbEntity
  8
WAKU
100
AcDbLine
 10
0.0
 20
0.0
 30
0.0
 11
148.6829221395387
 21
0.0
 31
0.0
  0
TEXT
  5
21
330
2
100
AcDbEntity
  8
HOJO
100
AcDbText
 10
9.653966000000025
 20
2.366626000000024
 30
0.0
 40
9.0
  1
TM453
  7
SUNPOU
100
AcDbText
  0
TEXT
  5
23
330
2
100
AcDbEntity
  8
HOJO
100
AcDbText
 10
85.84696046283864
 20
5.044386000000031
 30
0.0
 40
6.0
  1
18×260×6
  7
SUNPOU
100
AcDbText
  0
DIMENSION
  5
3628
330
2
100
AcDbEntity
  8
SUNPOU
100
AcDbDimension
  2
*D1
 10
87.60453885086718
 20
329.9260315897154
 30
0.0
 11
78.6045388508672
 21
335.4260315897154
 31
0.0
 70
    32
 71
     5
 42
17.99999999999997
  3
STANDARD
100
AcDbAlignedDimension
 13
69.60453885086721
 23
287.8887517230725
 33
0.0
 14
87.60453885086718
 24
287.8887517230725
 34
0.0
100
AcDbRotatedDimension
1001
ACAD
1000
DSTYLE
1002
{
1070
    41
1040
2.0
1070
    42
1040
10.0
1070
    44
1040
0.0
1070
    73
1070
     0
1070
    74
1070
     0
1070
    77
1070
     1
1070
   140
1040
5.0
1070
   141
1040
0.0
1070
   146
1040
0.064286
1070
   147
1040
3.0
1070
   176
1070
    60
1070
   177
1070
    70
1070
   178
1070
    60
1070
   271
1070
     0
1070
   272
1070
     0
1070
   340
1005
1C
1070
   342
1005
109
1002
}
  0
DIMENSION
  5
3635
330
2
100
AcDbEntity
  8
SUNPOU
100
AcDbDimension
  2
*D2
 10
39.67125660187471
 20
37.70992241173507
 30
0.0
 11
34.17125660187471
 21
167.7099224117351
 31
0.0
 70
    32
 71
     5
 42
260.0
  3
STANDARD
100
AcDbAlignedDimension
 13
78.60453885086736
 23
297.7099224117351
 33
0.0
 14
78.60453885086736
 24
37.70992241173507
 34
0.0
 50
90.0
100
AcDbRotatedDimension
1001
ACAD
1000
DSTYLE
1002
{
1070
    41
1040
2.0
1070
    42
1040
10.0
1070
    44
1040
0.0
1070
    73
1070
     0
1070
    74
1070
     0
1070
    77
1070
     1
1070
   140
1040
5.0
1070
   141
1040
0.0
1070
   146
1040
0.064286
1070
   147
1040
3.0
1070
   176
1070
    60
1070
   177
1070
    70
1070
   178
1070
    60
1070
   271
1070
     0
1070
   272
1070
     0
1070
   340
1005
1C
1070
   342
1005
109
1002
}
  0
ARC
  5
3E97
102
{ACAD_REACTORS
330
40B2
102
}
330
2
100
AcDbEntity
  8
KIJUN
100
AcDbCircle
 10
76.24863590960842
 20
289.5666033307951
 30
0.0
 40
3.945948413482842
100
AcDbArc
 50
94.9898834530145
 51
251.850483200915
  0
ARC
  5
3E98
102
{ACAD_REACTORS
330
40B2
102
}
330
2
100
AcDbEntity
  8
KIJUN
100
AcDbCircle
 10
83.05853157699425
 20
246.4524438339432
 30
0.0
 40
13.45399272612696
100
AcDbArc
 50
158.3540001561363
 51
197.1636676174826
  0
ARC
  5
3E99
102
{ACAD_REACTORS
330
40B2
102
}
330
2
100
AcDbEntity
  8
KIJUN
100
AcDbCircle
 10
71.81167603287576
 20
243.2510331679901
 30
0.0
 40
1.782350249187332
100
AcDbArc
 50
205.5559662391942
 51
278.8947767747948
  0
ARC
  5
3E9A
102
{ACAD_REACTORS
330
40B2
102
}
330
2
100
AcDbEntity
  8
KIJUN
100
AcDbCircle
 10
85.21470904109651
 20
254.2958804349662
 30
0.0
 40
13.29869951232366
100
AcDbArc
 50
123.0541538313312
 51
148.8566300027392
  0
ARC
  5
3E9B
102
{ACAD_REACTORS
330
40B2
102
}
330
2
100
AcDbEntity
  8
KIJUN
100
AcDbCircle
 10
148.9650178123017
 20
230.4950213014518
 30
0.0
 40
81.15449290929705
100
AcDbArc
 50
157.7883931271691
 51
165.0614752015883
  0
ARC
  5
3E9C
102
{ACAD_REACTORS
330
40B2
102
}
330
2
100
AcDbEntity
  8
KIJUN
100
AcDbCircle
 10
74.97406476806133
 20
239.7472510554534
 30
0.0
 40
3.372121663266137
100
AcDbArc
 50
148.8790981037495
 51
250.2157825603918
  0
ARC
  5
3E9D
102
{ACAD_REACTORS
330
40B2
102
}
330
2
100
AcDbEntity
  8
KIJUN
100
AcDbCircle
 10
83.06054590788972
 20
250.5722257453927
 30
0.0
 40
9.240338344730286
100
AcDbArc
 50
152.2962625073253
 51
241.1685777113544
  0
ARC
  5
3E9E
102
{ACAD_REACTORS
330
40B2
102
}
330
2
100
AcDbEntity
  8
KIJUN
100
AcDbCircle
 10
179.473394045568
 20
202.3712239525778
 30
0.0
 40
117.0290663915757
100
AcDbArc
 50
149.5320398797064
 51
153.3474211372753
  0
ARC
  5
3E9F
102
{ACAD_REACTORS
330
40B2
102
}
330
2
100
AcDbEntity
  8
KIJUN
100
AcDbCircle
 10
93.21802145642596
 20
251.5650098125037
 30
0.0
 40
16.2794558099084
100
AcDbArc
 50
153.8526987949462
 51
206.1473012050538
  0
ARC
  5
3EA2
102
{ACAD_REACTORS
330
40B2
102
}
330
2
100
AcDbEntity
  8
KIJUN
100
AcDbCircle
 10
77.46165016463215
 20
238.572866664977
 30
0.0
 40
6.115094727121761
100
AcDbArc
 50
122.3871256169586
 51
151.5066116618415
  0
ARC
  5
3EA3
102
{ACAD_REACTORS
330
40B2
102
}
330
2
100
AcDbEntity
  8
KIJUN
100
AcDbCircle
 10
68.17586801247557
 20
247.3248393567661
 30
0.0
 40
4.296063784500246
100
AcDbArc
 50
311.5519638853108
 51
356.2590965836471
  0
ARC
  5
3EA4
102
{ACAD_REACTORS
330
40B2
102
}
330
2
100
AcDbEntity
  8
KIJUN
100
AcDbCircle
 10
55.06257011981961
 20
242.95977289786
 30
0.0
 40
17.87323680943166
100
AcDbArc
 50
359.1121363666259
 51
13.21120151382801
  0
ARC
  5
3EA5
102
{ACAD_REACTORS
330
40B2
102
}
330
2
100
AcDbEntity
  8
KIJUN
100
AcDbCircle
 10
78.60453885086724
 20
265.1974782415253
 30
0.0
 40
0.6883514890760211
100
AcDbArc
 50
20.8303543063437
 51
159.1696456936563
  0
ARC
  5
3EA6
102
{ACAD_REACTORS
330
40B2
102
}
330
2
100
AcDbEntity
  8
KIJUN
100
AcDbCircle
 10
78.60453885086736
 20
294.7390052812614
 30
0.0
 40
2.970917130473646
100
AcDbArc
 50
335.3008501261265
 51
204.6991498738735
  0
ARC
  5
3EA7
102
{ACAD_REACTORS
330
40B2
102
}
330
2
100
AcDbEntity
  8
KIJUN
100
AcDbCircle
 10
91.02984485333422
 20
224.6891389023037
 30
0.0
 40
20.90325415432643
100
AcDbArc
 50
162.3476001883846
 51
190.1992097355842
  0
ARC
  5
3EA8
102
{ACAD_REACTORS
330
40B2
102
}
330
2
100
AcDbEntity
  8
KIJUN
100
AcDbCircle
 10
72.95572186219584
 20
221.2223765049358
 30
0.0
 40
2.509807577598249
100
AcDbArc
 50
185.3634824578146
 51
260.2142283649286
  0
ARC
  5
3EA9
102
{ACAD_REACTORS
330
40B2
102
}
330
2
100
AcDbEntity
  8
KIJUN
100
AcDbCircle
 10
105.8429358828374
 20
213.6683389762168
 30
0.0
 40
39.36158155312975
100
AcDbArc
 50
136.6439200279068
 51
144.4133317712279
  0
ARC
  5
3EAA
102
{ACAD_REACTORS
330
40B2
102
}
330
2
100
AcDbEntity
  8
KIJUN
100
AcDbCircle
 10
102.4087692616938
 20
219.1095419479115
 30
0.0
 40
33.49039514994843
100
AcDbArc
 50
148.5683024845147
 51
159.1530350475921
  0
ARC
  5
3EAB
102
{ACAD_REACTORS
330
40B2
102
}
330
2
100
AcDbEntity
  8
KIJUN
100
AcDbCircle
 10
75.20786373876672
 20
217.3031645922512
 30
0.0
 40
3.044049043503356
100
AcDbArc
 50
151.6406842586585
 51
251.160210347993
  0
ARC
  5
3EAC
102
{ACAD_REACTORS
330
40B2
102
}
330
2
100
AcDbEntity
  8
KIJUN
100
AcDbCircle
 10
82.83774555503862
 20
228.0833236429493
 30
0.0
 40
8.778321427493771
100
AcDbArc
 50
152.2962625073253
 51
241.1685777113544
  0
ARC
  5
3EAD
102
{ACAD_REACTORS
330
40B2
102
}
330
2
100
AcDbEntity
  8
KIJUN
100
AcDbCircle
 10
174.4299512858331
 20
182.2923719397752
 30
0.0
 40
111.177613071997
100
AcDbArc
 50
149.5320398797064
 51
153.3474211372753
  0
ARC
  5
3EAE
102
{ACAD_REACTORS
330
40B2
102
}
330
2
100
AcDbEntity
  8
KIJUN
100
AcDbCircle
 10
92.4873473261481
 20
229.0264685067048
 30
0.0
 40
15.46548301941298
100
AcDbArc
 50
153.8526987949462
 51
206.1473012050538
  0
ARC
  5
3EB1
102
{ACAD_REACTORS
330
40B2
102
}
330
2
100
AcDbEntity
  8
KIJUN
100
AcDbCircle
 10
77.85978929730209
 20
216.0485944460536
 30
0.0
 40
5.97565449131368
100
AcDbArc
 50
122.5907906871136
 51
153.1333427593306
  0
ARC
  5
3EB2
102
{ACAD_REACTORS
330
40B2
102
}
330
2
100
AcDbEntity
  8
KIJUN
100
AcDbCircle
 10
68.22192289901749
 20
223.9823636867482
 30
0.0
 40
5.102005027122974
100
AcDbArc
 50
320.7430437332251
 51
353.1232931116587
  0
ARC
  5
3EB3
102
{ACAD_REACTORS
330
40B2
102
}
330
2
100
AcDbEntity
  8
KIJUN
100
AcDbCircle
 10
77.09525841062464
 20
223.566385524137
 30
0.0
 40
3.813018219458697
100
AcDbArc
 50
182.9299349659276
 51
224.3679076622968
  0
ARC
  5
3EB4
102
{ACAD_REACTORS
330
40B2
102
}
330
2
100
AcDbEntity
  8
KIJUN
100
AcDbCircle
 10
78.60453885086736
 20
239.245028169942
 30
0.0
 40
2.000000000000079
100
AcDbArc
 50
46.31231775110411
 51
133.6876822489045
  0
ARC
  5
3EC1
102
{ACAD_REACTORS
330
40B2
102
}
330
2
100
AcDbEntity
  8
KIJUN
100
AcDbCircle
 10
94.5643531573329
 20
158.7506803176212
 30
0.0
 40
24.09914222695526
100
AcDbArc
 50
151.6229045619855
 51
185.7748467984109
  0
ARC
  5
3EC2
102
{ACAD_REACTORS
330
40B2
102
}
330
2
100
AcDbEntity
  8
KIJUN
100
AcDbCircle
 10
72.2480607509691
 20
156.7287539733712
 30
0.0
 40
1.708729453103253
100
AcDbArc
 50
193.6387703298983
 51
255.1285322378165
  0
ARC
  5
3EC3
102
{ACAD_REACTORS
330
40B2
102
}
330
2
100
AcDbEntity
  8
KIJUN
100
AcDbCircle
 10
78.36877175158139
 20
154.6760678996456
 30
0.0
 40
6.57151687693471
100
AcDbArc
 50
176.4999065100873
 51
226.8679620158134
  0
ARC
  5
3EC4
102
{ACAD_REACTORS
330
40B2
102
}
330
2
100
AcDbEntity
  8
KIJUN
100
AcDbCircle
 10
82.80705480643348
 20
162.3681792663953
 30
0.0
 40
8.714678597144443
100
AcDbArc
 50
152.2962625073253
 51
241.1685777113544
  0
ARC
  5
3EC5
102
{ACAD_REACTORS
330
40B2
102
}
330
2
100
AcDbEntity
  8
KIJUN
100
AcDbCircle
 10
84.09818683768468
 20
163.7831168624821
 30
0.0
 40
9.3847456917849
100
AcDbArc
 50
125.8298816273694
 51
163.683912323466
  0
ARC
  5
3EC6
102
{ACAD_REACTORS
330
40B2
102
}
330
2
100
AcDbEntity
  8
KIJUN
100
AcDbCircle
 10
92.3866969647023
 20
163.3044863298885
 30
0.0
 40
15.35335826752223
100
AcDbArc
 50
153.8526987949462
 51
206.1473012050538
  0
ARC
  5
3EC7
102
{ACAD_REACTORS
330
40B2
102
}
330
2
100
AcDbEntity
  8
KIJUN
100
AcDbCircle
 10
73.18421243001444
 20
154.6084602529844
 30
0.0
 40
1.452436767443684
100
AcDbArc
 50
79.67933238773901
 51
161.1696058993678
  0
ARC
  5
3EC8
102
{ACAD_REACTORS
330
40B2
102
}
330
2
100
AcDbEntity
  8
KIJUN
100
AcDbCircle
 10
70.92631333579237
 20
158.040348686094
 30
0.0
 40
1.337826346895387
100
AcDbArc
 50
290.8596470197283
 51
2.234141068384338
  0
ARC
  5
3EC9
102
{ACAD_REACTORS
330
40B2
102
}
330
2
100
AcDbEntity
  8
KIJUN
100
AcDbCircle
 10
68.17682282457503
 20
156.1994325690428
 30
0.0
 40
4.503504972962084
100
AcDbArc
 50
357.0604775868127
 51
24.85697530922799
  0
ARC
  5
3ECA
102
{ACAD_REACTORS
330
40B2
102
}
330
2
100
AcDbEntity
  8
KIJUN
100
AcDbCircle
 10
78.60453885086736
 20
167.3849019386437
 30
0.0
 40
5.95348368213726
100
AcDbArc
 50
28.2667997605472
 51
151.7332002394528
  0
ARC
  5
3EDF
102
{ACAD_REACTORS
330
40B2
102
}
330
2
100
AcDbEntity
  8
KIJUN
100
AcDbCircle
 10
83.31259919003741
 20
52.10218989151752
 30
0.0
 40
9.369039600424292
100
AcDbArc
 50
135.171643349977
 51
191.1197662721207
  0
ARC
  5
3EE0
102
{ACAD_REACTORS
330
40B2
102
}
330
2
100
AcDbEntity
  8
KIJUN
100
AcDbCircle
 10
75.39724242109457
 20
50.60531773566612
 30
0.0
 40
1.314867314162953
100
AcDbArc
 50
193.6387703298983
 51
255.1285322378165
  0
ARC
  5
3EE1
102
{ACAD_REACTORS
330
40B2
102
}
330
2
100
AcDbEntity
  8
KIJUN
100
AcDbCircle
 10
77.06536327817019
 20
48.95940476352013
 30
0.0
 40
2.040357014148805
100
AcDbArc
 50
169.4067988334436
 51
256.7585158494331
  0
ARC
  5
3EE2
102
{ACAD_REACTORS
330
40B2
102
}
330
2
100
AcDbEntity
  8
KIJUN
100
AcDbCircle
 10
81.22394603339193
 20
53.05359342884742
 30
0.0
 40
5.431815596207145
100
AcDbArc
 50
152.2962625073253
 51
241.1685777113544
  0
ARC
  5
3EE3
102
{ACAD_REACTORS
330
40B2
102
}
330
2
100
AcDbEntity
  8
KIJUN
100
AcDbCircle
 10
82.02870217281059
 20
53.93551695780042
 30
0.0
 40
5.849465065961068
100
AcDbArc
 50
125.8298816273694
 51
163.683912323466
  0
ARC
  5
3EE4
102
{ACAD_REACTORS
330
40B2
102
}
330
2
100
AcDbEntity
  8
KIJUN
100
AcDbCircle
 10
87.19488909243011
 20
53.63718893998754
 30
0.0
 40
9.569671441355271
100
AcDbArc
 50
153.8526987949462
 51
206.1473012050538
  0
ARC
  5
3EE5
102
{ACAD_REACTORS
330
40B2
102
}
330
2
100
AcDbEntity
  8
KIJUN
100
AcDbCircle
 10
76.11761113812008
 20
48.97375171782846
 30
0.0
 40
1.117650092547915
100
AcDbArc
 50
79.67933238773901
 51
161.1696058993678
  0
ARC
  5
3EE6
102
{ACAD_REACTORS
330
40B2
102
}
330
2
100
AcDbEntity
  8
KIJUN
100
AcDbCircle
 10
74.38015778511612
 20
51.61458986710631
 30
0.0
 40
1.029457373936
100
AcDbArc
 50
290.8596470197283
 51
2.234141068384338
  0
ARC
  5
3EE7
102
{ACAD_REACTORS
330
40B2
102
}
330
2
100
AcDbEntity
  8
KIJUN
100
AcDbCircle
 10
72.26442483673441
 20
50.19800491503549
 30
0.0
 40
3.465447076694323
100
AcDbArc
 50
357.0604775868127
 51
24.85697530922799
  0
ARC
  5
3EE8
102
{ACAD_REACTORS
330
40B2
102
}
330
2
100
AcDbEntity
  8
KIJUN
100
AcDbCircle
 10
78.60453885086724
 20
56.80819200819263
 30
0.0
 40
2.712380708739953
100
AcDbArc
 50
44.43784879178192
 51
135.5621512082186
  0
ARC
  5
3EE9
102
{ACAD_REACTORS
330
40B2
102
}
330
2
100
AcDbEntity
  8
KIJUN
100
AcDbCircle
 10
80.96044179212617
 20
289.5666033307951
 30
0.0
 40
3.945948413482842
100
AcDbArc
 50
288.1495167990849
 51
85.01011654698549
  0
ARC
  5
3EEB
102
{ACAD_REACTORS
330
40B2
102
}
330
2
100
AcDbEntity
  8
KIJUN
100
AcDbCircle
 10
85.39740166885872
 20
243.2510331679901
 30
0.0
 40
1.782350249187332
100
AcDbArc
 50
261.1052232252053
 51
334.4440337608058
  0
ARC
  5
3EEE
102
{ACAD_REACTORS
330
40B2
102
}
330
2
100
AcDbEntity
  8
KIJUN
100
AcDbCircle
 10
82.23501293367315
 20
239.7472510554534
 30
0.0
 40
3.372121663266137
100
AcDbArc
 50
289.7842174396082
 51
31.12090189625049
  0
ARC
  5
3EEF
102
{ACAD_REACTORS
330
40B2
102
}
330
2
100
AcDbEntity
  8
KIJUN
100
AcDbCircle
 10
74.14853179384476
 20
250.5722257453927
 30
0.0
 40
9.240338344730286
100
AcDbArc
 50
298.8314222886455
 51
27.70373749267469
  0
ARC
  5
3EF0
102
{ACAD_REACTORS
330
40B2
102
}
330
2
100
AcDbEntity
  8
KIJUN
100
AcDbCircle
 10
-22.26431634383357
 20
202.3712239525778
 30
0.0
 40
117.0290663915757
100
AcDbArc
 50
26.65257886272463
 51
30.46796012029354
  0
ARC
  5
3EF1
102
{ACAD_REACTORS
330
40B2
102
}
330
2
100
AcDbEntity
  8
KIJUN
100
AcDbCircle
 10
63.99105624530853
 20
251.5650098125037
 30
0.0
 40
16.2794558099084
100
AcDbArc
 50
333.8526987949462
 51
26.14730120505379
  0
ARC
  5
3EF4
102
{ACAD_REACTORS
330
40B2
102
}
330
2
100
AcDbEntity
  8
KIJUN
100
AcDbCircle
 10
79.74742753710245
 20
238.572866664977
 30
0.0
 40
6.115094727121761
100
AcDbArc
 50
28.49338833815849
 51
57.61287438304134
  0
ARC
  5
3EF5
102
{ACAD_REACTORS
330
40B2
102
}
330
2
100
AcDbEntity
  8
KIJUN
100
AcDbCircle
 10
89.03320968925891
 20
247.3248393567661
 30
0.0
 40
4.296063784500246
100
AcDbArc
 50
183.7409034163528
 51
228.4480361146887
  0
ARC
  5
3EF6
102
{ACAD_REACTORS
330
40B2
102
}
330
2
100
AcDbEntity
  8
KIJUN
100
AcDbCircle
 10
102.1465075819149
 20
242.95977289786
 30
0.0
 40
17.87323680943166
100
AcDbArc
 50
166.788798486172
 51
180.8878636333741
  0
ARC
  5
3EF7
102
{ACAD_REACTORS
330
40B2
102
}
330
2
100
AcDbEntity
  8
KIJUN
100
AcDbCircle
 10
66.17923284840026
 20
224.6891389023037
 30
0.0
 40
20.90325415432643
100
AcDbArc
 50
349.8007902644158
 51
17.65239981161535
  0
ARC
  5
3EF9
102
{ACAD_REACTORS
330
40B2
102
}
330
2
100
AcDbEntity
  8
KIJUN
100
AcDbCircle
 10
51.36614181889706
 20
213.6683389762168
 30
0.0
 40
39.36158155312975
100
AcDbArc
 50
35.58666822877207
 51
43.35607997209315
  0
ARC
  5
3EFA
102
{ACAD_REACTORS
330
40B2
102
}
330
2
100
AcDbEntity
  8
KIJUN
100
AcDbCircle
 10
54.8003084400408
 20
219.1095419479115
 30
0.0
 40
33.49039514994843
100
AcDbArc
 50
20.84696495240793
 51
31.43169751548524
  0
ARC
  5
3EFC
102
{ACAD_REACTORS
330
40B2
102
}
330
2
100
AcDbEntity
  8
KIJUN
100
AcDbCircle
 10
74.37133214669586
 20
228.0833236429493
 30
0.0
 40
8.778321427493771
100
AcDbArc
 50
298.8314222886455
 51
27.70373749267469
  0
ARC
  5
3EFD
102
{ACAD_REACTORS
330
40B2
102
}
330
2
100
AcDbEntity
  8
KIJUN
100
AcDbCircle
 10
-17.22087358409851
 20
182.2923719397752
 30
0.0
 40
111.177613071997
100
AcDbArc
 50
26.65257886272463
 51
30.46796012029354
  0
ARC
  5
3EFE
102
{ACAD_REACTORS
330
40B2
102
}
330
2
100
AcDbEntity
  8
KIJUN
100
AcDbCircle
 10
64.72173037558651
 20
229.0264685067048
 30
0.0
 40
15.46548301941298
100
AcDbArc
 50
333.8526987949462
 51
26.14730120505379
  0
ARC
  5
3F0F
102
{ACAD_REACTORS
330
40B2
102
}
330
2
100
AcDbEntity
  8
KIJUN
100
AcDbCircle
 10
62.64472454440152
 20
158.7506803176213
 30
0.0
 40
24.09914222695534
100
AcDbArc
 50
354.225153201589
 51
28.37709543801448
  0
ARC
  5
3F10
102
{ACAD_REACTORS
330
40B2
102
}
330
2
100
AcDbEntity
  8
KIJUN
100
AcDbCircle
 10
84.9610169507655
 20
156.7287539733712
 30
0.0
 40
1.708729453103253
100
AcDbArc
 50
284.8714677621836
 51
346.3612296701017
  0
ARC
  5
3F11
102
{ACAD_REACTORS
330
40B2
102
}
330
2
100
AcDbEntity
  8
KIJUN
100
AcDbCircle
 10
78.84030595015315
 20
154.6760678996456
 30
0.0
 40
6.57151687693471
100
AcDbArc
 50
313.132037984182
 51
3.500093489912664
  0
ARC
  5
3F12
102
{ACAD_REACTORS
330
40B2
102
}
330
2
100
AcDbEntity
  8
KIJUN
100
AcDbCircle
 10
74.40202289530123
 20
162.3681792663953
 30
0.0
 40
8.714678597144443
100
AcDbArc
 50
298.8314222886455
 51
27.70373749267469
  0
ARC
  5
3F13
102
{ACAD_REACTORS
330
40B2
102
}
330
2
100
AcDbEntity
  8
KIJUN
100
AcDbCircle
 10
73.11089086404985
 20
163.7831168624821
 30
0.0
 40
9.3847456917849
100
AcDbArc
 50
16.31608767653395
 51
54.17011837263059
  0
ARC
  5
3F14
102
{ACAD_REACTORS
330
40B2
102
}
330
2
100
AcDbEntity
  8
KIJUN
100
AcDbCircle
 10
64.82238073703223
 20
163.3044863298885
 30
0.0
 40
15.35335826752223
100
AcDbArc
 50
333.8526987949462
 51
26.14730120505379
  0
ARC
  5
3F15
102
{ACAD_REACTORS
330
40B2
102
}
330
2
100
AcDbEntity
  8
KIJUN
100
AcDbCircle
 10
84.02486527172005
 20
154.6084602529844
 30
0.0
 40
1.452436767443684
100
AcDbArc
 50
18.83039410063217
 51
100.3206676122543
  0
ARC
  5
3F16
102
{ACAD_REACTORS
330
40B2
102
}
330
2
100
AcDbEntity
  8
KIJUN
100
AcDbCircle
 10
86.28276436594218
 20
158.040348686094
 30
0.0
 40
1.337826346895387
100
AcDbArc
 50
177.7658589316156
 51
249.1403529802716
  0
ARC
  5
3F17
102
{ACAD_REACTORS
330
40B2
102
}
330
2
100
AcDbEntity
  8
KIJUN
100
AcDbCircle
 10
89.03225487715952
 20
156.1994325690428
 30
0.0
 40
4.503504972962084
100
AcDbArc
 50
155.143024690772
 51
182.9395224131872
  0
ARC
  5
3F2A
102
{ACAD_REACTORS
330
40B2
102
}
330
2
100
AcDbEntity
  8
KIJUN
100
AcDbCircle
 10
73.89647851169707
 20
52.10218989151752
 30
0.0
 40
9.369039600424301
100
AcDbArc
 50
348.8802337278793
 51
44.82835665002301
  0
ARC
  5
3F2B
102
{ACAD_REACTORS
330
40B2
102
}
330
2
100
AcDbEntity
  8
KIJUN
100
AcDbCircle
 10
81.81183528064002
 20
50.60531773566612
 30
0.0
 40
1.314867314162953
100
AcDbArc
 50
284.8714677621836
 51
346.3612296701017
  0
ARC
  5
3F2C
102
{ACAD_REACTORS
330
40B2
102
}
330
2
100
AcDbEntity
  8
KIJUN
100
AcDbCircle
 10
75.98513166834277
 20
53.05359342884742
 30
0.0
 40
5.431815596207145
100
AcDbArc
 50
298.8314222886455
 51
27.70373749267469
  0
ARC
  5
3F2D
102
{ACAD_REACTORS
330
40B2
102
}
330
2
100
AcDbEntity
  8
KIJUN
100
AcDbCircle
 10
75.18037552892394
 20
53.93551695780042
 30
0.0
 40
5.849465065961068
100
AcDbArc
 50
16.31608767653395
 51
54.17011837263059
  0
ARC
  5
3F2E
102
{ACAD_REACTORS
330
40B2
102
}
330
2
100
AcDbEntity
  8
KIJUN
100
AcDbCircle
 10
70.01418860930454
 20
53.63718893998754
 30
0.0
 40
9.569671441355271
100
AcDbArc
 50
333.8526987949462
 51
26.14730120505379
  0
ARC
  5
3F2F
102
{ACAD_REACTORS
330
40B2
102
}
330
2
100
AcDbEntity
  8
KIJUN
100
AcDbCircle
 10
81.09146656361451
 20
48.97375171782846
 30
0.0
 40
1.117650092547915
100
AcDbArc
 50
18.83039410063217
 51
100.3206676122543
  0
ARC
  5
3F30
102
{ACAD_REACTORS
330
40B2
102
}
330
2
100
AcDbEntity
  8
KIJUN
100
AcDbCircle
 10
82.82891991661847
 20
51.61458986710631
 30
0.0
 40
1.029457373936
100
AcDbArc
 50
177.7658589316156
 51
249.1403529802716
  0
ARC
  5
3F31
102
{ACAD_REACTORS
330
40B2
102
}
330
2
100
AcDbEntity
  8
KIJUN
100
AcDbCircle
 10
84.9446528650003
 20
50.19800491503549
 30
0.0
 40
3.465447076694323
100
AcDbArc
 50
155.143024690772
 51
182.9395224131872
  0
ARC
  5
3F32
102
{ACAD_REACTORS
330
40B2
102
}
330
2
100
AcDbEntity
  8
KIJUN
100
AcDbCircle
 10
82.14227710520573
 20
42.49256202851131
 30
0.0
 40
7.128525891455088
100
AcDbArc
 50
134.9643744565033
 51
186.4895837064002
  0
ARC
  5
3F33
102
{ACAD_REACTORS
330
40B2
102
}
330
2
100
AcDbEntity
  8
KIJUN
100
AcDbCircle
 10
77.07169972117481
 20
42.36871299344421
 30
0.0
 40
2.124650013674724
100
AcDbArc
 50
198.7183633938059
 51
270.1770533822536
  0
ARC
  5
3F34
102
{ACAD_REACTORS
330
40B2
102
}
330
2
100
AcDbEntity
  8
KIJUN
100
AcDbCircle
 10
79.80047364339793
 20
43.23810546482895
 30
0.0
 40
3.446672509963179
100
AcDbArc
 50
147.0315578607955
 51
249.6971424565127
  0
ARC
  5
3F35
102
{ACAD_REACTORS
330
40B2
102
}
330
2
100
AcDbEntity
  8
KIJUN
100
AcDbCircle
 10
79.62663985641632
 20
43.40643709756153
 30
0.0
 40
3.209567630260588
100
AcDbArc
 50
108.5694806218449
 51
147.8639857604485
  0
ARC
  5
3F36
102
{ACAD_REACTORS
330
40B2
102
}
330
2
100
AcDbEntity
  8
KIJUN
100
AcDbCircle
 10
82.03855042514527
 20
43.34388822255596
 30
0.0
 40
4.228401845490555
100
AcDbArc
 50
144.3045536051049
 51
215.6954463948951
  0
ARC
  5
3F37
102
{ACAD_REACTORS
330
40B2
102
}
330
2
100
AcDbEntity
  8
KIJUN
100
AcDbCircle
 10
78.6045388508673
 20
46.06571299857409
 30
0.0
 40
2.10046762084822
100
AcDbArc
 50
44.43784879178192
 51
135.5621512082186
  0
ARC
  5
3F38
102
{ACAD_REACTORS
330
40B2
102
}
330
2
100
AcDbEntity
  8
KIJUN
100
AcDbCircle
 10
77.40860405833666
 20
43.23810546482895
 30
0.0
 40
3.446672509963204
100
AcDbArc
 50
290.3028575434873
 51
32.96844213920451
  0
ARC
  5
3F39
102
{ACAD_REACTORS
330
40B2
102
}
330
2
100
AcDbEntity
  8
KIJUN
100
AcDbCircle
 10
77.8666495136224
 20
43.76738874124174
 30
0.0
 40
2.781192256059292
100
AcDbArc
 50
28.95214720631376
 51
74.61438641140067
  0
ARC
  5
3F3A
102
{ACAD_REACTORS
330
40B2
102
}
330
2
100
AcDbEntity
  8
KIJUN
100
AcDbCircle
 10
75.17052727658932
 20
43.34388822255607
 30
0.0
 40
4.228401845490536
100
AcDbArc
 50
324.304553605105
 51
35.69544639489504
  0
ARC
  5
3F3B
102
{ACAD_REACTORS
330
40B2
102
}
330
2
100
AcDbEntity
  8
KIJUN
100
AcDbCircle
 10
80.14371442356434
 20
48.95940476352013
 30
0.0
 40
2.040357014148805
100
AcDbArc
 50
283.2414841505736
 51
10.5932011665564
  0
ARC
  5
3F3C
102
{ACAD_REACTORS
330
40B2
102
}
330
2
100
AcDbEntity
  8
KIJUN
100
AcDbCircle
 10
75.06680059652888
 20
42.49256202851131
 30
0.0
 40
7.128525891455109
100
AcDbArc
 50
353.5104162935998
 51
45.03562554349669
  0
ARC
  5
3F3D
102
{ACAD_REACTORS
330
40B2
102
}
330
2
100
AcDbEntity
  8
KIJUN
100
AcDbCircle
 10
80.0649145411727
 20
42.4701071199953
 30
0.0
 40
2.227009180185405
100
AcDbArc
 50
271.6956484118182
 51
339.4089348121137
  0
ARC
  5
3F3E
102
{ACAD_REACTORS
330
40B2
102
}
330
2
100
AcDbEntity
  8
KIJUN
100
AcDbCircle
 10
78.60453885086736
 20
39.43662141188577
 30
0.0
 40
1.726699000150707
100
AcDbArc
 50
152.1196061177634
 51
27.88039388223658
  0
ARC
  5
3F81
102
{ACAD_REACTORS
330
40B2
102
}
330
2
100
AcDbEntity
  8
KIJUN
100
AcDbCircle
 10
83.05853157699425
 20
271.0519912840683
 30
0.0
 40
13.45399272612696
100
AcDbArc
 50
151.2696721957199
 51
197.1636676174826
  0
ARC
  5
3F82
102
{ACAD_REACTORS
330
40B2
102
}
330
2
100
AcDbEntity
  8
KIJUN
100
AcDbCircle
 10
71.81167603287576
 20
267.8505806181153
 30
0.0
 40
1.782350249187332
100
AcDbArc
 50
205.5559662391942
 51
278.8947767747948
  0
ARC
  5
3F83
102
{ACAD_REACTORS
330
40B2
102
}
330
2
100
AcDbEntity
  8
KIJUN
100
AcDbCircle
 10
111.9885915461588
 20
263.2123631132425
 30
0.0
 40
43.33224781896625
100
AcDbArc
 50
141.7454379799744
 51
148.5564652530215
  0
ARC
  5
3F84
102
{ACAD_REACTORS
330
40B2
102
}
330
2
100
AcDbEntity
  8
KIJUN
100
AcDbCircle
 10
112.0836973098926
 20
264.0278885656804
 30
0.0
 40
42.99442406791412
100
AcDbArc
 50
149.5498355669278
 51
161.7121450765248
  0
ARC
  5
3F85
102
{ACAD_REACTORS
330
40B2
102
}
330
2
100
AcDbEntity
  8
KIJUN
100
AcDbCircle
 10
74.97406476806133
 20
264.3467985055785
 30
0.0
 40
3.372121663266137
100
AcDbArc
 50
148.8790981037495
 51
250.2157825603918
  0
ARC
  5
3F86
102
{ACAD_REACTORS
330
40B2
102
}
330
2
100
AcDbEntity
  8
KIJUN
100
AcDbCircle
 10
83.06054590788972
 20
275.1717731955178
 30
0.0
 40
9.240338344730286
100
AcDbArc
 50
152.2962625073253
 51
241.1685777113544
  0
ARC
  5
3F87
102
{ACAD_REACTORS
330
40B2
102
}
330
2
100
AcDbEntity
  8
KIJUN
100
AcDbCircle
 10
179.473394045568
 20
226.9707714027029
 30
0.0
 40
117.0290663915757
100
AcDbArc
 50
149.5320398797064
 51
153.3474211372753
  0
ARC
  5
3F88
102
{ACAD_REACTORS
330
40B2
102
}
330
2
100
AcDbEntity
  8
KIJUN
100
AcDbCircle
 10
93.21802145642596
 20
276.1645572626288
 30
0.0
 40
16.2794558099084
100
AcDbArc
 50
153.8526987949462
 51
206.1473012050538
  0
ARC
  5
3F89
102
{ACAD_REACTORS
330
40B2
102
}
330
2
100
AcDbEntity
  8
KIJUN
100
AcDbCircle
 10
65.12204916312066
 20
295.6564018703314
 30
0.0
 40
20.0063487741151
100
AcDbArc
 50
297.0237707446213
 51
307.697343201483
  0
ARC
  5
3F8A
102
{ACAD_REACTORS
330
40B2
102
}
330
2
100
AcDbEntity
  8
KIJUN
100
AcDbCircle
 10
60.75036171507872
 20
288.1404752039895
 30
0.0
 40
20.65319720445603
100
AcDbArc
 50
310.7055136160141
 51
321.7040183772749
  0
ARC
  5
3F8B
102
{ACAD_REACTORS
330
40B2
102
}
330
2
100
AcDbEntity
  8
KIJUN
100
AcDbCircle
 10
77.46165016463215
 20
263.1724141151021
 30
0.0
 40
6.115094727121761
100
AcDbArc
 50
122.3871256169586
 51
151.5066116618415
  0
ARC
  5
3F8C
102
{ACAD_REACTORS
330
40B2
102
}
330
2
100
AcDbEntity
  8
KIJUN
100
AcDbCircle
 10
68.17586801247557
 20
271.9243868068912
 30
0.0
 40
4.296063784500246
100
AcDbArc
 50
311.5519638853108
 51
356.2590965836471
  0
ARC
  5
3F8D
102
{ACAD_REACTORS
330
40B2
102
}
330
2
100
AcDbEntity
  8
KIJUN
100
AcDbCircle
 10
55.06257011981961
 20
267.5593203479851
 30
0.0
 40
17.87323680943166
100
AcDbArc
 50
359.1121363666259
 51
13.21120151382801
  0
ARC
  5
3F8E
102
{ACAD_REACTORS
330
40B2
102
}
330
2
100
AcDbEntity
  8
KIJUN
100
AcDbCircle
 10
78.60453885086724
 20
289.7970256916504
 30
0.0
 40
0.6883514890760211
100
AcDbArc
 50
20.8303543063437
 51
159.1696456936563
  0
ARC
  5
3F8F
102
{ACAD_REACTORS
330
40B2
102
}
330
2
100
AcDbEntity
  8
KIJUN
100
AcDbCircle
 10
74.15054612474023
 20
271.0519912840683
 30
0.0
 40
13.45399272612696
100
AcDbArc
 50
342.8363323825174
 51
28.73032780428012
  0
ARC
  5
3F90
102
{ACAD_REACTORS
330
40B2
102
}
330
2
100
AcDbEntity
  8
KIJUN
100
AcDbCircle
 10
85.39740166885872
 20
267.8505806181153
 30
0.0
 40
1.782350249187332
100
AcDbArc
 50
261.1052232252053
 51
334.4440337608058
  0
ARC
  5
3F93
102
{ACAD_REACTORS
330
40B2
102
}
330
2
100
AcDbEntity
  8
KIJUN
100
AcDbCircle
 10
82.23501293367315
 20
264.3467985055785
 30
0.0
 40
3.372121663266137
100
AcDbArc
 50
289.7842174396082
 51
31.12090189625049
  0
ARC
  5
3F94
102
{ACAD_REACTORS
330
40B2
102
}
330
2
100
AcDbEntity
  8
KIJUN
100
AcDbCircle
 10
74.14853179384476
 20
275.1717731955178
 30
0.0
 40
9.240338344730286
100
AcDbArc
 50
298.8314222886455
 51
27.70373749267469
  0
ARC
  5
3F95
102
{ACAD_REACTORS
330
40B2
102
}
330
2
100
AcDbEntity
  8
KIJUN
100
AcDbCircle
 10
-22.26431634383357
 20
226.9707714027029
 30
0.0
 40
117.0290663915757
100
AcDbArc
 50
26.65257886272463
 51
30.46796012029354
  0
ARC
  5
3F96
102
{ACAD_REACTORS
330
40B2
102
}
330
2
100
AcDbEntity
  8
KIJUN
100
AcDbCircle
 10
63.99105624530853
 20
276.1645572626288
 30
0.0
 40
16.2794558099084
100
AcDbArc
 50
333.8526987949462
 51
26.14730120505379
  0
ARC
  5
3F97
102
{ACAD_REACTORS
330
40B2
102
}
330
2
100
AcDbEntity
  8
KIJUN
100
AcDbCircle
 10
92.08702853861394
 20
295.6564018703314
 30
0.0
 40
20.0063487741151
100
AcDbArc
 50
232.302656798517
 51
242.9762292553787
  0
ARC
  5
3F98
102
{ACAD_REACTORS
330
40B2
102
}
330
2
100
AcDbEntity
  8
KIJUN
100
AcDbCircle
 10
96.45871598665577
 20
288.1404752039895
 30
0.0
 40
20.65319720445603
100
AcDbArc
 50
218.2959816227251
 51
229.2944863839859
  0
ARC
  5
3F99
102
{ACAD_REACTORS
330
40B2
102
}
330
2
100
AcDbEntity
  8
KIJUN
100
AcDbCircle
 10
79.74742753710245
 20
263.1724141151021
 30
0.0
 40
6.115094727121761
100
AcDbArc
 50
28.49338833815849
 51
57.61287438304134
  0
ARC
  5
3F9A
102
{ACAD_REACTORS
330
40B2
102
}
330
2
100
AcDbEntity
  8
KIJUN
100
AcDbCircle
 10
89.03320968925891
 20
271.9243868068912
 30
0.0
 40
4.296063784500246
100
AcDbArc
 50
183.7409034163528
 51
228.4480361146887
  0
ARC
  5
3F9B
102
{ACAD_REACTORS
330
40B2
102
}
330
2
100
AcDbEntity
  8
KIJUN
100
AcDbCircle
 10
102.1465075819149
 20
267.5593203479851
 30
0.0
 40
17.87323680943166
100
AcDbArc
 50
166.788798486172
 51
180.8878636333741
  0
ARC
  5
3F9C
102
{ACAD_REACTORS
330
40B2
102
}
330
2
100
AcDbEntity
  8
KIJUN
100
AcDbCircle
 10
45.22048615557594
 20
263.2123631132425
 30
0.0
 40
43.33224781896625
100
AcDbArc
 50
31.44353474697849
 51
38.25456202002553
  0
ARC
  5
3F9D
102
{ACAD_REACTORS
330
40B2
102
}
330
2
100
AcDbEntity
  8
KIJUN
100
AcDbCircle
 10
45.12538039184209
 20
264.0278885656804
 30
0.0
 40
42.99442406791412
100
AcDbArc
 50
18.28785492347518
 51
30.45016443307217
  0
ARC
  5
3F9E
102
{ACAD_REACTORS
330
40B2
102
}
330
2
100
AcDbEntity
  8
KIJUN
100
AcDbCircle
 10
74.15054612474046
 20
246.4524438339432
 30
0.0
 40
13.45399272612696
100
AcDbArc
 50
342.8363323825174
 51
21.64599984386368
  0
ARC
  5
3F9F
102
{ACAD_REACTORS
330
40B2
102
}
330
2
100
AcDbEntity
  8
KIJUN
100
AcDbCircle
 10
71.9943686606382
 20
254.2958804349662
 30
0.0
 40
13.29869951232366
100
AcDbArc
 50
31.14336999726078
 51
56.94584616866882
  0
ARC
  5
3FA0
102
{ACAD_REACTORS
330
40B2
102
}
330
2
100
AcDbEntity
  8
KIJUN
100
AcDbCircle
 10
8.24405988943306
 20
230.4950213014518
 30
0.0
 40
81.15449290929705
100
AcDbArc
 50
14.9385247984117
 51
22.21160687282809
  0
ARC
  5
3FF8
102
{ACAD_REACTORS
330
40B2
102
}
330
2
100
AcDbEntity
  8
KIJUN
100
AcDbCircle
 10
83.78340522395445
 20
64.02896122814616
 30
0.0
 40
10.30594356046672
100
AcDbArc
 50
135.1716433499776
 51
191.1197662721207
  0
ARC
  5
3FF9
102
{ACAD_REACTORS
330
40B2
102
}
330
2
100
AcDbEntity
  8
KIJUN
100
AcDbCircle
 10
75.07651277811731
 20
62.38240185670957
 30
0.0
 40
1.446354045579249
100
AcDbArc
 50
193.6387703298983
 51
255.1285322378165
  0
ARC
  5
3FFA
102
{ACAD_REACTORS
330
40B2
102
}
330
2
100
AcDbEntity
  8
KIJUN
100
AcDbCircle
 10
76.91144572090047
 20
60.57189758734899
 30
0.0
 40
2.244392715563686
100
AcDbArc
 50
169.4067988334436
 51
256.0478692288212
  0
ARC
  5
3FFB
102
{ACAD_REACTORS
330
40B2
102
}
330
2
100
AcDbEntity
  8
KIJUN
100
AcDbCircle
 10
81.48588675164438
 20
65.07550511920903
 30
0.0
 40
5.97499715582786
100
AcDbArc
 50
152.2962625073253
 51
241.1685777113544
  0
ARC
  5
3FFC
102
{ACAD_REACTORS
330
40B2
102
}
330
2
100
AcDbEntity
  8
KIJUN
100
AcDbCircle
 10
82.37111850500491
 20
66.04562100105733
 30
0.0
 40
6.434411572557175
100
AcDbArc
 50
125.8298816273694
 51
163.683912323466
  0
ARC
  5
3FFD
102
{ACAD_REACTORS
330
40B2
102
}
330
2
100
AcDbEntity
  8
KIJUN
100
AcDbCircle
 10
88.05392411658635
 20
65.71746018146313
 30
0.0
 40
10.5266385854908
100
AcDbArc
 50
153.8526987949462
 51
206.1473012050538
  0
ARC
  5
3FFE
102
{ACAD_REACTORS
330
40B2
102
}
330
2
100
AcDbEntity
  8
KIJUN
100
AcDbCircle
 10
75.86891836684538
 20
60.58767923708813
 30
0.0
 40
1.229415101802707
100
AcDbArc
 50
79.67933238773901
 51
161.1696058993678
  0
ARC
  5
3FFF
102
{ACAD_REACTORS
330
40B2
102
}
330
2
100
AcDbEntity
  8
KIJUN
100
AcDbCircle
 10
73.95771967854102
 20
63.49260120129378
 30
0.0
 40
1.132403111329601
100
AcDbArc
 50
290.8596470197283
 51
2.234141068384338
  0
ARC
  5
4000
102
{ACAD_REACTORS
330
40B2
102
}
330
2
100
AcDbEntity
  8
KIJUN
100
AcDbCircle
 10
71.63041343532109
 20
61.93435775401588
 30
0.0
 40
3.811991784363756
100
AcDbArc
 50
357.0604775868127
 51
24.85697530922799
  0
ARC
  5
4001
102
{ACAD_REACTORS
330
40B2
102
}
330
2
100
AcDbEntity
  8
KIJUN
100
AcDbCircle
 10
78.60453885086724
 20
69.20556355648876
 30
0.0
 40
2.983618779613948
100
AcDbArc
 50
44.43784879178134
 51
135.5621512082186
  0
ARC
  5
4002
102
{ACAD_REACTORS
330
40B2
102
}
330
2
100
AcDbEntity
  8
KIJUN
100
AcDbCircle
 10
73.42567247778004
 20
64.02896122814616
 30
0.0
 40
10.30594356046673
100
AcDbArc
 50
348.8802337278793
 51
44.82835665002301
  0
ARC
  5
4003
102
{ACAD_REACTORS
330
40B2
102
}
330
2
100
AcDbEntity
  8
KIJUN
100
AcDbCircle
 10
82.13256492361734
 20
62.38240185670957
 30
0.0
 40
1.446354045579249
100
AcDbArc
 50
284.8714677621836
 51
346.3612296701017
  0
ARC
  5
4004
102
{ACAD_REACTORS
330
40B2
102
}
330
2
100
AcDbEntity
  8
KIJUN
100
AcDbCircle
 10
75.72319095009032
 20
65.07550511920903
 30
0.0
 40
5.97499715582786
100
AcDbArc
 50
298.8314222886455
 51
27.70373749267469
  0
ARC
  5
4005
102
{ACAD_REACTORS
330
40B2
102
}
330
2
100
AcDbEntity
  8
KIJUN
100
AcDbCircle
 10
74.83795919672957
 20
66.04562100105733
 30
0.0
 40
6.434411572557175
100
AcDbArc
 50
16.31608767653395
 51
54.17011837263059
  0
ARC
  5
4006
102
{ACAD_REACTORS
330
40B2
102
}
330
2
100
AcDbEntity
  8
KIJUN
100
AcDbCircle
 10
69.15515358514824
 20
65.71746018146313
 30
0.0
 40
10.5266385854908
100
AcDbArc
 50
333.8526987949462
 51
26.14730120505379
  0
ARC
  5
4007
102
{ACAD_REACTORS
330
40B2
102
}
330
2
100
AcDbEntity
  8
KIJUN
100
AcDbCircle
 10
81.34015933488928
 20
60.58767923708813
 30
0.0
 40
1.229415101802707
100
AcDbArc
 50
18.83039410063217
 51
100.3206676122543
  0
ARC
  5
4008
102
{ACAD_REACTORS
330
40B2
102
}
330
2
100
AcDbEntity
  8
KIJUN
100
AcDbCircle
 10
83.25135802319364
 20
63.49260120129378
 30
0.0
 40
1.132403111329601
100
AcDbArc
 50
177.7658589316156
 51
249.1403529802716
  0
ARC
  5
4009
102
{ACAD_REACTORS
330
40B2
102
}
330
2
100
AcDbEntity
  8
KIJUN
100
AcDbCircle
 10
85.57866426641357
 20
61.93435775401588
 30
0.0
 40
3.811991784363756
100
AcDbArc
 50
155.143024690772
 51
182.9395224131872
  0
ARC
  5
400A
102
{ACAD_REACTORS
330
40B2
102
}
330
2
100
AcDbEntity
  8
KIJUN
100
AcDbCircle
 10
80.29763198083401
 20
60.57189758734899
 30
0.0
 40
2.244392715563686
100
AcDbArc
 50
283.9521307711788
 51
10.5932011665564
  0
ARC
  5
400B
102
{ACAD_REACTORS
330
40B2
102
}
330
2
100
AcDbEntity
  8
KIJUN
100
AcDbCircle
 10
84.30129186126317
 20
77.03655236851523
 30
0.0
 40
11.33653791651339
100
AcDbArc
 50
135.1716433499776
 51
191.1197662721207
  0
ARC
  5
400C
102
{ACAD_REACTORS
330
40B2
102
}
330
2
100
AcDbEntity
  8
KIJUN
100
AcDbCircle
 10
74.72371017084231
 20
75.22533705993499
 30
0.0
 40
1.590989450137174
100
AcDbArc
 50
193.6387703298983
 51
255.1285322378165
  0
ARC
  5
400D
102
{ACAD_REACTORS
330
40B2
102
}
330
2
100
AcDbEntity
  8
KIJUN
100
AcDbCircle
 10
76.74213640790378
 20
73.23378236363834
 30
0.0
 40
2.468831987120055
100
AcDbArc
 50
169.4067988334436
 51
254.1053293737599
  0
ARC
  5
400E
102
{ACAD_REACTORS
330
40B2
102
}
330
2
100
AcDbEntity
  8
KIJUN
100
AcDbCircle
 10
81.77402154172211
 20
78.18775064868441
 30
0.0
 40
6.572496871410646
100
AcDbArc
 50
152.2962625073253
 51
241.1685777113544
  0
ARC
  5
400F
102
{ACAD_REACTORS
330
40B2
102
}
330
2
100
AcDbEntity
  8
KIJUN
100
AcDbCircle
 10
82.74777647041867
 20
79.2548781187175
 30
0.0
 40
7.077852729812893
100
AcDbArc
 50
125.8298816273694
 51
163.683912323466
  0
ARC
  5
4010
102
{ACAD_REACTORS
330
40B2
102
}
330
2
100
AcDbEntity
  8
KIJUN
100
AcDbCircle
 10
88.9988626431583
 20
78.89390121716388
 30
0.0
 40
11.57930244403988
100
AcDbArc
 50
153.8526987949462
 51
206.1473012050538
  0
ARC
  5
4011
102
{ACAD_REACTORS
330
40B2
102
}
330
2
100
AcDbEntity
  8
KIJUN
100
AcDbCircle
 10
75.59535631844318
 20
73.25114217835142
 30
0.0
 40
1.352356611982978
100
AcDbArc
 50
79.67933238773901
 51
161.1696058993678
  0
ARC
  5
4012
102
{ACAD_REACTORS
330
40B2
102
}
330
2
100
AcDbEntity
  8
KIJUN
100
AcDbCircle
 10
73.49303776130842
 20
76.44655633897764
 30
0.0
 40
1.245643422462561
100
AcDbArc
 50
290.8596470197283
 51
2.234141068384338
  0
ARC
  5
4013
102
{ACAD_REACTORS
330
40B2
102
}
330
2
100
AcDbEntity
  8
KIJUN
100
AcDbCircle
 10
70.93300089376646
 20
74.73248854697192
 30
0.0
 40
4.193190962800132
100
AcDbArc
 50
357.0604775868127
 51
24.85697530922799
  0
ARC
  5
4014
102
{ACAD_REACTORS
330
40B2
102
}
330
2
100
AcDbEntity
  8
KIJUN
100
AcDbCircle
 10
78.60453885086724
 20
82.73081492969209
 30
0.0
 40
3.281980657575343
100
AcDbArc
 50
44.43784879178134
 51
135.5621512082186
  0
ARC
  5
4015
102
{ACAD_REACTORS
330
40B2
102
}
330
2
100
AcDbEntity
  8
KIJUN
100
AcDbCircle
 10
72.90778584047131
 20
77.03655236851523
 30
0.0
 40
11.3365379165134
100
AcDbArc
 50
348.8802337278793
 51
44.82835665002301
  0
ARC
  5
4016
102
{ACAD_REACTORS
330
40B2
102
}
330
2
100
AcDbEntity
  8
KIJUN
100
AcDbCircle
 10
82.48536753089235
 20
75.22533705993499
 30
0.0
 40
1.590989450137174
100
AcDbArc
 50
284.8714677621836
 51
346.3612296701017
  0
ARC
  5
4017
102
{ACAD_REACTORS
330
40B2
102
}
330
2
100
AcDbEntity
  8
KIJUN
100
AcDbCircle
 10
75.43505616001266
 20
78.18775064868441
 30
0.0
 40
6.572496871410646
100
AcDbArc
 50
298.8314222886455
 51
27.70373749267469
  0
ARC
  5
4018
102
{ACAD_REACTORS
330
40B2
102
}
330
2
100
AcDbEntity
  8
KIJUN
100
AcDbCircle
 10
74.46130123131581
 20
79.2548781187175
 30
0.0
 40
7.077852729812893
100
AcDbArc
 50
16.31608767653395
 51
54.17011837263059
  0
ARC
  5
4019
102
{ACAD_REACTORS
330
40B2
102
}
330
2
100
AcDbEntity
  8
KIJUN
100
AcDbCircle
 10
68.21021505857635
 20
78.89390121716388
 30
0.0
 40
11.57930244403988
100
AcDbArc
 50
333.8526987949462
 51
26.14730120505379
  0
ARC
  5
401A
102
{ACAD_REACTORS
330
40B2
102
}
330
2
100
AcDbEntity
  8
KIJUN
100
AcDbCircle
 10
81.61372138329147
 20
73.25114217835142
 30
0.0
 40
1.352356611982978
100
AcDbArc
 50
18.83039410063217
 51
100.3206676122543
  0
ARC
  5
401B
102
{ACAD_REACTORS
330
40B2
102
}
330
2
100
AcDbEntity
  8
KIJUN
100
AcDbCircle
 10
83.71603994042629
 20
76.44655633897764
 30
0.0
 40
1.245643422462561
100
AcDbArc
 50
177.7658589316156
 51
249.1403529802716
  0
ARC
  5
401C
102
{ACAD_REACTORS
330
40B2
102
}
330
2
100
AcDbEntity
  8
KIJUN
100
AcDbCircle
 10
86.27607680796819
 20
74.73248854697192
 30
0.0
 40
4.193190962800132
100
AcDbArc
 50
155.143024690772
 51
182.9395224131872
  0
ARC
  5
401D
102
{ACAD_REACTORS
330
40B2
102
}
330
2
100
AcDbEntity
  8
KIJUN
100
AcDbCircle
 10
80.4669412938307
 20
73.23378236363834
 30
0.0
 40
2.468831987120055
100
AcDbArc
 50
285.8946706262401
 51
10.5932011665564
  0
ARC
  5
4035
102
{ACAD_REACTORS
330
40B2
102
}
330
2
100
AcDbEntity
  8
KIJUN
100
AcDbCircle
 10
84.30129186126317
 20
90.7260024292384
 30
0.0
 40
11.33653791651339
100
AcDbArc
 50
135.1716433499776
 51
191.1197662721207
  0
ARC
  5
4036
102
{ACAD_REACTORS
330
40B2
102
}
330
2
100
AcDbEntity
  8
KIJUN
100
AcDbCircle
 10
74.72371017084231
 20
88.91478712065817
 30
0.0
 40
1.590989450137174
100
AcDbArc
 50
193.6387703298983
 51
255.1285322378165
  0
ARC
  5
4037
102
{ACAD_REACTORS
330
40B2
102
}
330
2
100
AcDbEntity
  8
KIJUN
100
AcDbCircle
 10
76.74213640790378
 20
86.92323242436151
 30
0.0
 40
2.468831987120055
100
AcDbArc
 50
169.4067988334436
 51
249.292247929901
  0
ARC
  5
4038
102
{ACAD_REACTORS
330
40B2
102
}
330
2
100
AcDbEntity
  8
KIJUN
100
AcDbCircle
 10
81.77402154172211
 20
91.87720070940759
 30
0.0
 40
6.572496871410646
100
AcDbArc
 50
152.2962625073253
 51
241.1685777113544
  0
ARC
  5
4039
102
{ACAD_REACTORS
330
40B2
102
}
330
2
100
AcDbEntity
  8
KIJUN
100
AcDbCircle
 10
82.74777647041867
 20
92.94432817944068
 30
0.0
 40
7.077852729812893
100
AcDbArc
 50
125.8298816273694
 51
163.683912323466
  0
ARC
  5
403A
102
{ACAD_REACTORS
330
40B2
102
}
330
2
100
AcDbEntity
  8
KIJUN
100
AcDbCircle
 10
88.9988626431583
 20
92.58335127788706
 30
0.0
 40
11.57930244403988
100
AcDbArc
 50
153.8526987949462
 51
206.1473012050538
  0
ARC
  5
403B
102
{ACAD_REACTORS
330
40B2
102
}
330
2
100
AcDbEntity
  8
KIJUN
100
AcDbCircle
 10
75.59535631844318
 20
86.94059223907458
 30
0.0
 40
1.352356611982978
100
AcDbArc
 50
79.67933238773901
 51
161.1696058993678
  0
ARC
  5
403C
102
{ACAD_REACTORS
330
40B2
102
}
330
2
100
AcDbEntity
  8
KIJUN
100
AcDbCircle
 10
73.49303776130842
 20
90.13600639970082
 30
0.0
 40
1.245643422462561
100
AcDbArc
 50
290.8596470197283
 51
2.234141068384338
  0
ARC
  5
403D
102
{ACAD_REACTORS
330
40B2
102
}
330
2
100
AcDbEntity
  8
KIJUN
100
AcDbCircle
 10
70.93300089376646
 20
88.4219386076951
 30
0.0
 40
4.193190962800132
100
AcDbArc
 50
357.0604775868127
 51
24.85697530922799
  0
ARC
  5
403E
102
{ACAD_REACTORS
330
40B2
102
}
330
2
100
AcDbEntity
  8
KIJUN
100
AcDbCircle
 10
78.60453885086724
 20
96.42026499041527
 30
0.0
 40
3.281980657575343
100
AcDbArc
 50
44.43784879178134
 51
135.5621512082186
  0
ARC
  5
403F
102
{ACAD_REACTORS
330
40B2
102
}
330
2
100
AcDbEntity
  8
KIJUN
100
AcDbCircle
 10
72.90778584047131
 20
90.7260024292384
 30
0.0
 40
11.3365379165134
100
AcDbArc
 50
348.8802337278793
 51
44.82835665002301
  0
ARC
  5
4040
102
{ACAD_REACTORS
330
40B2
102
}
330
2
100
AcDbEntity
  8
KIJUN
100
AcDbCircle
 10
82.48536753089235
 20
88.91478712065817
 30
0.0
 40
1.590989450137174
100
AcDbArc
 50
284.8714677621836
 51
346.3612296701017
  0
ARC
  5
4041
102
{ACAD_REACTORS
330
40B2
102
}
330
2
100
AcDbEntity
  8
KIJUN
100
AcDbCircle
 10
75.43505616001266
 20
91.87720070940759
 30
0.0
 40
6.572496871410646
100
AcDbArc
 50
298.8314222886455
 51
27.70373749267469
  0
ARC
  5
4042
102
{ACAD_REACTORS
330
40B2
102
}
330
2
100
AcDbEntity
  8
KIJUN
100
AcDbCircle
 10
74.46130123131581
 20
92.94432817944068
 30
0.0
 40
7.077852729812893
100
AcDbArc
 50
16.31608767653395
 51
54.17011837263059
  0
ARC
  5
4043
102
{ACAD_REACTORS
330
40B2
102
}
330
2
100
AcDbEntity
  8
KIJUN
100
AcDbCircle
 10
68.21021505857635
 20
92.58335127788706
 30
0.0
 40
11.57930244403988
100
AcDbArc
 50
333.8526987949462
 51
26.14730120505379
  0
ARC
  5
4044
102
{ACAD_REACTORS
330
40B2
102
}
330
2
100
AcDbEntity
  8
KIJUN
100
AcDbCircle
 10
81.61372138329147
 20
86.94059223907458
 30
0.0
 40
1.352356611982978
100
AcDbArc
 50
18.83039410063217
 51
100.3206676122543
  0
ARC
  5
4045
102
{ACAD_REACTORS
330
40B2
102
}
330
2
100
AcDbEntity
  8
KIJUN
100
AcDbCircle
 10
83.71603994042629
 20
90.13600639970082
 30
0.0
 40
1.245643422462561
100
AcDbArc
 50
177.7658589316156
 51
249.1403529802716
  0
ARC
  5
4046
102
{ACAD_REACTORS
330
40B2
102
}
330
2
100
AcDbEntity
  8
KIJUN
100
AcDbCircle
 10
86.27607680796819
 20
88.4219386076951
 30
0.0
 40
4.193190962800132
100
AcDbArc
 50
155.143024690772
 51
182.9395224131872
  0
ARC
  5
4047
102
{ACAD_REACTORS
330
40B2
102
}
330
2
100
AcDbEntity
  8
KIJUN
100
AcDbCircle
 10
80.4669412938307
 20
86.92323242436151
 30
0.0
 40
2.468831987120055
100
AcDbArc
 50
290.707752070099
 51
10.5932011665564
  0
ARC
  5
4048
102
{ACAD_REACTORS
330
40B2
102
}
330
2
100
AcDbEntity
  8
KIJUN
100
AcDbCircle
 10
84.87096716230281
 20
105.8503342498523
 30
0.0
 40
12.47019170816473
100
AcDbArc
 50
135.171643349977
 51
191.1197662721207
  0
ARC
  5
4049
102
{ACAD_REACTORS
330
40B2
102
}
330
2
100
AcDbEntity
  8
KIJUN
100
AcDbCircle
 10
74.33562730283984
 20
103.8579974104141
 30
0.0
 40
1.750088395150892
100
AcDbArc
 50
193.6387703298983
 51
255.1285322378165
  0
ARC
  5
404A
102
{ACAD_REACTORS
330
40B2
102
}
330
2
100
AcDbEntity
  8
KIJUN
100
AcDbCircle
 10
77.02796646902442
 20
101.7880040175073
 30
0.0
 40
3.164224523055691
100
AcDbArc
 50
173.1294373172517
 51
255.9757285164849
  0
ARC
  5
404B
102
{ACAD_REACTORS
330
40B2
102
}
330
2
100
AcDbEntity
  8
KIJUN
100
AcDbCircle
 10
82.09096981080756
 20
107.1166523580385
 30
0.0
 40
7.229746558551711
100
AcDbArc
 50
152.2962625073253
 51
241.1685777113544
  0
ARC
  5
404C
102
{ACAD_REACTORS
330
40B2
102
}
330
2
100
AcDbEntity
  8
KIJUN
100
AcDbCircle
 10
83.16210023237379
 20
108.2904925750749
 30
0.0
 40
7.785638002794184
100
AcDbArc
 50
125.8298816273694
 51
163.683912323466
  0
ARC
  5
404D
102
{ACAD_REACTORS
330
40B2
102
}
330
2
100
AcDbEntity
  8
KIJUN
100
AcDbCircle
 10
90.03829502238739
 20
107.8934179833659
 30
0.0
 40
12.73723268844387
100
AcDbArc
 50
153.8526987949462
 51
206.1473012050538
  0
ARC
  5
404E
102
{ACAD_REACTORS
330
40B2
102
}
330
2
100
AcDbEntity
  8
KIJUN
100
AcDbCircle
 10
75.29443806520077
 20
101.6863830406722
 30
0.0
 40
1.487592273181276
100
AcDbArc
 50
79.67933238773901
 51
161.1696058993678
  0
ARC
  5
404F
102
{ACAD_REACTORS
330
40B2
102
}
330
2
100
AcDbEntity
  8
KIJUN
100
AcDbCircle
 10
72.98188765235249
 20
105.2013386173611
 30
0.0
 40
1.370207764708817
100
AcDbArc
 50
290.8596470197283
 51
2.234141068384338
  0
ARC
  5
4050
102
{ACAD_REACTORS
330
40B2
102
}
330
2
100
AcDbEntity
  8
KIJUN
100
AcDbCircle
 10
70.16584709805636
 20
103.3158640461547
 30
0.0
 40
4.612510059080146
100
AcDbArc
 50
357.0604775868127
 51
24.85697530922799
  0
ARC
  5
4051
102
{ACAD_REACTORS
330
40B2
102
}
330
2
100
AcDbEntity
  8
KIJUN
100
AcDbCircle
 10
78.60453885086724
 20
112.1140230671469
 30
0.0
 40
3.610178723332878
100
AcDbArc
 50
44.43784879178134
 51
135.562151208218
  0
ARC
  5
4052
102
{ACAD_REACTORS
330
40B2
102
}
330
2
100
AcDbEntity
  8
KIJUN
100
AcDbCircle
 10
72.33811053943174
 20
105.8503342498523
 30
0.0
 40
12.47019170816474
100
AcDbArc
 50
348.8802337278793
 51
44.82835665002301
  0
ARC
  5
4053
102
{ACAD_REACTORS
330
40B2
102
}
330
2
100
AcDbEntity
  8
KIJUN
100
AcDbCircle
 10
82.87345039889487
 20
103.8579974104141
 30
0.0
 40
1.750088395150892
100
AcDbArc
 50
284.8714677621836
 51
346.3612296701017
  0
ARC
  5
4054
102
{ACAD_REACTORS
330
40B2
102
}
330
2
100
AcDbEntity
  8
KIJUN
100
AcDbCircle
 10
75.11810789092715
 20
107.1166523580385
 30
0.0
 40
7.229746558551711
100
AcDbArc
 50
298.8314222886455
 51
27.70373749267469
  0
ARC
  5
4055
102
{ACAD_REACTORS
330
40B2
102
}
330
2
100
AcDbEntity
  8
KIJUN
100
AcDbCircle
 10
74.04697746936062
 20
108.2904925750749
 30
0.0
 40
7.785638002794184
100
AcDbArc
 50
16.31608767653395
 51
54.17011837263059
  0
ARC
  5
4056
102
{ACAD_REACTORS
330
40B2
102
}
330
2
100
AcDbEntity
  8
KIJUN
100
AcDbCircle
 10
67.17078267934727
 20
107.8934179833659
 30
0.0
 40
12.73723268844387
100
AcDbArc
 50
333.8526987949462
 51
26.14730120505379
  0
ARC
  5
4057
102
{ACAD_REACTORS
330
40B2
102
}
330
2
100
AcDbEntity
  8
KIJUN
100
AcDbCircle
 10
81.91463963653394
 20
101.6863830406722
 30
0.0
 40
1.487592273181276
100
AcDbArc
 50
18.83039410063217
 51
100.3206676122543
  0
ARC
  5
4058
102
{ACAD_REACTORS
330
40B2
102
}
330
2
100
AcDbEntity
  8
KIJUN
100
AcDbCircle
 10
84.22719004938215
 20
105.2013386173611
 30
0.0
 40
1.370207764708817
100
AcDbArc
 50
177.7658589316156
 51
249.1403529802716
  0
ARC
  5
4059
102
{ACAD_REACTORS
330
40B2
102
}
330
2
100
AcDbEntity
  8
KIJUN
100
AcDbCircle
 10
87.0432306036783
 20
103.3158640461547
 30
0.0
 40
4.612510059080146
100
AcDbArc
 50
155.143024690772
 51
182.9395224131872
  0
ARC
  5
405A
102
{ACAD_REACTORS
330
40B2
102
}
330
2
100
AcDbEntity
  8
KIJUN
100
AcDbCircle
 10
80.18111123271006
 20
101.7880040175072
 30
0.0
 40
3.16422452305558
100
AcDbArc
 50
284.0242714835217
 51
6.870562682748249
  0
ARC
  5
405C
102
{ACAD_REACTORS
330
40B2
102
}
330
2
100
AcDbEntity
  8
KIJUN
100
AcDbCircle
 10
85.49760999344631
 20
122.7352673873183
 30
0.0
 40
13.71721087898121
100
AcDbArc
 50
135.171643349977
 51
191.1197662721207
  0
ARC
  5
405D
102
{ACAD_REACTORS
330
40B2
102
}
330
2
100
AcDbEntity
  8
KIJUN
100
AcDbCircle
 10
73.90873614803706
 20
120.5436968639361
 30
0.0
 40
1.925097234665981
100
AcDbArc
 50
193.6387703298983
 51
255.1285322378165
  0
ARC
  5
405E
102
{ACAD_REACTORS
330
40B2
102
}
330
2
100
AcDbEntity
  8
KIJUN
100
AcDbCircle
 10
77.42065363881613
 20
118.4074369849132
 30
0.0
 40
4.015468782405601
100
AcDbArc
 50
176.0637809586008
 51
249.689191311024
  0
ARC
  5
405F
102
{ACAD_REACTORS
330
40B2
102
}
330
2
100
AcDbEntity
  8
KIJUN
100
AcDbCircle
 10
82.43961290680159
 20
124.128217306323
 30
0.0
 40
7.952721214406883
100
AcDbArc
 50
152.2962625073253
 51
241.1685777113544
  0
ARC
  5
4060
102
{ACAD_REACTORS
330
40B2
102
}
330
2
100
AcDbEntity
  8
KIJUN
100
AcDbCircle
 10
83.61785637052447
 20
125.4194415450631
 30
0.0
 40
8.564201803073602
100
AcDbArc
 50
125.8298816273694
 51
163.683912323466
  0
ARC
  5
4061
102
{ACAD_REACTORS
330
40B2
102
}
330
2
100
AcDbEntity
  8
KIJUN
100
AcDbCircle
 10
91.18167063953945
 20
124.9826594941831
 30
0.0
 40
14.01095595728826
100
AcDbArc
 50
153.8526987949462
 51
206.1473012050538
  0
ARC
  5
4062
102
{ACAD_REACTORS
330
40B2
102
}
330
2
100
AcDbEntity
  8
KIJUN
100
AcDbCircle
 10
74.96342798663409
 20
118.1549210572201
 30
0.0
 40
1.636351500499403
100
AcDbArc
 50
79.67933238773901
 51
161.1696058993678
  0
ARC
  5
4063
102
{ACAD_REACTORS
330
40B2
102
}
330
2
100
AcDbEntity
  8
KIJUN
100
AcDbCircle
 10
72.41962253250102
 20
122.0213721915779
 30
0.0
 40
1.507228541179699
100
AcDbArc
 50
290.8596470197283
 51
2.234141068384338
  0
ARC
  5
4064
102
{ACAD_REACTORS
330
40B2
102
}
330
2
100
AcDbEntity
  8
KIJUN
100
AcDbCircle
 10
69.32197792277531
 20
119.9473501632508
 30
0.0
 40
5.073761064988161
100
AcDbArc
 50
357.0604775868127
 51
24.85697530922799
  0
ARC
  5
4065
102
{ACAD_REACTORS
330
40B2
102
}
330
2
100
AcDbEntity
  8
KIJUN
100
AcDbCircle
 10
78.60453885086724
 20
129.6253250863423
 30
0.0
 40
3.971196595666166
100
AcDbArc
 50
44.43784879178134
 51
135.562151208218
  0
ARC
  5
4066
102
{ACAD_REACTORS
330
40B2
102
}
330
2
100
AcDbEntity
  8
KIJUN
100
AcDbCircle
 10
71.71146770828818
 20
122.7352673873183
 30
0.0
 40
13.71721087898122
100
AcDbArc
 50
348.8802337278793
 51
44.82835665002301
  0
ARC
  5
4067
102
{ACAD_REACTORS
330
40B2
102
}
330
2
100
AcDbEntity
  8
KIJUN
100
AcDbCircle
 10
83.30034155369759
 20
120.5436968639361
 30
0.0
 40
1.925097234665981
100
AcDbArc
 50
284.8714677621836
 51
346.3612296701017
  0
ARC
  5
4068
102
{ACAD_REACTORS
330
40B2
102
}
330
2
100
AcDbEntity
  8
KIJUN
100
AcDbCircle
 10
74.76946479493313
 20
124.128217306323
 30
0.0
 40
7.952721214406883
100
AcDbArc
 50
298.8314222886455
 51
27.70373749267469
  0
ARC
  5
4069
102
{ACAD_REACTORS
330
40B2
102
}
330
2
100
AcDbEntity
  8
KIJUN
100
AcDbCircle
 10
73.59122133121002
 20
125.4194415450631
 30
0.0
 40
8.564201803073602
100
AcDbArc
 50
16.31608767653395
 51
54.17011837263059
  0
ARC
  5
406A
102
{ACAD_REACTORS
330
40B2
102
}
330
2
100
AcDbEntity
  8
KIJUN
100
AcDbCircle
 10
66.02740706219527
 20
124.9826594941831
 30
0.0
 40
14.01095595728826
100
AcDbArc
 50
333.8526987949462
 51
26.14730120505379
  0
ARC
  5
406B
102
{ACAD_REACTORS
330
40B2
102
}
330
2
100
AcDbEntity
  8
KIJUN
100
AcDbCircle
 10
82.24564971510057
 20
118.1549210572201
 30
0.0
 40
1.636351500499403
100
AcDbArc
 50
18.83039410063217
 51
100.3206676122543
  0
ARC
  5
406C
102
{ACAD_REACTORS
330
40B2
102
}
330
2
100
AcDbEntity
  8
KIJUN
100
AcDbCircle
 10
84.78945516923364
 20
122.0213721915779
 30
0.0
 40
1.507228541179699
100
AcDbArc
 50
177.7658589316156
 51
249.1403529802716
  0
ARC
  5
406D
102
{ACAD_REACTORS
330
40B2
102
}
330
2
100
AcDbEntity
  8
KIJUN
100
AcDbCircle
 10
87.88709977895939
 20
119.9473501632508
 30
0.0
 40
5.073761064988161
100
AcDbArc
 50
155.143024690772
 51
182.9395224131872
  0
ARC
  5
406E
102
{ACAD_REACTORS
330
40B2
102
}
330
2
100
AcDbEntity
  8
KIJUN
100
AcDbCircle
 10
79.78842406291812
 20
118.4074369849133
 30
0.0
 40
4.015468782405885
100
AcDbArc
 50
290.310808688976
 51
3.936219041397502
  0
ARC
  5
406F
102
{ACAD_REACTORS
330
40B2
102
}
330
2
100
AcDbEntity
  8
KIJUN
100
AcDbCircle
 10
86.18691710770423
 20
141.1558678208571
 30
0.0
 40
15.08893196687933
100
AcDbArc
 50
135.171643349977
 51
191.1197662721207
  0
ARC
  5
4070
102
{ACAD_REACTORS
330
40B2
102
}
330
2
100
AcDbEntity
  8
KIJUN
100
AcDbCircle
 10
73.43915587775405
 20
138.7451402451367
 30
0.0
 40
2.117606958132579
100
AcDbArc
 50
193.6387703298983
 51
255.1285322378165
  0
ARC
  5
4071
102
{ACAD_REACTORS
330
40B2
102
}
330
2
100
AcDbEntity
  8
KIJUN
100
AcDbCircle
 10
77.302265117611
 20
136.3952543782116
 30
0.0
 40
4.417015660646161
100
AcDbArc
 50
176.0637809586008
 51
248.1746373433324
  0
ARC
  5
4072
102
{ACAD_REACTORS
330
40B2
102
}
330
2
100
AcDbEntity
  8
KIJUN
100
AcDbCircle
 10
82.82312031239507
 20
142.6881127317624
 30
0.0
 40
8.747993335847572
100
AcDbArc
 50
152.2962625073253
 51
241.1685777113544
  0
ARC
  5
4073
102
{ACAD_REACTORS
330
40B2
102
}
330
2
100
AcDbEntity
  8
KIJUN
100
AcDbCircle
 10
84.11918812249018
 20
144.1084593943764
 30
0.0
 40
9.420621983380964
100
AcDbArc
 50
125.8298816273694
 51
163.683912323466
  0
ARC
  5
4074
102
{ACAD_REACTORS
330
40B2
102
}
330
2
100
AcDbEntity
  8
KIJUN
100
AcDbCircle
 10
92.43938381840667
 20
143.6279991384085
 30
0.0
 40
15.41205155301708
100
AcDbArc
 50
153.8526987949462
 51
206.1473012050538
  0
ARC
  5
4075
102
{ACAD_REACTORS
330
40B2
102
}
330
2
100
AcDbEntity
  8
KIJUN
100
AcDbCircle
 10
74.59931690021079
 20
136.1174868577491
 30
0.0
 40
1.799986650549344
100
AcDbArc
 50
79.67933238773901
 51
161.1696058993678
  0
ARC
  5
4076
102
{ACAD_REACTORS
330
40B2
102
}
330
2
100
AcDbEntity
  8
KIJUN
100
AcDbCircle
 10
71.80113090066436
 20
140.3705831055427
 30
0.0
 40
1.657951395297669
100
AcDbArc
 50
290.8596470197283
 51
2.234141068384338
  0
ARC
  5
4077
102
{ACAD_REACTORS
330
40B2
102
}
330
2
100
AcDbEntity
  8
KIJUN
100
AcDbCircle
 10
68.39372182996612
 20
138.0891588743829
 30
0.0
 40
5.581137171486978
100
AcDbArc
 50
357.0604775868127
 51
24.85697530922799
  0
ARC
  5
4078
102
{ACAD_REACTORS
330
40B2
102
}
330
2
100
AcDbEntity
  8
KIJUN
100
AcDbCircle
 10
78.60453885086724
 20
148.7349312897835
 30
0.0
 40
4.368316255232783
100
AcDbArc
 50
44.43784879178134
 51
135.562151208218
  0
ARC
  5
4079
102
{ACAD_REACTORS
330
40B2
102
}
330
2
100
AcDbEntity
  8
KIJUN
100
AcDbCircle
 10
71.02216059403031
 20
141.1558678208571
 30
0.0
 40
15.08893196687934
100
AcDbArc
 50
348.8802337278793
 51
44.82835665002301
  0
ARC
  5
407A
102
{ACAD_REACTORS
330
40B2
102
}
330
2
100
AcDbEntity
  8
KIJUN
100
AcDbCircle
 10
83.7699218239806
 20
138.7451402451367
 30
0.0
 40
2.117606958132579
100
AcDbArc
 50
284.8714677621836
 51
346.3612296701017
  0
ARC
  5
407B
102
{ACAD_REACTORS
330
40B2
102
}
330
2
100
AcDbEntity
  8
KIJUN
100
AcDbCircle
 10
74.38595738933975
 20
142.6881127317624
 30
0.0
 40
8.747993335847572
100
AcDbArc
 50
298.8314222886455
 51
27.70373749267469
  0
ARC
  5
407C
102
{ACAD_REACTORS
330
40B2
102
}
330
2
100
AcDbEntity
  8
KIJUN
100
AcDbCircle
 10
73.0898895792443
 20
144.1084593943764
 30
0.0
 40
9.420621983380964
100
AcDbArc
 50
16.31608767653395
 51
54.17011837263059
  0
ARC
  5
407D
102
{ACAD_REACTORS
330
40B2
102
}
330
2
100
AcDbEntity
  8
KIJUN
100
AcDbCircle
 10
64.76969388332804
 20
143.6279991384085
 30
0.0
 40
15.41205155301708
100
AcDbArc
 50
333.8526987949462
 51
26.14730120505379
  0
ARC
  5
407E
102
{ACAD_REACTORS
330
40B2
102
}
330
2
100
AcDbEntity
  8
KIJUN
100
AcDbCircle
 10
82.60976080152387
 20
136.1174868577491
 30
0.0
 40
1.799986650549344
100
AcDbArc
 50
18.83039410063217
 51
100.3206676122543
  0
ARC
  5
407F
102
{ACAD_REACTORS
330
40B2
102
}
330
2
100
AcDbEntity
  8
KIJUN
100
AcDbCircle
 10
85.40794680107024
 20
140.3705831055427
 30
0.0
 40
1.657951395297669
100
AcDbArc
 50
177.7658589316156
 51
249.1403529802716
  0
ARC
  5
4080
102
{ACAD_REACTORS
330
40B2
102
}
330
2
100
AcDbEntity
  8
KIJUN
100
AcDbCircle
 10
88.81535587176859
 20
138.0891588743829
 30
0.0
 40
5.581137171486978
100
AcDbArc
 50
155.143024690772
 51
182.9395224131872
  0
ARC
  5
4081
102
{ACAD_REACTORS
330
40B2
102
}
330
2
100
AcDbEntity
  8
KIJUN
100
AcDbCircle
 10
79.9068125841232
 20
136.3952543782117
 30
0.0
 40
4.417015660646474
100
AcDbArc
 50
291.8253626566746
 51
3.936219041397502
  0
ARC
  5
4082
102
{ACAD_REACTORS
330
40B2
102
}
330
2
100
AcDbEntity
  8
KIJUN
100
AcDbCircle
 10
94.5643531573329
 20
179.9525358052479
 30
0.0
 40
24.09914222695526
100
AcDbArc
 50
151.6229045619855
 51
185.7748467984109
  0
ARC
  5
4083
102
{ACAD_REACTORS
330
40B2
102
}
330
2
100
AcDbEntity
  8
KIJUN
100
AcDbCircle
 10
72.2480607509691
 20
177.9306094609979
 30
0.0
 40
1.708729453103253
100
AcDbArc
 50
193.6387703298983
 51
255.1285322378165
  0
ARC
  5
4084
102
{ACAD_REACTORS
330
40B2
102
}
330
2
100
AcDbEntity
  8
KIJUN
100
AcDbCircle
 10
78.36877175158139
 20
175.8779233872724
 30
0.0
 40
6.57151687693471
100
AcDbArc
 50
176.4999065100873
 51
227.2964136823846
  0
ARC
  5
4085
102
{ACAD_REACTORS
330
40B2
102
}
330
2
100
AcDbEntity
  8
KIJUN
100
AcDbCircle
 10
82.80705480643348
 20
183.570034754022
 30
0.0
 40
8.714678597144443
100
AcDbArc
 50
152.2962625073253
 51
241.1685777113544
  0
ARC
  5
4086
102
{ACAD_REACTORS
330
40B2
102
}
330
2
100
AcDbEntity
  8
KIJUN
100
AcDbCircle
 10
84.09818683768468
 20
184.9849723501089
 30
0.0
 40
9.3847456917849
100
AcDbArc
 50
125.8298816273694
 51
163.683912323466
  0
ARC
  5
4087
102
{ACAD_REACTORS
330
40B2
102
}
330
2
100
AcDbEntity
  8
KIJUN
100
AcDbCircle
 10
92.3866969647023
 20
184.5063418175152
 30
0.0
 40
15.35335826752223
100
AcDbArc
 50
153.8526987949462
 51
206.1473012050538
  0
ARC
  5
4088
102
{ACAD_REACTORS
330
40B2
102
}
330
2
100
AcDbEntity
  8
KIJUN
100
AcDbCircle
 10
73.18421243001444
 20
175.8103157406111
 30
0.0
 40
1.452436767443684
100
AcDbArc
 50
79.67933238773901
 51
161.1696058993678
  0
ARC
  5
4089
102
{ACAD_REACTORS
330
40B2
102
}
330
2
100
AcDbEntity
  8
KIJUN
100
AcDbCircle
 10
70.92631333579237
 20
179.2422041737208
 30
0.0
 40
1.337826346895387
100
AcDbArc
 50
290.8596470197283
 51
2.234141068384338
  0
ARC
  5
408A
102
{ACAD_REACTORS
330
40B2
102
}
330
2
100
AcDbEntity
  8
KIJUN
100
AcDbCircle
 10
68.17682282457503
 20
177.4012880566696
 30
0.0
 40
4.503504972962084
100
AcDbArc
 50
357.0604775868127
 51
24.85697530922799
  0
ARC
  5
408B
102
{ACAD_REACTORS
330
40B2
102
}
330
2
100
AcDbEntity
  8
KIJUN
100
AcDbCircle
 10
78.60453885086736
 20
188.5867574262705
 30
0.0
 40
5.95348368213726
100
AcDbArc
 50
28.2667997605472
 51
151.7332002394528
  0
ARC
  5
408C
102
{ACAD_REACTORS
330
40B2
102
}
330
2
100
AcDbEntity
  8
KIJUN
100
AcDbCircle
 10
62.64472454440152
 20
179.952535805248
 30
0.0
 40
24.09914222695534
100
AcDbArc
 50
354.225153201589
 51
28.37709543801448
  0
ARC
  5
408D
102
{ACAD_REACTORS
330
40B2
102
}
330
2
100
AcDbEntity
  8
KIJUN
100
AcDbCircle
 10
84.9610169507655
 20
177.9306094609979
 30
0.0
 40
1.708729453103253
100
AcDbArc
 50
284.8714677621836
 51
346.3612296701017
  0
ARC
  5
408E
102
{ACAD_REACTORS
330
40B2
102
}
330
2
100
AcDbEntity
  8
KIJUN
100
AcDbCircle
 10
78.84030595015315
 20
175.8779233872724
 30
0.0
 40
6.57151687693471
100
AcDbArc
 50
312.70358631762
 51
3.500093489912664
  0
ARC
  5
408F
102
{ACAD_REACTORS
330
40B2
102
}
330
2
100
AcDbEntity
  8
KIJUN
100
AcDbCircle
 10
74.40202289530123
 20
183.570034754022
 30
0.0
 40
8.714678597144443
100
AcDbArc
 50
298.8314222886455
 51
27.70373749267469
  0
ARC
  5
4090
102
{ACAD_REACTORS
330
40B2
102
}
330
2
100
AcDbEntity
  8
KIJUN
100
AcDbCircle
 10
73.11089086404985
 20
184.9849723501089
 30
0.0
 40
9.3847456917849
100
AcDbArc
 50
16.31608767653395
 51
54.17011837263059
  0
ARC
  5
4091
102
{ACAD_REACTORS
330
40B2
102
}
330
2
100
AcDbEntity
  8
KIJUN
100
AcDbCircle
 10
64.82238073703223
 20
184.5063418175152
 30
0.0
 40
15.35335826752223
100
AcDbArc
 50
333.8526987949462
 51
26.14730120505379
  0
ARC
  5
4092
102
{ACAD_REACTORS
330
40B2
102
}
330
2
100
AcDbEntity
  8
KIJUN
100
AcDbCircle
 10
84.02486527172005
 20
175.8103157406111
 30
0.0
 40
1.452436767443684
100
AcDbArc
 50
18.83039410063217
 51
100.3206676122543
  0
ARC
  5
4093
102
{ACAD_REACTORS
330
40B2
102
}
330
2
100
AcDbEntity
  8
KIJUN
100
AcDbCircle
 10
86.28276436594218
 20
179.2422041737208
 30
0.0
 40
1.337826346895387
100
AcDbArc
 50
177.7658589316156
 51
249.1403529802716
  0
ARC
  5
4094
102
{ACAD_REACTORS
330
40B2
102
}
330
2
100
AcDbEntity
  8
KIJUN
100
AcDbCircle
 10
89.03225487715952
 20
177.4012880566696
 30
0.0
 40
4.503504972962084
100
AcDbArc
 50
155.143024690772
 51
182.9395224131872
  0
ARC
  5
4096
102
{ACAD_REACTORS
330
40B2
102
}
330
2
100
AcDbEntity
  8
KIJUN
100
AcDbCircle
 10
84.25335583953893
 20
221.2223765049358
 30
0.0
 40
2.509807577598249
100
AcDbArc
 50
279.7857716350713
 51
354.6365175421854
  0
ARC
  5
4097
102
{ACAD_REACTORS
330
40B2
102
}
330
2
100
AcDbEntity
  8
KIJUN
100
AcDbCircle
 10
82.00121396296806
 20
217.3031645922512
 30
0.0
 40
3.044049043503356
100
AcDbArc
 50
288.839789652007
 51
28.35931574134253
  0
ARC
  5
4098
102
{ACAD_REACTORS
330
40B2
102
}
330
2
100
AcDbEntity
  8
KIJUN
100
AcDbCircle
 10
79.34928840443262
 20
216.0485944460536
 30
0.0
 40
5.97565449131368
100
AcDbArc
 50
26.86665724066936
 51
57.40920931288614
  0
ARC
  5
4099
102
{ACAD_REACTORS
330
40B2
102
}
330
2
100
AcDbEntity
  8
KIJUN
100
AcDbCircle
 10
88.98715480271727
 20
223.9823636867482
 30
0.0
 40
5.102005027122974
100
AcDbArc
 50
186.8767068883413
 51
219.2569562667749
  0
ARC
  5
409A
102
{ACAD_REACTORS
330
40B2
102
}
330
2
100
AcDbEntity
  8
KIJUN
100
AcDbCircle
 10
80.11381929111008
 20
223.566385524137
 30
0.0
 40
3.813018219458697
100
AcDbArc
 50
315.6320923377032
 51
357.0700650340725
  0
ARC
  5
409B
102
{ACAD_REACTORS
330
40B2
102
}
330
2
100
AcDbEntity
  8
KIJUN
100
AcDbCircle
 10
90.90559179330961
 20
202.1821849692475
 30
0.0
 40
20.69422161278317
100
AcDbArc
 50
162.3476001883846
 51
190.1992097355842
  0
ARC
  5
409C
102
{ACAD_REACTORS
330
40B2
102
}
330
2
100
AcDbEntity
  8
KIJUN
100
AcDbCircle
 10
73.01221003208263
 20
198.7500901958532
 30
0.0
 40
2.484709501822267
100
AcDbArc
 50
185.3634824578146
 51
260.2142283649286
  0
ARC
  5
409D
102
{ACAD_REACTORS
330
40B2
102
}
330
2
100
AcDbEntity
  8
KIJUN
100
AcDbCircle
 10
105.5705519125177
 20
191.2715930424214
 30
0.0
 40
38.96796573759846
100
AcDbArc
 50
136.6439200279068
 51
144.4133317712279
  0
ARC
  5
409E
102
{ACAD_REACTORS
330
40B2
102
}
330
2
100
AcDbEntity
  8
KIJUN
100
AcDbCircle
 10
102.1707269575856
 20
196.658383984399
 30
0.0
 40
33.15549119844895
100
AcDbArc
 50
148.5683024845147
 51
159.1530350475921
  0
ARC
  5
409F
102
{ACAD_REACTORS
330
40B2
102
}
330
2
100
AcDbEntity
  8
KIJUN
100
AcDbCircle
 10
75.24183048988778
 20
194.8700704022954
 30
0.0
 40
3.013608553068323
100
AcDbArc
 50
151.6406842586585
 51
242.8114548441328
  0
ARC
  5
40A0
102
{ACAD_REACTORS
330
40B2
102
}
330
2
100
AcDbEntity
  8
KIJUN
100
AcDbCircle
 10
82.79541348799694
 20
205.5424278624865
 30
0.0
 40
8.690538213218834
100
AcDbArc
 50
152.2962625073253
 51
241.1685777113544
  0
ARC
  5
40A1
102
{ACAD_REACTORS
330
40B2
102
}
330
2
100
AcDbEntity
  8
KIJUN
100
AcDbCircle
 10
173.4716971614835
 20
160.2093856763442
 30
0.0
 40
110.065836941277
100
AcDbArc
 50
149.5320398797064
 51
153.3474211372753
  0
ARC
  5
40A2
102
{ACAD_REACTORS
330
40B2
102
}
330
2
100
AcDbEntity
  8
KIJUN
100
AcDbCircle
 10
92.34851924139537
 20
206.4761412776044
 30
0.0
 40
15.31082818921885
100
AcDbArc
 50
153.8526987949462
 51
206.1473012050538
  0
ARC
  5
40A3
102
{ACAD_REACTORS
330
40B2
102
}
330
2
100
AcDbEntity
  8
KIJUN
100
AcDbCircle
 10
77.86723679283778
 20
193.6280459575598
 30
0.0
 40
5.915897946400544
100
AcDbArc
 50
122.5907906871136
 51
153.1333427593306
  0
ARC
  5
40A4
102
{ACAD_REACTORS
330
40B2
102
}
330
2
100
AcDbEntity
  8
KIJUN
100
AcDbCircle
 10
68.32574905853602
 20
201.4824775058474
 30
0.0
 40
5.050984976851745
100
AcDbArc
 50
320.7430437332251
 51
353.1232931116587
  0
ARC
  5
40A5
102
{ACAD_REACTORS
330
40B2
102
}
330
2
100
AcDbEntity
  8
KIJUN
100
AcDbCircle
 10
77.11035121502709
 20
201.0706591248623
 30
0.0
 40
3.774888037264111
100
AcDbArc
 50
182.9299349659276
 51
224.3679076622968
  0
ARC
  5
40A6
102
{ACAD_REACTORS
330
40B2
102
}
330
2
100
AcDbEntity
  8
KIJUN
100
AcDbCircle
 10
78.60453885086741
 20
216.5925153442093
 30
0.0
 40
1.980000000000078
100
AcDbArc
 50
46.31231775110411
 51
133.6876822489045
  0
ARC
  5
40A7
102
{ACAD_REACTORS
330
40B2
102
}
330
2
100
AcDbEntity
  8
KIJUN
100
AcDbCircle
 10
66.30348590842499
 20
202.1821849692475
 30
0.0
 40
20.69422161278317
100
AcDbArc
 50
349.8007902644158
 51
17.65239981161535
  0
ARC
  5
40A8
102
{ACAD_REACTORS
330
40B2
102
}
330
2
100
AcDbEntity
  8
KIJUN
100
AcDbCircle
 10
51.63852578921683
 20
191.2715930424214
 30
0.0
 40
38.96796573759846
100
AcDbArc
 50
35.58666822877207
 51
43.35607997209315
  0
ARC
  5
40A9
102
{ACAD_REACTORS
330
40B2
102
}
330
2
100
AcDbEntity
  8
KIJUN
100
AcDbCircle
 10
55.03835074414912
 20
196.658383984399
 30
0.0
 40
33.15549119844895
100
AcDbArc
 50
20.84696495240793
 51
31.43169751548524
  0
ARC
  5
40AA
102
{ACAD_REACTORS
330
40B2
102
}
330
2
100
AcDbEntity
  8
KIJUN
100
AcDbCircle
 10
74.41366421373766
 20
205.5424278624865
 30
0.0
 40
8.690538213218834
100
AcDbArc
 50
298.8314222886455
 51
27.70373749267469
  0
ARC
  5
40AB
102
{ACAD_REACTORS
330
40B2
102
}
330
2
100
AcDbEntity
  8
KIJUN
100
AcDbCircle
 10
-16.26261945974886
 20
160.2093856763442
 30
0.0
 40
110.065836941277
100
AcDbArc
 50
26.65257886272463
 51
30.46796012029354
  0
ARC
  5
40AC
102
{ACAD_REACTORS
330
40B2
102
}
330
2
100
AcDbEntity
  8
KIJUN
100
AcDbCircle
 10
64.86055846033934
 20
206.4761412776044
 30
0.0
 40
15.31082818921885
100
AcDbArc
 50
333.8526987949462
 51
26.14730120505379
  0
ARC
  5
40AD
102
{ACAD_REACTORS
330
40B2
102
}
330
2
100
AcDbEntity
  8
KIJUN
100
AcDbCircle
 10
84.19686766965225
 20
198.7500901958532
 30
0.0
 40
2.484709501822267
100
AcDbArc
 50
279.7857716350713
 51
354.6365175421854
  0
ARC
  5
40AE
102
{ACAD_REACTORS
330
40B2
102
}
330
2
100
AcDbEntity
  8
KIJUN
100
AcDbCircle
 10
81.96724721184706
 20
194.8700704022954
 30
0.0
 40
3.013608553068323
100
AcDbArc
 50
297.1885451558673
 51
28.35931574134146
  0
ARC
  5
40AF
102
{ACAD_REACTORS
330
40B2
102
}
330
2
100
AcDbEntity
  8
KIJUN
100
AcDbCircle
 10
79.34184090889704
 20
193.6280459575598
 30
0.0
 40
5.915897946400544
100
AcDbArc
 50
26.86665724066936
 51
57.40920931288614
  0
ARC
  5
40B0
102
{ACAD_REACTORS
330
40B2
102
}
330
2
100
AcDbEntity
  8
KIJUN
100
AcDbCircle
 10
88.88332864319876
 20
201.4824775058474
 30
0.0
 40
5.050984976851745
100
AcDbArc
 50
186.8767068883397
 51
219.2569562667749
  0
ARC
  5
40B1
102
{ACAD_REACTORS
330
40B2
102
}
330
2
100
AcDbEntity
  8
KIJUN
100
AcDbCircle
 10
80.09872648670768
 20
201.0706591248623
 30
0.0
 40
3.774888037264111
100
AcDbArc
 50
315.6320923377032
 51
357.0700650340725
  0
ENDSEC
  0
SECTION
  2
OBJECTS
  0
DICTIONARY
  5
1A
330
0
100
AcDbDictionary
281
     1
  3
ACAD_COLOR
350
144
  3
ACAD_GROUP
350
18
  3
ACAD_LAYOUT
350
58
  3
ACAD_MATERIAL
350
143
  3
ACAD_MLINESTYLE
350
19
  3
ACAD_PLOTSETTINGS
350
59
  3
ACAD_PLOTSTYLENAME
350
56
  3
ACAD_TABLESTYLE
350
145
  3
ACDBHEADERROUNDTRIPXREC
350
4102
  3
AcDbVariableDictionary
350
1D1
  0
DICTIONARY
  5
1B4
330
A
100
AcDbDictionary
280
     1
281
     1
  3
ACAD_LAYERFILTERS
360
3AC9
  3
ACLYDICTIONARY
360
3AC8
  0
DICTIONARY
  5
D13
330
2
100
AcDbDictionary
280
     1
281
     1
  3
ACAD_SORTENTS
360
D14
  0
DICTIONARY
  5
144
102
{ACAD_REACTORS
330
1A
102
}
330
1A
100
AcDbDictionary
281
     1
  0
DICTIONARY
  5
18
102
{ACAD_REACTORS
330
1A
102
}
330
1A
100
AcDbDictionary
281
     1
  3
*A1
350
E0D
  3
*A10
350
2C6B
  3
*A11
350
2D78
  3
*A12
350
34BB
  3
*A13
350
22C8
  3
*A14
350
241A
  3
*A15
350
1EFE
  3
*A16
350
3181
  3
*A17
350
265A
  3
*A18
350
26DD
  3
*A19
350
275E
  3
*A2
350
1A98
  3
*A20
350
2EE1
  3
*A21
350
2F81
  3
*A22
350
3959
  3
*A23
350
35A5
  3
*A24
350
395F
  3
*A25
350
39BC
  3
*A26
350
2905
  3
*A27
350
31DF
  3
*A28
350
32E4
  3
*A29
350
3349
  3
*A3
350
1CBC
  3
*A30
350
2037
  3
*A31
350
3467
  3
*A32
350
3ACB
  3
*A33
350
3CF5
  3
*A34
350
24D6
  3
*A35
350
FF8
  3
*A36
350
136A
  3
*A37
350
1555
  3
*A38
350
2A17
  3
*A39
350
17BC
  3
*A4
350
307D
  3
*A41
350
40B2
  3
*A5
350
3695
  3
*A6
350
36C9
  3
*A7
350
213E
  3
*A8
350
2573
  3
*A9
350
2B84
  0
DICTIONARY
  5
58
102
{ACAD_REACTORS
330
1A
102
}
330
1A
100
AcDbDictionary
281
     1
  3
Model
350
5A
  3
ﾚｲｱｳﾄ1
350
5B
  0
DICTIONARY
  5
143
102
{ACAD_REACTORS
330
1A
102
}
330
1A
100
AcDbDictionary
281
     1
  0
DICTIONARY
  5
19
102
{ACAD_REACTORS
330
1A
102
}
330
1A
100
AcDbDictionary
281
     1
  3
STANDARD
350
1D
  0
DICTIONARY
  5
59
102
{ACAD_REACTORS
330
1A
102
}
330
1A
100
AcDbDictionary
281
     1
  0
ACDBDICTIONARYWDFLT
  5
56
102
{ACAD_REACTORS
330
1A
102
}
330
1A
100
AcDbDictionary
281
     1
  3
Normal
350
57
100
AcDbDictionaryWithDefault
340
57
  0
DICTIONARY
  5
145
102
{ACAD_REACTORS
330
1A
102
}
330
1A
100
AcDbDictionary
281
     1
  3
Standard
350
146
  0
DICTIONARY
  5
4102
102
{ACAD_REACTORS
330
1A
102
}
330
1A
100
AcDbDictionary
281
     1
  0
DICTIONARY
  5
1D1
102
{ACAD_REACTORS
330
1A
102
}
330
1A
100
AcDbDictionary
281
     1
  3
CTABLESTYLE
350
1D2
  3
DIMASSOC
350
D03
  3
PROJECTNAME
350
D04
  0
DICTIONARY
  5
3AC9
102
{ACAD_REACTORS
330
1B4
102
}
330
1B4
100
AcDbDictionary
281
     1
  0
DICTIONARY
  5
3AC8
102
{ACAD_REACTORS
330
1B4
102
}
330
1B4
100
AcDbDictionary
281
     1
1001
ACAD
1000
<All
  0
SORTENTSTABLE
  5
D14
102
{ACAD_REACTORS
330
D13
102
}
330
D13
100
AcDbSortentsTable
330
2
331
20
  5
3635
331
21
  5
380D
331
23
  5
380E
331
3635
  5
3B6C
331
3628
  5
3A63
331
1F
  5
3628
  0
GROUP
  5
E0D
102
{ACAD_REACTORS
330
18
102
}
330
18
100
AcDbGroup
300

 70
     1
 71
     1
  0
GROUP
  5
2C6B
102
{ACAD_REACTORS
330
18
102
}
330
18
100
AcDbGroup
300

 70
     1
 71
     1
  0
GROUP
  5
2D78
102
{ACAD_REACTORS
330
18
102
}
330
18
100
AcDbGroup
300

 70
     1
 71
     1
  0
GROUP
  5
34BB
102
{ACAD_REACTORS
330
18
102
}
330
18
100
AcDbGroup
300

 70
     1
 71
     1
  0
GROUP
  5
22C8
102
{ACAD_REACTORS
330
18
102
}
330
18
100
AcDbGroup
300

 70
     1
 71
     1
  0
GROUP
  5
241A
102
{ACAD_REACTORS
330
18
102
}
330
18
100
AcDbGroup
300

 70
     1
 71
     1
  0
GROUP
  5
1EFE
102
{ACAD_REACTORS
330
18
102
}
330
18
100
AcDbGroup
300

 70
     1
 71
     1
  0
GROUP
  5
3181
102
{ACAD_REACTORS
330
18
102
}
330
18
100
AcDbGroup
300

 70
     1
 71
     1
  0
GROUP
  5
265A
102
{ACAD_REACTORS
330
18
102
}
330
18
100
AcDbGroup
300

 70
     1
 71
     1
  0
GROUP
  5
26DD
102
{ACAD_REACTORS
330
18
102
}
330
18
100
AcDbGroup
300

 70
     1
 71
     1
  0
GROUP
  5
275E
102
{ACAD_REACTORS
330
18
102
}
330
18
100
AcDbGroup
300

 70
     1
 71
     1
  0
GROUP
  5
1A98
102
{ACAD_REACTORS
330
18
102
}
330
18
100
AcDbGroup
300

 70
     1
 71
     1
  0
GROUP
  5
2EE1
102
{ACAD_REACTORS
330
18
102
}
330
18
100
AcDbGroup
300

 70
     1
 71
     1
  0
GROUP
  5
2F81
102
{ACAD_REACTORS
330
18
102
}
330
18
100
AcDbGroup
300

 70
     1
 71
     1
  0
GROUP
  5
3959
102
{ACAD_REACTORS
330
18
102
}
330
18
100
AcDbGroup
300

 70
     1
 71
     1
  0
GROUP
  5
35A5
102
{ACAD_REACTORS
330
18
102
}
330
18
100
AcDbGroup
300

 70
     1
 71
     1
  0
GROUP
  5
395F
102
{ACAD_REACTORS
330
18
102
}
330
18
100
AcDbGroup
300

 70
     1
 71
     1
  0
GROUP
  5
39BC
102
{ACAD_REACTORS
330
18
102
}
330
18
100
AcDbGroup
300

 70
     1
 71
     1
  0
GROUP
  5
2905
102
{ACAD_REACTORS
330
18
102
}
330
18
100
AcDbGroup
300

 70
     1
 71
     1
  0
GROUP
  5
31DF
102
{ACAD_REACTORS
330
18
102
}
330
18
100
AcDbGroup
300

 70
     1
 71
     1
  0
GROUP
  5
32E4
102
{ACAD_REACTORS
330
18
102
}
330
18
100
AcDbGroup
300

 70
     1
 71
     1
  0
GROUP
  5
3349
102
{ACAD_REACTORS
330
18
102
}
330
18
100
AcDbGroup
300

 70
     1
 71
     1
  0
GROUP
  5
1CBC
102
{ACAD_REACTORS
330
18
102
}
330
18
100
AcDbGroup
300

 70
     1
 71
     1
  0
GROUP
  5
2037
102
{ACAD_REACTORS
330
18
102
}
330
18
100
AcDbGroup
300

 70
     1
 71
     1
  0
GROUP
  5
3467
102
{ACAD_REACTORS
330
18
102
}
330
18
100
AcDbGroup
300

 70
     1
 71
     1
  0
GROUP
  5
3ACB
102
{ACAD_REACTORS
330
18
102
}
330
18
100
AcDbGroup
300

 70
     1
 71
     1
  0
GROUP
  5
3CF5
102
{ACAD_REACTORS
330
18
102
}
330
18
100
AcDbGroup
300

 70
     1
 71
     1
  0
GROUP
  5
24D6
102
{ACAD_REACTORS
330
18
102
}
330
18
100
AcDbGroup
300

 70
     1
 71
     1
  0
GROUP
  5
FF8
102
{ACAD_REACTORS
330
18
102
}
330
18
100
AcDbGroup
300

 70
     1
 71
     1
  0
GROUP
  5
136A
102
{ACAD_REACTORS
330
18
102
}
330
18
100
AcDbGroup
300

 70
     1
 71
     1
  0
GROUP
  5
1555
102
{ACAD_REACTORS
330
18
102
}
330
18
100
AcDbGroup
300

 70
     1
 71
     1
  0
GROUP
  5
2A17
102
{ACAD_REACTORS
330
18
102
}
330
18
100
AcDbGroup
300

 70
     1
 71
     1
  0
GROUP
  5
17BC
102
{ACAD_REACTORS
330
18
102
}
330
18
100
AcDbGroup
300

 70
     1
 71
     1
  0
GROUP
  5
307D
102
{ACAD_REACTORS
330
18
102
}
330
18
100
AcDbGroup
300

 70
     1
 71
     1
  0
GROUP
  5
40B2
102
{ACAD_REACTORS
330
18
102
}
330
18
100
AcDbGroup
300

 70
     1
 71
     1
340
40B1
340
40B0
340
40AF
340
40AE
340
40AD
340
40AC
340
40AB
340
40AA
340
40A9
340
40A8
340
40A7
340
40A6
340
40A5
340
40A4
340
40A3
340
40A2
340
40A1
340
40A0
340
409F
340
409E
340
409D
340
409C
340
409B
340
409A
340
4099
340
4098
340
4097
340
4096
340
4094
340
4093
340
4092
340
4091
340
4090
340
408F
340
408E
340
408D
340
408C
340
408B
340
408A
340
4089
340
4088
340
4087
340
4086
340
4085
340
4084
340
4083
340
4082
340
4081
340
4080
340
407F
340
407E
340
407D
340
407C
340
407B
340
407A
340
4079
340
4078
340
4077
340
4076
340
4075
340
4074
340
4073
340
4072
340
4071
340
4070
340
406F
340
406E
340
406D
340
406C
340
406B
340
406A
340
4069
340
4068
340
4067
340
4066
340
4065
340
4064
340
4063
340
4062
340
4061
340
4060
340
405F
340
405E
340
405D
340
405C
340
405A
340
4059
340
4058
340
4057
340
4056
340
4055
340
4054
340
4053
340
4052
340
4051
340
4050
340
404F
340
404E
340
404D
340
404C
340
404B
340
404A
340
4049
340
4048
340
4047
340
4046
340
4045
340
4044
340
4043
340
4042
340
4041
340
4040
340
403F
340
403E
340
403D
340
403C
340
403B
340
403A
340
4039
340
4038
340
4037
340
4036
340
4035
340
401D
340
401C
340
401B
340
401A
340
4019
340
4018
340
4017
340
4016
340
4015
340
4014
340
4013
340
4012
340
4011
340
4010
340
400F
340
400E
340
400D
340
400C
340
400B
340
400A
340
4009
340
4008
340
4007
340
4006
340
4005
340
4004
340
4003
340
4002
340
4001
340
4000
340
3FFF
340
3FFE
340
3FFD
340
3FFC
340
3FFB
340
3FFA
340
3FF9
340
3FF8
340
3FA0
340
3F9F
340
3F9E
340
3F9D
340
3F9C
340
3F9B
340
3F9A
340
3F99
340
3F98
340
3F97
340
3F96
340
3F95
340
3F94
340
3F93
340
3F90
340
3F8F
340
3F8E
340
3F8D
340
3F8C
340
3F8B
340
3F8A
340
3F89
340
3F88
340
3F87
340
3F86
340
3F85
340
3F84
340
3F83
340
3F82
340
3F81
340
3F3E
340
3F3D
340
3F3C
340
3F3B
340
3F3A
340
3F39
340
3F38
340
3F37
340
3F36
340
3F35
340
3F34
340
3F33
340
3F32
340
3F31
340
3F30
340
3F2F
340
3F2E
340
3F2D
340
3F2C
340
3F2B
340
3F2A
340
3F17
340
3F16
340
3F15
340
3F14
340
3F13
340
3F12
340
3F11
340
3F10
340
3F0F
340
3EFE
340
3EFD
340
3EFC
340
3EFA
340
3EF9
340
3EF7
340
3EF6
340
3EF5
340
3EF4
340
3EF1
340
3EF0
340
3EEF
340
3EEE
340
3EEB
340
3EE9
340
3EE8
340
3EE7
340
3EE6
340
3EE5
340
3EE4
340
3EE3
340
3EE2
340
3EE1
340
3EE0
340
3EDF
340
3ECA
340
3EC9
340
3EC8
340
3EC7
340
3EC6
340
3EC5
340
3EC4
340
3EC3
340
3EC2
340
3EC1
340
3EB4
340
3EB3
340
3EB2
340
3EB1
340
3EAE
340
3EAD
340
3EAC
340
3EAB
340
3EAA
340
3EA9
340
3EA8
340
3EA7
340
3EA6
340
3EA5
340
3EA4
340
3EA3
340
3EA2
340
3E9F
340
3E9E
340
3E9D
340
3E9C
340
3E9B
340
3E9A
340
3E99
340
3E98
340
3E97
  0
GROUP
  5
3695
102
{ACAD_REACTORS
330
18
102
}
330
18
100
AcDbGroup
300

 70
     1
 71
     1
  0
GROUP
  5
36C9
102
{ACAD_REACTORS
330
18
102
}
330
18
100
AcDbGroup
300

 70
     1
 71
     1
  0
GROUP
  5
213E
102
{ACAD_REACTORS
330
18
102
}
330
18
100
AcDbGroup
300

 70
     1
 71
     1
  0
GROUP
  5
2573
102
{ACAD_REACTORS
330
18
102
}
330
18
100
AcDbGroup
300

 70
     1
 71
     1
  0
GROUP
  5
2B84
102
{ACAD_REACTORS
330
18
102
}
330
18
100
AcDbGroup
300

 70
     1
 71
     1
  0
LAYOUT
  5
5A
102
{ACAD_XDICTIONARY
360
4103
102
}
102
{ACAD_REACTORS
330
58
102
}
330
58
100
AcDbPlotSettings
  1

  2
なし
  4

  6

 40
0.0
 41
0.0
 42
0.0
 43
0.0
 44
0.0
 45
0.0
 46
0.0
 47
0.0
 48
0.0
 49
0.0
140
0.0
141
0.0
142
1.0
143
1.0
 70
  1712
 72
     0
 73
     0
 74
     0
  7
monochrome.ctb
 75
     0
147
1.0
148
0.0
149
0.0
100
AcDbLayout
  1
Model
 70
     1
 71
     0
 10
0.0
 20
0.0
 11
12.0
 21
9.0
 12
0.0
 22
0.0
 32
0.0
 14
0.0
 24
0.0
 34
0.0
 15
0.0
 25
0.0
 35
0.0
146
0.0
 13
0.0
 23
0.0
 33
0.0
 16
1.0
 26
0.0
 36
0.0
 17
0.0
 27
1.0
 37
0.0
 76
     0
330
2
  0
LAYOUT
  5
5B
102
{ACAD_XDICTIONARY
360
4105
102
}
102
{ACAD_REACTORS
330
58
102
}
330
58
100
AcDbPlotSettings
  1

  2
なし
  4

  6

 40
0.0
 41
0.0
 42
0.0
 43
0.0
 44
0.0
 45
0.0
 46
0.0
 47
0.0
 48
0.0
 49
0.0
140
0.0
141
0.0
142
1.0
143
1.0
 70
   688
 72
     0
 73
     0
 74
     5
  7
monochrome.ctb
 75
    16
147
1.0
148
0.0
149
0.0
100
AcDbLayout
  1
ﾚｲｱｳﾄ1
 70
     1
 71
     1
 10
0.0
 20
0.0
 11
12.0
 21
9.0
 12
0.0
 22
0.0
 32
0.0
 14
1.000000000000000E+20
 24
1.000000000000000E+20
 34
1.000000000000000E+20
 15
-1.000000000000000E+20
 25
-1.000000000000000E+20
 35
-1.000000000000000E+20
146
0.0
 13
0.0
 23
0.0
 33
0.0
 16
1.0
 26
0.0
 36
0.0
 17
0.0
 27
1.0
 37
0.0
 76
     0
330
7
  0
MLINESTYLE
  5
1D
102
{ACAD_REACTORS
330
19
102
}
330
19
100
AcDbMlineStyle
  2
STANDARD
 70
     0
  3

 62
   256
 51
90.0
 52
90.0
 71
     2
 49
0.5
 62
   256
  6
BYLAYER
 49
-0.5
 62
   256
  6
BYLAYER
  0
ACDBPLACEHOLDER
  5
57
102
{ACAD_REACTORS
330
56
102
}
330
56
  0
TABLESTYLE
  5
146
102
{ACAD_REACTORS
330
145
102
}
330
145
100
AcDbTableStyle
  3
Standard
 70
     0
 71
     0
 40
0.06
 41
0.06
280
     0
281
     0
  7
STANDARD
140
0.18
170
     2
 62
     0
 63
     7
283
     0
274
    -2
284
     1
 64
     0
275
    -2
285
     1
 65
     0
276
    -2
286
     1
 66
     0
277
    -2
287
     1
 67
     0
278
    -2
288
     1
 68
     0
279
    -2
289
     1
 69
     0
  7
STANDARD
140
0.25
170
     5
 62
     0
 63
     7
283
     0
274
    -2
284
     1
 64
     0
275
    -2
285
     1
 65
     0
276
    -2
286
     1
 66
     0
277
    -2
287
     1
 67
     0
278
    -2
288
     1
 68
     0
279
    -2
289
     1
 69
     0
  7
STANDARD
140
0.18
170
     5
 62
     0
 63
     7
283
     0
274
    -2
284
     1
 64
     0
275
    -2
285
     1
 65
     0
276
    -2
286
     1
 66
     0
277
    -2
287
     1
 67
     0
278
    -2
288
     1
 68
     0
279
    -2
289
     1
 69
     0
  0
DICTIONARYVAR
  5
1D2
102
{ACAD_REACTORS
330
1D1
102
}
330
1D1
100
DictionaryVariables
280
     0
  1
STANDARD
  0
DICTIONARYVAR
  5
D03
102
{ACAD_REACTORS
330
1D1
102
}
330
1D1
100
DictionaryVariables
280
     0
  1
1
  0
DICTIONARYVAR
  5
D04
102
{ACAD_REACTORS
330
1D1
102
}
330
1D1
100
DictionaryVariables
280
     0
  1

  0
DICTIONARY
  5
4103
330
5A
100
AcDbDictionary
280
     1
281
     1
  3
ACAD_XREC_ROUNDTRIP
360
4104
  0
DICTIONARY
  5
4105
330
5B
100
AcDbDictionary
280
     1
281
     1
  3
ACAD_XREC_ROUNDTRIP
360
4106
  0
XRECORD
  5
4104
102
{ACAD_REACTORS
330
4103
102
}
330
4103
100
AcDbXrecord
280
     1
102
SHADEPLOT
 70
     0
102
SHADEPLOTRESLEVEL
 70
     2
102
SHADEPLOTCUSTOMDPI
 70
   300
  0
XRECORD
  5
4106
102
{ACAD_REACTORS
330
4105
102
}
330
4105
100
AcDbXrecord
280
     1
102
SHADEPLOT
 70
     0
102
SHADEPLOTRESLEVEL
 70
     2
102
SHADEPLOTCUSTOMDPI
 70
   300
  0
ENDSEC
  0
EOF
