  0
SECTION
  2
HEADER
  9
$ACADVER
  1
AC1015
  9
$ACADMAINTVER
 70
    20
  9
$DWGCODEPAGE
  3
ANSI_932
  9
$INSBASE
 10
922.019522
 20
-675.4306699999999
 30
0.0
  9
$EXTMIN
 10
-53.54383400060453
 20
-0.0146830535718436
 30
-0.0000000000000053
  9
$EXTMAX
 10
176.2802493904084
 20
159.5324793675887
 30
0.0000000000000099
  9
$LIMMIN
 10
0.0
 20
0.0
  9
$LIMMAX
 10
420.0
 20
297.0
  9
$ORTHOMODE
 70
     1
  9
$REGENMODE
 70
     1
  9
$FILLMODE
 70
     1
  9
$QTEXTMODE
 70
     0
  9
$MIRRTEXT
 70
     1
  9
$LTSCALE
 40
1.0
  9
$ATTMODE
 70
     1
  9
$TEXTSIZE
 40
30.0
  9
$TRACEWID
 40
0.05
  9
$TEXTSTYLE
  7
SUNPOU
  9
$CLAYER
  8
0
  9
$CELTYPE
  6
BYLAYER
  9
$CECOLOR
 62
   256
  9
$CELTSCALE
 40
1.0
  9
$DISPSILH
 70
     0
  9
$DIMSCALE
 40
1.0
  9
$DIMASZ
 40
2.0
  9
$DIMEXO
 40
10.0
  9
$DIMDLI
 40
0.38
  9
$DIMRND
 40
0.0
  9
$DIMDLE
 40
0.0
  9
$DIMEXE
 40
0.0
  9
$DIMTP
 40
0.0
  9
$DIMTM
 40
0.0
  9
$DIMTXT
 40
5.0
  9
$DIMCEN
 40
0.0
  9
$DIMTSZ
 40
0.0
  9
$DIMTOL
 70
     0
  9
$DIMLIM
 70
     0
  9
$DIMTIH
 70
     0
  9
$DIMTOH
 70
     0
  9
$DIMSE1
 70
     0
  9
$DIMSE2
 70
     0
  9
$DIMTAD
 70
     1
  9
$DIMZIN
 70
     0
  9
$DIMBLK
  1
Dot
  9
$DIMASO
 70
     1
  9
$DIMSHO
 70
     1
  9
$DIMPOST
  1

  9
$DIMAPOST
  1

  9
$DIMALT
 70
     0
  9
$DIMALTD
 70
     2
  9
$DIMALTF
 40
25.4
  9
$DIMLFAC
 40
1.0
  9
$DIMTOFL
 70
     0
  9
$DIMTVP
 40
0.0
  9
$DIMTIX
 70
     0
  9
$DIMSOXD
 70
     0
  9
$DIMSAH
 70
     0
  9
$DIMBLK1
  1

  9
$DIMBLK2
  1

  9
$DIMSTYLE
  2
STANDARD
  9
$DIMCLRD
 70
    60
  9
$DIMCLRE
 70
    70
  9
$DIMCLRT
 70
    60
  9
$DIMTFAC
 40
0.064286
  9
$DIMGAP
 40
3.0
  9
$DIMJUST
 70
     0
  9
$DIMSD1
 70
     0
  9
$DIMSD2
 70
     0
  9
$DIMTOLJ
 70
     1
  9
$DIMTZIN
 70
     0
  9
$DIMALTZ
 70
     0
  9
$DIMALTTZ
 70
     0
  9
$DIMUPT
 70
     0
  9
$DIMDEC
 70
     0
  9
$DIMTDEC
 70
     0
  9
$DIMALTU
 70
     2
  9
$DIMALTTD
 70
     2
  9
$DIMTXSTY
  7
SUNPOU
  9
$DIMAUNIT
 70
     0
  9
$DIMADEC
 70
     0
  9
$DIMALTRND
 40
0.0
  9
$DIMAZIN
 70
     0
  9
$DIMDSEP
 70
    46
  9
$DIMATFIT
 70
     3
  9
$DIMFRAC
 70
     0
  9
$DIMLDRBLK
  1

  9
$DIMLUNIT
 70
     2
  9
$DIMLWD
 70
    -2
  9
$DIMLWE
 70
    -2
  9
$DIMTMOVE
 70
     0
  9
$LUNITS
 70
     2
  9
$LUPREC
 70
     5
  9
$SKETCHINC
 40
0.1
  9
$FILLETRAD
 40
0.0
  9
$AUNITS
 70
     0
  9
$AUPREC
 70
     0
  9
$MENU
  1
acad
  9
$ELEVATION
 40
0.0
  9
$PELEVATION
 40
0.0
  9
$THICKNESS
 40
0.0
  9
$LIMCHECK
 70
     0
  9
$CHAMFERA
 40
0.0
  9
$CHAMFERB
 40
0.0
  9
$CHAMFERC
 40
0.0
  9
$CHAMFERD
 40
0.0
  9
$SKPOLY
 70
     0
  9
$TDCREATE
 40
2450623.654673033
  9
$TDUCREATE
 40
2450623.279673032
  9
$TDUPDATE
 40
2453887.618815903
  9
$TDUUPDATE
 40
2453887.243815902
  9
$TDINDWG
 40
1.9319523727
  9
$TDUSRTIMER
 40
1.9319521991
  9
$USRTIMER
 70
     1
  9
$ANGBASE
 50
0.0
  9
$ANGDIR
 70
     0
  9
$PDMODE
 70
     0
  9
$PDSIZE
 40
0.0
  9
$PLINEWID
 40
0.0
  9
$SPLFRAME
 70
     0
  9
$SPLINETYPE
 70
     6
  9
$SPLINESEGS
 70
     8
  9
$HANDSEED
  5
AAE5
  9
$SURFTAB1
 70
     6
  9
$SURFTAB2
 70
     6
  9
$SURFTYPE
 70
     6
  9
$SURFU
 70
     6
  9
$SURFV
 70
     6
  9
$UCSBASE
  2

  9
$UCSNAME
  2

  9
$UCSORG
 10
0.0
 20
0.0
 30
0.0
  9
$UCSXDIR
 10
1.0
 20
0.0
 30
0.0
  9
$UCSYDIR
 10
0.0
 20
1.0
 30
0.0
  9
$UCSORTHOREF
  2

  9
$UCSORTHOVIEW
 70
     0
  9
$UCSORGTOP
 10
0.0
 20
0.0
 30
0.0
  9
$UCSORGBOTTOM
 10
0.0
 20
0.0
 30
0.0
  9
$UCSORGLEFT
 10
0.0
 20
0.0
 30
0.0
  9
$UCSORGRIGHT
 10
0.0
 20
0.0
 30
0.0
  9
$UCSORGFRONT
 10
0.0
 20
0.0
 30
0.0
  9
$UCSORGBACK
 10
0.0
 20
0.0
 30
0.0
  9
$PUCSBASE
  2

  9
$PUCSNAME
  2

  9
$PUCSORG
 10
0.0
 20
0.0
 30
0.0
  9
$PUCSXDIR
 10
1.0
 20
0.0
 30
0.0
  9
$PUCSYDIR
 10
0.0
 20
1.0
 30
0.0
  9
$PUCSORTHOREF
  2

  9
$PUCSORTHOVIEW
 70
     0
  9
$PUCSORGTOP
 10
0.0
 20
0.0
 30
0.0
  9
$PUCSORGBOTTOM
 10
0.0
 20
0.0
 30
0.0
  9
$PUCSORGLEFT
 10
0.0
 20
0.0
 30
0.0
  9
$PUCSORGRIGHT
 10
0.0
 20
0.0
 30
0.0
  9
$PUCSORGFRONT
 10
0.0
 20
0.0
 30
0.0
  9
$PUCSORGBACK
 10
0.0
 20
0.0
 30
0.0
  9
$USERI1
 70
     0
  9
$USERI2
 70
     0
  9
$USERI3
 70
     0
  9
$USERI4
 70
     0
  9
$USERI5
 70
     0
  9
$USERR1
 40
0.0
  9
$USERR2
 40
0.0
  9
$USERR3
 40
0.0
  9
$USERR4
 40
0.0
  9
$USERR5
 40
0.0
  9
$WORLDVIEW
 70
     1
  9
$SHADEDGE
 70
     3
  9
$SHADEDIF
 70
    70
  9
$TILEMODE
 70
     1
  9
$MAXACTVP
 70
    16
  9
$PINSBASE
 10
0.0
 20
0.0
 30
0.0
  9
$PLIMCHECK
 70
     0
  9
$PEXTMIN
 10
1.000000000000000E+20
 20
1.000000000000000E+20
 30
1.000000000000000E+20
  9
$PEXTMAX
 10
-1.000000000000000E+20
 20
-1.000000000000000E+20
 30
-1.000000000000000E+20
  9
$PLIMMIN
 10
0.0
 20
0.0
  9
$PLIMMAX
 10
12.0
 20
9.0
  9
$UNITMODE
 70
     0
  9
$VISRETAIN
 70
     0
  9
$PLINEGEN
 70
     0
  9
$PSLTSCALE
 70
     1
  9
$TREEDEPTH
 70
  3020
  9
$CMLSTYLE
  2
STANDARD
  9
$CMLJUST
 70
     0
  9
$CMLSCALE
 40
1.0
  9
$PROXYGRAPHICS
 70
     1
  9
$MEASUREMENT
 70
     0
  9
$CELWEIGHT
370
    -1
  9
$ENDCAPS
280
     0
  9
$JOINSTYLE
280
     0
  9
$LWDISPLAY
290
     0
  9
$INSUNITS
 70
     0
  9
$HYPERLINKBASE
  1

  9
$STYLESHEET
  1

  9
$XEDIT
290
     1
  9
$CEPSNTYPE
380
     0
  9
$PSTYLEMODE
290
     1
  9
$FINGERPRINTGUID
  2
{FB88A696-E29C-4009-92AF-A3599A8169D5}
  9
$VERSIONGUID
  2
{3D6F701D-93FC-4134-B20A-7AB1FCB32C6E}
  9
$EXTNAMES
290
     1
  9
$PSVPSCALE
 40
0.0
  9
$OLESTARTUP
290
     0
  0
ENDSEC
  0
SECTION
  2
CLASSES
  0
CLASS
  1
DICTIONARYVAR
  2
AcDbDictionaryVar
  3
ObjectDBX Classes
 90
        0
280
     0
281
     0
  0
CLASS
  1
ACDBDICTIONARYWDFLT
  2
AcDbDictionaryWithDefault
  3
ObjectDBX Classes
 90
        0
280
     0
281
     0
  0
CLASS
  1
ACDBPLACEHOLDER
  2
AcDbPlaceHolder
  3
ObjectDBX Classes
 90
        0
280
     0
281
     0
  0
CLASS
  1
LAYOUT
  2
AcDbLayout
  3
ObjectDBX Classes
 90
        0
280
     0
281
     0
  0
CLASS
  1
TABLESTYLE
  2
AcDbTableStyle
  3
ObjectDBX Classes
 90
     2047
280
     0
281
     0
  0
CLASS
  1
SORTENTSTABLE
  2
AcDbSortentsTable
  3
ObjectDBX Classes
 90
        0
280
     0
281
     0
  0
ENDSEC
  0
SECTION
  2
TABLES
  0
TABLE
  2
VPORT
  5
12
330
0
100
AcDbSymbolTable
 70
     3
  0
VPORT
  5
AADF
330
12
100
AcDbSymbolTableRecord
100
AcDbViewportTableRecord
  2
*Active
 70
     0
 10
0.0
 20
0.0
 11
1.0
 21
1.0
 12
61.36820769490197
 22
79.75889815700845
 13
0.0
 23
0.0
 14
1.0
 24
1.0
 15
0.0
 25
0.0
 16
0.0
 26
0.0
 36
1.0
 17
0.0
 27
0.0
 37
0.0
 40
160.7713094474099
 41
1.564660691421254
 42
50.0
 43
0.0
 44
0.0
 50
0.0
 51
0.0
 71
     0
 72
 20000
 73
     1
 74
     1
 75
     0
 76
     0
 77
     0
 78
     0
281
     0
 65
     1
110
0.0
120
0.0
130
0.0
111
1.0
121
0.0
131
0.0
112
0.0
122
1.0
132
0.0
 79
     0
146
0.0
  0
ENDTAB
  0
TABLE
  2
LTYPE
  5
D
330
0
100
AcDbSymbolTable
 70
     3
  0
LTYPE
  5
E
330
D
100
AcDbSymbolTableRecord
100
AcDbLinetypeTableRecord
  2
BYBLOCK
 70
     0
  3

 72
    65
 73
     0
 40
0.0
  0
LTYPE
  5
F
330
D
100
AcDbSymbolTableRecord
100
AcDbLinetypeTableRecord
  2
BYLAYER
 70
     0
  3

 72
    65
 73
     0
 40
0.0
  0
LTYPE
  5
5
330
D
100
AcDbSymbolTableRecord
100
AcDbLinetypeTableRecord
  2
CONTINUOUS
 70
     0
  3
Solid line
 72
    65
 73
     0
 40
0.0
  0
LTYPE
  5
AA43
330
D
100
AcDbSymbolTableRecord
100
AcDbLinetypeTableRecord
  2
HIDDEN
 70
     0
  3
Hidden __ __ __ __ __ __ __ __ __ __ __ __ __ _
 72
    65
 73
     2
 40
0.375
 49
0.25
 74
     0
 49
-0.125
 74
     0
  0
ENDTAB
  0
TABLE
  2
LAYER
  5
A
102
{ACAD_XDICTIONARY
360
1B4
102
}
330
0
100
AcDbSymbolTable
 70
     7
  0
LAYER
  5
4
330
A
100
AcDbSymbolTableRecord
100
AcDbLayerTableRecord
  2
0
 70
     0
 62
     7
  6
CONTINUOUS
370
    -3
390
57
  0
LAYER
  5
25
330
A
100
AcDbSymbolTableRecord
100
AcDbLayerTableRecord
  2
KIJUN
 70
     0
 62
     7
  6
CONTINUOUS
370
    -3
390
57
  0
LAYER
  5
22
330
A
100
AcDbSymbolTableRecord
100
AcDbLayerTableRecord
  2
HOJO
 70
     0
 62
     3
  6
CONTINUOUS
370
    -3
390
57
  0
LAYER
  5
1B
330
A
100
AcDbSymbolTableRecord
100
AcDbLayerTableRecord
  2
WAKU
 70
     0
 62
     1
  6
CONTINUOUS
370
    -3
390
57
  0
LAYER
  5
31
330
A
100
AcDbSymbolTableRecord
100
AcDbLayerTableRecord
  2
DEFPOINTS
 70
     0
 62
     7
  6
CONTINUOUS
290
     0
370
    -3
390
57
  0
LAYER
  5
28
330
A
100
AcDbSymbolTableRecord
100
AcDbLayerTableRecord
  2
SUNPOU
 70
     0
 62
    70
  6
CONTINUOUS
370
    -3
390
57
  0
LAYER
  5
AA44
330
A
100
AcDbSymbolTableRecord
100
AcDbLayerTableRecord
  2
HIDDEN
 70
     0
 62
     6
  6
HIDDEN
370
     9
390
57
  0
ENDTAB
  0
TABLE
  2
STYLE
  5
B
330
0
100
AcDbSymbolTable
 70
     3
  0
STYLE
  5
C
330
B
100
AcDbSymbolTableRecord
100
AcDbTextStyleTableRecord
  2
STANDARD
 70
     0
 40
0.0
 41
1.0
 50
0.0
 71
     0
 42
0.2
  3
txt
  4

  0
STYLE
  5
1C
330
B
100
AcDbSymbolTableRecord
100
AcDbTextStyleTableRecord
  2
SUNPOU
 70
     0
 40
0.0
 41
1.0
 50
0.0
 71
     0
 42
30.0
  3
txt
  4
bigfont
  0
STYLE
  5
A91C
330
B
100
AcDbSymbolTableRecord
100
AcDbTextStyleTableRecord
  2
LIFE
 70
     0
 40
0.0
 41
0.7
 50
0.0
 71
     0
 42
10.0
  3
romans
  4
extfont
  0
ENDTAB
  0
TABLE
  2
VIEW
  5
10
330
0
100
AcDbSymbolTable
 70
     0
  0
ENDTAB
  0
TABLE
  2
UCS
  5
11
330
0
100
AcDbSymbolTable
 70
     0
  0
ENDTAB
  0
TABLE
  2
APPID
  5
14
330
0
100
AcDbSymbolTable
 70
    11
  0
APPID
  5
15
330
14
100
AcDbSymbolTableRecord
100
AcDbRegAppTableRecord
  2
ACAD
 70
     0
  0
APPID
  5
1D3
330
14
100
AcDbSymbolTableRecord
100
AcDbRegAppTableRecord
  2
ACAD_DSTYLE_DIMTEXT_FILL
 70
     0
  0
APPID
  5
1D4
330
14
100
AcDbSymbolTableRecord
100
AcDbRegAppTableRecord
  2
ACAD_DSTYLE_DIMEXT_LENGTH
 70
     0
  0
APPID
  5
1D5
330
14
100
AcDbSymbolTableRecord
100
AcDbRegAppTableRecord
  2
ACAD_DSTYLE_DIMEXT_ENABLED
 70
     0
  0
APPID
  5
1D6
330
14
100
AcDbSymbolTableRecord
100
AcDbRegAppTableRecord
  2
ACAD_DSTYLE_DIM_LINETYPE
 70
     0
  0
APPID
  5
1D7
330
14
100
AcDbSymbolTableRecord
100
AcDbRegAppTableRecord
  2
ACAD_DSTYLE_DIM_EXT1_LINETYPE
 70
     0
  0
APPID
  5
1D8
330
14
100
AcDbSymbolTableRecord
100
AcDbRegAppTableRecord
  2
ACAD_DSTYLE_DIM_EXT2_LINETYPE
 70
     0
  0
APPID
  5
294
330
14
100
AcDbSymbolTableRecord
100
AcDbRegAppTableRecord
  2
ACAD_DSTYLE_DIMJOGGED_JOGANGLE_SYMBOL
 70
     0
  0
APPID
  5
478
330
14
100
AcDbSymbolTableRecord
100
AcDbRegAppTableRecord
  2
ACAD_DSTYLE_DIMARC_LENGTH_SYMBOL
 70
     0
  0
APPID
  5
F55
330
14
100
AcDbSymbolTableRecord
100
AcDbRegAppTableRecord
  2
ACAD_EXEMPT_FROM_CAD_STANDARDS
 70
     0
  0
APPID
  5
AA45
330
14
100
AcDbSymbolTableRecord
100
AcDbRegAppTableRecord
  2
ACAD_PSEXT
 70
     0
  0
ENDTAB
  0
TABLE
  2
DIMSTYLE
  5
16
330
0
100
AcDbSymbolTable
 70
    10
100
AcDbDimStyleTable
 71
     1
340
1E
  0
DIMSTYLE
105
1E
330
16
100
AcDbSymbolTableRecord
100
AcDbDimStyleTableRecord
  2
STANDARD
 70
     0
340
C
  0
DIMSTYLE
105
A0BA
330
16
100
AcDbSymbolTableRecord
100
AcDbDimStyleTableRecord
  2
1-100
 70
     0
 40
100.0
 41
0.7
 42
2.5
 43
5.0
 44
1.0
 77
     1
147
1.0
172
     1
176
     3
177
     3
271
     2
272
     2
279
     2
340
C
342
109
  0
DIMSTYLE
105
A129
330
16
100
AcDbSymbolTableRecord
100
AcDbDimStyleTableRecord
  2
ISO-25
 70
     0
 41
60.0
 42
100.0
 43
5.0
 44
0.0
 73
     0
 74
     0
 78
     8
140
200.0
141
40.0
143
0.03937007874016
147
20.0
171
     3
172
     1
176
     3
177
     3
178
     3
271
     2
272
     2
274
     3
283
     0
284
     8
340
C
341
A125
342
A125
371
    13
  0
DIMSTYLE
105
A326
330
16
100
AcDbSymbolTableRecord
100
AcDbDimStyleTableRecord
  2
ｺﾋﾟｰ - STANDARD
 70
     0
 41
30.0
 42
100.0
 43
0.0
 44
1.0
 73
     0
 74
     0
 77
     1
 78
     9
140
150.0
141
0.0
147
30.0
172
     1
173
     1
176
     3
177
     3
178
     3
271
     1
272
     1
279
     2
340
C
341
109
343
109
344
109
  0
DIMSTYLE
105
A327
330
16
100
AcDbSymbolTableRecord
100
AcDbDimStyleTableRecord
  2
ｺﾋﾟｰ(2) - STANDARD
 70
     0
 41
5.0
 42
30.0
 43
0.0
 44
0.0
 73
     0
 74
     0
 77
     1
 78
     9
140
15.0
141
0.0
147
5.0
172
     1
173
     1
178
     3
271
     2
272
     2
279
     2
340
C
341
109
343
109
344
109
  0
DIMSTYLE
105
A328
330
16
100
AcDbSymbolTableRecord
100
AcDbDimStyleTableRecord
  2
ｺﾋﾟｰ(3) - STANDARD
 70
     0
 41
5.0
 42
15.0
 43
0.0
 44
0.0
 73
     0
 74
     0
 77
     1
 78
     9
140
15.0
141
0.0
147
5.0
172
     1
173
     1
178
     3
271
     2
272
     2
279
     2
340
C
341
109
343
109
344
109
  0
DIMSTYLE
105
A329
330
16
100
AcDbSymbolTableRecord
100
AcDbDimStyleTableRecord
  2
ｺﾋﾟｰ(10) - STANDARD
 70
     0
 41
2.0
 42
7.0
 43
0.0
 44
0.0
 73
     0
 74
     0
 77
     1
 78
     9
140
7.0
141
0.0
147
3.0
172
     1
173
     1
178
     3
271
     2
272
     2
279
     2
340
C
341
109
343
109
344
109
  0
DIMSTYLE
105
A32A
330
16
100
AcDbSymbolTableRecord
100
AcDbDimStyleTableRecord
  2
ｺﾋﾟｰ(11) - STANDARD
 70
     0
 41
5.0
 42
15.0
 43
0.0
 44
0.0
 73
     0
 74
     0
 77
     1
 78
     9
140
15.0
141
0.0
147
5.0
172
     1
173
     1
178
     3
271
     2
272
     2
279
     2
340
C
341
109
343
109
344
109
  0
DIMSTYLE
105
A91D
102
{ACAD_REACTORS
330
A9AF
330
A9BC
330
AA72
102
}
330
16
100
AcDbSymbolTableRecord
100
AcDbDimStyleTableRecord
  2
STANDARD$0
 70
     0
 40
2.0
 41
1.0
 42
2.0
 43
0.0
 44
1.0
 73
     0
 74
     0
 77
     3
 78
     9
140
4.5
141
0.0
147
1.0
172
     1
173
     1
178
     3
271
     2
340
A91C
341
109
343
109
344
109
  0
ENDTAB
  0
TABLE
  2
BLOCK_RECORD
  5
1
330
0
100
AcDbSymbolTable
 70
    14
  0
BLOCK_RECORD
  5
2
102
{ACAD_XDICTIONARY
360
D13
102
}
330
1
100
AcDbSymbolTableRecord
100
AcDbBlockTableRecord
  2
*MODEL_SPACE
340
5A
  0
BLOCK_RECORD
  5
7
330
1
100
AcDbSymbolTableRecord
100
AcDbBlockTableRecord
  2
*PAPER_SPACE
340
5B
  0
BLOCK_RECORD
  5
109
330
1
100
AcDbSymbolTableRecord
100
AcDbBlockTableRecord
  2
_Dot
340
0
102
{BLKREFS
331
A8EA
331
A8EB
331
A8F7
331
A8F8
331
AA1B
331
AA1C
331
AA24
331
AA25
331
AA97
331
AA98
102
}
  0
BLOCK_RECORD
  5
8C7C
330
1
100
AcDbSymbolTableRecord
100
AcDbBlockTableRecord
  2
OT396
340
0
310
2800000020000000200000000100080000000000000400000000000000000000000000000000000000000000000080000080000000808000800000008000800080800000C0C0C000C0DCC000F0CAA6000020400000206000002080000020A0000020C0000020E00000400000004020000040400000406000004080000040A0
310
000040C0000040E00000600000006020000060400000606000006080000060A0000060C0000060E00000800000008020000080400000806000008080000080A0000080C0000080E00000A0000000A0200000A0400000A0600000A0800000A0A00000A0C00000A0E00000C0000000C0200000C0400000C0600000C0800000C0
310
A00000C0C00000C0E00000E0000000E0200000E0400000E0600000E0800000E0A00000E0C00000E0E00040000000400020004000400040006000400080004000A0004000C0004000E00040200000402020004020400040206000402080004020A0004020C0004020E000404000004040200040404000404060004040800040
310
40A0004040C0004040E00040600000406020004060400040606000406080004060A0004060C0004060E00040800000408020004080400040806000408080004080A0004080C0004080E00040A0000040A0200040A0400040A0600040A0800040A0A00040A0C00040A0E00040C0000040C0200040C0400040C0600040C08000
310
40C0A00040C0C00040C0E00040E0000040E0200040E0400040E0600040E0800040E0A00040E0C00040E0E00080000000800020008000400080006000800080008000A0008000C0008000E00080200000802020008020400080206000802080008020A0008020C0008020E00080400000804020008040400080406000804080
310
008040A0008040C0008040E00080600000806020008060400080606000806080008060A0008060C0008060E00080800000808020008080400080806000808080008080A0008080C0008080E00080A0000080A0200080A0400080A0600080A0800080A0A00080A0C00080A0E00080C0000080C0200080C0400080C0600080C0
310
800080C0A00080C0C00080C0E00080E0000080E0200080E0400080E0600080E0800080E0A00080E0C00080E0E000C0000000C0002000C0004000C0006000C0008000C000A000C000C000C000E000C0200000C0202000C0204000C0206000C0208000C020A000C020C000C020E000C0400000C0402000C0404000C0406000C0
310
408000C040A000C040C000C040E000C0600000C0602000C0604000C0606000C0608000C060A000C060C000C060E000C0800000C0802000C0804000C0806000C0808000C080A000C080C000C080E000C0A00000C0A02000C0A04000C0A06000C0A08000C0A0A000C0A0C000C0A0E000C0C00000C0C02000C0C04000C0C06000
310
C0C08000C0C0A000F0FBFF00A4A0A000808080000000FF0000FF000000FFFF00FF000000FF00FF00FFFF0000FFFFFF0000000000000000000000000000000000000000000000000000000000000000000000000000000000000000000000000000000000000000000000000000000000000000000000000000000000000000
310
00000000000000000000000000000000000000000000000000000000000000000000000000000000000000000000000000000000000000000000000000000000000000000000000000000000000000000000000000000000000000000000000000000000000000000000000000000000000000000000000000000000000000
310
00000000000000000000000000000000000000000000000000000000000000000000000000000000000000000000000000000000000000000000000000000000000000000000000000000000000000000000000000000000000000000000000000000000000000000000000000000000000000000000000000000000000000
310
000000000000000000000000000000000000000000000000000000000000000000000000000000000000000000000000000000000000000000000000000000000000FFFF0000000000000000000000000000000000FF000000000000000000000000FFFF000000000000000000000000FF00000000FFFF0000000000000000
310
000000FFFF0000000000000000000000FFFF00000000FFFF00000000000000000000FFFFFFFF00000000000000000000FFFF00000000FFFFFFFFFFFFFFFFFFFFFFFFFFFFFFFFFFFFFFFFFFFFFFFFFFFFFFFF00000000FFFFFFFFFFFFFFFFFFFFFFFFFFFFFF00FFFFFFFFFFFFFFFFFFFFFFFF0000000000FFFF0000000000FF
310
FFFFFFFFFFFFFFFFFFFFFF0000000000FFFF000000000000000000000000000000FFFFFFFFFFFFFFFF0000000000000000000000000000000000000000000000000000000000000000000000000000000000000000000000000000000000000000000000000000000000000000000000000000000000000000000000000000
310
00000000000000000000000000000000000000000000000000000000000000000000000000000000000000000000000000000000000000000000000000000000000000000000000000000000000000000000000000000000000000000000000000000000000000000000000000000000000000000000000000000000000000
310
00000000000000000000000000000000000000000000000000000000000000000000000000000000000000000000000000000000000000000000000000000000000000000000000000000000000000000000000000000000000000000000000000000000000000000000000000000000000000000000000000000000000000
310
0000000000000000000000000000000000000000000000000000000000000000000000000000000000000000000000000000000000000000
102
{BLKREFS
331
8D05
102
}
  0
BLOCK_RECORD
  5
8D03
330
1
100
AcDbSymbolTableRecord
100
AcDbBlockTableRecord
  2
ma
340
0
310
2800000020000000200000000100080000000000000400000000000000000000000000000000000000000000000080000080000000808000800000008000800080800000C0C0C000C0DCC000F0CAA6000020400000206000002080000020A0000020C0000020E00000400000004020000040400000406000004080000040A0
310
000040C0000040E00000600000006020000060400000606000006080000060A0000060C0000060E00000800000008020000080400000806000008080000080A0000080C0000080E00000A0000000A0200000A0400000A0600000A0800000A0A00000A0C00000A0E00000C0000000C0200000C0400000C0600000C0800000C0
310
A00000C0C00000C0E00000E0000000E0200000E0400000E0600000E0800000E0A00000E0C00000E0E00040000000400020004000400040006000400080004000A0004000C0004000E00040200000402020004020400040206000402080004020A0004020C0004020E000404000004040200040404000404060004040800040
310
40A0004040C0004040E00040600000406020004060400040606000406080004060A0004060C0004060E00040800000408020004080400040806000408080004080A0004080C0004080E00040A0000040A0200040A0400040A0600040A0800040A0A00040A0C00040A0E00040C0000040C0200040C0400040C0600040C08000
310
40C0A00040C0C00040C0E00040E0000040E0200040E0400040E0600040E0800040E0A00040E0C00040E0E00080000000800020008000400080006000800080008000A0008000C0008000E00080200000802020008020400080206000802080008020A0008020C0008020E00080400000804020008040400080406000804080
310
008040A0008040C0008040E00080600000806020008060400080606000806080008060A0008060C0008060E00080800000808020008080400080806000808080008080A0008080C0008080E00080A0000080A0200080A0400080A0600080A0800080A0A00080A0C00080A0E00080C0000080C0200080C0400080C0600080C0
310
800080C0A00080C0C00080C0E00080E0000080E0200080E0400080E0600080E0800080E0A00080E0C00080E0E000C0000000C0002000C0004000C0006000C0008000C000A000C000C000C000E000C0200000C0202000C0204000C0206000C0208000C020A000C020C000C020E000C0400000C0402000C0404000C0406000C0
310
408000C040A000C040C000C040E000C0600000C0602000C0604000C0606000C0608000C060A000C060C000C060E000C0800000C0802000C0804000C0806000C0808000C080A000C080C000C080E000C0A00000C0A02000C0A04000C0A06000C0A08000C0A0A000C0A0C000C0A0E000C0C00000C0C02000C0C04000C0C06000
310
C0C08000C0C0A000F0FBFF00A4A0A000808080000000FF0000FF000000FFFF00FF000000FF00FF00FFFF0000FFFFFF0000000000000000000000000000000000000000000000000000000000000000000000000000000000000000000000000000000000000000000000000000000000000000000000000000000000000000
310
00000000000000000000000000000000000000000000000000000000000000000000000000000000000000000000000000000000000000000000000000000000000000000000000000000000000000000000000000000000000000000000000000000000000000000000000000000000000000000000000000000000000000
310
00000000000000000000000000000000000000000000000000000000000000000000000000000000000000000000000000000000000000000000000000000000000000000000000000000000000000000000000000000000000000000000000000000000000000000000000000000000000000000000000000000000000000
310
000000000000000000000000000000000000000000000000000000000000000000000000000000000000000000000000000000000000000000000000000000000000FFFF000000000000000000000000000000000000000000000000000000000000FFFF0000000000000000000000000000000000FFFF0000000000000000
310
000000FFFF0000000000000000000000FFFF00000000FFFF00000000000000000000FFFFFFFF00000000000000000000FFFF00000000FFFFFFFFFFFFFFFFFFFFFFFFFFFFFFFFFFFFFFFFFFFFFFFFFFFFFFFF00000000FFFFFFFFFFFFFFFFFFFFFFFFFFFFFF00FFFFFFFFFFFFFFFFFFFFFFFF0000000000FFFF0000000000FF
310
FFFFFFFFFFFFFFFFFFFFFF0000000000FFFF000000000000000000000000000000FFFFFFFFFFFFFFFF0000000000000000000000000000000000000000000000000000000000000000000000000000000000000000000000000000000000000000000000000000000000000000000000000000000000000000000000000000
310
00000000000000000000000000000000000000000000000000000000000000000000000000000000000000000000000000000000000000000000000000000000000000000000000000000000000000000000000000000000000000000000000000000000000000000000000000000000000000000000000000000000000000
310
00000000000000000000000000000000000000000000000000000000000000000000000000000000000000000000000000000000000000000000000000000000000000000000000000000000000000000000000000000000000000000000000000000000000000000000000000000000000000000000000000000000000000
310
0000000000000000000000000000000000000000000000000000000000000000000000000000000000000000000000000000000000000000
  0
BLOCK_RECORD
  5
9170
330
1
100
AcDbSymbolTableRecord
100
AcDbBlockTableRecord
  2
OT401
340
0
310
2800000020000000200000000100080000000000000400000000000000000000000000000000000000000000000080000080000000808000800000008000800080800000C0C0C000C0DCC000F0CAA6000020400000206000002080000020A0000020C0000020E00000400000004020000040400000406000004080000040A0
310
000040C0000040E00000600000006020000060400000606000006080000060A0000060C0000060E00000800000008020000080400000806000008080000080A0000080C0000080E00000A0000000A0200000A0400000A0600000A0800000A0A00000A0C00000A0E00000C0000000C0200000C0400000C0600000C0800000C0
310
A00000C0C00000C0E00000E0000000E0200000E0400000E0600000E0800000E0A00000E0C00000E0E00040000000400020004000400040006000400080004000A0004000C0004000E00040200000402020004020400040206000402080004020A0004020C0004020E000404000004040200040404000404060004040800040
310
40A0004040C0004040E00040600000406020004060400040606000406080004060A0004060C0004060E00040800000408020004080400040806000408080004080A0004080C0004080E00040A0000040A0200040A0400040A0600040A0800040A0A00040A0C00040A0E00040C0000040C0200040C0400040C0600040C08000
310
40C0A00040C0C00040C0E00040E0000040E0200040E0400040E0600040E0800040E0A00040E0C00040E0E00080000000800020008000400080006000800080008000A0008000C0008000E00080200000802020008020400080206000802080008020A0008020C0008020E00080400000804020008040400080406000804080
310
008040A0008040C0008040E00080600000806020008060400080606000806080008060A0008060C0008060E00080800000808020008080400080806000808080008080A0008080C0008080E00080A0000080A0200080A0400080A0600080A0800080A0A00080A0C00080A0E00080C0000080C0200080C0400080C0600080C0
310
800080C0A00080C0C00080C0E00080E0000080E0200080E0400080E0600080E0800080E0A00080E0C00080E0E000C0000000C0002000C0004000C0006000C0008000C000A000C000C000C000E000C0200000C0202000C0204000C0206000C0208000C020A000C020C000C020E000C0400000C0402000C0404000C0406000C0
310
408000C040A000C040C000C040E000C0600000C0602000C0604000C0606000C0608000C060A000C060C000C060E000C0800000C0802000C0804000C0806000C0808000C080A000C080C000C080E000C0A00000C0A02000C0A04000C0A06000C0A08000C0A0A000C0A0C000C0A0E000C0C00000C0C02000C0C04000C0C06000
310
C0C08000C0C0A000F0FBFF00A4A0A000808080000000FF0000FF000000FFFF00FF000000FF00FF00FFFF0000FFFFFF0000000000000000000000000000000000000000000000000000000000000000000000000000000000000000000000000000000000000000000000000000000000000000000000000000000000000000
310
00000000000000000000000000000000000000000000000000000000000000000000000000000000000000000000000000000000000000000000000000000000000000000000000000000000000000000000000000000000000000000000000000000000000000000000000000000000000000000000000000000000000000
310
00000000000000000000000000000000000000000000000000000000000000000000000000000000000000000000000000000000000000000000000000000000000000000000000000000000000000000000000000000000000000000000000000000000000000000000000000000000000000000000000000000000000000
310
0000000000000000000000000000000000000000000000000000000000000000000000000000000000000000000000000000000000000000000000000000000000000000000000000000000000000000000000000000000000000000000000000000000000000000000000000000000000000000000000FFFFFFFFFFFFFFFF
310
FF000000000000FFFFFFFFFFFFFFFFFF0000000000FFFF00FFFFFFFFFFFFFFFFFFFFFF0000FFFFFFFFFFFFFFFFFFFFFF00FFFF0000FFFFFFFFFFFF00000000FFFFFFFFFFFFFFFFFFFF00000000FFFFFFFFFFFF0000000000000000000000000000FFFFFFFFFFFF000000000000000000000000000000000000000000000000
310
0000000000FF00000000000000000000000000000000000000000000000000000000000000000000000000000000000000000000000000000000000000000000000000000000000000000000000000000000000000000000000000000000000000000000000000000000000000000000000000000000000000000000000000
310
00000000000000000000000000000000000000000000000000000000000000000000000000000000000000000000000000000000000000000000000000000000000000000000000000000000000000000000000000000000000000000000000000000000000000000000000000000000000000000000000000000000000000
310
00000000000000000000000000000000000000000000000000000000000000000000000000000000000000000000000000000000000000000000000000000000000000000000000000000000000000000000000000000000000000000000000000000000000000000000000000000000000000000000000000000000000000
310
0000000000000000000000000000000000000000000000000000000000000000000000000000000000000000000000000000000000000000
  0
BLOCK_RECORD
  5
A125
330
1
100
AcDbSymbolTableRecord
100
AcDbBlockTableRecord
  2
_DotSmall
340
0
102
{BLKREFS
331
AA3C
331
AA3D
331
AAD3
331
AAD4
102
}
  0
BLOCK_RECORD
  5
A9B0
330
1
100
AcDbSymbolTableRecord
100
AcDbBlockTableRecord
  2
*D7
340
0
  0
BLOCK_RECORD
  5
A9BD
330
1
100
AcDbSymbolTableRecord
100
AcDbBlockTableRecord
  2
*D8
340
0
  0
BLOCK_RECORD
  5
AA37
330
1
100
AcDbSymbolTableRecord
100
AcDbBlockTableRecord
  2
*D9
340
0
  0
BLOCK_RECORD
  5
AA74
330
1
100
AcDbSymbolTableRecord
100
AcDbBlockTableRecord
  2
*D11
340
0
  0
BLOCK_RECORD
  5
AA93
330
1
100
AcDbSymbolTableRecord
100
AcDbBlockTableRecord
  2
*D12
340
0
  0
ENDTAB
  0
ENDSEC
  0
SECTION
  2
BLOCKS
  0
BLOCK
  5
3
330
2
100
AcDbEntity
  8
0
100
AcDbBlockBegin
  2
*MODEL_SPACE
 70
     0
 10
0.0
 20
0.0
 30
0.0
  3
*MODEL_SPACE
  1

  0
ENDBLK
  5
6
330
2
100
AcDbEntity
  8
0
100
AcDbBlockEnd
  0
BLOCK
  5
8
330
7
100
AcDbEntity
 67
     1
  8
0
100
AcDbBlockBegin
  2
*PAPER_SPACE
 70
     0
 10
0.0
 20
0.0
 30
0.0
  3
*PAPER_SPACE
  1

  0
ENDBLK
  5
9
330
7
100
AcDbEntity
 67
     1
  8
0
100
AcDbBlockEnd
  0
BLOCK
  5
10C
330
109
100
AcDbEntity
  8
0
100
AcDbBlockBegin
  2
_Dot
 70
     0
 10
0.0
 20
0.0
 30
0.0
  3
_Dot
  1

  0
LWPOLYLINE
  5
10A
330
109
100
AcDbEntity
  8
0
  6
ByBlock
 62
     0
100
AcDbPolyline
 90
        2
 70
     1
 43
0.5
 10
-0.25
 20
0.0
 42
1.0
 10
0.25
 20
0.0
 42
1.0
  0
LINE
  5
10B
330
109
100
AcDbEntity
  8
0
  6
ByBlock
 62
     0
370
    -2
100
AcDbLine
 10
-0.5
 20
0.0
 30
0.0
 11
-1.0
 21
0.0
 31
0.0
  0
ENDBLK
  5
10D
330
109
100
AcDbEntity
  8
0
100
AcDbBlockEnd
  0
BLOCK
  5
8C7D
330
8C7C
100
AcDbEntity
  8
0
100
AcDbBlockBegin
  2
OT396
 70
     0
 10
0.0
 20
0.0
 30
0.0
  3
OT396
  1

  0
SPLINE
  5
8C7E
330
8C7C
100
AcDbEntity
  8
0
100
AcDbSpline
210
0.0
220
0.0
230
1.0
 70
     8
 71
     3
 72
    14
 73
    10
 74
     8
 42
0.0000000001
 43
0.0000000001
 44
0.0000000001
 40
0.0
 40
0.0
 40
0.0
 40
0.0
 40
2.360804937749884
 40
4.888519026478916
 40
8.32072882437896
 40
11.61083366616766
 40
15.20348331780696
 40
29.23153594141169
 40
41.54243384795475
 40
41.54243384795475
 40
41.54243384795475
 40
41.54243384795475
 10
-576.7869007832001
 20
-691.3451917475205
 30
0.0
 10
-576.1662622784533
 20
-690.8827048769519
 30
0.0
 10
-574.8811060630854
 20
-689.9250332666806
 30
0.0
 10
-574.2069769239567
 20
-686.1308220642534
 30
0.0
 10
-578.4518248773805
 20
-687.1332821002156
 30
0.0
 10
-581.5990139036276
 20
-685.0333402112741
 30
0.0
 10
-581.7049275777058
 20
-677.5717234745211
 30
0.0
 10
-578.9662008585032
 20
-667.2050704515019
 30
0.0
 10
-570.9158352811754
 20
-662.8893068873686
 30
0.0
 10
-567.1530722728546
 20
-660.872107129694
 30
0.0
 11
-576.7869007832001
 21
-691.3451917475205
 31
0.0
 11
-575.1323406053557
 21
-689.66119929742
 31
0.0
 11
-574.8590778515152
 21
-687.1482993826357
 31
0.0
 11
-578.2475346392568
 21
-686.6020167685896
 31
0.0
 11
-581.0348131985644
 21
-684.8539126232979
 31
0.0
 11
-581.5813387062453
 21
-681.3030759065679
 31
0.0
 11
-577.209137194573
 21
-667.973780563154
 31
0.0
 11
-567.1530722728546
 21
-660.872107129694
 31
0.0
  0
ARC
  5
8C7F
330
8C7C
100
AcDbEntity
  8
0
100
AcDbCircle
 10
-552.5892263645954
 20
-682.6824010498516
 30
0.0
 40
16.20118411365737
100
AcDbArc
 50
124.5911213632131
 51
221.1588459390072
  0
ARC
  5
8C80
330
8C7C
100
AcDbEntity
  8
0
100
AcDbCircle
 10
-555.402650914715
 20
-680.1152753877318
 30
0.0
 40
24.15361595880936
100
AcDbArc
 50
207.7061626027145
 51
285.896656369989
  0
SPLINE
  5
8C81
330
8C7C
100
AcDbEntity
  8
0
100
AcDbSpline
210
0.0
220
0.0
230
1.0
 70
     8
 71
     3
 72
    13
 73
     9
 74
     7
 42
0.0000000001
 43
0.0000000001
 44
0.0000000001
 40
0.0
 40
0.0
 40
0.0
 40
0.0
 40
6.986752129739741
 40
22.02761081438854
 40
50.25806849401885
 40
76.9264753708002
 40
97.22259195517221
 40
119.101638811398
 40
119.101638811398
 40
119.101638811398
 40
119.101638811398
 10
-646.2869007831978
 20
-673.345191747525
 30
0.0
 10
-644.2020465292686
 20
-674.5340962491975
 30
0.0
 10
-637.6289840737118
 20
-678.2824367043919
 30
0.0
 10
-620.3404152768925
 20
-671.7572890730529
 30
0.0
 10
-599.9390575004249
 20
-662.5411222878946
 30
0.0
 10
-576.6183638340367
 20
-652.4994141753904
 30
0.0
 10
-554.1488101060253
 20
-647.4197414303737
 30
0.0
 10
-540.0835049072169
 20
-646.7122265255893
 30
0.0
 10
-532.7869007831977
 20
-646.3451917475249
 30
0.0
 11
-646.2869007831978
 21
-673.345191747525
 31
0.0
 11
-639.9312967453588
 21
-676.2470881337917
 31
0.0
 11
-625.1509964354172
 21
-673.4595887670625
 31
0.0
 11
-599.2157591221321
 21
-662.3096019372505
 31
0.0
 11
-574.3960144116171
 21
-652.5533630179524
 31
0.0
 11
-554.5959946452994
 21
-648.0933668677471
 31
0.0
 11
-532.7869007831977
 21
-646.3451917475249
 31
0.0
  0
SPLINE
  5
8C82
330
8C7C
100
AcDbEntity
  8
0
100
AcDbSpline
210
0.0
220
0.0
230
1.0
 70
     8
 71
     3
 72
    15
 73
    11
 74
     9
 42
0.0000000001
 43
0.0000000001
 44
0.0000000001
 40
0.0
 40
0.0
 40
0.0
 40
0.0
 40
3.944153969757755
 40
8.057646281266809
 40
9.682256321609862
 40
11.30679795393234
 40
19.11314146445586
 40
37.90580864985403
 40
51.28201847232601
 40
66.72834797736396
 40
66.72834797736396
 40
66.72834797736396
 40
66.72834797736396
 10
-580.473054812112
 20
-685.5651423577346
 30
0.0
 10
-579.2221939332447
 20
-685.6677305569498
 30
0.0
 10
-576.666767703369
 20
-685.8773114780412
 30
0.0
 10
-572.7577588022017
 20
-682.3886418419355
 30
0.0
 10
-575.220891438406
 20
-680.9011546017794
 30
0.0
 10
-577.7139818949497
 20
-678.1900124661331
 30
0.0
 10
-574.5425073671242
 20
-667.0580604040018
 30
0.0
 10
-562.6158612057197
 20
-660.289639571979
 30
0.0
 10
-547.6010381160633
 20
-654.9405605791283
 30
0.0
 10
-537.9558615588137
 20
-654.3209843253208
 30
0.0
 10
-532.7869007831977
 20
-653.9889463025407
 30
0.0
 11
-580.473054812112
 21
-685.5651423577346
 31
0.0
 11
-576.553306245386
 21
-685.127053655751
 31
0.0
 11
-573.9299849984127
 21
-681.9586148237673
 31
0.0
 11
-575.1323406053557
 21
-680.866049595675
 31
0.0
 11
-576.2253916207174
 21
-679.6642280644294
 31
0.0
 11
-575.3509506384431
 21
-671.9070151646302
 31
0.0
 11
-560.8133787635462
 21
-659.9980545079084
 31
0.0
 11
-548.1339925948544
 21
-655.7370504478324
 31
0.0
 11
-532.7869007831977
 21
-653.9889463025407
 31
0.0
  0
SPLINE
  5
8C83
330
8C7C
100
AcDbEntity
  8
0
100
AcDbSpline
210
0.0
220
0.0
230
1.0
 70
     8
 71
     3
 72
    20
 73
    16
 74
    14
 42
0.0000000001
 43
0.0000000001
 44
0.0000000001
 40
0.0
 40
0.0
 40
0.0
 40
0.0
 40
8.396930361839379
 40
13.8027856282323
 40
20.3581764476462
 40
24.03130348473588
 40
25.69956916377005
 40
28.63149017518021
 40
31.46611901997476
 40
35.12920939222963
 40
44.97794332285411
 40
57.34165276897241
 40
73.82262125100462
 40
86.6632845017574
 40
99.97407878127228
 40
99.97407878127228
 40
99.97407878127228
 40
99.97407878127228
 10
-581.6906441477514
 20
-662.292441816386
 30
0.0
 10
-583.5635575595303
 20
-664.4678563116414
 30
0.0
 10
-586.6422328859939
 20
-668.0437797308733
 30
0.0
 10
-587.9576708185133
 20
-674.7404571660354
 30
0.0
 10
-588.509266733592
 20
-680.2518015883822
 30
0.0
 10
-586.6658311995953
 20
-683.6172219984243
 30
0.0
 10
-584.0683624860738
 20
-685.8245658170726
 30
0.0
 10
-582.5633922371593
 20
-682.0370336174904
 30
0.0
 10
-584.938472984734
 20
-679.8152279057451
 30
0.0
 10
-586.448578835132
 20
-674.2757943301231
 30
0.0
 10
-582.285494823958
 20
-665.886734905005
 30
0.0
 10
-573.0151285122395
 20
-656.8652249475336
 30
0.0
 10
-559.8855526141663
 20
-651.3467786710953
 30
0.0
 10
-545.9436444979659
 20
-648.5157254603948
 30
0.0
 10
-537.2247293647935
 20
-648.0522534653762
 30
0.0
 10
-532.7869007831979
 20
-647.8163514942196
 30
0.0
 11
-581.6906441477514
 21
-662.292441816386
 31
0.0
 11
-586.5000665755233
 21
-669.1756020943996
 31
0.0
 11
-587.8117267740475
 21
-674.4199150794145
 31
0.0
 11
-587.8117267740475
 21
-680.9753058988284
 31
0.0
 11
-585.9535410678423
 21
-684.1437452799518
 31
0.0
 11
-584.532575427812
 21
-685.0177973525977
 31
0.0
 11
-583.220914379363
 21
-682.3956405855203
 31
0.0
 11
-584.532575427812
 21
-679.8827406707361
 31
0.0
 11
-585.6256255932489
 21
-676.3865323801526
 31
0.0
 11
-582.3464742470134
 21
-667.0997284905081
 31
0.0
 11
-573.6020703737441
 21
-658.3592072149098
 31
0.0
 11
-558.6272775827476
 21
-651.4760463877564
 31
0.0
 11
-546.0571968555619
 21
-648.8538901698189
 31
0.0
 11
-532.7869007831979
 21
-647.8163514942196
 31
0.0
  0
SPLINE
  5
8C84
330
8C7C
100
AcDbEntity
  8
0
100
AcDbSpline
210
0.0
220
0.0
230
1.0
 70
     8
 71
     3
 72
    11
 73
     7
 74
     5
 42
0.0000000001
 43
0.0000000001
 44
0.0000000001
 40
0.0
 40
0.0
 40
0.0
 40
0.0
 40
4.3813373669016
 40
8.301867491331719
 40
10.12370912861371
 40
13.20653746900375
 40
13.20653746900375
 40
13.20653746900375
 40
13.20653746900375
 10
-707.2869007831977
 20
-709.345191747525
 30
0.0
 10
-708.1952231046375
 20
-707.6884082210636
 30
0.0
 10
-709.9163349297571
 20
-704.5490934076435
 30
0.0
 10
-705.3770874931131
 20
-704.0442841755724
 30
0.0
 10
-702.2969709314775
 20
-704.2803338733447
 30
0.0
 10
-701.6767441052121
 20
-702.4780294606907
 30
0.0
 10
-701.2869007831977
 20
-701.3451917475249
 30
0.0
 11
-707.2869007831977
 21
-709.345191747525
 31
0.0
 11
-708.4957292136496
 21
-705.1339151063698
 31
0.0
 11
-704.7020489957003
 21
-704.1446998312631
 31
0.0
 11
-702.8876825818206
 21
-703.979831800646
 31
0.0
 11
-701.2869007831977
 21
-701.3451917475249
 31
0.0
  0
SPLINE
  5
8C85
330
8C7C
100
AcDbEntity
  8
0
100
AcDbSpline
210
0.0
220
0.0
230
1.0
 70
     8
 71
     3
 72
    10
 73
     6
 74
     4
 42
0.0000000001
 43
0.0000000001
 44
0.0000000001
 40
0.0
 40
0.0
 40
0.0
 40
0.0
 40
4.36524115624772
 40
9.479951262949473
 40
14.52387293684771
 40
14.52387293684771
 40
14.52387293684771
 40
14.52387293684771
 10
-707.2869007831977
 20
-709.345191747525
 30
0.0
 10
-705.7965271584021
 20
-709.526151460539
 30
0.0
 10
-702.5598974234269
 20
-709.9191398885604
 30
0.0
 10
-698.3693547623701
 20
-706.1540234034659
 30
0.0
 10
-698.2741433162317
 20
-702.6753187200421
 30
0.0
 10
-698.2268693243051
 20
-700.9480867139249
 30
0.0
 11
-707.2869007831977
 21
-709.345191747525
 31
0.0
 11
-702.9220932929297
 21
-709.283661875927
 31
0.0
 11
-699.0678045672277
 21
-705.9214129418765
 31
0.0
 11
-698.2268693243051
 21
-700.9480867139249
 31
0.0
  0
SPLINE
  5
8C86
330
8C7C
100
AcDbEntity
  8
0
100
AcDbSpline
210
0.0
220
0.0
230
1.0
 70
     8
 71
     3
 72
    10
 73
     6
 74
     4
 42
0.0000000001
 43
0.0000000001
 44
0.0000000001
 40
0.0
 40
0.0
 40
0.0
 40
0.0
 40
15.72305938246654
 40
20.66606171597198
 40
22.48080863312555
 40
22.48080863312555
 40
22.48080863312555
 40
22.48080863312555
 10
-691.2869007831978
 20
-695.3451917475249
 30
0.0
 10
-690.4901948634419
 20
-700.2046309123451
 30
0.0
 10
-689.4430211991671
 20
-706.5917765207358
 30
0.0
 10
-692.2538448398998
 20
-715.6861390634643
 30
0.0
 10
-694.6448207151632
 20
-715.4173682849534
 30
0.0
 10
-695.2869007831978
 20
-715.3451917475249
 30
0.0
 11
-691.2869007831978
 21
-695.3451917475249
 31
0.0
 11
-690.9986070393715
 21
-711.0656078699385
 31
0.0
 11
-693.4721538660442
 21
-715.3451917475249
 31
0.0
 11
-695.2869007831978
 21
-715.3451917475249
 31
0.0
  0
SPLINE
  5
8C87
330
8C7C
100
AcDbEntity
  8
0
100
AcDbSpline
210
0.0
220
0.0
230
1.0
 70
     8
 71
     3
 72
     9
 73
     5
 74
     3
 42
0.0000000001
 43
0.0000000001
 44
0.0000000001
 40
0.0
 40
0.0
 40
0.0
 40
0.0
 40
8.124091228860605
 40
19.6539772698336
 40
19.6539772698336
 40
19.6539772698336
 40
19.6539772698336
 10
-695.2869007831978
 20
-715.3451917475248
 30
0.0
 10
-694.4484890801685
 20
-712.7321876383957
 30
0.0
 10
-692.4201853487236
 20
-706.4107515638766
 30
0.0
 10
-693.6093413758956
 20
-699.8333490539973
 30
0.0
 10
-694.3069525153605
 20
-695.9747559385511
 30
0.0
 11
-695.2869007831978
 21
-715.3451917475248
 31
0.0
 11
-693.3214113324686
 21
-707.4624441609328
 31
0.0
 11
-694.3069525153605
 21
-695.9747559385511
 31
0.0
  0
SPLINE
  5
8C88
330
8C7C
100
AcDbEntity
  8
0
100
AcDbSpline
210
0.0
220
0.0
230
1.0
 70
     8
 71
     3
 72
    10
 73
     6
 74
     4
 42
0.0000000001
 43
0.0000000001
 44
0.0000000001
 40
0.0
 40
0.0
 40
0.0
 40
0.0
 40
8.944271909999208
 40
18.12286605834961
 40
21.71162350587821
 40
21.71162350587821
 40
21.71162350587821
 40
21.71162350587821
 10
-695.2869007831978
 20
-715.3451917475248
 30
0.0
 10
-697.8059194353106
 20
-717.634028188012
 30
0.0
 10
-702.9099500473146
 20
-722.2716640579642
 30
0.0
 10
-711.2033026229788
 20
-713.7288488197158
 30
0.0
 10
-708.146213730594
 20
-710.3070269812889
 30
0.0
 10
-707.2869007831977
 20
-709.3451917475249
 30
0.0
 11
-695.2869007831978
 21
-715.3451917475248
 31
0.0
 11
-703.2869007831977
 21
-719.345191747525
 31
0.0
 11
-709.2379732621302
 21
-712.3572502129509
 31
0.0
 11
-707.2869007831977
 21
-709.3451917475249
 31
0.0
  0
ARC
  5
8C89
330
8C7C
100
AcDbEntity
  8
0
100
AcDbCircle
 10
-672.3620917723285
 20
-672.2008411105697
 30
0.0
 40
10.47206793103067
100
AcDbArc
 50
15.82452075469066
 51
131.3963985772398
  0
ARC
  5
8C8A
330
8C7C
100
AcDbEntity
  8
0
100
AcDbCircle
 10
-660.4824599050056
 20
-693.1333645632005
 30
0.0
 40
17.85238468913766
100
AcDbArc
 50
91.79672218756264
 51
122.9471171112777
  0
ARC
  5
8C8B
330
8C7C
100
AcDbEntity
  8
0
100
AcDbCircle
 10
-664.6416269756973
 20
-679.4262869775267
 30
0.0
 40
8.333655378221147
100
AcDbArc
 50
236.1230386629759
 51
331.9494482728773
  0
SPLINE
  5
8C8C
330
8C7C
100
AcDbEntity
  8
0
100
AcDbSpline
210
0.0
220
0.0
230
1.0
 70
     8
 71
     3
 72
    12
 73
     8
 74
     6
 42
0.0000000001
 43
0.0000000001
 44
0.0000000001
 40
0.0
 40
0.0
 40
0.0
 40
0.0
 40
4.444815023040329
 40
7.837925131244547
 40
9.383666696406221
 40
11.16826729633966
 40
16.34260714184148
 40
16.34260714184148
 40
16.34260714184148
 40
16.34260714184148
 10
-669.2869007831977
 20
-686.3451917475249
 30
0.0
 10
-670.9217831815622
 20
-687.0182452555464
 30
0.0
 10
-673.8047121156902
 20
-688.2050984716754
 30
0.0
 10
-675.3637406910113
 20
-684.5472227264011
 30
0.0
 10
-674.9423216871588
 20
-682.2356265335742
 30
0.0
 10
-677.3504774322367
 20
-680.1692203992484
 30
0.0
 10
-679.6081798021242
 20
-679.6966057249663
 30
0.0
 10
-681.2869007831977
 20
-679.3451917475249
 30
0.0
 11
-669.2869007831977
 21
-686.3451917475249
 31
0.0
 11
-673.6832030316218
 21
-687.0001017638988
 31
0.0
 11
-675.1372501939131
 21
-683.9343321939163
 31
0.0
 11
-675.2054089118874
 21
-682.3900940725657
 31
0.0
 11
-676.4095407749409
 21
-681.0729510440141
 31
0.0
 11
-681.2869007831977
 21
-679.3451917475249
 31
0.0
  0
ARC
  5
8C8D
330
8C7C
100
AcDbEntity
  8
0
100
AcDbCircle
 10
-681.7321724682294
 20
-683.9136021412351
 30
0.0
 40
4.590058866599709
100
AcDbArc
 50
84.43310570440514
 51
172.8865108037761
  0
SPLINE
  5
8C8E
330
8C7C
100
AcDbEntity
  8
0
100
AcDbSpline
210
0.0
220
0.0
230
1.0
 70
     8
 71
     3
 72
     9
 73
     5
 74
     3
 42
0.0000000001
 43
0.0000000001
 44
0.0000000001
 40
0.0
 40
0.0
 40
0.0
 40
0.0
 40
4.563015150938924
 40
8.451399047620213
 40
8.451399047620213
 40
8.451399047620213
 40
8.451399047620213
 10
-686.2869007831976
 20
-683.3451917475249
 30
0.0
 10
-685.4193059958451
 20
-684.9236327333247
 30
0.0
 10
-683.8123883072102
 20
-687.8471458497269
 30
0.0
 10
-686.6061908446235
 20
-689.5103389610019
 30
0.0
 10
-687.891584746364
 20
-690.275553486374
 30
0.0
 11
-686.2869007831976
 21
-683.3451917475249
 31
0.0
 11
-684.9669501338612
 21
-687.7131246168596
 31
0.0
 11
-687.891584746364
 21
-690.275553486374
 31
0.0
  0
SPLINE
  5
8C8F
330
8C7C
100
AcDbEntity
  8
0
100
AcDbSpline
210
0.0
220
0.0
230
1.0
 70
     8
 71
     3
 72
     9
 73
     5
 74
     3
 42
0.0000000001
 43
0.0000000001
 44
0.0000000001
 40
0.0
 40
0.0
 40
0.0
 40
0.0
 40
3.124717508904682
 40
6.740135682227998
 40
6.740135682227998
 40
6.740135682227998
 40
6.740135682227998
 10
-687.891584746364
 20
-690.275553486374
 30
0.0
 10
-687.8372124999232
 20
-691.418688964195
 30
0.0
 10
-687.7199294759973
 20
-693.8844760959036
 30
0.0
 10
-690.0415697204983
 20
-694.8352143975352
 30
0.0
 10
-691.2869007831978
 20
-695.3451917475249
 30
0.0
 11
-687.891584746364
 21
-690.275553486374
 31
0.0
 11
-688.2526503414028
 21
-693.379340068363
 31
0.0
 11
-691.2869007831978
 21
-695.3451917475249
 31
0.0
  0
SPLINE
  5
8C90
330
8C7C
100
AcDbEntity
  8
0
100
AcDbSpline
210
0.0
220
0.0
230
1.0
 70
     8
 71
     3
 72
    12
 73
     8
 74
     6
 42
0.0000000001
 43
0.0000000001
 44
0.0000000001
 40
0.0
 40
0.0
 40
0.0
 40
0.0
 40
2.597352391762907
 40
6.556237673908277
 40
9.46110355184178
 40
12.36049824625405
 40
17.00853813738933
 40
17.00853813738933
 40
17.00853813738933
 40
17.00853813738933
 10
-701.2869007831977
 20
-701.3451917475249
 30
0.0
 10
-701.3207040332311
 20
-700.4243951930308
 30
0.0
 10
-701.406030206942
 20
-698.1001202583991
 30
0.0
 10
-704.6992276513773
 20
-696.6184988362753
 30
0.0
 10
-707.5988402917285
 20
-695.1957923429923
 30
0.0
 10
-708.8386073222628
 20
-691.045498452037
 30
0.0
 10
-706.0216847480829
 20
-689.9932266726807
 30
0.0
 10
-704.2869007831978
 20
-689.3451917475249
 30
0.0
 11
-701.2869007831977
 21
-701.3451917475249
 31
0.0
 11
-701.733083777417
 21
-698.7864498334848
 31
0.0
 11
-704.9494673370737
 21
-696.4782796763347
 31
0.0
 11
-707.341130409246
 21
-694.8295851873559
 31
0.0
 11
-708.0833744577266
 21
-692.0268073926527
 31
0.0
 11
-704.2869007831978
 21
-689.3451917475249
 31
0.0
  0
ARC
  5
8C91
330
8C7C
100
AcDbEntity
  8
0
100
AcDbCircle
 10
-695.7712428531799
 20
-684.4936410082454
 30
0.0
 40
9.800712961661487
100
AcDbArc
 50
111.0212705439066
 51
209.6710813399881
  0
ARC
  5
8C92
330
8C7C
100
AcDbEntity
  8
0
100
AcDbCircle
 10
-683.9158467338395
 20
-679.6107445645398
 30
0.0
 40
15.95193541307883
100
AcDbArc
 50
73.1312172943263
 51
164.4903701916191
  0
SPLINE
  5
8C93
330
8C7C
100
AcDbEntity
  8
0
100
AcDbSpline
210
0.0
220
0.0
230
1.0
 70
     8
 71
     3
 72
    16
 73
    12
 74
    10
 42
0.0000000001
 43
0.0000000001
 44
0.0000000001
 40
0.0
 40
0.0
 40
0.0
 40
0.0
 40
1.978621764947526
 40
7.43979617017302
 40
13.77932884406209
 40
19.54589812849894
 40
25.59057848587732
 40
32.86935037507756
 40
36.76461965386518
 40
40.91269384697146
 40
44.26793709050119
 40
44.26793709050119
 40
44.26793709050119
 40
44.26793709050119
 10
-669.2869007831977
 20
-686.3451917475249
 30
0.0
 10
-668.9956368918055
 20
-685.7469350874305
 30
0.0
 10
-667.9004584084407
 20
-683.4974361243641
 30
0.0
 10
-669.0415507413652
 20
-678.4128327928153
 30
0.0
 10
-674.133191340176
 20
-674.7239813458413
 30
0.0
 10
-680.1024069551648
 20
-673.9635944835937
 30
0.0
 10
-687.00108898028
 20
-674.2171458593843
 30
0.0
 10
-690.182867657919
 20
-680.0168893535595
 30
0.0
 10
-691.5160022545261
 20
-684.6076457446662
 30
0.0
 10
-691.7950403027942
 20
-689.2579536417752
 30
0.0
 10
-689.0977338178569
 20
-689.9611200081467
 30
0.0
 10
-687.891584746364
 20
-690.275553486374
 30
0.0
 11
-669.2869007831977
 21
-686.3451917475249
 31
0.0
 11
-668.5341480451596
 21
-684.5153536661363
 31
0.0
 11
-669.4920346539759
 21
-679.13884186675
 31
0.0
 11
-674.4288336264474
 21
-675.1616958512369
 31
0.0
 11
-680.1024681903393
 21
-674.130583758581
 31
0.0
 11
-686.0708371607842
 21
-675.0880452228214
 31
0.0
 11
-690.3444839309925
 21
-680.9801130685357
 31
0.0
 11
-691.376053928966
 21
-684.7363061005227
 31
0.0
 11
-690.9339518941737
 21
-688.8607533728668
 31
0.0
 11
-687.891584746364
 21
-690.275553486374
 31
0.0
  0
SPLINE
  5
8C94
330
8C7C
100
AcDbEntity
  8
0
100
AcDbSpline
210
0.0
220
0.0
230
1.0
 70
     8
 71
     3
 72
    10
 73
     6
 74
     4
 42
0.0000000001
 43
0.0000000001
 44
0.0000000001
 40
0.0
 40
0.0
 40
0.0
 40
0.0
 40
4.548082061862656
 40
10.23394251137264
 40
15.37230316540551
 40
15.37230316540551
 40
15.37230316540551
 40
15.37230316540551
 10
-691.2869007831978
 20
-695.345191747525
 30
0.0
 10
-692.8255746619867
 20
-695.7574849716229
 30
0.0
 10
-696.2878472870388
 20
-696.6852134285538
 30
0.0
 10
-700.6834172927749
 20
-693.1288374312393
 30
0.0
 10
-703.1269381865546
 20
-690.5631486172382
 30
0.0
 10
-704.2869007831978
 20
-689.3451917475251
 30
0.0
 11
-691.2869007831978
 21
-695.345191747525
 31
0.0
 11
-695.7970674774883
 21
-695.9312351172078
 31
0.0
 11
-700.6601830608028
 21
-692.9852011943506
 31
0.0
 11
-704.2869007831978
 21
-689.3451917475251
 31
0.0
  0
ARC
  5
8C95
330
8C7C
100
AcDbEntity
  8
0
100
AcDbCircle
 10
-712.7738826417457
 20
-669.6943666915541
 30
0.0
 40
33.91152645600867
100
AcDbArc
 50
352.3908499122736
 51
9.075691978642819
  0
ARC
  5
8C96
330
8C7C
100
AcDbEntity
  8
0
100
AcDbCircle
 10
-661.6169729862208
 20
-610.7332146857304
 30
0.0
 40
74.79124975599278
100
AcDbArc
 50
239.7570567392512
 51
247.7626145895512
  0
LINE
  5
8C97
330
8C7C
100
AcDbEntity
  8
0
100
AcDbLine
 10
-672.0549007429135
 20
-675.5070163666125
 30
0.0
 11
-668.6496562385753
 21
-670.5824674803625
 31
0.0
  0
LINE
  5
8C98
330
8C7C
100
AcDbEntity
  8
0
100
AcDbLine
 10
-674.3009131298126
 20
-674.2758795569049
 30
0.0
 11
-672.6345172265955
 21
-669.2064906583554
 31
0.0
  0
LINE
  5
8C99
330
8C7C
100
AcDbEntity
  8
0
100
AcDbLine
 10
-684.5890976408814
 20
-673.768940612136
 30
0.0
 11
-685.3136178205213
 21
-669.4237501276648
 31
0.0
  0
LINE
  5
8C9A
330
8C7C
100
AcDbEntity
  8
0
100
AcDbLine
 10
-687.1973701176004
 20
-675.0000774218436
 30
0.0
 11
-690.6026146219387
 21
-672.0308643085196
 31
0.0
  0
LINE
  5
8C9B
330
8C7C
100
AcDbEntity
  8
0
100
AcDbLine
 10
-692.2690105251558
 20
-684.5594957188843
 30
0.0
 11
-698.2825266562883
 21
-682.8938394214177
 31
0.0
  0
LINE
  5
8C9C
330
8C7C
100
AcDbEntity
  8
0
100
AcDbLine
 10
-692.9210788568168
 20
-686.2975720225006
 30
0.0
 11
-700.0213752574093
 21
-687.0941898935891
 31
0.0
  0
SPLINE
  5
8C9D
330
8C7C
100
AcDbEntity
  8
0
100
AcDbSpline
210
0.0
220
0.0
230
1.0
 70
     8
 71
     3
 72
     9
 73
     5
 74
     3
 42
0.0000000001
 43
0.0000000001
 44
0.0000000001
 40
0.0
 40
0.0
 40
0.0
 40
0.0
 40
15.61402645171171
 40
17.51378540145741
 40
17.51378540145741
 40
17.51378540145741
 40
17.51378540145741
 10
-603.7869007831979
 20
-681.3451917475249
 30
0.0
 10
-608.8666930540953
 20
-686.6555476416685
 30
0.0
 10
-614.5645437649045
 20
-692.6120146569529
 30
0.0
 10
-618.3737119090071
 20
-687.8605893368524
 30
0.0
 10
-618.7869007831977
 20
-687.3451917475249
 30
0.0
 11
-603.7869007831979
 21
-681.3451917475249
 31
0.0
 11
-617.5251115067513
 21
-688.7653931026093
 31
0.0
 11
-618.7869007831977
 21
-687.3451917475249
 31
0.0
  0
SPLINE
  5
8C9E
330
8C7C
100
AcDbEntity
  8
0
100
AcDbSpline
210
0.0
220
0.0
230
1.0
 70
     8
 71
     3
 72
    10
 73
     6
 74
     4
 42
0.0000000001
 43
0.0000000001
 44
0.0000000001
 40
0.0
 40
0.0
 40
0.0
 40
0.0
 40
1.937717373376968
 40
9.479872025543626
 40
17.72847306352512
 40
17.72847306352512
 40
17.72847306352512
 40
17.72847306352512
 10
-618.7869007831977
 20
-687.3451917475249
 30
0.0
 10
-618.1887598674539
 20
-687.1024405034131
 30
0.0
 10
-615.2624820663675
 20
-685.9148314331541
 30
0.0
 10
-609.7327024145592
 20
-683.6985815039653
 30
0.0
 10
-605.5692783341943
 20
-680.4323867043777
 30
0.0
 10
-603.3944347190604
 20
-678.7262278388498
 30
0.0
 11
-618.7869007831977
 21
-687.3451917475249
 31
0.0
 11
-616.9911979552162
 21
-686.6170434297584
 31
0.0
 11
-610.1268789530887
 21
-683.4921080009487
 31
0.0
 11
-603.3944347190604
 21
-678.7262278388498
 31
0.0
  0
SPLINE
  5
8C9F
330
8C7C
100
AcDbEntity
  8
0
100
AcDbSpline
210
0.0
220
0.0
230
1.0
 70
     8
 71
     3
 72
    17
 73
    13
 74
    11
 42
0.0000000001
 43
0.0000000001
 44
0.0000000001
 40
0.0
 40
0.0
 40
0.0
 40
0.0
 40
2.586091375433958
 40
6.382073038180353
 40
9.627837702785733
 40
12.51897287804625
 40
14.7375521544825
 40
20.88319051122983
 40
34.80960608872674
 40
46.34312256918413
 40
57.31321576094758
 40
63.85897725916173
 40
63.85897725916173
 40
63.85897725916173
 40
63.85897725916173
 10
-638.7869007831977
 20
-686.3451917475249
 30
0.0
 10
-638.9700609548411
 20
-685.4397841926623
 30
0.0
 10
-639.4220718946773
 20
-683.2053785566722
 30
0.0
 10
-636.4936368657185
 20
-681.0737661025878
 30
0.0
 10
-633.3101273309946
 20
-679.3336128235892
 30
0.0
 10
-630.8172310257853
 20
-681.2189216171512
 30
0.0
 10
-628.1696578679684
 20
-683.8651840946513
 30
0.0
 10
-620.1738078853569
 20
-684.2152971117762
 30
0.0
 10
-608.9566801803051
 20
-681.4636169378689
 30
0.0
 10
-604.0598954360874
 20
-669.4963778173544
 30
0.0
 10
-596.6089932604067
 20
-662.873483275916
 30
0.0
 10
-591.1800376624435
 20
-660.6744684038772
 30
0.0
 10
-589.1512101140514
 20
-659.8526856739927
 30
0.0
 11
-638.7869007831977
 21
-686.3451917475249
 31
0.0
 11
-638.9434254031669
 21
-683.7638415881244
 31
0.0
 11
-636.2928470646963
 21
-681.0465062655082
 31
0.0
 11
-633.2344875087628
 21
-679.9595724659456
 31
0.0
 11
-630.7198359594716
 21
-681.3861733867626
 31
0.0
 11
-629.0207468451058
 21
-682.8127743075797
 31
0.0
 11
-622.9719911278287
 21
-683.8997081071422
 31
0.0
 11
-609.7870619801405
 21
-679.4161052915945
 31
0.0
 11
-603.262560800886
 21
-669.9054330352874
 31
0.0
 11
-595.1069339018554
 21
-662.5686289272453
 31
0.0
 11
-589.1512101140514
 21
-659.8526856739927
 31
0.0
  0
SPLINE
  5
8CA0
330
8C7C
100
AcDbEntity
  8
0
100
AcDbSpline
210
0.0
220
0.0
230
1.0
 70
     8
 71
     3
 72
    16
 73
    12
 74
    10
 42
0.0000000001
 43
0.0000000001
 44
0.0000000001
 40
0.0
 40
0.0
 40
0.0
 40
0.0
 40
2.592641565017096
 40
3.869096403543974
 40
4.964856382086089
 40
7.097626517589398
 40
9.041126544873595
 40
16.60463153276753
 40
23.76100531675317
 40
32.62687508664391
 40
40.94592603697956
 40
40.94592603697956
 40
40.94592603697956
 40
40.94592603697956
 10
-629.5078665895631
 20
-682.4542367865652
 30
0.0
 10
-630.0843531574086
 20
-681.6859807104576
 30
0.0
 10
-630.9446657190976
 20
-680.5394833075086
 30
0.0
 10
-630.1812903663163
 20
-678.9138844443441
 30
0.0
 10
-628.7454431678506
 20
-678.0019528437772
 30
0.0
 10
-627.2742652203402
 20
-679.5310390681123
 30
0.0
 10
-624.3103453072138
 20
-681.8983545180648
 30
0.0
 10
-617.9334922121559
 20
-680.4036517869424
 30
0.0
 10
-611.1462833136295
 20
-676.6391466490528
 30
0.0
 10
-606.6064960674841
 20
-669.5783027928539
 30
0.0
 10
-602.2009534286446
 20
-665.9079015007415
 30
0.0
 10
-600.0682736058483
 20
-664.1310963670802
 30
0.0
 11
-629.5078665895631
 21
-682.4542367865652
 31
0.0
 11
-630.5839083203673
 21
-680.0954395341033
 31
0.0
 11
-630.0402003137253
 21
-678.9405722004619
 31
0.0
 11
-629.0887102396955
 21
-678.3971050261107
 31
0.0
 11
-627.2536943361505
 21
-679.4840388256733
 31
0.0
 11
-625.690532860889
 21
-680.6389061593147
 31
0.0
 11
-618.1465782130151
 21
-680.0954395341033
 31
0.0
 11
-611.9618948566337
 21
-676.4949704650213
 31
0.0
 11
-606.1849935676401
 21
-669.7695665162695
 31
0.0
 11
-600.0682736058483
 21
-664.1310963670802
 31
0.0
  0
ARC
  5
8CA1
330
8C7C
100
AcDbEntity
  8
0
100
AcDbCircle
 10
-627.7453467808888
 20
-666.0141117013461
 30
0.0
 40
23.13587540228457
100
AcDbArc
 50
241.494171187828
 51
292.7810183599485
  0
SPLINE
  5
8CA2
330
8C7C
100
AcDbEntity
  8
0
100
AcDbSpline
210
0.0
220
0.0
230
1.0
 70
     8
 71
     3
 72
    10
 73
     6
 74
     4
 42
0.0000000001
 43
0.0000000001
 44
0.0000000001
 40
0.0
 40
0.0
 40
0.0
 40
0.0
 40
9.123046104142311
 40
14.10211928390164
 40
16.4697311326627
 40
16.4697311326627
 40
16.4697311326627
 40
16.4697311326627
 10
-638.7869007831977
 20
-686.3451917475249
 30
0.0
 10
-641.4906040769766
 20
-686.9646478424726
 30
0.0
 10
-645.6699040522156
 20
-687.9221836964377
 30
0.0
 10
-652.8652904036002
 20
-688.9221198740685
 30
0.0
 10
-653.1841440172778
 20
-686.2169766560527
 30
0.0
 10
-653.2869007831977
 20
-685.3451917475249
 30
0.0
 11
-638.7869007831977
 21
-686.3451917475249
 31
0.0
 11
-647.7273863952769
 21
-688.1611452817633
 31
0.0
 11
-652.6783983517316
 21
-687.6332718722787
 31
0.0
 11
-653.2869007831977
 21
-685.3451917475249
 31
0.0
  0
LINE
  5
8CA3
330
8C7C
100
AcDbEntity
  8
0
100
AcDbLine
 10
-653.2869007831977
 20
-685.3451917475249
 30
0.0
 11
-657.2869007831977
 21
-683.3451917475249
 31
0.0
  0
ARC
  5
8CA4
330
8C7C
100
AcDbEntity
  8
0
100
AcDbCircle
 10
-650.2315190562068
 20
-673.9013557030566
 30
0.0
 40
3.9836329732029
100
AcDbArc
 50
8.025409352464597
 51
140.0837988456894
  0
ARC
  5
8CA5
330
8C7C
100
AcDbEntity
  8
0
100
AcDbCircle
 10
-648.0664035107557
 20
-625.0017652834665
 30
0.0
 40
60.5688262160891
100
AcDbArc
 50
265.0554754015589
 51
278.5874135719133
  0
SPLINE
  5
8CA6
330
8C7C
100
AcDbEntity
  8
0
100
AcDbSpline
210
0.0
220
0.0
230
1.0
 70
     8
 71
     3
 72
    11
 73
     7
 74
     5
 42
0.0000000001
 43
0.0000000001
 44
0.0000000001
 40
0.0
 40
0.0
 40
0.0
 40
0.0
 40
3.538989019227944
 40
8.259645460392107
 40
13.68058026058861
 40
19.37739701543096
 40
19.37739701543096
 40
19.37739701543096
 40
19.37739701543096
 10
-653.2869007831977
 20
-671.3451917475249
 30
0.0
 10
-653.5666924415239
 20
-672.6068942418416
 30
0.0
 10
-654.2196981129158
 20
-675.5515813326828
 30
0.0
 10
-649.4269287137001
 20
-678.1631956614026
 30
0.0
 10
-644.5491164644577
 20
-679.5207121677122
 30
0.0
 10
-640.7958515474478
 20
-679.6339115207679
 30
0.0
 10
-638.8726513069378
 20
-679.6919156925588
 30
0.0
 11
-653.2869007831977
 21
-671.3451917475249
 31
0.0
 11
-653.4751684931093
 21
-674.8791694706608
 31
0.0
 11
-649.7653398025684
 21
-677.7983762674369
 31
0.0
 11
-644.555793130745
 21
-679.2974284953717
 31
0.0
 11
-638.8726513069378
 21
-679.6919156925588
 31
0.0
  0
ARC
  5
8CA7
330
8C7C
100
AcDbEntity
  8
0
100
AcDbCircle
 10
-658.6457370732015
 20
-674.209955052542
 30
0.0
 40
6.076511760610198
100
AcDbArc
 50
28.12837311078329
 51
126.8140114709141
  0
ARC
  5
8CA8
330
8C7C
100
AcDbEntity
  8
0
100
AcDbCircle
 10
-664.4345855861181
 20
-681.7742685258333
 30
0.0
 40
7.31827833649072
100
AcDbArc
 50
347.6045665193632
 51
62.38356492641457
  0
ARC
  5
8CA9
330
8C7C
100
AcDbEntity
  8
0
100
AcDbCircle
 10
-682.9434128045327
 20
-676.7729563476288
 30
0.0
 40
21.95138209411632
100
AcDbArc
 50
3.874282862860446
 51
19.77780599580551
  0
ARC
  5
8CAA
330
8C7C
100
AcDbEntity
  8
0
100
AcDbCircle
 10
-581.5161431098421
 20
-687.0190802785543
 30
0.0
 40
6.40944408089212
100
AcDbArc
 50
191.9407229554732
 51
317.5490396384108
  0
ARC
  5
8CAB
330
8C7C
100
AcDbEntity
  8
0
100
AcDbCircle
 10
-592.6057040606435
 20
-679.7378409243732
 30
0.0
 40
9.864448956709807
100
AcDbArc
 50
201.4501804798815
 51
299.2421714040119
  0
ARC
  5
8CAC
330
8C7C
100
AcDbEntity
  8
0
100
AcDbCircle
 10
-601.7190081222969
 20
-681.277299086624
 30
0.0
 40
2.069006880223506
100
AcDbArc
 50
181.880448732469
 51
268.1195512675357
  0
SPLINE
  5
8CAD
330
8C7C
100
AcDbEntity
  8
0
100
AcDbSpline
210
0.0
220
0.0
230
1.0
 70
     8
 71
     3
 72
    12
 73
     8
 74
     6
 42
0.0000000001
 43
0.0000000001
 44
0.0000000001
 40
0.0
 40
0.0
 40
0.0
 40
0.0
 40
2.877957777216571
 40
6.907897244444624
 40
13.66158431967779
 40
23.03592971397494
 40
30.48014214844654
 40
30.48014214844654
 40
30.48014214844654
 40
30.48014214844654
 10
-587.7869007831945
 20
-688.3451917475231
 30
0.0
 10
-587.3304358195875
 20
-687.3646806647969
 30
0.0
 10
-586.2347932464934
 20
-685.0111819928802
 30
0.0
 10
-591.2357964271402
 20
-682.1845736940169
 30
0.0
 10
-591.0012952942309
 20
-674.7583127151242
 30
0.0
 10
-588.4865007824344
 20
-667.0450569459963
 30
0.0
 10
-583.7757234653197
 20
-663.7506214166647
 30
0.0
 10
-581.6906441477514
 20
-662.292441816386
 30
0.0
 11
-587.7869007831945
 21
-688.3451917475231
 31
0.0
 11
-587.0465912332792
 21
-685.5640799666438
 31
0.0
 11
-589.6699124802526
 21
-682.5048974378135
 31
0.0
 11
-590.7629634956142
 21
-675.8402497661066
 31
0.0
 11
-587.3745067078727
 21
-667.0997284905081
 31
0.0
 11
-581.6906441477514
 21
-662.292441816386
 31
0.0
  0
SPLINE
  5
8CAE
330
8C7C
100
AcDbEntity
  8
0
100
AcDbSpline
210
0.0
220
0.0
230
1.0
 70
     8
 71
     3
 72
    11
 73
     7
 74
     5
 42
0.0000000001
 43
0.0000000001
 44
0.0000000001
 40
0.0
 40
0.0
 40
0.0
 40
0.0
 40
5.563486307153691
 40
16.77855928428098
 40
31.05277454289031
 40
43.13439870509305
 40
43.13439870509305
 40
43.13439870509305
 40
43.13439870509305
 10
-601.7869007831977
 20
-683.3451917475249
 30
0.0
 10
-601.6384985214322
 20
-681.4888857071091
 30
0.0
 10
-601.1909417181108
 20
-675.8905721264978
 30
0.0
 10
-596.0161042084945
 20
-666.3725313906573
 30
0.0
 10
-585.5801955966419
 20
-658.8979504783622
 30
0.0
 10
-577.3734959095541
 20
-655.7488279888132
 30
0.0
 10
-573.6115113395174
 20
-654.3052574103164
 30
0.0
 11
-601.7869007831977
 21
-683.3451917475249
 31
0.0
 11
-601.0834791498248
 21
-677.8263532922347
 31
0.0
 11
-595.9775782696079
 21
-667.8409820881337
 31
0.0
 11
-584.7112959356346
 21
-659.0760460575446
 31
0.0
 11
-573.6115113395174
 21
-654.3052574103164
 31
0.0
  0
SPLINE
  5
8CAF
330
8C7C
100
AcDbEntity
  8
0
100
AcDbSpline
210
0.0
220
0.0
230
1.0
 70
     8
 71
     3
 72
    10
 73
     6
 74
     4
 42
0.0000000001
 43
0.0000000001
 44
0.0000000001
 40
0.0
 40
0.0
 40
0.0
 40
0.0
 40
8.257460148326003
 40
19.84264596165218
 40
27.10752454210181
 40
27.10752454210181
 40
27.10752454210181
 40
27.10752454210181
 10
-603.7869007831979
 20
-681.3451917475249
 30
0.0
 10
-603.3952285305501
 20
-678.5936542263477
 30
0.0
 10
-602.454041567163
 20
-671.9817198176794
 30
0.0
 10
-596.5540778699625
 20
-664.4232275093535
 30
0.0
 10
-591.210603291624
 20
-661.1241581605891
 30
0.0
 10
-589.1512101140514
 20
-659.8526856739927
 30
0.0
 11
-603.7869007831979
 21
-681.3451917475249
 31
0.0
 11
-602.0269612314601
 21
-673.2774621489686
 31
0.0
 11
-595.1450938299516
 21
-663.9577823584743
 31
0.0
 11
-589.1512101140514
 21
-659.8526856739927
 31
0.0
  0
ARC
  5
8CB0
330
8C7C
100
AcDbEntity
  8
0
100
AcDbCircle
 10
-541.7610782514802
 20
-703.3193692158073
 30
0.0
 40
7.025869985299808
100
AcDbArc
 50
180.2105825211431
 51
269.7894174788569
  0
SPLINE
  5
8CB1
330
8C7C
100
AcDbEntity
  8
0
100
AcDbSpline
210
0.0
220
0.0
230
1.0
 70
     8
 71
     3
 72
    12
 73
     8
 74
     6
 42
0.0000000001
 43
0.0000000001
 44
0.0000000001
 40
0.0
 40
0.0
 40
0.0
 40
0.0
 40
1.408177426012061
 40
3.145591137751147
 40
9.568925748718875
 40
16.20645375088058
 40
22.33085300362851
 40
22.33085300362851
 40
22.33085300362851
 40
22.33085300362851
 10
-541.8029747544745
 20
-710.5098515242282
 30
0.0
 10
-541.5716444569291
 20
-710.0828527050517
 30
0.0
 10
-541.0548981148768
 20
-709.1290214075034
 30
0.0
 10
-537.6473161636771
 20
-708.2398777294823
 30
0.0
 10
-537.7552829432915
 20
-701.953018541212
 30
0.0
 10
-536.895540971102
 20
-695.9934047449417
 30
0.0
 10
-538.0750984891615
 20
-691.7987409845559
 30
0.0
 10
-538.6411635542478
 20
-689.7857381608835
 30
0.0
 11
-541.8029747544745
 21
-710.5098515242282
 31
0.0
 11
-540.9880535273587
 21
-709.3614321510348
 31
0.0
 11
-539.4504365449238
 21
-708.5525190400848
 31
0.0
 11
-537.5891095162936
 21
-702.4047804951443
 31
0.0
 11
-537.3463284690156
 21
-695.7716940836339
 31
0.0
 11
-538.6411635542478
 21
-689.7857381608835
 31
0.0
  0
SPLINE
  5
8CB2
330
8C7C
100
AcDbEntity
  8
0
100
AcDbSpline
210
0.0
220
0.0
230
1.0
 70
     8
 71
     3
 72
    10
 73
     6
 74
     4
 42
0.0000000001
 43
0.0000000001
 44
0.0000000001
 40
0.0
 40
0.0
 40
0.0
 40
0.0
 40
4.365241156247777
 40
9.47995126294953
 40
14.52387293684777
 40
14.52387293684777
 40
14.52387293684777
 40
14.52387293684777
 10
-358.2869007831977
 20
-709.345191747525
 30
0.0
 10
-359.7772744079934
 20
-709.526151460539
 30
0.0
 10
-363.0139041429686
 20
-709.9191398885607
 30
0.0
 10
-367.2044468040255
 20
-706.1540234034658
 30
0.0
 10
-367.2996582501639
 20
-702.6753187200421
 30
0.0
 10
-367.3469322420904
 20
-700.9480867139249
 30
0.0
 11
-358.2869007831977
 21
-709.345191747525
 31
0.0
 11
-362.6517082734658
 21
-709.283661875927
 31
0.0
 11
-366.5059969991678
 21
-705.9214129418765
 31
0.0
 11
-367.3469322420904
 21
-700.9480867139249
 31
0.0
  0
SPLINE
  5
8CB3
330
8C7C
100
AcDbEntity
  8
0
100
AcDbSpline
210
0.0
220
0.0
230
1.0
 70
     8
 71
     3
 72
     9
 73
     5
 74
     3
 42
0.0000000001
 43
0.0000000001
 44
0.0000000001
 40
0.0
 40
0.0
 40
0.0
 40
0.0
 40
8.124091228860605
 40
19.6539772698336
 40
19.6539772698336
 40
19.6539772698336
 40
19.6539772698336
 10
-370.2869007831978
 20
-715.3451917475248
 30
0.0
 10
-371.1253124862269
 20
-712.7321876383957
 30
0.0
 10
-373.1536162176719
 20
-706.4107515638766
 30
0.0
 10
-371.9644601905
 20
-699.8333490539973
 30
0.0
 10
-371.266849051035
 20
-695.9747559385511
 30
0.0
 11
-370.2869007831978
 21
-715.3451917475248
 31
0.0
 11
-372.2523902339269
 21
-707.4624441609328
 31
0.0
 11
-371.266849051035
 21
-695.9747559385511
 31
0.0
  0
SPLINE
  5
8CB4
330
8C7C
100
AcDbEntity
  8
0
100
AcDbSpline
210
0.0
220
0.0
230
1.0
 70
     8
 71
     3
 72
    11
 73
     7
 74
     5
 42
0.0000000001
 43
0.0000000001
 44
0.0000000001
 40
0.0
 40
0.0
 40
0.0
 40
0.0
 40
12.49899328928814
 40
31.37488809789289
 40
38.00320729114293
 40
43.71469187340102
 40
43.71469187340102
 40
43.71469187340102
 40
43.71469187340102
 10
-528.0629369861896
 20
-723.1157885984928
 30
0.0
 10
-529.5401666162184
 20
-719.1988703358028
 30
0.0
 10
-533.2482984044616
 20
-709.3666487051364
 30
0.0
 10
-532.5021879985222
 20
-696.1302840689592
 30
0.0
 10
-529.0165571572893
 20
-686.306232012776
 30
0.0
 10
-528.5346374901413
 20
-682.2066482351295
 30
0.0
 10
-528.3115807220699
 20
-680.3091537558268
 30
0.0
 11
-528.0629369861896
 21
-723.1157885984928
 31
0.0
 11
-531.808375830131
 21
-711.1911703189853
 31
0.0
 11
-530.9760554259802
 21
-692.3336347543802
 31
0.0
 11
-529.1726966751324
 21
-685.9553503029506
 31
0.0
 11
-528.3115807220699
 21
-680.3091537558268
 31
0.0
  0
SPLINE
  5
8CB5
330
8C7C
100
AcDbEntity
  8
0
100
AcDbSpline
210
0.0
220
0.0
230
1.0
 70
     8
 71
     3
 72
    12
 73
     8
 74
     6
 42
0.0000000001
 43
0.0000000001
 44
0.0000000001
 40
0.0
 40
0.0
 40
0.0
 40
0.0
 40
1.408177426012061
 40
3.145591137751147
 40
9.568925748718875
 40
16.20645375088058
 40
22.33085300362851
 40
22.33085300362851
 40
22.33085300362851
 40
22.33085300362851
 10
-523.7708268119209
 20
-710.5098515242282
 30
0.0
 10
-524.0021571094662
 20
-710.0828527050517
 30
0.0
 10
-524.5189034515184
 20
-709.1290214075034
 30
0.0
 10
-527.9264854027184
 20
-708.2398777294823
 30
0.0
 10
-527.818518623104
 20
-701.953018541212
 30
0.0
 10
-528.6782605952937
 20
-695.9934047449417
 30
0.0
 10
-527.498703077234
 20
-691.7987409845559
 30
0.0
 10
-526.9326380121477
 20
-689.7857381608835
 30
0.0
 11
-523.7708268119209
 21
-710.5098515242282
 31
0.0
 11
-524.5857480390368
 21
-709.3614321510348
 31
0.0
 11
-526.1233650214717
 21
-708.5525190400848
 31
0.0
 11
-527.9846920501019
 21
-702.4047804951443
 31
0.0
 11
-528.2274730973798
 21
-695.7716940836339
 31
0.0
 11
-526.9326380121477
 21
-689.7857381608835
 31
0.0
  0
SPLINE
  5
8CB6
330
8C7C
100
AcDbEntity
  8
0
100
AcDbSpline
210
0.0
220
0.0
230
1.0
 70
     8
 71
     3
 72
    11
 73
     7
 74
     5
 42
0.0000000001
 43
0.0000000001
 44
0.0000000001
 40
0.0
 40
0.0
 40
0.0
 40
0.0
 40
4.381337366901584
 40
8.301867491331703
 40
10.12370912861369
 40
13.20653746900373
 40
13.20653746900373
 40
13.20653746900373
 40
13.20653746900373
 10
-358.2869007831977
 20
-709.345191747525
 30
0.0
 10
-357.378578461758
 20
-707.6884082210634
 30
0.0
 10
-355.6574666366385
 20
-704.5490934076433
 30
0.0
 10
-360.1967140732824
 20
-704.0442841755727
 30
0.0
 10
-363.2768306349183
 20
-704.2803338733444
 30
0.0
 10
-363.8970574611834
 20
-702.4780294606907
 30
0.0
 10
-364.2869007831978
 20
-701.3451917475249
 30
0.0
 11
-358.2869007831977
 21
-709.345191747525
 31
0.0
 11
-357.0780723527459
 21
-705.1339151063698
 31
0.0
 11
-360.8717525706952
 21
-704.1446998312631
 31
0.0
 11
-362.6861189845749
 21
-703.979831800646
 31
0.0
 11
-364.2869007831978
 21
-701.3451917475249
 31
0.0
  0
SPLINE
  5
8CB7
330
8C7C
100
AcDbEntity
  8
0
100
AcDbSpline
210
0.0
220
0.0
230
1.0
 70
     8
 71
     3
 72
    10
 73
     6
 74
     4
 42
0.0000000001
 43
0.0000000001
 44
0.0000000001
 40
0.0
 40
0.0
 40
0.0
 40
0.0
 40
15.72305938246654
 40
20.66606171597198
 40
22.48080863312555
 40
22.48080863312555
 40
22.48080863312555
 40
22.48080863312555
 10
-374.2869007831978
 20
-695.3451917475249
 30
0.0
 10
-375.0836067029534
 20
-700.2046309123451
 30
0.0
 10
-376.1307803672285
 20
-706.5917765207358
 30
0.0
 10
-373.3199567264959
 20
-715.6861390634643
 30
0.0
 10
-370.9289808512322
 20
-715.4173682849534
 30
0.0
 10
-370.2869007831978
 20
-715.3451917475249
 30
0.0
 11
-374.2869007831978
 21
-695.3451917475249
 31
0.0
 11
-374.575194527024
 21
-711.0656078699385
 31
0.0
 11
-372.1016477003514
 21
-715.3451917475249
 31
0.0
 11
-370.2869007831978
 21
-715.3451917475249
 31
0.0
  0
ARC
  5
8CB8
330
8C7C
100
AcDbEntity
  8
0
100
AcDbCircle
 10
-523.8127233149153
 20
-703.3193692158073
 30
0.0
 40
7.025869985299808
100
AcDbArc
 50
270.2105825211431
 51
359.7894174788569
  0
SPLINE
  5
8CB9
330
8C7C
100
AcDbEntity
  8
0
100
AcDbSpline
210
0.0
220
0.0
230
1.0
 70
     8
 71
     3
 72
    15
 73
    11
 74
     9
 42
0.0000000001
 43
0.0000000001
 44
0.0000000001
 40
0.0
 40
0.0
 40
0.0
 40
0.0
 40
5.834616377839282
 40
13.43347371549321
 40
20.10113881575493
 40
25.02804923818675
 40
29.01737269355729
 40
30.56430356616341
 40
34.83009038555389
 40
38.21666540612456
 40
38.21666540612456
 40
38.21666540612456
 40
38.21666540612456
 10
-527.6609828538314
 20
-709.76588843194
 30
0.0
 10
-528.1221499150553
 20
-711.6660846453767
 30
0.0
 10
-529.1839293353663
 20
-716.0410485220822
 30
0.0
 10
-526.8439385672262
 20
-723.1112419829785
 30
0.0
 10
-530.9043254715285
 20
-728.3305392548518
 30
0.0
 10
-535.7115066927424
 20
-732.3087381024775
 30
0.0
 10
-533.6334395377368
 20
-735.4352593981652
 30
0.0
 10
-532.6463576670232
 20
-739.4182485819598
 30
0.0
 10
-529.8084525717877
 20
-733.9626423686658
 30
0.0
 10
-531.1635483389513
 20
-731.9094424991385
 30
0.0
 10
-531.7632499175661
 20
-731.000792916722
 30
0.0
 11
-527.6609828538314
 21
-709.76588843194
 31
0.0
 11
-528.5491781707394
 21
-715.5325041947227
 31
0.0
 11
-528.0629369861896
 21
-723.1157885984929
 31
0.0
 11
-531.6442102861965
 21
-728.7400431659806
 31
0.0
 11
-534.6202027702842
 21
-732.6666084647272
 31
0.0
 11
-533.4298056066641
 21
-736.4741872524104
 31
0.0
 11
-532.8346074498165
 21
-737.9020297782889
 31
0.0
 11
-530.6918932352405
 21
-734.2134375016691
 31
0.0
 11
-531.7632499175661
 21
-731.000792916722
 31
0.0
  0
ARC
  5
8CBA
330
8C7C
100
AcDbEntity
  8
0
100
AcDbCircle
 10
-540.9515605599009
 20
-710.5098515242282
 30
0.0
 40
0.8514141945736797
100
AcDbArc
 50
168.8489845561226
 51
281.1510154438698
  0
SPLINE
  5
8CBB
330
8C7C
100
AcDbEntity
  8
0
100
AcDbSpline
210
0.0
220
0.0
230
1.0
 70
     8
 71
     3
 72
     9
 73
     5
 74
     3
 42
0.0000000001
 43
0.0000000001
 44
0.0000000001
 40
0.0
 40
0.0
 40
0.0
 40
0.0
 40
1.482286856470368
 40
3.570460444622455
 40
3.570460444622455
 40
3.570460444622455
 40
3.570460444622455
 10
-541.0458947973473
 20
-711.3560236003255
 30
0.0
 10
-540.552303601931
 20
-711.2639615522464
 30
0.0
 10
-539.3633651509459
 20
-711.0422069710177
 30
0.0
 10
-538.4481056287126
 20
-710.236881015651
 30
0.0
 10
-537.912818712564
 20
-709.7658884319399
 30
0.0
 11
-541.0458947973473
 21
-711.3560236003255
 31
0.0
 11
-539.6122902931341
 21
-710.979257823795
 31
0.0
 11
-537.912818712564
 21
-709.7658884319399
 31
0.0
  0
ARC
  5
8CBC
330
8C7C
100
AcDbEntity
  8
0
100
AcDbCircle
 10
-518.656054740275
 20
-729.8928533303559
 30
0.0
 40
18.18892149386955
100
AcDbArc
 50
184.5797953736025
 51
219.0230235991006
  0
ARC
  5
8CBD
330
8C7C
100
AcDbEntity
  8
0
100
AcDbCircle
 10
-530.3089317180523
 20
-724.7636943254295
 30
0.0
 40
9.234727474377931
100
AcDbArc
 50
144.0730830766802
 51
225.4542003047724
  0
ARC
  5
8CBE
330
8C7C
100
AcDbEntity
  8
0
100
AcDbCircle
 10
-531.8870381603443
 20
-712.5702432639549
 30
0.0
 40
8.983780157793876
100
AcDbArc
 50
172.1625808437751
 51
228.9495095953917
  0
SPLINE
  5
8CBF
330
8C7C
100
AcDbEntity
  8
0
100
AcDbSpline
210
0.0
220
0.0
230
1.0
 70
     8
 71
     3
 72
     9
 73
     5
 74
     3
 42
0.0000000001
 43
0.0000000001
 44
0.0000000001
 40
0.0
 40
0.0
 40
0.0
 40
0.0
 40
1.482286856470368
 40
3.570460444622455
 40
3.570460444622455
 40
3.570460444622455
 40
3.570460444622455
 10
-524.5279067690482
 20
-711.3560236003255
 30
0.0
 10
-525.0214979644644
 20
-711.2639615522464
 30
0.0
 10
-526.2104364154494
 20
-711.0422069710177
 30
0.0
 10
-527.1256959376828
 20
-710.236881015651
 30
0.0
 10
-527.6609828538314
 20
-709.7658884319399
 30
0.0
 11
-524.5279067690482
 21
-711.3560236003255
 31
0.0
 11
-525.9615112732614
 21
-710.979257823795
 31
0.0
 11
-527.6609828538314
 21
-709.7658884319399
 31
0.0
  0
ARC
  5
8CC0
330
8C7C
100
AcDbEntity
  8
0
100
AcDbCircle
 10
-524.6222410064945
 20
-710.5098515242282
 30
0.0
 40
0.8514141945736797
100
AcDbArc
 50
258.8489845561302
 51
11.15101544387737
  0
ARC
  5
8CC1
330
8C7C
100
AcDbEntity
  8
0
100
AcDbCircle
 10
-533.6867634060512
 20
-712.5702432639549
 30
0.0
 40
8.983780157793876
100
AcDbArc
 50
311.0504904046083
 51
7.837419156224895
  0
ARC
  5
8CC2
330
8C7C
100
AcDbEntity
  8
0
100
AcDbCircle
 10
-535.2648698483432
 20
-724.7636943254295
 30
0.0
 40
9.234727474377931
100
AcDbArc
 50
314.5457996952276
 51
35.92691692331983
  0
ARC
  5
8CC3
330
8C7C
100
AcDbEntity
  8
0
100
AcDbCircle
 10
-546.9177468261205
 20
-729.8928533303559
 30
0.0
 40
18.18892149386955
100
AcDbArc
 50
320.9769764008994
 51
355.4202046263975
  0
SPLINE
  5
8CC4
330
8C7C
100
AcDbEntity
  8
0
100
AcDbSpline
210
0.0
220
0.0
230
1.0
 70
     8
 71
     3
 72
    10
 73
     6
 74
     4
 42
0.0000000001
 43
0.0000000001
 44
0.0000000001
 40
0.0
 40
0.0
 40
0.0
 40
0.0
 40
8.944271909999208
 40
18.12286605834961
 40
21.71162350587821
 40
21.71162350587821
 40
21.71162350587821
 40
21.71162350587821
 10
-370.2869007831978
 20
-715.3451917475248
 30
0.0
 10
-367.7678821310851
 20
-717.634028188012
 30
0.0
 10
-362.663851519081
 20
-722.2716640579642
 30
0.0
 10
-354.3704989434167
 20
-713.7288488197158
 30
0.0
 10
-357.4275878358013
 20
-710.3070269812889
 30
0.0
 10
-358.2869007831978
 20
-709.3451917475249
 30
0.0
 11
-370.2869007831978
 21
-715.3451917475248
 31
0.0
 11
-362.2869007831978
 21
-719.345191747525
 31
0.0
 11
-356.3358283042653
 21
-712.3572502129509
 31
0.0
 11
-358.2869007831978
 21
-709.3451917475249
 31
0.0
  0
LINE
  5
8CC5
330
8C7C
100
AcDbEntity
  8
0
100
AcDbLine
 10
-378.3764314487951
 20
-675.0000774218436
 30
0.0
 11
-374.9711869444568
 21
-672.0308643085196
 31
0.0
  0
ARC
  5
8CC6
330
8C7C
100
AcDbEntity
  8
0
100
AcDbCircle
 10
-403.9568285801747
 20
-610.7332146857304
 30
0.0
 40
74.79124975599278
100
AcDbArc
 50
292.2373854104488
 51
300.2429432607488
  0
SPLINE
  5
8CC7
330
8C7C
100
AcDbEntity
  8
0
100
AcDbSpline
210
0.0
220
0.0
230
1.0
 70
     8
 71
     3
 72
    16
 73
    12
 74
    10
 42
0.0000000001
 43
0.0000000001
 44
0.0000000001
 40
0.0
 40
0.0
 40
0.0
 40
0.0
 40
1.978621764947526
 40
7.43979617017302
 40
13.77932884406209
 40
19.54589812849894
 40
25.59057848587732
 40
32.86935037507756
 40
36.76461965386518
 40
40.91269384697146
 40
44.26793709050119
 40
44.26793709050119
 40
44.26793709050119
 40
44.26793709050119
 10
-396.2869007831978
 20
-686.3451917475249
 30
0.0
 10
-396.5781646745899
 20
-685.7469350874305
 30
0.0
 10
-397.6733431579552
 20
-683.4974361243641
 30
0.0
 10
-396.53225082503
 20
-678.4128327928153
 30
0.0
 10
-391.4406102262196
 20
-674.7239813458413
 30
0.0
 10
-385.4713946112305
 20
-673.9635944835937
 30
0.0
 10
-378.5727125861159
 20
-674.2171458593843
 30
0.0
 10
-375.3909339084767
 20
-680.0168893535595
 30
0.0
 10
-374.0577993118693
 20
-684.6076457446662
 30
0.0
 10
-373.7787612636014
 20
-689.2579536417752
 30
0.0
 10
-376.4760677485386
 20
-689.9611200081467
 30
0.0
 10
-377.6822168200315
 20
-690.275553486374
 30
0.0
 11
-396.2869007831978
 21
-686.3451917475249
 31
0.0
 11
-397.039653521236
 21
-684.5153536661363
 31
0.0
 11
-396.0817669124196
 21
-679.13884186675
 31
0.0
 11
-391.1449679399482
 21
-675.1616958512369
 31
0.0
 11
-385.4713333760562
 21
-674.130583758581
 31
0.0
 11
-379.5029644056112
 21
-675.0880452228214
 31
0.0
 11
-375.229317635403
 21
-680.9801130685357
 31
0.0
 11
-374.1977476374295
 21
-684.7363061005227
 31
0.0
 11
-374.6398496722218
 21
-688.8607533728668
 31
0.0
 11
-377.6822168200315
 21
-690.275553486374
 31
0.0
  0
ARC
  5
8CC8
330
8C7C
100
AcDbEntity
  8
0
100
AcDbCircle
 10
-381.657954832556
 20
-679.6107445645398
 30
0.0
 40
15.95193541307883
100
AcDbArc
 50
15.50962980838088
 51
106.8687827056737
  0
SPLINE
  5
8CC9
330
8C7C
100
AcDbEntity
  8
0
100
AcDbSpline
210
0.0
220
0.0
230
1.0
 70
     8
 71
     3
 72
     9
 73
     5
 74
     3
 42
0.0000000001
 43
0.0000000001
 44
0.0000000001
 40
0.0
 40
0.0
 40
0.0
 40
0.0
 40
3.124717508904682
 40
6.740135682227998
 40
6.740135682227998
 40
6.740135682227998
 40
6.740135682227998
 10
-377.6822168200315
 20
-690.275553486374
 30
0.0
 10
-377.7365890664723
 20
-691.418688964195
 30
0.0
 10
-377.8538720903984
 20
-693.8844760959036
 30
0.0
 10
-375.5322318458973
 20
-694.8352143975352
 30
0.0
 10
-374.2869007831978
 20
-695.3451917475249
 30
0.0
 11
-377.6822168200315
 21
-690.275553486374
 31
0.0
 11
-377.3211512249927
 21
-693.379340068363
 31
0.0
 11
-374.2869007831978
 21
-695.3451917475249
 31
0.0
  0
SPLINE
  5
8CCA
330
8C7C
100
AcDbEntity
  8
0
100
AcDbSpline
210
0.0
220
0.0
230
1.0
 70
     8
 71
     3
 72
    17
 73
    13
 74
    11
 42
0.0000000001
 43
0.0000000001
 44
0.0000000001
 40
0.0
 40
0.0
 40
0.0
 40
0.0
 40
2.586091375433958
 40
6.382073038180353
 40
9.627837702785733
 40
12.51897287804625
 40
14.7375521544825
 40
20.88319051122983
 40
34.80960608872674
 40
46.34312256918413
 40
57.31321576094758
 40
63.85897725916173
 40
63.85897725916173
 40
63.85897725916173
 40
63.85897725916173
 10
-426.7869007831977
 20
-686.3451917475249
 30
0.0
 10
-426.6037406115547
 20
-685.4397841926623
 30
0.0
 10
-426.1517296717183
 20
-683.2053785566722
 30
0.0
 10
-429.080164700677
 20
-681.0737661025878
 30
0.0
 10
-432.2636742354007
 20
-679.3336128235892
 30
0.0
 10
-434.7565705406101
 20
-681.2189216171512
 30
0.0
 10
-437.4041436984271
 20
-683.8651840946513
 30
0.0
 10
-445.3999936810383
 20
-684.2152971117762
 30
0.0
 10
-456.6171213860908
 20
-681.4636169378689
 30
0.0
 10
-461.513906130308
 20
-669.4963778173544
 30
0.0
 10
-468.964808305989
 20
-662.873483275916
 30
0.0
 10
-474.3937639039519
 20
-660.6744684038772
 30
0.0
 10
-476.4225914523441
 20
-659.8526856739927
 30
0.0
 11
-426.7869007831977
 21
-686.3451917475249
 31
0.0
 11
-426.6303761632286
 21
-683.7638415881244
 31
0.0
 11
-429.2809545016992
 21
-681.0465062655082
 31
0.0
 11
-432.3393140576326
 21
-679.9595724659456
 31
0.0
 11
-434.8539656069239
 21
-681.3861733867626
 31
0.0
 11
-436.5530547212896
 21
-682.8127743075797
 31
0.0
 11
-442.6018104385668
 21
-683.8997081071422
 31
0.0
 11
-455.786739586255
 21
-679.4161052915945
 31
0.0
 11
-462.3112407655095
 21
-669.9054330352874
 31
0.0
 11
-470.4668676645401
 21
-662.5686289272453
 31
0.0
 11
-476.4225914523441
 21
-659.8526856739927
 31
0.0
  0
SPLINE
  5
8CCB
330
8C7C
100
AcDbEntity
  8
0
100
AcDbSpline
210
0.0
220
0.0
230
1.0
 70
     8
 71
     3
 72
    10
 73
     6
 74
     4
 42
0.0000000001
 43
0.0000000001
 44
0.0000000001
 40
0.0
 40
0.0
 40
0.0
 40
0.0
 40
8.257460148326003
 40
19.84264596165218
 40
27.10752454210181
 40
27.10752454210181
 40
27.10752454210181
 40
27.10752454210181
 10
-461.7869007831976
 20
-681.3451917475249
 30
0.0
 10
-462.1785730358454
 20
-678.5936542263477
 30
0.0
 10
-463.1197599992325
 20
-671.9817198176794
 30
0.0
 10
-469.019723696433
 20
-664.4232275093535
 30
0.0
 10
-474.3631982747714
 20
-661.1241581605891
 30
0.0
 10
-476.4225914523441
 20
-659.8526856739927
 30
0.0
 11
-461.7869007831976
 21
-681.3451917475249
 31
0.0
 11
-463.5468403349354
 21
-673.2774621489686
 31
0.0
 11
-470.4287077364439
 21
-663.9577823584743
 31
0.0
 11
-476.4225914523441
 21
-659.8526856739927
 31
0.0
  0
SPLINE
  5
8CCC
330
8C7C
100
AcDbEntity
  8
0
100
AcDbSpline
210
0.0
220
0.0
230
1.0
 70
     8
 71
     3
 72
    11
 73
     7
 74
     5
 42
0.0000000001
 43
0.0000000001
 44
0.0000000001
 40
0.0
 40
0.0
 40
0.0
 40
0.0
 40
5.563486307153683
 40
16.77855928428098
 40
31.0527745428903
 40
43.13439870509305
 40
43.13439870509305
 40
43.13439870509305
 40
43.13439870509305
 10
-463.7869007831978
 20
-683.3451917475249
 30
0.0
 10
-463.9353030449632
 20
-681.4888857071091
 30
0.0
 10
-464.3828598482847
 20
-675.8905721264977
 30
0.0
 10
-469.557697357901
 20
-666.3725313906574
 30
0.0
 10
-479.9936059697533
 20
-658.8979504783622
 30
0.0
 10
-488.2003056568412
 20
-655.7488279888132
 30
0.0
 10
-491.962290226878
 20
-654.3052574103164
 30
0.0
 11
-463.7869007831978
 21
-683.3451917475249
 31
0.0
 11
-464.4903224165707
 21
-677.8263532922347
 31
0.0
 11
-469.5962232967876
 21
-667.8409820881337
 31
0.0
 11
-480.8625056307609
 21
-659.0760460575446
 31
0.0
 11
-491.962290226878
 21
-654.3052574103164
 31
0.0
  0
SPLINE
  5
8CCD
330
8C7C
100
AcDbEntity
  8
0
100
AcDbSpline
210
0.0
220
0.0
230
1.0
 70
     8
 71
     3
 72
    13
 73
     9
 74
     7
 42
0.0000000001
 43
0.0000000001
 44
0.0000000001
 40
0.0
 40
0.0
 40
0.0
 40
0.0
 40
6.986752129739741
 40
22.02761081438854
 40
50.25806849401885
 40
76.9264753708002
 40
97.22259195517221
 40
119.101638811398
 40
119.101638811398
 40
119.101638811398
 40
119.101638811398
 10
-419.2869007831977
 20
-673.345191747525
 30
0.0
 10
-421.3717550371269
 20
-674.5340962491975
 30
0.0
 10
-427.9448174926839
 20
-678.2824367043919
 30
0.0
 10
-445.2333862895031
 20
-671.7572890730529
 30
0.0
 10
-465.6347440659705
 20
-662.5411222878946
 30
0.0
 10
-488.9554377323588
 20
-652.4994141753904
 30
0.0
 10
-511.42499146037
 20
-647.4197414303737
 30
0.0
 10
-525.4902966591784
 20
-646.7122265255893
 30
0.0
 10
-532.7869007831977
 20
-646.3451917475249
 30
0.0
 11
-419.2869007831977
 21
-673.345191747525
 31
0.0
 11
-425.6425048210367
 21
-676.2470881337917
 31
0.0
 11
-440.4228051309782
 21
-673.4595887670625
 31
0.0
 11
-466.3580424442634
 21
-662.3096019372505
 31
0.0
 11
-491.1777871547783
 21
-652.5533630179524
 31
0.0
 11
-510.977806921096
 21
-648.0933668677471
 31
0.0
 11
-532.7869007831977
 21
-646.3451917475249
 31
0.0
  0
ARC
  5
8CCE
330
8C7C
100
AcDbEntity
  8
0
100
AcDbCircle
 10
-472.968097505752
 20
-679.7378409243732
 30
0.0
 40
9.864448956709807
100
AcDbArc
 50
240.7578285959882
 51
338.5498195201185
  0
SPLINE
  5
8CCF
330
8C7C
100
AcDbEntity
  8
0
100
AcDbSpline
210
0.0
220
0.0
230
1.0
 70
     8
 71
     3
 72
    20
 73
    16
 74
    14
 42
0.0000000001
 43
0.0000000001
 44
0.0000000001
 40
0.0
 40
0.0
 40
0.0
 40
0.0
 40
8.396930361839379
 40
13.8027856282323
 40
20.3581764476462
 40
24.03130348473588
 40
25.69956916377005
 40
28.63149017518021
 40
31.46611901997476
 40
35.12920939222963
 40
44.97794332285411
 40
57.34165276897241
 40
73.82262125100462
 40
86.6632845017574
 40
99.97407878127228
 40
99.97407878127228
 40
99.97407878127228
 40
99.97407878127228
 10
-483.8831574186441
 20
-662.292441816386
 30
0.0
 10
-482.0102440068651
 20
-664.4678563116414
 30
0.0
 10
-478.9315686804015
 20
-668.0437797308733
 30
0.0
 10
-477.6161307478822
 20
-674.7404571660354
 30
0.0
 10
-477.0645348328033
 20
-680.2518015883822
 30
0.0
 10
-478.9079703668002
 20
-683.6172219984243
 30
0.0
 10
-481.5054390803215
 20
-685.8245658170726
 30
0.0
 10
-483.0104093292362
 20
-682.0370336174904
 30
0.0
 10
-480.6353285816615
 20
-679.8152279057451
 30
0.0
 10
-479.1252227312638
 20
-674.2757943301231
 30
0.0
 10
-483.2883067424375
 20
-665.886734905005
 30
0.0
 10
-492.558673054156
 20
-656.8652249475336
 30
0.0
 10
-505.6882489522291
 20
-651.3467786710953
 30
0.0
 10
-519.6301570684295
 20
-648.5157254603948
 30
0.0
 10
-528.349072201602
 20
-648.0522534653762
 30
0.0
 10
-532.7869007831976
 20
-647.8163514942196
 30
0.0
 11
-483.8831574186441
 21
-662.292441816386
 31
0.0
 11
-479.0737349908722
 21
-669.1756020943996
 31
0.0
 11
-477.762074792348
 21
-674.4199150794145
 31
0.0
 11
-477.762074792348
 21
-680.9753058988284
 31
0.0
 11
-479.6202604985531
 21
-684.1437452799518
 31
0.0
 11
-481.0412261385835
 21
-685.0177973525977
 31
0.0
 11
-482.3528871870325
 21
-682.3956405855203
 31
0.0
 11
-481.0412261385835
 21
-679.8827406707361
 31
0.0
 11
-479.9481759731466
 21
-676.3865323801526
 31
0.0
 11
-483.2273273193821
 21
-667.0997284905081
 31
0.0
 11
-491.9717311926514
 21
-658.3592072149098
 31
0.0
 11
-506.9465239836479
 21
-651.4760463877564
 31
0.0
 11
-519.5166047108336
 21
-648.8538901698189
 31
0.0
 11
-532.7869007831976
 21
-647.8163514942196
 31
0.0
  0
SPLINE
  5
8CD0
330
8C7C
100
AcDbEntity
  8
0
100
AcDbSpline
210
0.0
220
0.0
230
1.0
 70
     8
 71
     3
 72
    15
 73
    11
 74
     9
 42
0.0000000001
 43
0.0000000001
 44
0.0000000001
 40
0.0
 40
0.0
 40
0.0
 40
0.0
 40
3.944153969757699
 40
8.057646281266753
 40
9.682256321609807
 40
11.30679795393228
 40
19.1131414644558
 40
37.90580864985397
 40
51.28201847232595
 40
66.72834797736391
 40
66.72834797736391
 40
66.72834797736391
 40
66.72834797736391
 10
-485.1007467542836
 20
-685.5651423577346
 30
0.0
 10
-486.3516076331509
 20
-685.6677305569498
 30
0.0
 10
-488.9070338630265
 20
-685.8773114780411
 30
0.0
 10
-492.8160427641939
 20
-682.3886418419355
 30
0.0
 10
-490.3529101279895
 20
-680.9011546017796
 30
0.0
 10
-487.8598196714457
 20
-678.1900124661332
 30
0.0
 10
-491.0312941992716
 20
-667.0580604040016
 30
0.0
 10
-502.9579403606756
 20
-660.2896395719791
 30
0.0
 10
-517.9727634503321
 20
-654.9405605791283
 30
0.0
 10
-527.6179400075818
 20
-654.3209843253208
 30
0.0
 10
-532.7869007831977
 20
-653.9889463025407
 30
0.0
 11
-485.1007467542836
 21
-685.5651423577346
 31
0.0
 11
-489.0204953210095
 21
-685.127053655751
 31
0.0
 11
-491.6438165679828
 21
-681.9586148237673
 31
0.0
 11
-490.4414609610398
 21
-680.866049595675
 31
0.0
 11
-489.3484099456781
 21
-679.6642280644294
 31
0.0
 11
-490.2228509279524
 21
-671.9070151646302
 31
0.0
 11
-504.7604228028493
 21
-659.9980545079084
 31
0.0
 11
-517.4398089715411
 21
-655.7370504478324
 31
0.0
 11
-532.7869007831977
 21
-653.9889463025407
 31
0.0
  0
SPLINE
  5
8CD1
330
8C7C
100
AcDbEntity
  8
0
100
AcDbSpline
210
0.0
220
0.0
230
1.0
 70
     8
 71
     3
 72
     9
 73
     5
 74
     3
 42
0.0000000001
 43
0.0000000001
 44
0.0000000001
 40
0.0
 40
0.0
 40
0.0
 40
0.0
 40
3.805237203731056
 40
7.13689358606175
 40
7.13689358606175
 40
7.13689358606175
 40
7.13689358606175
 10
-517.1914672329579
 20
-705.6692238809896
 30
0.0
 10
-518.5773420700136
 20
-705.5428049526018
 30
0.0
 10
-521.1766126820976
 20
-705.3057005643964
 30
0.0
 10
-522.0663100002313
 20
-702.8868307737422
 30
0.0
 10
-522.4816399631286
 20
-701.7576500063843
 30
0.0
 11
-517.1914672329579
 21
-705.6692238809896
 31
0.0
 11
-520.8630956816262
 21
-704.6697366566645
 31
0.0
 11
-522.4816399631286
 21
-701.7576500063843
 31
0.0
  0
SPLINE
  5
8CD2
330
8C7C
100
AcDbEntity
  8
0
100
AcDbSpline
210
0.0
220
0.0
230
1.0
 70
     8
 71
     3
 72
    10
 73
     6
 74
     4
 42
0.0000000001
 43
0.0000000001
 44
0.0000000001
 40
0.0
 40
0.0
 40
0.0
 40
0.0
 40
4.835437932009344
 40
8.044111472610222
 40
11.65418574625073
 40
11.65418574625073
 40
11.65418574625073
 40
11.65418574625073
 10
-523.6146213001503
 20
-695.6908030471088
 30
0.0
 10
-523.2053799141773
 20
-697.2024516599825
 30
0.0
 10
-522.5245763604433
 20
-699.7171918180307
 30
0.0
 10
-520.6202017599049
 20
-703.6646605727209
 30
0.0
 10
-518.1138484597921
 20
-703.4557800936824
 30
0.0
 10
-516.7869007831976
 20
-703.3451917475249
 30
0.0
 11
-523.6146213001503
 21
-695.6908030471088
 31
0.0
 11
-522.1579307668583
 21
-700.3016069558141
 31
0.0
 11
-520.3775318872206
 21
-702.9710199473793
 31
0.0
 11
-516.7869007831976
 21
-703.3451917475249
 31
0.0
  0
ARC
  5
8CD3
330
8C7C
100
AcDbEntity
  8
0
100
AcDbCircle
 10
-512.8733889736001
 20
-694.385316413923
 30
0.0
 40
8.95498887319348
100
AcDbArc
 50
129.4705780811661
 51
230.2701785110415
  0
ARC
  5
8CD4
330
8C7C
100
AcDbEntity
  8
0
100
AcDbCircle
 10
-534.3683478566414
 20
-716.6631878730529
 30
0.0
 40
56.34019579697154
100
AcDbArc
 50
57.12556240184323
 51
88.39151880026092
  0
SPLINE
  5
8CD5
330
8C7C
100
AcDbEntity
  8
0
100
AcDbSpline
210
0.0
220
0.0
230
1.0
 70
     8
 71
     3
 72
    13
 73
     9
 74
     7
 42
0.0000000001
 43
0.0000000001
 44
0.0000000001
 40
0.0
 40
0.0
 40
0.0
 40
0.0
 40
4.038930249682135
 40
7.545747106173172
 40
11.68326936901122
 40
17.06249284905636
 40
20.81934850256704
 40
25.8815349550998
 40
25.8815349550998
 40
25.8815349550998
 40
25.8815349550998
 10
-532.7869007831977
 20
-678.3451917475249
 30
0.0
 10
-531.3427686430192
 20
-678.5274192823022
 30
0.0
 10
-528.6447631702725
 20
-678.8678665810192
 30
0.0
 10
-527.0943471179044
 20
-683.1010245556248
 30
0.0
 10
-522.1995678994891
 20
-683.5509567542124
 30
0.0
 10
-519.5924440735829
 20
-687.5426466592959
 30
0.0
 10
-514.6210518705155
 20
-688.7401173070927
 30
0.0
 10
-513.455776361965
 20
-691.6658198283255
 30
0.0
 10
-512.7869007831978
 20
-693.3451917475249
 30
0.0
 11
-532.7869007831977
 21
-678.3451917475249
 31
0.0
 11
-528.9406000332455
 21
-679.5776397597001
 31
0.0
 11
-526.7869007831977
 21
-682.3451917475249
 31
0.0
 11
-522.9890077586678
 21
-683.9868674309983
 31
0.0
 11
-518.7869007831977
 21
-687.3451917475249
 31
0.0
 11
-515.4270023877615
 21
-689.0259794121812
 31
0.0
 11
-512.7869007831978
 21
-693.3451917475249
 31
0.0
  0
SPLINE
  5
8CD6
330
8C7C
100
AcDbEntity
  8
0
100
AcDbSpline
210
0.0
220
0.0
230
1.0
 70
     8
 71
     3
 72
    13
 73
     9
 74
     7
 42
0.0000000001
 43
0.0000000001
 44
0.0000000001
 40
0.0
 40
0.0
 40
0.0
 40
0.0
 40
4.038930249682135
 40
7.545747106173172
 40
11.68326936901122
 40
17.06249284905636
 40
20.81934850256704
 40
25.8815349550998
 40
25.8815349550998
 40
25.8815349550998
 40
25.8815349550998
 10
-532.7869007831977
 20
-678.3451917475249
 30
0.0
 10
-534.2310329233762
 20
-678.5274192823022
 30
0.0
 10
-536.9290383961227
 20
-678.8678665810192
 30
0.0
 10
-538.4794544484914
 20
-683.1010245556248
 30
0.0
 10
-543.3742336669062
 20
-683.5509567542124
 30
0.0
 10
-545.9813574928127
 20
-687.5426466592959
 30
0.0
 10
-550.9527496958798
 20
-688.7401173070927
 30
0.0
 10
-552.1180252044305
 20
-691.6658198283255
 30
0.0
 10
-552.7869007831977
 20
-693.3451917475249
 30
0.0
 11
-532.7869007831977
 21
-678.3451917475249
 31
0.0
 11
-536.63320153315
 21
-679.5776397597001
 31
0.0
 11
-538.7869007831977
 21
-682.3451917475249
 31
0.0
 11
-542.5847938077277
 21
-683.9868674309983
 31
0.0
 11
-546.7869007831978
 21
-687.3451917475249
 31
0.0
 11
-550.146799178634
 21
-689.0259794121812
 31
0.0
 11
-552.7869007831977
 21
-693.3451917475249
 31
0.0
  0
ARC
  5
8CD7
330
8C7C
100
AcDbEntity
  8
0
100
AcDbCircle
 10
-531.2054537097541
 20
-716.6631878730529
 30
0.0
 40
56.34019579697154
100
AcDbArc
 50
91.60848119973907
 51
122.8744375981567
  0
SPLINE
  5
8CD8
330
8C7C
100
AcDbEntity
  8
0
100
AcDbSpline
210
0.0
220
0.0
230
1.0
 70
     8
 71
     3
 72
    11
 73
     7
 74
     5
 42
0.0000000001
 43
0.0000000001
 44
0.0000000001
 40
0.0
 40
0.0
 40
0.0
 40
0.0
 40
1.878258510243963
 40
5.05096209488344
 40
7.205162610208729
 40
8.259858756911274
 40
8.259858756911274
 40
8.259858756911274
 40
8.259858756911274
 10
-552.7869007831977
 20
-693.3451917475249
 30
0.0
 10
-552.5406015440417
 20
-693.9466328598464
 30
0.0
 10
-551.8782602772828
 20
-695.5640120672731
 30
0.0
 10
-548.7082867996361
 20
-695.9448674123604
 30
0.0
 10
-547.3053679669327
 20
-693.8764778071031
 30
0.0
 10
-547.4843364987836
 20
-692.8067484585516
 30
0.0
 10
-547.5431596522859
 20
-692.4551511524486
 30
0.0
 11
-552.7869007831977
 21
-693.3451917475249
 31
0.0
 11
-551.8323022532449
 21
-694.9627815218236
 31
0.0
 11
-548.6761409893076
 21
-695.286346217064
 31
0.0
 11
-547.4622323532184
 21
-693.5067379221138
 31
0.0
 11
-547.5431596522859
 21
-692.4551511524486
 31
0.0
  0
SPLINE
  5
8CD9
330
8C7C
100
AcDbEntity
  8
0
100
AcDbSpline
210
0.0
220
0.0
230
1.0
 70
     8
 71
     3
 72
    11
 73
     7
 74
     5
 42
0.0000000001
 43
0.0000000001
 44
0.0000000001
 40
0.0
 40
0.0
 40
0.0
 40
0.0
 40
1.739426392505433
 40
3.948969685542656
 40
5.83821017073888
 40
6.822307278383127
 40
6.822307278383127
 40
6.822307278383127
 40
6.822307278383127
 10
-548.7869007831979
 20
-703.3451917475249
 30
0.0
 10
-549.2642598173784
 20
-702.9498483596098
 30
0.0
 10
-550.3479942962965
 20
-702.0523116423429
 30
0.0
 10
-549.4437827099117
 20
-699.5150503826964
 30
0.0
 10
-546.9738241064464
 20
-699.8758324561995
 30
0.0
 10
-546.9759428907033
 20
-700.9160394146095
 30
0.0
 10
-546.9766685588126
 20
-701.2723026889541
 30
0.0
 11
-548.7869007831979
 21
-703.3451917475249
 31
0.0
 11
-549.890048775472
 21
-702.0003242142393
 31
0.0
 11
-548.9998493356532
 21
-699.9780417114341
 31
0.0
 11
-547.1385231569479
 21
-700.3016069558141
 31
0.0
 11
-546.9766685588126
 21
-701.2723026889541
 31
0.0
  0
ARC
  5
8CDA
330
8C7C
100
AcDbEntity
  8
0
100
AcDbCircle
 10
-552.7004125927954
 20
-694.385316413923
 30
0.0
 40
8.95498887319348
100
AcDbArc
 50
309.7298214889585
 51
50.52942191883384
  0
SPLINE
  5
8CDB
330
8C7C
100
AcDbEntity
  8
0
100
AcDbSpline
210
0.0
220
0.0
230
1.0
 70
     8
 71
     3
 72
    10
 73
     6
 74
     4
 42
0.0000000001
 43
0.0000000001
 44
0.0000000001
 40
0.0
 40
0.0
 40
0.0
 40
0.0
 40
4.835437932009344
 40
8.044111472610222
 40
11.65418574625073
 40
11.65418574625073
 40
11.65418574625073
 40
11.65418574625073
 10
-541.9591802662451
 20
-695.6908030471088
 30
0.0
 10
-542.3684216522182
 20
-697.2024516599825
 30
0.0
 10
-543.0492252059524
 20
-699.7171918180307
 30
0.0
 10
-544.9535998064905
 20
-703.6646605727209
 30
0.0
 10
-547.4599531066035
 20
-703.4557800936824
 30
0.0
 10
-548.7869007831979
 20
-703.3451917475249
 30
0.0
 11
-541.9591802662451
 21
-695.6908030471088
 31
0.0
 11
-543.4158707995372
 21
-700.3016069558141
 31
0.0
 11
-545.1962696791749
 21
-702.9710199473793
 31
0.0
 11
-548.7869007831979
 21
-703.3451917475249
 31
0.0
  0
SPLINE
  5
8CDC
330
8C7C
100
AcDbEntity
  8
0
100
AcDbSpline
210
0.0
220
0.0
230
1.0
 70
     8
 71
     3
 72
     9
 73
     5
 74
     3
 42
0.0000000001
 43
0.0000000001
 44
0.0000000001
 40
0.0
 40
0.0
 40
0.0
 40
0.0
 40
3.805237203731056
 40
7.13689358606175
 40
7.13689358606175
 40
7.13689358606175
 40
7.13689358606175
 10
-548.3823343334376
 20
-705.6692238809896
 30
0.0
 10
-546.9964594963819
 20
-705.5428049526018
 30
0.0
 10
-544.3971888842979
 20
-705.3057005643964
 30
0.0
 10
-543.5074915661642
 20
-702.8868307737422
 30
0.0
 10
-543.0921616032668
 20
-701.7576500063843
 30
0.0
 11
-548.3823343334376
 21
-705.6692238809896
 31
0.0
 11
-544.7107058847693
 21
-704.6697366566645
 31
0.0
 11
-543.0921616032668
 21
-701.7576500063843
 31
0.0
  0
ARC
  5
8CDD
330
8C7C
100
AcDbEntity
  8
0
100
AcDbCircle
 10
-558.7869007831978
 20
-677.7999981691512
 30
0.0
 40
16.66292421482844
100
AcDbArc
 50
248.8948383047515
 51
291.1051616952478
  0
SPLINE
  5
8CDE
330
8C7C
100
AcDbEntity
  8
0
100
AcDbSpline
210
0.0
220
0.0
230
1.0
 70
     8
 71
     3
 72
    12
 73
     8
 74
     6
 42
0.0000000001
 43
0.0000000001
 44
0.0000000001
 40
0.0
 40
0.0
 40
0.0
 40
0.0
 40
2.877957777216571
 40
6.907897244444624
 40
13.66158431967779
 40
23.03592971397494
 40
30.48014214844654
 40
30.48014214844654
 40
30.48014214844654
 40
30.48014214844654
 10
-477.786900783201
 20
-688.3451917475231
 30
0.0
 10
-478.2433657468078
 20
-687.3646806647969
 30
0.0
 10
-479.3390083199017
 20
-685.0111819928802
 30
0.0
 10
-474.3380051392556
 20
-682.1845736940169
 30
0.0
 10
-474.5725062721644
 20
-674.7583127151242
 30
0.0
 10
-477.0873007839611
 20
-667.0450569459963
 30
0.0
 10
-481.7980781010758
 20
-663.7506214166647
 30
0.0
 10
-483.8831574186441
 20
-662.292441816386
 30
0.0
 11
-477.786900783201
 21
-688.3451917475231
 31
0.0
 11
-478.5272103331163
 21
-685.5640799666438
 31
0.0
 11
-475.9038890861429
 21
-682.5048974378135
 31
0.0
 11
-474.8108380707813
 21
-675.8402497661066
 31
0.0
 11
-478.1992948585227
 21
-667.0997284905081
 31
0.0
 11
-483.8831574186441
 21
-662.292441816386
 31
0.0
  0
SPLINE
  5
8CDF
330
8C7C
100
AcDbEntity
  8
0
100
AcDbSpline
210
0.0
220
0.0
230
1.0
 70
     8
 71
     3
 72
    14
 73
    10
 74
     8
 42
0.0000000001
 43
0.0000000001
 44
0.0000000001
 40
0.0
 40
0.0
 40
0.0
 40
0.0
 40
2.360804937749884
 40
4.888519026478916
 40
8.32072882437896
 40
11.61083366616766
 40
15.20348331780696
 40
29.23153594141169
 40
41.54243384795475
 40
41.54243384795475
 40
41.54243384795475
 40
41.54243384795475
 10
-488.7869007831953
 20
-691.3451917475205
 30
0.0
 10
-489.4075392879422
 20
-690.8827048769519
 30
0.0
 10
-490.6926955033099
 20
-689.9250332666806
 30
0.0
 10
-491.3668246424389
 20
-686.1308220642534
 30
0.0
 10
-487.1219766890148
 20
-687.1332821002156
 30
0.0
 10
-483.9747876627678
 20
-685.0333402112741
 30
0.0
 10
-483.8688739886897
 20
-677.5717234745211
 30
0.0
 10
-486.6076007078926
 20
-667.2050704515019
 30
0.0
 10
-494.6579662852201
 20
-662.8893068873686
 30
0.0
 10
-498.4207292935409
 20
-660.872107129694
 30
0.0
 11
-488.7869007831953
 21
-691.3451917475205
 31
0.0
 11
-490.4414609610398
 21
-689.66119929742
 31
0.0
 11
-490.7147237148802
 21
-687.1482993826357
 31
0.0
 11
-487.3262669271387
 21
-686.6020167685896
 31
0.0
 11
-484.5389883678311
 21
-684.8539126232979
 31
0.0
 11
-483.9924628601502
 21
-681.3030759065679
 31
0.0
 11
-488.3646643718225
 21
-667.973780563154
 31
0.0
 11
-498.4207292935409
 21
-660.872107129694
 31
0.0
  0
SPLINE
  5
8CE0
330
8C7C
100
AcDbEntity
  8
0
100
AcDbSpline
210
0.0
220
0.0
230
1.0
 70
     8
 71
     3
 72
    11
 73
     7
 74
     5
 42
0.0000000001
 43
0.0000000001
 44
0.0000000001
 40
0.0
 40
0.0
 40
0.0
 40
0.0
 40
1.739426392505433
 40
3.948969685542656
 40
5.83821017073888
 40
6.822307278383127
 40
6.822307278383127
 40
6.822307278383127
 40
6.822307278383127
 10
-516.7869007831976
 20
-703.3451917475249
 30
0.0
 10
-516.3095417490171
 20
-702.9498483596098
 30
0.0
 10
-515.2258072700988
 20
-702.0523116423429
 30
0.0
 10
-516.1300188564839
 20
-699.5150503826964
 30
0.0
 10
-518.5999774599487
 20
-699.8758324561995
 30
0.0
 10
-518.5978586756923
 20
-700.9160394146095
 30
0.0
 10
-518.5971330075829
 20
-701.2723026889541
 30
0.0
 11
-516.7869007831976
 21
-703.3451917475249
 31
0.0
 11
-515.6837527909234
 21
-702.0003242142393
 31
0.0
 11
-516.5739522307423
 21
-699.9780417114341
 31
0.0
 11
-518.4352784094476
 21
-700.3016069558141
 31
0.0
 11
-518.5971330075829
 21
-701.2723026889541
 31
0.0
  0
SPLINE
  5
8CE1
330
8C7C
100
AcDbEntity
  8
0
100
AcDbSpline
210
0.0
220
0.0
230
1.0
 70
     8
 71
     3
 72
    11
 73
     7
 74
     5
 42
0.0000000001
 43
0.0000000001
 44
0.0000000001
 40
0.0
 40
0.0
 40
0.0
 40
0.0
 40
1.878258510243963
 40
5.05096209488344
 40
7.205162610208729
 40
8.259858756911274
 40
8.259858756911274
 40
8.259858756911274
 40
8.259858756911274
 10
-512.7869007831978
 20
-693.3451917475249
 30
0.0
 10
-513.0332000223538
 20
-693.9466328598464
 30
0.0
 10
-513.6955412891129
 20
-695.5640120672731
 30
0.0
 10
-516.8655147667593
 20
-695.9448674123604
 30
0.0
 10
-518.2684335994626
 20
-693.8764778071031
 30
0.0
 10
-518.0894650676121
 20
-692.8067484585516
 30
0.0
 10
-518.0306419141095
 20
-692.4551511524486
 30
0.0
 11
-512.7869007831978
 21
-693.3451917475249
 31
0.0
 11
-513.7414993131506
 21
-694.9627815218236
 31
0.0
 11
-516.8976605770878
 21
-695.286346217064
 31
0.0
 11
-518.1115692131771
 21
-693.5067379221138
 31
0.0
 11
-518.0306419141095
 21
-692.4551511524486
 31
0.0
  0
ARC
  5
8CE2
330
8C7C
100
AcDbEntity
  8
0
100
AcDbCircle
 10
-484.0576584565534
 20
-687.0190802785543
 30
0.0
 40
6.40944408089212
100
AcDbArc
 50
222.4509603615892
 51
348.0592770445268
  0
ARC
  5
8CE3
330
8C7C
100
AcDbEntity
  8
0
100
AcDbCircle
 10
-510.1711506516805
 20
-680.1152753877318
 30
0.0
 40
24.15361595880936
100
AcDbArc
 50
254.103343630011
 51
332.2938373972855
  0
ARC
  5
8CE4
330
8C7C
100
AcDbEntity
  8
0
100
AcDbCircle
 10
-506.7869007831977
 20
-677.7999981691512
 30
0.0
 40
16.66292421482844
100
AcDbArc
 50
248.8948383047522
 51
291.1051616952485
  0
ARC
  5
8CE5
330
8C7C
100
AcDbEntity
  8
0
100
AcDbCircle
 10
-512.9845752018001
 20
-682.6824010498516
 30
0.0
 40
16.20118411365737
100
AcDbArc
 50
318.8411540609928
 51
55.40887863678692
  0
SPLINE
  5
8CE6
330
8C7C
100
AcDbEntity
  8
0
100
AcDbSpline
210
0.0
220
0.0
230
1.0
 70
     8
 71
     3
 72
    11
 73
     7
 74
     5
 42
0.0000000001
 43
0.0000000001
 44
0.0000000001
 40
0.0
 40
0.0
 40
0.0
 40
0.0
 40
3.538989019227948
 40
8.259645460392111
 40
13.68058026058861
 40
19.37739701543096
 40
19.37739701543096
 40
19.37739701543096
 40
19.37739701543096
 10
-412.2869007831978
 20
-671.3451917475249
 30
0.0
 10
-412.0071091248716
 20
-672.6068942418416
 30
0.0
 10
-411.3541034534797
 20
-675.5515813326828
 30
0.0
 10
-416.1468728526953
 20
-678.1631956614026
 30
0.0
 10
-421.0246851019378
 20
-679.5207121677122
 30
0.0
 10
-424.7779500189475
 20
-679.6339115207679
 30
0.0
 10
-426.7011502594577
 20
-679.6919156925588
 30
0.0
 11
-412.2869007831978
 21
-671.3451917475249
 31
0.0
 11
-412.0986330732862
 21
-674.8791694706608
 31
0.0
 11
-415.8084617638271
 21
-677.7983762674369
 31
0.0
 11
-421.0180084356505
 21
-679.2974284953717
 31
0.0
 11
-426.7011502594577
 21
-679.6919156925588
 31
0.0
  0
ARC
  5
8CE7
330
8C7C
100
AcDbEntity
  8
0
100
AcDbCircle
 10
-417.5073980556398
 20
-625.0017652834665
 30
0.0
 40
60.5688262160891
100
AcDbArc
 50
261.4125864280867
 51
274.9445245984412
  0
SPLINE
  5
8CE8
330
8C7C
100
AcDbEntity
  8
0
100
AcDbSpline
210
0.0
220
0.0
230
1.0
 70
     8
 71
     3
 72
    10
 73
     6
 74
     4
 42
0.0000000001
 43
0.0000000001
 44
0.0000000001
 40
0.0
 40
0.0
 40
0.0
 40
0.0
 40
9.123046104142311
 40
14.10211928390164
 40
16.4697311326627
 40
16.4697311326627
 40
16.4697311326627
 40
16.4697311326627
 10
-426.7869007831977
 20
-686.3451917475249
 30
0.0
 10
-424.083197489419
 20
-686.9646478424726
 30
0.0
 10
-419.90389751418
 20
-687.9221836964377
 30
0.0
 10
-412.7085111627953
 20
-688.9221198740685
 30
0.0
 10
-412.3896575491177
 20
-686.2169766560527
 30
0.0
 10
-412.2869007831978
 20
-685.3451917475249
 30
0.0
 11
-426.7869007831977
 21
-686.3451917475249
 31
0.0
 11
-417.8464151711186
 21
-688.1611452817633
 31
0.0
 11
-412.8954032146639
 21
-687.6332718722787
 31
0.0
 11
-412.2869007831978
 21
-685.3451917475249
 31
0.0
  0
SPLINE
  5
8CE9
330
8C7C
100
AcDbEntity
  8
0
100
AcDbSpline
210
0.0
220
0.0
230
1.0
 70
     8
 71
     3
 72
    16
 73
    12
 74
    10
 42
0.0000000001
 43
0.0000000001
 44
0.0000000001
 40
0.0
 40
0.0
 40
0.0
 40
0.0
 40
2.592641565017096
 40
3.869096403543974
 40
4.964856382086089
 40
7.097626517589398
 40
9.041126544873595
 40
16.60463153276753
 40
23.76100531675317
 40
32.62687508664391
 40
40.94592603697956
 40
40.94592603697956
 40
40.94592603697956
 40
40.94592603697956
 10
-436.0659349768324
 20
-682.4542367865652
 30
0.0
 10
-435.4894484089871
 20
-681.6859807104576
 30
0.0
 10
-434.6291358472979
 20
-680.5394833075086
 30
0.0
 10
-435.3925112000792
 20
-678.9138844443441
 30
0.0
 10
-436.8283583985446
 20
-678.0019528437772
 30
0.0
 10
-438.2995363460556
 20
-679.5310390681123
 30
0.0
 10
-441.2634562591813
 20
-681.8983545180648
 30
0.0
 10
-447.6403093542398
 20
-680.4036517869424
 30
0.0
 10
-454.427518252766
 20
-676.6391466490528
 30
0.0
 10
-458.9673054989114
 20
-669.5783027928539
 30
0.0
 10
-463.3728481377509
 20
-665.9079015007415
 30
0.0
 10
-465.5055279605472
 20
-664.1310963670802
 30
0.0
 11
-436.0659349768324
 21
-682.4542367865652
 31
0.0
 11
-434.9898932460281
 21
-680.0954395341033
 31
0.0
 11
-435.5336012526702
 21
-678.9405722004619
 31
0.0
 11
-436.4850913267
 21
-678.3971050261107
 31
0.0
 11
-438.320107230245
 21
-679.4840388256733
 31
0.0
 11
-439.8832687055065
 21
-680.6389061593147
 31
0.0
 11
-447.4272233533804
 21
-680.0954395341033
 31
0.0
 11
-453.6119067097618
 21
-676.4949704650213
 31
0.0
 11
-459.3888079987554
 21
-669.7695665162695
 31
0.0
 11
-465.5055279605472
 21
-664.1310963670802
 31
0.0
  0
SPLINE
  5
8CEA
330
8C7C
100
AcDbEntity
  8
0
100
AcDbSpline
210
0.0
220
0.0
230
1.0
 70
     8
 71
     3
 72
    10
 73
     6
 74
     4
 42
0.0000000001
 43
0.0000000001
 44
0.0000000001
 40
0.0
 40
0.0
 40
0.0
 40
0.0
 40
1.937717373376968
 40
9.479872025543626
 40
17.72847306352516
 40
17.72847306352516
 40
17.72847306352516
 40
17.72847306352516
 10
-446.7869007831978
 20
-687.3451917475249
 30
0.0
 10
-447.3850416989415
 20
-687.1024405034131
 30
0.0
 10
-450.3113195000281
 20
-685.9148314331541
 30
0.0
 10
-455.8410991518361
 20
-683.6985815039652
 30
0.0
 10
-460.0045232322012
 20
-680.4323867043775
 30
0.0
 10
-462.1793668473351
 20
-678.7262278388498
 30
0.0
 11
-446.7869007831978
 21
-687.3451917475249
 31
0.0
 11
-448.5826036111792
 21
-686.6170434297584
 31
0.0
 11
-455.4469226133067
 21
-683.4921080009487
 31
0.0
 11
-462.1793668473351
 21
-678.7262278388498
 31
0.0
  0
ARC
  5
8CEB
330
8C7C
100
AcDbEntity
  8
0
100
AcDbCircle
 10
-437.8284547855066
 20
-666.0141117013461
 30
0.0
 40
23.13587540228457
100
AcDbArc
 50
247.2189816400515
 51
298.505828812172
  0
SPLINE
  5
8CEC
330
8C7C
100
AcDbEntity
  8
0
100
AcDbSpline
210
0.0
220
0.0
230
1.0
 70
     8
 71
     3
 72
     9
 73
     5
 74
     3
 42
0.0000000001
 43
0.0000000001
 44
0.0000000001
 40
0.0
 40
0.0
 40
0.0
 40
0.0
 40
15.61402645171171
 40
17.51378540145741
 40
17.51378540145741
 40
17.51378540145741
 40
17.51378540145741
 10
-461.7869007831976
 20
-681.3451917475249
 30
0.0
 10
-456.7071085123003
 20
-686.6555476416685
 30
0.0
 10
-451.0092578014912
 20
-692.6120146569529
 30
0.0
 10
-447.2000896573884
 20
-687.8605893368524
 30
0.0
 10
-446.7869007831978
 20
-687.3451917475249
 30
0.0
 11
-461.7869007831976
 21
-681.3451917475249
 31
0.0
 11
-448.0486900596442
 21
-688.7653931026093
 31
0.0
 11
-446.7869007831978
 21
-687.3451917475249
 31
0.0
  0
ARC
  5
8CED
330
8C7C
100
AcDbEntity
  8
0
100
AcDbCircle
 10
-463.8547934440985
 20
-681.277299086624
 30
0.0
 40
2.069006880223506
100
AcDbArc
 50
271.8804487324643
 51
358.1195512675311
  0
LINE
  5
8CEE
330
8C7C
100
AcDbEntity
  8
0
100
AcDbLine
 10
-380.9847039255142
 20
-673.768940612136
 30
0.0
 11
-380.2601837458742
 21
-669.4237501276648
 31
0.0
  0
LINE
  5
8CEF
330
8C7C
100
AcDbEntity
  8
0
100
AcDbLine
 10
-391.2728884365829
 20
-674.2758795569049
 30
0.0
 11
-392.9392843398
 21
-669.2064906583554
 31
0.0
  0
LINE
  5
8CF0
330
8C7C
100
AcDbEntity
  8
0
100
AcDbLine
 10
-393.518900823482
 20
-675.5070163666125
 30
0.0
 11
-396.9241453278203
 21
-670.5824674803625
 31
0.0
  0
ARC
  5
8CF1
330
8C7C
100
AcDbEntity
  8
0
100
AcDbCircle
 10
-352.7999189246498
 20
-669.6943666915541
 30
0.0
 40
33.91152645600867
100
AcDbArc
 50
170.9243080213572
 51
187.6091500877264
  0
ARC
  5
8CF2
330
8C7C
100
AcDbEntity
  8
0
100
AcDbCircle
 10
-405.0913416613899
 20
-693.1333645632005
 30
0.0
 40
17.85238468913766
100
AcDbArc
 50
57.05288288872227
 51
88.20327781243735
  0
ARC
  5
8CF3
330
8C7C
100
AcDbEntity
  8
0
100
AcDbCircle
 10
-382.6303887618629
 20
-676.7729563476288
 30
0.0
 40
21.95138209411632
100
AcDbArc
 50
160.2221940041945
 51
176.1257171371395
  0
ARC
  5
8CF4
330
8C7C
100
AcDbEntity
  8
0
100
AcDbCircle
 10
-401.1392159802773
 20
-681.7742685258333
 30
0.0
 40
7.31827833649072
100
AcDbArc
 50
117.6164350735854
 51
192.3954334806367
  0
ARC
  5
8CF5
330
8C7C
100
AcDbEntity
  8
0
100
AcDbCircle
 10
-415.3422825101887
 20
-673.9013557030566
 30
0.0
 40
3.9836329732029
100
AcDbArc
 50
39.91620115431059
 51
171.9745906475354
  0
ARC
  5
8CF6
330
8C7C
100
AcDbEntity
  8
0
100
AcDbCircle
 10
-406.928064493194
 20
-674.209955052542
 30
0.0
 40
6.076511760610198
100
AcDbArc
 50
53.18598852908587
 51
151.8716268892167
  0
ARC
  5
8CF7
330
8C7C
100
AcDbEntity
  8
0
100
AcDbCircle
 10
-393.211709794067
 20
-672.2008411105697
 30
0.0
 40
10.47206793103067
100
AcDbArc
 50
48.60360142276014
 51
164.1754792453093
  0
SPLINE
  5
8CF8
330
8C7C
100
AcDbEntity
  8
0
100
AcDbSpline
210
0.0
220
0.0
230
1.0
 70
     8
 71
     3
 72
     9
 73
     5
 74
     3
 42
0.0000000001
 43
0.0000000001
 44
0.0000000001
 40
0.0
 40
0.0
 40
0.0
 40
0.0
 40
4.563015150938924
 40
8.451399047620213
 40
8.451399047620213
 40
8.451399047620213
 40
8.451399047620213
 10
-379.2869007831979
 20
-683.3451917475249
 30
0.0
 10
-380.1544955705505
 20
-684.9236327333247
 30
0.0
 10
-381.7614132591852
 20
-687.8471458497269
 30
0.0
 10
-378.9676107217718
 20
-689.5103389610019
 30
0.0
 10
-377.6822168200315
 20
-690.275553486374
 30
0.0
 11
-379.2869007831979
 21
-683.3451917475249
 31
0.0
 11
-380.6068514325343
 21
-687.7131246168596
 31
0.0
 11
-377.6822168200315
 21
-690.275553486374
 31
0.0
  0
ARC
  5
8CF9
330
8C7C
100
AcDbEntity
  8
0
100
AcDbCircle
 10
-383.841629098166
 20
-683.9136021412351
 30
0.0
 40
4.590058866599709
100
AcDbArc
 50
7.113489196223845
 51
95.56689429559487
  0
SPLINE
  5
8CFA
330
8C7C
100
AcDbEntity
  8
0
100
AcDbSpline
210
0.0
220
0.0
230
1.0
 70
     8
 71
     3
 72
    12
 73
     8
 74
     6
 42
0.0000000001
 43
0.0000000001
 44
0.0000000001
 40
0.0
 40
0.0
 40
0.0
 40
0.0
 40
4.444815023040329
 40
7.837925131244547
 40
9.383666696406221
 40
11.16826729633966
 40
16.34260714184148
 40
16.34260714184148
 40
16.34260714184148
 40
16.34260714184148
 10
-396.2869007831978
 20
-686.3451917475249
 30
0.0
 10
-394.6520183848333
 20
-687.0182452555464
 30
0.0
 10
-391.7690894507055
 20
-688.2050984716754
 30
0.0
 10
-390.2100608753841
 20
-684.5472227264011
 30
0.0
 10
-390.6314798792371
 20
-682.2356265335742
 30
0.0
 10
-388.2233241341586
 20
-680.1692203992484
 30
0.0
 10
-385.9656217642712
 20
-679.6966057249663
 30
0.0
 10
-384.2869007831978
 20
-679.3451917475249
 30
0.0
 11
-396.2869007831978
 21
-686.3451917475249
 31
0.0
 11
-391.8905985347738
 21
-687.0001017638988
 31
0.0
 11
-390.4365513724824
 21
-683.9343321939163
 31
0.0
 11
-390.3683926545082
 21
-682.3900940725657
 31
0.0
 11
-389.1642607914546
 21
-681.0729510440141
 31
0.0
 11
-384.2869007831978
 21
-679.3451917475249
 31
0.0
  0
ARC
  5
8CFB
330
8C7C
100
AcDbEntity
  8
0
100
AcDbCircle
 10
-400.9321745906982
 20
-679.4262869775267
 30
0.0
 40
8.333655378221147
100
AcDbArc
 50
208.0505517271227
 51
303.8769613370241
  0
LINE
  5
8CFC
330
8C7C
100
AcDbEntity
  8
0
100
AcDbLine
 10
-412.2869007831978
 20
-685.3451917475249
 30
0.0
 11
-408.2869007831978
 21
-683.3451917475249
 31
0.0
  0
LINE
  5
8CFD
330
8C7C
100
AcDbEntity
  8
0
100
AcDbLine
 10
-372.6527227095787
 20
-686.2975720225006
 30
0.0
 11
-365.5524263089863
 21
-687.0941898935891
 31
0.0
  0
LINE
  5
8CFE
330
8C7C
100
AcDbEntity
  8
0
100
AcDbLine
 10
-373.3047910412397
 20
-684.5594957188843
 30
0.0
 11
-367.2912749101072
 21
-682.8938394214177
 31
0.0
  0
SPLINE
  5
8CFF
330
8C7C
100
AcDbEntity
  8
0
100
AcDbSpline
210
0.0
220
0.0
230
1.0
 70
     8
 71
     3
 72
    10
 73
     6
 74
     4
 42
0.0000000001
 43
0.0000000001
 44
0.0000000001
 40
0.0
 40
0.0
 40
0.0
 40
0.0
 40
4.548082061862599
 40
10.23394251137258
 40
15.37230316540545
 40
15.37230316540545
 40
15.37230316540545
 40
15.37230316540545
 10
-374.2869007831977
 20
-695.345191747525
 30
0.0
 10
-372.7482269044088
 20
-695.7574849716229
 30
0.0
 10
-369.2859542793568
 20
-696.6852134285536
 30
0.0
 10
-364.8903842736207
 20
-693.1288374312393
 30
0.0
 10
-362.446863379841
 20
-690.5631486172382
 30
0.0
 10
-361.2869007831978
 20
-689.3451917475251
 30
0.0
 11
-374.2869007831977
 21
-695.345191747525
 31
0.0
 11
-369.7767340889072
 21
-695.9312351172078
 31
0.0
 11
-364.9136185055927
 21
-692.9852011943506
 31
0.0
 11
-361.2869007831978
 21
-689.3451917475251
 31
0.0
  0
ARC
  5
8D00
330
8C7C
100
AcDbEntity
  8
0
100
AcDbCircle
 10
-369.8025587132156
 20
-684.4936410082454
 30
0.0
 40
9.800712961661487
100
AcDbArc
 50
330.3289186600119
 51
68.97872945609345
  0
SPLINE
  5
8D01
330
8C7C
100
AcDbEntity
  8
0
100
AcDbSpline
210
0.0
220
0.0
230
1.0
 70
     8
 71
     3
 72
    12
 73
     8
 74
     6
 42
0.0000000001
 43
0.0000000001
 44
0.0000000001
 40
0.0
 40
0.0
 40
0.0
 40
0.0
 40
2.597352391762907
 40
6.556237673908277
 40
9.46110355184178
 40
12.36049824625405
 40
17.00853813738933
 40
17.00853813738933
 40
17.00853813738933
 40
17.00853813738933
 10
-364.2869007831978
 20
-701.3451917475249
 30
0.0
 10
-364.2530975331646
 20
-700.4243951930308
 30
0.0
 10
-364.1677713594537
 20
-698.1001202583991
 30
0.0
 10
-360.8745739150184
 20
-696.6184988362753
 30
0.0
 10
-357.9749612746669
 20
-695.1957923429923
 30
0.0
 10
-356.735194244133
 20
-691.045498452037
 30
0.0
 10
-359.5521168183126
 20
-689.9932266726807
 30
0.0
 10
-361.2869007831978
 20
-689.3451917475249
 30
0.0
 11
-364.2869007831978
 21
-701.3451917475249
 31
0.0
 11
-363.8407177889785
 21
-698.7864498334848
 31
0.0
 11
-360.6243342293219
 21
-696.4782796763347
 31
0.0
 11
-358.2326711571495
 21
-694.8295851873559
 31
0.0
 11
-357.4904271086689
 21
-692.0268073926527
 31
0.0
 11
-361.2869007831978
 21
-689.3451917475249
 31
0.0
  0
ENDBLK
  5
8D02
330
8C7C
100
AcDbEntity
  8
0
100
AcDbBlockEnd
  0
BLOCK
  5
8D04
330
8D03
100
AcDbEntity
  8
0
100
AcDbBlockBegin
  2
ma
 70
     0
 10
0.0
 20
0.0
 30
0.0
  3
ma
  1

  0
INSERT
  5
8D05
330
8D03
100
AcDbEntity
  8
0
100
AcDbBlockReference
  2
OT396
 10
30.26889524653223
 20
47.85388445274293
 30
0.0
 41
1.0339943
 42
1.021052599999999
  0
ENDBLK
  5
8D06
330
8D03
100
AcDbEntity
  8
0
100
AcDbBlockEnd
  0
BLOCK
  5
9171
330
9170
100
AcDbEntity
  8
0
100
AcDbBlockBegin
  2
OT401
 70
     0
 10
0.0
 20
0.0
 30
0.0
  3
OT401
  1

  0
SPLINE
  5
9172
330
9170
100
AcDbEntity
  8
0
100
AcDbSpline
210
0.0
220
0.0
230
1.0
 70
     8
 71
     3
 72
    46
 73
    42
 74
     0
 42
0.0000000001
 43
0.0000000001
 40
0.0
 40
0.0
 40
0.0
 40
0.0
 40
0.6074272177639087
 40
0.6074272177639087
 40
1.165968234893307
 40
1.165968234893307
 40
1.579426274009967
 40
1.579426274009967
 40
1.940681442394874
 40
1.940681442394874
 40
2.30193661077978
 40
2.30193661077978
 40
3.024446947549594
 40
3.024446947549594
 40
4.375115287442544
 40
4.375115287442544
 40
5.725783627335494
 40
5.725783627335494
 40
7.076451967228444
 40
7.076451967228444
 40
9.72108509974662
 40
9.72108509974662
 40
12.36571823226479
 40
12.36571823226479
 40
15.55505390985888
 40
15.55505390985888
 40
18.61989071722648
 40
18.61989071722648
 40
21.68472752459409
 40
21.68472752459409
 40
27.8144011393293
 40
27.8144011393293
 40
33.3778348642866
 40
33.3778348642866
 40
36.70396194183805
 40
36.70396194183805
 40
40.03008901938949
 40
40.03008901938949
 40
46.68234317449239
 40
46.68234317449239
 40
48.66133901641832
 40
48.66133901641832
 40
48.66133901641832
 40
48.66133901641832
 10
-625.5498045324761
 20
-741.9365480461773
 30
0.0
 10
-625.4191539579127
 20
-741.7720548127562
 30
0.0
 10
-625.3018774413765
 20
-741.6238020360033
 30
0.0
 10
-625.1152353080314
 20
-741.3724688335622
 30
0.0
 10
-625.0429794812219
 20
-741.2668259257989
 30
0.0
 10
-624.9517241132921
 20
-741.1169981909617
 30
0.0
 10
-624.9237683765525
 20
-741.0641530187656
 30
0.0
 10
-624.8892281480123
 20
-740.9898112113212
 30
0.0
 10
-624.8803486607775
 20
-740.9664327842565
 30
0.0
 10
-624.8620147884902
 20
-740.909212900764
 30
0.0
 10
-624.8541660778151
 20
-740.8787014521047
 30
0.0
 10
-624.8346966572283
 20
-740.7766551404453
 30
0.0
 10
-624.8270806941156
 20
-740.6939210447204
 30
0.0
 10
-624.8348038228822
 20
-740.3988380539624
 30
0.0
 10
-624.8796430649174
 20
-740.135435845389
 30
0.0
 10
-625.0796714879316
 20
-739.5152305908742
 30
0.0
 10
-625.2330348499794
 20
-739.1612543859009
 30
0.0
 10
-625.6178492697118
 20
-738.424141508904
 30
0.0
 10
-625.8483986844518
 20
-738.0408890820068
 30
0.0
 10
-626.5782707943221
 20
-736.9214600939391
 30
0.0
 10
-627.0879277051098
 20
-736.2477384498458
 30
0.0
 10
-628.1558191333843
 20
-735.007663149359
 30
0.0
 10
-628.7152577754746
 20
-734.4396221028847
 30
0.0
 10
-630.0107301758729
 20
-733.2649978671416
 30
0.0
 10
-630.7596906108131
 20
-732.6745511679782
 30
0.0
 10
-632.312791589891
 20
-731.570097433286
 30
0.0
 10
-633.1151463849145
 20
-731.0502613207054
 30
0.0
 10
-634.7651152037793
 20
-730.0623601803383
 30
0.0
 10
-635.6158792372166
 20
-729.5940567295267
 30
0.0
 10
-638.2322786091911
 20
-728.2710824552988
 30
0.0
 10
-640.0620571474838
 20
-727.4984392039485
 30
0.0
 10
-643.6471562593982
 20
-726.2562916936883
 30
0.0
 10
-645.3937212939662
 20
-725.7653575816341
 30
0.0
 10
-648.206186451854
 20
-725.1536851933633
 30
0.0
 10
-649.2620462679143
 20
-724.9637691082633
 30
0.0
 10
-651.3775493259627
 20
-724.6628997676029
 30
0.0
 10
-652.4411785292731
 20
-724.5504913469218
 30
0.0
 10
-655.6507351341007
 20
-724.3017709511859
 30
0.0
 10
-657.8154599613267
 20
-724.2542726456802
 30
0.0
 10
-660.655518962066
 20
-724.2542415081374
 30
0.0
 10
-661.3088168405247
 20
-724.2584056622359
 30
0.0
 10
-661.9641889765712
 20
-724.2647969158499
 30
0.0
  0
ARC
  5
9173
330
9170
100
AcDbEntity
  8
0
100
AcDbCircle
 10
-648.364991180153
 20
-724.1265117868464
 30
0.0
 40
9.731890776336816
100
AcDbArc
 50
30.54615884812428
 51
125.2643269978515
  0
LINE
  5
9174
330
9170
100
AcDbEntity
  8
0
100
AcDbLine
 10
-639.9836922461465
 20
-719.180450094816
 30
0.0
 11
-641.8426593918753
 21
-724.7687127621125
 31
0.0
  0
ARC
  5
9175
330
9170
100
AcDbEntity
  8
0
100
AcDbCircle
 10
-648.364991180153
 20
-724.1265117868464
 30
0.0
 40
8.731890776336816
100
AcDbArc
 50
24.54712101406667
 51
130.754055468824
  0
ARC
  5
9176
330
9170
100
AcDbEntity
  8
0
100
AcDbCircle
 10
-660.3271103382539
 20
-769.1103158192356
 30
0.0
 40
40.96337598192513
100
AcDbArc
 50
51.6030855977486
 51
92.3177055075614
  0
SPLINE
  5
9177
330
9170
100
AcDbEntity
  8
0
100
AcDbSpline
210
0.0
220
0.0
230
1.0
 70
     8
 71
     3
 72
    10
 73
     6
 74
     4
 42
0.0000000001
 43
0.0000000001
 44
0.0000000001
 40
0.0
 40
0.0
 40
0.0
 40
0.0
 40
1.646530983490418
 40
4.786387453854763
 40
16.90775213644986
 40
16.90775213644986
 40
16.90775213644986
 40
16.90775213644986
 10
-629.9836922461466
 20
-739.1804500948161
 30
0.0
 10
-629.9752181869291
 20
-738.6259061826916
 30
0.0
 10
-629.9505844988125
 20
-737.0138733389621
 30
0.0
 10
-632.9849681634564
 20
-731.886704127832
 30
0.0
 10
-637.9549087936374
 20
-730.0325415571367
 30
0.0
 10
-641.9023296602556
 20
-728.5598559525604
 30
0.0
 11
-629.9836922461466
 21
-739.1804500948161
 31
0.0
 11
-630.062837322379
 21
-737.5358223750867
 31
0.0
 11
-631.4675227496351
 21
-734.7276988904545
 31
0.0
 11
-641.9023296602556
 21
-728.5598559525604
 31
0.0
  0
SPLINE
  5
9178
330
9170
100
AcDbEntity
  8
0
100
AcDbSpline
210
0.0
220
0.0
230
1.0
 70
     8
 71
     3
 72
    12
 73
     8
 74
     0
 42
0.0000000001
 43
0.0000000001
 40
0.0
 40
0.0
 40
0.0
 40
0.0
 40
1.715680664514487
 40
7.116632325146692
 40
16.76443298273219
 40
36.29255601328589
 40
48.66133901641832
 40
48.66133901641832
 40
48.66133901641832
 40
48.66133901641832
 10
-623.9836922461465
 20
-743.1804500948161
 30
0.0
 10
-623.6146691631651
 20
-742.715838283276
 30
0.0
 10
-622.083963796258
 20
-740.7886314871401
 30
0.0
 10
-625.0760620556639
 20
-734.6840022083061
 30
0.0
 10
-633.4950106147998
 20
-727.4884658853441
 30
0.0
 10
-647.2292162332664
 20
-722.344524618426
 30
0.0
 10
-657.8595786491734
 20
-722.2246732505366
 30
0.0
 10
-661.9836922461464
 20
-722.2648920124917
 30
0.0
  0
SPLINE
  5
9179
330
9170
100
AcDbEntity
  8
0
100
AcDbSpline
210
0.0
220
0.0
230
1.0
 70
     8
 71
     3
 72
    17
 73
    13
 74
    11
 42
0.0000000001
 43
0.0000000001
 44
0.0000000001
 40
0.0
 40
0.0
 40
0.0
 40
0.0
 40
1.916710251133875
 40
4.233310435903876
 40
12.24298197757883
 40
25.43317982045675
 40
37.42217790317642
 40
50.65745951098718
 40
60.26258196766237
 40
62.19199977028004
 40
64.63491304714795
 40
65.72847570917665
 40
65.72847570917665
 40
65.72847570917665
 40
65.72847570917665
 10
-756.9836922461465
 20
-733.180450094816
 30
0.0
 10
-757.4276131087343
 20
-733.7073744307716
 30
0.0
 10
-758.4080715891941
 20
-734.8711571616315
 30
0.0
 10
-756.4614073767493
 20
-739.0662474236257
 30
0.0
 10
-750.1843466957143
 20
-743.6549032283044
 30
0.0
 10
-739.8000719117182
 20
-748.2761616464026
 30
0.0
 10
-726.6404899722552
 20
-748.1982103220254
 30
0.0
 10
-715.7160607919074
 20
-745.0006509781608
 30
0.0
 10
-707.9528638913845
 20
-739.9453747111963
 30
0.0
 10
-706.5547193405391
 20
-735.7203777526265
 30
0.0
 10
-707.6518136485027
 20
-732.9686263819063
 30
0.0
 10
-708.6691176107542
 20
-733.8942310630493
 30
0.0
 10
-708.9836922461464
 20
-734.180450094816
 30
0.0
 11
-756.9836922461465
 21
-733.180450094816
 31
0.0
 11
-757.9764748684628
 21
-734.8200112713593
 31
0.0
 11
-757.3105332126824
 21
-737.0388303552805
 31
0.0
 11
-751.4280517030132
 21
-742.4749364519197
 31
0.0
 11
-739.2191270132043
 21
-747.4672782924626
 31
0.0
 11
-727.2321823087056
 21
-747.6891604205107
 31
0.0
 11
-714.5792967983513
 21
-743.8062275727884
 31
0.0
 11
-707.2539419844661
 21
-737.593534577121
 31
0.0
 11
-706.8621412453126
 21
-735.7043164219423
 31
0.0
 11
-708.0693689454323
 21
-733.5805399369136
 31
0.0
 11
-708.9836922461464
 21
-734.180450094816
 31
0.0
  0
ARC
  5
917A
330
9170
100
AcDbEntity
  8
0
100
AcDbCircle
 10
-731.9413193647904
 20
-705.8499416202395
 30
0.0
 40
46.34040424091239
100
AcDbArc
 50
235.8071723700122
 51
296.888382069375
  0
ARC
  5
917B
330
9170
100
AcDbEntity
  8
0
100
AcDbCircle
 10
-732.2990717213913
 20
-714.992349421554
 30
0.0
 40
30.19586275505148
100
AcDbArc
 50
226.8276786029193
 51
320.5462886129292
  0
SPLINE
  5
917C
330
9170
100
AcDbEntity
  8
0
100
AcDbSpline
210
0.0
220
0.0
230
1.0
 70
     8
 71
     3
 72
    14
 73
    10
 74
     8
 42
0.0000000001
 43
0.0000000001
 44
0.0000000001
 40
0.0
 40
0.0
 40
0.0
 40
0.0
 40
5.822841824711453
 40
14.13876367154134
 40
21.38678273078042
 40
25.97466836637905
 40
29.57663951975794
 40
31.45662506540098
 40
33.64214027022013
 40
33.64214027022013
 40
33.64214027022013
 40
33.64214027022013
 10
-769.5106050847478
 20
-738.8720802721776
 30
0.0
 10
-769.9444264530725
 20
-736.8997547023225
 30
0.0
 10
-770.9978120656402
 20
-732.1106421083356
 30
0.0
 10
-778.4147269006803
 20
-728.7186689240502
 30
0.0
 10
-784.9333930930281
 20
-728.7208261973926
 30
0.0
 10
-790.2888224677028
 20
-728.2255601801279
 30
0.0
 10
-793.2039238320919
 20
-729.997064324287
 30
0.0
 10
-795.1756683828238
 20
-731.9571787516424
 30
0.0
 10
-794.8127657958869
 20
-733.37580083275
 30
0.0
 10
-794.6176781128928
 20
-734.1384178677611
 30
0.0
 11
-769.5106050847478
 21
-738.8720802721776
 31
0.0
 11
-771.465048185416
 21
-733.3870425255565
 31
0.0
 11
-778.681451976478
 21
-729.2544800654199
 31
0.0
 11
-785.8978557675399
 21
-728.5782429713174
 31
0.0
 11
-790.4832796383674
 21
-728.7285178201024
 31
0.0
 11
-793.6258998988206
 21
-730.4886695432111
 31
0.0
 11
-794.7959379614202
 21
-731.9601846073185
 31
0.0
 11
-794.6176781128928
 21
-734.1384178677611
 31
0.0
  0
SPLINE
  5
917D
330
9170
100
AcDbEntity
  8
0
100
AcDbSpline
210
0.0
220
0.0
230
1.0
 70
     8
 71
     3
 72
    13
 73
     9
 74
     7
 42
0.0000000001
 43
0.0000000001
 44
0.0000000001
 40
0.0
 40
0.0
 40
0.0
 40
0.0
 40
8.116997916245225
 40
15.0033706616085
 40
20.90297564413377
 40
23.22679164972981
 40
24.43865290610328
 40
26.16566611204689
 40
26.16566611204689
 40
26.16566611204689
 40
26.16566611204689
 10
-787.9836922461462
 20
-732.1804500948159
 30
0.0
 10
-785.3547247618418
 20
-731.5370816648817
 30
0.0
 10
-780.4953698585474
 20
-730.3478864567668
 30
0.0
 10
-773.0234644374179
 20
-732.3782123905134
 30
0.0
 10
-770.9080573705342
 20
-737.5259821262805
 30
0.0
 10
-770.621845679922
 20
-740.5759488383311
 30
0.0
 10
-769.7012923102296
 20
-742.2890084477505
 30
0.0
 10
-768.6194379400214
 20
-742.2206314541764
 30
0.0
 10
-767.9836922461464
 20
-742.180450094816
 30
0.0
 11
-787.9836922461462
 21
-732.1804500948159
 31
0.0
 11
-779.9493605909982
 21
-731.0249545182703
 31
0.0
 11
-773.4772572817409
 21
-733.3774018274319
 31
0.0
 11
-770.8716051234841
 21
-738.6704081357607
 31
0.0
 11
-770.3672851864166
 21
-740.9388398030015
 31
0.0
 11
-769.6948586036601
 21
-741.9470313500308
 31
0.0
 11
-767.9836922461464
 21
-742.180450094816
 31
0.0
  0
ARC
  5
917E
330
9170
100
AcDbEntity
  8
0
100
AcDbCircle
 10
-780.4581694873477
 20
-747.1123894046859
 30
0.0
 40
22.93796012468358
100
AcDbArc
 50
47.57511318744368
 51
126.4019174466694
  0
SPLINE
  5
917F
330
9170
100
AcDbEntity
  8
0
100
AcDbSpline
210
0.0
220
0.0
230
1.0
 70
     8
 71
     3
 72
    12
 73
     8
 74
     6
 42
0.0000000001
 43
0.0000000001
 44
0.0000000001
 40
0.0
 40
0.0
 40
0.0
 40
0.0
 40
1.879034897132161
 40
3.973703567447231
 40
6.186336559529973
 40
8.06238596932858
 40
9.042062050885501
 40
9.042062050885501
 40
9.042062050885501
 40
9.042062050885501
 10
-787.9836922461462
 20
-732.1804500948159
 30
0.0
 10
-788.4788734206265
 20
-731.7846176253121
 30
0.0
 10
-789.5260616354747
 20
-730.9475278519506
 30
0.0
 10
-791.6744005388246
 20
-730.6188232017458
 30
0.0
 10
-793.6845650453533
 20
-731.3204276619415
 30
0.0
 10
-794.8414803283816
 20
-732.8484316463545
 30
0.0
 10
-794.6748438811559
 20
-733.808916869593
 30
0.0
 10
-794.6176781128927
 20
-734.1384178677611
 30
0.0
 11
-787.9836922461462
 21
-732.1804500948159
 31
0.0
 11
-789.543643466898
 21
-731.1329175972219
 31
0.0
 11
-791.6108427041607
 21
-730.7947990501706
 31
0.0
 11
-793.6780419414233
 21
-731.5837426927169
 31
0.0
 11
-794.6928488706222
 21
-733.161629977809
 31
0.0
 11
-794.6176781128927
 21
-734.1384178677611
 31
0.0
  0
ARC
  5
9180
330
9170
100
AcDbEntity
  8
0
100
AcDbCircle
 10
-792.2084758201119
 20
-734.4189240119706
 30
0.0
 40
4.781167401862504
100
AcDbArc
 50
177.1410286396866
 51
27.91658677861727
  0
SPLINE
  5
9181
330
9170
100
AcDbEntity
  8
0
100
AcDbSpline
210
0.0
220
0.0
230
1.0
 70
     8
 71
     3
 72
     9
 73
     5
 74
     3
 42
0.0000000001
 43
0.0000000001
 44
0.0000000001
 40
0.0
 40
0.0
 40
0.0
 40
0.0
 40
3.357645358555656
 40
6.402089026651562
 40
6.402089026651562
 40
6.402089026651562
 40
6.402089026651562
 10
-794.0706061035021
 20
-728.6502231164965
 30
0.0
 10
-794.8980561354983
 20
-729.4537992279083
 30
0.0
 10
-796.4757715295463
 20
-730.9859937438777
 30
0.0
 10
-796.8199987451006
 20
-733.1509355919942
 30
0.0
 10
-796.9836922461464
 20
-734.180450094816
 30
0.0
 11
-794.0706061035021
 21
-728.6502231164965
 31
0.0
 11
-796.213673886836
 21
-731.2349944467822
 31
0.0
 11
-796.9836922461464
 21
-734.180450094816
 31
0.0
  0
SPLINE
  5
9182
330
9170
100
AcDbEntity
  8
0
100
AcDbSpline
210
0.0
220
0.0
230
1.0
 70
     8
 71
     3
 72
    10
 73
     6
 74
     4
 42
0.0000000001
 43
0.0000000001
 44
0.0000000001
 40
0.0
 40
0.0
 40
0.0
 40
0.0
 40
3.966964136261598
 40
9.891420516798252
 40
14.09108437029161
 40
14.09108437029161
 40
14.09108437029161
 40
14.09108437029161
 10
-765.3018296823482
 20
-745.8031645286616
 30
0.0
 10
-765.0011433453252
 20
-744.5347923043428
 30
0.0
 10
-764.2513974688843
 20
-741.3721715667658
 30
0.0
 10
-765.2746180517167
 20
-735.9319065721417
 30
0.0
 10
-768.6405522816453
 20
-734.7704750298466
 30
0.0
 10
-770.0368012387796
 20
-734.2886927165461
 30
0.0
 11
-765.3018296823482
 21
-745.8031645286616
 31
0.0
 11
-764.6358880265678
 21
-741.8924962776484
 31
0.0
 11
-766.3007413160941
 21
-736.20677319881
 31
0.0
 11
-770.0368012387796
 21
-734.2886927165461
 31
0.0
  0
SPLINE
  5
9183
330
9170
100
AcDbEntity
  8
0
100
AcDbSpline
210
0.0
220
0.0
230
1.0
 70
     8
 71
     3
 72
    10
 73
     6
 74
     4
 42
0.0000000001
 43
0.0000000001
 44
0.0000000001
 40
0.0
 40
0.0
 40
0.0
 40
0.0
 40
2.130436755392835
 40
7.212823984746611
 40
9.883006960984111
 40
9.883006960984111
 40
9.883006960984111
 40
9.883006960984111
 10
-760.9836922461465
 20
-745.180450094816
 30
0.0
 10
-760.8932312262949
 20
-744.4739161552887
 30
0.0
 10
-760.5869656626642
 20
-742.0818691104003
 30
0.0
 10
-761.6501832460872
 20
-738.749754430252
 30
0.0
 10
-763.2105397834153
 20
-736.6932155360293
 30
0.0
 10
-763.7479663854771
 20
-735.984891070762
 30
0.0
 11
-760.9836922461465
 21
-745.180450094816
 31
0.0
 11
-760.8067247807175
 21
-743.0573760770511
 31
0.0
 11
-762.2218505867699
 21
-738.1759747513923
 31
0.0
 11
-763.7479663854771
 21
-735.984891070762
 31
0.0
  0
SPLINE
  5
9184
330
9170
100
AcDbEntity
  8
0
100
AcDbSpline
210
0.0
220
0.0
230
1.0
 70
     8
 71
     3
 72
    10
 73
     6
 74
     4
 42
0.0000000001
 43
0.0000000001
 44
0.0000000001
 40
0.0
 40
0.0
 40
0.0
 40
0.0
 40
2.557517145852025
 40
6.905952227570113
 40
8.323820391966092
 40
8.323820391966092
 40
8.323820391966092
 40
8.323820391966092
 10
-767.9836922461464
 20
-742.180450094816
 30
0.0
 10
-767.9219034111492
 20
-741.3261830155108
 30
0.0
 10
-767.7550577094969
 20
-739.0194428050551
 30
0.0
 10
-768.7288839215118
 20
-736.2901305909162
 30
0.0
 10
-769.7786706597817
 20
-734.6836965218471
 30
0.0
 10
-770.0368012387797
 20
-734.2886927165461
 30
0.0
 11
-767.9836922461464
 21
-742.180450094816
 31
0.0
 11
-767.9320166226523
 21
-739.6234550652425
 31
0.0
 11
-769.2850928115591
 21
-735.4908926051059
 31
0.0
 11
-770.0368012387797
 21
-734.2886927165461
 31
0.0
  0
ARC
  5
9185
330
9170
100
AcDbEntity
  8
0
100
AcDbCircle
 10
-759.7953246184268
 20
-743.7455529779749
 30
0.0
 40
1.863101541658591
100
AcDbArc
 50
230.3687812098222
 51
346.501116436024
  0
SPLINE
  5
9186
330
9170
100
AcDbEntity
  8
0
100
AcDbSpline
210
0.0
220
0.0
230
1.0
 70
     8
 71
     3
 72
    13
 73
     9
 74
     7
 42
0.0000000001
 43
0.0000000001
 44
0.0000000001
 40
0.0
 40
0.0
 40
0.0
 40
0.0
 40
2.222921547711472
 40
4.101602944764024
 40
4.994877248371866
 40
7.307438615154044
 40
9.842555640159966
 40
11.5783926724816
 40
11.5783926724816
 40
11.5783926724816
 40
11.5783926724816
 10
-767.9836922461464
 20
-742.180450094816
 30
0.0
 10
-767.4987621798352
 20
-742.8318701776738
 30
0.0
 10
-766.6039979943718
 20
-744.0338318631313
 30
0.0
 10
-767.8373927993734
 20
-745.8323637169412
 30
0.0
 10
-766.4761201443491
 20
-747.1705210265658
 30
0.0
 10
-764.4995264620996
 20
-747.2733860004535
 30
0.0
 10
-762.1818522297964
 20
-746.8605338536331
 30
0.0
 10
-761.3299354297738
 20
-745.665959173196
 30
0.0
 10
-760.9836922461465
 20
-745.180450094816
 30
0.0
 11
-767.9836922461464
 21
-742.180450094816
 31
0.0
 11
-767.0892064454033
 21
-744.2154624681319
 31
0.0
 11
-767.4254197367815
 21
-746.0638142783487
 31
0.0
 11
-766.8370464768695
 21
-746.7359421594149
 31
0.0
 11
-764.567607609991
 21
-747.1804500948159
 31
0.0
 11
-762.1300620974233
 21
-746.4838941353726
 31
0.0
 11
-760.9836922461465
 21
-745.180450094816
 31
0.0
  0
SPLINE
  5
9187
330
9170
100
AcDbEntity
  8
0
100
AcDbSpline
210
0.0
220
0.0
230
1.0
 70
     8
 71
     3
 72
    13
 73
     9
 74
     7
 42
0.0000000001
 43
0.0000000001
 44
0.0000000001
 40
0.0
 40
0.0
 40
0.0
 40
0.0
 40
3.904928699421642
 40
7.475549275307056
 40
10.97488953589086
 40
12.98906783756846
 40
17.38908266178967
 40
21.25486557514051
 40
21.25486557514051
 40
21.25486557514051
 40
21.25486557514051
 10
-756.9836922461465
 20
-733.180450094816
 30
0.0
 10
-757.4289324620527
 20
-731.9293472615962
 30
0.0
 10
-758.2812950605933
 20
-729.5342508083379
 30
0.0
 10
-757.4428585918098
 20
-725.8298375317096
 30
0.0
 10
-759.2353346546786
 20
-722.8430694882637
 30
0.0
 10
-762.9656956726896
 20
-722.2248971864241
 30
0.0
 10
-764.4416985155112
 20
-726.3721407725792
 30
0.0
 10
-764.8109834983483
 20
-728.9669151458035
 30
0.0
 10
-764.9836922461465
 20
-730.180450094816
 30
0.0
 11
-756.9836922461465
 21
-733.180450094816
 31
0.0
 11
-757.9310064361639
 21
-729.3921702776749
 31
0.0
 11
-757.9310064361639
 21
-725.8215497017895
 31
0.0
 11
-759.9258745147831
 21
-722.9465047267937
 31
0.0
 11
-761.9207434433271
 21
-722.6682742667819
 31
0.0
 11
-764.2867507771818
 21
-726.3780100726733
 31
0.0
 11
-764.9836922461465
 21
-730.180450094816
 31
0.0
  0
SPLINE
  5
9188
330
9170
100
AcDbEntity
  8
0
100
AcDbSpline
210
0.0
220
0.0
230
1.0
 70
     8
 71
     3
 72
     9
 73
     5
 74
     3
 42
0.0000000001
 43
0.0000000001
 44
0.0000000001
 40
0.0
 40
0.0
 40
0.0
 40
0.0
 40
2.877470050651697
 40
5.82941622791702
 40
5.82941622791702
 40
5.82941622791702
 40
5.82941622791702
 10
-752.9589262312275
 20
-737.0141690365247
 30
0.0
 10
-753.3195493245202
 20
-736.0692974296913
 30
0.0
 10
-754.0501293393235
 20
-734.1550985740243
 30
0.0
 10
-755.9975446065216
 20
-733.5080883039714
 30
0.0
 10
-756.9836922461465
 20
-733.180450094816
 30
0.0
 11
-752.9589262312275
 21
-737.0141690365247
 31
0.0
 11
-754.3372808864679
 21
-734.4883083244556
 31
0.0
 11
-756.9836922461465
 21
-733.180450094816
 31
0.0
  0
SPLINE
  5
9189
330
9170
100
AcDbEntity
  8
0
100
AcDbSpline
210
0.0
220
0.0
230
1.0
 70
     8
 71
     3
 72
    46
 73
    42
 74
     0
 42
0.0000000001
 43
0.0000000001
 40
0.0
 40
0.0
 40
0.0
 40
0.0
 40
0.6074272177639087
 40
0.6074272177639087
 40
1.165968234893307
 40
1.165968234893307
 40
1.579426274009967
 40
1.579426274009967
 40
1.940681442394874
 40
1.940681442394874
 40
2.30193661077978
 40
2.30193661077978
 40
3.024446947549594
 40
3.024446947549594
 40
4.375115287442544
 40
4.375115287442544
 40
5.725783627335494
 40
5.725783627335494
 40
7.076451967228444
 40
7.076451967228444
 40
9.72108509974662
 40
9.72108509974662
 40
12.36571823226479
 40
12.36571823226479
 40
15.55505390985888
 40
15.55505390985888
 40
18.61989071722648
 40
18.61989071722648
 40
21.68472752459409
 40
21.68472752459409
 40
27.8144011393293
 40
27.8144011393293
 40
33.3778348642866
 40
33.3778348642866
 40
36.70396194183805
 40
36.70396194183805
 40
40.03008901938949
 40
40.03008901938949
 40
46.68234317449239
 40
46.68234317449239
 40
48.66133901641832
 40
48.66133901641832
 40
48.66133901641832
 40
48.66133901641832
 10
-698.4175799598168
 20
-741.9365480461773
 30
0.0
 10
-698.5482305343801
 20
-741.7720548127562
 30
0.0
 10
-698.6655070509164
 20
-741.6238020360033
 30
0.0
 10
-698.8521491842615
 20
-741.3724688335622
 30
0.0
 10
-698.924405011071
 20
-741.2668259257989
 30
0.0
 10
-699.0156603790008
 20
-741.1169981909617
 30
0.0
 10
-699.0436161157404
 20
-741.0641530187656
 30
0.0
 10
-699.0781563442806
 20
-740.9898112113212
 30
0.0
 10
-699.0870358315154
 20
-740.9664327842565
 30
0.0
 10
-699.1053697038027
 20
-740.909212900764
 30
0.0
 10
-699.1132184144777
 20
-740.8787014521047
 30
0.0
 10
-699.1326878350646
 20
-740.7766551404453
 30
0.0
 10
-699.1403037981773
 20
-740.6939210447204
 30
0.0
 10
-699.1325806694106
 20
-740.3988380539624
 30
0.0
 10
-699.0877414273755
 20
-740.135435845389
 30
0.0
 10
-698.8877130043611
 20
-739.5152305908742
 30
0.0
 10
-698.7343496423134
 20
-739.1612543859009
 30
0.0
 10
-698.349535222581
 20
-738.424141508904
 30
0.0
 10
-698.1189858078411
 20
-738.0408890820068
 30
0.0
 10
-697.3891136979708
 20
-736.9214600939391
 30
0.0
 10
-696.8794567871831
 20
-736.2477384498458
 30
0.0
 10
-695.8115653589086
 20
-735.007663149359
 30
0.0
 10
-695.2521267168183
 20
-734.4396221028847
 30
0.0
 10
-693.9566543164199
 20
-733.2649978671416
 30
0.0
 10
-693.2076938814796
 20
-732.6745511679782
 30
0.0
 10
-691.6545929024018
 20
-731.570097433286
 30
0.0
 10
-690.8522381073784
 20
-731.0502613207054
 30
0.0
 10
-689.2022692885135
 20
-730.0623601803383
 30
0.0
 10
-688.3515052550762
 20
-729.5940567295267
 30
0.0
 10
-685.7351058831016
 20
-728.2710824552988
 30
0.0
 10
-683.9053273448091
 20
-727.4984392039485
 30
0.0
 10
-680.3202282328946
 20
-726.2562916936883
 30
0.0
 10
-678.5736631983267
 20
-725.7653575816341
 30
0.0
 10
-675.7611980404389
 20
-725.1536851933633
 30
0.0
 10
-674.7053382243786
 20
-724.9637691082633
 30
0.0
 10
-672.5898351663301
 20
-724.6628997676029
 30
0.0
 10
-671.5262059630198
 20
-724.5504913469218
 30
0.0
 10
-668.3166493581921
 20
-724.3017709511859
 30
0.0
 10
-666.1519245309662
 20
-724.2542726456802
 30
0.0
 10
-663.3118655302268
 20
-724.2542415081374
 30
0.0
 10
-662.6585676517682
 20
-724.2584056622359
 30
0.0
 10
-662.0031955157217
 20
-724.2647969158499
 30
0.0
  0
ARC
  5
918A
330
9170
100
AcDbEntity
  8
0
100
AcDbCircle
 10
-685.4188032967027
 20
-730.6232057835917
 30
0.0
 40
10.53239790678582
100
AcDbArc
 50
80.22132737466815
 51
148.4746016160497
  0
LINE
  5
918B
330
9170
100
AcDbEntity
  8
0
100
AcDbLine
 10
-687.9564306561135
 20
-727.1620041327532
 30
0.0
 11
-690.2036129842466
 21
-723.0194344369689
 31
0.0
  0
LINE
  5
918C
330
9170
100
AcDbEntity
  8
0
100
AcDbLine
 10
-688.9404305553337
 20
-727.6742823659576
 30
0.0
 11
-690.9988272530313
 21
-724.1705609665337
 31
0.0
  0
SPLINE
  5
918D
330
9170
100
AcDbEntity
  8
0
100
AcDbSpline
210
0.0
220
0.0
230
1.0
 70
     8
 71
     3
 72
    12
 73
     8
 74
     0
 42
0.0000000001
 43
0.0000000001
 40
0.0
 40
0.0
 40
0.0
 40
0.0
 40
1.715680664514487
 40
7.116632325146692
 40
16.76443298273219
 40
36.29255601328589
 40
48.66133901641832
 40
48.66133901641832
 40
48.66133901641832
 40
48.66133901641832
 10
-699.9836922461463
 20
-743.1804500948161
 30
0.0
 10
-700.3527153291278
 20
-742.715838283276
 30
0.0
 10
-701.8834206960349
 20
-740.7886314871401
 30
0.0
 10
-698.891322436629
 20
-734.6840022083061
 30
0.0
 10
-690.472373877493
 20
-727.4884658853441
 30
0.0
 10
-676.7381682590265
 20
-722.344524618426
 30
0.0
 10
-666.1078058431193
 20
-722.2246732505366
 30
0.0
 10
-661.9836922461464
 20
-722.2648920124917
 30
0.0
  0
SPLINE
  5
918E
330
9170
100
AcDbEntity
  8
0
100
AcDbSpline
210
0.0
220
0.0
230
1.0
 70
     8
 71
     3
 72
    10
 73
     6
 74
     4
 42
0.0000000001
 43
0.0000000001
 44
0.0000000001
 40
0.0
 40
0.0
 40
0.0
 40
0.0
 40
1.646530983490418
 40
4.786387453854763
 40
16.90775213644986
 40
16.90775213644986
 40
16.90775213644986
 40
16.90775213644986
 10
-693.9836922461463
 20
-739.1804500948161
 30
0.0
 10
-693.9921663053637
 20
-738.6259061826916
 30
0.0
 10
-694.01679999348
 20
-737.0138733389621
 30
0.0
 10
-690.9824163288369
 20
-731.886704127832
 30
0.0
 10
-686.0124756986558
 20
-730.0325415571367
 30
0.0
 10
-682.0650548320372
 20
-728.5598559525604
 30
0.0
 11
-693.9836922461463
 21
-739.1804500948161
 31
0.0
 11
-693.9045471699139
 21
-737.5358223750867
 31
0.0
 11
-692.4998617426577
 21
-734.7276988904545
 31
0.0
 11
-682.0650548320372
 21
-728.5598559525604
 31
0.0
  0
ARC
  5
918F
330
9170
100
AcDbEntity
  8
0
100
AcDbCircle
 10
-663.640274154039
 20
-769.1103158192356
 30
0.0
 40
40.96337598192513
100
AcDbArc
 50
87.68229449243859
 51
128.3969144022514
  0
SPLINE
  5
9190
330
9170
100
AcDbEntity
  8
0
100
AcDbSpline
210
0.0
220
0.0
230
1.0
 70
     8
 71
     3
 72
    10
 73
     6
 74
     4
 42
0.0000000001
 43
0.0000000001
 44
0.0000000001
 40
0.0
 40
0.0
 40
0.0
 40
0.0
 40
2.06455834871851
 40
4.148867809526191
 40
6.206382350463639
 40
6.206382350463639
 40
6.206382350463639
 40
6.206382350463639
 10
-693.9836922461463
 20
-739.1804500948161
 30
0.0
 10
-693.3216096813009
 20
-739.3384180523741
 30
0.0
 10
-691.9911105737118
 20
-739.6558652073339
 30
0.0
 10
-689.6705319830118
 20
-739.1499419090252
 30
0.0
 10
-689.2779008550991
 20
-737.7177026460558
 30
0.0
 10
-689.0828553257465
 20
-737.00621584497
 30
0.0
 11
-693.9836922461463
 21
-739.1804500948161
 31
0.0
 11
-691.9427761162104
 21
-739.491998687865
 31
0.0
 11
-689.9532659641518
 21
-738.8705525652864
 31
0.0
 11
-689.0828553257465
 21
-737.00621584497
 31
0.0
  0
ARC
  5
9191
330
9170
100
AcDbEntity
  8
0
100
AcDbCircle
 10
-685.4188032967027
 20
-730.6232057835917
 30
0.0
 40
11.53239790678582
100
AcDbArc
 50
82.85148493778134
 51
146.036424623053
  0
SPLINE
  5
9192
330
9170
100
AcDbEntity
  8
0
100
AcDbSpline
210
0.0
220
0.0
230
1.0
 70
     8
 71
     3
 72
     9
 73
     5
 74
     3
 42
0.0000000001
 43
0.0000000001
 44
0.0000000001
 40
0.0
 40
0.0
 40
0.0
 40
0.0
 40
2.639289966146095
 40
4.305398346152151
 40
4.305398346152151
 40
4.305398346152151
 40
4.305398346152151
 10
-701.3048751899425
 20
-732.1038706559963
 30
0.0
 10
-700.9572305922493
 20
-730.9716203711467
 30
0.0
 10
-700.3901278884329
 20
-729.1246128174677
 30
0.0
 10
-699.0626141296435
 20
-730.2481444322132
 30
0.0
 10
-698.5488912124436
 20
-730.6829300868787
 30
0.0
 11
-701.3048751899425
 21
-732.1038706559963
 31
0.0
 11
-699.9761850032943
 21
-729.8234246659968
 31
0.0
 11
-698.5488912124436
 21
-730.6829300868787
 31
0.0
  0
ARC
  5
9193
330
9170
100
AcDbEntity
  8
0
100
AcDbCircle
 10
-694.0104270961227
 20
-735.3903478198516
 30
0.0
 40
10.25206879013849
100
AcDbArc
 50
92.05816931501862
 51
144.5488396924178
  0
LINE
  5
9194
330
9170
100
AcDbEntity
  8
0
100
AcDbLine
 10
-693.7522056402526
 20
-730.6085495261855
 30
0.0
 11
-695.8039667077908
 21
-726.9438874332762
 31
0.0
  0
LINE
  5
9195
330
9170
100
AcDbEntity
  8
0
100
AcDbLine
 10
-696.9313987122369
 20
-727.8048682016581
 30
0.0
 11
-697.4596082207211
 21
-726.6791020879282
 31
0.0
  0
LINE
  5
9196
330
9170
100
AcDbEntity
  8
0
100
AcDbLine
 10
-698.0138797693653
 20
-728.39115591305
 30
0.0
 11
-698.651671177248
 21
-727.1755738645667
 31
0.0
  0
SPLINE
  5
9197
330
9170
100
AcDbEntity
  8
0
100
AcDbSpline
210
0.0
220
0.0
230
1.0
 70
     8
 71
     3
 72
    11
 73
     7
 74
     5
 42
0.0000000001
 43
0.0000000001
 44
0.0000000001
 40
0.0
 40
0.0
 40
0.0
 40
0.0
 40
2.040863962003581
 40
3.143362720153733
 40
5.334104518752635
 40
10.1940911942668
 40
10.1940911942668
 40
10.1940911942668
 40
10.1940911942668
 10
-703.9836922461464
 20
-730.180450094816
 30
0.0
 10
-703.3318159223722
 20
-729.7375273126139
 30
0.0
 10
-702.327788327955
 20
-729.0553324248594
 30
0.0
 10
-700.7618085275224
 20
-730.4771215184286
 30
0.0
 10
-701.751933437869
 20
-733.391445374655
 30
0.0
 10
-702.320791657243
 20
-735.5775348030402
 30
0.0
 10
-702.7128991361461
 20
-737.084381298752
 30
0.0
 11
-703.9836922461464
 21
-730.180450094816
 31
0.0
 11
-702.0622936379611
 21
-729.4924434815713
 31
0.0
 11
-701.234472881496
 21
-730.2206030155253
 31
0.0
 11
-701.400037238023
 21
-732.4050796283495
 31
0.0
 11
-702.7128991361461
 21
-737.084381298752
 31
0.0
  0
SPLINE
  5
9198
330
9170
100
AcDbEntity
  8
0
100
AcDbSpline
210
0.0
220
0.0
230
1.0
 70
     8
 71
     3
 72
    14
 73
    10
 74
     8
 42
0.0000000001
 43
0.0000000001
 44
0.0000000001
 40
0.0
 40
0.0
 40
0.0
 40
0.0
 40
1.616249019462185
 40
3.707994073080993
 40
5.186416983925939
 40
6.583806578592186
 40
8.064021688450358
 40
10.33069213828065
 40
12.11172883597673
 40
12.11172883597673
 40
12.11172883597673
 40
12.11172883597673
 10
-695.7904518855821
 20
-732.2305092409144
 30
0.0
 10
-695.5383712984735
 20
-731.7583745677386
 30
0.0
 10
-694.9600487060497
 20
-730.675204493851
 30
0.0
 10
-694.9425473727906
 20
-728.6894988675721
 30
0.0
 10
-696.4125365332634
 20
-727.6400560184709
 30
0.0
 10
-698.2513865094463
 20
-727.9497430337459
 30
0.0
 10
-697.9489832204198
 20
-730.0186189126911
 30
0.0
 10
-699.1343176791938
 20
-731.5092205465275
 30
0.0
 10
-700.0317552051743
 20
-732.5067785763803
 30
0.0
 10
-700.4266378163431
 20
-732.9457153360062
 30
0.0
 11
-695.7904518855821
 21
-732.2305092409144
 31
0.0
 11
-695.1417103078528
 21
-730.7501730432087
 31
0.0
 11
-695.3072736382096
 21
-728.6649905205072
 31
0.0
 11
-696.5324490555738
 21
-727.8375368964304
 31
0.0
 11
-697.8900753424575
 21
-728.1685180808562
 31
0.0
 11
-698.1549781076668
 21
-729.6248364857515
 31
0.0
 11
-699.2477016293412
 21
-731.6107242553179
 31
0.0
 11
-700.4266378163431
 21
-732.9457153360062
 31
0.0
  0
SPLINE
  5
9199
330
9170
100
AcDbEntity
  8
0
100
AcDbSpline
210
0.0
220
0.0
230
1.0
 70
     8
 71
     3
 72
    10
 73
     6
 74
     4
 42
0.0000000001
 43
0.0000000001
 44
0.0000000001
 40
0.0
 40
0.0
 40
0.0
 40
0.0
 40
1.479824385810197
 40
3.904254686051078
 40
4.940743908642868
 40
4.940743908642868
 40
4.940743908642868
 40
4.940743908642868
 10
-703.9836922461464
 20
-730.180450094816
 30
0.0
 10
-703.9498432217619
 20
-730.6720618522998
 30
0.0
 10
-703.860538562818
 20
-731.9690924501724
 30
0.0
 10
-703.9152278317723
 20
-733.6341248786884
 30
0.0
 10
-704.2118333191417
 20
-734.7505437097738
 30
0.0
 10
-704.3006618483787
 20
-735.0848930289895
 30
0.0
 11
-703.9836922461464
 21
-730.180450094816
 31
0.0
 11
-703.9011834989151
 21
-731.657972520862
 31
0.0
 11
-704.0573430053251
 21
-734.0773684143205
 31
0.0
 11
-704.3006618483787
 21
-735.0848930289895
 31
0.0
  0
SPLINE
  5
919A
330
9170
100
AcDbEntity
  8
0
100
AcDbSpline
210
0.0
220
0.0
230
1.0
 70
     8
 71
     3
 72
    16
 73
    12
 74
    10
 42
0.0000000001
 43
0.0000000001
 44
0.0000000001
 40
0.0
 40
0.0
 40
0.0
 40
0.0
 40
2.888062057242898
 40
4.418596659367755
 40
7.107557606143862
 40
10.42352644764108
 40
13.27323915810779
 40
15.9233898887075
 40
16.79020826756549
 40
18.28469741033268
 40
19.23936926894726
 40
19.23936926894726
 40
19.23936926894726
 40
19.23936926894726
 10
-710.983692246138
 20
-747.1804500948118
 30
0.0
 10
-711.0796035102556
 20
-745.9270648711195
 30
0.0
 10
-711.2263431518652
 20
-744.0094454943407
 30
0.0
 10
-708.4067142317707
 20
-744.3888374437968
 30
0.0
 10
-706.3817295803357
 20
-742.8527463509226
 30
0.0
 10
-704.043937022714
 20
-740.7162125740492
 30
0.0
 10
-703.7421157587019
 20
-737.9629637782163
 30
0.0
 10
-705.7544820623065
 20
-734.8008224654947
 30
0.0
 10
-703.7223333287579
 20
-735.1672099824603
 30
0.0
 10
-702.8096435891167
 20
-735.9169085416253
 30
0.0
 10
-702.7400330203664
 20
-736.756940606811
 30
0.0
 10
-702.7128991361462
 20
-737.0843812987514
 30
0.0
 11
-710.983692246138
 21
-747.1804500948118
 31
0.0
 11
-710.4598776372888
 21
-744.3402880040074
 31
0.0
 11
-708.9373232194178
 21
-744.1841976041648
 31
0.0
 11
-706.5558930555465
 21
-742.9354777204876
 31
0.0
 11
-704.3306223980854
 21
-740.4770595585747
 31
0.0
 11
-704.2525421317953
 21
-737.6284167230807
 31
0.0
 11
-704.8771801574357
 21
-735.0529310927923
 31
0.0
 11
-704.0183033852652
 21
-735.1699985611678
 31
0.0
 11
-702.8861482465046
 21
-736.1455612396396
 31
0.0
 11
-702.7128991361462
 21
-737.0843812987514
 31
0.0
  0
SPLINE
  5
919B
330
9170
100
AcDbEntity
  8
0
100
AcDbSpline
210
0.0
220
0.0
230
1.0
 70
     8
 71
     3
 72
    12
 73
     8
 74
     6
 42
0.0000000001
 43
0.0000000001
 44
0.0000000001
 40
0.0
 40
0.0
 40
0.0
 40
0.0
 40
0.5943903853100636
 40
2.088880305455951
 40
5.155437448708925
 40
10.41714159291228
 40
14.31443220141752
 40
14.31443220141752
 40
14.31443220141752
 40
14.31443220141752
 10
-705.9836922461625
 20
-745.1804500948144
 30
0.0
 10
-706.1359399118336
 20
-745.0122240855781
 30
0.0
 10
-706.6709875139345
 20
-744.4210234096519
 30
0.0
 10
-704.3708914085933
 20
-743.4410350074207
 30
0.0
 10
-702.3399980995947
 20
-741.0936520894686
 30
0.0
 10
-703.3477956788161
 20
-736.3789173923017
 30
0.0
 10
-701.2986010729977
 20
-733.9705233699089
 30
0.0
 10
-700.4266378163431
 20
-732.9457153360062
 30
0.0
 11
-705.9836922461625
 21
-745.1804500948144
 31
0.0
 11
-706.3216543090164
 21
-744.6914904091341
 31
0.0
 11
-705.1894981440857
 21
-743.7159277306624
 31
0.0
 11
-703.1203869930346
 21
-741.4526222370465
 31
0.0
 11
-702.5347896136244
 21
-736.2236064395609
 31
0.0
 11
-700.4266378163431
 21
-732.9457153360062
 31
0.0
  0
LINE
  5
919C
330
9170
100
AcDbEntity
  8
0
100
AcDbLine
 10
-689.7790600268217
 20
-728.1404794993505
 30
0.0
 11
-691.538577875261
 21
-725.1830331080395
 31
0.0
  0
LINE
  5
919D
330
9170
100
AcDbEntity
  8
0
100
AcDbLine
 10
-694.9836922461462
 20
-724.180450094816
 30
0.0
 11
-691.7808933779536
 21
-729.285495270922
 31
0.0
  0
ARC
  5
919E
330
9170
100
AcDbEntity
  8
0
100
AcDbCircle
 10
-699.8022394716063
 20
-736.9526292566259
 30
0.0
 40
6.230463666693061
100
AcDbArc
 50
268.3311116226391
 51
339.0490234293202
  0
ARC
  5
919F
330
9170
100
AcDbEntity
  8
0
100
AcDbCircle
 10
-705.2212634302202
 20
-737.4677365425942
 30
0.0
 40
7.750306318977337
100
AcDbArc
 50
264.3544527988185
 51
312.5154448470236
  0
ARC
  5
91A0
330
9170
100
AcDbEntity
  8
0
100
AcDbCircle
 10
-709.6380329598868
 20
-743.2945983104652
 30
0.0
 40
4.112255221242866
100
AcDbArc
 50
250.8991776494632
 51
332.7036413232441
  0
SPLINE
  5
91A1
330
9170
100
AcDbEntity
  8
0
100
AcDbSpline
210
0.0
220
0.0
230
1.0
 70
     8
 71
     3
 72
    12
 73
     8
 74
     6
 42
0.0000000001
 43
0.0000000001
 44
0.0000000001
 40
0.0
 40
0.0
 40
0.0
 40
0.0
 40
2.156617412490639
 40
4.620851574475462
 40
7.567759294467293
 40
10.00036938625909
 40
16.09212072105464
 40
16.09212072105464
 40
16.09212072105464
 40
16.09212072105464
 10
-703.9836922461464
 20
-730.180450094816
 30
0.0
 10
-704.1053915700014
 20
-729.4421623848473
 30
0.0
 10
-704.3661492310453
 20
-727.8602786871336
 30
0.0
 10
-706.6519189270718
 20
-726.3747814617991
 30
0.0
 10
-710.5176571293053
 20
-727.5893553235767
 30
0.0
 10
-706.9203641934108
 20
-731.1864629372587
 30
0.0
 10
-706.8794274160364
 20
-733.9760569765416
 30
0.0
 10
-706.8501728295949
 20
-735.9695802871955
 30
0.0
 11
-703.9836922461464
 21
-730.180450094816
 31
0.0
 11
-704.5960024464489
 21
-728.1125828644398
 31
0.0
 11
-706.7202528925283
 21
-726.8635792425779
 31
0.0
 11
-709.4692814317006
 21
-727.9252322937036
 31
0.0
 11
-708.2822006750348
 21
-730.0485389450946
 31
0.0
 11
-706.8501728295949
 21
-735.9695802871955
 31
0.0
  0
ARC
  5
91A2
330
9170
100
AcDbEntity
  8
0
100
AcDbCircle
 10
-694.0104270961227
 20
-735.3903478198516
 30
0.0
 40
11.25206879013849
100
AcDbArc
 50
94.96208795969991
 51
152.4180470922585
  0
ARC
  5
91A3
330
9170
100
AcDbEntity
  8
0
100
AcDbCircle
 10
-661.9836922461464
 20
-722.1804500948159
 30
0.0
 40
10.0
100
AcDbArc
 50
36.86989764584402
 51
90.0
  0
LINE
  5
91A4
330
9170
100
AcDbEntity
  8
0
100
AcDbLine
 10
-653.9836922461464
 20
-716.180450094816
 30
0.0
 11
-654.3650553121641
 21
-722.4037176628769
 31
0.0
  0
LINE
  5
91A5
330
9170
100
AcDbEntity
  8
0
100
AcDbLine
 10
-646.7881129716784
 20
-723.4153830147514
 30
0.0
 11
-645.3612334300798
 21
-717.699768224504
 31
0.0
  0
LINE
  5
91A6
330
9170
100
AcDbEntity
  8
0
100
AcDbLine
 10
-645.4371741142402
 20
-723.7282874532821
 30
0.0
 11
-644.0393835419388
 21
-718.8448625568685
 31
0.0
  0
LINE
  5
91A7
330
9170
100
AcDbEntity
  8
0
100
AcDbLine
 10
-644.2765754932309
 20
-724.0307928659797
 30
0.0
 11
-643.0700272309475
 21
-719.901873015826
 31
0.0
  0
LINE
  5
91A8
330
9170
100
AcDbEntity
  8
0
100
AcDbLine
 10
-651.6815128961515
 20
-722.6266280878961
 30
0.0
 11
-651.2927582981768
 21
-718.3426337250653
 31
0.0
  0
LINE
  5
91A9
330
9170
100
AcDbEntity
  8
0
100
AcDbLine
 10
-650.4907390403015
 20
-722.770002799838
 30
0.0
 11
-650.0037361339372
 21
-717.7138693589446
 31
0.0
  0
LINE
  5
91AA
330
9170
100
AcDbEntity
  8
0
100
AcDbLine
 10
-649.1190313154291
 20
-722.9733815148343
 30
0.0
 11
-648.3544439264638
 21
-717.1321792600444
 31
0.0
  0
LINE
  5
91AB
330
9170
100
AcDbEntity
  8
0
100
AcDbLine
 10
-646.6830822920504
 20
-716.5546738921396
 30
0.0
 11
-647.9507538112324
 21
-723.1795196398747
 31
0.0
  0
LINE
  5
91AC
330
9170
100
AcDbEntity
  8
0
100
AcDbLine
 10
-658.2121884072161
 20
-722.2682402790899
 30
0.0
 11
-657.964909427752
 21
-717.9737564981766
 31
0.0
  0
LINE
  5
91AD
330
9170
100
AcDbEntity
  8
0
100
AcDbLine
 10
-659.4110862635841
 20
-722.2344377082365
 30
0.0
 11
-659.1471099720278
 21
-717.1617684187575
 31
0.0
  0
LINE
  5
91AE
330
9170
100
AcDbEntity
  8
0
100
AcDbLine
 10
-660.7977887152023
 20
-722.2332997871586
 30
0.0
 11
-660.6925835652998
 21
-716.3432089955695
 31
0.0
  0
LINE
  5
91AF
330
9170
100
AcDbEntity
  8
0
100
AcDbLine
 10
-661.9836922461464
 20
-715.5198514446501
 30
0.0
 11
-661.9836922461463
 21
-722.2648920124917
 31
0.0
  0
ARC
  5
91B0
330
9170
100
AcDbEntity
  8
0
100
AcDbCircle
 10
-661.9836922461464
 20
-722.1804500948159
 30
0.0
 40
9.0
100
AcDbArc
 50
28.66592127874349
 51
90.0
  0
ARC
  5
91B1
330
9170
100
AcDbEntity
  8
0
100
AcDbCircle
 10
-661.9836922461464
 20
-722.1804500948159
 30
0.0
 40
9.0
100
AcDbArc
 50
90.0
 51
151.3340787212565
  0
ARC
  5
91B2
330
9170
100
AcDbEntity
  8
0
100
AcDbCircle
 10
-675.6023933121399
 20
-724.1265117868464
 30
0.0
 40
8.731890776336816
100
AcDbArc
 50
49.24594453117594
 51
155.4528789859333
  0
LINE
  5
91B3
330
9170
100
AcDbEntity
  8
0
100
AcDbLine
 10
-684.3152299044609
 20
-725.592733594761
 30
0.0
 11
-685.4496909333296
 21
-722.3438275649666
 31
0.0
  0
LINE
  5
91B4
330
9170
100
AcDbEntity
  8
0
100
AcDbLine
 10
-686.2363675355991
 20
-726.3599506880475
 30
0.0
 11
-687.965193717535
 21
-721.975675134098
 31
0.0
  0
LINE
  5
91B5
330
9170
100
AcDbEntity
  8
0
100
AcDbLine
 10
-685.2114264978153
 20
-725.9354737641199
 30
0.0
 11
-686.5722288998748
 21
-722.1064690066898
 31
0.0
  0
LINE
  5
91B6
330
9170
100
AcDbEntity
  8
0
100
AcDbLine
 10
-689.3581578671716
 20
-721.8448807843472
 30
0.0
 11
-687.1029056781572
 21
-726.7470235619002
 31
0.0
  0
LINE
  5
91B7
330
9170
100
AcDbEntity
  8
0
100
AcDbLine
 10
-665.7551960850768
 20
-722.2682402790899
 30
0.0
 11
-666.0024750645407
 21
-717.9737564981766
 31
0.0
  0
LINE
  5
91B8
330
9170
100
AcDbEntity
  8
0
100
AcDbLine
 10
-664.5562982287088
 20
-722.2344377082365
 30
0.0
 11
-664.8202745202651
 21
-717.1617684187575
 31
0.0
  0
LINE
  5
91B9
330
9170
100
AcDbEntity
  8
0
100
AcDbLine
 10
-663.1695957770905
 20
-722.2332997871586
 30
0.0
 11
-663.274800926993
 21
-716.3432089955695
 31
0.0
  0
LINE
  5
91BA
330
9170
100
AcDbEntity
  8
0
100
AcDbLine
 10
-661.9836922461464
 20
-715.5198514446501
 30
0.0
 11
-661.9836922461465
 21
-722.2648920124917
 31
0.0
  0
LINE
  5
91BB
330
9170
100
AcDbEntity
  8
0
100
AcDbLine
 10
-674.8483531768638
 20
-722.9733815148343
 30
0.0
 11
-675.6129405658291
 21
-717.1321792600444
 31
0.0
  0
LINE
  5
91BC
330
9170
100
AcDbEntity
  8
0
100
AcDbLine
 10
-673.4766454519913
 20
-722.770002799838
 30
0.0
 11
-673.9636483583557
 21
-717.7138693589446
 31
0.0
  0
LINE
  5
91BD
330
9170
100
AcDbEntity
  8
0
100
AcDbLine
 10
-672.2858715961414
 20
-722.6266280878961
 30
0.0
 11
-672.674626194116
 21
-718.3426337250653
 31
0.0
  0
LINE
  5
91BE
330
9170
100
AcDbEntity
  8
0
100
AcDbLine
 10
-679.690808999062
 20
-724.0307928659797
 30
0.0
 11
-680.8973572613454
 21
-719.901873015826
 31
0.0
  0
LINE
  5
91BF
330
9170
100
AcDbEntity
  8
0
100
AcDbLine
 10
-678.5302103780526
 20
-723.7282874532821
 30
0.0
 11
-679.928000950354
 21
-718.8448625568685
 31
0.0
  0
LINE
  5
91C0
330
9170
100
AcDbEntity
  8
0
100
AcDbLine
 10
-677.1792715206145
 20
-723.4153830147514
 30
0.0
 11
-678.6061510622131
 21
-717.699768224504
 31
0.0
  0
LINE
  5
91C1
330
9170
100
AcDbEntity
  8
0
100
AcDbLine
 10
-677.2843022002424
 20
-716.5546738921396
 30
0.0
 11
-676.0166306810605
 21
-723.1795196398747
 31
0.0
  0
LINE
  5
91C2
330
9170
100
AcDbEntity
  8
0
100
AcDbLine
 10
-683.9836922461464
 20
-719.180450094816
 30
0.0
 11
-682.1247251004175
 21
-724.7687127621125
 31
0.0
  0
LINE
  5
91C3
330
9170
100
AcDbEntity
  8
0
100
AcDbLine
 10
-669.9836922461464
 20
-716.180450094816
 30
0.0
 11
-669.6023291801288
 21
-722.4037176628769
 31
0.0
  0
ARC
  5
91C4
330
9170
100
AcDbEntity
  8
0
100
AcDbCircle
 10
-675.6023933121399
 20
-724.1265117868464
 30
0.0
 40
9.731890776336816
100
AcDbArc
 50
54.73567300214846
 51
149.4538411518757
  0
ARC
  5
91C5
330
9170
100
AcDbEntity
  8
0
100
AcDbCircle
 10
-661.9836922461464
 20
-722.1804500948159
 30
0.0
 40
10.0
100
AcDbArc
 50
90.0
 51
143.130102354156
  0
ARC
  5
91C6
330
9170
100
AcDbEntity
  8
0
100
AcDbCircle
 10
-543.5092150049452
 20
-747.1123894046859
 30
0.0
 40
22.93796012468358
100
AcDbArc
 50
53.59808255333054
 51
132.4248868125563
  0
SPLINE
  5
91C7
330
9170
100
AcDbEntity
  8
0
100
AcDbSpline
210
0.0
220
0.0
230
1.0
 70
     8
 71
     3
 72
    13
 73
     9
 74
     7
 42
0.0000000001
 43
0.0000000001
 44
0.0000000001
 40
0.0
 40
0.0
 40
0.0
 40
0.0
 40
8.116997916245225
 40
15.0033706616085
 40
20.90297564413377
 40
23.22679164972981
 40
24.43865290610328
 40
26.16566611204689
 40
26.16566611204689
 40
26.16566611204689
 40
26.16566611204689
 10
-535.9836922461466
 20
-732.1804500948159
 30
0.0
 10
-538.6126597304512
 20
-731.5370816648817
 30
0.0
 10
-543.4720146337456
 20
-730.3478864567668
 30
0.0
 10
-550.9439200548747
 20
-732.3782123905134
 30
0.0
 10
-553.0593271217589
 20
-737.5259821262805
 30
0.0
 10
-553.345538812371
 20
-740.5759488383311
 30
0.0
 10
-554.2660921820631
 20
-742.2890084477505
 30
0.0
 10
-555.3479465522713
 20
-742.2206314541764
 30
0.0
 10
-555.9836922461464
 20
-742.180450094816
 30
0.0
 11
-535.9836922461466
 21
-732.1804500948159
 31
0.0
 11
-544.0180239012947
 21
-731.0249545182703
 31
0.0
 11
-550.490127210552
 21
-733.3774018274319
 31
0.0
 11
-553.0957793688088
 21
-738.6704081357607
 31
0.0
 11
-553.6000993058762
 21
-740.9388398030015
 31
0.0
 11
-554.2725258886328
 21
-741.9470313500308
 31
0.0
 11
-555.9836922461464
 21
-742.180450094816
 31
0.0
  0
SPLINE
  5
91C8
330
9170
100
AcDbEntity
  8
0
100
AcDbSpline
210
0.0
220
0.0
230
1.0
 70
     8
 71
     3
 72
    14
 73
    10
 74
     8
 42
0.0000000001
 43
0.0000000001
 44
0.0000000001
 40
0.0
 40
0.0
 40
0.0
 40
0.0
 40
5.822841824711453
 40
14.13876367154134
 40
21.38678273078042
 40
25.97466836637905
 40
29.57663951975794
 40
31.45662506540098
 40
33.64214027022013
 40
33.64214027022013
 40
33.64214027022013
 40
33.64214027022013
 10
-554.4567794075451
 20
-738.8720802721776
 30
0.0
 10
-554.0229580392205
 20
-736.8997547023225
 30
0.0
 10
-552.9695724266531
 20
-732.1106421083356
 30
0.0
 10
-545.5526575916123
 20
-728.7186689240502
 30
0.0
 10
-539.0339913992651
 20
-728.7208261973926
 30
0.0
 10
-533.6785620245898
 20
-728.2255601801279
 30
0.0
 10
-530.7634606602009
 20
-729.997064324287
 30
0.0
 10
-528.7917161094689
 20
-731.9571787516424
 30
0.0
 10
-529.154618696406
 20
-733.37580083275
 30
0.0
 10
-529.3497063794001
 20
-734.1384178677611
 30
0.0
 11
-554.4567794075451
 21
-738.8720802721776
 31
0.0
 11
-552.5023363068767
 21
-733.3870425255565
 31
0.0
 11
-545.2859325158149
 21
-729.2544800654199
 31
0.0
 11
-538.0695287247529
 21
-728.5782429713174
 31
0.0
 11
-533.4841048539255
 21
-728.7285178201024
 31
0.0
 11
-530.3414845934723
 21
-730.4886695432111
 31
0.0
 11
-529.1714465308727
 21
-731.9601846073185
 31
0.0
 11
-529.3497063794001
 21
-734.1384178677611
 31
0.0
  0
ARC
  5
91C9
330
9170
100
AcDbEntity
  8
0
100
AcDbCircle
 10
-591.6683127709015
 20
-714.992349421554
 30
0.0
 40
30.19586275505148
100
AcDbArc
 50
219.4537113870708
 51
313.1723213970807
  0
ARC
  5
91CA
330
9170
100
AcDbEntity
  8
0
100
AcDbCircle
 10
-592.0260651275023
 20
-705.8499416202395
 30
0.0
 40
46.34040424091239
100
AcDbArc
 50
243.1116179306251
 51
304.1928276299878
  0
SPLINE
  5
91CB
330
9170
100
AcDbEntity
  8
0
100
AcDbSpline
210
0.0
220
0.0
230
1.0
 70
     8
 71
     3
 72
    17
 73
    13
 74
    11
 42
0.0000000001
 43
0.0000000001
 44
0.0000000001
 40
0.0
 40
0.0
 40
0.0
 40
0.0
 40
1.916710251133875
 40
4.233310435903876
 40
12.24298197757883
 40
25.43317982045675
 40
37.42217790317642
 40
50.65745951098718
 40
60.26258196766237
 40
62.19199977028004
 40
64.63491304714795
 40
65.72847570917665
 40
65.72847570917665
 40
65.72847570917665
 40
65.72847570917665
 10
-566.9836922461464
 20
-733.180450094816
 30
0.0
 10
-566.5397713835585
 20
-733.7073744307716
 30
0.0
 10
-565.5593129030988
 20
-734.8711571616315
 30
0.0
 10
-567.5059771155436
 20
-739.0662474236257
 30
0.0
 10
-573.7830377965783
 20
-743.6549032283044
 30
0.0
 10
-584.1673125805748
 20
-748.2761616464026
 30
0.0
 10
-597.3268945200376
 20
-748.1982103220254
 30
0.0
 10
-608.2513237003856
 20
-745.0006509781608
 30
0.0
 10
-616.0145206009085
 20
-739.9453747111963
 30
0.0
 10
-617.4126651517537
 20
-735.7203777526265
 30
0.0
 10
-616.31557084379
 20
-732.9686263819063
 30
0.0
 10
-615.2982668815386
 20
-733.8942310630493
 30
0.0
 10
-614.9836922461465
 20
-734.180450094816
 30
0.0
 11
-566.9836922461464
 21
-733.180450094816
 31
0.0
 11
-565.99090962383
 21
-734.8200112713593
 31
0.0
 11
-566.6568512796104
 21
-737.0388303552805
 31
0.0
 11
-572.5393327892796
 21
-742.4749364519197
 31
0.0
 11
-584.7482574790886
 21
-747.4672782924626
 31
0.0
 11
-596.7352021835872
 21
-747.6891604205107
 31
0.0
 11
-609.3880876939415
 21
-743.8062275727884
 31
0.0
 11
-616.7134425078268
 21
-737.593534577121
 31
0.0
 11
-617.1052432469803
 21
-735.7043164219423
 31
0.0
 11
-615.8980155468606
 21
-733.5805399369136
 31
0.0
 11
-614.9836922461465
 21
-734.180450094816
 31
0.0
  0
LINE
  5
91CC
330
9170
100
AcDbEntity
  8
0
100
AcDbLine
 10
-634.6092266251211
 20
-721.8448807843472
 30
0.0
 11
-636.8644788141357
 21
-726.7470235619002
 31
0.0
  0
LINE
  5
91CD
330
9170
100
AcDbEntity
  8
0
100
AcDbLine
 10
-639.652154587832
 20
-725.592733594761
 30
0.0
 11
-638.5176935589632
 21
-722.3438275649666
 31
0.0
  0
LINE
  5
91CE
330
9170
100
AcDbEntity
  8
0
100
AcDbLine
 10
-637.7310169566937
 20
-726.3599506880475
 30
0.0
 11
-636.0021907747579
 21
-721.975675134098
 31
0.0
  0
LINE
  5
91CF
330
9170
100
AcDbEntity
  8
0
100
AcDbLine
 10
-638.7559579944776
 20
-725.9354737641199
 30
0.0
 11
-637.395155592418
 21
-722.1064690066898
 31
0.0
  0
ARC
  5
91D0
330
9170
100
AcDbEntity
  8
0
100
AcDbCircle
 10
-629.9569573961702
 20
-735.3903478198516
 30
0.0
 40
11.25206879013849
100
AcDbArc
 50
27.58195290774151
 51
85.0379120403001
  0
ARC
  5
91D1
330
9170
100
AcDbEntity
  8
0
100
AcDbCircle
 10
-614.329351532406
 20
-743.2945983104652
 30
0.0
 40
4.112255221242866
100
AcDbArc
 50
207.2963586767559
 51
289.1008223505368
  0
ARC
  5
91D2
330
9170
100
AcDbEntity
  8
0
100
AcDbCircle
 10
-618.7461210620726
 20
-737.4677365425942
 30
0.0
 40
7.750306318977337
100
AcDbArc
 50
227.4845551529764
 51
275.6455472011814
  0
ARC
  5
91D3
330
9170
100
AcDbEntity
  8
0
100
AcDbCircle
 10
-624.1651450206866
 20
-736.9526292566259
 30
0.0
 40
6.230463666693061
100
AcDbArc
 50
200.9509765706798
 51
271.6688883773609
  0
SPLINE
  5
91D4
330
9170
100
AcDbEntity
  8
0
100
AcDbSpline
210
0.0
220
0.0
230
1.0
 70
     8
 71
     3
 72
    12
 73
     8
 74
     6
 42
0.0000000001
 43
0.0000000001
 44
0.0000000001
 40
0.0
 40
0.0
 40
0.0
 40
0.0
 40
2.156617412490639
 40
4.620851574475462
 40
7.567759294467293
 40
10.00036938625909
 40
16.09212072105464
 40
16.09212072105464
 40
16.09212072105464
 40
16.09212072105464
 10
-619.9836922461464
 20
-730.180450094816
 30
0.0
 10
-619.8619929222914
 20
-729.4421623848473
 30
0.0
 10
-619.6012352612473
 20
-727.8602786871336
 30
0.0
 10
-617.3154655652215
 20
-726.3747814617991
 30
0.0
 10
-613.4497273629872
 20
-727.5893553235767
 30
0.0
 10
-617.0470202988824
 20
-731.1864629372587
 30
0.0
 10
-617.0879570762565
 20
-733.9760569765416
 30
0.0
 10
-617.1172116626979
 20
-735.9695802871955
 30
0.0
 11
-619.9836922461464
 21
-730.180450094816
 31
0.0
 11
-619.371382045844
 21
-728.1125828644398
 31
0.0
 11
-617.2471315997645
 21
-726.8635792425779
 31
0.0
 11
-614.4981030605923
 21
-727.9252322937036
 31
0.0
 11
-615.6851838172581
 21
-730.0485389450946
 31
0.0
 11
-617.1172116626979
 21
-735.9695802871955
 31
0.0
  0
LINE
  5
91D5
330
9170
100
AcDbEntity
  8
0
100
AcDbLine
 10
-628.9836922461467
 20
-724.180450094816
 30
0.0
 11
-632.1864911143393
 21
-729.285495270922
 31
0.0
  0
LINE
  5
91D6
330
9170
100
AcDbEntity
  8
0
100
AcDbLine
 10
-634.1883244654711
 20
-728.1404794993505
 30
0.0
 11
-632.4288066170319
 21
-725.1830331080395
 31
0.0
  0
SPLINE
  5
91D7
330
9170
100
AcDbEntity
  8
0
100
AcDbSpline
210
0.0
220
0.0
230
1.0
 70
     8
 71
     3
 72
    12
 73
     8
 74
     6
 42
0.0000000001
 43
0.0000000001
 44
0.0000000001
 40
0.0
 40
0.0
 40
0.0
 40
0.0
 40
0.5943903853100636
 40
2.088880305455951
 40
5.155437448708925
 40
10.41714159291228
 40
14.31443220141752
 40
14.31443220141752
 40
14.31443220141752
 40
14.31443220141752
 10
-617.9836922461304
 20
-745.1804500948144
 30
0.0
 10
-617.8314445804593
 20
-745.0122240855781
 30
0.0
 10
-617.2963969783584
 20
-744.4210234096519
 30
0.0
 10
-619.5964930836993
 20
-743.4410350074207
 30
0.0
 10
-621.627386392698
 20
-741.0936520894686
 30
0.0
 10
-620.6195888134771
 20
-736.3789173923017
 30
0.0
 10
-622.668783419295
 20
-733.9705233699089
 30
0.0
 10
-623.5407466759498
 20
-732.9457153360062
 30
0.0
 11
-617.9836922461304
 21
-745.1804500948144
 31
0.0
 11
-617.6457301832764
 21
-744.6914904091341
 31
0.0
 11
-618.7778863482072
 21
-743.7159277306624
 31
0.0
 11
-620.8469974992582
 21
-741.4526222370465
 31
0.0
 11
-621.4325948786685
 21
-736.2236064395609
 31
0.0
 11
-623.5407466759498
 21
-732.9457153360062
 31
0.0
  0
SPLINE
  5
91D8
330
9170
100
AcDbEntity
  8
0
100
AcDbSpline
210
0.0
220
0.0
230
1.0
 70
     8
 71
     3
 72
    16
 73
    12
 74
    10
 42
0.0000000001
 43
0.0000000001
 44
0.0000000001
 40
0.0
 40
0.0
 40
0.0
 40
0.0
 40
2.888062057242898
 40
4.418596659367755
 40
7.107557606143862
 40
10.42352644764108
 40
13.27323915810779
 40
15.9233898887075
 40
16.79020826756549
 40
18.28469741033268
 40
19.23936926894726
 40
19.23936926894726
 40
19.23936926894726
 40
19.23936926894726
 10
-612.9836922461548
 20
-747.1804500948118
 30
0.0
 10
-612.8877809820372
 20
-745.9270648711195
 30
0.0
 10
-612.7410413404277
 20
-744.0094454943407
 30
0.0
 10
-615.560670260522
 20
-744.3888374437968
 30
0.0
 10
-617.5856549119571
 20
-742.8527463509226
 30
0.0
 10
-619.9234474695786
 20
-740.7162125740492
 30
0.0
 10
-620.2252687335909
 20
-737.9629637782163
 30
0.0
 10
-618.2129024299865
 20
-734.8008224654947
 30
0.0
 10
-620.245051163535
 20
-735.1672099824603
 30
0.0
 10
-621.1577409031761
 20
-735.9169085416253
 30
0.0
 10
-621.2273514719264
 20
-736.756940606811
 30
0.0
 10
-621.2544853561467
 20
-737.0843812987514
 30
0.0
 11
-612.9836922461548
 21
-747.1804500948118
 31
0.0
 11
-613.507506855004
 21
-744.3402880040074
 31
0.0
 11
-615.030061272875
 21
-744.1841976041648
 31
0.0
 11
-617.4114914367463
 21
-742.9354777204876
 31
0.0
 11
-619.6367620942075
 21
-740.4770595585747
 31
0.0
 11
-619.7148423604976
 21
-737.6284167230807
 31
0.0
 11
-619.0902043348572
 21
-735.0529310927923
 31
0.0
 11
-619.9490811070277
 21
-735.1699985611678
 31
0.0
 11
-621.0812362457883
 21
-736.1455612396396
 31
0.0
 11
-621.2544853561467
 21
-737.0843812987514
 31
0.0
  0
SPLINE
  5
91D9
330
9170
100
AcDbEntity
  8
0
100
AcDbSpline
210
0.0
220
0.0
230
1.0
 70
     8
 71
     3
 72
    10
 73
     6
 74
     4
 42
0.0000000001
 43
0.0000000001
 44
0.0000000001
 40
0.0
 40
0.0
 40
0.0
 40
0.0
 40
1.479824385810197
 40
3.904254686051078
 40
4.940743908642868
 40
4.940743908642868
 40
4.940743908642868
 40
4.940743908642868
 10
-619.9836922461464
 20
-730.180450094816
 30
0.0
 10
-620.0175412705312
 20
-730.6720618522998
 30
0.0
 10
-620.106845929475
 20
-731.9690924501724
 30
0.0
 10
-620.0521566605207
 20
-733.6341248786884
 30
0.0
 10
-619.7555511731509
 20
-734.7505437097738
 30
0.0
 10
-619.666722643914
 20
-735.0848930289895
 30
0.0
 11
-619.9836922461464
 21
-730.180450094816
 31
0.0
 11
-620.0662009933778
 21
-731.657972520862
 31
0.0
 11
-619.9100414869677
 21
-734.0773684143205
 31
0.0
 11
-619.666722643914
 21
-735.0848930289895
 31
0.0
  0
SPLINE
  5
91DA
330
9170
100
AcDbEntity
  8
0
100
AcDbSpline
210
0.0
220
0.0
230
1.0
 70
     8
 71
     3
 72
    14
 73
    10
 74
     8
 42
0.0000000001
 43
0.0000000001
 44
0.0000000001
 40
0.0
 40
0.0
 40
0.0
 40
0.0
 40
1.616249019462185
 40
3.707994073080993
 40
5.186416983925939
 40
6.583806578592186
 40
8.064021688450358
 40
10.33069213828065
 40
12.11172883597673
 40
12.11172883597673
 40
12.11172883597673
 40
12.11172883597673
 10
-628.1769326067108
 20
-732.2305092409144
 30
0.0
 10
-628.4290131938194
 20
-731.7583745677386
 30
0.0
 10
-629.007335786243
 20
-730.675204493851
 30
0.0
 10
-629.0248371195023
 20
-728.6894988675721
 30
0.0
 10
-627.5548479590296
 20
-727.6400560184709
 30
0.0
 10
-625.7159979828464
 20
-727.9497430337459
 30
0.0
 10
-626.018401271873
 20
-730.0186189126911
 30
0.0
 10
-624.833066813099
 20
-731.5092205465275
 30
0.0
 10
-623.9356292871183
 20
-732.5067785763803
 30
0.0
 10
-623.5407466759498
 20
-732.9457153360062
 30
0.0
 11
-628.1769326067108
 21
-732.2305092409144
 31
0.0
 11
-628.8256741844401
 21
-730.7501730432087
 31
0.0
 11
-628.6601108540833
 21
-728.6649905205072
 31
0.0
 11
-627.4349354367191
 21
-727.8375368964304
 31
0.0
 11
-626.0773091498354
 21
-728.1685180808562
 31
0.0
 11
-625.8124063846261
 21
-729.6248364857515
 31
0.0
 11
-624.7196828629516
 21
-731.6107242553179
 31
0.0
 11
-623.5407466759498
 21
-732.9457153360062
 31
0.0
  0
SPLINE
  5
91DB
330
9170
100
AcDbEntity
  8
0
100
AcDbSpline
210
0.0
220
0.0
230
1.0
 70
     8
 71
     3
 72
    11
 73
     7
 74
     5
 42
0.0000000001
 43
0.0000000001
 44
0.0000000001
 40
0.0
 40
0.0
 40
0.0
 40
0.0
 40
2.040863962003581
 40
3.143362720153733
 40
5.334104518752635
 40
10.1940911942668
 40
10.1940911942668
 40
10.1940911942668
 40
10.1940911942668
 10
-619.9836922461464
 20
-730.180450094816
 30
0.0
 10
-620.6355685699207
 20
-729.7375273126139
 30
0.0
 10
-621.6395961643379
 20
-729.0553324248594
 30
0.0
 10
-623.2055759647703
 20
-730.4771215184286
 30
0.0
 10
-622.2154510544239
 20
-733.391445374655
 30
0.0
 10
-621.6465928350499
 20
-735.5775348030402
 30
0.0
 10
-621.2544853561468
 20
-737.084381298752
 30
0.0
 11
-619.9836922461464
 21
-730.180450094816
 31
0.0
 11
-621.9050908543318
 21
-729.4924434815713
 31
0.0
 11
-622.7329116107969
 21
-730.2206030155253
 31
0.0
 11
-622.5673472542698
 21
-732.4050796283495
 31
0.0
 11
-621.2544853561468
 21
-737.084381298752
 31
0.0
  0
LINE
  5
91DC
330
9170
100
AcDbEntity
  8
0
100
AcDbLine
 10
-625.9535047229276
 20
-728.39115591305
 30
0.0
 11
-625.3157133150448
 21
-727.1755738645667
 31
0.0
  0
LINE
  5
91DD
330
9170
100
AcDbEntity
  8
0
100
AcDbLine
 10
-627.0359857800559
 20
-727.8048682016581
 30
0.0
 11
-626.5077762715717
 21
-726.6791020879282
 31
0.0
  0
LINE
  5
91DE
330
9170
100
AcDbEntity
  8
0
100
AcDbLine
 10
-630.2151788520403
 20
-730.6085495261855
 30
0.0
 11
-628.163417784502
 21
-726.9438874332762
 31
0.0
  0
ARC
  5
91DF
330
9170
100
AcDbEntity
  8
0
100
AcDbCircle
 10
-629.9569573961702
 20
-735.3903478198516
 30
0.0
 40
10.25206879013849
100
AcDbArc
 50
35.45116030758218
 51
87.9418306849814
  0
SPLINE
  5
91E0
330
9170
100
AcDbEntity
  8
0
100
AcDbSpline
210
0.0
220
0.0
230
1.0
 70
     8
 71
     3
 72
     9
 73
     5
 74
     3
 42
0.0000000001
 43
0.0000000001
 44
0.0000000001
 40
0.0
 40
0.0
 40
0.0
 40
0.0
 40
2.639289966146095
 40
4.305398346152151
 40
4.305398346152151
 40
4.305398346152151
 40
4.305398346152151
 10
-622.6625093023503
 20
-732.1038706559963
 30
0.0
 10
-623.0101539000433
 20
-730.9716203711467
 30
0.0
 10
-623.5772566038597
 20
-729.1246128174677
 30
0.0
 10
-624.9047703626494
 20
-730.2481444322132
 30
0.0
 10
-625.4184932798493
 20
-730.6829300868787
 30
0.0
 11
-622.6625093023503
 21
-732.1038706559963
 31
0.0
 11
-623.9911994889985
 21
-729.8234246659968
 31
0.0
 11
-625.4184932798493
 21
-730.6829300868787
 31
0.0
  0
ARC
  5
91E1
330
9170
100
AcDbEntity
  8
0
100
AcDbCircle
 10
-638.5485811955901
 20
-730.6232057835917
 30
0.0
 40
11.53239790678582
100
AcDbArc
 50
33.96357537694697
 51
97.14851506221867
  0
SPLINE
  5
91E2
330
9170
100
AcDbEntity
  8
0
100
AcDbSpline
210
0.0
220
0.0
230
1.0
 70
     8
 71
     3
 72
    10
 73
     6
 74
     4
 42
0.0000000001
 43
0.0000000001
 44
0.0000000001
 40
0.0
 40
0.0
 40
0.0
 40
0.0
 40
2.06455834871851
 40
4.148867809526191
 40
6.206382350463639
 40
6.206382350463639
 40
6.206382350463639
 40
6.206382350463639
 10
-629.9836922461466
 20
-739.1804500948161
 30
0.0
 10
-630.6457748109919
 20
-739.3384180523741
 30
0.0
 10
-631.976273918581
 20
-739.6558652073339
 30
0.0
 10
-634.296852509281
 20
-739.1499419090252
 30
0.0
 10
-634.6894836371939
 20
-737.7177026460558
 30
0.0
 10
-634.8845291665464
 20
-737.00621584497
 30
0.0
 11
-629.9836922461466
 21
-739.1804500948161
 31
0.0
 11
-632.0246083760824
 21
-739.491998687865
 31
0.0
 11
-634.0141185281411
 21
-738.8705525652864
 31
0.0
 11
-634.8845291665464
 21
-737.00621584497
 31
0.0
  0
LINE
  5
91E3
330
9170
100
AcDbEntity
  8
0
100
AcDbLine
 10
-635.0269539369592
 20
-727.6742823659576
 30
0.0
 11
-632.9685572392616
 21
-724.1705609665337
 31
0.0
  0
LINE
  5
91E4
330
9170
100
AcDbEntity
  8
0
100
AcDbLine
 10
-636.0109538361793
 20
-727.1620041327532
 30
0.0
 11
-633.7637715080462
 21
-723.0194344369689
 31
0.0
  0
ARC
  5
91E5
330
9170
100
AcDbEntity
  8
0
100
AcDbCircle
 10
-638.5485811955901
 20
-730.6232057835917
 30
0.0
 40
10.53239790678582
100
AcDbArc
 50
31.52539838395026
 51
99.77867262533187
  0
SPLINE
  5
91E6
330
9170
100
AcDbEntity
  8
0
100
AcDbSpline
210
0.0
220
0.0
230
1.0
 70
     8
 71
     3
 72
     9
 73
     5
 74
     3
 42
0.0000000001
 43
0.0000000001
 44
0.0000000001
 40
0.0
 40
0.0
 40
0.0
 40
0.0
 40
2.877470050651697
 40
5.82941622791702
 40
5.82941622791702
 40
5.82941622791702
 40
5.82941622791702
 10
-571.0084582610654
 20
-737.0141690365247
 30
0.0
 10
-570.6478351677729
 20
-736.0692974296913
 30
0.0
 10
-569.9172551529693
 20
-734.1550985740243
 30
0.0
 10
-567.9698398857717
 20
-733.5080883039714
 30
0.0
 10
-566.9836922461464
 20
-733.180450094816
 30
0.0
 11
-571.0084582610654
 21
-737.0141690365247
 31
0.0
 11
-569.6301036058249
 21
-734.4883083244556
 31
0.0
 11
-566.9836922461464
 21
-733.180450094816
 31
0.0
  0
SPLINE
  5
91E7
330
9170
100
AcDbEntity
  8
0
100
AcDbSpline
210
0.0
220
0.0
230
1.0
 70
     8
 71
     3
 72
    13
 73
     9
 74
     7
 42
0.0000000001
 43
0.0000000001
 44
0.0000000001
 40
0.0
 40
0.0
 40
0.0
 40
0.0
 40
3.904928699421642
 40
7.475549275307056
 40
10.97488953589086
 40
12.98906783756846
 40
17.38908266178967
 40
21.25486557514051
 40
21.25486557514051
 40
21.25486557514051
 40
21.25486557514051
 10
-566.9836922461464
 20
-733.180450094816
 30
0.0
 10
-566.5384520302402
 20
-731.9293472615962
 30
0.0
 10
-565.6860894316996
 20
-729.5342508083379
 30
0.0
 10
-566.5245259004831
 20
-725.8298375317096
 30
0.0
 10
-564.7320498376144
 20
-722.8430694882637
 30
0.0
 10
-561.0016888196029
 20
-722.2248971864241
 30
0.0
 10
-559.5256859767816
 20
-726.3721407725792
 30
0.0
 10
-559.1564009939446
 20
-728.9669151458035
 30
0.0
 10
-558.9836922461464
 20
-730.180450094816
 30
0.0
 11
-566.9836922461464
 21
-733.180450094816
 31
0.0
 11
-566.036378056129
 21
-729.3921702776749
 31
0.0
 11
-566.036378056129
 21
-725.8215497017895
 31
0.0
 11
-564.0415099775098
 21
-722.9465047267937
 31
0.0
 11
-562.0466410489657
 21
-722.6682742667819
 31
0.0
 11
-559.680633715111
 21
-726.3780100726733
 31
0.0
 11
-558.9836922461464
 21
-730.180450094816
 31
0.0
  0
SPLINE
  5
91E8
330
9170
100
AcDbEntity
  8
0
100
AcDbSpline
210
0.0
220
0.0
230
1.0
 70
     8
 71
     3
 72
    13
 73
     9
 74
     7
 42
0.0000000001
 43
0.0000000001
 44
0.0000000001
 40
0.0
 40
0.0
 40
0.0
 40
0.0
 40
2.222921547711472
 40
4.101602944764024
 40
4.994877248371866
 40
7.307438615154044
 40
9.842555640159966
 40
11.5783926724816
 40
11.5783926724816
 40
11.5783926724816
 40
11.5783926724816
 10
-555.9836922461464
 20
-742.180450094816
 30
0.0
 10
-556.4686223124578
 20
-742.8318701776738
 30
0.0
 10
-557.3633864979211
 20
-744.0338318631313
 30
0.0
 10
-556.1299916929191
 20
-745.8323637169412
 30
0.0
 10
-557.4912643479441
 20
-747.1705210265658
 30
0.0
 10
-559.4678580301933
 20
-747.2733860004535
 30
0.0
 10
-561.7855322624962
 20
-746.8605338536331
 30
0.0
 10
-562.6374490625189
 20
-745.665959173196
 30
0.0
 10
-562.9836922461464
 20
-745.180450094816
 30
0.0
 11
-555.9836922461464
 21
-742.180450094816
 31
0.0
 11
-556.8781780468896
 21
-744.2154624681319
 31
0.0
 11
-556.5419647555113
 21
-746.0638142783487
 31
0.0
 11
-557.1303380154233
 21
-746.7359421594149
 31
0.0
 11
-559.3997768823019
 21
-747.1804500948159
 31
0.0
 11
-561.8373223948696
 21
-746.4838941353726
 31
0.0
 11
-562.9836922461464
 21
-745.180450094816
 31
0.0
  0
ARC
  5
91E9
330
9170
100
AcDbEntity
  8
0
100
AcDbCircle
 10
-564.172059873866
 20
-743.7455529779749
 30
0.0
 40
1.863101541658591
100
AcDbArc
 50
193.498883563976
 51
309.6312187901778
  0
SPLINE
  5
91EA
330
9170
100
AcDbEntity
  8
0
100
AcDbSpline
210
0.0
220
0.0
230
1.0
 70
     8
 71
     3
 72
    10
 73
     6
 74
     4
 42
0.0000000001
 43
0.0000000001
 44
0.0000000001
 40
0.0
 40
0.0
 40
0.0
 40
0.0
 40
2.557517145852025
 40
6.905952227570113
 40
8.323820391966092
 40
8.323820391966092
 40
8.323820391966092
 40
8.323820391966092
 10
-555.9836922461464
 20
-742.180450094816
 30
0.0
 10
-556.0454810811436
 20
-741.3261830155108
 30
0.0
 10
-556.2123267827961
 20
-739.0194428050551
 30
0.0
 10
-555.2385005707815
 20
-736.2901305909162
 30
0.0
 10
-554.1887138325113
 20
-734.6836965218471
 30
0.0
 10
-553.9305832535132
 20
-734.2886927165461
 30
0.0
 11
-555.9836922461464
 21
-742.180450094816
 31
0.0
 11
-556.0353678696405
 21
-739.6234550652425
 31
0.0
 11
-554.6822916807338
 21
-735.4908926051059
 31
0.0
 11
-553.9305832535132
 21
-734.2886927165461
 31
0.0
  0
SPLINE
  5
91EB
330
9170
100
AcDbEntity
  8
0
100
AcDbSpline
210
0.0
220
0.0
230
1.0
 70
     8
 71
     3
 72
    10
 73
     6
 74
     4
 42
0.0000000001
 43
0.0000000001
 44
0.0000000001
 40
0.0
 40
0.0
 40
0.0
 40
0.0
 40
2.130436755392835
 40
7.212823984746611
 40
9.883006960984111
 40
9.883006960984111
 40
9.883006960984111
 40
9.883006960984111
 10
-562.9836922461464
 20
-745.180450094816
 30
0.0
 10
-563.074153265998
 20
-744.4739161552887
 30
0.0
 10
-563.380418829629
 20
-742.0818691104003
 30
0.0
 10
-562.3172012462057
 20
-738.749754430252
 30
0.0
 10
-560.7568447088772
 20
-736.6932155360293
 30
0.0
 10
-560.2194181068157
 20
-735.984891070762
 30
0.0
 11
-562.9836922461464
 21
-745.180450094816
 31
0.0
 11
-563.1606597115753
 21
-743.0573760770511
 31
0.0
 11
-561.745533905523
 21
-738.1759747513923
 31
0.0
 11
-560.2194181068157
 21
-735.984891070762
 31
0.0
  0
SPLINE
  5
91EC
330
9170
100
AcDbEntity
  8
0
100
AcDbSpline
210
0.0
220
0.0
230
1.0
 70
     8
 71
     3
 72
    10
 73
     6
 74
     4
 42
0.0000000001
 43
0.0000000001
 44
0.0000000001
 40
0.0
 40
0.0
 40
0.0
 40
0.0
 40
3.966964136261598
 40
9.891420516798252
 40
14.09108437029161
 40
14.09108437029161
 40
14.09108437029161
 40
14.09108437029161
 10
-558.6655548099446
 20
-745.8031645286616
 30
0.0
 10
-558.9662411469675
 20
-744.5347923043428
 30
0.0
 10
-559.7159870234082
 20
-741.3721715667658
 30
0.0
 10
-558.6927664405764
 20
-735.9319065721417
 30
0.0
 10
-555.3268322106475
 20
-734.7704750298466
 30
0.0
 10
-553.9305832535132
 20
-734.2886927165461
 30
0.0
 11
-558.6655548099446
 21
-745.8031645286616
 31
0.0
 11
-559.3314964657251
 21
-741.8924962776484
 31
0.0
 11
-557.6666431761988
 21
-736.20677319881
 31
0.0
 11
-553.9305832535132
 21
-734.2886927165461
 31
0.0
  0
SPLINE
  5
91ED
330
9170
100
AcDbEntity
  8
0
100
AcDbSpline
210
0.0
220
0.0
230
1.0
 70
     8
 71
     3
 72
     9
 73
     5
 74
     3
 42
0.0000000001
 43
0.0000000001
 44
0.0000000001
 40
0.0
 40
0.0
 40
0.0
 40
0.0
 40
3.357645358555656
 40
6.402089026651562
 40
6.402089026651562
 40
6.402089026651562
 40
6.402089026651562
 10
-529.8967783887908
 20
-728.6502231164965
 30
0.0
 10
-529.0693283567943
 20
-729.4537992279083
 30
0.0
 10
-527.4916129627465
 20
-730.9859937438777
 30
0.0
 10
-527.1473857471923
 20
-733.1509355919942
 30
0.0
 10
-526.9836922461464
 20
-734.180450094816
 30
0.0
 11
-529.8967783887908
 21
-728.6502231164965
 31
0.0
 11
-527.7537106054569
 21
-731.2349944467822
 31
0.0
 11
-526.9836922461464
 21
-734.180450094816
 31
0.0
  0
ARC
  5
91EE
330
9170
100
AcDbEntity
  8
0
100
AcDbCircle
 10
-531.7589086721809
 20
-734.4189240119706
 30
0.0
 40
4.781167401862504
100
AcDbArc
 50
152.0834132213827
 51
2.858971360313421
  0
SPLINE
  5
91EF
330
9170
100
AcDbEntity
  8
0
100
AcDbSpline
210
0.0
220
0.0
230
1.0
 70
     8
 71
     3
 72
    12
 73
     8
 74
     6
 42
0.0000000001
 43
0.0000000001
 44
0.0000000001
 40
0.0
 40
0.0
 40
0.0
 40
0.0
 40
1.879034897132161
 40
3.973703567447231
 40
6.186336559529973
 40
8.06238596932858
 40
9.042062050885501
 40
9.042062050885501
 40
9.042062050885501
 40
9.042062050885501
 10
-535.9836922461466
 20
-732.1804500948159
 30
0.0
 10
-535.4885110716664
 20
-731.7846176253121
 30
0.0
 10
-534.4413228568185
 20
-730.9475278519506
 30
0.0
 10
-532.2929839534684
 20
-730.6188232017458
 30
0.0
 10
-530.2828194469388
 20
-731.3204276619415
 30
0.0
 10
-529.1259041639118
 20
-732.8484316463545
 30
0.0
 10
-529.2925406111369
 20
-733.808916869593
 30
0.0
 10
-529.3497063794002
 20
-734.1384178677611
 30
0.0
 11
-535.9836922461466
 21
-732.1804500948159
 31
0.0
 11
-534.4237410253948
 21
-731.1329175972219
 31
0.0
 11
-532.3565417881321
 21
-730.7947990501706
 31
0.0
 11
-530.2893425508695
 21
-731.5837426927169
 31
0.0
 11
-529.2745356216706
 21
-733.161629977809
 31
0.0
 11
-529.3497063794002
 21
-734.1384178677611
 31
0.0
  0
ENDBLK
  5
91F0
330
9170
100
AcDbEntity
  8
0
100
AcDbBlockEnd
  0
BLOCK
  5
A126
330
A125
100
AcDbEntity
  8
0
370
     9
100
AcDbBlockBegin
  2
_DotSmall
 70
     0
 10
0.0
 20
0.0
 30
0.0
  3
_DotSmall
  1

  0
LWPOLYLINE
  5
A127
330
A125
100
AcDbEntity
  8
0
  6
ByBlock
 62
     0
370
     9
100
AcDbPolyline
 90
        2
 70
     1
 43
0.5
 10
-0.0625
 20
0.0
 42
1.0
 10
0.0625
 20
0.0
 42
1.0
  0
ENDBLK
  5
A128
330
A125
100
AcDbEntity
  8
0
370
     9
100
AcDbBlockEnd
  0
BLOCK
  5
A9BA
330
A9B0
100
AcDbEntity
  8
0
100
AcDbBlockBegin
  2
*D7
 70
     1
 10
0.0
 20
0.0
 30
0.0
  3
*D7
  1

  0
LINE
  5
AA18
330
A9B0
100
AcDbEntity
  8
SUNPOU
 62
    70
370
    -2
100
AcDbLine
 10
11.19167559502352
 20
126.0077926117073
 30
0.0
 11
11.19167559502352
 21
143.5294043197091
 31
0.0
  0
LINE
  5
AA19
330
A9B0
100
AcDbEntity
  8
SUNPOU
 62
    70
370
    -2
100
AcDbLine
 10
126.1916755950229
 20
126.0077926117073
 30
0.0
 11
126.1916755950229
 21
143.5294043197091
 31
0.0
  0
LINE
  5
AA1A
330
A9B0
100
AcDbEntity
  8
SUNPOU
 62
    60
370
    -2
100
AcDbLine
 10
15.19167559502353
 20
143.5294043197091
 30
0.0
 11
122.1916755950229
 21
143.5294043197091
 31
0.0
  0
INSERT
  5
AA1B
330
A9B0
100
AcDbEntity
  8
SUNPOU
 62
    60
370
    -2
100
AcDbBlockReference
  2
_Dot
 10
11.19167559502352
 20
143.5294043197091
 30
0.0
 41
4.0
 42
4.0
 43
4.0
 50
180.0
  0
INSERT
  5
AA1C
330
A9B0
100
AcDbEntity
  8
SUNPOU
 62
    60
370
    -2
100
AcDbBlockReference
  2
_Dot
 10
126.1916755950229
 20
143.5294043197091
 30
0.0
 41
4.0
 42
4.0
 43
4.0
  0
MTEXT
  5
AA1D
330
A9B0
100
AcDbEntity
  8
SUNPOU
 62
    60
100
AcDbMText
 10
68.69167559502322
 20
154.5294043197091
 30
0.0
 40
10.0
 41
0.0
 71
     5
 72
     1
  1
\A1;115
  7
SUNPOU
 73
     1
 44
1.0
1001
ACAD
1000
MTEXTBEGIN
1070
    73
1070
     1
1070
    44
1040
1.0
1070
    74
1070
     0
1000
MTEXTEND
  0
POINT
  5
AA1E
330
A9B0
100
AcDbEntity
  8
DEFPOINTS
 62
     0
100
AcDbPoint
 10
11.19167559502352
 20
106.0077926117073
 30
0.0
  0
POINT
  5
AA1F
330
A9B0
100
AcDbEntity
  8
DEFPOINTS
 62
     0
100
AcDbPoint
 10
126.1916755950229
 20
106.0077926117073
 30
0.0
  0
POINT
  5
AA20
330
A9B0
100
AcDbEntity
  8
DEFPOINTS
 62
     0
100
AcDbPoint
 10
126.1916755950229
 20
143.5294043197091
 30
0.0
  0
ENDBLK
  5
A9BB
330
A9B0
100
AcDbEntity
  8
0
100
AcDbBlockEnd
  0
BLOCK
  5
A9C7
330
A9BD
100
AcDbEntity
  8
0
100
AcDbBlockBegin
  2
*D8
 70
     1
 10
0.0
 20
0.0
 30
0.0
  3
*D8
  1

  0
LINE
  5
AA21
330
A9BD
100
AcDbEntity
  8
SUNPOU
 62
    70
370
    -2
100
AcDbLine
 10
-8.808324404976474
 20
106.0077926117073
 30
0.0
 11
-37.51625519943126
 21
106.0077926117073
 31
0.0
  0
LINE
  5
AA22
330
A9BD
100
AcDbEntity
  8
SUNPOU
 62
    70
370
    -2
100
AcDbLine
 10
16.78812475142171
 20
36.00779261170732
 30
0.0
 11
-37.51625519943128
 21
36.00779261170734
 31
0.0
  0
LINE
  5
AA23
330
A9BD
100
AcDbEntity
  8
SUNPOU
 62
    60
370
    -2
100
AcDbLine
 10
-37.51625519943126
 20
102.0077926117073
 30
0.0
 11
-37.51625519943128
 21
40.00779261170734
 31
0.0
  0
INSERT
  5
AA24
330
A9BD
100
AcDbEntity
  8
SUNPOU
 62
    60
370
    -2
100
AcDbBlockReference
  2
_Dot
 10
-37.51625519943126
 20
106.0077926117073
 30
0.0
 41
4.0
 42
4.0
 43
4.0
 50
90.0
  0
INSERT
  5
AA25
330
A9BD
100
AcDbEntity
  8
SUNPOU
 62
    60
370
    -2
100
AcDbBlockReference
  2
_Dot
 10
-37.51625519943128
 20
36.00779261170734
 30
0.0
 41
4.0
 42
4.0
 43
4.0
 50
270.0
  0
MTEXT
  5
AA26
330
A9BD
100
AcDbEntity
  8
SUNPOU
 62
    60
100
AcDbMText
 10
-48.51625519943127
 20
71.00779261170733
 30
0.0
 40
10.0
 41
0.0
 71
     5
 72
     1
  1
\A1;70
  7
SUNPOU
 11
0.0000000000000001
 21
1.0
 31
0.0
 73
     1
 44
1.0
1001
ACAD
1000
MTEXTBEGIN
1070
    73
1070
     1
1070
    44
1040
1.0
1070
    74
1070
     0
1000
MTEXTEND
  0
POINT
  5
AA27
330
A9BD
100
AcDbEntity
  8
DEFPOINTS
 62
     0
100
AcDbPoint
 10
11.19167559502352
 20
106.0077926117073
 30
0.0
  0
POINT
  5
AA28
330
A9BD
100
AcDbEntity
  8
DEFPOINTS
 62
     0
100
AcDbPoint
 10
36.78812475142172
 20
36.00779261170732
 30
0.0
  0
POINT
  5
AA29
330
A9BD
100
AcDbEntity
  8
DEFPOINTS
 62
     0
100
AcDbPoint
 10
-37.51625519943128
 20
36.00779261170734
 30
0.0
  0
ENDBLK
  5
A9C8
330
A9BD
100
AcDbEntity
  8
0
100
AcDbBlockEnd
  0
BLOCK
  5
AA38
330
AA37
100
AcDbEntity
  8
0
100
AcDbBlockBegin
  2
*D9
 70
     1
 10
0.0
 20
0.0
 30
0.0
  3
*D9
  1

  0
LINE
  5
AA39
330
AA37
100
AcDbEntity
  8
SUNPOU
 62
    70
370
    -2
100
AcDbLine
 10
-43.300152866644
 20
109.952026752108
 30
0.0
 11
-43.300152866644
 21
118.0808737294516
 31
0.0
  0
LINE
  5
AA3A
330
AA37
100
AcDbEntity
  8
SUNPOU
 62
    70
370
    -2
100
AcDbLine
 10
-78.300152866644
 20
109.9520267521081
 30
0.0
 11
-78.300152866644
 21
118.0808737294516
 31
0.0
  0
LINE
  5
AA3B
330
AA37
100
AcDbEntity
  8
SUNPOU
 62
    60
370
    -2
100
AcDbLine
 10
-43.300152866644
 20
117.2808737294516
 30
0.0
 11
-78.300152866644
 21
117.2808737294516
 31
0.0
  0
INSERT
  5
AA3C
330
AA37
100
AcDbEntity
  8
SUNPOU
 62
    60
370
    -2
100
AcDbBlockReference
  2
_DotSmall
 10
-43.300152866644
 20
117.2808737294516
 30
0.0
 41
4.0
 42
4.0
 43
4.0
  0
INSERT
  5
AA3D
330
AA37
100
AcDbEntity
  8
SUNPOU
 62
    60
370
    -2
100
AcDbBlockReference
  2
_DotSmall
 10
-78.300152866644
 20
117.2808737294516
 30
0.0
 41
4.0
 42
4.0
 43
4.0
 50
180.0
  0
MTEXT
  5
AA3E
330
AA37
100
AcDbEntity
  8
SUNPOU
 62
    60
100
AcDbMText
 10
-60.800152866644
 20
122.4808737294516
 30
0.0
 40
5.6
 41
0.0
 71
     5
 72
     1
  1
\A1;35
  7
SUNPOU
 73
     1
 44
1.0
1001
ACAD
1000
MTEXTBEGIN
1070
    73
1070
     1
1070
    44
1040
1.0
1070
    74
1070
     0
1000
MTEXTEND
  0
POINT
  5
AA3F
330
AA37
100
AcDbEntity
  8
DEFPOINTS
 62
     0
100
AcDbPoint
 10
-43.300152866644
 20
108.352026752108
 30
0.0
  0
POINT
  5
AA40
330
AA37
100
AcDbEntity
  8
DEFPOINTS
 62
     0
100
AcDbPoint
 10
-78.300152866644
 20
108.3520267521081
 30
0.0
  0
POINT
  5
AA41
330
AA37
100
AcDbEntity
  8
DEFPOINTS
 62
     0
100
AcDbPoint
 10
-78.300152866644
 20
117.2808737294516
 30
0.0
  0
ENDBLK
  5
AA42
330
AA37
100
AcDbEntity
  8
0
100
AcDbBlockEnd
  0
BLOCK
  5
AA7E
330
AA74
100
AcDbEntity
  8
0
100
AcDbBlockBegin
  2
*D11
 70
     1
 10
0.0
 20
0.0
 30
0.0
  3
*D11
  1

  0
LINE
  5
AAD0
330
AA74
100
AcDbEntity
  8
SUNPOU
 62
    70
370
    -2
100
AcDbLine
 10
155.7767612640054
 20
107.6077926117073
 30
0.0
 11
155.7767612640054
 21
132.3958361599752
 31
0.0
  0
LINE
  5
AAD1
330
AA74
100
AcDbEntity
  8
SUNPOU
 62
    70
370
    -2
100
AcDbLine
 10
175.7767612637054
 20
107.6077926117073
 30
0.0
 11
175.7767612637054
 21
132.3958361599752
 31
0.0
  0
LINE
  5
AAD2
330
AA74
100
AcDbEntity
  8
SUNPOU
 62
    60
370
    -2
100
AcDbLine
 10
155.7767612640054
 20
131.5958361599752
 30
0.0
 11
175.7767612637054
 21
131.5958361599752
 31
0.0
  0
INSERT
  5
AAD3
330
AA74
100
AcDbEntity
  8
SUNPOU
 62
    60
370
    -2
100
AcDbBlockReference
  2
_DotSmall
 10
155.7767612640054
 20
131.5958361599752
 30
0.0
 41
4.0
 42
4.0
 43
4.0
 50
180.0
  0
INSERT
  5
AAD4
330
AA74
100
AcDbEntity
  8
SUNPOU
 62
    60
370
    -2
100
AcDbBlockReference
  2
_DotSmall
 10
175.7767612637054
 20
131.5958361599752
 30
0.0
 41
4.0
 42
4.0
 43
4.0
  0
MTEXT
  5
AAD5
330
AA74
100
AcDbEntity
  8
SUNPOU
 62
    60
100
AcDbMText
 10
165.7767612638554
 20
136.7958361599752
 30
0.0
 40
5.6
 41
0.0
 71
     5
 72
     1
  1
\A1;20
  7
SUNPOU
 73
     1
 44
1.0
1001
ACAD
1000
MTEXTBEGIN
1070
    73
1070
     1
1070
    44
1040
1.0
1070
    74
1070
     0
1000
MTEXTEND
  0
POINT
  5
AAD6
330
AA74
100
AcDbEntity
  8
DEFPOINTS
 62
     0
100
AcDbPoint
 10
155.7767612640054
 20
106.0077926117073
 30
0.0
  0
POINT
  5
AAD7
330
AA74
100
AcDbEntity
  8
DEFPOINTS
 62
     0
100
AcDbPoint
 10
175.7767612637054
 20
106.0077926117073
 30
0.0
  0
POINT
  5
AAD8
330
AA74
100
AcDbEntity
  8
DEFPOINTS
 62
     0
100
AcDbPoint
 10
175.7767612637054
 20
131.5958361599752
 30
0.0
  0
ENDBLK
  5
AA7F
330
AA74
100
AcDbEntity
  8
0
100
AcDbBlockEnd
  0
BLOCK
  5
AA9D
330
AA93
100
AcDbEntity
  8
0
100
AcDbBlockBegin
  2
*D12
 70
     1
 10
0.0
 20
0.0
 30
0.0
  3
*D12
  1

  0
LINE
  5
AA94
330
AA93
100
AcDbEntity
  8
0
 62
    70
370
    -2
100
AcDbLine
 10
-116.2874361460809
 20
119.5166185444548
 30
0.0
 11
-106.4265419570395
 21
119.5166185444548
 31
0.0
  0
LINE
  5
AA95
330
AA93
100
AcDbEntity
  8
0
 62
    70
370
    -2
100
AcDbLine
 10
-116.2874361460816
 20
72.08803247373748
 30
0.0
 11
-106.4265419570395
 21
72.08803247373748
 31
0.0
  0
LINE
  5
AA96
330
AA93
100
AcDbEntity
  8
0
 62
    60
370
    -2
100
AcDbLine
 10
-106.4265419570395
 20
115.5166185444548
 30
0.0
 11
-106.4265419570395
 21
76.08803247373749
 31
0.0
  0
INSERT
  5
AA97
330
AA93
100
AcDbEntity
  8
0
 62
    60
370
    -2
100
AcDbBlockReference
  2
_Dot
 10
-106.4265419570395
 20
119.5166185444548
 30
0.0
 41
4.0
 42
4.0
 43
4.0
 50
90.0
  0
INSERT
  5
AA98
330
AA93
100
AcDbEntity
  8
0
 62
    60
370
    -2
100
AcDbBlockReference
  2
_Dot
 10
-106.4265419570395
 20
72.08803247373748
 30
0.0
 41
4.0
 42
4.0
 43
4.0
 50
270.0
  0
MTEXT
  5
AA99
330
AA93
100
AcDbEntity
  8
0
 62
    60
100
AcDbMText
 10
-117.4265419570395
 20
95.80232550909611
 30
0.0
 40
10.0
 41
0.0
 71
     5
 72
     1
  1
\A1;47
  7
SUNPOU
 11
0.0000000000000001
 21
1.0
 31
0.0
 73
     1
 44
1.0
1001
ACAD
1000
MTEXTBEGIN
1070
    73
1070
     1
1070
    44
1040
1.0
1070
    74
1070
     0
1000
MTEXTEND
  0
POINT
  5
AA9A
330
AA93
100
AcDbEntity
  8
DEFPOINTS
 62
     0
100
AcDbPoint
 10
-136.2874361460809
 20
119.5166185444548
 30
0.0
  0
POINT
  5
AA9B
330
AA93
100
AcDbEntity
  8
DEFPOINTS
 62
     0
100
AcDbPoint
 10
-136.2874361460816
 20
72.08803247373748
 30
0.0
  0
POINT
  5
AA9C
330
AA93
100
AcDbEntity
  8
DEFPOINTS
 62
     0
100
AcDbPoint
 10
-106.4265419570395
 20
72.08803247373748
 30
0.0
  0
ENDBLK
  5
AA9E
330
AA93
100
AcDbEntity
  8
0
100
AcDbBlockEnd
  0
ENDSEC
  0
SECTION
  2
ENTITIES
  0
LINE
  5
1F
330
2
100
AcDbEntity
  8
WAKU
100
AcDbLine
 10
0.0
 20
14.0
 30
0.0
 11
153.3024898117942
 21
13.99999999999999
 31
0.0
  0
LINE
  5
20
330
2
100
AcDbEntity
  8
WAKU
100
AcDbLine
 10
0.0
 20
0.0
 30
0.0
 11
153.3024898117942
 21
0.0
 31
0.0
  0
TEXT
  5
21
330
2
100
AcDbEntity
  8
HOJO
100
AcDbText
 10
9.653966000000025
 20
2.366626000000024
 30
0.0
 40
9.0
  1
TM238
  7
SUNPOU
100
AcDbText
  0
TEXT
  5
23
330
2
100
AcDbEntity
  8
HOJO
100
AcDbText
 10
94.93853218002675
 20
5.044386000000031
 30
0.0
 40
6.0
  1
115×70×20
  7
SUNPOU
100
AcDbText
  0
LINE
  5
A969
102
{ACAD_REACTORS
330
AA2A
102
}
330
2
100
AcDbEntity
  8
KIJUN
100
AcDbLine
 10
11.19167559502352
 20
101.2235734457801
 30
0.0
 11
126.1916755950229
 21
101.2235734457801
 31
0.0
  0
LINE
  5
A96A
102
{ACAD_REACTORS
330
AA2A
102
}
330
2
100
AcDbEntity
  8
KIJUN
100
AcDbLine
 10
56.74589233744723
 20
81.44539370162556
 30
0.0
 11
97.58353388921443
 21
81.44539370162556
 31
0.0
  0
ARC
  5
A96B
102
{ACAD_REACTORS
330
AA2A
102
}
330
2
100
AcDbEntity
  8
KIJUN
100
AcDbCircle
 10
84.05288283394042
 20
51.07051510392762
 30
0.0
 40
5.504788231121937
100
AcDbArc
 50
82.52458012357783
 51
162.166267837508
  0
ARC
  5
A96C
102
{ACAD_REACTORS
330
AA2A
102
}
330
2
100
AcDbEntity
  8
KIJUN
100
AcDbCircle
 10
73.57232473919089
 20
51.07051510392762
 30
0.0
 40
9.004788231121937
100
AcDbArc
 50
54.41263715417815
 51
73.81954570768261
  0
ARC
  5
A96D
102
{ACAD_REACTORS
330
AA2A
102
}
330
2
100
AcDbEntity
  8
KIJUN
100
AcDbCircle
 10
73.57232473919089
 20
51.07051510392762
 30
0.0
 40
5.504788231121937
100
AcDbArc
 50
17.83373216249203
 51
89.47950148745212
  0
LINE
  5
A96E
102
{ACAD_REACTORS
330
AA2A
102
}
330
2
100
AcDbEntity
  8
KIJUN
100
AcDbLine
 10
126.1916755950229
 20
101.2235734457801
 30
0.0
 11
11.19167559502352
 21
101.2235734457801
 31
0.0
  0
LINE
  5
A96F
102
{ACAD_REACTORS
330
AA2A
102
}
330
2
100
AcDbEntity
  8
KIJUN
100
AcDbLine
 10
36.78812475142172
 20
87.20568149064389
 30
0.0
 11
100.8791755950235
 21
87.20568149064389
 31
0.0
  0
LINE
  5
A970
102
{ACAD_REACTORS
330
AA2A
102
}
330
2
100
AcDbEntity
  8
KIJUN
100
AcDbLine
 10
109.5081505025224
 20
97.50196092824698
 30
0.0
 11
27.87520068752406
 21
97.50196092824694
 31
0.0
  0
LINE
  5
A971
102
{ACAD_REACTORS
330
AA2A
102
}
330
2
100
AcDbEntity
  8
KIJUN
100
AcDbLine
 10
111.0146351667115
 20
90.54920141324831
 30
0.0
 11
27.87520068752406
 21
90.54920141324828
 31
0.0
  0
LINE
  5
A972
102
{ACAD_REACTORS
330
AA2A
102
}
330
2
100
AcDbEntity
  8
KIJUN
100
AcDbLine
 10
11.19167559502352
 20
106.0077926117073
 30
0.0
 11
126.1916755950229
 21
106.0077926117073
 31
0.0
  0
ARC
  5
A973
102
{ACAD_REACTORS
330
AA2A
102
}
330
2
100
AcDbEntity
  8
KIJUN
100
AcDbCircle
 10
78.61946032719993
 20
42.16187370563557
 30
0.0
 40
2.56242820164346
100
AcDbArc
 50
196.8936539999823
 51
269.9998740000186
  0
ARC
  5
A974
102
{ACAD_REACTORS
330
AA2A
102
}
330
2
100
AcDbEntity
  8
KIJUN
100
AcDbCircle
 10
78.61946032719993
 20
50.1939602591035
 30
0.0
 40
2.56242820164346
100
AcDbArc
 50
90.00012599998139
 51
163.1063460000177
  0
ARC
  5
A975
102
{ACAD_REACTORS
330
AA2A
102
}
330
2
100
AcDbEntity
  8
KIJUN
100
AcDbCircle
 10
61.22119692609363
 20
68.81068376860025
 30
0.0
 40
17.42120086130483
100
AcDbArc
 50
292.0422571706601
 51
46.48957246697229
  0
LINE
  5
A976
102
{ACAD_REACTORS
330
AA2A
102
}
330
2
100
AcDbEntity
  8
KIJUN
100
AcDbLine
 10
76.1676077438517
 20
41.41726340697892
 30
0.0
 11
76.1676077438517
 21
50.93857055777289
 31
0.0
  0
LINE
  5
A977
102
{ACAD_REACTORS
330
AA2A
102
}
330
2
100
AcDbEntity
  8
KIJUN
100
AcDbLine
 10
53.46532726208465
 20
41.41726340697892
 30
0.0
 11
53.46532726208465
 21
50.93857055777289
 31
0.0
  0
LINE
  5
A978
102
{ACAD_REACTORS
330
AA2A
102
}
330
2
100
AcDbEntity
  8
KIJUN
100
AcDbLine
 10
58.36898191441855
 20
50.93873861774295
 30
0.0
 11
58.36898191441855
 21
41.41709548463746
 31
0.0
  0
ARC
  5
A979
102
{ACAD_REACTORS
330
AA2A
102
}
330
2
100
AcDbEntity
  8
KIJUN
100
AcDbCircle
 10
38.61454326094031
 20
56.6126018546231
 30
0.0
 40
14.0
100
AcDbArc
 50
257.5115987818876
 51
9.613636135799108
  0
ARC
  5
A97A
102
{ACAD_REACTORS
330
AA2A
102
}
330
2
100
AcDbEntity
  8
KIJUN
100
AcDbCircle
 10
39.34369244521917
 20
61.21051609137635
 30
0.0
 40
11.59782220503524
100
AcDbArc
 50
165.9381032835224
 51
296.0581632526169
  0
ARC
  5
A97B
102
{ACAD_REACTORS
330
AA2A
102
}
330
2
100
AcDbEntity
  8
KIJUN
100
AcDbCircle
 10
39.79981730083841
 20
61.96415417319349
 30
0.0
 40
19.4812395284327
100
AcDbArc
 50
90.0
 51
257.5115987818876
  0
ARC
  5
A97C
102
{ACAD_REACTORS
330
AA2A
102
}
330
2
100
AcDbEntity
  8
KIJUN
100
AcDbCircle
 10
36.79062003449121
 20
61.60673705117528
 30
0.0
 40
25.59894443946796
100
AcDbArc
 50
90.0
 51
310.6459259883619
  0
ARC
  5
A97D
102
{ACAD_REACTORS
330
AA2A
102
}
330
2
100
AcDbEntity
  8
KIJUN
100
AcDbCircle
 10
67.83594320400538
 20
58.48950071326794
 30
0.0
 40
18.99678912243945
100
AcDbArc
 50
241.6774290000926
 51
296.0138239999824
  0
ARC
  5
A97E
102
{ACAD_REACTORS
330
AA2A
102
}
330
2
100
AcDbEntity
  8
KIJUN
100
AcDbCircle
 10
55.91717970778995
 20
42.16187370563557
 30
0.0
 40
2.56242820164346
100
AcDbArc
 50
196.8936539999823
 51
343.1060939999789
  0
ARC
  5
A97F
102
{ACAD_REACTORS
330
AA2A
102
}
330
2
100
AcDbEntity
  8
KIJUN
100
AcDbCircle
 10
22.32912795685615
 20
99.67613211794457
 30
0.0
 40
4.317601006422182
100
AcDbArc
 50
202.9859206536749
 51
290.0016633875404
  0
LINE
  5
A980
102
{ACAD_REACTORS
330
AA2A
102
}
330
2
100
AcDbEntity
  8
KIJUN
100
AcDbLine
 10
11.19167559502352
 20
106.0077926117073
 30
0.0
 11
11.19167559502352
 21
101.2235734457801
 31
0.0
  0
ARC
  5
A981
102
{ACAD_REACTORS
330
AA2A
102
}
330
2
100
AcDbEntity
  8
KIJUN
100
AcDbCircle
 10
12.0183208718729
 20
93.50477700216675
 30
0.0
 40
7.76293507326176
100
AcDbArc
 50
35.29493095128735
 51
96.11279832348913
  0
ARC
  5
A982
102
{ACAD_REACTORS
330
AA2A
102
}
330
2
100
AcDbEntity
  8
KIJUN
100
AcDbCircle
 10
22.79323038111056
 20
88.07957537608695
 30
0.0
 40
4.34547469687468
100
AcDbArc
 50
297.8632173277369
 51
35.3602793465323
  0
ARC
  5
A983
102
{ACAD_REACTORS
330
AA2A
102
}
330
2
100
AcDbEntity
  8
KIJUN
100
AcDbCircle
 10
36.73196192200999
 20
56.29372617325998
 30
0.0
 40
15.90939629146319
100
AcDbArc
 50
9.613636135799108
 51
73.38447862089218
  0
ARC
  5
A984
102
{ACAD_REACTORS
330
AA2A
102
}
330
2
100
AcDbEntity
  8
KIJUN
100
AcDbCircle
 10
38.27876778726318
 20
61.47725391537756
 30
0.0
 40
10.5
100
AcDbArc
 50
73.38447862089218
 51
165.9381032835224
  0
LINE
  5
A985
102
{ACAD_REACTORS
330
AA2A
102
}
330
2
100
AcDbEntity
  8
KIJUN
100
AcDbLine
 10
56.74589233744723
 20
81.44539370162556
 30
0.0
 11
56.74589233744723
 21
52.61868161753205
 31
0.0
  0
ARC
  5
A986
102
{ACAD_REACTORS
330
AA2A
102
}
330
2
100
AcDbEntity
  8
KIJUN
100
AcDbCircle
 10
74.297073181526
 20
68.81068376860025
 30
0.0
 40
17.42120086130459
100
AcDbArc
 50
133.5104275330277
 51
247.9577428293399
  0
ARC
  5
A987
102
{ACAD_REACTORS
330
AA2A
102
}
330
2
100
AcDbEntity
  8
KIJUN
100
AcDbCircle
 10
67.39178463843495
 20
32.39031891987429
 30
0.0
 40
20.27366091686807
100
AcDbArc
 50
64.35044100002807
 51
116.4265691427015
  0
ARC
  5
A988
102
{ACAD_REACTORS
330
AA2A
102
}
330
2
100
AcDbEntity
  8
KIJUN
100
AcDbCircle
 10
61.98617138481882
 20
51.07051510392762
 30
0.0
 40
5.504788231121937
100
AcDbArc
 50
90.93404012539732
 51
162.166267837508
  0
ARC
  5
A989
102
{ACAD_REACTORS
330
AA2A
102
}
330
2
100
AcDbEntity
  8
KIJUN
100
AcDbCircle
 10
51.50561329007564
 20
51.07051510392762
 30
0.0
 40
5.504788231121937
100
AcDbArc
 50
17.83373216249203
 51
78.38687574949121
  0
ARC
  5
A98A
102
{ACAD_REACTORS
330
AA2A
102
}
330
2
100
AcDbEntity
  8
KIJUN
100
AcDbCircle
 10
55.91717970778995
 20
50.1939602591035
 30
0.0
 40
2.56242820164346
100
AcDbArc
 50
16.89390600002114
 51
163.1063460000177
  0
ARC
  5
A98B
102
{ACAD_REACTORS
330
AA2A
102
}
330
2
100
AcDbEntity
  8
KIJUN
100
AcDbCircle
 10
61.98617138481882
 20
51.07051510392762
 30
0.0
 40
9.004788231121937
100
AcDbArc
 50
106.4066349939336
 51
125.5873628458218
  0
ARC
  5
A98C
102
{ACAD_REACTORS
330
AA2A
102
}
330
2
100
AcDbEntity
  8
KIJUN
100
AcDbCircle
 10
51.50561329007564
 20
51.07051510392762
 30
0.0
 40
9.004788231121937
100
AcDbArc
 50
54.41263715417815
 51
85.62983138524058
  0
CIRCLE
  5
A98D
102
{ACAD_REACTORS
330
AA2A
102
}
330
2
100
AcDbEntity
  8
KIJUN
100
AcDbCircle
 10
47.75395070914828
 20
94.02558117074681
 30
0.0
 40
3.476379757499744
  0
CIRCLE
  5
A98E
102
{ACAD_REACTORS
330
AA2A
102
}
330
2
100
AcDbEntity
  8
KIJUN
100
AcDbCircle
 10
33.84843167914778
 20
94.02558117074681
 30
0.0
 40
3.476379757499744
  0
CIRCLE
  5
A98F
102
{ACAD_REACTORS
330
AA2A
102
}
330
2
100
AcDbEntity
  8
KIJUN
100
AcDbCircle
 10
26.89567216414753
 20
94.02558117074841
 30
0.0
 40
3.476379757499744
  0
CIRCLE
  5
A990
102
{ACAD_REACTORS
330
AA2A
102
}
330
2
100
AcDbEntity
  8
KIJUN
100
AcDbCircle
 10
40.80119119414803
 20
94.02558117074681
 30
0.0
 40
3.476379757499744
  0
CIRCLE
  5
A991
102
{ACAD_REACTORS
330
AA2A
102
}
330
2
100
AcDbEntity
  8
KIJUN
100
AcDbCircle
 10
61.65946973914879
 20
94.02558117074681
 30
0.0
 40
3.476379757499744
  0
CIRCLE
  5
A992
102
{ACAD_REACTORS
330
AA2A
102
}
330
2
100
AcDbEntity
  8
KIJUN
100
AcDbCircle
 10
54.70671022414854
 20
94.02558117074681
 30
0.0
 40
3.476379757499744
  0
LINE
  5
A993
102
{ACAD_REACTORS
330
AA2A
102
}
330
2
100
AcDbEntity
  8
KIJUN
100
AcDbLine
 10
81.07126239621107
 20
50.93873861774295
 30
0.0
 11
81.07126239621107
 21
41.41709548463746
 31
0.0
  0
ARC
  5
A994
102
{ACAD_REACTORS
330
AA2A
102
}
330
2
100
AcDbEntity
  8
KIJUN
100
AcDbCircle
 10
97.58353388921443
 20
61.96415417319349
 30
0.0
 40
19.4812395284327
100
AcDbArc
 50
282.4884012181124
 51
90.0
  0
ARC
  5
A995
102
{ACAD_REACTORS
330
AA2A
102
}
330
2
100
AcDbEntity
  8
KIJUN
100
AcDbCircle
 10
98.03965874483367
 20
61.21051609137635
 30
0.0
 40
11.59782220503524
100
AcDbArc
 50
243.9418367473832
 51
14.06189671647759
  0
ARC
  5
A996
102
{ACAD_REACTORS
330
AA2A
102
}
330
2
100
AcDbEntity
  8
KIJUN
100
AcDbCircle
 10
98.76880792910618
 20
56.6126018546231
 30
0.0
 40
14.0
100
AcDbArc
 50
170.3863638642009
 51
282.4884012181124
  0
ARC
  5
A997
102
{ACAD_REACTORS
330
AA2A
102
}
330
2
100
AcDbEntity
  8
KIJUN
100
AcDbCircle
 10
100.5927311555552
 20
61.60673705117528
 30
0.0
 40
25.59894443946796
100
AcDbArc
 50
220.307043100581
 51
90.0
  0
ARC
  5
A998
102
{ACAD_REACTORS
330
AA2A
102
}
330
2
100
AcDbEntity
  8
KIJUN
100
AcDbCircle
 10
78.61946032719993
 20
42.16187370563557
 30
0.0
 40
2.56242820164346
100
AcDbArc
 50
269.9998740000186
 51
343.1060939999789
  0
LINE
  5
A999
102
{ACAD_REACTORS
330
AA2A
102
}
330
2
100
AcDbEntity
  8
KIJUN
100
AcDbLine
 10
100.5927311555552
 20
87.20568149064389
 30
0.0
 11
66.85101754569462
 21
87.20568149064389
 31
0.0
  0
LINE
  5
A99B
102
{ACAD_REACTORS
330
AA2A
102
}
330
2
100
AcDbEntity
  8
KIJUN
100
AcDbLine
 10
78.81260378656247
 20
81.44539370162556
 30
0.0
 11
78.81260378656247
 21
52.74909898188889
 31
0.0
  0
ARC
  5
A99C
102
{ACAD_REACTORS
330
AA2A
102
}
330
2
100
AcDbEntity
  8
KIJUN
100
AcDbCircle
 10
78.61946032719993
 20
50.1939602591035
 30
0.0
 40
2.56242820164346
100
AcDbArc
 50
16.89390600002114
 51
90.00012599998139
  0
ARC
  5
A99D
102
{ACAD_REACTORS
330
AA2A
102
}
330
2
100
AcDbEntity
  8
KIJUN
100
AcDbCircle
 10
84.05288283394042
 20
51.07051510392762
 30
0.0
 40
9.004788231121937
100
AcDbArc
 50
82.80453048138475
 51
125.5873628458218
  0
ARC
  5
A99E
102
{ACAD_REACTORS
330
AA2A
102
}
330
2
100
AcDbEntity
  8
KIJUN
100
AcDbCircle
 10
114.5901208089359
 20
88.07957537608695
 30
0.0
 40
4.34547469687468
100
AcDbArc
 50
143.8062615703755
 51
242.136782672263
  0
ARC
  5
A99F
102
{ACAD_REACTORS
330
AA2A
102
}
330
2
100
AcDbEntity
  8
KIJUN
100
AcDbCircle
 10
99.10458340278331
 20
61.47725391537756
 30
0.0
 40
10.5
100
AcDbArc
 50
14.06189671647759
 51
106.6155213791078
  0
ARC
  5
A9A0
102
{ACAD_REACTORS
330
AA2A
102
}
330
2
100
AcDbEntity
  8
KIJUN
100
AcDbCircle
 10
100.6513892680365
 20
56.29372617325998
 30
0.0
 40
15.90939629146319
100
AcDbArc
 50
106.6155213791078
 51
170.3863638642009
  0
CIRCLE
  5
A9A1
102
{ACAD_REACTORS
330
AA2A
102
}
330
2
100
AcDbEntity
  8
KIJUN
100
AcDbCircle
 10
103.3172459159322
 20
94.02558117074681
 30
0.0
 40
3.476379757499744
  0
CIRCLE
  5
A9A2
102
{ACAD_REACTORS
330
AA2A
102
}
330
2
100
AcDbEntity
  8
KIJUN
100
AcDbCircle
 10
89.41172688593168
 20
94.02558117074681
 30
0.0
 40
3.476379757499744
  0
CIRCLE
  5
A9A3
102
{ACAD_REACTORS
330
AA2A
102
}
330
2
100
AcDbEntity
  8
KIJUN
100
AcDbCircle
 10
82.45896737093142
 20
94.02558117074681
 30
0.0
 40
3.476379757499744
  0
CIRCLE
  5
A9A4
102
{ACAD_REACTORS
330
AA2A
102
}
330
2
100
AcDbEntity
  8
KIJUN
100
AcDbCircle
 10
96.36448640093192
 20
94.02558117074681
 30
0.0
 40
3.476379757499744
  0
LINE
  5
A9A5
102
{ACAD_REACTORS
330
AA2A
102
}
330
2
100
AcDbEntity
  8
KIJUN
100
AcDbLine
 10
126.1916755950229
 20
106.0077926117073
 30
0.0
 11
126.1916755950229
 21
101.2235734457801
 31
0.0
  0
ARC
  5
A9A6
102
{ACAD_REACTORS
330
AA2A
102
}
330
2
100
AcDbEntity
  8
KIJUN
100
AcDbCircle
 10
114.9706319375597
 20
99.70291782991104
 30
0.0
 40
4.405022410900876
100
AcDbArc
 50
248.6919381828841
 51
337.1179248839337
  0
CIRCLE
  5
A9A7
102
{ACAD_REACTORS
330
AA2A
102
}
330
2
100
AcDbEntity
  8
KIJUN
100
AcDbCircle
 10
110.2700054309324
 20
94.02558117074841
 30
0.0
 40
3.476379757499744
  0
ARC
  5
A9AA
102
{ACAD_REACTORS
330
AA2A
102
}
330
2
100
AcDbEntity
  8
KIJUN
100
AcDbCircle
 10
125.3650303181799
 20
93.50477700216675
 30
0.0
 40
7.76293507326176
100
AcDbArc
 50
83.88720167651092
 51
144.7050690487126
  0
LINE
  5
A9AB
102
{ACAD_REACTORS
330
AA2A
102
}
330
2
100
AcDbEntity
  8
KIJUN
100
AcDbLine
 10
97.58353388921443
 20
81.44539370162556
 30
0.0
 11
39.79981730083841
 21
81.44539370162556
 31
0.0
  0
CIRCLE
  5
A9AC
102
{ACAD_REACTORS
330
AA2A
102
}
330
2
100
AcDbEntity
  8
KIJUN
100
AcDbCircle
 10
68.51616621801667
 20
94.02558117074681
 30
0.0
 40
3.476379757499744
  0
CIRCLE
  5
A9AD
102
{ACAD_REACTORS
330
AA2A
102
}
330
2
100
AcDbEntity
  8
KIJUN
100
AcDbCircle
 10
75.49343356378551
 20
94.02558117074681
 30
0.0
 40
3.476379757499744
  0
DIMENSION
  5
A9AF
330
2
100
AcDbEntity
  8
SUNPOU
100
AcDbDimension
  2
*D7
 10
126.1916755950229
 20
143.5294043197091
 30
0.0
 11
68.69167559502322
 21
154.5294043197091
 31
0.0
 70
    32
 71
     5
 42
114.9999999999994
  3
STANDARD$0
100
AcDbAlignedDimension
 13
11.19167559502352
 23
106.0077926117073
 33
0.0
 14
126.1916755950229
 24
106.0077926117073
 34
0.0
100
AcDbRotatedDimension
1001
ACAD
1000
DSTYLE
1002
{
1070
    41
1040
2.0
1070
    42
1040
10.0
1070
    44
1040
0.0
1070
    77
1070
     1
1070
   140
1040
5.0
1070
   146
1040
0.064286
1070
   147
1040
3.0
1070
   176
1070
    60
1070
   177
1070
    70
1070
   178
1070
    60
1070
   271
1070
     0
1070
   272
1070
     0
1070
   340
1005
1C
1070
   342
1005
109
1002
}
  0
DIMENSION
  5
A9BC
330
2
100
AcDbEntity
  8
SUNPOU
100
AcDbDimension
  2
*D8
 10
-37.51625519943128
 20
36.00779261170734
 30
0.0
 11
-48.51625519943127
 21
71.00779261170733
 31
0.0
 70
    32
 71
     5
 42
69.99999999999999
  3
STANDARD$0
100
AcDbAlignedDimension
 13
11.19167559502352
 23
106.0077926117073
 33
0.0
 14
36.78812475142172
 24
36.00779261170732
 34
0.0
 50
90.0
100
AcDbRotatedDimension
1001
ACAD
1000
DSTYLE
1002
{
1070
    41
1040
2.0
1070
    42
1040
10.0
1070
    44
1040
0.0
1070
    77
1070
     1
1070
   140
1040
5.0
1070
   146
1040
0.064286
1070
   147
1040
3.0
1070
   176
1070
    60
1070
   177
1070
    70
1070
   178
1070
    60
1070
   271
1070
     6
1070
   272
1070
     0
1070
   340
1005
1C
1070
   342
1005
109
1002
}
  0
LINE
  5
AA60
102
{ACAD_REACTORS
330
AAC6
102
}
330
2
100
AcDbEntity
  8
KIJUN
 48
0.5
100
AcDbLine
 10
173.0312255494612
 20
38.75332832595186
 30
0.0
 11
173.0312255494613
 21
87.8036656990038
 31
0.0
  0
LINE
  5
AA61
102
{ACAD_REACTORS
330
AAC6
102
}
330
2
100
AcDbEntity
  8
HIDDEN
 48
0.5
370
     5
100
AcDbLine
 10
167.5401541209722
 20
36.00779261170732
 30
0.0
 11
167.5401541209722
 21
44.24439975444093
 31
0.0
  0
LINE
  5
AA62
102
{ACAD_REACTORS
330
AAC6
102
}
330
2
100
AcDbEntity
  8
KIJUN
 48
0.5
100
AcDbLine
 10
170.2856898352167
 20
36.00779261170732
 30
0.0
 11
155.7767612640063
 21
36.00779261170732
 31
0.0
  0
ARC
  5
AA63
102
{ACAD_REACTORS
330
AAC6
102
}
330
2
100
AcDbEntity
  8
KIJUN
 48
0.5
100
AcDbCircle
 10
170.2856898352167
 20
38.75332832595186
 30
0.0
 40
2.74553571424453
100
AcDbArc
 50
270.0
 51
0.0
  0
LINE
  5
AA64
102
{ACAD_REACTORS
330
AAC6
102
}
330
2
100
AcDbEntity
  8
HIDDEN
 48
0.5
370
     5
100
AcDbLine
 10
167.5401541209722
 20
44.24439975444093
 30
0.0
 11
155.7767612640061
 21
44.24439975444095
 31
0.0
  0
LINE
  5
AA65
102
{ACAD_REACTORS
330
AAC6
102
}
330
2
100
AcDbEntity
  8
KIJUN
 48
0.5
100
AcDbLine
 10
175.7767612637054
 20
101.8706998743414
 30
0.0
 11
175.7767612637054
 21
106.0077926117073
 31
0.0
  0
LINE
  5
AA66
102
{ACAD_REACTORS
330
AAC6
102
}
330
2
100
AcDbEntity
  8
KIJUN
 48
0.5
100
AcDbLine
 10
170.2856898352163
 20
90.54920141324831
 30
0.0
 11
155.7767612640056
 21
90.54920141324831
 31
0.0
  0
LINE
  5
AA67
102
{ACAD_REACTORS
330
AAC6
102
}
330
2
100
AcDbEntity
  8
KIJUN
 48
0.5
100
AcDbLine
 10
170.2856898352163
 20
97.50196092824705
 30
0.0
 11
155.7767612640055
 21
97.50196092824698
 31
0.0
  0
LINE
  5
AA68
102
{ACAD_REACTORS
330
AAC6
102
}
330
2
100
AcDbEntity
  8
KIJUN
 48
0.5
100
AcDbLine
 10
155.7767612640054
 20
101.2235734457801
 30
0.0
 11
175.5087091208539
 21
101.2235734457801
 31
0.0
  0
ARC
  5
AA69
102
{ACAD_REACTORS
330
AAC6
102
}
330
2
100
AcDbEntity
  8
KIJUN
 48
0.5
100
AcDbCircle
 10
170.8225589015322
 20
100.1435592882625
 30
0.0
 40
2.339507794267623
100
AcDbArc
 50
293.6135979987391
 51
343.1706624759324
  0
ARC
  5
AA6A
102
{ACAD_REACTORS
330
AAC6
102
}
330
2
100
AcDbEntity
  8
KIJUN
 48
0.5
100
AcDbCircle
 10
170.2856898352163
 20
87.8036656990038
 30
0.0
 40
2.74553571424453
100
AcDbArc
 50
0.0
 51
90.0
  0
LINE
  5
AA6B
102
{ACAD_REACTORS
330
AAC6
102
}
330
2
100
AcDbEntity
  8
KIJUN
 48
0.5
100
AcDbLine
 10
171.7596984066235
 20
97.99993521395411
 30
0.0
 11
170.2856898352163
 21
97.50196092824705
 31
0.0
  0
ARC
  5
AA6D
102
{ACAD_REACTORS
330
AAC6
102
}
330
2
100
AcDbEntity
  8
KIJUN
 48
0.5
100
AcDbCircle
 10
167.5571424364386
 20
94.02558020934081
 30
0.0
 40
4.41929637400548
100
AcDbArc
 50
308.127732908202
 51
51.87220901761691
  0
ARC
  5
AA6E
102
{ACAD_REACTORS
330
AAC6
102
}
330
2
100
AcDbEntity
  8
KIJUN
 48
0.5
100
AcDbCircle
 10
174.8629977403386
 20
99.12174793190793
 30
0.0
 40
1.833773916985904
100
AcDbArc
 50
90.04421280521897
 51
169.1727216702495
  0
ARC
  5
AA6F
102
{ACAD_REACTORS
330
AAC6
102
}
330
2
100
AcDbEntity
  8
KIJUN
 48
0.5
100
AcDbCircle
 10
174.8615826922906
 20
101.8706998743413
 30
0.0
 40
0.9151785714148436
100
AcDbArc
 50
270.0
 51
0.0000000000008897
  0
LINE
  5
AA71
102
{ACAD_REACTORS
330
AAC6
102
}
330
2
100
AcDbEntity
  8
KIJUN
 48
0.5
100
AcDbLine
 10
175.7767612637054
 20
106.0077926117073
 30
0.0
 11
155.7767612640054
 21
106.0077926117073
 31
0.0
  0
DIMENSION
  5
AA72
330
2
100
AcDbEntity
  8
SUNPOU
100
AcDbDimension
  2
*D11
 10
175.7767612637054
 20
131.5958361599752
 30
0.0
 11
165.7767612638554
 21
136.7958361599752
 31
0.0
 70
    32
 71
     5
 42
19.99999999970001
  3
STANDARD$0
100
AcDbAlignedDimension
 13
155.7767612640054
 23
106.0077926117073
 33
0.0
 14
175.7767612637054
 24
106.0077926117073
 34
0.0
 50
180.0
100
AcDbRotatedDimension
1001
ACAD
1000
DSTYLE
1002
{
1070
   147
1040
3.0
1070
    40
1040
0.8
1070
    41
1040
5.0
1070
   140
1040
7.0
1070
   146
1040
0.0642857142857143
1070
   176
1070
    60
1070
   177
1070
    70
1070
   178
1070
    60
1070
   271
1070
     6
1070
   272
1070
     0
1070
   279
1070
     2
1070
   340
1005
1C
1070
   341
1005
A125
1070
   343
1005
A125
1070
   344
1005
A125
1002
}
  0
LINE
  5
AA73
102
{ACAD_REACTORS
330
AAC6
102
}
330
2
100
AcDbEntity
  8
KIJUN
 48
0.5
100
AcDbLine
 10
155.7767612640063
 20
36.00779261170732
 30
0.0
 11
155.7767612640054
 21
106.0077926117073
 31
0.0
  0
ENDSEC
  0
SECTION
  2
OBJECTS
  0
DICTIONARY
  5
1A
330
0
100
AcDbDictionary
281
     1
  3
ACAD_COLOR
350
144
  3
ACAD_GROUP
350
18
  3
ACAD_LAYOUT
350
58
  3
ACAD_MATERIAL
350
143
  3
ACAD_MLINESTYLE
350
19
  3
ACAD_PLOTSETTINGS
350
59
  3
ACAD_PLOTSTYLENAME
350
56
  3
ACAD_TABLESTYLE
350
145
  3
ACDBHEADERROUNDTRIPXREC
350
AAE0
  3
AcDbVariableDictionary
350
1D1
  0
DICTIONARY
  5
1B4
330
A
100
AcDbDictionary
280
     1
281
     1
  3
ACAD_LAYERFILTERS
360
7795
  3
ACLYDICTIONARY
360
7794
  0
DICTIONARY
  5
D13
330
2
100
AcDbDictionary
280
     1
281
     1
  3
ACAD_SORTENTS
360
D14
  0
DICTIONARY
  5
144
102
{ACAD_REACTORS
330
1A
102
}
330
1A
100
AcDbDictionary
281
     1
  0
DICTIONARY
  5
18
102
{ACAD_REACTORS
330
1A
102
}
330
1A
100
AcDbDictionary
281
     1
  3
*A1
350
E0D
  3
*A10
350
4E16
  3
*A100
350
2C6B
  3
*A101
350
76E3
  3
*A102
350
3A25
  3
*A103
350
7793
  3
*A104
350
2D78
  3
*A105
350
7ADA
  3
*A106
350
A089
  3
*A107
350
26DD
  3
*A108
350
7D2B
  3
*A109
350
32E4
  3
*A11
350
8919
  3
*A110
350
2F81
  3
*A111
350
4407
  3
*A112
350
22C8
  3
*A113
350
7E5C
  3
*A114
350
8108
  3
*A115
350
8393
  3
*A116
350
84B0
  3
*A117
350
AAC6
  3
*A12
350
8BB8
  3
*A13
350
A10F
  3
*A14
350
8F11
  3
*A15
350
8F12
  3
*A16
350
9092
  3
*A17
350
9163
  3
*A18
350
9432
  3
*A19
350
964B
  3
*A2
350
A0DC
  3
*A20
350
AA2A
  3
*A21
350
A154
  3
*A22
350
52B0
  3
*A23
350
A1CC
  3
*A24
350
A2F5
  3
*A25
350
A407
  3
*A26
350
A4D9
  3
*A27
350
A739
  3
*A28
350
A80B
  3
*A29
350
519C
  3
*A3
350
8635
  3
*A30
350
A911
  3
*A31
350
36C9
  3
*A32
350
4C3E
  3
*A33
350
5396
  3
*A34
350
265A
  3
*A35
350
275E
  3
*A36
350
48BA
  3
*A37
350
5464
  3
*A38
350
556A
  3
*A39
350
4EE5
  3
*A4
350
3467
  3
*A40
350
98D2
  3
*A41
350
213E
  3
*A42
350
57BF
  3
*A43
350
31DF
  3
*A44
350
3349
  3
*A45
350
4CEC
  3
*A46
350
58EE
  3
*A47
350
382B
  3
*A48
350
1EFE
  3
*A49
350
2573
  3
*A5
350
87B5
  3
*A50
350
422E
  3
*A51
350
99FC
  3
*A52
350
97D7
  3
*A53
350
4516
  3
*A54
350
3878
  3
*A55
350
5D92
  3
*A56
350
2905
  3
*A57
350
3E5C
  3
*A58
350
1555
  3
*A59
350
17BC
  3
*A6
350
136A
  3
*A60
350
3181
  3
*A61
350
2B84
  3
*A62
350
9AE5
  3
*A63
350
24D6
  3
*A64
350
4F64
  3
*A65
350
5F6F
  3
*A66
350
4A53
  3
*A67
350
626B
  3
*A68
350
6417
  3
*A69
350
307D
  3
*A7
350
46A5
  3
*A70
350
668C
  3
*A71
350
4D76
  3
*A72
350
241A
  3
*A73
350
9B93
  3
*A74
350
68C5
  3
*A75
350
34BB
  3
*A76
350
4781
  3
*A77
350
6A30
  3
*A78
350
2EE1
  3
*A79
350
6A98
  3
*A8
350
4B49
  3
*A80
350
1A98
  3
*A81
350
6C32
  3
*A82
350
2037
  3
*A83
350
6D00
  3
*A84
350
9CE8
  3
*A85
350
3988
  3
*A86
350
6DE3
  3
*A87
350
FF8
  3
*A88
350
5011
  3
*A89
350
6EB7
  3
*A9
350
2A17
  3
*A90
350
706D
  3
*A91
350
45E5
  3
*A92
350
7170
  3
*A93
350
35A5
  3
*A94
350
3695
  3
*A95
350
9E96
  3
*A96
350
401B
  3
*A97
350
1CBC
  3
*A98
350
3C81
  3
*A99
350
7453
  0
DICTIONARY
  5
58
102
{ACAD_REACTORS
330
1A
102
}
330
1A
100
AcDbDictionary
281
     1
  3
Model
350
5A
  3
ﾚｲｱｳﾄ1
350
5B
  0
DICTIONARY
  5
143
102
{ACAD_REACTORS
330
1A
102
}
330
1A
100
AcDbDictionary
281
     1
  0
DICTIONARY
  5
19
102
{ACAD_REACTORS
330
1A
102
}
330
1A
100
AcDbDictionary
281
     1
  3
STANDARD
350
1D
  0
DICTIONARY
  5
59
102
{ACAD_REACTORS
330
1A
102
}
330
1A
100
AcDbDictionary
281
     1
  0
ACDBDICTIONARYWDFLT
  5
56
102
{ACAD_REACTORS
330
1A
102
}
330
1A
100
AcDbDictionary
281
     1
  3
Normal
350
57
100
AcDbDictionaryWithDefault
340
57
  0
DICTIONARY
  5
145
102
{ACAD_REACTORS
330
1A
102
}
330
1A
100
AcDbDictionary
281
     1
  3
Standard
350
146
  0
DICTIONARY
  5
AAE0
102
{ACAD_REACTORS
330
1A
102
}
330
1A
100
AcDbDictionary
281
     1
  0
DICTIONARY
  5
1D1
102
{ACAD_REACTORS
330
1A
102
}
330
1A
100
AcDbDictionary
281
     1
  3
CTABLESTYLE
350
1D2
  3
DIMASSOC
350
D03
  3
PROJECTNAME
350
D04
  0
DICTIONARY
  5
7795
102
{ACAD_REACTORS
330
1B4
102
}
330
1B4
100
AcDbDictionary
281
     1
  0
DICTIONARY
  5
7794
102
{ACAD_REACTORS
330
1B4
102
}
330
1B4
100
AcDbDictionary
281
     1
1001
ACAD
1000
<All
  0
SORTENTSTABLE
  5
D14
102
{ACAD_REACTORS
330
D13
102
}
330
D13
100
AcDbSortentsTable
330
2
331
23
  5
23
331
21
  5
21
331
1F
  5
1F
331
20
  5
20
  0
GROUP
  5
E0D
102
{ACAD_REACTORS
330
18
102
}
330
18
100
AcDbGroup
300

 70
     1
 71
     1
  0
GROUP
  5
4E16
102
{ACAD_REACTORS
330
18
102
}
330
18
100
AcDbGroup
300

 70
     1
 71
     1
  0
GROUP
  5
2C6B
102
{ACAD_REACTORS
330
18
102
}
330
18
100
AcDbGroup
300

 70
     1
 71
     1
  0
GROUP
  5
76E3
102
{ACAD_REACTORS
330
18
102
}
330
18
100
AcDbGroup
300

 70
     1
 71
     1
  0
GROUP
  5
3A25
102
{ACAD_REACTORS
330
18
102
}
330
18
100
AcDbGroup
300

 70
     1
 71
     1
  0
GROUP
  5
7793
102
{ACAD_REACTORS
330
18
102
}
330
18
100
AcDbGroup
300

 70
     1
 71
     1
  0
GROUP
  5
2D78
102
{ACAD_REACTORS
330
18
102
}
330
18
100
AcDbGroup
300

 70
     1
 71
     1
  0
GROUP
  5
7ADA
102
{ACAD_REACTORS
330
18
102
}
330
18
100
AcDbGroup
300

 70
     1
 71
     1
  0
GROUP
  5
A089
102
{ACAD_REACTORS
330
18
102
}
330
18
100
AcDbGroup
300

 70
     1
 71
     1
  0
GROUP
  5
26DD
102
{ACAD_REACTORS
330
18
102
}
330
18
100
AcDbGroup
300

 70
     1
 71
     1
  0
GROUP
  5
7D2B
102
{ACAD_REACTORS
330
18
102
}
330
18
100
AcDbGroup
300

 70
     1
 71
     1
  0
GROUP
  5
32E4
102
{ACAD_REACTORS
330
18
102
}
330
18
100
AcDbGroup
300

 70
     1
 71
     1
  0
GROUP
  5
8919
102
{ACAD_REACTORS
330
18
102
}
330
18
100
AcDbGroup
300

 70
     1
 71
     1
  0
GROUP
  5
2F81
102
{ACAD_REACTORS
330
18
102
}
330
18
100
AcDbGroup
300

 70
     1
 71
     1
  0
GROUP
  5
4407
102
{ACAD_REACTORS
330
18
102
}
330
18
100
AcDbGroup
300

 70
     1
 71
     1
  0
GROUP
  5
22C8
102
{ACAD_REACTORS
330
18
102
}
330
18
100
AcDbGroup
300

 70
     1
 71
     1
  0
GROUP
  5
7E5C
102
{ACAD_REACTORS
330
18
102
}
330
18
100
AcDbGroup
300

 70
     1
 71
     1
  0
GROUP
  5
8108
102
{ACAD_REACTORS
330
18
102
}
330
18
100
AcDbGroup
300

 70
     1
 71
     1
  0
GROUP
  5
8393
102
{ACAD_REACTORS
330
18
102
}
330
18
100
AcDbGroup
300

 70
     1
 71
     1
  0
GROUP
  5
84B0
102
{ACAD_REACTORS
330
18
102
}
330
18
100
AcDbGroup
300

 70
     1
 71
     1
  0
GROUP
  5
AAC6
102
{ACAD_REACTORS
330
18
102
}
330
18
100
AcDbGroup
300

 70
     1
 71
     1
340
AA73
340
AA71
340
AA6F
340
AA6E
340
AA6D
340
AA6B
340
AA6A
340
AA69
340
AA68
340
AA67
340
AA66
340
AA65
340
AA64
340
AA63
340
AA62
340
AA61
340
AA60
  0
GROUP
  5
8BB8
102
{ACAD_REACTORS
330
18
102
}
330
18
100
AcDbGroup
300

 70
     1
 71
     1
  0
GROUP
  5
A10F
102
{ACAD_REACTORS
330
18
102
}
330
18
100
AcDbGroup
300

 70
     1
 71
     1
  0
GROUP
  5
8F11
102
{ACAD_REACTORS
330
18
102
}
330
18
100
AcDbGroup
300

 70
     1
 71
     1
  0
GROUP
  5
8F12
102
{ACAD_REACTORS
330
18
102
}
330
18
100
AcDbGroup
300

 70
     1
 71
     1
  0
GROUP
  5
9092
102
{ACAD_REACTORS
330
18
102
}
330
18
100
AcDbGroup
300

 70
     1
 71
     1
  0
GROUP
  5
9163
102
{ACAD_REACTORS
330
18
102
}
330
18
100
AcDbGroup
300

 70
     1
 71
     1
  0
GROUP
  5
9432
102
{ACAD_REACTORS
330
18
102
}
330
18
100
AcDbGroup
300

 70
     1
 71
     1
  0
GROUP
  5
964B
102
{ACAD_REACTORS
330
18
102
}
330
18
100
AcDbGroup
300

 70
     1
 71
     1
  0
GROUP
  5
A0DC
102
{ACAD_REACTORS
330
18
102
}
330
18
100
AcDbGroup
300

 70
     1
 71
     1
  0
GROUP
  5
AA2A
102
{ACAD_REACTORS
330
18
102
}
330
18
100
AcDbGroup
300

 70
     1
 71
     1
340
A9AD
340
A9AC
340
A9AB
340
A9AA
340
A9A7
340
A9A6
340
A9A5
340
A9A4
340
A9A3
340
A9A2
340
A9A1
340
A9A0
340
A99F
340
A99E
340
A99D
340
A99C
340
A99B
340
A999
340
A998
340
A997
340
A996
340
A995
340
A994
340
A993
340
A992
340
A991
340
A990
340
A98F
340
A98E
340
A98D
340
A98C
340
A98B
340
A98A
340
A989
340
A988
340
A987
340
A986
340
A985
340
A984
340
A983
340
A982
340
A981
340
A980
340
A97F
340
A97E
340
A97D
340
A97C
340
A97B
340
A97A
340
A979
340
A978
340
A977
340
A976
340
A975
340
A974
340
A973
340
A972
340
A971
340
A970
340
A96F
340
A96E
340
A96D
340
A96C
340
A96B
340
A96A
340
A969
  0
GROUP
  5
A154
102
{ACAD_REACTORS
330
18
102
}
330
18
100
AcDbGroup
300

 70
     1
 71
     1
  0
GROUP
  5
52B0
102
{ACAD_REACTORS
330
18
102
}
330
18
100
AcDbGroup
300

 70
     1
 71
     1
  0
GROUP
  5
A1CC
102
{ACAD_REACTORS
330
18
102
}
330
18
100
AcDbGroup
300

 70
     1
 71
     1
  0
GROUP
  5
A2F5
102
{ACAD_REACTORS
330
18
102
}
330
18
100
AcDbGroup
300

 70
     1
 71
     1
  0
GROUP
  5
A407
102
{ACAD_REACTORS
330
18
102
}
330
18
100
AcDbGroup
300

 70
     1
 71
     1
  0
GROUP
  5
A4D9
102
{ACAD_REACTORS
330
18
102
}
330
18
100
AcDbGroup
300

 70
     1
 71
     1
  0
GROUP
  5
A739
102
{ACAD_REACTORS
330
18
102
}
330
18
100
AcDbGroup
300

 70
     1
 71
     1
  0
GROUP
  5
A80B
102
{ACAD_REACTORS
330
18
102
}
330
18
100
AcDbGroup
300

 70
     1
 71
     1
  0
GROUP
  5
519C
102
{ACAD_REACTORS
330
18
102
}
330
18
100
AcDbGroup
300

 70
     1
 71
     1
  0
GROUP
  5
8635
102
{ACAD_REACTORS
330
18
102
}
330
18
100
AcDbGroup
300

 70
     1
 71
     1
  0
GROUP
  5
A911
102
{ACAD_REACTORS
330
18
102
}
330
18
100
AcDbGroup
300

 70
     1
 71
     1
  0
GROUP
  5
36C9
102
{ACAD_REACTORS
330
18
102
}
330
18
100
AcDbGroup
300

 70
     1
 71
     1
  0
GROUP
  5
4C3E
102
{ACAD_REACTORS
330
18
102
}
330
18
100
AcDbGroup
300

 70
     1
 71
     1
  0
GROUP
  5
5396
102
{ACAD_REACTORS
330
18
102
}
330
18
100
AcDbGroup
300

 70
     1
 71
     1
  0
GROUP
  5
265A
102
{ACAD_REACTORS
330
18
102
}
330
18
100
AcDbGroup
300

 70
     1
 71
     1
  0
GROUP
  5
275E
102
{ACAD_REACTORS
330
18
102
}
330
18
100
AcDbGroup
300

 70
     1
 71
     1
  0
GROUP
  5
48BA
102
{ACAD_REACTORS
330
18
102
}
330
18
100
AcDbGroup
300

 70
     1
 71
     1
  0
GROUP
  5
5464
102
{ACAD_REACTORS
330
18
102
}
330
18
100
AcDbGroup
300

 70
     1
 71
     1
  0
GROUP
  5
556A
102
{ACAD_REACTORS
330
18
102
}
330
18
100
AcDbGroup
300

 70
     1
 71
     1
  0
GROUP
  5
4EE5
102
{ACAD_REACTORS
330
18
102
}
330
18
100
AcDbGroup
300

 70
     1
 71
     1
  0
GROUP
  5
3467
102
{ACAD_REACTORS
330
18
102
}
330
18
100
AcDbGroup
300

 70
     1
 71
     1
  0
GROUP
  5
98D2
102
{ACAD_REACTORS
330
18
102
}
330
18
100
AcDbGroup
300

 70
     1
 71
     1
  0
GROUP
  5
213E
102
{ACAD_REACTORS
330
18
102
}
330
18
100
AcDbGroup
300

 70
     1
 71
     1
  0
GROUP
  5
57BF
102
{ACAD_REACTORS
330
18
102
}
330
18
100
AcDbGroup
300

 70
     1
 71
     1
  0
GROUP
  5
31DF
102
{ACAD_REACTORS
330
18
102
}
330
18
100
AcDbGroup
300

 70
     1
 71
     1
  0
GROUP
  5
3349
102
{ACAD_REACTORS
330
18
102
}
330
18
100
AcDbGroup
300

 70
     1
 71
     1
  0
GROUP
  5
4CEC
102
{ACAD_REACTORS
330
18
102
}
330
18
100
AcDbGroup
300

 70
     1
 71
     1
  0
GROUP
  5
58EE
102
{ACAD_REACTORS
330
18
102
}
330
18
100
AcDbGroup
300

 70
     1
 71
     1
  0
GROUP
  5
382B
102
{ACAD_REACTORS
330
18
102
}
330
18
100
AcDbGroup
300

 70
     1
 71
     1
  0
GROUP
  5
1EFE
102
{ACAD_REACTORS
330
18
102
}
330
18
100
AcDbGroup
300

 70
     1
 71
     1
  0
GROUP
  5
2573
102
{ACAD_REACTORS
330
18
102
}
330
18
100
AcDbGroup
300

 70
     1
 71
     1
  0
GROUP
  5
87B5
102
{ACAD_REACTORS
330
18
102
}
330
18
100
AcDbGroup
300

 70
     1
 71
     1
  0
GROUP
  5
422E
102
{ACAD_REACTORS
330
18
102
}
330
18
100
AcDbGroup
300

 70
     1
 71
     1
  0
GROUP
  5
99FC
102
{ACAD_REACTORS
330
18
102
}
330
18
100
AcDbGroup
300

 70
     1
 71
     1
  0
GROUP
  5
97D7
102
{ACAD_REACTORS
330
18
102
}
330
18
100
AcDbGroup
300

 70
     1
 71
     1
  0
GROUP
  5
4516
102
{ACAD_REACTORS
330
18
102
}
330
18
100
AcDbGroup
300

 70
     1
 71
     1
  0
GROUP
  5
3878
102
{ACAD_REACTORS
330
18
102
}
330
18
100
AcDbGroup
300

 70
     1
 71
     1
  0
GROUP
  5
5D92
102
{ACAD_REACTORS
330
18
102
}
330
18
100
AcDbGroup
300

 70
     1
 71
     1
  0
GROUP
  5
2905
102
{ACAD_REACTORS
330
18
102
}
330
18
100
AcDbGroup
300

 70
     1
 71
     1
  0
GROUP
  5
3E5C
102
{ACAD_REACTORS
330
18
102
}
330
18
100
AcDbGroup
300

 70
     1
 71
     1
  0
GROUP
  5
1555
102
{ACAD_REACTORS
330
18
102
}
330
18
100
AcDbGroup
300

 70
     1
 71
     1
  0
GROUP
  5
17BC
102
{ACAD_REACTORS
330
18
102
}
330
18
100
AcDbGroup
300

 70
     1
 71
     1
  0
GROUP
  5
136A
102
{ACAD_REACTORS
330
18
102
}
330
18
100
AcDbGroup
300

 70
     1
 71
     1
  0
GROUP
  5
3181
102
{ACAD_REACTORS
330
18
102
}
330
18
100
AcDbGroup
300

 70
     1
 71
     1
  0
GROUP
  5
2B84
102
{ACAD_REACTORS
330
18
102
}
330
18
100
AcDbGroup
300

 70
     1
 71
     1
  0
GROUP
  5
9AE5
102
{ACAD_REACTORS
330
18
102
}
330
18
100
AcDbGroup
300

 70
     1
 71
     1
  0
GROUP
  5
24D6
102
{ACAD_REACTORS
330
18
102
}
330
18
100
AcDbGroup
300

 70
     1
 71
     1
  0
GROUP
  5
4F64
102
{ACAD_REACTORS
330
18
102
}
330
18
100
AcDbGroup
300

 70
     1
 71
     1
  0
GROUP
  5
5F6F
102
{ACAD_REACTORS
330
18
102
}
330
18
100
AcDbGroup
300

 70
     1
 71
     1
  0
GROUP
  5
4A53
102
{ACAD_REACTORS
330
18
102
}
330
18
100
AcDbGroup
300

 70
     1
 71
     1
  0
GROUP
  5
626B
102
{ACAD_REACTORS
330
18
102
}
330
18
100
AcDbGroup
300

 70
     1
 71
     1
  0
GROUP
  5
6417
102
{ACAD_REACTORS
330
18
102
}
330
18
100
AcDbGroup
300

 70
     1
 71
     1
  0
GROUP
  5
307D
102
{ACAD_REACTORS
330
18
102
}
330
18
100
AcDbGroup
300

 70
     1
 71
     1
  0
GROUP
  5
46A5
102
{ACAD_REACTORS
330
18
102
}
330
18
100
AcDbGroup
300

 70
     1
 71
     1
  0
GROUP
  5
668C
102
{ACAD_REACTORS
330
18
102
}
330
18
100
AcDbGroup
300

 70
     1
 71
     1
  0
GROUP
  5
4D76
102
{ACAD_REACTORS
330
18
102
}
330
18
100
AcDbGroup
300

 70
     1
 71
     1
  0
GROUP
  5
241A
102
{ACAD_REACTORS
330
18
102
}
330
18
100
AcDbGroup
300

 70
     1
 71
     1
  0
GROUP
  5
9B93
102
{ACAD_REACTORS
330
18
102
}
330
18
100
AcDbGroup
300

 70
     1
 71
     1
  0
GROUP
  5
68C5
102
{ACAD_REACTORS
330
18
102
}
330
18
100
AcDbGroup
300

 70
     1
 71
     1
  0
GROUP
  5
34BB
102
{ACAD_REACTORS
330
18
102
}
330
18
100
AcDbGroup
300

 70
     1
 71
     1
  0
GROUP
  5
4781
102
{ACAD_REACTORS
330
18
102
}
330
18
100
AcDbGroup
300

 70
     1
 71
     1
  0
GROUP
  5
6A30
102
{ACAD_REACTORS
330
18
102
}
330
18
100
AcDbGroup
300

 70
     1
 71
     1
  0
GROUP
  5
2EE1
102
{ACAD_REACTORS
330
18
102
}
330
18
100
AcDbGroup
300

 70
     1
 71
     1
  0
GROUP
  5
6A98
102
{ACAD_REACTORS
330
18
102
}
330
18
100
AcDbGroup
300

 70
     1
 71
     1
  0
GROUP
  5
4B49
102
{ACAD_REACTORS
330
18
102
}
330
18
100
AcDbGroup
300

 70
     1
 71
     1
  0
GROUP
  5
1A98
102
{ACAD_REACTORS
330
18
102
}
330
18
100
AcDbGroup
300

 70
     1
 71
     1
  0
GROUP
  5
6C32
102
{ACAD_REACTORS
330
18
102
}
330
18
100
AcDbGroup
300

 70
     1
 71
     1
  0
GROUP
  5
2037
102
{ACAD_REACTORS
330
18
102
}
330
18
100
AcDbGroup
300

 70
     1
 71
     1
  0
GROUP
  5
6D00
102
{ACAD_REACTORS
330
18
102
}
330
18
100
AcDbGroup
300

 70
     1
 71
     1
  0
GROUP
  5
9CE8
102
{ACAD_REACTORS
330
18
102
}
330
18
100
AcDbGroup
300

 70
     1
 71
     1
  0
GROUP
  5
3988
102
{ACAD_REACTORS
330
18
102
}
330
18
100
AcDbGroup
300

 70
     1
 71
     1
  0
GROUP
  5
6DE3
102
{ACAD_REACTORS
330
18
102
}
330
18
100
AcDbGroup
300

 70
     1
 71
     1
  0
GROUP
  5
FF8
102
{ACAD_REACTORS
330
18
102
}
330
18
100
AcDbGroup
300

 70
     1
 71
     1
  0
GROUP
  5
5011
102
{ACAD_REACTORS
330
18
102
}
330
18
100
AcDbGroup
300

 70
     1
 71
     1
  0
GROUP
  5
6EB7
102
{ACAD_REACTORS
330
18
102
}
330
18
100
AcDbGroup
300

 70
     1
 71
     1
  0
GROUP
  5
2A17
102
{ACAD_REACTORS
330
18
102
}
330
18
100
AcDbGroup
300

 70
     1
 71
     1
  0
GROUP
  5
706D
102
{ACAD_REACTORS
330
18
102
}
330
18
100
AcDbGroup
300

 70
     1
 71
     1
  0
GROUP
  5
45E5
102
{ACAD_REACTORS
330
18
102
}
330
18
100
AcDbGroup
300

 70
     1
 71
     1
  0
GROUP
  5
7170
102
{ACAD_REACTORS
330
18
102
}
330
18
100
AcDbGroup
300

 70
     1
 71
     1
  0
GROUP
  5
35A5
102
{ACAD_REACTORS
330
18
102
}
330
18
100
AcDbGroup
300

 70
     1
 71
     1
  0
GROUP
  5
3695
102
{ACAD_REACTORS
330
18
102
}
330
18
100
AcDbGroup
300

 70
     1
 71
     1
  0
GROUP
  5
9E96
102
{ACAD_REACTORS
330
18
102
}
330
18
100
AcDbGroup
300

 70
     1
 71
     1
  0
GROUP
  5
401B
102
{ACAD_REACTORS
330
18
102
}
330
18
100
AcDbGroup
300

 70
     1
 71
     1
  0
GROUP
  5
1CBC
102
{ACAD_REACTORS
330
18
102
}
330
18
100
AcDbGroup
300

 70
     1
 71
     1
  0
GROUP
  5
3C81
102
{ACAD_REACTORS
330
18
102
}
330
18
100
AcDbGroup
300

 70
     1
 71
     1
  0
GROUP
  5
7453
102
{ACAD_REACTORS
330
18
102
}
330
18
100
AcDbGroup
300

 70
     1
 71
     1
  0
LAYOUT
  5
5A
102
{ACAD_XDICTIONARY
360
AAE1
102
}
102
{ACAD_REACTORS
330
58
102
}
330
58
100
AcDbPlotSettings
  1

  2
なし
  4

  6

 40
0.0
 41
0.0
 42
0.0
 43
0.0
 44
0.0
 45
0.0
 46
0.0
 47
0.0
 48
0.0
 49
0.0
140
0.0
141
0.0
142
1.0
143
1.0
 70
  1712
 72
     0
 73
     0
 74
     0
  7
monochrome.ctb
 75
     0
147
1.0
148
0.0
149
0.0
100
AcDbLayout
  1
Model
 70
     1
 71
     0
 10
0.0
 20
0.0
 11
12.0
 21
9.0
 12
0.0
 22
0.0
 32
0.0
 14
0.0
 24
0.0
 34
0.0
 15
0.0
 25
0.0
 35
0.0
146
0.0
 13
0.0
 23
0.0
 33
0.0
 16
1.0
 26
0.0
 36
0.0
 17
0.0
 27
1.0
 37
0.0
 76
     0
330
2
  0
LAYOUT
  5
5B
102
{ACAD_XDICTIONARY
360
AAE3
102
}
102
{ACAD_REACTORS
330
58
102
}
330
58
100
AcDbPlotSettings
  1

  2
なし
  4

  6

 40
0.0
 41
0.0
 42
0.0
 43
0.0
 44
0.0
 45
0.0
 46
0.0
 47
0.0
 48
0.0
 49
0.0
140
0.0
141
0.0
142
1.0
143
1.0
 70
   688
 72
     0
 73
     0
 74
     5
  7
monochrome.ctb
 75
    16
147
1.0
148
0.0
149
0.0
100
AcDbLayout
  1
ﾚｲｱｳﾄ1
 70
     1
 71
     1
 10
0.0
 20
0.0
 11
12.0
 21
9.0
 12
0.0
 22
0.0
 32
0.0
 14
1.000000000000000E+20
 24
1.000000000000000E+20
 34
1.000000000000000E+20
 15
-1.000000000000000E+20
 25
-1.000000000000000E+20
 35
-1.000000000000000E+20
146
0.0
 13
0.0
 23
0.0
 33
0.0
 16
1.0
 26
0.0
 36
0.0
 17
0.0
 27
1.0
 37
0.0
 76
     0
330
7
  0
MLINESTYLE
  5
1D
102
{ACAD_REACTORS
330
19
102
}
330
19
100
AcDbMlineStyle
  2
STANDARD
 70
     0
  3

 62
   256
 51
90.0
 52
90.0
 71
     2
 49
0.5
 62
   256
  6
BYLAYER
 49
-0.5
 62
   256
  6
BYLAYER
  0
ACDBPLACEHOLDER
  5
57
102
{ACAD_REACTORS
330
56
102
}
330
56
  0
TABLESTYLE
  5
146
102
{ACAD_REACTORS
330
145
102
}
330
145
100
AcDbTableStyle
  3
Standard
 70
     0
 71
     0
 40
0.06
 41
0.06
280
     0
281
     0
  7
STANDARD
140
0.18
170
     2
 62
     0
 63
     7
283
     0
274
    -2
284
     1
 64
     0
275
    -2
285
     1
 65
     0
276
    -2
286
     1
 66
     0
277
    -2
287
     1
 67
     0
278
    -2
288
     1
 68
     0
279
    -2
289
     1
 69
     0
  7
STANDARD
140
0.25
170
     5
 62
     0
 63
     7
283
     0
274
    -2
284
     1
 64
     0
275
    -2
285
     1
 65
     0
276
    -2
286
     1
 66
     0
277
    -2
287
     1
 67
     0
278
    -2
288
     1
 68
     0
279
    -2
289
     1
 69
     0
  7
STANDARD
140
0.18
170
     5
 62
     0
 63
     7
283
     0
274
    -2
284
     1
 64
     0
275
    -2
285
     1
 65
     0
276
    -2
286
     1
 66
     0
277
    -2
287
     1
 67
     0
278
    -2
288
     1
 68
     0
279
    -2
289
     1
 69
     0
  0
DICTIONARYVAR
  5
1D2
102
{ACAD_REACTORS
330
1D1
102
}
330
1D1
100
DictionaryVariables
280
     0
  1
STANDARD
  0
DICTIONARYVAR
  5
D03
102
{ACAD_REACTORS
330
1D1
102
}
330
1D1
100
DictionaryVariables
280
     0
  1
1
  0
DICTIONARYVAR
  5
D04
102
{ACAD_REACTORS
330
1D1
102
}
330
1D1
100
DictionaryVariables
280
     0
  1

  0
DICTIONARY
  5
AAE1
330
5A
100
AcDbDictionary
280
     1
281
     1
  3
ACAD_XREC_ROUNDTRIP
360
AAE2
  0
DICTIONARY
  5
AAE3
330
5B
100
AcDbDictionary
280
     1
281
     1
  3
ACAD_XREC_ROUNDTRIP
360
AAE4
  0
XRECORD
  5
AAE2
102
{ACAD_REACTORS
330
AAE1
102
}
330
AAE1
100
AcDbXrecord
280
     1
102
SHADEPLOT
 70
     0
102
SHADEPLOTRESLEVEL
 70
     2
102
SHADEPLOTCUSTOMDPI
 70
   300
  0
XRECORD
  5
AAE4
102
{ACAD_REACTORS
330
AAE3
102
}
330
AAE3
100
AcDbXrecord
280
     1
102
SHADEPLOT
 70
     0
102
SHADEPLOTRESLEVEL
 70
     2
102
SHADEPLOTCUSTOMDPI
 70
   300
  0
ENDSEC
  0
EOF
