  0
SECTION
  2
HEADER
  9
$ACADVER
  1
AC1015
  9
$ACADMAINTVER
 70
    20
  9
$DWGCODEPAGE
  3
ANSI_932
  9
$INSBASE
 10
922.019522
 20
-675.4306699999999
 30
0.0
  9
$EXTMIN
 10
-0.0423931594909846
 20
-0.0031921260709851
 30
-0.000000000000013
  9
$EXTMAX
 10
114.9152832667503
 20
123.9501948752744
 30
0.0000000000000023
  9
$LIMMIN
 10
0.0
 20
0.0
  9
$LIMMAX
 10
420.0
 20
297.0
  9
$ORTHOMODE
 70
     0
  9
$REGENMODE
 70
     1
  9
$FILLMODE
 70
     1
  9
$QTEXTMODE
 70
     0
  9
$MIRRTEXT
 70
     1
  9
$LTSCALE
 40
1.0
  9
$ATTMODE
 70
     1
  9
$TEXTSIZE
 40
30.0
  9
$TRACEWID
 40
0.05
  9
$TEXTSTYLE
  7
SUNPOU
  9
$CLAYER
  8
0
  9
$CELTYPE
  6
BYLAYER
  9
$CECOLOR
 62
   256
  9
$CELTSCALE
 40
1.0
  9
$DISPSILH
 70
     0
  9
$DIMSCALE
 40
1.0
  9
$DIMASZ
 40
2.0
  9
$DIMEXO
 40
10.0
  9
$DIMDLI
 40
0.38
  9
$DIMRND
 40
0.0
  9
$DIMDLE
 40
0.0
  9
$DIMEXE
 40
0.0
  9
$DIMTP
 40
0.0
  9
$DIMTM
 40
0.0
  9
$DIMTXT
 40
10.0
  9
$DIMCEN
 40
0.0
  9
$DIMTSZ
 40
0.0
  9
$DIMTOL
 70
     0
  9
$DIMLIM
 70
     0
  9
$DIMTIH
 70
     0
  9
$DIMTOH
 70
     0
  9
$DIMSE1
 70
     0
  9
$DIMSE2
 70
     0
  9
$DIMTAD
 70
     1
  9
$DIMZIN
 70
     0
  9
$DIMBLK
  1
Dot
  9
$DIMASO
 70
     1
  9
$DIMSHO
 70
     1
  9
$DIMPOST
  1

  9
$DIMAPOST
  1

  9
$DIMALT
 70
     0
  9
$DIMALTD
 70
     2
  9
$DIMALTF
 40
25.4
  9
$DIMLFAC
 40
1.0
  9
$DIMTOFL
 70
     0
  9
$DIMTVP
 40
0.0
  9
$DIMTIX
 70
     0
  9
$DIMSOXD
 70
     0
  9
$DIMSAH
 70
     0
  9
$DIMBLK1
  1

  9
$DIMBLK2
  1

  9
$DIMSTYLE
  2
STANDARD
  9
$DIMCLRD
 70
    60
  9
$DIMCLRE
 70
    70
  9
$DIMCLRT
 70
    60
  9
$DIMTFAC
 40
0.064286
  9
$DIMGAP
 40
3.0
  9
$DIMJUST
 70
     0
  9
$DIMSD1
 70
     0
  9
$DIMSD2
 70
     0
  9
$DIMTOLJ
 70
     1
  9
$DIMTZIN
 70
     0
  9
$DIMALTZ
 70
     0
  9
$DIMALTTZ
 70
     0
  9
$DIMUPT
 70
     0
  9
$DIMDEC
 70
     0
  9
$DIMTDEC
 70
     0
  9
$DIMALTU
 70
     2
  9
$DIMALTTD
 70
     2
  9
$DIMTXSTY
  7
SUNPOU
  9
$DIMAUNIT
 70
     0
  9
$DIMADEC
 70
     0
  9
$DIMALTRND
 40
0.0
  9
$DIMAZIN
 70
     0
  9
$DIMDSEP
 70
    46
  9
$DIMATFIT
 70
     3
  9
$DIMFRAC
 70
     0
  9
$DIMLDRBLK
  1

  9
$DIMLUNIT
 70
     2
  9
$DIMLWD
 70
    -2
  9
$DIMLWE
 70
    -2
  9
$DIMTMOVE
 70
     0
  9
$LUNITS
 70
     2
  9
$LUPREC
 70
     5
  9
$SKETCHINC
 40
0.1
  9
$FILLETRAD
 40
0.0
  9
$AUNITS
 70
     0
  9
$AUPREC
 70
     0
  9
$MENU
  1
acad
  9
$ELEVATION
 40
0.0
  9
$PELEVATION
 40
0.0
  9
$THICKNESS
 40
0.0
  9
$LIMCHECK
 70
     0
  9
$CHAMFERA
 40
0.0
  9
$CHAMFERB
 40
0.0
  9
$CHAMFERC
 40
0.0
  9
$CHAMFERD
 40
0.0
  9
$SKPOLY
 70
     0
  9
$TDCREATE
 40
2450623.654673033
  9
$TDUCREATE
 40
2450623.279673032
  9
$TDUPDATE
 40
2453858.629006736
  9
$TDUUPDATE
 40
2453858.254006736
  9
$TDINDWG
 40
0.1867987616
  9
$TDUSRTIMER
 40
0.1867985880
  9
$USRTIMER
 70
     1
  9
$ANGBASE
 50
0.0
  9
$ANGDIR
 70
     0
  9
$PDMODE
 70
     0
  9
$PDSIZE
 40
0.0
  9
$PLINEWID
 40
0.0
  9
$SPLFRAME
 70
     0
  9
$SPLINETYPE
 70
     6
  9
$SPLINESEGS
 70
     8
  9
$HANDSEED
  5
4996
  9
$SURFTAB1
 70
     6
  9
$SURFTAB2
 70
     6
  9
$SURFTYPE
 70
     6
  9
$SURFU
 70
     6
  9
$SURFV
 70
     6
  9
$UCSBASE
  2

  9
$UCSNAME
  2

  9
$UCSORG
 10
0.0
 20
0.0
 30
0.0
  9
$UCSXDIR
 10
1.0
 20
0.0
 30
0.0
  9
$UCSYDIR
 10
0.0
 20
1.0
 30
0.0
  9
$UCSORTHOREF
  2

  9
$UCSORTHOVIEW
 70
     0
  9
$UCSORGTOP
 10
0.0
 20
0.0
 30
0.0
  9
$UCSORGBOTTOM
 10
0.0
 20
0.0
 30
0.0
  9
$UCSORGLEFT
 10
0.0
 20
0.0
 30
0.0
  9
$UCSORGRIGHT
 10
0.0
 20
0.0
 30
0.0
  9
$UCSORGFRONT
 10
0.0
 20
0.0
 30
0.0
  9
$UCSORGBACK
 10
0.0
 20
0.0
 30
0.0
  9
$PUCSBASE
  2

  9
$PUCSNAME
  2

  9
$PUCSORG
 10
0.0
 20
0.0
 30
0.0
  9
$PUCSXDIR
 10
1.0
 20
0.0
 30
0.0
  9
$PUCSYDIR
 10
0.0
 20
1.0
 30
0.0
  9
$PUCSORTHOREF
  2

  9
$PUCSORTHOVIEW
 70
     0
  9
$PUCSORGTOP
 10
0.0
 20
0.0
 30
0.0
  9
$PUCSORGBOTTOM
 10
0.0
 20
0.0
 30
0.0
  9
$PUCSORGLEFT
 10
0.0
 20
0.0
 30
0.0
  9
$PUCSORGRIGHT
 10
0.0
 20
0.0
 30
0.0
  9
$PUCSORGFRONT
 10
0.0
 20
0.0
 30
0.0
  9
$PUCSORGBACK
 10
0.0
 20
0.0
 30
0.0
  9
$USERI1
 70
     0
  9
$USERI2
 70
     0
  9
$USERI3
 70
     0
  9
$USERI4
 70
     0
  9
$USERI5
 70
     0
  9
$USERR1
 40
0.0
  9
$USERR2
 40
0.0
  9
$USERR3
 40
0.0
  9
$USERR4
 40
0.0
  9
$USERR5
 40
0.0
  9
$WORLDVIEW
 70
     1
  9
$SHADEDGE
 70
     3
  9
$SHADEDIF
 70
    70
  9
$TILEMODE
 70
     1
  9
$MAXACTVP
 70
    16
  9
$PINSBASE
 10
0.0
 20
0.0
 30
0.0
  9
$PLIMCHECK
 70
     0
  9
$PEXTMIN
 10
1.000000000000000E+20
 20
1.000000000000000E+20
 30
1.000000000000000E+20
  9
$PEXTMAX
 10
-1.000000000000000E+20
 20
-1.000000000000000E+20
 30
-1.000000000000000E+20
  9
$PLIMMIN
 10
0.0
 20
0.0
  9
$PLIMMAX
 10
12.0
 20
9.0
  9
$UNITMODE
 70
     0
  9
$VISRETAIN
 70
     0
  9
$PLINEGEN
 70
     0
  9
$PSLTSCALE
 70
     1
  9
$TREEDEPTH
 70
  3020
  9
$CMLSTYLE
  2
STANDARD
  9
$CMLJUST
 70
     0
  9
$CMLSCALE
 40
1.0
  9
$PROXYGRAPHICS
 70
     1
  9
$MEASUREMENT
 70
     0
  9
$CELWEIGHT
370
    -1
  9
$ENDCAPS
280
     0
  9
$JOINSTYLE
280
     0
  9
$LWDISPLAY
290
     0
  9
$INSUNITS
 70
     0
  9
$HYPERLINKBASE
  1

  9
$STYLESHEET
  1

  9
$XEDIT
290
     1
  9
$CEPSNTYPE
380
     0
  9
$PSTYLEMODE
290
     1
  9
$FINGERPRINTGUID
  2
{FB88A696-E29C-4009-92AF-A3599A8169D5}
  9
$VERSIONGUID
  2
{D81F9D75-71F9-41D8-B01C-16AA5E88236C}
  9
$EXTNAMES
290
     1
  9
$PSVPSCALE
 40
0.0
  9
$OLESTARTUP
290
     0
  0
ENDSEC
  0
SECTION
  2
CLASSES
  0
CLASS
  1
DICTIONARYVAR
  2
AcDbDictionaryVar
  3
ObjectDBX Classes
 90
        0
280
     0
281
     0
  0
CLASS
  1
ACDBDICTIONARYWDFLT
  2
AcDbDictionaryWithDefault
  3
ObjectDBX Classes
 90
        0
280
     0
281
     0
  0
CLASS
  1
ACDBPLACEHOLDER
  2
AcDbPlaceHolder
  3
ObjectDBX Classes
 90
        0
280
     0
281
     0
  0
CLASS
  1
LAYOUT
  2
AcDbLayout
  3
ObjectDBX Classes
 90
        0
280
     0
281
     0
  0
CLASS
  1
TABLESTYLE
  2
AcDbTableStyle
  3
ObjectDBX Classes
 90
     2047
280
     0
281
     0
  0
CLASS
  1
SORTENTSTABLE
  2
AcDbSortentsTable
  3
ObjectDBX Classes
 90
        0
280
     0
281
     0
  0
ENDSEC
  0
SECTION
  2
TABLES
  0
TABLE
  2
VPORT
  5
12
330
0
100
AcDbSymbolTable
 70
     3
  0
VPORT
  5
4990
330
12
100
AcDbSymbolTableRecord
100
AcDbViewportTableRecord
  2
*Active
 70
     0
 10
0.0
 20
0.0
 11
1.0
 21
1.0
 12
57.43644505362965
 22
61.97350137460172
 13
0.0
 23
0.0
 14
1.0
 24
1.0
 15
0.0
 25
0.0
 16
0.0
 26
0.0
 36
1.0
 17
0.0
 27
0.0
 37
0.0
 40
124.9032213844974
 41
1.557544757033248
 42
50.0
 43
0.0
 44
0.0
 50
0.0
 51
0.0
 71
     0
 72
 20000
 73
     1
 74
     1
 75
     0
 76
     0
 77
     0
 78
     0
281
     0
 65
     1
110
0.0
120
0.0
130
0.0
111
1.0
121
0.0
131
0.0
112
0.0
122
1.0
132
0.0
 79
     0
146
0.0
  0
ENDTAB
  0
TABLE
  2
LTYPE
  5
D
330
0
100
AcDbSymbolTable
 70
     1
  0
LTYPE
  5
E
330
D
100
AcDbSymbolTableRecord
100
AcDbLinetypeTableRecord
  2
BYBLOCK
 70
     0
  3

 72
    65
 73
     0
 40
0.0
  0
LTYPE
  5
F
330
D
100
AcDbSymbolTableRecord
100
AcDbLinetypeTableRecord
  2
BYLAYER
 70
     0
  3

 72
    65
 73
     0
 40
0.0
  0
LTYPE
  5
5
330
D
100
AcDbSymbolTableRecord
100
AcDbLinetypeTableRecord
  2
CONTINUOUS
 70
     0
  3
Solid line
 72
    65
 73
     0
 40
0.0
  0
ENDTAB
  0
TABLE
  2
LAYER
  5
A
102
{ACAD_XDICTIONARY
360
1B4
102
}
330
0
100
AcDbSymbolTable
 70
     6
  0
LAYER
  5
4
330
A
100
AcDbSymbolTableRecord
100
AcDbLayerTableRecord
  2
0
 70
     0
 62
     7
  6
CONTINUOUS
370
    -3
390
57
  0
LAYER
  5
25
330
A
100
AcDbSymbolTableRecord
100
AcDbLayerTableRecord
  2
KIJUN
 70
     0
 62
     7
  6
CONTINUOUS
370
    -3
390
57
  0
LAYER
  5
22
330
A
100
AcDbSymbolTableRecord
100
AcDbLayerTableRecord
  2
HOJO
 70
     0
 62
     3
  6
CONTINUOUS
370
    -3
390
57
  0
LAYER
  5
1B
330
A
100
AcDbSymbolTableRecord
100
AcDbLayerTableRecord
  2
WAKU
 70
     0
 62
     1
  6
CONTINUOUS
370
    -3
390
57
  0
LAYER
  5
31
330
A
100
AcDbSymbolTableRecord
100
AcDbLayerTableRecord
  2
DEFPOINTS
 70
     0
 62
     7
  6
CONTINUOUS
290
     0
370
    -3
390
57
  0
LAYER
  5
28
330
A
100
AcDbSymbolTableRecord
100
AcDbLayerTableRecord
  2
SUNPOU
 70
     0
 62
    70
  6
CONTINUOUS
370
    -3
390
57
  0
ENDTAB
  0
TABLE
  2
STYLE
  5
B
330
0
100
AcDbSymbolTable
 70
     3
  0
STYLE
  5
C
330
B
100
AcDbSymbolTableRecord
100
AcDbTextStyleTableRecord
  2
STANDARD
 70
     0
 40
0.0
 41
1.0
 50
0.0
 71
     0
 42
0.2
  3
txt
  4

  0
STYLE
  5
1C
330
B
100
AcDbSymbolTableRecord
100
AcDbTextStyleTableRecord
  2
SUNPOU
 70
     0
 40
0.0
 41
1.0
 50
0.0
 71
     0
 42
30.0
  3
txt
  4
bigfont
  0
STYLE
  5
14A
330
B
100
AcDbSymbolTableRecord
100
AcDbTextStyleTableRecord
  2
LIFE
 70
     0
 40
0.0
 41
0.7
 50
0.0
 71
     0
 42
10.0
  3
romans
  4
extfont
  0
ENDTAB
  0
TABLE
  2
VIEW
  5
10
330
0
100
AcDbSymbolTable
 70
     0
  0
ENDTAB
  0
TABLE
  2
UCS
  5
11
330
0
100
AcDbSymbolTable
 70
     0
  0
ENDTAB
  0
TABLE
  2
APPID
  5
14
330
0
100
AcDbSymbolTable
 70
    10
  0
APPID
  5
15
330
14
100
AcDbSymbolTableRecord
100
AcDbRegAppTableRecord
  2
ACAD
 70
     0
  0
APPID
  5
1D3
330
14
100
AcDbSymbolTableRecord
100
AcDbRegAppTableRecord
  2
ACAD_DSTYLE_DIMTEXT_FILL
 70
     0
  0
APPID
  5
1D4
330
14
100
AcDbSymbolTableRecord
100
AcDbRegAppTableRecord
  2
ACAD_DSTYLE_DIMEXT_LENGTH
 70
     0
  0
APPID
  5
1D5
330
14
100
AcDbSymbolTableRecord
100
AcDbRegAppTableRecord
  2
ACAD_DSTYLE_DIMEXT_ENABLED
 70
     0
  0
APPID
  5
1D6
330
14
100
AcDbSymbolTableRecord
100
AcDbRegAppTableRecord
  2
ACAD_DSTYLE_DIM_LINETYPE
 70
     0
  0
APPID
  5
1D7
330
14
100
AcDbSymbolTableRecord
100
AcDbRegAppTableRecord
  2
ACAD_DSTYLE_DIM_EXT1_LINETYPE
 70
     0
  0
APPID
  5
1D8
330
14
100
AcDbSymbolTableRecord
100
AcDbRegAppTableRecord
  2
ACAD_DSTYLE_DIM_EXT2_LINETYPE
 70
     0
  0
APPID
  5
294
330
14
100
AcDbSymbolTableRecord
100
AcDbRegAppTableRecord
  2
ACAD_DSTYLE_DIMJOGGED_JOGANGLE_SYMBOL
 70
     0
  0
APPID
  5
478
330
14
100
AcDbSymbolTableRecord
100
AcDbRegAppTableRecord
  2
ACAD_DSTYLE_DIMARC_LENGTH_SYMBOL
 70
     0
  0
APPID
  5
157B
330
14
100
AcDbSymbolTableRecord
100
AcDbRegAppTableRecord
  2
ACAD_EXEMPT_FROM_CAD_STANDARDS
 70
     0
  0
ENDTAB
  0
TABLE
  2
DIMSTYLE
  5
16
330
0
100
AcDbSymbolTable
 70
     1
100
AcDbDimStyleTable
 71
     1
340
1E
  0
DIMSTYLE
105
1E
102
{ACAD_REACTORS
330
4960
102
}
330
16
100
AcDbSymbolTableRecord
100
AcDbDimStyleTableRecord
  2
STANDARD
 70
     0
340
C
  0
ENDTAB
  0
TABLE
  2
BLOCK_RECORD
  5
1
330
0
100
AcDbSymbolTable
 70
    29
  0
BLOCK_RECORD
  5
2
102
{ACAD_XDICTIONARY
360
1578
102
}
330
1
100
AcDbSymbolTableRecord
100
AcDbBlockTableRecord
  2
*MODEL_SPACE
340
5A
  0
BLOCK_RECORD
  5
7
330
1
100
AcDbSymbolTableRecord
100
AcDbBlockTableRecord
  2
*PAPER_SPACE
340
5B
  0
BLOCK_RECORD
  5
109
330
1
100
AcDbSymbolTableRecord
100
AcDbBlockTableRecord
  2
_Dot
340
0
102
{BLKREFS
331
3692
331
3693
331
369B
331
369C
331
371A
331
371B
331
3743
331
3744
331
39C7
331
39C8
331
3A9C
331
3A9D
331
3AAE
331
3AAF
331
3BA4
331
3BA5
331
3BB6
331
3BB7
331
3D99
331
3D9A
331
3DAB
331
3DAC
331
3F8B
331
3F8C
331
3F9D
331
3F9E
331
4187
331
4188
331
4199
331
419A
331
4383
331
4384
331
4395
331
4396
331
4578
331
4579
331
458A
331
458B
331
46DB
331
46DC
331
46ED
331
46EE
331
4802
331
4803
331
4814
331
4815
331
4958
331
4959
331
4979
331
497A
102
}
  0
BLOCK_RECORD
  5
47C2
330
1
100
AcDbSymbolTableRecord
100
AcDbBlockTableRecord
  2
*D22
340
0
  0
BLOCK_RECORD
  5
47CF
330
1
100
AcDbSymbolTableRecord
100
AcDbBlockTableRecord
  2
*D23
340
0
  0
BLOCK_RECORD
  5
482D
330
1
100
AcDbSymbolTableRecord
100
AcDbBlockTableRecord
  2
*X24
340
0
102
{BLKREFS
331
48A9
102
}
  0
BLOCK_RECORD
  5
4885
330
1
100
AcDbSymbolTableRecord
100
AcDbBlockTableRecord
  2
*X25
340
0
102
{BLKREFS
331
48A8
102
}
  0
BLOCK_RECORD
  5
4954
330
1
100
AcDbSymbolTableRecord
100
AcDbBlockTableRecord
  2
*D27
340
0
  0
BLOCK_RECORD
  5
4961
330
1
100
AcDbSymbolTableRecord
100
AcDbBlockTableRecord
  2
*D28
340
0
  0
ENDTAB
  0
ENDSEC
  0
SECTION
  2
BLOCKS
  0
BLOCK
  5
3
330
2
100
AcDbEntity
  8
0
100
AcDbBlockBegin
  2
*MODEL_SPACE
 70
     0
 10
0.0
 20
0.0
 30
0.0
  3
*MODEL_SPACE
  1

  0
ENDBLK
  5
6
330
2
100
AcDbEntity
  8
0
100
AcDbBlockEnd
  0
BLOCK
  5
8
330
7
100
AcDbEntity
 67
     1
  8
0
100
AcDbBlockBegin
  2
*PAPER_SPACE
 70
     0
 10
0.0
 20
0.0
 30
0.0
  3
*PAPER_SPACE
  1

  0
ENDBLK
  5
9
330
7
100
AcDbEntity
 67
     1
  8
0
100
AcDbBlockEnd
  0
BLOCK
  5
10C
330
109
100
AcDbEntity
  8
0
100
AcDbBlockBegin
  2
_Dot
 70
     0
 10
0.0
 20
0.0
 30
0.0
  3
_Dot
  1

  0
LWPOLYLINE
  5
10A
330
109
100
AcDbEntity
  8
0
  6
ByBlock
 62
     0
100
AcDbPolyline
 90
        2
 70
     1
 43
0.5
 10
-0.25
 20
0.0
 42
1.0
 10
0.25
 20
0.0
 42
1.0
  0
LINE
  5
10B
330
109
100
AcDbEntity
  8
0
  6
ByBlock
 62
     0
370
    -2
100
AcDbLine
 10
-0.5
 20
0.0
 30
0.0
 11
-1.0
 21
0.0
 31
0.0
  0
ENDBLK
  5
10D
330
109
100
AcDbEntity
  8
0
100
AcDbBlockEnd
  0
BLOCK
  5
47CC
330
47C2
100
AcDbEntity
  8
0
100
AcDbBlockBegin
  2
*D22
 70
     1
 10
0.0
 20
0.0
 30
0.0
  3
*D22
  1

  0
LINE
  5
4811
330
47C2
100
AcDbEntity
  8
SUNPOU
 62
    70
370
    -2
100
AcDbLine
 10
-147.0418067546898
 20
143.1456262488451
 30
0.0
 11
-147.0418067546898
 21
198.3150519019309
 31
0.0
  0
LINE
  5
4812
330
47C2
100
AcDbEntity
  8
SUNPOU
 62
    70
370
    -2
100
AcDbLine
 10
262.9581932453098
 20
152.5727548669661
 30
0.0
 11
262.9581932453098
 21
198.3150519019309
 31
0.0
  0
LINE
  5
4813
330
47C2
100
AcDbEntity
  8
SUNPOU
 62
    60
370
    -2
100
AcDbLine
 10
-145.0418067546898
 20
198.3150519019309
 30
0.0
 11
260.9581932453098
 21
198.3150519019309
 31
0.0
  0
INSERT
  5
4814
330
47C2
100
AcDbEntity
  8
SUNPOU
 62
    60
370
    -2
100
AcDbBlockReference
  2
_Dot
 10
-147.0418067546898
 20
198.3150519019309
 30
0.0
 41
2.0
 42
2.0
 43
2.0
 50
180.0
  0
INSERT
  5
4815
330
47C2
100
AcDbEntity
  8
SUNPOU
 62
    60
370
    -2
100
AcDbBlockReference
  2
_Dot
 10
262.9581932453098
 20
198.3150519019309
 30
0.0
 41
2.0
 42
2.0
 43
2.0
  0
MTEXT
  5
4816
330
47C2
100
AcDbEntity
  8
SUNPOU
 62
    60
100
AcDbMText
 10
57.95819324530999
 20
206.3150519019309
 30
0.0
 40
10.0
 41
0.0
 71
     5
 72
     1
  1
\A1;410
  7
SUNPOU
 73
     1
 44
1.0
1001
ACAD
1000
MTEXTBEGIN
1070
    73
1070
     1
1070
    44
1040
1.0
1070
    74
1070
     0
1000
MTEXTEND
  0
POINT
  5
4817
330
47C2
100
AcDbEntity
  8
DEFPOINTS
 62
     0
100
AcDbPoint
 10
-147.0418067546898
 20
133.145626248845
 30
0.0
  0
POINT
  5
4818
330
47C2
100
AcDbEntity
  8
DEFPOINTS
 62
     0
100
AcDbPoint
 10
262.9581932453098
 20
142.5727548669661
 30
0.0
  0
POINT
  5
4819
330
47C2
100
AcDbEntity
  8
DEFPOINTS
 62
     0
100
AcDbPoint
 10
262.9581932453098
 20
198.3150519019309
 30
0.0
  0
ENDBLK
  5
47CD
330
47C2
100
AcDbEntity
  8
0
100
AcDbBlockEnd
  0
BLOCK
  5
47D9
330
47CF
100
AcDbEntity
  8
0
100
AcDbBlockBegin
  2
*D23
 70
     1
 10
0.0
 20
0.0
 30
0.0
  3
*D23
  1

  0
LINE
  5
47FF
330
47CF
100
AcDbEntity
  8
SUNPOU
 62
    70
370
    -2
100
AcDbLine
 10
-157.0418067546898
 20
133.145626248845
 30
0.0
 11
-186.7861525740773
 21
133.145626248845
 31
0.0
  0
LINE
  5
4800
330
47CF
100
AcDbEntity
  8
SUNPOU
 62
    70
370
    -2
100
AcDbLine
 10
-157.0418067546889
 20
51.14562624884502
 30
0.0
 11
-186.7861525740773
 21
51.14562624884502
 31
0.0
  0
LINE
  5
4801
330
47CF
100
AcDbEntity
  8
SUNPOU
 62
    60
370
    -2
100
AcDbLine
 10
-186.7861525740773
 20
131.145626248845
 30
0.0
 11
-186.7861525740773
 21
53.14562624884502
 31
0.0
  0
INSERT
  5
4802
330
47CF
100
AcDbEntity
  8
SUNPOU
 62
    60
370
    -2
100
AcDbBlockReference
  2
_Dot
 10
-186.7861525740773
 20
133.145626248845
 30
0.0
 41
2.0
 42
2.0
 43
2.0
 50
90.0
  0
INSERT
  5
4803
330
47CF
100
AcDbEntity
  8
SUNPOU
 62
    60
370
    -2
100
AcDbBlockReference
  2
_Dot
 10
-186.7861525740773
 20
51.14562624884502
 30
0.0
 41
2.0
 42
2.0
 43
2.0
 50
270.0
  0
MTEXT
  5
4804
330
47CF
100
AcDbEntity
  8
SUNPOU
 62
    60
100
AcDbMText
 10
-194.7861525740773
 20
92.14562624884504
 30
0.0
 40
10.0
 41
0.0
 71
     5
 72
     1
  1
\A1;82
  7
SUNPOU
 11
0.0000000000000001
 21
1.0
 31
0.0
 73
     1
 44
1.0
1001
ACAD
1000
MTEXTBEGIN
1070
    73
1070
     1
1070
    44
1040
1.0
1070
    74
1070
     0
1000
MTEXTEND
  0
POINT
  5
4805
330
47CF
100
AcDbEntity
  8
DEFPOINTS
 62
     0
100
AcDbPoint
 10
-147.0418067546898
 20
133.145626248845
 30
0.0
  0
POINT
  5
4806
330
47CF
100
AcDbEntity
  8
DEFPOINTS
 62
     0
100
AcDbPoint
 10
-147.0418067546888
 20
51.14562624884502
 30
0.0
  0
POINT
  5
4807
330
47CF
100
AcDbEntity
  8
DEFPOINTS
 62
     0
100
AcDbPoint
 10
-186.7861525740773
 20
51.14562624884502
 30
0.0
  0
ENDBLK
  5
47DA
330
47CF
100
AcDbEntity
  8
0
100
AcDbBlockEnd
  0
BLOCK
  5
482E
330
482D
100
AcDbEntity
  8
0
100
AcDbBlockBegin
  2
*X24
 70
     1
 10
0.0
 20
0.0
 30
0.0
  3
*X24
  1

  0
LINE
  5
482F
330
482D
100
AcDbEntity
  8
0
 62
     0
100
AcDbLine
 10
2268.128711995032
 20
940.9874980840175
 30
0.0
 11
2268.45174274899
 21
941.3105288379776
 31
0.0
  0
LINE
  5
4830
330
482D
100
AcDbEntity
  8
0
 62
     0
100
AcDbLine
 10
2267.720727462215
 20
941.4633970276918
 30
0.0
 11
2269.693942537807
 21
943.4366121032836
 31
0.0
  0
LINE
  5
4831
330
482D
100
AcDbEntity
  8
0
 62
     0
100
AcDbLine
 10
2267.314234799949
 20
941.9407878419152
 30
0.0
 11
2270.329633945864
 21
944.9561869878309
 31
0.0
  0
LINE
  5
4832
330
482D
100
AcDbEntity
  8
0
 62
     0
100
AcDbLine
 10
2266.909235213347
 20
942.4196717317899
 30
0.0
 11
2270.047899834295
 21
945.5583363527367
 31
0.0
  0
LINE
  5
4833
330
482D
100
AcDbEntity
  8
0
 62
     0
100
AcDbLine
 10
2266.505729959677
 20
942.9000499545946
 30
0.0
 11
2269.314221172039
 21
945.7085411669575
 31
0.0
  0
LINE
  5
4834
330
482D
100
AcDbEntity
  8
0
 62
     0
100
AcDbLine
 10
2266.103720348505
 20
943.381923819914
 30
0.0
 11
2268.569424987723
 21
945.8476284591306
 31
0.0
  0
LINE
  5
4835
330
482D
100
AcDbEntity
  8
0
 62
     0
100
AcDbLine
 10
2265.703207742033
 20
943.865294689931
 30
0.0
 11
2267.81310568131
 21
945.9751926292083
 31
0.0
  0
LINE
  5
4836
330
482D
100
AcDbEntity
  8
0
 62
     0
100
AcDbLine
 10
2265.304193555264
 20
944.3501639796377
 30
0.0
 11
2267.044821065665
 21
946.090791490038
 31
0.0
  0
LINE
  5
4837
330
482D
100
AcDbEntity
  8
0
 62
     0
100
AcDbLine
 10
2270.662541288006
 20
950.5923951888544
 30
0.0
 11
2271.204149119807
 21
951.1340030206556
 31
0.0
  0
LINE
  5
4838
330
482D
100
AcDbEntity
  8
0
 62
     0
100
AcDbLine
 10
2264.90667925627
 20
944.8365331571183
 30
0.0
 11
2266.264087847998
 21
946.1939417488466
 31
0.0
  0
LINE
  5
4839
330
482D
100
AcDbEntity
  8
0
 62
     0
100
AcDbLine
 10
2269.939139739125
 20
950.7528771164654
 30
0.0
 11
2271.132389119888
 21
951.9461264972234
 31
0.0
  0
LINE
  5
483A
330
482D
100
AcDbEntity
  8
0
 62
     0
100
AcDbLine
 10
2264.964519877558
 20
945.7782572548968
 30
0.0
 11
2265.470376347889
 21
946.284113725229
 31
0.0
  0
LINE
  5
483B
330
482D
100
AcDbEntity
  8
0
 62
     0
100
AcDbLine
 10
2269.162506036657
 20
950.8601268904858
 30
0.0
 11
2271.02346720411
 21
952.7210880579403
 31
0.0
  0
LINE
  5
483C
330
482D
100
AcDbEntity
  8
0
 62
     0
100
AcDbLine
 10
2268.321357042565
 20
950.9028613728842
 30
0.0
 11
2270.741221748942
 21
953.3227260792626
 31
0.0
  0
LINE
  5
483D
330
482D
100
AcDbEntity
  8
0
 62
     0
100
AcDbLine
 10
2267.397549676574
 20
950.862937483369
 30
0.0
 11
2269.808921513529
 21
953.2743093203244
 31
0.0
  0
LINE
  5
483E
330
482D
100
AcDbEntity
  8
0
 62
     0
100
AcDbLine
 10
2266.358514195184
 20
950.7077854784547
 30
0.0
 11
2268.775416468899
 21
953.124687752166
 31
0.0
  0
LINE
  5
483F
330
482D
100
AcDbEntity
  8
0
 62
     0
100
AcDbLine
 10
2265.525389490951
 20
950.7585442507117
 30
0.0
 11
2267.589927141151
 21
952.8230819009078
 31
0.0
  0
LINE
  5
4840
330
482D
100
AcDbEntity
  8
0
 62
     0
100
AcDbLine
 10
2250.377378856359
 20
935.6105336161201
 30
0.0
 11
2251.202167443282
 21
936.4353222030439
 31
0.0
  0
LINE
  5
4841
330
482D
100
AcDbEntity
  8
0
 62
     0
100
AcDbLine
 10
2265.773341815773
 20
951.8903800520238
 30
0.0
 11
2266.119482402195
 21
952.2365206384455
 31
0.0
  0
LINE
  5
4842
330
482D
100
AcDbEntity
  8
0
 62
     0
100
AcDbLine
 10
2249.742399616978
 20
935.8594378532288
 30
0.0
 11
2251.748753587568
 21
937.8657918238166
 31
0.0
  0
LINE
  5
4843
330
482D
100
AcDbEntity
  8
0
 62
     0
100
AcDbLine
 10
2249.129938256253
 20
936.1308599689799
 30
0.0
 11
2252.59023483939
 21
939.5911565521164
 31
0.0
  0
LINE
  5
4844
330
482D
100
AcDbEntity
  8
0
 62
     0
100
AcDbLine
 10
2269.128210620813
 20
957.0130158100146
 30
0.0
 11
2269.471586998438
 21
957.3563921876413
 31
0.0
  0
LINE
  5
4845
330
482D
100
AcDbEntity
  8
0
 62
     0
100
AcDbLine
 10
2248.538894120192
 20
936.4236993093946
 30
0.0
 11
2252.993301546208
 21
940.8781067354102
 31
0.0
  0
LINE
  5
4846
330
482D
100
AcDbEntity
  8
0
 62
     0
100
AcDbLine
 10
2267.850614928738
 20
956.6193035944307
 30
0.0
 11
2269.158234684961
 21
957.9269233506527
 31
0.0
  0
LINE
  5
4847
330
482D
100
AcDbEntity
  8
0
 62
     0
100
AcDbLine
 10
2249.890163048996
 20
938.6588517146885
 30
0.0
 11
2252.037739496564
 21
940.8064281622571
 31
0.0
  0
LINE
  5
4848
330
482D
100
AcDbEntity
  8
0
 62
     0
100
AcDbLine
 10
2266.359215728031
 20
956.0117878702147
 30
0.0
 11
2268.825108721205
 21
958.4776808633867
 31
0.0
  0
LINE
  5
4849
330
482D
100
AcDbEntity
  8
0
 62
     0
100
AcDbLine
 10
2250.924405353397
 20
940.5769774955807
 30
0.0
 11
2251.336831702118
 21
940.9894038443015
 31
0.0
  0
LINE
  5
484A
330
482D
100
AcDbEntity
  8
0
 62
     0
100
AcDbLine
 10
2264.403229938562
 20
954.9396855572156
 30
0.0
 11
2265.550413850556
 21
956.0868694692143
 31
0.0
  0
LINE
  5
484B
330
482D
100
AcDbEntity
  8
0
 62
     0
100
AcDbLine
 10
2248.515134898691
 20
941.7032409468047
 30
0.0
 11
2249.370903836112
 21
942.5590098842258
 31
0.0
  0
LINE
  5
484C
330
482D
100
AcDbEntity
  8
0
 62
     0
100
AcDbLine
 10
2246.569911970734
 20
940.6419014953243
 30
0.0
 11
2249.131609786702
 21
943.2035993112911
 31
0.0
  0
LINE
  5
484D
330
482D
100
AcDbEntity
  8
0
 62
     0
100
AcDbLine
 10
2244.502803116189
 20
939.458676117254
 30
0.0
 11
2249.084410526779
 21
944.0402835278435
 31
0.0
  0
LINE
  5
484E
330
482D
100
AcDbEntity
  8
0
 62
     0
100
AcDbLine
 10
2245.398587111958
 20
941.2383435895135
 30
0.0
 11
2249.571393833819
 21
945.4111503113743
 31
0.0
  0
LINE
  5
484F
330
482D
100
AcDbEntity
  8
0
 62
     0
100
AcDbLine
 10
2246.540448651179
 20
943.2640886052247
 30
0.0
 11
2248.427120684943
 21
945.1507606389895
 31
0.0
  0
LINE
  5
4850
330
482D
100
AcDbEntity
  8
0
 62
     0
100
AcDbLine
 10
2261.437562650386
 20
959.0450860809067
 30
0.0
 11
2263.341943744479
 21
960.9494671749999
 31
0.0
  0
LINE
  5
4851
330
482D
100
AcDbEntity
  8
0
 62
     0
100
AcDbLine
 10
2246.981317048539
 20
944.5888404790602
 30
0.0
 11
2247.665241630361
 21
945.2727650608832
 31
0.0
  0
LINE
  5
4852
330
482D
100
AcDbEntity
  8
0
 62
     0
100
AcDbLine
 10
2260.645516550499
 20
959.1369234574955
 30
0.0
 11
2264.484437365568
 21
962.9758442725652
 31
0.0
  0
LINE
  5
4853
330
482D
100
AcDbEntity
  8
0
 62
     0
100
AcDbLine
 10
2246.980719292616
 20
945.4721261996127
 30
0.0
 11
2247.064357461069
 21
945.5557643680624
 31
0.0
  0
LINE
  5
4854
330
482D
100
AcDbEntity
  8
0
 62
     0
100
AcDbLine
 10
2260.065263528987
 20
959.4405539124746
 30
0.0
 11
2263.950321347139
 21
963.3256117306263
 31
0.0
  0
LINE
  5
4855
330
482D
100
AcDbEntity
  8
0
 62
     0
100
AcDbLine
 10
2245.940462626701
 20
945.3157530101886
 30
0.0
 11
2246.581530733263
 21
945.9568211167498
 31
0.0
  0
LINE
  5
4856
330
482D
100
AcDbEntity
  8
0
 62
     0
100
AcDbLine
 10
2259.351477612991
 20
959.610651472969
 30
0.0
 11
2263.39695726569
 21
963.6561311256626
 31
0.0
  0
LINE
  5
4857
330
482D
100
AcDbEntity
  8
0
 62
     0
100
AcDbLine
 10
2244.818617504181
 20
945.0777913641575
 30
0.0
 11
2246.208421877406
 21
946.4675957373836
 31
0.0
  0
LINE
  5
4858
330
482D
100
AcDbEntity
  8
0
 62
     0
100
AcDbLine
 10
2258.363252007297
 20
959.5063093437492
 30
0.0
 11
2262.82372930571
 21
963.9667866421623
 31
0.0
  0
LINE
  5
4859
330
482D
100
AcDbEntity
  8
0
 62
     0
100
AcDbLine
 10
2243.587286352775
 20
944.7303436892287
 30
0.0
 11
2245.96130450589
 21
947.1043618423426
 31
0.0
  0
LINE
  5
485A
330
482D
100
AcDbEntity
  8
0
 62
     0
100
AcDbLine
 10
2260.266273752488
 20
962.2932145654159
 30
0.0
 11
2262.229877609374
 21
964.2568184223019
 31
0.0
  0
LINE
  5
485B
330
482D
100
AcDbEntity
  8
0
 62
     0
100
AcDbLine
 10
2242.194887979719
 20
944.2218287926479
 30
0.0
 11
2245.767495862313
 21
947.7944366752417
 31
0.0
  0
LINE
  5
485C
330
482D
100
AcDbEntity
  8
0
 62
     0
100
AcDbLine
 10
2261.084376086091
 20
963.9952003755059
 30
0.0
 11
2261.614473684621
 21
964.5252979740398
 31
0.0
  0
LINE
  5
485D
330
482D
100
AcDbEntity
  8
0
 62
     0
100
AcDbLine
 10
2241.369988333779
 20
944.2808126231977
 30
0.0
 11
2245.089225573349
 21
948.0000498627667
 31
0.0
  0
LINE
  5
485E
330
482D
100
AcDbEntity
  8
0
 62
     0
100
AcDbLine
 10
2241.124190845276
 20
944.918898611184
 30
0.0
 11
2244.181442931818
 21
947.9761506977265
 31
0.0
  0
LINE
  5
485F
330
482D
100
AcDbEntity
  8
0
 62
     0
100
AcDbLine
 10
2240.902450452453
 20
945.5810416948517
 30
0.0
 11
2243.234637531255
 21
947.9132287736536
 31
0.0
  0
LINE
  5
4860
330
482D
100
AcDbEntity
  8
0
 62
     0
100
AcDbLine
 10
2254.602673830031
 20
960.1651485489057
 30
0.0
 11
2255.252320186551
 21
960.8147949054254
 31
0.0
  0
LINE
  5
4861
330
482D
100
AcDbEntity
  8
0
 62
     0
100
AcDbLine
 10
2240.706446951592
 20
946.2689216704674
 30
0.0
 11
2242.242898898577
 21
947.8053736174516
 31
0.0
  0
LINE
  5
4862
330
482D
100
AcDbEntity
  8
0
 62
     0
100
AcDbLine
 10
2253.770010457476
 20
960.2163686528255
 30
0.0
 11
2256.03521280337
 21
962.4815709987197
 31
0.0
  0
LINE
  5
4863
330
482D
100
AcDbEntity
  8
0
 62
     0
100
AcDbLine
 10
2240.538247235094
 20
946.9846054304436
 30
0.0
 11
2241.198341192121
 21
947.644699387467
 31
0.0
  0
LINE
  5
4864
330
482D
100
AcDbEntity
  8
0
 62
     0
100
AcDbLine
 10
2253.907253925644
 20
961.2374955974845
 30
0.0
 11
2256.631653351039
 21
963.9618950228795
 31
0.0
  0
LINE
  5
4865
330
482D
100
AcDbEntity
  8
0
 62
     0
100
AcDbLine
 10
2252.585859127168
 20
959.9161007990042
 30
0.0
 11
2252.991097550235
 21
960.321339222075
 31
0.0
  0
LINE
  5
4866
330
482D
100
AcDbEntity
  8
0
 62
     0
100
AcDbLine
 10
2251.0124967103
 20
959.2266218586301
 30
0.0
 11
2252.547074170589
 21
960.7611993189202
 31
0.0
  0
LINE
  5
4867
330
482D
100
AcDbEntity
  8
0
 62
     0
100
AcDbLine
 10
2248.883625896821
 20
957.0977510451482
 30
0.0
 11
2248.888940614834
 21
957.1030657631636
 31
0.0
  0
LINE
  5
4868
330
482D
100
AcDbEntity
  8
0
 62
     0
100
AcDbLine
 10
2253.981877363738
 20
962.196002512068
 30
0.0
 11
2257.100419415579
 21
965.3145445639093
 31
0.0
  0
LINE
  5
4869
330
482D
100
AcDbEntity
  8
0
 62
     0
100
AcDbLine
 10
2246.500086037536
 20
954.7142111858663
 30
0.0
 11
2246.594658403439
 21
954.8087835517687
 31
0.0
  0
LINE
  5
486A
330
482D
100
AcDbEntity
  8
0
 62
     0
100
AcDbLine
 10
2250.918754025846
 20
960.0167626506516
 30
0.0
 11
2252.118771024862
 21
961.2167796496688
 31
0.0
  0
LINE
  5
486B
330
482D
100
AcDbEntity
  8
0
 62
     0
100
AcDbLine
 10
2248.468825520751
 20
957.5668341455566
 30
0.0
 11
2248.489343661473
 21
957.5873522862783
 31
0.0
  0
LINE
  5
486C
330
482D
100
AcDbEntity
  8
0
 62
     0
100
AcDbLine
 10
2254.004779351187
 20
963.1027879759932
 30
0.0
 11
2256.567488455381
 21
965.6654970801863
 31
0.0
  0
LINE
  5
486D
330
482D
100
AcDbEntity
  8
0
 62
     0
100
AcDbLine
 10
2245.69153102177
 20
954.7895396465756
 30
0.0
 11
2246.004565332638
 21
955.1025739574434
 31
0.0
  0
LINE
  5
486E
330
482D
100
AcDbEntity
  8
0
 62
     0
100
AcDbLine
 10
2250.772269337951
 20
960.7541614392319
 30
0.0
 11
2251.706240037651
 21
961.6881321389335
 31
0.0
  0
LINE
  5
486F
330
482D
100
AcDbEntity
  8
0
 62
     0
100
AcDbLine
 10
2248.040825243373
 20
958.0227173446546
 30
0.0
 11
2248.083421105738
 21
958.0653132070183
 31
0.0
  0
LINE
  5
4870
330
482D
100
AcDbEntity
  8
0
 62
     0
100
AcDbLine
 10
2253.983693434544
 20
963.9655855358252
 30
0.0
 11
2255.706752728263
 21
965.6886448295443
 31
0.0
  0
LINE
  5
4871
330
482D
100
AcDbEntity
  8
0
 62
     0
100
AcDbLine
 10
2244.840580544754
 20
954.8224726460356
 30
0.0
 11
2245.088843466807
 21
955.0707355680897
 31
0.0
  0
LINE
  5
4872
330
482D
100
AcDbEntity
  8
0
 62
     0
100
AcDbLine
 10
2250.580556079324
 20
961.4463316570946
 30
0.0
 11
2251.309593962818
 21
962.1753695405859
 31
0.0
  0
LINE
  5
4873
330
482D
100
AcDbEntity
  8
0
 62
     0
100
AcDbLine
 10
2247.599662250431
 20
958.465437828203
 30
0.0
 11
2247.671194865069
 21
958.5369704428412
 31
0.0
  0
LINE
  5
4874
330
482D
100
AcDbEntity
  8
0
 62
     0
100
AcDbLine
 10
2253.924339178007
 20
964.7901147557789
 30
0.0
 11
2254.795277006135
 21
965.6610525839059
 31
0.0
  0
LINE
  5
4875
330
482D
100
AcDbEntity
  8
0
 62
     0
100
AcDbLine
 10
2243.940109538598
 20
954.8058851163659
 30
0.0
 11
2244.231279006383
 21
955.0970545841556
 31
0.0
  0
LINE
  5
4876
330
482D
100
AcDbEntity
  8
0
 62
     0
100
AcDbLine
 10
2247.145338614946
 20
958.8949976692056
 30
0.0
 11
2247.252682945
 21
959.0023419992613
 31
0.0
  0
LINE
  5
4877
330
482D
100
AcDbEntity
  8
0
 62
     0
100
AcDbLine
 10
2250.348891733835
 20
962.0985507880977
 30
0.0
 11
2250.929008568062
 21
962.6786676223236
 31
0.0
  0
LINE
  5
4878
330
482D
100
AcDbEntity
  8
0
 62
     0
100
AcDbLine
 10
2242.980077343688
 20
954.7297363979486
 30
0.0
 11
2243.42226887658
 21
955.1719279308416
 31
0.0
  0
LINE
  5
4879
330
482D
100
AcDbEntity
  8
0
 62
     0
100
AcDbLine
 10
2246.677821324837
 20
959.3113638555733
 30
0.0
 11
2246.827899494043
 21
959.4614420247816
 31
0.0
  0
LINE
  5
487A
330
482D
100
AcDbEntity
  8
0
 62
     0
100
AcDbLine
 10
2250.081090042832
 20
962.7146325735704
 30
0.0
 11
2250.56472610958
 21
963.1982686403173
 31
0.0
  0
LINE
  5
487B
330
482D
100
AcDbEntity
  8
0
 62
     0
100
AcDbLine
 10
2241.945538778316
 20
954.5790813090532
 30
0.0
 11
2242.655025950964
 21
955.2885684817011
 31
0.0
  0
LINE
  5
487C
330
482D
100
AcDbEntity
  8
0
 62
     0
100
AcDbLine
 10
2246.197041840993
 20
959.7144678482072
 30
0.0
 11
2246.396854846619
 21
959.9142808538307
 31
0.0
  0
LINE
  5
487D
330
482D
100
AcDbEntity
  8
0
 62
     0
100
AcDbLine
 10
2249.779948030267
 20
963.2973740374801
 30
0.0
 11
2250.217060260707
 21
963.7344862679199
 31
0.0
  0
LINE
  5
487E
330
482D
100
AcDbEntity
  8
0
 62
     0
100
AcDbLine
 10
2240.812444268569
 20
954.3298702757819
 30
0.0
 11
2241.924559514612
 21
955.4419855218256
 31
0.0
  0
LINE
  5
487F
330
482D
100
AcDbEntity
  8
0
 62
     0
100
AcDbLine
 10
2245.702895171656
 20
960.1042046553594
 30
0.0
 11
2245.959555554207
 21
960.3608650379099
 31
0.0
  0
LINE
  5
4880
330
482D
100
AcDbEntity
  8
0
 62
     0
100
AcDbLine
 10
2249.447518745793
 20
963.8488282294966
 30
0.0
 11
2249.886402736046
 21
964.2877122197495
 31
0.0
  0
LINE
  5
4881
330
482D
100
AcDbEntity
  8
0
 62
     0
100
AcDbLine
 10
2241.178588465547
 20
955.5798979492502
 30
0.0
 11
2241.227090502302
 21
955.628399986006
 31
0.0
  0
LINE
  5
4882
330
482D
100
AcDbEntity
  8
0
 62
     0
100
AcDbLine
 10
2245.195238433971
 20
960.480431394164
 30
0.0
 11
2245.516004405155
 21
960.8011973653484
 31
0.0
  0
LINE
  5
4883
330
482D
100
AcDbEntity
  8
0
 62
     0
100
AcDbLine
 10
2244.673888855701
 20
960.8429652923698
 30
0.0
 11
2245.066200433011
 21
961.2352768696799
 31
0.0
  0
ENDBLK
  5
4884
330
482D
100
AcDbEntity
  8
0
100
AcDbBlockEnd
  0
BLOCK
  5
4886
330
4885
100
AcDbEntity
  8
0
100
AcDbBlockBegin
  2
*X25
 70
     1
 10
0.0
 20
0.0
 30
0.0
  3
*X25
  1

  0
LINE
  5
4887
330
4885
100
AcDbEntity
  8
0
 62
     0
100
AcDbLine
 10
2259.979565636745
 20
935.490002155184
 30
0.0
 11
2260.510343649137
 21
936.0207801675787
 31
0.0
  0
LINE
  5
4888
330
4885
100
AcDbEntity
  8
0
 62
     0
100
AcDbLine
 10
2259.950073804574
 20
936.3443937994926
 30
0.0
 11
2260.295227363462
 21
936.689547358379
 31
0.0
  0
LINE
  5
4889
330
4885
100
AcDbEntity
  8
0
 62
     0
100
AcDbLine
 10
2259.872122872252
 20
937.1503263436606
 30
0.0
 11
2260.12538313186
 21
937.4035866032684
 31
0.0
  0
LINE
  5
488A
330
4885
100
AcDbEntity
  8
0
 62
     0
100
AcDbLine
 10
2259.752466099005
 20
937.9145530469033
 30
0.0
 11
2260.008047105177
 21
938.1701340530742
 31
0.0
  0
LINE
  5
488B
330
4885
100
AcDbEntity
  8
0
 62
     0
100
AcDbLine
 10
2259.596068171802
 20
938.6420385961756
 30
0.0
 11
2259.954050603981
 21
939.0000210283506
 31
0.0
  0
LINE
  5
488C
330
4885
100
AcDbEntity
  8
0
 62
     0
100
AcDbLine
 10
2259.406687034223
 20
939.3365409350737
 30
0.0
 11
2259.98071625669
 21
939.910570157539
 31
0.0
  0
LINE
  5
488D
330
4885
100
AcDbEntity
  8
0
 62
     0
100
AcDbLine
 10
2259.187229220733
 20
940.0009665980723
 30
0.0
 11
2260.118840027379
 21
940.9325774047172
 31
0.0
  0
ENDBLK
  5
488E
330
4885
100
AcDbEntity
  8
0
100
AcDbBlockEnd
  0
BLOCK
  5
495E
330
4954
100
AcDbEntity
  8
0
100
AcDbBlockBegin
  2
*D27
 70
     1
 10
0.0
 20
0.0
 30
0.0
  3
*D27
  1

  0
LINE
  5
4955
330
4954
100
AcDbEntity
  8
SUNPOU
 62
    70
370
    -2
100
AcDbLine
 10
33.00445386043889
 20
72.70332814364896
 30
0.0
 11
33.00445386043889
 21
112.0915813286444
 31
0.0
  0
LINE
  5
4956
330
4954
100
AcDbEntity
  8
SUNPOU
 62
    70
370
    -2
100
AcDbLine
 10
86.34254396613725
 20
85.53060767370487
 30
0.0
 11
86.34254396613725
 21
112.0915813286444
 31
0.0
  0
LINE
  5
4957
330
4954
100
AcDbEntity
  8
SUNPOU
 62
    60
370
    -2
100
AcDbLine
 10
35.00445386043889
 20
112.0915813286444
 30
0.0
 11
84.34254396613726
 21
112.0915813286444
 31
0.0
  0
INSERT
  5
4958
330
4954
100
AcDbEntity
  8
SUNPOU
 62
    60
370
    -2
100
AcDbBlockReference
  2
_Dot
 10
33.00445386043889
 20
112.0915813286444
 30
0.0
 41
2.0
 42
2.0
 43
2.0
 50
180.0
  0
INSERT
  5
4959
330
4954
100
AcDbEntity
  8
SUNPOU
 62
    60
370
    -2
100
AcDbBlockReference
  2
_Dot
 10
86.34254396613725
 20
112.0915813286444
 30
0.0
 41
2.0
 42
2.0
 43
2.0
  0
MTEXT
  5
495A
330
4954
100
AcDbEntity
  8
SUNPOU
 62
    60
100
AcDbMText
 10
59.67349891328807
 20
120.0915813286444
 30
0.0
 40
10.0
 41
0.0
 71
     5
 72
     1
  1
\A1;53
  7
SUNPOU
 73
     1
 44
1.0
1001
ACAD
1000
MTEXTBEGIN
1070
    73
1070
     1
1070
    44
1040
1.0
1070
    74
1070
     0
1000
MTEXTEND
  0
POINT
  5
495B
330
4954
100
AcDbEntity
  8
DEFPOINTS
 62
     0
100
AcDbPoint
 10
33.00445386043889
 20
62.70332814364896
 30
0.0
  0
POINT
  5
495C
330
4954
100
AcDbEntity
  8
DEFPOINTS
 62
     0
100
AcDbPoint
 10
86.34254396613725
 20
75.53060767370488
 30
0.0
  0
POINT
  5
495D
330
4954
100
AcDbEntity
  8
DEFPOINTS
 62
     0
100
AcDbPoint
 10
86.34254396613725
 20
112.0915813286444
 30
0.0
  0
ENDBLK
  5
495F
330
4954
100
AcDbEntity
  8
0
100
AcDbBlockEnd
  0
BLOCK
  5
496B
330
4961
100
AcDbEntity
  8
0
100
AcDbBlockBegin
  2
*D28
 70
     1
 10
0.0
 20
0.0
 30
0.0
  3
*D28
  1

  0
LINE
  5
4976
330
4961
100
AcDbEntity
  8
SUNPOU
 62
    70
370
    -2
100
AcDbLine
 10
81.79276209150833
 20
71.85051764918518
 30
0.0
 11
81.79276209150833
 21
110.9314265503764
 31
0.0
  0
LINE
  5
4977
330
4961
100
AcDbEntity
  8
SUNPOU
 62
    70
370
    -2
100
AcDbLine
 10
27.24072871390707
 20
78.70431857627221
 30
0.0
 11
27.24072871390707
 21
110.9314265503764
 31
0.0
  0
LINE
  5
4978
330
4961
100
AcDbEntity
  8
SUNPOU
 62
    60
370
    -2
100
AcDbLine
 10
79.79276209150834
 20
110.9314265503764
 30
0.0
 11
29.24072871390707
 21
110.9314265503764
 31
0.0
  0
INSERT
  5
4979
330
4961
100
AcDbEntity
  8
SUNPOU
 62
    60
370
    -2
100
AcDbBlockReference
  2
_Dot
 10
81.79276209150833
 20
110.9314265503764
 30
0.0
 41
2.0
 42
2.0
 43
2.0
  0
INSERT
  5
497A
330
4961
100
AcDbEntity
  8
SUNPOU
 62
    60
370
    -2
100
AcDbBlockReference
  2
_Dot
 10
27.24072871390707
 20
110.9314265503764
 30
0.0
 41
2.0
 42
2.0
 43
2.0
 50
180.0
  0
MTEXT
  5
497B
330
4961
100
AcDbEntity
  8
SUNPOU
 62
    60
100
AcDbMText
 10
54.5167454027077
 20
118.9314265503764
 30
0.0
 40
10.0
 41
0.0
 71
     5
 72
     1
  1
\A1;55
  7
SUNPOU
 73
     1
 44
1.0
1001
ACAD
1000
MTEXTBEGIN
1070
    73
1070
     1
1070
    44
1040
1.0
1070
    74
1070
     0
1000
MTEXTEND
  0
POINT
  5
497C
330
4961
100
AcDbEntity
  8
DEFPOINTS
 62
     0
100
AcDbPoint
 10
81.79276209150833
 20
61.85051764918518
 30
0.0
  0
POINT
  5
497D
330
4961
100
AcDbEntity
  8
DEFPOINTS
 62
     0
100
AcDbPoint
 10
27.24072871390707
 20
68.70431857627221
 30
0.0
  0
POINT
  5
497E
330
4961
100
AcDbEntity
  8
DEFPOINTS
 62
     0
100
AcDbPoint
 10
27.24072871390707
 20
110.9314265503764
 30
0.0
  0
ENDBLK
  5
496C
330
4961
100
AcDbEntity
  8
0
100
AcDbBlockEnd
  0
ENDSEC
  0
SECTION
  2
ENTITIES
  0
LINE
  5
1F
330
2
100
AcDbEntity
  8
WAKU
100
AcDbLine
 10
0.0
 20
14.0
 30
0.0
 11
114.873136989773
 21
14.0
 31
0.0
  0
LINE
  5
20
330
2
100
AcDbEntity
  8
WAKU
100
AcDbLine
 10
0.0
 20
0.0
 30
0.0
 11
114.873136989773
 21
0.0
 31
0.0
  0
TEXT
  5
21
330
2
100
AcDbEntity
  8
HOJO
100
AcDbText
 10
9.653966000000025
 20
2.366626000000024
 30
0.0
 40
9.0
  1
TM122
  7
SUNPOU
100
AcDbText
  0
TEXT
  5
23
330
2
100
AcDbEntity
  8
HOJO
100
AcDbText
 10
75.65253479254602
 20
5.044386000000031
 30
0.0
 40
6.0
  1
55φ×6
  7
SUNPOU
100
AcDbText
  0
ARC
  5
48F3
102
{ACAD_REACTORS
330
4989
102
}
330
2
100
AcDbEntity
  8
KIJUN
100
AcDbCircle
 10
72.88170481151587
 20
75.20273557324286
 30
0.0
 40
13.55963722851082
100
AcDbArc
 50
108.1413557625551
 51
187.3214934859161
  0
ARC
  5
48F4
102
{ACAD_REACTORS
330
4989
102
}
330
2
100
AcDbEntity
  8
KIJUN
100
AcDbCircle
 10
29.06036228196138
 20
75.03297468461767
 30
0.0
 40
23.19155285418645
100
AcDbArc
 50
358.8390352707291
 51
42.7215077020544
  0
ARC
  5
48F5
102
{ACAD_REACTORS
330
4989
102
}
330
2
100
AcDbEntity
  8
KIJUN
100
AcDbCircle
 10
43.7295475689748
 20
75.60569560755481
 30
0.0
 40
15.34518009494756
100
AcDbArc
 50
353.015191344567
 51
81.12013197788533
  0
ARC
  5
48F6
102
{ACAD_REACTORS
330
4989
102
}
330
2
100
AcDbEntity
  8
KIJUN
100
AcDbCircle
 10
50.81757346280188
 20
82.75774927691179
 30
0.0
 40
14.68087164608206
100
AcDbArc
 50
170.0750137537401
 51
248.0666507768955
  0
ARC
  5
48F7
102
{ACAD_REACTORS
330
4989
102
}
330
2
100
AcDbEntity
  8
KIJUN
100
AcDbCircle
 10
-8.329522583459265
 20
43.40743421579088
 30
0.0
 40
61.24397935220233
100
AcDbArc
 50
26.47173528651687
 51
43.14395672779723
  0
ARC
  5
48F8
102
{ACAD_REACTORS
330
4989
102
}
330
2
100
AcDbEntity
  8
KIJUN
100
AcDbCircle
 10
51.23547802453652
 20
82.70557497418472
 30
0.0
 40
9.708474432366422
100
AcDbArc
 50
159.740074381316
 51
261.1688415023718
  0
ARC
  5
48F9
102
{ACAD_REACTORS
330
4989
102
}
330
2
100
AcDbEntity
  8
KIJUN
100
AcDbCircle
 10
167.0966297835691
 20
-89.51124832325209
 30
0.0
 40
186.8614016474938
100
AcDbArc
 50
129.0318725782798
 51
134.4207278694218
  0
ARC
  5
48FA
102
{ACAD_REACTORS
330
4989
102
}
330
2
100
AcDbEntity
  8
KIJUN
100
AcDbCircle
 10
49.44018549376017
 20
43.94881151657988
 30
0.0
 40
13.13191854578511
100
AcDbArc
 50
96.33232227257737
 51
180.3423091908541
  0
ARC
  5
48FB
102
{ACAD_REACTORS
330
4989
102
}
330
2
100
AcDbEntity
  8
KIJUN
100
AcDbCircle
 10
35.78313668500017
 20
69.6753190795929
 30
0.0
 40
14.97181940943707
100
AcDbArc
 50
266.7665386862329
 51
317.4765081556848
  0
ARC
  5
48FC
102
{ACAD_REACTORS
330
4989
102
}
330
2
100
AcDbEntity
  8
KIJUN
100
AcDbCircle
 10
43.43625177374621
 20
51.07845230356166
 30
0.0
 40
9.247889298101247
100
AcDbArc
 50
76.60327710429623
 51
156.7612261123806
  0
ARC
  5
48FD
102
{ACAD_REACTORS
330
4989
102
}
330
2
100
AcDbEntity
  8
KIJUN
100
AcDbCircle
 10
39.70497965018115
 20
73.74316746933562
 30
0.0
 40
13.44423852695033
100
AcDbArc
 50
202.0117144715143
 51
291.9385050690014
  0
ARC
  5
48FE
102
{ACAD_REACTORS
330
4989
102
}
330
2
100
AcDbEntity
  8
KIJUN
100
AcDbCircle
 10
34.46820516162495
 20
50.65693518777776
 30
0.0
 40
19.44080753718098
100
AcDbArc
 50
56.0620342287259
 51
111.8247082095862
  0
LINE
  5
490D
102
{ACAD_REACTORS
330
4989
102
}
330
2
100
AcDbEntity
  8
KIJUN
100
AcDbLine
 10
49.89195618405893
 20
55.37700989819846
 30
0.0
 11
48.94839426469093
 21
55.90678321172878
 31
0.0
  0
LINE
  5
490E
102
{ACAD_REACTORS
330
4989
102
}
330
2
100
AcDbEntity
  8
KIJUN
100
AcDbLine
 10
59.43262328114338
 20
73.47474027242366
 30
0.0
 11
58.96084232168494
 21
73.7396269290765
 31
0.0
  0
LINE
  5
490F
102
{ACAD_REACTORS
330
4989
102
}
330
2
100
AcDbEntity
  8
KIJUN
100
AcDbLine
 10
59.43262328114338
 20
73.47474027241684
 30
0.0
 11
58.96084232139378
 21
73.73962692921473
 31
0.0
  0
LINE
  5
4910
102
{ACAD_REACTORS
330
4989
102
}
330
2
100
AcDbEntity
  8
KIJUN
100
AcDbLine
 10
59.90440424087854
 20
73.20985361563258
 30
0.0
 11
58.96084232152452
 21
73.73962692914971
 31
0.0
  0
LINE
  5
4911
102
{ACAD_REACTORS
330
4989
102
}
330
2
100
AcDbEntity
  8
KIJUN
100
AcDbLine
 10
54.73006869076892
 20
67.10024383988671
 30
0.0
 11
55.28530612811983
 21
71.74796923826976
 31
0.0
  0
ARC
  5
4912
102
{ACAD_REACTORS
330
4989
102
}
330
2
100
AcDbEntity
  8
KIJUN
100
AcDbCircle
 10
57.8272315543436
 20
71.44429980029177
 30
0.0
 40
2.56
100
AcDbArc
 50
63.71626336751262
 51
173.1874840012309
  0
LINE
  5
4913
102
{ACAD_REACTORS
330
4989
102
}
330
2
100
AcDbEntity
  8
KIJUN
100
AcDbLine
 10
55.28530612811983
 20
71.74796923826976
 30
0.0
 11
54.73006869076892
 21
67.10024383988671
 31
0.0
  0
ARC
  5
4914
102
{ACAD_REACTORS
330
4989
102
}
330
2
100
AcDbEntity
  8
KIJUN
100
AcDbCircle
 10
58.53490299385135
 20
71.04696981514267
 30
0.0
 40
2.56
100
AcDbArc
 50
308.1874840015826
 51
57.6587046359135
  0
LINE
  5
4915
102
{ACAD_REACTORS
330
4989
102
}
330
2
100
AcDbEntity
  8
KIJUN
100
AcDbLine
 10
60.11758898117057
 20
69.03483039014769
 30
0.0
 11
56.4385386777576
 21
66.14100440098979
 31
0.0
  0
ARC
  5
4916
102
{ACAD_REACTORS
330
4989
102
}
330
2
100
AcDbEntity
  8
KIJUN
100
AcDbCircle
 10
61.70027496850503
 20
67.02269096516771
 30
0.0
 40
2.56
100
AcDbArc
 50
18.7162633671662
 51
128.1874840015826
  0
LINE
  5
4917
102
{ACAD_REACTORS
330
4989
102
}
330
2
100
AcDbEntity
  8
KIJUN
100
AcDbLine
 10
61.61605007735443
 20
63.69941153834166
 30
0.0
 11
56.96832467899344
 21
64.25464897569269
 31
0.0
  0
LINE
  5
4918
102
{ACAD_REACTORS
330
4989
102
}
330
2
100
AcDbEntity
  8
KIJUN
100
AcDbLine
 10
58.9029112292626
 20
58.86712868527671
 30
0.0
 11
56.00908524008957
 21
62.54617898869752
 31
0.0
  0
CIRCLE
  5
4919
102
{ACAD_REACTORS
330
4989
102
}
330
2
100
AcDbEntity
  8
KIJUN
100
AcDbCircle
 10
54.42639925278445
 20
64.55831841367704
 30
0.0
 40
2.56
  0
ARC
  5
491A
102
{ACAD_REACTORS
330
4989
102
}
330
2
100
AcDbEntity
  8
KIJUN
100
AcDbCircle
 10
56.89077180427545
 20
57.28444269797306
 30
0.0
 40
2.56
100
AcDbArc
 50
288.7162633666271
 51
38.18748400158046
  0
ARC
  5
491B
102
{ACAD_REACTORS
330
4989
102
}
330
2
100
AcDbEntity
  8
KIJUN
100
AcDbCircle
 10
60.91505065424974
 20
60.44981467259582
 30
0.0
 40
2.56
100
AcDbArc
 50
218.1874840015804
 51
327.6587046359138
  0
LINE
  5
491C
102
{ACAD_REACTORS
330
4989
102
}
330
2
100
AcDbEntity
  8
KIJUN
100
AcDbLine
 10
56.67042398729222
 20
54.5672247302508
 30
0.0
 11
57.7122293214486
 21
54.85981745940886
 31
0.0
  0
LINE
  5
491D
102
{ACAD_REACTORS
330
4989
102
}
330
2
100
AcDbEntity
  8
KIJUN
100
AcDbLine
 10
64.41749293620489
 20
66.80234314817095
 30
0.0
 11
64.12490020706901
 21
67.84414848232778
 31
0.0
  0
LINE
  5
491E
102
{ACAD_REACTORS
330
4989
102
}
330
2
100
AcDbEntity
  8
KIJUN
100
AcDbLine
 10
63.07793445471884
 20
59.08031342556147
 30
0.0
 11
63.60770776827087
 21
60.02387534493651
 31
0.0
  0
ARC
  5
491F
102
{ACAD_REACTORS
330
4989
102
}
330
2
100
AcDbEntity
  8
KIJUN
100
AcDbCircle
 10
61.91971951535356
 20
66.24133696455088
 30
0.0
 40
2.56
100
AcDbArc
 50
263.1874840012714
 51
12.65870463599564
  0
ARC
  5
4920
102
{ACAD_REACTORS
330
4989
102
}
330
2
100
AcDbEntity
  8
KIJUN
100
AcDbCircle
 10
61.31238063939941
 20
61.15748611212563
 30
0.0
 40
2.56
100
AcDbArc
 50
333.7162633671356
 51
83.18748400127139
  0
LINE
  5
4921
102
{ACAD_REACTORS
330
4989
102
}
330
2
100
AcDbEntity
  8
KIJUN
100
AcDbLine
 10
54.12272981481499
 20
62.01639298746055
 30
0.0
 11
53.56749237744918
 21
57.36866758909297
 31
0.0
  0
LINE
  5
4922
102
{ACAD_REACTORS
330
4989
102
}
330
2
100
AcDbEntity
  8
KIJUN
100
AcDbLine
 10
48.73520952438389
 20
60.08180643720094
 30
0.0
 11
52.41425982781198
 21
62.97563242635793
 31
0.0
  0
ARC
  5
4923
102
{ACAD_REACTORS
330
4989
102
}
330
2
100
AcDbEntity
  8
KIJUN
100
AcDbCircle
 10
46.93307899023056
 20
62.87529986281184
 30
0.0
 40
2.56
100
AcDbArc
 50
83.18748400127139
 51
192.6587046359956
  0
LINE
  5
4924
102
{ACAD_REACTORS
330
4989
102
}
330
2
100
AcDbEntity
  8
KIJUN
100
AcDbLine
 10
52.41425982781198
 20
62.97563242635793
 30
0.0
 11
48.73520952439844
 21
60.08180643721367
 31
0.0
  0
LINE
  5
4925
102
{ACAD_REACTORS
330
4989
102
}
330
2
100
AcDbEntity
  8
KIJUN
100
AcDbLine
 10
44.7278982985149
 20
61.27248834502903
 30
0.0
 11
44.43530556936434
 21
62.3142936791986
 31
0.0
  0
ARC
  5
4926
102
{ACAD_REACTORS
330
4989
102
}
330
2
100
AcDbEntity
  8
KIJUN
100
AcDbCircle
 10
56.10941780365817
 20
57.06499815111588
 30
0.0
 40
2.56
100
AcDbArc
 50
173.1874840012309
 51
282.6587046359802
  0
ARC
  5
4927
102
{ACAD_REACTORS
330
4989
102
}
330
2
100
AcDbEntity
  8
KIJUN
100
AcDbCircle
 10
50.31789551171823
 20
58.06966701221959
 30
0.0
 40
2.56
100
AcDbArc
 50
128.1874840015826
 51
237.6587046359135
  0
ARC
  5
4928
102
{ACAD_REACTORS
330
4989
102
}
330
2
100
AcDbEntity
  8
KIJUN
100
AcDbCircle
 10
51.0255669512552
 20
57.67233702707095
 30
0.0
 40
2.56
100
AcDbArc
 50
243.7162633675125
 51
353.1874840012309
  0
ARC
  5
4929
102
{ACAD_REACTORS
330
4989
102
}
330
2
100
AcDbEntity
  8
KIJUN
100
AcDbCircle
 10
47.15252353709343
 20
62.09394586219456
 30
0.0
 40
2.56
100
AcDbArc
 50
198.7162633671662
 51
308.1999714515343
  0
LINE
  5
492A
102
{ACAD_REACTORS
330
4989
102
}
330
2
100
AcDbEntity
  8
KIJUN
100
AcDbLine
 10
51.14056918413552
 20
74.25681936794068
 30
0.0
 11
52.18237451829157
 21
74.54941209709874
 31
0.0
  0
LINE
  5
492B
102
{ACAD_REACTORS
330
4989
102
}
330
2
100
AcDbEntity
  8
KIJUN
100
AcDbLine
 10
56.00908524010413
 20
62.54617898869752
 30
0.0
 11
58.90291122924793
 21
58.86712868528353
 31
0.0
  0
LINE
  5
492C
102
{ACAD_REACTORS
330
4989
102
}
330
2
100
AcDbEntity
  8
KIJUN
100
AcDbLine
 10
47.23674842820014
 20
65.41722528901378
 30
0.0
 11
51.88447382657603
 21
64.86198785165457
 31
0.0
  0
LINE
  5
492D
102
{ACAD_REACTORS
330
4989
102
}
330
2
100
AcDbEntity
  8
KIJUN
100
AcDbLine
 10
51.88447382657603
 20
64.86198785165457
 30
0.0
 11
47.23674842820014
 21
65.41722528901378
 31
0.0
  0
LINE
  5
492E
102
{ACAD_REACTORS
330
4989
102
}
330
2
100
AcDbEntity
  8
KIJUN
100
AcDbLine
 10
49.94988727630652
 20
70.24950814206373
 30
0.0
 11
52.84371326547978
 21
66.57045783865747
 31
0.0
  0
ARC
  5
492F
102
{ACAD_REACTORS
330
4989
102
}
330
2
100
AcDbEntity
  8
KIJUN
100
AcDbCircle
 10
51.96202670130844
 20
71.83219412938284
 30
0.0
 40
2.56
100
AcDbArc
 50
108.7162633666271
 51
218.1874840015804
  0
LINE
  5
4930
102
{ACAD_REACTORS
330
4989
102
}
330
2
100
AcDbEntity
  8
KIJUN
100
AcDbLine
 10
52.84371326547978
 20
66.57045783865747
 30
0.0
 11
49.94988727632142
 21
70.24950814206373
 31
0.0
  0
ARC
  5
4931
102
{ACAD_REACTORS
330
4989
102
}
330
2
100
AcDbEntity
  8
KIJUN
100
AcDbCircle
 10
52.74338070192584
 20
72.05163867624593
 30
0.0
 40
2.56
100
AcDbArc
 50
353.1874840016246
 51
102.6587046359802
  0
ARC
  5
4932
102
{ACAD_REACTORS
330
4989
102
}
330
2
100
AcDbEntity
  8
KIJUN
100
AcDbCircle
 10
48.01552143851552
 20
68.64906572125606
 30
0.0
 40
2.56
100
AcDbArc
 50
36.81251599823474
 51
146.2837366328924
  0
LINE
  5
4933
102
{ACAD_REACTORS
330
4989
102
}
330
2
100
AcDbEntity
  8
KIJUN
100
AcDbLine
 10
45.3338602162545
 20
69.13949383379064
 30
0.0
 11
45.88612215169974
 21
70.07007194124968
 31
0.0
  0
ARC
  5
4934
102
{ACAD_REACTORS
330
4989
102
}
330
2
100
AcDbEntity
  8
KIJUN
100
AcDbCircle
 10
47.60132498694247
 20
67.95113214066065
 30
0.0
 40
2.56
100
AcDbArc
 50
152.341295364035
 51
261.8125159986224
  0
ARC
  5
4935
102
{ACAD_REACTORS
330
4989
102
}
330
2
100
AcDbEntity
  8
KIJUN
100
AcDbCircle
 10
54.42639925278445
 20
64.55831841367704
 30
0.0
 40
15.51358970734872
100
AcDbArc
 50
354.5411000742946
 51
6.990584855720717
  0
ARC
  5
4936
102
{ACAD_REACTORS
330
4989
102
}
330
2
100
AcDbEntity
  8
KIJUN
100
AcDbCircle
 10
54.42639925278445
 20
64.55831841367704
 30
0.0
 40
15.51358970734872
100
AcDbArc
 50
22.56838144314614
 51
24.93842868318813
  0
ARC
  5
4937
102
{ACAD_REACTORS
330
4989
102
}
330
2
100
AcDbEntity
  8
KIJUN
100
AcDbCircle
 10
54.42639925278445
 20
64.55831841367704
 30
0.0
 40
15.51358970734872
100
AcDbArc
 50
323.9182633075278
 51
338.844520370011
  0
ARC
  5
4938
102
{ACAD_REACTORS
330
4989
102
}
330
2
100
AcDbEntity
  8
KIJUN
100
AcDbCircle
 10
54.42639925278445
 20
64.55831841367704
 30
0.0
 40
15.51358970734872
100
AcDbArc
 50
296.6274111765891
 51
304.5008773953944
  0
ARC
  5
4939
102
{ACAD_REACTORS
330
4989
102
}
330
2
100
AcDbEntity
  8
KIJUN
100
AcDbCircle
 10
54.42639925278445
 20
64.55831841367704
 30
0.0
 40
15.51358970734872
100
AcDbArc
 50
270.0
 51
281.7068368282757
  0
ARC
  5
493A
102
{ACAD_REACTORS
330
4989
102
}
330
2
100
AcDbEntity
  8
KIJUN
100
AcDbCircle
 10
54.42639925278445
 20
64.55831841367704
 30
0.0
 40
15.51358970734872
100
AcDbArc
 50
233.4208965641007
 51
252.303293253056
  0
ARC
  5
493B
102
{ACAD_REACTORS
330
4989
102
}
330
2
100
AcDbEntity
  8
KIJUN
100
AcDbCircle
 10
54.42639925278445
 20
64.55831841367704
 30
0.0
 40
15.51358970734872
100
AcDbArc
 50
214.0633111592253
 51
218.3150008844466
  0
ARC
  5
493C
102
{ACAD_REACTORS
330
4989
102
}
330
2
100
AcDbEntity
  8
KIJUN
100
AcDbCircle
 10
54.42639925278445
 20
64.55831841367704
 30
0.0
 40
15.51358970734872
100
AcDbArc
 50
195.9302012976809
 51
198.8104147198054
  0
ARC
  5
493D
102
{ACAD_REACTORS
330
4989
102
}
330
2
100
AcDbEntity
  8
KIJUN
100
AcDbCircle
 10
54.42639925278445
 20
64.55831841367704
 30
0.0
 40
15.51358970734872
100
AcDbArc
 50
151.3000415999724
 51
161.8716697966489
  0
ARC
  5
493E
102
{ACAD_REACTORS
330
4989
102
}
330
2
100
AcDbEntity
  8
KIJUN
100
AcDbCircle
 10
54.42639925278445
 20
64.55831841367704
 30
0.0
 40
15.51358970734872
100
AcDbArc
 50
131.7647701310493
 51
133.8452926832533
  0
ARC
  5
493F
102
{ACAD_REACTORS
330
4989
102
}
330
2
100
AcDbEntity
  8
KIJUN
100
AcDbCircle
 10
54.42639925278445
 20
64.55831841367704
 30
0.0
 40
15.51358970734872
100
AcDbArc
 50
99.94010903863969
 51
113.7456729871096
  0
ARC
  5
4940
102
{ACAD_REACTORS
330
4989
102
}
330
2
100
AcDbEntity
  8
KIJUN
100
AcDbCircle
 10
54.42639925278445
 20
64.55831841367704
 30
0.0
 40
15.51358970734872
100
AcDbArc
 50
69.38763638922466
 51
74.50780907618053
  0
ARC
  5
4941
102
{ACAD_REACTORS
330
4989
102
}
330
2
100
AcDbEntity
  8
KIJUN
100
AcDbCircle
 10
54.42639925278445
 20
64.55831841367704
 30
0.0
 40
15.51358970734872
100
AcDbArc
 50
43.95458228021869
 51
46.1034833480313
  0
ARC
  5
4942
102
{ACAD_REACTORS
330
4989
102
}
330
2
100
AcDbEntity
  8
KIJUN
100
AcDbCircle
 10
54.42639925278445
 20
64.55831841367704
 30
0.0
 40
15.51358970734872
100
AcDbArc
 50
24.93842868318813
 51
25.64399616263232
  0
ARC
  5
4943
102
{ACAD_REACTORS
330
4989
102
}
330
2
100
AcDbEntity
  8
KIJUN
100
AcDbCircle
 10
31.47421040898179
 20
71.08644635505959
 30
0.0
 40
18.38274917583628
100
AcDbArc
 50
6.326747023704093
 51
54.58216886067756
  0
ARC
  5
4944
102
{ACAD_REACTORS
330
4989
102
}
330
2
100
AcDbEntity
  8
KIJUN
100
AcDbCircle
 10
62.70511708177173
 20
79.15705786258273
 30
0.0
 40
9.92115827434287
100
AcDbArc
 50
271.5892708289329
 51
25.52856484646398
  0
ARC
  5
4945
102
{ACAD_REACTORS
330
4989
102
}
330
2
100
AcDbEntity
  8
KIJUN
100
AcDbCircle
 10
33.47675095572744
 20
105.6688366278757
 30
0.0
 40
44.18403999852535
100
AcDbArc
 50
308.681848875256
 51
329.7839553424523
  0
ARC
  5
4946
102
{ACAD_REACTORS
330
4989
102
}
330
2
100
AcDbEntity
  8
KIJUN
100
AcDbCircle
 10
47.67546712957813
 20
87.33056938157083
 30
0.0
 40
20.99792688861364
100
AcDbArc
 50
309.7117222903787
 51
2.068108503695796
  0
ARC
  5
4947
102
{ACAD_REACTORS
330
4989
102
}
330
2
100
AcDbEntity
  8
KIJUN
100
AcDbCircle
 10
67.35039310473053
 20
84.08911873884095
 30
0.0
 40
17.81535473192842
100
AcDbArc
 50
260.8037715777492
 51
318.8663915570888
  0
ARC
  5
4948
102
{ACAD_REACTORS
330
4989
102
}
330
2
100
AcDbEntity
  8
KIJUN
100
AcDbCircle
 10
77.28043990285346
 20
55.13871481650891
 30
0.0
 40
17.58063990374848
100
AcDbArc
 50
78.55629738200526
 51
137.3566724478625
  0
ARC
  5
4949
102
{ACAD_REACTORS
330
4989
102
}
330
2
100
AcDbEntity
  8
KIJUN
100
AcDbCircle
 10
78.91927922773142
 20
92.35380397748654
 30
0.0
 40
30.63831435608376
100
AcDbArc
 50
241.5848735487717
 51
275.3815252846602
  0
ARC
  5
494A
102
{ACAD_REACTORS
330
4989
102
}
330
2
100
AcDbEntity
  8
KIJUN
100
AcDbCircle
 10
72.93856685313176
 20
71.13495865436458
 30
0.0
 40
12.82956032364114
100
AcDbArc
 50
223.0494642642882
 51
313.641207385811
  0
ARC
  5
494B
102
{ACAD_REACTORS
330
4989
102
}
330
2
100
AcDbEntity
  8
KIJUN
100
AcDbCircle
 10
69.79371715498541
 20
61.05294473357286
 30
0.0
 40
11.37584901482945
100
AcDbArc
 50
203.2889060995936
 51
295.6207673932687
  0
ARC
  5
494C
102
{ACAD_REACTORS
330
4989
102
}
330
2
100
AcDbEntity
  8
KIJUN
100
AcDbCircle
 10
87.68365296756337
 20
81.32382861083973
 30
0.0
 40
33.16949428818665
100
AcDbArc
 50
222.1135118120952
 51
246.9802048050889
  0
ARC
  5
494D
102
{ACAD_REACTORS
330
4989
102
}
330
2
100
AcDbEntity
  8
KIJUN
100
AcDbCircle
 10
46.80820748643577
 20
49.44563057107085
 30
0.0
 40
10.76624732837802
100
AcDbArc
 50
341.3718913786834
 51
27.82758688093296
  0
ARC
  5
494E
102
{ACAD_REACTORS
330
4989
102
}
330
2
100
AcDbEntity
  8
KIJUN
100
AcDbCircle
 10
68.06549180076377
 20
43.97215021261887
 30
0.0
 40
11.24070661143369
100
AcDbArc
 50
160.5141024729942
 51
215.5988795516248
  0
ARC
  5
494F
102
{ACAD_REACTORS
330
4989
102
}
330
2
100
AcDbEntity
  8
KIJUN
100
AcDbCircle
 10
45.05190519650898
 20
46.85366151500772
 30
0.0
 40
16.77214613861192
100
AcDbArc
 50
325.810491443075
 51
33.06526030820732
  0
ARC
  5
4950
102
{ACAD_REACTORS
330
4989
102
}
330
2
100
AcDbEntity
  8
KIJUN
100
AcDbCircle
 10
7.274881203644103
 20
59.32093646493683
 30
0.0
 40
43.49531090526975
100
AcDbArc
 50
337.635422906406
 51
354.501446696291
  0
ARC
  5
4951
102
{ACAD_REACTORS
330
4989
102
}
330
2
100
AcDbEntity
  8
KIJUN
100
AcDbCircle
 10
45.74756664314157
 20
52.01342960774478
 30
0.0
 40
9.406801148849355
100
AcDbArc
 50
280.7275383029331
 51
18.0949685285376
  0
DIMENSION
  5
4960
330
2
100
AcDbEntity
  8
SUNPOU
100
AcDbDimension
  2
*D28
 10
27.24072871390707
 20
110.9314265503764
 30
0.0
 11
54.5167454027077
 21
118.9314265503764
 31
0.0
 70
    32
 71
     5
 42
54.55203337760127
  3
STANDARD
100
AcDbAlignedDimension
 13
81.79276209150833
 23
61.85051764918518
 33
0.0
 14
27.24072871390707
 24
68.70431857627221
 34
0.0
100
AcDbRotatedDimension
1001
ACAD
1000
DSTYLE
1002
{
1070
    41
1040
2.0
1070
    42
1040
10.0
1070
    44
1040
0.0
1070
    73
1070
     0
1070
    74
1070
     0
1070
    77
1070
     1
1070
   140
1040
10.0
1070
   141
1040
0.0
1070
   146
1040
0.064286
1070
   147
1040
3.0
1070
   176
1070
    60
1070
   177
1070
    70
1070
   178
1070
    60
1070
   271
1070
     0
1070
   272
1070
     0
1070
   340
1005
1C
1070
   342
1005
109
1002
}
  0
ENDSEC
  0
SECTION
  2
OBJECTS
  0
DICTIONARY
  5
1A
330
0
100
AcDbDictionary
281
     1
  3
ACAD_COLOR
350
144
  3
ACAD_GROUP
350
18
  3
ACAD_LAYOUT
350
58
  3
ACAD_MATERIAL
350
143
  3
ACAD_MLINESTYLE
350
19
  3
ACAD_PLOTSETTINGS
350
59
  3
ACAD_PLOTSTYLENAME
350
56
  3
ACAD_TABLESTYLE
350
145
  3
ACDBHEADERROUNDTRIPXREC
350
4991
  3
AcDbVariableDictionary
350
1D1
  0
DICTIONARY
  5
1B4
330
A
100
AcDbDictionary
280
     1
281
     1
  3
ACAD_LAYERFILTERS
360
1C2
  3
ACLYDICTIONARY
360
1C1
  0
DICTIONARY
  5
1578
330
2
100
AcDbDictionary
280
     1
281
     1
  3
ACAD_SORTENTS
360
1579
  0
DICTIONARY
  5
144
102
{ACAD_REACTORS
330
1A
102
}
330
1A
100
AcDbDictionary
281
     1
  0
DICTIONARY
  5
18
102
{ACAD_REACTORS
330
1A
102
}
330
1A
100
AcDbDictionary
281
     1
  3
*A1
350
CFC
  3
*A10
350
1682
  3
*A11
350
1827
  3
*A12
350
218C
  3
*A13
350
18ED
  3
*A14
350
19E5
  3
*A15
350
1F8A
  3
*A16
350
2108
  3
*A17
350
3732
  3
*A18
350
37CF
  3
*A19
350
3837
  3
*A2
350
2FE9
  3
*A20
350
38C3
  3
*A21
350
39C3
  3
*A22
350
2335
  3
*A23
350
3AB4
  3
*A24
350
3BBC
  3
*A25
350
3D8C
  3
*A26
350
3FA3
  3
*A27
350
419F
  3
*A28
350
439B
  3
*A29
350
4590
  3
*A3
350
312A
  3
*A30
350
46F3
  3
*A31
350
481A
  3
*A32
350
2862
  3
*A33
350
299B
  3
*A34
350
2C07
  3
*A35
350
2DB5
  3
*A36
350
2E88
  3
*A37
350
2FBC
  3
*A38
350
4989
  3
*A4
350
15D1
  3
*A5
350
3154
  3
*A6
350
327B
  3
*A7
350
32AA
  3
*A8
350
3650
  3
*A9
350
367C
  0
DICTIONARY
  5
58
102
{ACAD_REACTORS
330
1A
102
}
330
1A
100
AcDbDictionary
281
     1
  3
Model
350
5A
  3
ﾚｲｱｳﾄ1
350
5B
  0
DICTIONARY
  5
143
102
{ACAD_REACTORS
330
1A
102
}
330
1A
100
AcDbDictionary
281
     1
  0
DICTIONARY
  5
19
102
{ACAD_REACTORS
330
1A
102
}
330
1A
100
AcDbDictionary
281
     1
  3
STANDARD
350
1D
  0
DICTIONARY
  5
59
102
{ACAD_REACTORS
330
1A
102
}
330
1A
100
AcDbDictionary
281
     1
  0
ACDBDICTIONARYWDFLT
  5
56
102
{ACAD_REACTORS
330
1A
102
}
330
1A
100
AcDbDictionary
281
     1
  3
Normal
350
57
100
AcDbDictionaryWithDefault
340
57
  0
DICTIONARY
  5
145
102
{ACAD_REACTORS
330
1A
102
}
330
1A
100
AcDbDictionary
281
     1
  3
Standard
350
146
  0
DICTIONARY
  5
4991
102
{ACAD_REACTORS
330
1A
102
}
330
1A
100
AcDbDictionary
281
     1
  0
DICTIONARY
  5
1D1
102
{ACAD_REACTORS
330
1A
102
}
330
1A
100
AcDbDictionary
281
     1
  3
CTABLESTYLE
350
1D2
  3
DIMASSOC
350
D03
  3
PROJECTNAME
350
D04
  0
DICTIONARY
  5
1C2
102
{ACAD_REACTORS
330
1B4
102
}
330
1B4
100
AcDbDictionary
281
     1
  0
DICTIONARY
  5
1C1
102
{ACAD_REACTORS
330
1B4
102
}
330
1B4
100
AcDbDictionary
281
     1
1001
ACAD
1000
<All
  0
SORTENTSTABLE
  5
1579
102
{ACAD_REACTORS
330
1578
102
}
330
1578
100
AcDbSortentsTable
330
2
331
23
  5
23
331
21
  5
21
331
1F
  5
1F
331
20
  5
20
  0
GROUP
  5
CFC
102
{ACAD_REACTORS
330
18
102
}
330
18
100
AcDbGroup
300

 70
     1
 71
     1
  0
GROUP
  5
1682
102
{ACAD_REACTORS
330
18
102
}
330
18
100
AcDbGroup
300

 70
     1
 71
     1
  0
GROUP
  5
1827
102
{ACAD_REACTORS
330
18
102
}
330
18
100
AcDbGroup
300

 70
     1
 71
     1
  0
GROUP
  5
218C
102
{ACAD_REACTORS
330
18
102
}
330
18
100
AcDbGroup
300

 70
     1
 71
     1
  0
GROUP
  5
18ED
102
{ACAD_REACTORS
330
18
102
}
330
18
100
AcDbGroup
300

 70
     1
 71
     1
  0
GROUP
  5
19E5
102
{ACAD_REACTORS
330
18
102
}
330
18
100
AcDbGroup
300

 70
     1
 71
     1
  0
GROUP
  5
1F8A
102
{ACAD_REACTORS
330
18
102
}
330
18
100
AcDbGroup
300

 70
     1
 71
     1
  0
GROUP
  5
2108
102
{ACAD_REACTORS
330
18
102
}
330
18
100
AcDbGroup
300

 70
     1
 71
     1
  0
GROUP
  5
3732
102
{ACAD_REACTORS
330
18
102
}
330
18
100
AcDbGroup
300

 70
     1
 71
     1
  0
GROUP
  5
37CF
102
{ACAD_REACTORS
330
18
102
}
330
18
100
AcDbGroup
300

 70
     1
 71
     1
  0
GROUP
  5
3837
102
{ACAD_REACTORS
330
18
102
}
330
18
100
AcDbGroup
300

 70
     1
 71
     1
  0
GROUP
  5
2FE9
102
{ACAD_REACTORS
330
18
102
}
330
18
100
AcDbGroup
300

 70
     1
 71
     1
  0
GROUP
  5
38C3
102
{ACAD_REACTORS
330
18
102
}
330
18
100
AcDbGroup
300

 70
     1
 71
     1
  0
GROUP
  5
39C3
102
{ACAD_REACTORS
330
18
102
}
330
18
100
AcDbGroup
300

 70
     1
 71
     1
  0
GROUP
  5
2335
102
{ACAD_REACTORS
330
18
102
}
330
18
100
AcDbGroup
300

 70
     1
 71
     1
  0
GROUP
  5
3AB4
102
{ACAD_REACTORS
330
18
102
}
330
18
100
AcDbGroup
300

 70
     1
 71
     1
  0
GROUP
  5
3BBC
102
{ACAD_REACTORS
330
18
102
}
330
18
100
AcDbGroup
300

 70
     1
 71
     1
  0
GROUP
  5
3D8C
102
{ACAD_REACTORS
330
18
102
}
330
18
100
AcDbGroup
300

 70
     1
 71
     1
  0
GROUP
  5
3FA3
102
{ACAD_REACTORS
330
18
102
}
330
18
100
AcDbGroup
300

 70
     1
 71
     1
  0
GROUP
  5
419F
102
{ACAD_REACTORS
330
18
102
}
330
18
100
AcDbGroup
300

 70
     1
 71
     1
  0
GROUP
  5
439B
102
{ACAD_REACTORS
330
18
102
}
330
18
100
AcDbGroup
300

 70
     1
 71
     1
  0
GROUP
  5
4590
102
{ACAD_REACTORS
330
18
102
}
330
18
100
AcDbGroup
300

 70
     1
 71
     1
  0
GROUP
  5
312A
102
{ACAD_REACTORS
330
18
102
}
330
18
100
AcDbGroup
300

 70
     1
 71
     1
  0
GROUP
  5
46F3
102
{ACAD_REACTORS
330
18
102
}
330
18
100
AcDbGroup
300

 70
     1
 71
     1
  0
GROUP
  5
481A
102
{ACAD_REACTORS
330
18
102
}
330
18
100
AcDbGroup
300

 70
     1
 71
     1
  0
GROUP
  5
2862
102
{ACAD_REACTORS
330
18
102
}
330
18
100
AcDbGroup
300

 70
     1
 71
     1
  0
GROUP
  5
299B
102
{ACAD_REACTORS
330
18
102
}
330
18
100
AcDbGroup
300

 70
     1
 71
     1
  0
GROUP
  5
2C07
102
{ACAD_REACTORS
330
18
102
}
330
18
100
AcDbGroup
300

 70
     1
 71
     1
  0
GROUP
  5
2DB5
102
{ACAD_REACTORS
330
18
102
}
330
18
100
AcDbGroup
300

 70
     1
 71
     1
  0
GROUP
  5
2E88
102
{ACAD_REACTORS
330
18
102
}
330
18
100
AcDbGroup
300

 70
     1
 71
     1
  0
GROUP
  5
2FBC
102
{ACAD_REACTORS
330
18
102
}
330
18
100
AcDbGroup
300

 70
     1
 71
     1
  0
GROUP
  5
4989
102
{ACAD_REACTORS
330
18
102
}
330
18
100
AcDbGroup
300

 70
     1
 71
     1
340
4951
340
4950
340
494F
340
494E
340
494D
340
494C
340
494B
340
494A
340
4949
340
4948
340
4947
340
4946
340
4945
340
4944
340
4943
340
4942
340
4941
340
4940
340
493F
340
493E
340
493D
340
493C
340
493B
340
493A
340
4939
340
4938
340
4937
340
4936
340
4935
340
4934
340
4933
340
4932
340
4931
340
4930
340
492F
340
492E
340
492D
340
492C
340
492B
340
492A
340
4929
340
4928
340
4927
340
4926
340
4925
340
4924
340
4923
340
4922
340
4921
340
4920
340
491F
340
491E
340
491D
340
491C
340
491B
340
491A
340
4919
340
4918
340
4917
340
4916
340
4915
340
4914
340
4913
340
4912
340
4911
340
4910
340
490F
340
490E
340
490D
340
48FE
340
48FD
340
48FC
340
48FB
340
48FA
340
48F9
340
48F8
340
48F7
340
48F6
340
48F5
340
48F4
340
48F3
  0
GROUP
  5
15D1
102
{ACAD_REACTORS
330
18
102
}
330
18
100
AcDbGroup
300

 70
     1
 71
     1
  0
GROUP
  5
3154
102
{ACAD_REACTORS
330
18
102
}
330
18
100
AcDbGroup
300

 70
     1
 71
     1
  0
GROUP
  5
327B
102
{ACAD_REACTORS
330
18
102
}
330
18
100
AcDbGroup
300

 70
     1
 71
     1
  0
GROUP
  5
32AA
102
{ACAD_REACTORS
330
18
102
}
330
18
100
AcDbGroup
300

 70
     1
 71
     1
  0
GROUP
  5
3650
102
{ACAD_REACTORS
330
18
102
}
330
18
100
AcDbGroup
300

 70
     1
 71
     1
  0
GROUP
  5
367C
102
{ACAD_REACTORS
330
18
102
}
330
18
100
AcDbGroup
300

 70
     1
 71
     1
  0
LAYOUT
  5
5A
102
{ACAD_XDICTIONARY
360
4992
102
}
102
{ACAD_REACTORS
330
58
102
}
330
58
100
AcDbPlotSettings
  1

  2
なし
  4

  6

 40
0.0
 41
0.0
 42
0.0
 43
0.0
 44
0.0
 45
0.0
 46
0.0
 47
0.0
 48
0.0
 49
0.0
140
0.0
141
0.0
142
1.0
143
1.0
 70
  1712
 72
     0
 73
     0
 74
     0
  7
monochrome.ctb
 75
     0
147
1.0
148
0.0
149
0.0
100
AcDbLayout
  1
Model
 70
     1
 71
     0
 10
0.0
 20
0.0
 11
12.0
 21
9.0
 12
0.0
 22
0.0
 32
0.0
 14
0.0
 24
0.0
 34
0.0
 15
0.0
 25
0.0
 35
0.0
146
0.0
 13
0.0
 23
0.0
 33
0.0
 16
1.0
 26
0.0
 36
0.0
 17
0.0
 27
1.0
 37
0.0
 76
     0
330
2
  0
LAYOUT
  5
5B
102
{ACAD_XDICTIONARY
360
4994
102
}
102
{ACAD_REACTORS
330
58
102
}
330
58
100
AcDbPlotSettings
  1

  2
なし
  4

  6

 40
0.0
 41
0.0
 42
0.0
 43
0.0
 44
0.0
 45
0.0
 46
0.0
 47
0.0
 48
0.0
 49
0.0
140
0.0
141
0.0
142
1.0
143
1.0
 70
   688
 72
     0
 73
     0
 74
     5
  7
monochrome.ctb
 75
    16
147
1.0
148
0.0
149
0.0
100
AcDbLayout
  1
ﾚｲｱｳﾄ1
 70
     1
 71
     1
 10
0.0
 20
0.0
 11
12.0
 21
9.0
 12
0.0
 22
0.0
 32
0.0
 14
1.000000000000000E+20
 24
1.000000000000000E+20
 34
1.000000000000000E+20
 15
-1.000000000000000E+20
 25
-1.000000000000000E+20
 35
-1.000000000000000E+20
146
0.0
 13
0.0
 23
0.0
 33
0.0
 16
1.0
 26
0.0
 36
0.0
 17
0.0
 27
1.0
 37
0.0
 76
     0
330
7
  0
MLINESTYLE
  5
1D
102
{ACAD_REACTORS
330
19
102
}
330
19
100
AcDbMlineStyle
  2
STANDARD
 70
     0
  3

 62
   256
 51
90.0
 52
90.0
 71
     2
 49
0.5
 62
   256
  6
BYLAYER
 49
-0.5
 62
   256
  6
BYLAYER
  0
ACDBPLACEHOLDER
  5
57
102
{ACAD_REACTORS
330
56
102
}
330
56
  0
TABLESTYLE
  5
146
102
{ACAD_REACTORS
330
145
102
}
330
145
100
AcDbTableStyle
  3
Standard
 70
     0
 71
     0
 40
0.06
 41
0.06
280
     0
281
     0
  7
STANDARD
140
0.18
170
     2
 62
     0
 63
     7
283
     0
274
    -2
284
     1
 64
     0
275
    -2
285
     1
 65
     0
276
    -2
286
     1
 66
     0
277
    -2
287
     1
 67
     0
278
    -2
288
     1
 68
     0
279
    -2
289
     1
 69
     0
  7
STANDARD
140
0.25
170
     5
 62
     0
 63
     7
283
     0
274
    -2
284
     1
 64
     0
275
    -2
285
     1
 65
     0
276
    -2
286
     1
 66
     0
277
    -2
287
     1
 67
     0
278
    -2
288
     1
 68
     0
279
    -2
289
     1
 69
     0
  7
STANDARD
140
0.18
170
     5
 62
     0
 63
     7
283
     0
274
    -2
284
     1
 64
     0
275
    -2
285
     1
 65
     0
276
    -2
286
     1
 66
     0
277
    -2
287
     1
 67
     0
278
    -2
288
     1
 68
     0
279
    -2
289
     1
 69
     0
  0
DICTIONARYVAR
  5
1D2
102
{ACAD_REACTORS
330
1D1
102
}
330
1D1
100
DictionaryVariables
280
     0
  1
STANDARD
  0
DICTIONARYVAR
  5
D03
102
{ACAD_REACTORS
330
1D1
102
}
330
1D1
100
DictionaryVariables
280
     0
  1
1
  0
DICTIONARYVAR
  5
D04
102
{ACAD_REACTORS
330
1D1
102
}
330
1D1
100
DictionaryVariables
280
     0
  1

  0
DICTIONARY
  5
4992
330
5A
100
AcDbDictionary
280
     1
281
     1
  3
ACAD_XREC_ROUNDTRIP
360
4993
  0
DICTIONARY
  5
4994
330
5B
100
AcDbDictionary
280
     1
281
     1
  3
ACAD_XREC_ROUNDTRIP
360
4995
  0
XRECORD
  5
4993
102
{ACAD_REACTORS
330
4992
102
}
330
4992
100
AcDbXrecord
280
     1
102
SHADEPLOT
 70
     0
102
SHADEPLOTRESLEVEL
 70
     2
102
SHADEPLOTCUSTOMDPI
 70
   300
  0
XRECORD
  5
4995
102
{ACAD_REACTORS
330
4994
102
}
330
4994
100
AcDbXrecord
280
     1
102
SHADEPLOT
 70
     0
102
SHADEPLOTRESLEVEL
 70
     2
102
SHADEPLOTCUSTOMDPI
 70
   300
  0
ENDSEC
  0
EOF
