  0
SECTION
  2
HEADER
  9
$ACADVER
  1
AC1015
  9
$ACADMAINTVER
 70
    20
  9
$DWGCODEPAGE
  3
ANSI_932
  9
$INSBASE
 10
922.019522
 20
-675.4306699999999
 30
0.0
  9
$EXTMIN
 10
-0.0128164049386896
 20
-0.0090630292066862
 30
-0.0015258207003583
  9
$EXTMAX
 10
148.7008673612737
 20
139.7761693317165
 30
0.0000000349246037
  9
$LIMMIN
 10
0.0
 20
0.0
  9
$LIMMAX
 10
420.0
 20
297.0
  9
$ORTHOMODE
 70
     1
  9
$REGENMODE
 70
     1
  9
$FILLMODE
 70
     1
  9
$QTEXTMODE
 70
     0
  9
$MIRRTEXT
 70
     1
  9
$LTSCALE
 40
1.0
  9
$ATTMODE
 70
     1
  9
$TEXTSIZE
 40
30.0
  9
$TRACEWID
 40
0.05
  9
$TEXTSTYLE
  7
SUNPOU
  9
$CLAYER
  8
0
  9
$CELTYPE
  6
BYLAYER
  9
$CECOLOR
 62
   256
  9
$CELTSCALE
 40
1.0
  9
$DISPSILH
 70
     0
  9
$DIMSCALE
 40
1.0
  9
$DIMASZ
 40
2.0
  9
$DIMEXO
 40
10.0
  9
$DIMDLI
 40
0.38
  9
$DIMRND
 40
0.0
  9
$DIMDLE
 40
0.0
  9
$DIMEXE
 40
0.0
  9
$DIMTP
 40
0.0
  9
$DIMTM
 40
0.0
  9
$DIMTXT
 40
5.0
  9
$DIMCEN
 40
0.0
  9
$DIMTSZ
 40
0.0
  9
$DIMTOL
 70
     0
  9
$DIMLIM
 70
     0
  9
$DIMTIH
 70
     0
  9
$DIMTOH
 70
     0
  9
$DIMSE1
 70
     0
  9
$DIMSE2
 70
     0
  9
$DIMTAD
 70
     1
  9
$DIMZIN
 70
     0
  9
$DIMBLK
  1
Dot
  9
$DIMASO
 70
     1
  9
$DIMSHO
 70
     1
  9
$DIMPOST
  1

  9
$DIMAPOST
  1

  9
$DIMALT
 70
     0
  9
$DIMALTD
 70
     2
  9
$DIMALTF
 40
25.4
  9
$DIMLFAC
 40
1.0
  9
$DIMTOFL
 70
     0
  9
$DIMTVP
 40
0.0
  9
$DIMTIX
 70
     0
  9
$DIMSOXD
 70
     0
  9
$DIMSAH
 70
     0
  9
$DIMBLK1
  1

  9
$DIMBLK2
  1

  9
$DIMSTYLE
  2
STANDARD
  9
$DIMCLRD
 70
    60
  9
$DIMCLRE
 70
    70
  9
$DIMCLRT
 70
    60
  9
$DIMTFAC
 40
0.064286
  9
$DIMGAP
 40
3.0
  9
$DIMJUST
 70
     0
  9
$DIMSD1
 70
     0
  9
$DIMSD2
 70
     0
  9
$DIMTOLJ
 70
     1
  9
$DIMTZIN
 70
     0
  9
$DIMALTZ
 70
     0
  9
$DIMALTTZ
 70
     0
  9
$DIMUPT
 70
     0
  9
$DIMDEC
 70
     0
  9
$DIMTDEC
 70
     0
  9
$DIMALTU
 70
     2
  9
$DIMALTTD
 70
     2
  9
$DIMTXSTY
  7
SUNPOU
  9
$DIMAUNIT
 70
     0
  9
$DIMADEC
 70
     0
  9
$DIMALTRND
 40
0.0
  9
$DIMAZIN
 70
     0
  9
$DIMDSEP
 70
    46
  9
$DIMATFIT
 70
     3
  9
$DIMFRAC
 70
     0
  9
$DIMLDRBLK
  1

  9
$DIMLUNIT
 70
     2
  9
$DIMLWD
 70
    -2
  9
$DIMLWE
 70
    -2
  9
$DIMTMOVE
 70
     0
  9
$LUNITS
 70
     2
  9
$LUPREC
 70
     5
  9
$SKETCHINC
 40
0.1
  9
$FILLETRAD
 40
0.0
  9
$AUNITS
 70
     0
  9
$AUPREC
 70
     0
  9
$MENU
  1
acad
  9
$ELEVATION
 40
0.0
  9
$PELEVATION
 40
0.0
  9
$THICKNESS
 40
0.0
  9
$LIMCHECK
 70
     0
  9
$CHAMFERA
 40
0.0
  9
$CHAMFERB
 40
0.0
  9
$CHAMFERC
 40
0.0
  9
$CHAMFERD
 40
0.0
  9
$SKPOLY
 70
     0
  9
$TDCREATE
 40
2450623.654673033
  9
$TDUCREATE
 40
2450623.279673032
  9
$TDUPDATE
 40
2453872.696265000
  9
$TDUUPDATE
 40
2453872.321265000
  9
$TDINDWG
 40
0.9749668866
  9
$TDUSRTIMER
 40
0.9749667130
  9
$USRTIMER
 70
     1
  9
$ANGBASE
 50
0.0
  9
$ANGDIR
 70
     0
  9
$PDMODE
 70
     0
  9
$PDSIZE
 40
0.0
  9
$PLINEWID
 40
0.0
  9
$SPLFRAME
 70
     0
  9
$SPLINETYPE
 70
     6
  9
$SPLINESEGS
 70
     8
  9
$HANDSEED
  5
69E5
  9
$SURFTAB1
 70
     6
  9
$SURFTAB2
 70
     6
  9
$SURFTYPE
 70
     6
  9
$SURFU
 70
     6
  9
$SURFV
 70
     6
  9
$UCSBASE
  2

  9
$UCSNAME
  2

  9
$UCSORG
 10
0.0
 20
0.0
 30
0.0
  9
$UCSXDIR
 10
1.0
 20
0.0
 30
0.0
  9
$UCSYDIR
 10
0.0
 20
1.0
 30
0.0
  9
$UCSORTHOREF
  2

  9
$UCSORTHOVIEW
 70
     0
  9
$UCSORGTOP
 10
0.0
 20
0.0
 30
0.0
  9
$UCSORGBOTTOM
 10
0.0
 20
0.0
 30
0.0
  9
$UCSORGLEFT
 10
0.0
 20
0.0
 30
0.0
  9
$UCSORGRIGHT
 10
0.0
 20
0.0
 30
0.0
  9
$UCSORGFRONT
 10
0.0
 20
0.0
 30
0.0
  9
$UCSORGBACK
 10
0.0
 20
0.0
 30
0.0
  9
$PUCSBASE
  2

  9
$PUCSNAME
  2

  9
$PUCSORG
 10
0.0
 20
0.0
 30
0.0
  9
$PUCSXDIR
 10
1.0
 20
0.0
 30
0.0
  9
$PUCSYDIR
 10
0.0
 20
1.0
 30
0.0
  9
$PUCSORTHOREF
  2

  9
$PUCSORTHOVIEW
 70
     0
  9
$PUCSORGTOP
 10
0.0
 20
0.0
 30
0.0
  9
$PUCSORGBOTTOM
 10
0.0
 20
0.0
 30
0.0
  9
$PUCSORGLEFT
 10
0.0
 20
0.0
 30
0.0
  9
$PUCSORGRIGHT
 10
0.0
 20
0.0
 30
0.0
  9
$PUCSORGFRONT
 10
0.0
 20
0.0
 30
0.0
  9
$PUCSORGBACK
 10
0.0
 20
0.0
 30
0.0
  9
$USERI1
 70
     0
  9
$USERI2
 70
     0
  9
$USERI3
 70
     0
  9
$USERI4
 70
     0
  9
$USERI5
 70
     0
  9
$USERR1
 40
0.0
  9
$USERR2
 40
0.0
  9
$USERR3
 40
0.0
  9
$USERR4
 40
0.0
  9
$USERR5
 40
0.0
  9
$WORLDVIEW
 70
     1
  9
$SHADEDGE
 70
     3
  9
$SHADEDIF
 70
    70
  9
$TILEMODE
 70
     1
  9
$MAXACTVP
 70
    16
  9
$PINSBASE
 10
0.0
 20
0.0
 30
0.0
  9
$PLIMCHECK
 70
     0
  9
$PEXTMIN
 10
1.000000000000000E+20
 20
1.000000000000000E+20
 30
1.000000000000000E+20
  9
$PEXTMAX
 10
-1.000000000000000E+20
 20
-1.000000000000000E+20
 30
-1.000000000000000E+20
  9
$PLIMMIN
 10
0.0
 20
0.0
  9
$PLIMMAX
 10
12.0
 20
9.0
  9
$UNITMODE
 70
     0
  9
$VISRETAIN
 70
     0
  9
$PLINEGEN
 70
     0
  9
$PSLTSCALE
 70
     1
  9
$TREEDEPTH
 70
  3020
  9
$CMLSTYLE
  2
STANDARD
  9
$CMLJUST
 70
     0
  9
$CMLSCALE
 40
1.0
  9
$PROXYGRAPHICS
 70
     1
  9
$MEASUREMENT
 70
     0
  9
$CELWEIGHT
370
    -1
  9
$ENDCAPS
280
     0
  9
$JOINSTYLE
280
     0
  9
$LWDISPLAY
290
     0
  9
$INSUNITS
 70
     0
  9
$HYPERLINKBASE
  1

  9
$STYLESHEET
  1

  9
$XEDIT
290
     1
  9
$CEPSNTYPE
380
     0
  9
$PSTYLEMODE
290
     1
  9
$FINGERPRINTGUID
  2
{FB88A696-E29C-4009-92AF-A3599A8169D5}
  9
$VERSIONGUID
  2
{798BF75C-5805-4C1E-A41D-4138B8B530CE}
  9
$EXTNAMES
290
     1
  9
$PSVPSCALE
 40
0.0
  9
$OLESTARTUP
290
     0
  0
ENDSEC
  0
SECTION
  2
CLASSES
  0
CLASS
  1
DICTIONARYVAR
  2
AcDbDictionaryVar
  3
ObjectDBX Classes
 90
        0
280
     0
281
     0
  0
CLASS
  1
ACDBDICTIONARYWDFLT
  2
AcDbDictionaryWithDefault
  3
ObjectDBX Classes
 90
        0
280
     0
281
     0
  0
CLASS
  1
ACDBPLACEHOLDER
  2
AcDbPlaceHolder
  3
ObjectDBX Classes
 90
        0
280
     0
281
     0
  0
CLASS
  1
LAYOUT
  2
AcDbLayout
  3
ObjectDBX Classes
 90
        0
280
     0
281
     0
  0
CLASS
  1
TABLESTYLE
  2
AcDbTableStyle
  3
ObjectDBX Classes
 90
     2047
280
     0
281
     0
  0
CLASS
  1
SORTENTSTABLE
  2
AcDbSortentsTable
  3
ObjectDBX Classes
 90
        0
280
     0
281
     0
  0
ENDSEC
  0
SECTION
  2
TABLES
  0
TABLE
  2
VPORT
  5
12
330
0
100
AcDbSymbolTable
 70
    22
  0
VPORT
  5
69DF
330
12
100
AcDbSymbolTableRecord
100
AcDbViewportTableRecord
  2
*Active
 70
     0
 10
0.0
 20
0.0
 11
1.0
 21
1.0
 12
74.34402547816751
 22
69.88355315125494
 13
0.0
 23
0.0
 14
1.0
 24
1.0
 15
0.0
 25
0.0
 16
0.0
 26
0.0
 36
1.0
 17
0.0
 27
0.0
 37
0.0
 40
140.852295203373
 41
1.555414012738853
 42
50.0
 43
0.0
 44
0.0
 50
0.0
 51
0.0
 71
     0
 72
 20000
 73
     1
 74
     1
 75
     0
 76
     0
 77
     0
 78
     0
281
     0
 65
     1
110
0.0
120
0.0
130
0.0
111
1.0
121
0.0
131
0.0
112
0.0
122
1.0
132
0.0
 79
     0
146
0.0
  0
ENDTAB
  0
TABLE
  2
LTYPE
  5
D
330
0
100
AcDbSymbolTable
 70
     2
  0
LTYPE
  5
E
330
D
100
AcDbSymbolTableRecord
100
AcDbLinetypeTableRecord
  2
BYBLOCK
 70
     0
  3

 72
    65
 73
     0
 40
0.0
  0
LTYPE
  5
F
330
D
100
AcDbSymbolTableRecord
100
AcDbLinetypeTableRecord
  2
BYLAYER
 70
     0
  3

 72
    65
 73
     0
 40
0.0
  0
LTYPE
  5
5
330
D
100
AcDbSymbolTableRecord
100
AcDbLinetypeTableRecord
  2
CONTINUOUS
 70
     0
  3
Solid line
 72
    65
 73
     0
 40
0.0
  0
ENDTAB
  0
TABLE
  2
LAYER
  5
A
102
{ACAD_XDICTIONARY
360
1B4
102
}
330
0
100
AcDbSymbolTable
 70
     6
  0
LAYER
  5
4
330
A
100
AcDbSymbolTableRecord
100
AcDbLayerTableRecord
  2
0
 70
     0
 62
     7
  6
CONTINUOUS
370
    -3
390
57
  0
LAYER
  5
25
330
A
100
AcDbSymbolTableRecord
100
AcDbLayerTableRecord
  2
KIJUN
 70
     0
 62
     7
  6
CONTINUOUS
370
    -3
390
57
  0
LAYER
  5
22
330
A
100
AcDbSymbolTableRecord
100
AcDbLayerTableRecord
  2
HOJO
 70
     0
 62
     3
  6
CONTINUOUS
370
    -3
390
57
  0
LAYER
  5
1B
330
A
100
AcDbSymbolTableRecord
100
AcDbLayerTableRecord
  2
WAKU
 70
     0
 62
     1
  6
CONTINUOUS
370
    -3
390
57
  0
LAYER
  5
31
330
A
100
AcDbSymbolTableRecord
100
AcDbLayerTableRecord
  2
DEFPOINTS
 70
     0
 62
     7
  6
CONTINUOUS
290
     0
370
    -3
390
57
  0
LAYER
  5
28
330
A
100
AcDbSymbolTableRecord
100
AcDbLayerTableRecord
  2
SUNPOU
 70
     0
 62
    70
  6
CONTINUOUS
370
    -3
390
57
  0
ENDTAB
  0
TABLE
  2
STYLE
  5
B
330
0
100
AcDbSymbolTable
 70
     2
  0
STYLE
  5
C
330
B
100
AcDbSymbolTableRecord
100
AcDbTextStyleTableRecord
  2
STANDARD
 70
     0
 40
0.0
 41
1.0
 50
0.0
 71
     0
 42
0.2
  3
txt
  4

  0
STYLE
  5
1C
330
B
100
AcDbSymbolTableRecord
100
AcDbTextStyleTableRecord
  2
SUNPOU
 70
     0
 40
0.0
 41
1.0
 50
0.0
 71
     0
 42
30.0
  3
txt
  4
bigfont
  0
ENDTAB
  0
TABLE
  2
VIEW
  5
10
330
0
100
AcDbSymbolTable
 70
     0
  0
ENDTAB
  0
TABLE
  2
UCS
  5
11
330
0
100
AcDbSymbolTable
 70
     0
  0
ENDTAB
  0
TABLE
  2
APPID
  5
14
330
0
100
AcDbSymbolTable
 70
    10
  0
APPID
  5
15
330
14
100
AcDbSymbolTableRecord
100
AcDbRegAppTableRecord
  2
ACAD
 70
     0
  0
APPID
  5
1D3
330
14
100
AcDbSymbolTableRecord
100
AcDbRegAppTableRecord
  2
ACAD_DSTYLE_DIMTEXT_FILL
 70
     0
  0
APPID
  5
1D4
330
14
100
AcDbSymbolTableRecord
100
AcDbRegAppTableRecord
  2
ACAD_DSTYLE_DIMEXT_LENGTH
 70
     0
  0
APPID
  5
1D5
330
14
100
AcDbSymbolTableRecord
100
AcDbRegAppTableRecord
  2
ACAD_DSTYLE_DIMEXT_ENABLED
 70
     0
  0
APPID
  5
1D6
330
14
100
AcDbSymbolTableRecord
100
AcDbRegAppTableRecord
  2
ACAD_DSTYLE_DIM_LINETYPE
 70
     0
  0
APPID
  5
1D7
330
14
100
AcDbSymbolTableRecord
100
AcDbRegAppTableRecord
  2
ACAD_DSTYLE_DIM_EXT1_LINETYPE
 70
     0
  0
APPID
  5
1D8
330
14
100
AcDbSymbolTableRecord
100
AcDbRegAppTableRecord
  2
ACAD_DSTYLE_DIM_EXT2_LINETYPE
 70
     0
  0
APPID
  5
294
330
14
100
AcDbSymbolTableRecord
100
AcDbRegAppTableRecord
  2
ACAD_DSTYLE_DIMJOGGED_JOGANGLE_SYMBOL
 70
     0
  0
APPID
  5
478
330
14
100
AcDbSymbolTableRecord
100
AcDbRegAppTableRecord
  2
ACAD_DSTYLE_DIMARC_LENGTH_SYMBOL
 70
     0
  0
APPID
  5
F55
330
14
100
AcDbSymbolTableRecord
100
AcDbRegAppTableRecord
  2
ACAD_EXEMPT_FROM_CAD_STANDARDS
 70
     0
  0
ENDTAB
  0
TABLE
  2
DIMSTYLE
  5
16
330
0
100
AcDbSymbolTable
 70
     4
100
AcDbDimStyleTable
 71
     1
340
1E
  0
DIMSTYLE
105
1E
102
{ACAD_REACTORS
330
6943
330
6950
102
}
330
16
100
AcDbSymbolTableRecord
100
AcDbDimStyleTableRecord
  2
STANDARD
 70
     0
340
C
  0
ENDTAB
  0
TABLE
  2
BLOCK_RECORD
  5
1
330
0
100
AcDbSymbolTable
 70
    24
  0
BLOCK_RECORD
  5
2
102
{ACAD_XDICTIONARY
360
D13
102
}
330
1
100
AcDbSymbolTableRecord
100
AcDbBlockTableRecord
  2
*MODEL_SPACE
340
5A
  0
BLOCK_RECORD
  5
7
330
1
100
AcDbSymbolTableRecord
100
AcDbBlockTableRecord
  2
*PAPER_SPACE
340
5B
  0
BLOCK_RECORD
  5
109
330
1
100
AcDbSymbolTableRecord
100
AcDbBlockTableRecord
  2
_Dot
340
0
102
{BLKREFS
331
58E8
331
58E9
331
58F2
331
58F3
331
5D83
331
5D84
331
5D8C
331
5D8D
331
5F73
331
5F74
331
5F8E
331
5F8F
331
625C
331
625D
331
6265
331
6266
331
63F0
331
63F1
331
63FD
331
63FE
331
6699
331
669A
331
66AB
331
66AC
331
68AD
331
68AE
331
68BF
331
68C0
331
69B8
331
69B9
331
69D3
331
69D4
102
}
  0
BLOCK_RECORD
  5
6944
330
1
100
AcDbSymbolTableRecord
100
AcDbBlockTableRecord
  2
*D22
340
0
  0
BLOCK_RECORD
  5
6951
330
1
100
AcDbSymbolTableRecord
100
AcDbBlockTableRecord
  2
*D23
340
0
  0
ENDTAB
  0
ENDSEC
  0
SECTION
  2
BLOCKS
  0
BLOCK
  5
3
330
2
100
AcDbEntity
  8
0
100
AcDbBlockBegin
  2
*MODEL_SPACE
 70
     0
 10
0.0
 20
0.0
 30
0.0
  3
*MODEL_SPACE
  1

  0
ENDBLK
  5
6
330
2
100
AcDbEntity
  8
0
100
AcDbBlockEnd
  0
BLOCK
  5
8
330
7
100
AcDbEntity
 67
     1
  8
0
100
AcDbBlockBegin
  2
*PAPER_SPACE
 70
     0
 10
0.0
 20
0.0
 30
0.0
  3
*PAPER_SPACE
  1

  0
ENDBLK
  5
9
330
7
100
AcDbEntity
 67
     1
  8
0
100
AcDbBlockEnd
  0
BLOCK
  5
10C
330
109
100
AcDbEntity
  8
0
100
AcDbBlockBegin
  2
_Dot
 70
     0
 10
0.0
 20
0.0
 30
0.0
  3
_Dot
  1

  0
LWPOLYLINE
  5
10A
330
109
100
AcDbEntity
  8
0
  6
ByBlock
 62
     0
100
AcDbPolyline
 90
        2
 70
     1
 43
0.5
 10
-0.25
 20
0.0
 42
1.0
 10
0.25
 20
0.0
 42
1.0
  0
LINE
  5
10B
330
109
100
AcDbEntity
  8
0
  6
ByBlock
 62
     0
370
    -2
100
AcDbLine
 10
-0.5
 20
0.0
 30
0.0
 11
-1.0
 21
0.0
 31
0.0
  0
ENDBLK
  5
10D
330
109
100
AcDbEntity
  8
0
100
AcDbBlockEnd
  0
BLOCK
  5
694E
330
6944
100
AcDbEntity
  8
0
100
AcDbBlockBegin
  2
*D22
 70
     1
 10
0.0
 20
0.0
 30
0.0
  3
*D22
  1

  0
LINE
  5
69B5
330
6944
100
AcDbEntity
  8
SUNPOU
 62
    70
370
    -2
100
AcDbLine
 10
37.17834077255441
 20
123.4878145754079
 30
0.0
 11
37.17834077255441
 21
131.76312714089
 31
0.0
  0
LINE
  5
69B6
330
6944
100
AcDbEntity
  8
SUNPOU
 62
    70
370
    -2
100
AcDbLine
 10
112.1783407725544
 20
123.1430459885314
 30
0.0
 11
112.1783407725544
 21
131.76312714089
 31
0.0
  0
LINE
  5
69B7
330
6944
100
AcDbEntity
  8
SUNPOU
 62
    60
370
    -2
100
AcDbLine
 10
39.17834077255441
 20
131.76312714089
 30
0.0
 11
110.1783407725544
 21
131.76312714089
 31
0.0
  0
INSERT
  5
69B8
330
6944
100
AcDbEntity
  8
SUNPOU
 62
    60
370
    -2
100
AcDbBlockReference
  2
_Dot
 10
37.17834077255441
 20
131.76312714089
 30
0.0
 41
2.0
 42
2.0
 43
2.0
 50
180.0
  0
INSERT
  5
69B9
330
6944
100
AcDbEntity
  8
SUNPOU
 62
    60
370
    -2
100
AcDbBlockReference
  2
_Dot
 10
112.1783407725544
 20
131.76312714089
 30
0.0
 41
2.0
 42
2.0
 43
2.0
  0
MTEXT
  5
69BA
330
6944
100
AcDbEntity
  8
SUNPOU
 62
    60
100
AcDbMText
 10
74.67834077255441
 20
137.26312714089
 30
0.0
 40
5.0
 41
0.0
 71
     5
 72
     1
  1
\A1;75
  7
SUNPOU
 73
     1
 44
1.0
1001
ACAD
1000
MTEXTBEGIN
1070
    73
1070
     1
1070
    44
1040
1.0
1070
    74
1070
     0
1000
MTEXTEND
  0
POINT
  5
69BB
330
6944
100
AcDbEntity
  8
DEFPOINTS
 62
     0
100
AcDbPoint
 10
37.17834077255441
 20
113.4878145754079
 30
0.0
  0
POINT
  5
69BC
330
6944
100
AcDbEntity
  8
DEFPOINTS
 62
     0
100
AcDbPoint
 10
112.1783407725544
 20
113.1430459885314
 30
0.0
  0
POINT
  5
69BD
330
6944
100
AcDbEntity
  8
DEFPOINTS
 62
     0
100
AcDbPoint
 10
112.1783407725544
 20
131.76312714089
 30
0.0
  0
ENDBLK
  5
694F
330
6944
100
AcDbEntity
  8
0
100
AcDbBlockEnd
  0
BLOCK
  5
695B
330
6951
100
AcDbEntity
  8
0
100
AcDbBlockBegin
  2
*D23
 70
     1
 10
0.0
 20
0.0
 30
0.0
  3
*D23
  1

  0
LINE
  5
69D0
330
6951
100
AcDbEntity
  8
SUNPOU
 62
    70
370
    -2
100
AcDbLine
 10
27.17834077255441
 20
113.4878145754079
 30
0.0
 11
15.90036459681734
 21
113.4878145754079
 31
0.0
  0
LINE
  5
69D1
330
6951
100
AcDbEntity
  8
SUNPOU
 62
    70
370
    -2
100
AcDbLine
 10
29.03740458206232
 20
28.48781457540793
 30
0.0
 11
15.90036459681732
 21
28.48781457540793
 31
0.0
  0
LINE
  5
69D2
330
6951
100
AcDbEntity
  8
SUNPOU
 62
    60
370
    -2
100
AcDbLine
 10
15.90036459681734
 20
111.4878145754079
 30
0.0
 11
15.90036459681732
 21
30.48781457540793
 31
0.0
  0
INSERT
  5
69D3
330
6951
100
AcDbEntity
  8
SUNPOU
 62
    60
370
    -2
100
AcDbBlockReference
  2
_Dot
 10
15.90036459681734
 20
113.4878145754079
 30
0.0
 41
2.0
 42
2.0
 43
2.0
 50
90.0
  0
INSERT
  5
69D4
330
6951
100
AcDbEntity
  8
SUNPOU
 62
    60
370
    -2
100
AcDbBlockReference
  2
_Dot
 10
15.90036459681732
 20
28.48781457540793
 30
0.0
 41
2.0
 42
2.0
 43
2.0
 50
270.0
  0
MTEXT
  5
69D5
330
6951
100
AcDbEntity
  8
SUNPOU
 62
    60
100
AcDbMText
 10
10.40036459681731
 20
70.98781457540795
 30
0.0
 40
5.0
 41
0.0
 71
     5
 72
     1
  1
\A1;85
  7
SUNPOU
 11
0.0000000000000001
 21
1.0
 31
0.0
 73
     1
 44
1.0
1001
ACAD
1000
MTEXTBEGIN
1070
    73
1070
     1
1070
    44
1040
1.0
1070
    74
1070
     0
1000
MTEXTEND
  0
POINT
  5
69D6
330
6951
100
AcDbEntity
  8
DEFPOINTS
 62
     0
100
AcDbPoint
 10
37.17834077255441
 20
113.4878145754079
 30
0.0
  0
POINT
  5
69D7
330
6951
100
AcDbEntity
  8
DEFPOINTS
 62
     0
100
AcDbPoint
 10
39.03740458206232
 20
28.48781457540793
 30
0.0
  0
POINT
  5
69D8
330
6951
100
AcDbEntity
  8
DEFPOINTS
 62
     0
100
AcDbPoint
 10
15.90036459681732
 20
28.48781457540793
 30
0.0
  0
ENDBLK
  5
695C
330
6951
100
AcDbEntity
  8
0
100
AcDbBlockEnd
  0
ENDSEC
  0
SECTION
  2
ENTITIES
  0
LINE
  5
1F
330
2
100
AcDbEntity
  8
WAKU
100
AcDbLine
 10
0.0
 20
14.0
 30
0.0
 11
148.6829221395387
 21
14.0
 31
0.0
  0
LINE
  5
20
330
2
100
AcDbEntity
  8
WAKU
100
AcDbLine
 10
0.0
 20
0.0
 30
0.0
 11
148.6829221395387
 21
0.0
 31
0.0
  0
TEXT
  5
21
330
2
100
AcDbEntity
  8
HOJO
100
AcDbText
 10
9.653966000000025
 20
2.366626000000024
 30
0.0
 40
9.0
  1
TM110
  7
SUNPOU
100
AcDbText
  0
TEXT
  5
23
330
2
100
AcDbEntity
  8
HOJO
100
AcDbText
 10
85.84696046283864
 20
5.044386000000031
 30
0.0
 40
6.0
  1
75×85×8
  7
SUNPOU
100
AcDbText
  0
ARC
  5
690D
102
{ACAD_REACTORS
330
69AB
102
}
330
2
100
AcDbEntity
  8
KIJUN
100
AcDbCircle
 10
92.47653741309386
 20
92.75194099618284
 30
0.0
 40
11.02408190948845
100
AcDbArc
 50
358.8350610149691
 51
111.5159606711217
  0
LINE
  5
690E
102
{ACAD_REACTORS
330
69AB
102
}
330
2
100
AcDbEntity
  8
KIJUN
100
AcDbLine
 10
88.43334077255475
 20
103.0078145754078
 30
0.0
 11
84.63623200916117
 21
95.99246611416038
 31
0.0
  0
SPLINE
  5
690F
102
{ACAD_REACTORS
330
69AB
102
}
330
2
100
AcDbEntity
  8
KIJUN
100
AcDbSpline
210
0.0
220
0.0
230
1.0
 70
     8
 71
     3
 72
    12
 73
     8
 74
     6
 42
0.0000000001
 43
0.0000000001
 44
0.0000000001
 40
0.0
 40
0.0
 40
0.0
 40
0.0
 40
20.88254280768052
 40
35.08606210126032
 40
40.1869029614085
 40
45.2705026852555
 40
48.42613298245037
 40
48.42613298245037
 40
48.42613298245037
 40
48.42613298245037
 10
76.64334077255467
 20
58.46781457540771
 30
0.0
 10
76.74104890731325
 20
65.39640824349317
 30
0.0
 10
76.905214436172
 20
77.03757043105183
 30
0.0
 10
78.57805287404102
 20
90.64016518375259
 30
0.0
 10
82.21199480022937
 20
97.87586960700688
 30
0.0
 10
83.13789361491798
 20
102.4828590323682
 30
0.0
 10
82.0903909222668
 20
105.0636245140859
 30
0.0
 10
81.68919672998413
 20
106.0520593221038
 30
0.0
 11
76.64334077255467
 21
58.46781457540771
 31
0.0
 11
77.39568161116267
 21
79.33680059239407
 31
0.0
 11
80.07912915138239
 21
93.28452691685219
 31
0.0
 11
82.01121119123445
 21
98.00529343001915
 31
0.0
 11
82.65523538608523
 21
103.0479335112409
 31
0.0
 11
81.68919672998413
 21
106.0520593221038
 31
0.0
  0
SPLINE
  5
6910
102
{ACAD_REACTORS
330
69AB
102
}
330
2
100
AcDbEntity
  8
KIJUN
100
AcDbSpline
210
0.0
220
0.0
230
1.0
 70
     8
 71
     3
 72
    12
 73
     8
 74
     6
 42
0.0000000001
 43
0.0000000001
 44
0.0000000001
 40
0.0
 40
0.0
 40
0.0
 40
0.0
 40
20.88254280768051
 40
35.0860621012604
 40
40.18690296140849
 40
45.27050268525549
 40
48.4261329824503
 40
48.4261329824503
 40
48.4261329824503
 40
48.4261329824503
 10
72.71334077255438
 20
58.46781457540771
 30
0.0
 10
72.61563263779613
 20
65.39640824349319
 30
0.0
 10
72.45146710893789
 20
77.03757043105196
 30
0.0
 10
70.77862867106779
 20
90.64016518375243
 30
0.0
 10
67.14468674487995
 20
97.87586960700695
 30
0.0
 10
66.21878793019141
 20
102.4828590323682
 30
0.0
 10
67.26629062284235
 20
105.0636245140859
 30
0.0
 10
67.6674848151249
 20
106.0520593221038
 30
0.0
 11
72.71334077255438
 21
58.46781457540771
 31
0.0
 11
71.96099993394682
 21
79.33680059239407
 31
0.0
 11
69.27755239372664
 21
93.28452691685219
 31
0.0
 11
67.34547035387482
 21
98.00529343001915
 31
0.0
 11
66.70144615902405
 21
103.0479335112409
 31
0.0
 11
67.6674848151249
 21
106.0520593221038
 31
0.0
  0
LINE
  5
6911
102
{ACAD_REACTORS
330
69AB
102
}
330
2
100
AcDbEntity
  8
KIJUN
100
AcDbLine
 10
60.92334077255452
 20
103.0078145754078
 30
0.0
 11
64.72044953594809
 21
95.99246611416038
 31
0.0
  0
ARC
  5
6912
102
{ACAD_REACTORS
330
69AB
102
}
330
2
100
AcDbEntity
  8
KIJUN
100
AcDbCircle
 10
56.8801441320154
 20
92.75194099618284
 30
0.0
 40
11.02408190948845
100
AcDbArc
 50
68.48403932887831
 51
181.1649389850308
  0
ARC
  5
6913
102
{ACAD_REACTORS
330
69AB
102
}
330
2
100
AcDbEntity
  8
KIJUN
100
AcDbCircle
 10
87.7082758078858
 20
46.70570462157934
 30
0.0
 40
9.740266417411577
100
AcDbArc
 50
177.627972217037
 51
250.7894961063553
  0
ARC
  5
6914
102
{ACAD_REACTORS
330
69AB
102
}
330
2
100
AcDbEntity
  8
KIJUN
100
AcDbCircle
 10
85.71306118196526
 20
45.21532740545057
 30
0.0
 40
5.281362265713232
100
AcDbArc
 50
167.2051652486833
 51
320.2010839788674
  0
ARC
  5
6915
102
{ACAD_REACTORS
330
69AB
102
}
330
2
100
AcDbEntity
  8
KIJUN
100
AcDbCircle
 10
75.1741949216447
 20
38.71747973514766
 30
0.0
 40
6.468697860460973
100
AcDbArc
 50
265.6037138925011
 51
3.329104697855184
  0
ARC
  5
6916
102
{ACAD_REACTORS
330
69AB
102
}
330
2
100
AcDbEntity
  8
KIJUN
100
AcDbCircle
 10
73.58943942268343
 20
31.36627748177136
 30
0.0
 40
19.27232357230275
100
AcDbArc
 50
32.90085589960156
 51
86.76101877893719
  0
SPLINE
  5
6917
102
{ACAD_REACTORS
330
69AB
102
}
330
2
100
AcDbEntity
  8
KIJUN
100
AcDbSpline
210
0.0
220
0.0
230
1.0
 70
     8
 71
     3
 72
    11
 73
     7
 74
     5
 42
0.0000000001
 43
0.0000000001
 44
0.0000000001
 40
0.0
 40
0.0
 40
0.0
 40
0.0
 40
4.745900107398036
 40
16.71777553912132
 40
30.77092120382675
 40
39.73862547008271
 40
39.73862547008271
 40
39.73862547008271
 40
39.73862547008271
 10
89.27885344374614
 20
97.08484346202954
 30
0.0
 10
88.29963613898559
 20
95.8364224755663
 30
0.0
 10
84.85027253365149
 20
91.43876947872241
 30
0.0
 10
81.24853709033585
 20
81.65657653370073
 30
0.0
 10
78.45342226389664
 20
70.30703068092572
 30
0.0
 10
78.05847369754451
 20
62.627958626953
 30
0.0
 10
77.90462264712505
 20
59.63659873251742
 30
0.0
 11
89.27885344374614
 21
97.08484346202954
 31
0.0
 11
86.46148574667154
 21
93.26568032216744
 31
0.0
 11
81.69686970681141
 21
82.28277381498969
 31
0.0
 11
78.5852814060122
 21
68.57843430811238
 31
0.0
 11
77.90462264712505
 21
59.63659873251742
 31
0.0
  0
ARC
  5
6918
102
{ACAD_REACTORS
330
69AB
102
}
330
2
100
AcDbEntity
  8
KIJUN
100
AcDbCircle
 10
74.67834077255441
 20
38.34873613860077
 30
0.0
 40
9.860921563192842
100
AcDbArc
 50
184.8920221870363
 51
355.1079778129635
  0
SPLINE
  5
6919
102
{ACAD_REACTORS
330
69AB
102
}
330
2
100
AcDbEntity
  8
KIJUN
100
AcDbSpline
210
0.0
220
0.0
230
1.0
 70
     8
 71
     3
 72
    11
 73
     7
 74
     5
 42
0.0000000001
 43
0.0000000001
 44
0.0000000001
 40
0.0
 40
0.0
 40
0.0
 40
0.0
 40
2.115019732105795
 40
9.549991561858984
 40
16.38354481367372
 40
32.92875761090224
 40
32.92875761090224
 40
32.92875761090224
 40
32.92875761090224
 10
42.63540254315671
 20
76.38115970818091
 30
0.0
 10
43.31741197247521
 20
76.595069139764
 30
0.0
 10
46.3969030033295
 20
77.56093874164548
 30
0.0
 10
51.90398885558585
 20
74.63528998800022
 30
0.0
 10
58.39182127853479
 20
66.54970510990605
 30
0.0
 10
58.84153510565119
 20
58.43677288727469
 30
0.0
 10
59.15979873649849
 20
52.69522990971359
 30
0.0
 11
42.63540254315671
 21
76.38115970818091
 31
0.0
 11
44.6878363828132
 21
76.89186882404806
 31
0.0
 11
51.61960743034024
 21
74.20312260064031
 31
0.0
 11
55.96489505022873
 21
68.92904206031563
 31
0.0
 11
59.15979873649849
 21
52.69522990971359
 31
0.0
  0
ARC
  5
691A
102
{ACAD_REACTORS
330
69AB
102
}
330
2
100
AcDbEntity
  8
KIJUN
100
AcDbCircle
 10
50.49160103408201
 20
52.31786359868045
 30
0.0
 40
8.676408055231203
100
AcDbArc
 50
199.5809183067165
 51
2.492773441333938
  0
ARC
  5
691B
102
{ACAD_REACTORS
330
69AB
102
}
330
2
100
AcDbEntity
  8
KIJUN
100
AcDbCircle
 10
55.743184337034
 20
94.33110592853642
 30
0.0
 40
5.135387713406577
100
AcDbArc
 50
32.42721453958809
 51
222.0588589528128
  0
SPLINE
  5
691C
102
{ACAD_REACTORS
330
69AB
102
}
330
2
100
AcDbEntity
  8
KIJUN
100
AcDbSpline
210
0.0
220
0.0
230
1.0
 70
     8
 71
     3
 72
    11
 73
     7
 74
     5
 42
0.0000000001
 43
0.0000000001
 44
0.0000000001
 40
0.0
 40
0.0
 40
0.0
 40
0.0
 40
4.745900107398036
 40
16.71777553912141
 40
30.77092120382675
 40
39.7386254700827
 40
39.7386254700827
 40
39.7386254700827
 40
39.7386254700827
 10
60.07782810136314
 20
97.08484346202954
 30
0.0
 10
61.05704540612368
 20
95.8364224755663
 30
0.0
 10
64.50640901145778
 20
91.43876947872234
 30
0.0
 10
68.10814445477388
 20
81.65657653370086
 30
0.0
 10
70.90325928121228
 20
70.30703068092565
 30
0.0
 10
71.29820784756446
 20
62.62795862695298
 30
0.0
 10
71.45205889798399
 20
59.63659873251742
 30
0.0
 11
60.07782810136314
 21
97.08484346202954
 31
0.0
 11
62.89519579843773
 21
93.26568032216744
 31
0.0
 11
67.65981183829808
 21
82.28277381498969
 31
0.0
 11
70.77140013909684
 21
68.57843430811238
 31
0.0
 11
71.45205889798399
 21
59.63659873251742
 31
0.0
  0
SPLINE
  5
691D
102
{ACAD_REACTORS
330
69AB
102
}
330
2
100
AcDbEntity
  8
KIJUN
100
AcDbSpline
210
0.0
220
0.0
230
1.0
 70
     8
 71
     3
 72
    11
 73
     7
 74
     5
 42
0.0000000001
 43
0.0000000001
 44
0.0000000001
 40
0.0
 40
0.0
 40
0.0
 40
0.0
 40
6.920325160832291
 40
10.98675891078996
 40
21.00640609843413
 40
45.77962987306222
 40
45.77962987306222
 40
45.77962987306222
 40
45.77962987306222
 10
51.93037953860607
 20
90.89094219172318
 30
0.0
 10
53.21485069776798
 20
88.96636645297146
 30
0.0
 10
55.25408651770419
 20
85.91089591426086
 30
0.0
 10
60.02580766233018
 20
80.79723411997798
 30
0.0
 10
66.97483130738743
 20
69.32272888329302
 30
0.0
 10
65.19706545226433
 20
57.31394266017746
 30
0.0
 10
63.93126041434107
 20
48.76344538475848
 30
0.0
 11
51.93037953860607
 21
90.89094219172318
 31
0.0
 11
55.96489505022873
 21
85.26834626829737
 31
0.0
 11
58.61676661248998
 21
82.18557792473587
 31
0.0
 11
63.67309287363764
 21
73.53532391079534
 31
0.0
 11
63.93126041434107
 21
48.76344538475848
 31
0.0
  0
ARC
  5
691E
102
{ACAD_REACTORS
330
69AB
102
}
330
2
100
AcDbEntity
  8
KIJUN
100
AcDbCircle
 10
45.12497513375524
 20
84.64993090129054
 30
0.0
 40
3.443664895698453
100
AcDbArc
 50
63.68170194818119
 51
238.4659131771779
  0
SPLINE
  5
691F
102
{ACAD_REACTORS
330
69AB
102
}
330
2
100
AcDbEntity
  8
KIJUN
100
AcDbSpline
210
0.0
220
0.0
230
1.0
 70
     8
 71
     3
 72
    12
 73
     8
 74
     6
 42
0.0000000001
 43
0.0000000001
 44
0.0000000001
 40
0.0
 40
0.0
 40
0.0
 40
0.0
 40
3.755699999320746
 40
12.91281574180737
 40
22.58249659070138
 40
34.70669271345811
 40
37.81598544809452
 40
37.81598544809452
 40
37.81598544809452
 40
37.81598544809452
 10
46.65174969375288
 20
87.73664231585611
 30
0.0
 10
47.73623721504714
 20
87.10819487237399
 30
0.0
 10
51.46491297170888
 20
84.94747222611314
 30
0.0
 10
57.0676026218631
 20
79.80664109675865
 30
0.0
 10
62.99999472281638
 20
71.09782494195951
 30
0.0
 10
63.89889801571439
 20
62.49977739723196
 30
0.0
 10
63.49616279095193
 20
57.44728888295762
 30
0.0
 10
63.41396089222349
 20
56.41603031991064
 30
0.0
 11
46.65174969375288
 21
87.73664231585611
 31
0.0
 11
49.86079851043951
 21
85.78541496441289
 31
0.0
 11
56.68910965354325
 21
79.68402695394662
 31
0.0
 11
61.86207178117024
 21
71.51437637723256
 31
0.0
 11
63.62088070107052
 21
59.51843027838947
 31
0.0
 11
63.41396089222349
 21
56.41603031991064
 31
0.0
  0
SPLINE
  5
6920
102
{ACAD_REACTORS
330
69AB
102
}
330
2
100
AcDbEntity
  8
KIJUN
100
AcDbSpline
210
0.0
220
0.0
230
1.0
 70
     8
 71
     3
 72
    11
 73
     7
 74
     5
 42
0.0000000001
 43
0.0000000001
 44
0.0000000001
 40
0.0
 40
0.0
 40
0.0
 40
0.0
 40
4.27277269804807
 40
9.317436977392128
 40
17.14645037870289
 40
26.00080890732054
 40
26.00080890732054
 40
26.00080890732054
 40
26.00080890732054
 10
43.32391865724162
 20
81.71479487679812
 30
0.0
 10
44.51782564386696
 20
80.93558082250146
 30
0.0
 10
47.12132315962094
 20
79.23638492422111
 30
0.0
 10
52.42259957594751
 20
76.98493423463481
 30
0.0
 10
57.50202621185639
 20
71.36374233698873
 30
0.0
 10
59.26896229537653
 20
66.05749377005489
 30
0.0
 10
60.20672749334426
 20
63.24131083947406
 30
0.0
 11
43.32391865724162
 21
81.71479487679812
 31
0.0
 11
46.96394009718074
 21
79.47720008641079
 31
0.0
 11
51.4126876214932
 21
77.09869569158332
 31
0.0
 11
56.79256955796723
 21
71.41096141618823
 31
0.0
 11
60.20672749334426
 21
63.24131083947406
 31
0.0
  0
ARC
  5
6921
102
{ACAD_REACTORS
330
69AB
102
}
330
2
100
AcDbEntity
  8
KIJUN
100
AcDbCircle
 10
44.23207210577129
 20
73.09956148133142
 30
0.0
 40
3.649416475909831
100
AcDbArc
 50
115.9453502129846
 51
250.8097521078702
  0
ARC
  5
6922
102
{ACAD_REACTORS
330
69AB
102
}
330
2
100
AcDbEntity
  8
KIJUN
100
AcDbCircle
 10
75.76724212242573
 20
31.36627748177136
 30
0.0
 40
19.27232357230275
100
AcDbArc
 50
93.2389812210628
 51
147.0991441003928
  0
ARC
  5
6923
102
{ACAD_REACTORS
330
69AB
102
}
330
2
100
AcDbEntity
  8
KIJUN
100
AcDbCircle
 10
74.18248662346434
 20
38.71747973514766
 30
0.0
 40
6.468697860460973
100
AcDbArc
 50
176.6708953021383
 51
274.396286107499
  0
ARC
  5
6924
102
{ACAD_REACTORS
330
69AB
102
}
330
2
100
AcDbEntity
  8
KIJUN
100
AcDbCircle
 10
63.64362036314378
 20
45.21532740545057
 30
0.0
 40
5.281362265713232
100
AcDbArc
 50
219.7989160211326
 51
12.79483475131661
  0
ARC
  5
6925
102
{ACAD_REACTORS
330
69AB
102
}
330
2
100
AcDbEntity
  8
KIJUN
100
AcDbCircle
 10
61.64840573722336
 20
46.70570462157934
 30
0.0
 40
9.740266417411577
100
AcDbArc
 50
289.2105038936447
 51
2.372027782962974
  0
LINE
  5
6926
102
{ACAD_REACTORS
330
69AB
102
}
330
2
100
AcDbEntity
  8
KIJUN
100
AcDbLine
 10
39.30816891311851
 20
79.42804446583638
 30
0.0
 11
43.69027308233774
 21
78.59507280024615
 31
0.0
  0
LINE
  5
6927
102
{ACAD_REACTORS
330
69AB
102
}
330
2
100
AcDbEntity
  8
KIJUN
100
AcDbLine
 10
45.85834077255458
 20
92.52781457540663
 30
0.0
 11
50.55808420398898
 21
87.67222398336787
 31
0.0
  0
ARC
  5
6928
102
{ACAD_REACTORS
330
69AB
102
}
330
2
100
AcDbEntity
  8
KIJUN
100
AcDbCircle
 10
46.04588895332824
 20
49.57771821386074
 30
0.0
 40
3.631584634494938
100
AcDbArc
 50
40.99247540030805
 51
192.1376269538505
  0
SPLINE
  5
6929
102
{ACAD_REACTORS
330
69AB
102
}
330
2
100
AcDbEntity
  8
KIJUN
100
AcDbSpline
210
0.0
220
0.0
230
1.0
 70
     8
 71
     3
 72
    11
 73
     7
 74
     5
 42
0.0000000001
 43
0.0000000001
 44
0.0000000001
 40
0.0
 40
0.0
 40
0.0
 40
0.0
 40
8.550418783651918
 40
17.24857145080939
 40
20.70176948378639
 40
24.39755543920949
 40
24.39755543920949
 40
24.39755543920949
 40
24.39755543920949
 10
44.478990536786
 20
67.12169028469705
 30
0.0
 10
47.40770761754487
 20
66.42421356233537
 30
0.0
 10
53.31574406638644
 20
65.01720913537866
 30
0.0
 10
56.49086752687887
 20
58.60679757929592
 30
0.0
 10
55.42902169291959
 20
51.40734365501476
 30
0.0
 10
53.00597499093576
 20
53.47098231235598
 30
0.0
 10
51.75334077255502
 20
54.53781457540833
 30
0.0
 11
44.478990536786
 21
67.12169028469705
 31
0.0
 11
52.46341740937237
 21
64.06250920274908
 31
0.0
 11
55.92315935125907
 21
56.08203017472522
 31
0.0
 11
54.99169400355936
 21
52.75683108880707
 31
0.0
 11
51.75334077255502
 21
54.53781457540833
 31
0.0
  0
ARC
  5
692A
102
{ACAD_REACTORS
330
69AB
102
}
330
2
100
AcDbEntity
  8
KIJUN
100
AcDbCircle
 10
44.37483149083766
 20
74.31742718591045
 30
0.0
 40
7.196490718283256
100
AcDbArc
 50
134.7525465249096
 51
270.8293044967789
  0
ARC
  5
692B
102
{ACAD_REACTORS
330
69AB
102
}
330
2
100
AcDbEntity
  8
KIJUN
100
AcDbCircle
 10
45.87094948125195
 20
84.33401022105874
 30
0.0
 40
8.193814055547296
100
AcDbArc
 50
90.08816725320681
 51
216.7797233281497
  0
ARC
  5
692C
102
{ACAD_REACTORS
330
69AB
102
}
330
2
100
AcDbEntity
  8
KIJUN
100
AcDbCircle
 10
46.04588895332824
 20
49.57771821386074
 30
0.0
 40
7.561584634494938
100
AcDbArc
 50
40.99247540030805
 51
192.1376269538505
  0
ARC
  5
692D
102
{ACAD_REACTORS
330
69AB
102
}
330
2
100
AcDbEntity
  8
KIJUN
100
AcDbCircle
 10
50.92119413253101
 20
52.75033151352056
 30
0.0
 40
13.15985538095708
100
AcDbArc
 50
201.2167652864103
 51
297.1139852436909
  0
ARC
  5
692E
102
{ACAD_REACTORS
330
69AB
102
}
330
2
100
AcDbEntity
  8
KIJUN
100
AcDbCircle
 10
62.06807631395531
 20
41.92970736662551
 30
0.0
 40
5.225976842788234
100
AcDbArc
 50
189.8386437730835
 51
302.2060298643503
  0
ARC
  5
692F
102
{ACAD_REACTORS
330
69AB
102
}
330
2
100
AcDbEntity
  8
KIJUN
100
AcDbCircle
 10
87.28860523115372
 20
41.92970736662551
 30
0.0
 40
5.225976842788234
100
AcDbArc
 50
237.7939701356497
 51
350.1613562269164
  0
ARC
  5
6930
102
{ACAD_REACTORS
330
69AB
102
}
330
2
100
AcDbEntity
  8
KIJUN
100
AcDbCircle
 10
98.43548741257814
 20
52.75033151352056
 30
0.0
 40
13.15985538095708
100
AcDbArc
 50
242.8860147563091
 51
338.7832347135896
  0
ARC
  5
6931
102
{ACAD_REACTORS
330
69AB
102
}
330
2
100
AcDbEntity
  8
KIJUN
100
AcDbCircle
 10
103.3107925917808
 20
49.57771821386074
 30
0.0
 40
7.561584634494938
100
AcDbArc
 50
347.8623730461494
 51
139.0075245996919
  0
ARC
  5
6932
102
{ACAD_REACTORS
330
69AB
102
}
330
2
100
AcDbEntity
  8
KIJUN
100
AcDbCircle
 10
103.4857320638573
 20
84.33401022105874
 30
0.0
 40
8.193814055547296
100
AcDbArc
 50
323.2202766718479
 51
89.9118327467932
  0
SPLINE
  5
6933
102
{ACAD_REACTORS
330
69AB
102
}
330
2
100
AcDbEntity
  8
KIJUN
100
AcDbSpline
210
0.0
220
0.0
230
1.0
 70
     8
 71
     3
 72
    11
 73
     7
 74
     5
 42
0.0000000001
 43
0.0000000001
 44
0.0000000001
 40
0.0
 40
0.0
 40
0.0
 40
0.0
 40
8.550418783651489
 40
17.24857145080905
 40
20.70176948378605
 40
24.39755543920915
 40
24.39755543920915
 40
24.39755543920915
 40
24.39755543920915
 10
104.8776910083228
 20
67.12169028469705
 30
0.0
 10
101.9489739275641
 20
66.42421356233531
 30
0.0
 10
96.04093747872278
 20
65.01720913537849
 30
0.0
 10
92.86581401823013
 20
58.60679757929598
 30
0.0
 10
93.92765985218947
 20
51.40734365501476
 30
0.0
 10
96.35070655417328
 20
53.47098231235598
 30
0.0
 10
97.60334077255402
 20
54.53781457540833
 30
0.0
 11
104.8776910083228
 21
67.12169028469705
 31
0.0
 11
96.8932641357369
 21
64.06250920274908
 31
0.0
 11
93.43352219384996
 21
56.08203017472522
 31
0.0
 11
94.36498754154968
 21
52.75683108880707
 31
0.0
 11
97.60334077255402
 21
54.53781457540833
 31
0.0
  0
ARC
  5
6934
102
{ACAD_REACTORS
330
69AB
102
}
330
2
100
AcDbEntity
  8
KIJUN
100
AcDbCircle
 10
103.3107925917808
 20
49.57771821386074
 30
0.0
 40
3.631584634494938
100
AcDbArc
 50
347.8623730461494
 51
139.0075245996919
  0
LINE
  5
6935
102
{ACAD_REACTORS
330
69AB
102
}
330
2
100
AcDbEntity
  8
KIJUN
100
AcDbLine
 10
103.4983407725547
 20
92.52781457540663
 30
0.0
 11
98.79859734112029
 21
87.67222398336787
 31
0.0
  0
LINE
  5
6936
102
{ACAD_REACTORS
330
69AB
102
}
330
2
100
AcDbEntity
  8
KIJUN
100
AcDbLine
 10
110.0485126319905
 20
79.42804446583611
 30
0.0
 11
105.6664084627715
 21
78.59507280024615
 31
0.0
  0
ARC
  5
6937
102
{ACAD_REACTORS
330
69AB
102
}
330
2
100
AcDbEntity
  8
KIJUN
100
AcDbCircle
 10
105.1246094393379
 20
73.09956148133142
 30
0.0
 40
3.649416475909831
100
AcDbArc
 50
289.1902478921298
 51
64.05464978701539
  0
SPLINE
  5
6938
102
{ACAD_REACTORS
330
69AB
102
}
330
2
100
AcDbEntity
  8
KIJUN
100
AcDbSpline
210
0.0
220
0.0
230
1.0
 70
     8
 71
     3
 72
    11
 73
     7
 74
     5
 42
0.0000000001
 43
0.0000000001
 44
0.0000000001
 40
0.0
 40
0.0
 40
0.0
 40
0.0
 40
4.272772698048265
 40
9.317436977392123
 40
17.14645037870289
 40
26.00080890732045
 40
26.00080890732045
 40
26.00080890732045
 40
26.00080890732045
 10
106.0327628878676
 20
81.71479487679812
 30
0.0
 10
104.8388559012422
 20
80.93558082250146
 30
0.0
 10
102.2353583854881
 20
79.23638492422123
 30
0.0
 10
96.93408196916175
 20
76.98493423463466
 30
0.0
 10
91.85465533325288
 20
71.36374233698879
 30
0.0
 10
90.08771924973292
 20
66.05749377005492
 30
0.0
 10
89.14995405176524
 20
63.24131083947406
 30
0.0
 11
106.0327628878676
 21
81.71479487679812
 31
0.0
 11
102.3927414479283
 21
79.47720008641079
 31
0.0
 11
97.94399392361606
 21
77.09869569158332
 31
0.0
 11
92.56411198714204
 21
71.41096141618823
 31
0.0
 11
89.14995405176524
 21
63.24131083947406
 31
0.0
  0
SPLINE
  5
6939
102
{ACAD_REACTORS
330
69AB
102
}
330
2
100
AcDbEntity
  8
KIJUN
100
AcDbSpline
210
0.0
220
0.0
230
1.0
 70
     8
 71
     3
 72
    12
 73
     8
 74
     6
 42
0.0000000001
 43
0.0000000001
 44
0.0000000001
 40
0.0
 40
0.0
 40
0.0
 40
0.0
 40
3.755699999320941
 40
12.91281574180774
 40
22.58249659070186
 40
34.70669271345857
 40
37.81598544809497
 40
37.81598544809497
 40
37.81598544809497
 40
37.81598544809497
 10
102.7049318513566
 20
87.73664231585611
 30
0.0
 10
101.6204443300623
 20
87.10819487237401
 30
0.0
 10
97.89176857340038
 20
84.94747222611323
 30
0.0
 10
92.28907892324599
 20
79.80664109675865
 30
0.0
 10
86.35668682229226
 20
71.0978249419596
 30
0.0
 10
85.45778352939469
 20
62.49977739723197
 30
0.0
 10
85.8605187541571
 20
57.4472888829576
 30
0.0
 10
85.94272065288555
 20
56.41603031991064
 30
0.0
 11
102.7049318513566
 21
87.73664231585611
 31
0.0
 11
99.49588303466976
 21
85.78541496441289
 31
0.0
 11
92.66757189156578
 21
79.68402695394662
 31
0.0
 11
87.49460976393857
 21
71.51437637723256
 31
0.0
 11
85.73580084403852
 21
59.51843027838947
 31
0.0
 11
85.94272065288555
 21
56.41603031991064
 31
0.0
  0
ARC
  5
693A
102
{ACAD_REACTORS
330
69AB
102
}
330
2
100
AcDbEntity
  8
KIJUN
100
AcDbCircle
 10
104.231706411354
 20
84.64993090129054
 30
0.0
 40
3.443664895698453
100
AcDbArc
 50
301.5340868228221
 51
116.3182980518188
  0
SPLINE
  5
693B
102
{ACAD_REACTORS
330
69AB
102
}
330
2
100
AcDbEntity
  8
KIJUN
100
AcDbSpline
210
0.0
220
0.0
230
1.0
 70
     8
 71
     3
 72
    11
 73
     7
 74
     5
 42
0.0000000001
 43
0.0000000001
 44
0.0000000001
 40
0.0
 40
0.0
 40
0.0
 40
0.0
 40
6.920325160832423
 40
10.98675891079009
 40
21.00640609843426
 40
45.77962987306236
 40
45.77962987306236
 40
45.77962987306236
 40
45.77962987306236
 10
97.42630200650342
 20
90.89094219172318
 30
0.0
 10
96.1418308473414
 20
88.96636645297146
 30
0.0
 10
94.10259502740506
 20
85.91089591426092
 30
0.0
 10
89.33087388277909
 20
80.79723411997797
 30
0.0
 10
82.38185023772183
 20
69.32272888329304
 30
0.0
 10
84.15961609284465
 20
57.31394266017746
 30
0.0
 10
85.42542113076775
 20
48.76344538475848
 30
0.0
 11
97.42630200650342
 21
90.89094219172318
 31
0.0
 11
93.39178649488053
 21
85.26834626829737
 31
0.0
 11
90.73991493261928
 21
82.18557792473587
 31
0.0
 11
85.68358867147162
 21
73.53532391079534
 31
0.0
 11
85.42542113076775
 21
48.76344538475848
 31
0.0
  0
ARC
  5
693C
102
{ACAD_REACTORS
330
69AB
102
}
330
2
100
AcDbEntity
  8
KIJUN
100
AcDbCircle
 10
93.61349720807528
 20
94.33110592853642
 30
0.0
 40
5.135387713406577
100
AcDbArc
 50
317.9411410471872
 51
147.5727854604119
  0
ARC
  5
693D
102
{ACAD_REACTORS
330
69AB
102
}
330
2
100
AcDbEntity
  8
KIJUN
100
AcDbCircle
 10
98.86508051102715
 20
52.31786359868045
 30
0.0
 40
8.676408055231203
100
AcDbArc
 50
177.5072265586658
 51
340.4190816932827
  0
SPLINE
  5
693E
102
{ACAD_REACTORS
330
69AB
102
}
330
2
100
AcDbEntity
  8
KIJUN
100
AcDbSpline
210
0.0
220
0.0
230
1.0
 70
     8
 71
     3
 72
    11
 73
     7
 74
     5
 42
0.0000000001
 43
0.0000000001
 44
0.0000000001
 40
0.0
 40
0.0
 40
0.0
 40
0.0
 40
2.115019732105574
 40
9.549991561858764
 40
16.38354481367379
 40
32.92875761090227
 40
32.92875761090227
 40
32.92875761090227
 40
32.92875761090227
 10
106.7212790019525
 20
76.38115970818091
 30
0.0
 10
106.0392695726341
 20
76.595069139764
 30
0.0
 10
102.9597785417799
 20
77.56093874164554
 30
0.0
 10
97.45269268952364
 20
74.63528998800004
 30
0.0
 10
90.96486026657407
 20
66.5497051099064
 30
0.0
 10
90.51514643945784
 20
58.43677288727478
 30
0.0
 10
90.19688280861078
 20
52.69522990971359
 30
0.0
 11
106.7212790019525
 21
76.38115970818091
 31
0.0
 11
104.6688451622963
 21
76.89186882404806
 31
0.0
 11
97.73707411476927
 21
74.20312260064031
 31
0.0
 11
93.39178649488031
 21
68.92904206031563
 31
0.0
 11
90.19688280861078
 21
52.69522990971359
 31
0.0
  0
ARC
  5
693F
102
{ACAD_REACTORS
330
69AB
102
}
330
2
100
AcDbEntity
  8
KIJUN
100
AcDbCircle
 10
74.24597478183613
 20
99.66720376917146
 30
0.0
 40
9.806525042093586
100
AcDbArc
 50
40.62325762575951
 51
87.4730315446739
  0
ARC
  5
6940
102
{ACAD_REACTORS
330
69AB
102
}
330
2
100
AcDbEntity
  8
KIJUN
100
AcDbCircle
 10
74.67834077255464
 20
99.22109582540782
 30
0.0
 40
14.26671875000014
100
AcDbArc
 50
15.39210344403153
 51
164.6078965559685
  0
ARC
  5
6941
102
{ACAD_REACTORS
330
69AB
102
}
330
2
100
AcDbEntity
  8
KIJUN
100
AcDbCircle
 10
75.11070676327313
 20
99.66720376917146
 30
0.0
 40
9.806525042093586
100
AcDbArc
 50
92.52696845532609
 51
139.3767423742405
  0
DIMENSION
  5
6943
330
2
100
AcDbEntity
  8
SUNPOU
100
AcDbDimension
  2
*D22
 10
112.1783407725544
 20
131.76312714089
 30
0.0
 11
74.67834077255441
 21
137.26312714089
 31
0.0
 70
    32
 71
     5
 42
75.0
  3
STANDARD
100
AcDbAlignedDimension
 13
37.17834077255441
 23
113.4878145754079
 33
0.0
 14
112.1783407725544
 24
113.1430459885314
 34
0.0
100
AcDbRotatedDimension
1001
ACAD
1000
DSTYLE
1002
{
1070
    41
1040
2.0
1070
    42
1040
10.0
1070
    44
1040
0.0
1070
    73
1070
     0
1070
    74
1070
     0
1070
    77
1070
     1
1070
   140
1040
5.0
1070
   141
1040
0.0
1070
   146
1040
0.064286
1070
   147
1040
3.0
1070
   176
1070
    60
1070
   177
1070
    70
1070
   178
1070
    60
1070
   271
1070
     0
1070
   272
1070
     0
1070
   340
1005
1C
1070
   342
1005
109
1002
}
  0
DIMENSION
  5
6950
330
2
100
AcDbEntity
  8
SUNPOU
100
AcDbDimension
  2
*D23
 10
15.90036459681732
 20
28.48781457540793
 30
0.0
 11
10.40036459681731
 21
70.98781457540795
 31
0.0
 70
    32
 71
     5
 42
85.00000000000005
  3
STANDARD
100
AcDbAlignedDimension
 13
37.17834077255441
 23
113.4878145754079
 33
0.0
 14
39.03740458206232
 24
28.48781457540793
 34
0.0
 50
90.0
100
AcDbRotatedDimension
1001
ACAD
1000
DSTYLE
1002
{
1070
    41
1040
2.0
1070
    42
1040
10.0
1070
    44
1040
0.0
1070
    73
1070
     0
1070
    74
1070
     0
1070
    77
1070
     1
1070
   140
1040
5.0
1070
   141
1040
0.0
1070
   146
1040
0.064286
1070
   147
1040
3.0
1070
   176
1070
    60
1070
   177
1070
    70
1070
   178
1070
    60
1070
   271
1070
     0
1070
   272
1070
     0
1070
   340
1005
1C
1070
   342
1005
109
1002
}
  0
ARC
  5
6986
102
{ACAD_REACTORS
330
69AB
102
}
330
2
100
AcDbEntity
  8
KIJUN
100
AcDbCircle
 10
104.9818500542711
 20
74.31742718591045
 30
0.0
 40
7.196490718283256
100
AcDbArc
 50
269.1706955032211
 51
45.24745347508738
  0
ENDSEC
  0
SECTION
  2
OBJECTS
  0
DICTIONARY
  5
1A
330
0
100
AcDbDictionary
281
     1
  3
ACAD_COLOR
350
144
  3
ACAD_GROUP
350
18
  3
ACAD_LAYOUT
350
58
  3
ACAD_MATERIAL
350
143
  3
ACAD_MLINESTYLE
350
19
  3
ACAD_PLOTSETTINGS
350
59
  3
ACAD_PLOTSTYLENAME
350
56
  3
ACAD_TABLESTYLE
350
145
  3
ACDBHEADERROUNDTRIPXREC
350
69E0
  3
AcDbVariableDictionary
350
1D1
  0
DICTIONARY
  5
1B4
330
A
100
AcDbDictionary
280
     1
281
     1
  3
ACAD_LAYERFILTERS
360
1A2A
  3
ACLYDICTIONARY
360
1A29
  0
DICTIONARY
  5
D13
330
2
100
AcDbDictionary
280
     1
281
     1
  3
ACAD_SORTENTS
360
D14
  0
DICTIONARY
  5
144
102
{ACAD_REACTORS
330
1A
102
}
330
1A
100
AcDbDictionary
281
     1
  0
DICTIONARY
  5
18
102
{ACAD_REACTORS
330
1A
102
}
330
1A
100
AcDbDictionary
281
     1
  3
*A1
350
E0D
  3
*A10
350
265A
  3
*A11
350
26DD
  3
*A12
350
3988
  3
*A13
350
275E
  3
*A14
350
2905
  3
*A15
350
2EE1
  3
*A16
350
1CBC
  3
*A17
350
2F81
  3
*A18
350
31DF
  3
*A19
350
32E4
  3
*A2
350
2C6B
  3
*A20
350
3349
  3
*A21
350
24D6
  3
*A22
350
2037
  3
*A23
350
3A25
  3
*A24
350
3467
  3
*A25
350
422E
  3
*A26
350
4407
  3
*A27
350
4516
  3
*A28
350
307D
  3
*A29
350
FF8
  3
*A3
350
2D78
  3
*A30
350
136A
  3
*A31
350
1555
  3
*A32
350
2A17
  3
*A33
350
17BC
  3
*A34
350
34BB
  3
*A35
350
45E5
  3
*A36
350
46A5
  3
*A37
350
4781
  3
*A38
350
48BA
  3
*A39
350
4A53
  3
*A4
350
1A98
  3
*A40
350
3695
  3
*A41
350
4B49
  3
*A42
350
4C3E
  3
*A43
350
4CEC
  3
*A44
350
4D76
  3
*A45
350
3C81
  3
*A46
350
4E16
  3
*A47
350
4EE5
  3
*A48
350
4F64
  3
*A49
350
5011
  3
*A5
350
22C8
  3
*A50
350
519C
  3
*A51
350
52B0
  3
*A52
350
36C9
  3
*A53
350
5396
  3
*A54
350
5464
  3
*A55
350
556A
  3
*A56
350
213E
  3
*A57
350
57BF
  3
*A58
350
58EE
  3
*A59
350
382B
  3
*A6
350
1EFE
  3
*A60
350
2573
  3
*A61
350
3878
  3
*A62
350
5D92
  3
*A63
350
3E5C
  3
*A64
350
3181
  3
*A65
350
2B84
  3
*A66
350
5F6F
  3
*A67
350
626B
  3
*A68
350
6417
  3
*A69
350
668C
  3
*A7
350
241A
  3
*A70
350
68C5
  3
*A71
350
69AB
  3
*A8
350
35A5
  3
*A9
350
401B
  0
DICTIONARY
  5
58
102
{ACAD_REACTORS
330
1A
102
}
330
1A
100
AcDbDictionary
281
     1
  3
Model
350
5A
  3
ﾚｲｱｳﾄ1
350
5B
  0
DICTIONARY
  5
143
102
{ACAD_REACTORS
330
1A
102
}
330
1A
100
AcDbDictionary
281
     1
  0
DICTIONARY
  5
19
102
{ACAD_REACTORS
330
1A
102
}
330
1A
100
AcDbDictionary
281
     1
  3
STANDARD
350
1D
  0
DICTIONARY
  5
59
102
{ACAD_REACTORS
330
1A
102
}
330
1A
100
AcDbDictionary
281
     1
  0
ACDBDICTIONARYWDFLT
  5
56
102
{ACAD_REACTORS
330
1A
102
}
330
1A
100
AcDbDictionary
281
     1
  3
Normal
350
57
100
AcDbDictionaryWithDefault
340
57
  0
DICTIONARY
  5
145
102
{ACAD_REACTORS
330
1A
102
}
330
1A
100
AcDbDictionary
281
     1
  3
Standard
350
146
  0
DICTIONARY
  5
69E0
102
{ACAD_REACTORS
330
1A
102
}
330
1A
100
AcDbDictionary
281
     1
  0
DICTIONARY
  5
1D1
102
{ACAD_REACTORS
330
1A
102
}
330
1A
100
AcDbDictionary
281
     1
  3
CTABLESTYLE
350
1D2
  3
DIMASSOC
350
D03
  3
PROJECTNAME
350
D04
  0
DICTIONARY
  5
1A2A
102
{ACAD_REACTORS
330
1B4
102
}
330
1B4
100
AcDbDictionary
281
     1
  0
DICTIONARY
  5
1A29
102
{ACAD_REACTORS
330
1B4
102
}
330
1B4
100
AcDbDictionary
281
     1
1001
ACAD
1000
<All
  0
SORTENTSTABLE
  5
D14
102
{ACAD_REACTORS
330
D13
102
}
330
D13
100
AcDbSortentsTable
330
2
331
6926
  5
6926
331
6915
  5
6915
331
6924
  5
6924
331
6913
  5
6913
331
6922
  5
6922
331
6911
  5
6911
331
6920
  5
6920
331
690F
  5
690F
331
691E
  5
691E
331
690D
  5
690D
331
691C
  5
691C
331
23
  5
23
331
692B
  5
692B
331
691A
  5
691A
331
21
  5
21
331
6929
  5
6929
331
6918
  5
6918
331
1F
  5
1F
331
6927
  5
6927
331
6916
  5
6916
331
6925
  5
6925
331
6914
  5
6914
331
6923
  5
6923
331
6912
  5
6912
331
6921
  5
6921
331
6910
  5
6910
331
691F
  5
691F
331
690E
  5
690E
331
691D
  5
691D
331
691B
  5
691B
331
692A
  5
692A
331
6919
  5
6919
331
20
  5
20
331
6928
  5
6928
331
6917
  5
6917
  0
GROUP
  5
E0D
102
{ACAD_REACTORS
330
18
102
}
330
18
100
AcDbGroup
300

 70
     1
 71
     1
  0
GROUP
  5
265A
102
{ACAD_REACTORS
330
18
102
}
330
18
100
AcDbGroup
300

 70
     1
 71
     1
  0
GROUP
  5
26DD
102
{ACAD_REACTORS
330
18
102
}
330
18
100
AcDbGroup
300

 70
     1
 71
     1
  0
GROUP
  5
3988
102
{ACAD_REACTORS
330
18
102
}
330
18
100
AcDbGroup
300

 70
     1
 71
     1
  0
GROUP
  5
275E
102
{ACAD_REACTORS
330
18
102
}
330
18
100
AcDbGroup
300

 70
     1
 71
     1
  0
GROUP
  5
2905
102
{ACAD_REACTORS
330
18
102
}
330
18
100
AcDbGroup
300

 70
     1
 71
     1
  0
GROUP
  5
2EE1
102
{ACAD_REACTORS
330
18
102
}
330
18
100
AcDbGroup
300

 70
     1
 71
     1
  0
GROUP
  5
1CBC
102
{ACAD_REACTORS
330
18
102
}
330
18
100
AcDbGroup
300

 70
     1
 71
     1
  0
GROUP
  5
2F81
102
{ACAD_REACTORS
330
18
102
}
330
18
100
AcDbGroup
300

 70
     1
 71
     1
  0
GROUP
  5
31DF
102
{ACAD_REACTORS
330
18
102
}
330
18
100
AcDbGroup
300

 70
     1
 71
     1
  0
GROUP
  5
32E4
102
{ACAD_REACTORS
330
18
102
}
330
18
100
AcDbGroup
300

 70
     1
 71
     1
  0
GROUP
  5
2C6B
102
{ACAD_REACTORS
330
18
102
}
330
18
100
AcDbGroup
300

 70
     1
 71
     1
  0
GROUP
  5
3349
102
{ACAD_REACTORS
330
18
102
}
330
18
100
AcDbGroup
300

 70
     1
 71
     1
  0
GROUP
  5
24D6
102
{ACAD_REACTORS
330
18
102
}
330
18
100
AcDbGroup
300

 70
     1
 71
     1
  0
GROUP
  5
2037
102
{ACAD_REACTORS
330
18
102
}
330
18
100
AcDbGroup
300

 70
     1
 71
     1
  0
GROUP
  5
3A25
102
{ACAD_REACTORS
330
18
102
}
330
18
100
AcDbGroup
300

 70
     1
 71
     1
  0
GROUP
  5
3467
102
{ACAD_REACTORS
330
18
102
}
330
18
100
AcDbGroup
300

 70
     1
 71
     1
  0
GROUP
  5
422E
102
{ACAD_REACTORS
330
18
102
}
330
18
100
AcDbGroup
300

 70
     1
 71
     1
  0
GROUP
  5
4407
102
{ACAD_REACTORS
330
18
102
}
330
18
100
AcDbGroup
300

 70
     1
 71
     1
  0
GROUP
  5
4516
102
{ACAD_REACTORS
330
18
102
}
330
18
100
AcDbGroup
300

 70
     1
 71
     1
  0
GROUP
  5
307D
102
{ACAD_REACTORS
330
18
102
}
330
18
100
AcDbGroup
300

 70
     1
 71
     1
  0
GROUP
  5
FF8
102
{ACAD_REACTORS
330
18
102
}
330
18
100
AcDbGroup
300

 70
     1
 71
     1
  0
GROUP
  5
2D78
102
{ACAD_REACTORS
330
18
102
}
330
18
100
AcDbGroup
300

 70
     1
 71
     1
  0
GROUP
  5
136A
102
{ACAD_REACTORS
330
18
102
}
330
18
100
AcDbGroup
300

 70
     1
 71
     1
  0
GROUP
  5
1555
102
{ACAD_REACTORS
330
18
102
}
330
18
100
AcDbGroup
300

 70
     1
 71
     1
  0
GROUP
  5
2A17
102
{ACAD_REACTORS
330
18
102
}
330
18
100
AcDbGroup
300

 70
     1
 71
     1
  0
GROUP
  5
17BC
102
{ACAD_REACTORS
330
18
102
}
330
18
100
AcDbGroup
300

 70
     1
 71
     1
  0
GROUP
  5
34BB
102
{ACAD_REACTORS
330
18
102
}
330
18
100
AcDbGroup
300

 70
     1
 71
     1
  0
GROUP
  5
45E5
102
{ACAD_REACTORS
330
18
102
}
330
18
100
AcDbGroup
300

 70
     1
 71
     1
  0
GROUP
  5
46A5
102
{ACAD_REACTORS
330
18
102
}
330
18
100
AcDbGroup
300

 70
     1
 71
     1
  0
GROUP
  5
4781
102
{ACAD_REACTORS
330
18
102
}
330
18
100
AcDbGroup
300

 70
     1
 71
     1
  0
GROUP
  5
48BA
102
{ACAD_REACTORS
330
18
102
}
330
18
100
AcDbGroup
300

 70
     1
 71
     1
  0
GROUP
  5
4A53
102
{ACAD_REACTORS
330
18
102
}
330
18
100
AcDbGroup
300

 70
     1
 71
     1
  0
GROUP
  5
1A98
102
{ACAD_REACTORS
330
18
102
}
330
18
100
AcDbGroup
300

 70
     1
 71
     1
  0
GROUP
  5
3695
102
{ACAD_REACTORS
330
18
102
}
330
18
100
AcDbGroup
300

 70
     1
 71
     1
  0
GROUP
  5
4B49
102
{ACAD_REACTORS
330
18
102
}
330
18
100
AcDbGroup
300

 70
     1
 71
     1
  0
GROUP
  5
4C3E
102
{ACAD_REACTORS
330
18
102
}
330
18
100
AcDbGroup
300

 70
     1
 71
     1
  0
GROUP
  5
4CEC
102
{ACAD_REACTORS
330
18
102
}
330
18
100
AcDbGroup
300

 70
     1
 71
     1
  0
GROUP
  5
4D76
102
{ACAD_REACTORS
330
18
102
}
330
18
100
AcDbGroup
300

 70
     1
 71
     1
  0
GROUP
  5
3C81
102
{ACAD_REACTORS
330
18
102
}
330
18
100
AcDbGroup
300

 70
     1
 71
     1
  0
GROUP
  5
4E16
102
{ACAD_REACTORS
330
18
102
}
330
18
100
AcDbGroup
300

 70
     1
 71
     1
  0
GROUP
  5
4EE5
102
{ACAD_REACTORS
330
18
102
}
330
18
100
AcDbGroup
300

 70
     1
 71
     1
  0
GROUP
  5
4F64
102
{ACAD_REACTORS
330
18
102
}
330
18
100
AcDbGroup
300

 70
     1
 71
     1
  0
GROUP
  5
5011
102
{ACAD_REACTORS
330
18
102
}
330
18
100
AcDbGroup
300

 70
     1
 71
     1
  0
GROUP
  5
22C8
102
{ACAD_REACTORS
330
18
102
}
330
18
100
AcDbGroup
300

 70
     1
 71
     1
  0
GROUP
  5
519C
102
{ACAD_REACTORS
330
18
102
}
330
18
100
AcDbGroup
300

 70
     1
 71
     1
  0
GROUP
  5
52B0
102
{ACAD_REACTORS
330
18
102
}
330
18
100
AcDbGroup
300

 70
     1
 71
     1
  0
GROUP
  5
36C9
102
{ACAD_REACTORS
330
18
102
}
330
18
100
AcDbGroup
300

 70
     1
 71
     1
  0
GROUP
  5
5396
102
{ACAD_REACTORS
330
18
102
}
330
18
100
AcDbGroup
300

 70
     1
 71
     1
  0
GROUP
  5
5464
102
{ACAD_REACTORS
330
18
102
}
330
18
100
AcDbGroup
300

 70
     1
 71
     1
  0
GROUP
  5
556A
102
{ACAD_REACTORS
330
18
102
}
330
18
100
AcDbGroup
300

 70
     1
 71
     1
  0
GROUP
  5
213E
102
{ACAD_REACTORS
330
18
102
}
330
18
100
AcDbGroup
300

 70
     1
 71
     1
  0
GROUP
  5
57BF
102
{ACAD_REACTORS
330
18
102
}
330
18
100
AcDbGroup
300

 70
     1
 71
     1
  0
GROUP
  5
58EE
102
{ACAD_REACTORS
330
18
102
}
330
18
100
AcDbGroup
300

 70
     1
 71
     1
  0
GROUP
  5
382B
102
{ACAD_REACTORS
330
18
102
}
330
18
100
AcDbGroup
300

 70
     1
 71
     1
  0
GROUP
  5
1EFE
102
{ACAD_REACTORS
330
18
102
}
330
18
100
AcDbGroup
300

 70
     1
 71
     1
  0
GROUP
  5
2573
102
{ACAD_REACTORS
330
18
102
}
330
18
100
AcDbGroup
300

 70
     1
 71
     1
  0
GROUP
  5
3878
102
{ACAD_REACTORS
330
18
102
}
330
18
100
AcDbGroup
300

 70
     1
 71
     1
  0
GROUP
  5
5D92
102
{ACAD_REACTORS
330
18
102
}
330
18
100
AcDbGroup
300

 70
     1
 71
     1
  0
GROUP
  5
3E5C
102
{ACAD_REACTORS
330
18
102
}
330
18
100
AcDbGroup
300

 70
     1
 71
     1
  0
GROUP
  5
3181
102
{ACAD_REACTORS
330
18
102
}
330
18
100
AcDbGroup
300

 70
     1
 71
     1
  0
GROUP
  5
2B84
102
{ACAD_REACTORS
330
18
102
}
330
18
100
AcDbGroup
300

 70
     1
 71
     1
  0
GROUP
  5
5F6F
102
{ACAD_REACTORS
330
18
102
}
330
18
100
AcDbGroup
300

 70
     1
 71
     1
  0
GROUP
  5
626B
102
{ACAD_REACTORS
330
18
102
}
330
18
100
AcDbGroup
300

 70
     1
 71
     1
  0
GROUP
  5
6417
102
{ACAD_REACTORS
330
18
102
}
330
18
100
AcDbGroup
300

 70
     1
 71
     1
  0
GROUP
  5
668C
102
{ACAD_REACTORS
330
18
102
}
330
18
100
AcDbGroup
300

 70
     1
 71
     1
  0
GROUP
  5
241A
102
{ACAD_REACTORS
330
18
102
}
330
18
100
AcDbGroup
300

 70
     1
 71
     1
  0
GROUP
  5
68C5
102
{ACAD_REACTORS
330
18
102
}
330
18
100
AcDbGroup
300

 70
     1
 71
     1
  0
GROUP
  5
69AB
102
{ACAD_REACTORS
330
18
102
}
330
18
100
AcDbGroup
300

 70
     1
 71
     1
340
6986
340
6941
340
6940
340
693F
340
693E
340
693D
340
693C
340
693B
340
693A
340
6939
340
6938
340
6937
340
6936
340
6935
340
6934
340
6933
340
6932
340
6931
340
6930
340
692F
340
692E
340
692D
340
692C
340
692B
340
692A
340
6929
340
6928
340
6927
340
6926
340
6925
340
6924
340
6923
340
6922
340
6921
340
6920
340
691F
340
691E
340
691D
340
691C
340
691B
340
691A
340
6919
340
6918
340
6917
340
6916
340
6915
340
6914
340
6913
340
6912
340
6911
340
6910
340
690F
340
690E
340
690D
  0
GROUP
  5
35A5
102
{ACAD_REACTORS
330
18
102
}
330
18
100
AcDbGroup
300

 70
     1
 71
     1
  0
GROUP
  5
401B
102
{ACAD_REACTORS
330
18
102
}
330
18
100
AcDbGroup
300

 70
     1
 71
     1
  0
LAYOUT
  5
5A
102
{ACAD_XDICTIONARY
360
69E1
102
}
102
{ACAD_REACTORS
330
58
102
}
330
58
100
AcDbPlotSettings
  1

  2
なし
  4

  6

 40
0.0
 41
0.0
 42
0.0
 43
0.0
 44
0.0
 45
0.0
 46
0.0
 47
0.0
 48
0.0
 49
0.0
140
0.0
141
0.0
142
1.0
143
1.0
 70
  1712
 72
     0
 73
     0
 74
     0
  7
monochrome.ctb
 75
     0
147
1.0
148
0.0
149
0.0
100
AcDbLayout
  1
Model
 70
     1
 71
     0
 10
0.0
 20
0.0
 11
12.0
 21
9.0
 12
0.0
 22
0.0
 32
0.0
 14
0.0
 24
0.0
 34
0.0
 15
0.0
 25
0.0
 35
0.0
146
0.0
 13
0.0
 23
0.0
 33
0.0
 16
1.0
 26
0.0
 36
0.0
 17
0.0
 27
1.0
 37
0.0
 76
     0
330
2
  0
LAYOUT
  5
5B
102
{ACAD_XDICTIONARY
360
69E3
102
}
102
{ACAD_REACTORS
330
58
102
}
330
58
100
AcDbPlotSettings
  1

  2
なし
  4

  6

 40
0.0
 41
0.0
 42
0.0
 43
0.0
 44
0.0
 45
0.0
 46
0.0
 47
0.0
 48
0.0
 49
0.0
140
0.0
141
0.0
142
1.0
143
1.0
 70
   688
 72
     0
 73
     0
 74
     5
  7
monochrome.ctb
 75
    16
147
1.0
148
0.0
149
0.0
100
AcDbLayout
  1
ﾚｲｱｳﾄ1
 70
     1
 71
     1
 10
0.0
 20
0.0
 11
12.0
 21
9.0
 12
0.0
 22
0.0
 32
0.0
 14
1.000000000000000E+20
 24
1.000000000000000E+20
 34
1.000000000000000E+20
 15
-1.000000000000000E+20
 25
-1.000000000000000E+20
 35
-1.000000000000000E+20
146
0.0
 13
0.0
 23
0.0
 33
0.0
 16
1.0
 26
0.0
 36
0.0
 17
0.0
 27
1.0
 37
0.0
 76
     0
330
7
  0
MLINESTYLE
  5
1D
102
{ACAD_REACTORS
330
19
102
}
330
19
100
AcDbMlineStyle
  2
STANDARD
 70
     0
  3

 62
   256
 51
90.0
 52
90.0
 71
     2
 49
0.5
 62
   256
  6
BYLAYER
 49
-0.5
 62
   256
  6
BYLAYER
  0
ACDBPLACEHOLDER
  5
57
102
{ACAD_REACTORS
330
56
102
}
330
56
  0
TABLESTYLE
  5
146
102
{ACAD_REACTORS
330
145
102
}
330
145
100
AcDbTableStyle
  3
Standard
 70
     0
 71
     0
 40
0.06
 41
0.06
280
     0
281
     0
  7
STANDARD
140
0.18
170
     2
 62
     0
 63
     7
283
     0
274
    -2
284
     1
 64
     0
275
    -2
285
     1
 65
     0
276
    -2
286
     1
 66
     0
277
    -2
287
     1
 67
     0
278
    -2
288
     1
 68
     0
279
    -2
289
     1
 69
     0
  7
STANDARD
140
0.25
170
     5
 62
     0
 63
     7
283
     0
274
    -2
284
     1
 64
     0
275
    -2
285
     1
 65
     0
276
    -2
286
     1
 66
     0
277
    -2
287
     1
 67
     0
278
    -2
288
     1
 68
     0
279
    -2
289
     1
 69
     0
  7
STANDARD
140
0.18
170
     5
 62
     0
 63
     7
283
     0
274
    -2
284
     1
 64
     0
275
    -2
285
     1
 65
     0
276
    -2
286
     1
 66
     0
277
    -2
287
     1
 67
     0
278
    -2
288
     1
 68
     0
279
    -2
289
     1
 69
     0
  0
DICTIONARYVAR
  5
1D2
102
{ACAD_REACTORS
330
1D1
102
}
330
1D1
100
DictionaryVariables
280
     0
  1
STANDARD
  0
DICTIONARYVAR
  5
D03
102
{ACAD_REACTORS
330
1D1
102
}
330
1D1
100
DictionaryVariables
280
     0
  1
1
  0
DICTIONARYVAR
  5
D04
102
{ACAD_REACTORS
330
1D1
102
}
330
1D1
100
DictionaryVariables
280
     0
  1

  0
DICTIONARY
  5
69E1
330
5A
100
AcDbDictionary
280
     1
281
     1
  3
ACAD_XREC_ROUNDTRIP
360
69E2
  0
DICTIONARY
  5
69E3
330
5B
100
AcDbDictionary
280
     1
281
     1
  3
ACAD_XREC_ROUNDTRIP
360
69E4
  0
XRECORD
  5
69E2
102
{ACAD_REACTORS
330
69E1
102
}
330
69E1
100
AcDbXrecord
280
     1
102
SHADEPLOT
 70
     0
102
SHADEPLOTRESLEVEL
 70
     2
102
SHADEPLOTCUSTOMDPI
 70
   300
  0
XRECORD
  5
69E4
102
{ACAD_REACTORS
330
69E3
102
}
330
69E3
100
AcDbXrecord
280
     1
102
SHADEPLOT
 70
     0
102
SHADEPLOTRESLEVEL
 70
     2
102
SHADEPLOTCUSTOMDPI
 70
   300
  0
ENDSEC
  0
EOF
