  0
SECTION
  2
HEADER
  9
$ACADVER
  1
AC1015
  9
$ACADMAINTVER
 70
    20
  9
$DWGCODEPAGE
  3
ANSI_932
  9
$INSBASE
 10
922.019522
 20
-675.4306699999999
 30
0.0
  9
$EXTMIN
 10
0.0
 20
0.0
 30
0.0
  9
$EXTMAX
 10
148.6218955736626
 20
238.416834784698
 30
0.0
  9
$LIMMIN
 10
0.0
 20
0.0
  9
$LIMMAX
 10
420.0
 20
297.0
  9
$ORTHOMODE
 70
     1
  9
$REGENMODE
 70
     1
  9
$FILLMODE
 70
     1
  9
$QTEXTMODE
 70
     0
  9
$MIRRTEXT
 70
     1
  9
$LTSCALE
 40
1.0
  9
$ATTMODE
 70
     1
  9
$TEXTSIZE
 40
30.0
  9
$TRACEWID
 40
0.05
  9
$TEXTSTYLE
  7
SUNPOU
  9
$CLAYER
  8
0
  9
$CELTYPE
  6
BYLAYER
  9
$CECOLOR
 62
   256
  9
$CELTSCALE
 40
1.0
  9
$DISPSILH
 70
     0
  9
$DIMSCALE
 40
1.0
  9
$DIMASZ
 40
2.0
  9
$DIMEXO
 40
10.0
  9
$DIMDLI
 40
0.38
  9
$DIMRND
 40
0.0
  9
$DIMDLE
 40
0.0
  9
$DIMEXE
 40
0.0
  9
$DIMTP
 40
0.0
  9
$DIMTM
 40
0.0
  9
$DIMTXT
 40
5.0
  9
$DIMCEN
 40
0.0
  9
$DIMTSZ
 40
0.0
  9
$DIMTOL
 70
     0
  9
$DIMLIM
 70
     0
  9
$DIMTIH
 70
     0
  9
$DIMTOH
 70
     0
  9
$DIMSE1
 70
     0
  9
$DIMSE2
 70
     0
  9
$DIMTAD
 70
     1
  9
$DIMZIN
 70
     0
  9
$DIMBLK
  1
Dot
  9
$DIMASO
 70
     1
  9
$DIMSHO
 70
     1
  9
$DIMPOST
  1

  9
$DIMAPOST
  1

  9
$DIMALT
 70
     0
  9
$DIMALTD
 70
     2
  9
$DIMALTF
 40
25.4
  9
$DIMLFAC
 40
1.0
  9
$DIMTOFL
 70
     0
  9
$DIMTVP
 40
0.0
  9
$DIMTIX
 70
     0
  9
$DIMSOXD
 70
     0
  9
$DIMSAH
 70
     0
  9
$DIMBLK1
  1

  9
$DIMBLK2
  1

  9
$DIMSTYLE
  2
STANDARD
  9
$DIMCLRD
 70
    60
  9
$DIMCLRE
 70
    70
  9
$DIMCLRT
 70
    60
  9
$DIMTFAC
 40
0.064286
  9
$DIMGAP
 40
3.0
  9
$DIMJUST
 70
     0
  9
$DIMSD1
 70
     0
  9
$DIMSD2
 70
     0
  9
$DIMTOLJ
 70
     1
  9
$DIMTZIN
 70
     0
  9
$DIMALTZ
 70
     0
  9
$DIMALTTZ
 70
     0
  9
$DIMUPT
 70
     0
  9
$DIMDEC
 70
     0
  9
$DIMTDEC
 70
     0
  9
$DIMALTU
 70
     2
  9
$DIMALTTD
 70
     2
  9
$DIMTXSTY
  7
SUNPOU
  9
$DIMAUNIT
 70
     0
  9
$DIMADEC
 70
     0
  9
$DIMALTRND
 40
0.0
  9
$DIMAZIN
 70
     0
  9
$DIMDSEP
 70
    46
  9
$DIMATFIT
 70
     3
  9
$DIMFRAC
 70
     0
  9
$DIMLDRBLK
  1

  9
$DIMLUNIT
 70
     2
  9
$DIMLWD
 70
    -2
  9
$DIMLWE
 70
    -2
  9
$DIMTMOVE
 70
     0
  9
$LUNITS
 70
     2
  9
$LUPREC
 70
     5
  9
$SKETCHINC
 40
0.1
  9
$FILLETRAD
 40
0.0
  9
$AUNITS
 70
     0
  9
$AUPREC
 70
     0
  9
$MENU
  1
acad
  9
$ELEVATION
 40
0.0
  9
$PELEVATION
 40
0.0
  9
$THICKNESS
 40
0.0
  9
$LIMCHECK
 70
     0
  9
$CHAMFERA
 40
0.0
  9
$CHAMFERB
 40
0.0
  9
$CHAMFERC
 40
0.0
  9
$CHAMFERD
 40
0.0
  9
$SKPOLY
 70
     0
  9
$TDCREATE
 40
2450623.654673033
  9
$TDUCREATE
 40
2450623.279673032
  9
$TDUPDATE
 40
2453872.597019040
  9
$TDUUPDATE
 40
2453872.222019040
  9
$TDINDWG
 40
1.2414082292
  9
$TDUSRTIMER
 40
1.2414080556
  9
$USRTIMER
 70
     1
  9
$ANGBASE
 50
0.0
  9
$ANGDIR
 70
     0
  9
$PDMODE
 70
     0
  9
$PDSIZE
 40
0.0
  9
$PLINEWID
 40
0.0
  9
$SPLFRAME
 70
     0
  9
$SPLINETYPE
 70
     6
  9
$SPLINESEGS
 70
     8
  9
$HANDSEED
  5
718F
  9
$SURFTAB1
 70
     6
  9
$SURFTAB2
 70
     6
  9
$SURFTYPE
 70
     6
  9
$SURFU
 70
     6
  9
$SURFV
 70
     6
  9
$UCSBASE
  2

  9
$UCSNAME
  2

  9
$UCSORG
 10
0.0
 20
0.0
 30
0.0
  9
$UCSXDIR
 10
1.0
 20
0.0
 30
0.0
  9
$UCSYDIR
 10
0.0
 20
1.0
 30
0.0
  9
$UCSORTHOREF
  2

  9
$UCSORTHOVIEW
 70
     0
  9
$UCSORGTOP
 10
0.0
 20
0.0
 30
0.0
  9
$UCSORGBOTTOM
 10
0.0
 20
0.0
 30
0.0
  9
$UCSORGLEFT
 10
0.0
 20
0.0
 30
0.0
  9
$UCSORGRIGHT
 10
0.0
 20
0.0
 30
0.0
  9
$UCSORGFRONT
 10
0.0
 20
0.0
 30
0.0
  9
$UCSORGBACK
 10
0.0
 20
0.0
 30
0.0
  9
$PUCSBASE
  2

  9
$PUCSNAME
  2

  9
$PUCSORG
 10
0.0
 20
0.0
 30
0.0
  9
$PUCSXDIR
 10
1.0
 20
0.0
 30
0.0
  9
$PUCSYDIR
 10
0.0
 20
1.0
 30
0.0
  9
$PUCSORTHOREF
  2

  9
$PUCSORTHOVIEW
 70
     0
  9
$PUCSORGTOP
 10
0.0
 20
0.0
 30
0.0
  9
$PUCSORGBOTTOM
 10
0.0
 20
0.0
 30
0.0
  9
$PUCSORGLEFT
 10
0.0
 20
0.0
 30
0.0
  9
$PUCSORGRIGHT
 10
0.0
 20
0.0
 30
0.0
  9
$PUCSORGFRONT
 10
0.0
 20
0.0
 30
0.0
  9
$PUCSORGBACK
 10
0.0
 20
0.0
 30
0.0
  9
$USERI1
 70
     0
  9
$USERI2
 70
     0
  9
$USERI3
 70
     0
  9
$USERI4
 70
     0
  9
$USERI5
 70
     0
  9
$USERR1
 40
0.0
  9
$USERR2
 40
0.0
  9
$USERR3
 40
0.0
  9
$USERR4
 40
0.0
  9
$USERR5
 40
0.0
  9
$WORLDVIEW
 70
     1
  9
$SHADEDGE
 70
     3
  9
$SHADEDIF
 70
    70
  9
$TILEMODE
 70
     1
  9
$MAXACTVP
 70
    16
  9
$PINSBASE
 10
0.0
 20
0.0
 30
0.0
  9
$PLIMCHECK
 70
     0
  9
$PEXTMIN
 10
1.000000000000000E+20
 20
1.000000000000000E+20
 30
1.000000000000000E+20
  9
$PEXTMAX
 10
-1.000000000000000E+20
 20
-1.000000000000000E+20
 30
-1.000000000000000E+20
  9
$PLIMMIN
 10
0.0
 20
0.0
  9
$PLIMMAX
 10
12.0
 20
9.0
  9
$UNITMODE
 70
     0
  9
$VISRETAIN
 70
     0
  9
$PLINEGEN
 70
     0
  9
$PSLTSCALE
 70
     1
  9
$TREEDEPTH
 70
  3020
  9
$CMLSTYLE
  2
STANDARD
  9
$CMLJUST
 70
     0
  9
$CMLSCALE
 40
1.0
  9
$PROXYGRAPHICS
 70
     1
  9
$MEASUREMENT
 70
     0
  9
$CELWEIGHT
370
    -1
  9
$ENDCAPS
280
     0
  9
$JOINSTYLE
280
     0
  9
$LWDISPLAY
290
     1
  9
$INSUNITS
 70
     0
  9
$HYPERLINKBASE
  1

  9
$STYLESHEET
  1

  9
$XEDIT
290
     1
  9
$CEPSNTYPE
380
     0
  9
$PSTYLEMODE
290
     1
  9
$FINGERPRINTGUID
  2
{FB88A696-E29C-4009-92AF-A3599A8169D5}
  9
$VERSIONGUID
  2
{225A0E5E-1258-4BE1-A02D-6F8D026E5589}
  9
$EXTNAMES
290
     1
  9
$PSVPSCALE
 40
0.0
  9
$OLESTARTUP
290
     0
  0
ENDSEC
  0
SECTION
  2
CLASSES
  0
CLASS
  1
DICTIONARYVAR
  2
AcDbDictionaryVar
  3
ObjectDBX Classes
 90
        0
280
     0
281
     0
  0
CLASS
  1
ACDBDICTIONARYWDFLT
  2
AcDbDictionaryWithDefault
  3
ObjectDBX Classes
 90
        0
280
     0
281
     0
  0
CLASS
  1
ACDBPLACEHOLDER
  2
AcDbPlaceHolder
  3
ObjectDBX Classes
 90
        0
280
     0
281
     0
  0
CLASS
  1
LAYOUT
  2
AcDbLayout
  3
ObjectDBX Classes
 90
        0
280
     0
281
     0
  0
CLASS
  1
TABLESTYLE
  2
AcDbTableStyle
  3
ObjectDBX Classes
 90
     2047
280
     0
281
     0
  0
CLASS
  1
SORTENTSTABLE
  2
AcDbSortentsTable
  3
ObjectDBX Classes
 90
        0
280
     0
281
     0
  0
ENDSEC
  0
SECTION
  2
TABLES
  0
TABLE
  2
VPORT
  5
12
330
0
100
AcDbSymbolTable
 70
     3
  0
VPORT
  5
7189
330
12
100
AcDbSymbolTableRecord
100
AcDbViewportTableRecord
  2
*Active
 70
     0
 10
0.0
 20
0.0
 11
1.0
 21
1.0
 12
74.31109682361659
 22
119.2133328738299
 13
0.0
 23
0.0
 14
1.0
 24
1.0
 15
0.0
 25
0.0
 16
0.0
 26
0.0
 36
1.0
 17
0.0
 27
0.0
 37
0.0
 40
240.2558442450117
 41
1.555414012738853
 42
50.0
 43
0.0
 44
0.0
 50
0.0
 51
0.0
 71
     0
 72
 20000
 73
     1
 74
     1
 75
     0
 76
     0
 77
     0
 78
     0
281
     0
 65
     1
110
0.0
120
0.0
130
0.0
111
1.0
121
0.0
131
0.0
112
0.0
122
1.0
132
0.0
 79
     0
146
0.0
  0
ENDTAB
  0
TABLE
  2
LTYPE
  5
D
330
0
100
AcDbSymbolTable
 70
     1
  0
LTYPE
  5
E
330
D
100
AcDbSymbolTableRecord
100
AcDbLinetypeTableRecord
  2
BYBLOCK
 70
     0
  3

 72
    65
 73
     0
 40
0.0
  0
LTYPE
  5
F
330
D
100
AcDbSymbolTableRecord
100
AcDbLinetypeTableRecord
  2
BYLAYER
 70
     0
  3

 72
    65
 73
     0
 40
0.0
  0
LTYPE
  5
5
330
D
100
AcDbSymbolTableRecord
100
AcDbLinetypeTableRecord
  2
CONTINUOUS
 70
     0
  3
Solid line
 72
    65
 73
     0
 40
0.0
  0
ENDTAB
  0
TABLE
  2
LAYER
  5
A
102
{ACAD_XDICTIONARY
360
1B4
102
}
330
0
100
AcDbSymbolTable
 70
     6
  0
LAYER
  5
4
330
A
100
AcDbSymbolTableRecord
100
AcDbLayerTableRecord
  2
0
 70
     0
 62
     7
  6
CONTINUOUS
370
    -3
390
57
  0
LAYER
  5
25
330
A
100
AcDbSymbolTableRecord
100
AcDbLayerTableRecord
  2
KIJUN
 70
     0
 62
     7
  6
CONTINUOUS
370
    -3
390
57
  0
LAYER
  5
22
330
A
100
AcDbSymbolTableRecord
100
AcDbLayerTableRecord
  2
HOJO
 70
     0
 62
     3
  6
CONTINUOUS
370
    -3
390
57
  0
LAYER
  5
1B
330
A
100
AcDbSymbolTableRecord
100
AcDbLayerTableRecord
  2
WAKU
 70
     0
 62
     1
  6
CONTINUOUS
370
    -3
390
57
  0
LAYER
  5
31
330
A
100
AcDbSymbolTableRecord
100
AcDbLayerTableRecord
  2
DEFPOINTS
 70
     0
 62
     7
  6
CONTINUOUS
290
     0
370
    -3
390
57
  0
LAYER
  5
28
330
A
100
AcDbSymbolTableRecord
100
AcDbLayerTableRecord
  2
SUNPOU
 70
     0
 62
    70
  6
CONTINUOUS
370
    -3
390
57
  0
ENDTAB
  0
TABLE
  2
STYLE
  5
B
330
0
100
AcDbSymbolTable
 70
     2
  0
STYLE
  5
C
330
B
100
AcDbSymbolTableRecord
100
AcDbTextStyleTableRecord
  2
STANDARD
 70
     0
 40
0.0
 41
1.0
 50
0.0
 71
     0
 42
0.2
  3
txt
  4

  0
STYLE
  5
1C
330
B
100
AcDbSymbolTableRecord
100
AcDbTextStyleTableRecord
  2
SUNPOU
 70
     0
 40
0.0
 41
1.0
 50
0.0
 71
     0
 42
30.0
  3
txt
  4
bigfont
  0
ENDTAB
  0
TABLE
  2
VIEW
  5
10
330
0
100
AcDbSymbolTable
 70
     0
  0
ENDTAB
  0
TABLE
  2
UCS
  5
11
330
0
100
AcDbSymbolTable
 70
     0
  0
ENDTAB
  0
TABLE
  2
APPID
  5
14
330
0
100
AcDbSymbolTable
 70
    10
  0
APPID
  5
15
330
14
100
AcDbSymbolTableRecord
100
AcDbRegAppTableRecord
  2
ACAD
 70
     0
  0
APPID
  5
1D3
330
14
100
AcDbSymbolTableRecord
100
AcDbRegAppTableRecord
  2
ACAD_DSTYLE_DIMTEXT_FILL
 70
     0
  0
APPID
  5
1D4
330
14
100
AcDbSymbolTableRecord
100
AcDbRegAppTableRecord
  2
ACAD_DSTYLE_DIMEXT_LENGTH
 70
     0
  0
APPID
  5
1D5
330
14
100
AcDbSymbolTableRecord
100
AcDbRegAppTableRecord
  2
ACAD_DSTYLE_DIMEXT_ENABLED
 70
     0
  0
APPID
  5
1D6
330
14
100
AcDbSymbolTableRecord
100
AcDbRegAppTableRecord
  2
ACAD_DSTYLE_DIM_LINETYPE
 70
     0
  0
APPID
  5
1D7
330
14
100
AcDbSymbolTableRecord
100
AcDbRegAppTableRecord
  2
ACAD_DSTYLE_DIM_EXT1_LINETYPE
 70
     0
  0
APPID
  5
1D8
330
14
100
AcDbSymbolTableRecord
100
AcDbRegAppTableRecord
  2
ACAD_DSTYLE_DIM_EXT2_LINETYPE
 70
     0
  0
APPID
  5
294
330
14
100
AcDbSymbolTableRecord
100
AcDbRegAppTableRecord
  2
ACAD_DSTYLE_DIMJOGGED_JOGANGLE_SYMBOL
 70
     0
  0
APPID
  5
478
330
14
100
AcDbSymbolTableRecord
100
AcDbRegAppTableRecord
  2
ACAD_DSTYLE_DIMARC_LENGTH_SYMBOL
 70
     0
  0
APPID
  5
F55
330
14
100
AcDbSymbolTableRecord
100
AcDbRegAppTableRecord
  2
ACAD_EXEMPT_FROM_CAD_STANDARDS
 70
     0
  0
ENDTAB
  0
TABLE
  2
DIMSTYLE
  5
16
330
0
100
AcDbSymbolTable
 70
     2
100
AcDbDimStyleTable
 71
     1
340
1E
  0
DIMSTYLE
105
1E
102
{ACAD_REACTORS
330
70B4
330
70C1
102
}
330
16
100
AcDbSymbolTableRecord
100
AcDbDimStyleTableRecord
  2
STANDARD
 70
     0
340
C
  0
ENDTAB
  0
TABLE
  2
BLOCK_RECORD
  5
1
330
0
100
AcDbSymbolTable
 70
    23
  0
BLOCK_RECORD
  5
2
102
{ACAD_XDICTIONARY
360
D13
102
}
330
1
100
AcDbSymbolTableRecord
100
AcDbBlockTableRecord
  2
*MODEL_SPACE
340
5A
  0
BLOCK_RECORD
  5
7
330
1
100
AcDbSymbolTableRecord
100
AcDbBlockTableRecord
  2
*PAPER_SPACE
340
5B
  0
BLOCK_RECORD
  5
109
330
1
100
AcDbSymbolTableRecord
100
AcDbBlockTableRecord
  2
_Dot
340
0
102
{BLKREFS
331
679C
331
679D
331
67A5
331
67A6
331
6942
331
6943
331
694B
331
694C
331
6AF6
331
6AF7
331
6AFF
331
6B00
331
6BD1
331
6BD2
331
6BDA
331
6BDB
331
6C50
331
6C51
331
6C64
331
6C65
331
6D63
331
6D64
331
6D86
331
6D87
331
6D8F
331
6D90
331
6F6F
331
6F70
331
6F78
331
6F79
331
7162
331
7163
331
716B
331
716C
102
}
  0
BLOCK_RECORD
  5
70B5
330
1
100
AcDbSymbolTableRecord
100
AcDbBlockTableRecord
  2
*D21
340
0
  0
BLOCK_RECORD
  5
70C2
330
1
100
AcDbSymbolTableRecord
100
AcDbBlockTableRecord
  2
*D22
340
0
  0
ENDTAB
  0
ENDSEC
  0
SECTION
  2
BLOCKS
  0
BLOCK
  5
3
330
2
100
AcDbEntity
  8
0
100
AcDbBlockBegin
  2
*MODEL_SPACE
 70
     0
 10
0.0
 20
0.0
 30
0.0
  3
*MODEL_SPACE
  1

  0
ENDBLK
  5
6
330
2
100
AcDbEntity
  8
0
100
AcDbBlockEnd
  0
BLOCK
  5
8
330
7
100
AcDbEntity
 67
     1
  8
0
100
AcDbBlockBegin
  2
*PAPER_SPACE
 70
     0
 10
0.0
 20
0.0
 30
0.0
  3
*PAPER_SPACE
  1

  0
ENDBLK
  5
9
330
7
100
AcDbEntity
 67
     1
  8
0
100
AcDbBlockEnd
  0
BLOCK
  5
10C
330
109
100
AcDbEntity
  8
0
100
AcDbBlockBegin
  2
_Dot
 70
     0
 10
0.0
 20
0.0
 30
0.0
  3
_Dot
  1

  0
LWPOLYLINE
  5
10A
330
109
100
AcDbEntity
  8
0
  6
ByBlock
 62
     0
100
AcDbPolyline
 90
        2
 70
     1
 43
0.5
 10
-0.25
 20
0.0
 42
1.0
 10
0.25
 20
0.0
 42
1.0
  0
LINE
  5
10B
330
109
100
AcDbEntity
  8
0
  6
ByBlock
 62
     0
370
    -2
100
AcDbLine
 10
-0.5
 20
0.0
 30
0.0
 11
-1.0
 21
0.0
 31
0.0
  0
ENDBLK
  5
10D
330
109
100
AcDbEntity
  8
0
100
AcDbBlockEnd
  0
BLOCK
  5
70BF
330
70B5
100
AcDbEntity
  8
0
100
AcDbBlockBegin
  2
*D21
 70
     1
 10
0.0
 20
0.0
 30
0.0
  3
*D21
  1

  0
LINE
  5
715F
330
70B5
100
AcDbEntity
  8
SUNPOU
 62
    70
370
    -2
100
AcDbLine
 10
37.5583787774831
 20
201.3136885161079
 30
0.0
 11
37.5583787774831
 21
230.4168347846979
 31
0.0
  0
LINE
  5
7160
330
70B5
100
AcDbEntity
  8
SUNPOU
 62
    70
370
    -2
100
AcDbLine
 10
124.5583787773831
 20
201.3136885161079
 30
0.0
 11
124.5583787773831
 21
230.4168347846979
 31
0.0
  0
LINE
  5
7161
330
70B5
100
AcDbEntity
  8
SUNPOU
 62
    60
370
    -2
100
AcDbLine
 10
39.5583787774831
 20
230.4168347846979
 30
0.0
 11
122.5583787773831
 21
230.4168347846979
 31
0.0
  0
INSERT
  5
7162
330
70B5
100
AcDbEntity
  8
SUNPOU
 62
    60
370
    -2
100
AcDbBlockReference
  2
_Dot
 10
37.5583787774831
 20
230.4168347846979
 30
0.0
 41
2.0
 42
2.0
 43
2.0
 50
180.0
  0
INSERT
  5
7163
330
70B5
100
AcDbEntity
  8
SUNPOU
 62
    60
370
    -2
100
AcDbBlockReference
  2
_Dot
 10
124.5583787773831
 20
230.4168347846979
 30
0.0
 41
2.0
 42
2.0
 43
2.0
  0
MTEXT
  5
7164
330
70B5
100
AcDbEntity
  8
SUNPOU
 62
    60
100
AcDbMText
 10
81.0583787774331
 20
235.916834784698
 30
0.0
 40
5.0
 41
0.0
 71
     5
 72
     1
  1
\A1;87
  7
SUNPOU
 73
     1
 44
1.0
1001
ACAD
1000
MTEXTBEGIN
1070
    73
1070
     1
1070
    44
1040
1.0
1070
    74
1070
     0
1000
MTEXTEND
  0
POINT
  5
7165
330
70B5
100
AcDbEntity
  8
DEFPOINTS
 62
     0
100
AcDbPoint
 10
37.5583787774831
 20
191.3136885161079
 30
0.0
  0
POINT
  5
7166
330
70B5
100
AcDbEntity
  8
DEFPOINTS
 62
     0
100
AcDbPoint
 10
124.5583787773831
 20
191.3136885161079
 30
0.0
  0
POINT
  5
7167
330
70B5
100
AcDbEntity
  8
DEFPOINTS
 62
     0
100
AcDbPoint
 10
124.5583787773831
 20
230.4168347846979
 30
0.0
  0
ENDBLK
  5
70C0
330
70B5
100
AcDbEntity
  8
0
100
AcDbBlockEnd
  0
BLOCK
  5
70CC
330
70C2
100
AcDbEntity
  8
0
100
AcDbBlockBegin
  2
*D22
 70
     1
 10
0.0
 20
0.0
 30
0.0
  3
*D22
  1

  0
LINE
  5
7168
330
70C2
100
AcDbEntity
  8
SUNPOU
 62
    70
370
    -2
100
AcDbLine
 10
31.55838072209329
 20
202.6520270693648
 30
0.0
 11
14.88600095446907
 21
202.6520270693648
 31
0.0
  0
LINE
  5
7169
330
70C2
100
AcDbEntity
  8
SUNPOU
 62
    70
370
    -2
100
AcDbLine
 10
71.04942870550873
 20
32.65202706936479
 30
0.0
 11
14.88600095446903
 21
32.65202706936481
 31
0.0
  0
LINE
  5
716A
330
70C2
100
AcDbEntity
  8
SUNPOU
 62
    60
370
    -2
100
AcDbLine
 10
14.88600095446907
 20
200.6520270693648
 30
0.0
 11
14.88600095446903
 21
34.65202706936481
 31
0.0
  0
INSERT
  5
716B
330
70C2
100
AcDbEntity
  8
SUNPOU
 62
    60
370
    -2
100
AcDbBlockReference
  2
_Dot
 10
14.88600095446907
 20
202.6520270693648
 30
0.0
 41
2.0
 42
2.0
 43
2.0
 50
90.0
  0
INSERT
  5
716C
330
70C2
100
AcDbEntity
  8
SUNPOU
 62
    60
370
    -2
100
AcDbBlockReference
  2
_Dot
 10
14.88600095446903
 20
32.65202706936481
 30
0.0
 41
2.0
 42
2.0
 43
2.0
 50
270.0
  0
MTEXT
  5
716D
330
70C2
100
AcDbEntity
  8
SUNPOU
 62
    60
100
AcDbMText
 10
9.386000954469029
 20
117.6520270693648
 30
0.0
 40
5.0
 41
0.0
 71
     5
 72
     1
  1
\A1;170
  7
SUNPOU
 11
0.0000000000000001
 21
1.0
 31
0.0
 73
     1
 44
1.0
1001
ACAD
1000
MTEXTBEGIN
1070
    73
1070
     1
1070
    44
1040
1.0
1070
    74
1070
     0
1000
MTEXTEND
  0
POINT
  5
716E
330
70C2
100
AcDbEntity
  8
DEFPOINTS
 62
     0
100
AcDbPoint
 10
41.55838072209329
 20
202.6520270693648
 30
0.0
  0
POINT
  5
716F
330
70C2
100
AcDbEntity
  8
DEFPOINTS
 62
     0
100
AcDbPoint
 10
81.04942870550873
 20
32.65202706936478
 30
0.0
  0
POINT
  5
7170
330
70C2
100
AcDbEntity
  8
DEFPOINTS
 62
     0
100
AcDbPoint
 10
14.88600095446903
 20
32.65202706936481
 30
0.0
  0
ENDBLK
  5
70CD
330
70C2
100
AcDbEntity
  8
0
100
AcDbBlockEnd
  0
ENDSEC
  0
SECTION
  2
ENTITIES
  0
LINE
  5
1F
330
2
100
AcDbEntity
  8
WAKU
100
AcDbLine
 10
0.0
 20
14.0
 30
0.0
 11
148.6218955736626
 21
14.0
 31
0.0
  0
LINE
  5
20
330
2
100
AcDbEntity
  8
WAKU
100
AcDbLine
 10
0.0
 20
0.0
 30
0.0
 11
148.6218955736626
 21
0.0
 31
0.0
  0
TEXT
  5
21
330
2
100
AcDbEntity
  8
HOJO
100
AcDbText
 10
9.653966000000025
 20
2.366626000000024
 30
0.0
 40
9.0
  1
TK707
  7
SUNPOU
100
AcDbText
  0
TEXT
  5
23
330
2
100
AcDbEntity
  8
HOJO
100
AcDbText
 10
85.84696046283864
 20
5.044386000000031
 30
0.0
 40
6.0
  1
87×170×98
  7
SUNPOU
100
AcDbText
  0
ELLIPSE
  5
7024
102
{ACAD_REACTORS
330
7171
102
}
330
2
100
AcDbEntity
  8
KIJUN
100
AcDbEllipse
 10
104.0583776450991
 20
62.11356553106476
 30
0.0
 11
-0.000000000000995
 21
2.00769230769
 31
0.0
210
0.0
220
0.0
230
1.0
 40
0.9961685333333511
 41
3.141592653589295
 42
4.712388980384195
  0
ELLIPSE
  5
7025
102
{ACAD_REACTORS
330
7171
102
}
330
2
100
AcDbEntity
  8
KIJUN
100
AcDbEllipse
 10
100.0583778420267
 20
62.11356553106465
 30
0.0
 11
0.000000000002764
 21
2.00769230769
 31
0.0
210
0.0
220
0.0
230
1.0
 40
0.9961685333333511
 41
1.570796326796267
 42
3.141592653591175
  0
SPLINE
  5
7026
102
{ACAD_REACTORS
330
7171
102
}
330
2
100
AcDbEntity
  8
KIJUN
100
AcDbSpline
210
0.0
220
0.0
230
1.0
 70
     8
 71
     3
 72
    12
 73
     8
 74
     0
 42
0.0000000001
 43
0.0000000001
 40
0.0
 40
0.0
 40
0.0
 40
0.0
 40
3.260899230007793
 40
5.608159436191471
 40
8.110321687288013
 40
11.2416621810641
 40
19.18041137738123
 40
19.18041137738123
 40
19.18041137738123
 40
19.18041137738123
 10
98.05837794049056
 20
62.11356553106465
 30
0.0
 10
97.21798479071198
 20
62.78990673366905
 30
0.0
 10
95.77265991539221
 20
63.9530918031634
 30
0.0
 10
92.94663615279707
 20
64.85054897514768
 30
0.0
 10
90.6529254759102
 20
63.05889110149464
 30
0.0
 10
88.0338487383632
 20
59.23667301999703
 30
0.0
 10
83.97157652071332
 20
59.15825987982639
 30
0.0
 10
81.0583787774331
 20
59.10202706952977
 30
0.0
  0
SPLINE
  5
7027
102
{ACAD_REACTORS
330
7171
102
}
330
2
100
AcDbEntity
  8
KIJUN
100
AcDbSpline
210
0.0
220
0.0
230
1.0
 70
     8
 71
     3
 72
    12
 73
     8
 74
     0
 42
0.0000000001
 43
0.0000000001
 40
0.0
 40
0.0
 40
0.0
 40
0.0
 40
3.260899230007793
 40
5.608159436191471
 40
8.110321687288013
 40
11.2416621810641
 40
19.18041137738123
 40
19.18041137738123
 40
19.18041137738123
 40
19.18041137738123
 10
64.05837961437564
 20
62.11356553106465
 30
0.0
 10
64.8987727641542
 20
62.78990673366905
 30
0.0
 10
66.34409763947399
 20
63.9530918031634
 30
0.0
 10
69.17012140206913
 20
64.85054897514768
 30
0.0
 10
71.46383207895599
 20
63.05889110149464
 30
0.0
 10
74.08290881650301
 20
59.23667301999703
 30
0.0
 10
78.14518103415287
 20
59.15825987982639
 30
0.0
 10
81.0583787774331
 20
59.10202706952977
 30
0.0
  0
ELLIPSE
  5
7028
102
{ACAD_REACTORS
330
7171
102
}
330
2
100
AcDbEntity
  8
KIJUN
100
AcDbEllipse
 10
62.05837971283944
 20
62.11356553106465
 30
0.0
 11
-0.0000000000018906
 21
2.00769230769
 31
0.0
210
0.0
220
0.0
230
1.0
 40
0.9961685333333511
 41
3.141592653588848
 42
4.712388980383751
  0
ELLIPSE
  5
7029
102
{ACAD_REACTORS
330
7171
102
}
330
2
100
AcDbEntity
  8
KIJUN
100
AcDbEllipse
 10
58.05837990976704
 20
62.11356553106476
 30
0.0
 11
0.0000000000018906
 21
2.00769230769
 31
0.0
210
0.0
220
0.0
230
1.0
 40
0.9961685333333509
 41
1.570796326795834
 42
3.141592653590738
  0
ELLIPSE
  5
702A
102
{ACAD_REACTORS
330
7171
102
}
330
2
100
AcDbEntity
  8
KIJUN
100
AcDbEllipse
 10
55.34086562228359
 20
58.09818091568465
 30
0.0
 11
-0.0000000000014746
 21
2.906803704947003
 31
0.0
210
0.0
220
0.0
230
0.9999999999999998
 40
0.9961685333333566
 41
4.359784058675241
 42
5.816322931478842
  0
LINE
  5
702B
102
{ACAD_REACTORS
330
7171
102
}
330
2
100
AcDbEntity
  8
KIJUN
100
AcDbLine
 10
104.0583776450991
 20
57.09433476183976
 30
0.0
 11
104.0583776450991
 21
50.06741168492465
 31
0.0
  0
LINE
  5
702C
102
{ACAD_REACTORS
330
7171
102
}
330
2
100
AcDbEntity
  8
KIJUN
100
AcDbLine
 10
95.05837808818615
 20
57.09433476183964
 30
0.0
 11
95.05837808818615
 21
50.06741168492488
 31
0.0
  0
LINE
  5
702D
102
{ACAD_REACTORS
330
7171
102
}
330
2
100
AcDbEntity
  8
KIJUN
100
AcDbLine
 10
93.05837818665017
 20
57.09433476183964
 30
0.0
 11
93.05837818665006
 21
50.06741168492488
 31
0.0
  0
LINE
  5
702E
102
{ACAD_REACTORS
330
7171
102
}
330
2
100
AcDbEntity
  8
KIJUN
100
AcDbLine
 10
104.058377645099
 20
57.09433476183964
 30
0.0
 11
81.0583787774331
 21
57.09433476183964
 31
0.0
  0
LINE
  5
702F
102
{ACAD_REACTORS
330
7171
102
}
330
2
100
AcDbEntity
  8
KIJUN
100
AcDbLine
 10
104.058377645099
 20
50.06741168492476
 30
0.0
 11
81.0583787774331
 21
50.06741168492465
 31
0.0
  0
LINE
  5
7030
102
{ACAD_REACTORS
330
7171
102
}
330
2
100
AcDbEntity
  8
KIJUN
100
AcDbLine
 10
104.0583776450991
 20
60.10587322337477
 30
0.0
 11
100.0583778420267
 21
60.10587322337466
 31
0.0
  0
LINE
  5
7031
102
{ACAD_REACTORS
330
7171
102
}
330
2
100
AcDbEntity
  8
KIJUN
100
AcDbLine
 10
82.55837870358524
 20
57.09433476183964
 30
0.0
 11
82.55837870358524
 21
50.06741168492453
 31
0.0
  0
ELLIPSE
  5
7033
102
{ACAD_REACTORS
330
7171
102
}
330
2
100
AcDbEntity
  8
KIJUN
100
AcDbEllipse
 10
106.7758919325826
 20
58.09818091568465
 30
0.0
 11
0.0000000000007406
 21
2.906803704947003
 31
0.0
210
0.0
220
0.0
230
0.9999999999999998
 40
0.9961685333333527
 41
0.4668623757004929
 42
1.923401248504078
  0
ELLIPSE
  5
7035
102
{ACAD_REACTORS
330
7171
102
}
330
2
100
AcDbEntity
  8
KIJUN
100
AcDbEllipse
 10
81.05390374147091
 20
42.03365832817957
 30
0.0
 11
-0.0000000000000263
 21
6.023076923069997
 31
0.0
210
0.0
220
0.0
230
1.0
 40
0.5435434526241605
 41
-0.0000000000000082
 42
6.283185307179578
  0
LINE
  5
7036
102
{ACAD_REACTORS
330
7171
102
}
330
2
100
AcDbEntity
  8
KIJUN
100
AcDbLine
 10
79.55837885128095
 20
57.09433476183964
 30
0.0
 11
79.55837885128095
 21
50.06741168492453
 31
0.0
  0
LINE
  5
7037
102
{ACAD_REACTORS
330
7171
102
}
330
2
100
AcDbEntity
  8
KIJUN
100
AcDbLine
 10
58.05837990976704
 20
60.10587322337477
 30
0.0
 11
62.05837971283944
 21
60.10587322337466
 31
0.0
  0
LINE
  5
7038
102
{ACAD_REACTORS
330
7171
102
}
330
2
100
AcDbEntity
  8
KIJUN
100
AcDbLine
 10
58.05837990976716
 20
50.06741168492476
 30
0.0
 11
81.0583787774331
 21
50.06741168492465
 31
0.0
  0
LINE
  5
7039
102
{ACAD_REACTORS
330
7171
102
}
330
2
100
AcDbEntity
  8
KIJUN
100
AcDbLine
 10
58.05837990976716
 20
57.09433476183964
 30
0.0
 11
81.0583787774331
 21
57.09433476183964
 31
0.0
  0
LINE
  5
703A
102
{ACAD_REACTORS
330
7171
102
}
330
2
100
AcDbEntity
  8
KIJUN
100
AcDbLine
 10
69.05837936821602
 20
57.09433476183964
 30
0.0
 11
69.05837936821614
 21
50.06741168492488
 31
0.0
  0
LINE
  5
703B
102
{ACAD_REACTORS
330
7171
102
}
330
2
100
AcDbEntity
  8
KIJUN
100
AcDbLine
 10
67.05837946668005
 20
57.09433476183964
 30
0.0
 11
67.05837946668005
 21
50.06741168492488
 31
0.0
  0
LINE
  5
703C
102
{ACAD_REACTORS
330
7171
102
}
330
2
100
AcDbEntity
  8
KIJUN
100
AcDbLine
 10
58.05837990976704
 20
57.09433476183976
 30
0.0
 11
58.05837990976704
 21
50.06741168492465
 31
0.0
  0
LINE
  5
703D
102
{ACAD_REACTORS
330
7171
102
}
330
2
100
AcDbEntity
  8
KIJUN
100
AcDbLine
 10
101.3195652968075
 20
161.4943347617199
 30
0.0
 11
109.2780608515758
 21
161.4943347617197
 31
0.0
  0
LINE
  5
703E
102
{ACAD_REACTORS
330
7171
102
}
330
2
100
AcDbEntity
  8
KIJUN
100
AcDbLine
 10
81.05837877743322
 20
168.5212578386348
 30
0.0
 11
112.5422057546379
 21
168.5212578386347
 31
0.0
  0
LINE
  5
703F
102
{ACAD_REACTORS
330
7171
102
}
330
2
100
AcDbEntity
  8
KIJUN
100
AcDbLine
 10
81.0583787774331
 20
175.5481809155497
 30
0.0
 11
114.0583771527803
 21
175.5481809155497
 31
0.0
  0
LINE
  5
7040
102
{ACAD_REACTORS
330
7171
102
}
330
2
100
AcDbEntity
  8
KIJUN
100
AcDbLine
 10
81.05837877743322
 20
180.5674116847747
 30
0.0
 11
121.058376808157
 21
180.5674116847747
 31
0.0
  0
LINE
  5
7041
102
{ACAD_REACTORS
330
7171
102
}
330
2
100
AcDbEntity
  8
KIJUN
100
AcDbLine
 10
81.05837877743322
 20
187.5943347616897
 30
0.0
 11
121.0583768081569
 21
187.5943347616897
 31
0.0
  0
ELLIPSE
  5
7044
102
{ACAD_REACTORS
330
7171
102
}
330
2
100
AcDbEntity
  8
KIJUN
100
AcDbEllipse
 10
99.97504451279594
 20
72.65395014643738
 30
0.0
 11
0.0000000000000691
 21
9.118269230759057
 31
0.0
210
0.0
220
0.0
230
1.0
 40
0.9961685333333518
 41
4.129475391429015
 42
5.295302569340378
  0
LINE
  5
7045
102
{ACAD_REACTORS
330
7171
102
}
330
2
100
AcDbEntity
  8
KIJUN
100
AcDbLine
 10
112.5583772266281
 20
162.0229848704652
 30
0.0
 11
107.0583774974037
 21
123.3481809156097
 31
0.0
  0
ELLIPSE
  5
7046
102
{ACAD_REACTORS
330
7171
102
}
330
2
100
AcDbEntity
  8
KIJUN
100
AcDbEllipse
 10
77.81289071548413
 20
136.6843302863099
 30
0.0
 11
-0.0000000000000614
 21
3.513461538457516
 31
0.0
210
0.0
220
0.0
230
1.0
 40
0.9961685333333464
 41
-1.187086904798528
 42
4.328679558388285
  0
ELLIPSE
  5
7047
102
{ACAD_REACTORS
330
7171
102
}
330
2
100
AcDbEntity
  8
KIJUN
100
AcDbEllipse
 10
84.30386683938206
 20
136.6843302863099
 30
0.0
 11
-0.000000000002228
 21
3.5134615384575
 31
0.0
210
0.0
220
0.0
230
1.0
 40
0.9961685333333509
 41
4.712388980384058
 42
10.99557428756364
  0
SPLINE
  5
7048
102
{ACAD_REACTORS
330
7171
102
}
330
2
100
AcDbEntity
  8
KIJUN
100
AcDbSpline
210
0.0
220
0.0
230
1.0
 70
     8
 71
     3
 72
    12
 73
     8
 74
     0
 42
0.0000000001
 43
0.0000000001
 40
0.0
 40
0.0
 40
0.0
 40
0.0
 40
8.856845249757252
 40
11.18989920787778
 40
13.35625020082696
 40
15.2867894504465
 40
16.85197720847233
 40
16.85197720847233
 40
16.85197720847233
 40
16.85197720847233
 10
91.55837826049815
 20
141.1763872036407
 30
0.0
 10
94.27753515180079
 20
139.9546474004278
 30
0.0
 10
97.71296737242323
 20
138.4110791353529
 30
0.0
 10
102.5676359625172
 20
139.1550385555307
 30
0.0
 10
103.8791901926031
 20
136.8224119077515
 30
0.0
 10
102.8983414922796
 20
134.8898849347819
 30
0.0
 10
101.7793993839054
 20
134.4845401140862
 30
0.0
 10
101.2784007400935
 20
134.3030497546431
 30
0.0
  0
SPLINE
  5
7049
102
{ACAD_REACTORS
330
7171
102
}
330
2
100
AcDbEntity
  8
KIJUN
100
AcDbSpline
210
0.0
220
0.0
230
1.0
 70
     8
 71
     3
 72
    12
 73
     8
 74
     0
 42
0.0000000001
 43
0.0000000001
 40
0.0
 40
0.0
 40
0.0
 40
0.0
 40
8.856845249757252
 40
11.18989920787778
 40
13.35625020082696
 40
15.2867894504465
 40
16.85197720847233
 40
16.85197720847233
 40
16.85197720847233
 40
16.85197720847233
 10
70.55837929436805
 20
141.1763872036407
 30
0.0
 10
67.83922240306541
 20
139.9546474004278
 30
0.0
 10
64.40379018244297
 20
138.4110791353529
 30
0.0
 10
59.54912159234893
 20
139.1550385555307
 30
0.0
 10
58.23756736226311
 20
136.8224119077515
 30
0.0
 10
59.21841606258652
 20
134.8898849347819
 30
0.0
 10
60.33735817096077
 20
134.4845401140862
 30
0.0
 10
60.83835681477268
 20
134.3030497546431
 30
0.0
  0
ELLIPSE
  5
704A
102
{ACAD_REACTORS
330
7171
102
}
330
2
100
AcDbEntity
  8
KIJUN
100
AcDbEllipse
 10
72.65605925878997
 20
136.1994546204278
 30
0.0
 11
0.0000000000011911
 21
3.513461538457486
 31
0.0
210
0.0
220
0.0
230
1.0
 40
0.9961685333333559
 41
-0.7395505053118882
 42
4.067929455334397
  0
ELLIPSE
  5
704B
102
{ACAD_REACTORS
330
7171
102
}
330
2
100
AcDbEntity
  8
KIJUN
100
AcDbEllipse
 10
89.46069829607612
 20
136.1994546204279
 30
0.0
 11
-0.0000000000025354
 21
3.51346153845748
 31
0.0
210
0.0
220
0.0
230
1.0
 40
0.9961685333333576
 41
2.215255851844809
 42
7.02273581249109
  0
LINE
  5
704C
102
{ACAD_REACTORS
330
7171
102
}
330
2
100
AcDbEntity
  8
KIJUN
100
AcDbLine
 10
49.55838032823809
 20
162.0229848704652
 30
0.0
 11
55.05838005746252
 21
123.3481809156097
 31
0.0
  0
LINE
  5
704D
102
{ACAD_REACTORS
330
7171
102
}
330
2
100
AcDbEntity
  8
KIJUN
100
AcDbLine
 10
59.88894699821422
 20
123.3481809156097
 30
0.0
 11
55.05838005746252
 21
123.3481809156097
 31
0.0
  0
LINE
  5
704E
102
{ACAD_REACTORS
330
7171
102
}
330
2
100
AcDbEntity
  8
KIJUN
100
AcDbLine
 10
55.05838005746252
 20
116.3212578386947
 30
0.0
 11
57.68364882745774
 21
85.16647135627541
 31
0.0
  0
ELLIPSE
  5
704F
102
{ACAD_REACTORS
330
7171
102
}
330
2
100
AcDbEntity
  8
KIJUN
100
AcDbEllipse
 10
58.05837990976681
 20
83.19433476181
 30
0.0
 11
-0.0000000000018906
 21
2.00769230769
 31
0.0
210
0.0
220
0.0
230
1.0
 40
0.9961685333333511
 41
-0.0000000000009452
 42
1.570796326793958
  0
LINE
  5
7050
102
{ACAD_REACTORS
330
7171
102
}
330
2
100
AcDbEntity
  8
KIJUN
100
AcDbLine
 10
61.05837976207111
 20
116.3212578386947
 30
0.0
 11
55.05838005746252
 21
116.3212578386947
 31
0.0
  0
ELLIPSE
  5
7051
102
{ACAD_REACTORS
330
7171
102
}
330
2
100
AcDbEntity
  8
KIJUN
100
AcDbEllipse
 10
62.14171304207027
 20
72.65395014643738
 30
0.0
 11
0.0
 21
9.118269230759054
 31
0.0
210
0.0
220
0.0
230
1.0
 40
0.9961685333333518
 41
0.9878827378392145
 42
2.153709915750578
  0
LINE
  5
7052
102
{ACAD_REACTORS
330
7171
102
}
330
2
100
AcDbEntity
  8
KIJUN
100
AcDbLine
 10
54.55838008207847
 20
77.67318091566238
 30
0.0
 11
56.05838000823061
 21
77.6731809156625
 31
0.0
  0
LINE
  5
7053
102
{ACAD_REACTORS
330
7171
102
}
330
2
100
AcDbEntity
  8
KIJUN
100
AcDbLine
 10
54.55838008207847
 20
67.63471937721238
 30
0.0
 11
56.05838000823061
 21
67.63471937721238
 31
0.0
  0
LINE
  5
7054
102
{ACAD_REACTORS
330
7171
102
}
330
2
100
AcDbEntity
  8
KIJUN
100
AcDbLine
 10
56.05838000823061
 20
83.19433476181
 30
0.0
 11
56.05838000823084
 21
62.11356553106476
 31
0.0
  0
LINE
  5
7055
102
{ACAD_REACTORS
330
7171
102
}
330
2
100
AcDbEntity
  8
KIJUN
100
AcDbLine
 10
55.05838005746252
 20
123.3481809156097
 30
0.0
 11
55.05838005746252
 21
116.3212578386948
 31
0.0
  0
LINE
  5
7056
102
{ACAD_REACTORS
330
7171
102
}
330
2
100
AcDbEntity
  8
KIJUN
100
AcDbLine
 10
98.05837794049079
 20
83.19433476180988
 30
0.0
 11
98.05837794049056
 21
62.11356553106465
 31
0.0
  0
LINE
  5
7057
102
{ACAD_REACTORS
330
7171
102
}
330
2
100
AcDbEntity
  8
KIJUN
100
AcDbLine
 10
104.0583776450993
 20
85.2020270695
 30
0.0
 11
100.058377842027
 21
85.20202706949987
 31
0.0
  0
ELLIPSE
  5
7058
102
{ACAD_REACTORS
330
7171
102
}
330
2
100
AcDbEntity
  8
KIJUN
100
AcDbEllipse
 10
100.058377842027
 20
83.19433476180988
 30
0.0
 11
-0.000000000002764
 21
2.00769230769
 31
0.0
210
0.0
220
0.0
230
1.0
 40
0.9961685333333511
 41
-0.000000000001382
 42
1.570796326793525
  0
SPLINE
  5
7059
102
{ACAD_REACTORS
330
7171
102
}
330
2
100
AcDbEntity
  8
KIJUN
100
AcDbSpline
210
0.0
220
0.0
230
1.0
 70
     8
 71
     3
 72
    12
 73
     8
 74
     0
 42
0.0000000001
 43
0.0000000001
 40
0.0
 40
0.0
 40
0.0
 40
0.0
 40
3.260899230007793
 40
5.608159436191471
 40
8.110321687288013
 40
11.2416621810641
 40
19.18041137738123
 40
19.18041137738123
 40
19.18041137738123
 40
19.18041137738123
 10
98.05837794049056
 20
83.19433476181011
 30
0.0
 10
97.21798479071198
 20
82.51799355920571
 30
0.0
 10
95.77265991539221
 20
81.35480848971125
 30
0.0
 10
92.94663615279707
 20
80.45735131772719
 30
0.0
 10
90.6529254759102
 20
82.2490091913801
 30
0.0
 10
88.0338487383632
 20
86.07122727287778
 30
0.0
 10
83.97157652071332
 20
86.14964041304828
 30
0.0
 10
81.0583787774331
 20
86.20587322334499
 30
0.0
  0
LINE
  5
705A
102
{ACAD_REACTORS
330
7171
102
}
330
2
100
AcDbEntity
  8
KIJUN
100
AcDbLine
 10
101.0583777927951
 20
116.3212578386947
 30
0.0
 11
98.6441643492783
 21
84.61398760711356
 31
0.0
  0
ELLIPSE
  5
705B
102
{ACAD_REACTORS
330
7171
102
}
330
2
100
AcDbEntity
  8
KIJUN
100
AcDbEllipse
 10
87.66149810015566
 20
128.8227308118887
 30
0.0
 11
-0.000000000002228
 21
3.5134615384575
 31
0.0
210
0.0
220
0.0
230
1.0
 40
0.9961685333333509
 41
4.712388980384058
 42
10.99557428756364
  0
SPLINE
  5
705C
102
{ACAD_REACTORS
330
7171
102
}
330
2
100
AcDbEntity
  8
KIJUN
100
AcDbSpline
210
0.0
220
0.0
230
1.0
 70
     8
 71
     3
 72
    19
 73
    15
 74
     0
 42
0.0000000001
 43
0.0000000001
 40
0.0
 40
0.0
 40
0.0
 40
0.0
 40
3.821979905943105
 40
5.605928518232782
 40
6.712735788505744
 40
7.234318282144151
 40
8.866974538196238
 40
9.807290193132818
 40
10.91367976956165
 40
13.95512559354081
 40
16.36033612389755
 40
17.18495945864659
 40
21.69108605701957
 40
24.75793761682123
 40
24.75793761682123
 40
24.75793761682123
 40
24.75793761682123
 10
81.05837877743299
 20
111.4952384148366
 30
0.0
 10
82.01903873750252
 20
112.2606957763474
 30
0.0
 10
83.42809666010014
 20
113.3834382705484
 30
0.0
 10
82.89222632991849
 20
117.2042385928511
 30
0.0
 10
84.44620522666452
 20
115.7965972480393
 30
0.0
 10
84.91153606583177
 20
117.0631212793159
 30
0.0
 10
84.31961737460257
 20
118.1266260878078
 30
0.0
 10
85.47553311727872
 20
119.0371272469694
 30
0.0
 10
84.17843788843276
 20
121.3365961597451
 30
0.0
 10
85.9664993884707
 20
117.100772875333
 30
0.0
 10
88.8622916878382
 20
116.2705790397693
 30
0.0
 10
88.98884412323402
 20
119.2019486147129
 30
0.0
 10
87.96964731215531
 20
121.7059320610025
 30
0.0
 10
87.89607869956302
 20
124.2749184925439
 30
0.0
 10
87.86628539901883
 20
125.3152885926712
 30
0.0
  0
SPLINE
  5
705D
102
{ACAD_REACTORS
330
7171
102
}
330
2
100
AcDbEntity
  8
KIJUN
100
AcDbSpline
210
0.0
220
0.0
230
1.0
 70
     8
 71
     3
 72
    10
 73
     6
 74
     0
 42
0.0000000001
 43
0.0000000001
 40
0.0
 40
0.0
 40
0.0
 40
0.0
 40
0.9109937586887566
 40
4.773931472974524
 40
11.40239003717347
 40
11.40239003717347
 40
11.40239003717347
 40
11.40239003717347
 10
95.91143677353537
 20
124.5865017313712
 30
0.0
 10
95.71148837615735
 20
124.3655091780199
 30
0.0
 10
94.66368762218982
 20
123.2074295581823
 30
0.0
 10
93.24194529901236
 20
117.8555827388212
 30
0.0
 10
91.00829380154586
 20
122.7825658492757
 30
0.0
 10
89.59707397867248
 20
125.8954311464458
 30
0.0
  0
SPLINE
  5
705E
102
{ACAD_REACTORS
330
7171
102
}
330
2
100
AcDbEntity
  8
KIJUN
100
AcDbSpline
210
0.0
220
0.0
230
1.0
 70
     8
 71
     3
 72
    14
 73
    10
 74
     0
 42
0.0000000001
 43
0.0000000001
 40
0.0
 40
0.0
 40
0.0
 40
0.0
 40
2.14414782161837
 40
4.479430466984116
 40
6.465913862808134
 40
8.606983442969973
 40
12.2390567604799
 40
14.8995259166499
 40
19.08140112672592
 40
19.08140112672592
 40
19.08140112672592
 40
19.08140112672592
 10
101.2784007400935
 20
134.3030497546431
 30
0.0
 10
101.5515719038634
 20
133.6744524765048
 30
0.0
 10
102.1222654079937
 20
132.3612231502584
 30
0.0
 10
102.928395601805
 20
129.8082447032949
 30
0.0
 10
99.84124324848879
 20
128.79834152448
 30
0.0
 10
102.4650263377146
 20
126.4604084661046
 30
0.0
 10
103.0249616356719
 20
122.8693394782255
 30
0.0
 10
98.75230812665144
 20
122.0369522714715
 30
0.0
 10
96.98907944967803
 20
123.6193677216208
 30
0.0
 10
95.91143677353548
 20
124.5865017313712
 30
0.0
  0
ELLIPSE
  5
705F
102
{ACAD_REACTORS
330
7171
102
}
330
2
100
AcDbEntity
  8
KIJUN
100
AcDbEllipse
 10
119.7606408384853
 20
148.0767741999263
 30
0.0
 11
0.0000000000629669
 21
30.76862809654007
 31
0.0
210
0.0
220
0.0
230
0.9999999999999998
 40
0.9961685333333557
 41
2.039196709497807
 42
2.410469719866017
  0
LINE
  5
7060
102
{ACAD_REACTORS
330
7171
102
}
330
2
100
AcDbEntity
  8
KIJUN
100
AcDbLine
 10
102.0722143469237
 20
134.621160685918
 30
0.0
 11
101.9086212578744
 21
132.8021479704014
 31
0.0
  0
LINE
  5
7061
102
{ACAD_REACTORS
330
7171
102
}
330
2
100
AcDbEntity
  8
KIJUN
100
AcDbLine
 10
101.6075664650863
 20
129.4546807923499
 30
0.0
 11
101.4103058268947
 21
127.2613142435141
 31
0.0
  0
LINE
  5
7062
102
{ACAD_REACTORS
330
7171
102
}
330
2
100
AcDbEntity
  8
KIJUN
100
AcDbLine
 10
101.0583777927951
 20
122.5919256176212
 30
0.0
 11
101.0583777927951
 21
116.3212578386948
 31
0.0
  0
LINE
  5
7063
102
{ACAD_REACTORS
330
7171
102
}
330
2
100
AcDbEntity
  8
KIJUN
100
AcDbLine
 10
107.0583774974037
 20
123.3481809156097
 30
0.0
 11
107.0583774974037
 21
116.3212578386948
 31
0.0
  0
LINE
  5
7064
102
{ACAD_REACTORS
330
7171
102
}
330
2
100
AcDbEntity
  8
KIJUN
100
AcDbLine
 10
106.0583775466356
 20
83.19433476181
 30
0.0
 11
106.0583775466353
 21
62.11356553106476
 31
0.0
  0
LINE
  5
7065
102
{ACAD_REACTORS
330
7171
102
}
330
2
100
AcDbEntity
  8
KIJUN
100
AcDbLine
 10
107.5583774727877
 20
67.63471937721238
 30
0.0
 11
106.0583775466356
 21
67.63471937721238
 31
0.0
  0
LINE
  5
7066
102
{ACAD_REACTORS
330
7171
102
}
330
2
100
AcDbEntity
  8
KIJUN
100
AcDbLine
 10
107.5583774727877
 20
77.67318091566238
 30
0.0
 11
106.0583775466356
 21
77.6731809156625
 31
0.0
  0
LINE
  5
7067
102
{ACAD_REACTORS
330
7171
102
}
330
2
100
AcDbEntity
  8
KIJUN
100
AcDbLine
 10
101.0583777927951
 20
116.3212578386947
 30
0.0
 11
107.0583774974037
 21
116.3212578386947
 31
0.0
  0
ELLIPSE
  5
7068
102
{ACAD_REACTORS
330
7171
102
}
330
2
100
AcDbEntity
  8
KIJUN
100
AcDbEllipse
 10
104.0583776450993
 20
83.19433476181
 30
0.0
 11
0.0000000000010061
 21
2.00769230769
 31
0.0
210
0.0
220
0.0
230
1.0
 40
0.9961685333333511
 41
-1.570796326794397
 42
0.0000000000005029
  0
LINE
  5
7069
102
{ACAD_REACTORS
330
7171
102
}
330
2
100
AcDbEntity
  8
KIJUN
100
AcDbLine
 10
107.0583774974037
 20
116.3212578386947
 30
0.0
 11
104.4331087274084
 21
85.16647135627541
 31
0.0
  0
LINE
  5
706A
102
{ACAD_REACTORS
330
7171
102
}
330
2
100
AcDbEntity
  8
KIJUN
100
AcDbLine
 10
102.2278105566519
 20
123.3481809156097
 30
0.0
 11
107.0583774974037
 21
123.3481809156097
 31
0.0
  0
LINE
  5
706B
102
{ACAD_REACTORS
330
7171
102
}
330
2
100
AcDbEntity
  8
KIJUN
100
AcDbLine
 10
61.05837976207111
 20
122.5919256176212
 30
0.0
 11
61.05837976207111
 21
116.3212578386948
 31
0.0
  0
LINE
  5
706C
102
{ACAD_REACTORS
330
7171
102
}
330
2
100
AcDbEntity
  8
KIJUN
100
AcDbLine
 10
60.50919108977986
 20
129.4546807923499
 30
0.0
 11
60.70645172797148
 21
127.2613142435141
 31
0.0
  0
LINE
  5
706D
102
{ACAD_REACTORS
330
7171
102
}
330
2
100
AcDbEntity
  8
KIJUN
100
AcDbLine
 10
60.04454320794242
 20
134.621160685918
 30
0.0
 11
60.20813629699176
 21
132.8021479704014
 31
0.0
  0
ELLIPSE
  5
706E
102
{ACAD_REACTORS
330
7171
102
}
330
2
100
AcDbEntity
  8
KIJUN
100
AcDbEllipse
 10
42.35611671638082
 20
148.0767741999263
 30
0.0
 11
0.0000000000035419
 21
30.76862809654039
 31
0.0
210
0.0
220
0.0
230
0.9999999999999998
 40
0.9961685333333505
 41
3.872715587315731
 42
4.243988597683936
  0
SPLINE
  5
706F
102
{ACAD_REACTORS
330
7171
102
}
330
2
100
AcDbEntity
  8
KIJUN
100
AcDbSpline
210
0.0
220
0.0
230
1.0
 70
     8
 71
     3
 72
    14
 73
    10
 74
     0
 42
0.0000000001
 43
0.0000000001
 40
0.0
 40
0.0
 40
0.0
 40
0.0
 40
2.14414782161837
 40
4.479430466984116
 40
6.465913862808134
 40
8.606983442969973
 40
12.2390567604799
 40
14.8995259166499
 40
19.08140112672592
 40
19.08140112672592
 40
19.08140112672592
 40
19.08140112672592
 10
60.83835681477268
 20
134.3030497546431
 30
0.0
 10
60.56518565100273
 20
133.6744524765048
 30
0.0
 10
59.99449214687249
 20
132.3612231502584
 30
0.0
 10
59.18836195306119
 20
129.8082447032949
 30
0.0
 10
62.2755143063774
 20
128.79834152448
 30
0.0
 10
59.65173121715158
 20
126.4604084661046
 30
0.0
 10
59.09179591919424
 20
122.8693394782255
 30
0.0
 10
63.36444942821478
 20
122.0369522714715
 30
0.0
 10
65.12767810518816
 20
123.6193677216208
 30
0.0
 10
66.2053207813307
 20
124.5865017313712
 30
0.0
  0
SPLINE
  5
7070
102
{ACAD_REACTORS
330
7171
102
}
330
2
100
AcDbEntity
  8
KIJUN
100
AcDbSpline
210
0.0
220
0.0
230
1.0
 70
     8
 71
     3
 72
    10
 73
     6
 74
     0
 42
0.0000000001
 43
0.0000000001
 40
0.0
 40
0.0
 40
0.0
 40
0.0
 40
0.9109937586887566
 40
4.773931472974524
 40
11.40239003717347
 40
11.40239003717347
 40
11.40239003717347
 40
11.40239003717347
 10
66.20532078133081
 20
124.5865017313712
 30
0.0
 10
66.40526917870885
 20
124.3655091780199
 30
0.0
 10
67.45306993267636
 20
123.2074295581823
 30
0.0
 10
68.87481225585384
 20
117.8555827388212
 30
0.0
 10
71.10846375332034
 20
122.7825658492757
 30
0.0
 10
72.51968357619372
 20
125.8954311464458
 30
0.0
  0
SPLINE
  5
7071
102
{ACAD_REACTORS
330
7171
102
}
330
2
100
AcDbEntity
  8
KIJUN
100
AcDbSpline
210
0.0
220
0.0
230
1.0
 70
     8
 71
     3
 72
    19
 73
    15
 74
     0
 42
0.0000000001
 43
0.0000000001
 40
0.0
 40
0.0
 40
0.0
 40
0.0
 40
3.821979905943105
 40
5.605928518232782
 40
6.712735788505744
 40
7.234318282144151
 40
8.866974538196238
 40
9.807290193132818
 40
10.91367976956165
 40
13.95512559354081
 40
16.36033612389755
 40
17.18495945864659
 40
21.69108605701957
 40
24.75793761682123
 40
24.75793761682123
 40
24.75793761682123
 40
24.75793761682123
 10
81.05837877743322
 20
111.4952384148366
 30
0.0
 10
80.09771881736368
 20
112.2606957763474
 30
0.0
 10
78.68866089476606
 20
113.3834382705484
 30
0.0
 10
79.22453122494769
 20
117.2042385928511
 30
0.0
 10
77.67055232820168
 20
115.7965972480393
 30
0.0
 10
77.20522148903441
 20
117.0631212793159
 30
0.0
 10
77.79714018026361
 20
118.1266260878078
 30
0.0
 10
76.64122443758748
 20
119.0371272469694
 30
0.0
 10
77.93831966643343
 20
121.3365961597451
 30
0.0
 10
76.15025816639549
 20
117.100772875333
 30
0.0
 10
73.25446586702797
 20
116.2705790397693
 30
0.0
 10
73.12791343163216
 20
119.2019486147129
 30
0.0
 10
74.14711024271088
 20
121.7059320610025
 30
0.0
 10
74.22067885530316
 20
124.2749184925439
 30
0.0
 10
74.25047215584736
 20
125.3152885926712
 30
0.0
  0
ELLIPSE
  5
7072
102
{ACAD_REACTORS
330
7171
102
}
330
2
100
AcDbEntity
  8
KIJUN
100
AcDbEllipse
 10
74.45525945471053
 20
128.8227308118887
 30
0.0
 11
-0.000000000002228
 21
3.5134615384575
 31
0.0
210
0.0
220
0.0
230
1.0
 40
0.9961685333333509
 41
4.712388980384058
 42
10.99557428756364
  0
ELLIPSE
  5
7073
102
{ACAD_REACTORS
330
7171
102
}
330
2
100
AcDbEntity
  8
KIJUN
100
AcDbEllipse
 10
81.0583787774331
 20
130.5988363912623
 30
0.0
 11
-0.000000000002228
 21
3.5134615384575
 31
0.0
210
0.0
220
0.0
230
1.0
 40
0.9961685333333509
 41
4.712388980384058
 42
10.99557428756364
  0
ELLIPSE
  5
7074
102
{ACAD_REACTORS
330
7171
102
}
330
2
100
AcDbEntity
  8
KIJUN
100
AcDbEllipse
 10
81.13153486487057
 20
122.7236944208578
 30
0.0
 11
0.0000000000011961
 21
2.388181348378841
 31
0.0
210
0.0
220
0.0
230
1.0
 40
0.9961685333333507
 41
1.989140895000342
 42
4.388293601029324
  0
ELLIPSE
  5
7075
102
{ACAD_REACTORS
330
7171
102
}
330
2
100
AcDbEntity
  8
KIJUN
100
AcDbEllipse
 10
81.0583787774331
 20
124.0433153378991
 30
0.0
 11
3.190915321004149
 21
0.0000000000001979
 31
0.0
210
0.0
220
0.0
230
1.0
 40
0.9533501233584731
 41
3.141592653589678
 42
9.424777960769265
  0
ELLIPSE
  5
7076
102
{ACAD_REACTORS
330
7171
102
}
330
2
100
AcDbEntity
  8
KIJUN
100
AcDbEllipse
 10
87.66149810015566
 20
128.8227308118889
 30
0.0
 11
-0.000000000002228
 21
3.5134615384575
 31
0.0
210
0.0
220
0.0
230
1.0
 40
0.9961685333333509
 41
4.712388980384058
 42
10.99557428756364
  0
LINE
  5
7077
102
{ACAD_REACTORS
330
7171
102
}
330
2
100
AcDbEntity
  8
KIJUN
100
AcDbLine
 10
61.05837976207111
 20
116.3212578386947
 30
0.0
 11
63.4725932055879
 21
84.61398760711356
 31
0.0
  0
SPLINE
  5
7078
102
{ACAD_REACTORS
330
7171
102
}
330
2
100
AcDbEntity
  8
KIJUN
100
AcDbSpline
210
0.0
220
0.0
230
1.0
 70
     8
 71
     3
 72
    12
 73
     8
 74
     0
 42
0.0000000001
 43
0.0000000001
 40
0.0
 40
0.0
 40
0.0
 40
0.0
 40
3.260899230007793
 40
5.608159436191471
 40
8.110321687288013
 40
11.2416621810641
 40
19.18041137738123
 40
19.18041137738123
 40
19.18041137738123
 40
19.18041137738123
 10
64.05837961437564
 20
83.19433476181011
 30
0.0
 10
64.8987727641542
 20
82.51799355920571
 30
0.0
 10
66.34409763947399
 20
81.35480848971125
 30
0.0
 10
69.17012140206913
 20
80.45735131772719
 30
0.0
 10
71.46383207895599
 20
82.2490091913801
 30
0.0
 10
74.08290881650301
 20
86.07122727287778
 30
0.0
 10
78.14518103415287
 20
86.14964041304828
 30
0.0
 10
81.0583787774331
 20
86.20587322334499
 30
0.0
  0
ELLIPSE
  5
7079
102
{ACAD_REACTORS
330
7171
102
}
330
2
100
AcDbEntity
  8
KIJUN
100
AcDbEllipse
 10
62.05837971283921
 20
83.19433476180988
 30
0.0
 11
0.0000000000018906
 21
2.00769230769
 31
0.0
210
0.0
220
0.0
230
1.0
 40
0.9961685333333509
 41
-1.570796326793958
 42
0.0000000000009452
  0
LINE
  5
707A
102
{ACAD_REACTORS
330
7171
102
}
330
2
100
AcDbEntity
  8
KIJUN
100
AcDbLine
 10
58.05837990976681
 20
85.2020270695
 30
0.0
 11
62.05837971283921
 21
85.20202706949987
 31
0.0
  0
LINE
  5
707B
102
{ACAD_REACTORS
330
7171
102
}
330
2
100
AcDbEntity
  8
KIJUN
100
AcDbLine
 10
64.05837961437541
 20
83.19433476180988
 30
0.0
 11
64.05837961437564
 21
62.11356553106465
 31
0.0
  0
LINE
  5
707C
102
{ACAD_REACTORS
330
7171
102
}
330
2
100
AcDbEntity
  8
KIJUN
100
AcDbLine
 10
120.5583768327729
 20
202.6520270693648
 30
0.0
 11
41.55838072209329
 21
202.6520270693648
 31
0.0
  0
LINE
  5
707D
102
{ACAD_REACTORS
330
7171
102
}
330
2
100
AcDbEntity
  8
KIJUN
100
AcDbLine
 10
120.558376832773
 20
194.6212578386047
 30
0.0
 11
41.55838072209351
 21
194.6212578386047
 31
0.0
  0
LINE
  5
707E
102
{ACAD_REACTORS
330
7171
102
}
330
2
100
AcDbEntity
  8
KIJUN
100
AcDbLine
 10
81.05837877743299
 20
187.5943347616897
 30
0.0
 11
41.05838074670923
 21
187.5943347616897
 31
0.0
  0
LINE
  5
707F
102
{ACAD_REACTORS
330
7171
102
}
330
2
100
AcDbEntity
  8
KIJUN
100
AcDbLine
 10
81.05837877743299
 20
180.5674116847747
 30
0.0
 11
41.05838074670912
 21
180.5674116847747
 31
0.0
  0
LINE
  5
7080
102
{ACAD_REACTORS
330
7171
102
}
330
2
100
AcDbEntity
  8
KIJUN
100
AcDbLine
 10
81.0583787774331
 20
175.5481809155497
 30
0.0
 11
48.05838040208581
 21
175.5481809155497
 31
0.0
  0
LINE
  5
7081
102
{ACAD_REACTORS
330
7171
102
}
330
2
100
AcDbEntity
  8
KIJUN
100
AcDbLine
 10
81.05837877743299
 20
168.5212578386348
 30
0.0
 11
49.5745518002283
 21
168.5212578386347
 31
0.0
  0
LINE
  5
7082
102
{ACAD_REACTORS
330
7171
102
}
330
2
100
AcDbEntity
  8
KIJUN
100
AcDbLine
 10
60.79719225805861
 20
161.4943347617199
 30
0.0
 11
52.83869670329039
 21
161.4943347617197
 31
0.0
  0
ELLIPSE
  5
7083
102
{ACAD_REACTORS
330
7171
102
}
330
2
100
AcDbEntity
  8
KIJUN
100
AcDbEllipse
 10
42.07981902376618
 20
160.7355392564553
 30
0.0
 11
0.0000000000006521
 21
10.82688110683596
 31
0.0
210
0.0
220
0.0
230
1.0
 40
0.9961685333333496
 41
-1.500654422299577
 42
-0.7682756102745215
  0
LINE
  5
7084
102
{ACAD_REACTORS
330
7171
102
}
330
2
100
AcDbEntity
  8
KIJUN
100
AcDbLine
 10
52.45289473695111
 20
163.7005611209937
 30
0.0
 11
49.55838032823797
 21
162.0229848704652
 31
0.0
  0
ELLIPSE
  5
7085
102
{ACAD_REACTORS
330
7171
102
}
330
2
100
AcDbEntity
  8
KIJUN
100
AcDbEllipse
 10
41.51085886189849
 20
170.4462685252379
 30
0.0
 11
0.0000000000004756
 21
8.320454092711043
 31
0.0
210
0.0
220
0.0
230
1.0
 40
0.9961685333333491
 41
4.47891478359352
 42
5.372465319602964
  0
LINE
  5
7086
102
{ACAD_REACTORS
330
7171
102
}
330
2
100
AcDbEntity
  8
KIJUN
100
AcDbLine
 10
41.05838074670912
 20
187.5943347616897
 30
0.0
 11
41.05838074670912
 21
180.5674116847747
 31
0.0
  0
LINE
  5
7087
102
{ACAD_REACTORS
330
7171
102
}
330
2
100
AcDbEntity
  8
KIJUN
100
AcDbLine
 10
48.05838040208581
 20
175.5481809155497
 30
0.0
 11
46.34273321164562
 21
180.5674116847747
 31
0.0
  0
LINE
  5
7088
102
{ACAD_REACTORS
330
7171
102
}
330
2
100
AcDbEntity
  8
KIJUN
100
AcDbLine
 10
49.0583803528538
 20
187.5943347616897
 30
0.0
 11
49.0583803528538
 21
180.5674116847747
 31
0.0
  0
LINE
  5
7089
102
{ACAD_REACTORS
330
7171
102
}
330
2
100
AcDbEntity
  8
KIJUN
100
AcDbLine
 10
53.0583801559262
 20
187.5943347616897
 30
0.0
 11
53.0583801559262
 21
180.5674116847747
 31
0.0
  0
LINE
  5
708B
102
{ACAD_REACTORS
330
7171
102
}
330
2
100
AcDbEntity
  8
KIJUN
100
AcDbLine
 10
41.55838072209329
 20
202.6520270693648
 30
0.0
 11
41.55838072209317
 21
194.6212578386047
 31
0.0
  0
LINE
  5
708C
102
{ACAD_REACTORS
330
7171
102
}
330
2
100
AcDbEntity
  8
KIJUN
100
AcDbLine
 10
85.0583785805056
 20
187.5943347616897
 30
0.0
 11
85.0583785805056
 21
180.5674116847747
 31
0.0
  0
LINE
  5
708D
102
{ACAD_REACTORS
330
7171
102
}
330
2
100
AcDbEntity
  8
KIJUN
100
AcDbLine
 10
89.058378383578
 20
187.5943347616897
 30
0.0
 11
89.058378383578
 21
180.5674116847747
 31
0.0
  0
LINE
  5
708E
102
{ACAD_REACTORS
330
7171
102
}
330
2
100
AcDbEntity
  8
KIJUN
100
AcDbLine
 10
97.05837798972281
 20
187.5943347616897
 30
0.0
 11
97.05837798972281
 21
180.5674116847747
 31
0.0
  0
LINE
  5
708F
102
{ACAD_REACTORS
330
7171
102
}
330
2
100
AcDbEntity
  8
KIJUN
100
AcDbLine
 10
101.0583777927952
 20
187.5943347616897
 30
0.0
 11
101.0583777927952
 21
180.5674116847747
 31
0.0
  0
SPLINE
  5
7090
102
{ACAD_REACTORS
330
7171
102
}
330
2
100
AcDbEntity
  8
KIJUN
100
AcDbSpline
210
0.0
220
0.0
230
1.0
 70
     8
 71
     3
 72
    13
 73
     9
 74
     0
 42
0.0000000001
 43
0.0000000001
 40
0.0
 40
0.0
 40
0.0
 40
0.0
 40
2.544562184603958
 40
6.785023881583449
 40
11.03840745228201
 40
13.82360745422712
 40
18.43316481107791
 40
20.41368415717923
 40
20.41368415717923
 40
20.41368415717923
 40
20.41368415717923
 10
100.9874794520205
 20
167.005445866777
 30
0.0
 10
100.195585389383
 20
167.3917021245717
 30
0.0
 10
98.08401580024538
 20
168.4216466664675
 30
0.0
 10
94.42463772151338
 20
166.6721221470733
 30
0.0
 10
90.61891495728387
 20
167.3060266587533
 30
0.0
 10
86.94013063482978
 20
168.4585233177051
 30
0.0
 10
83.62699432400964
 20
168.4762415446437
 30
0.0
 10
81.65194225348249
 20
167.487460817827
 30
0.0
 10
81.0583787774331
 20
167.1903020066654
 30
0.0
  0
SPLINE
  5
7091
102
{ACAD_REACTORS
330
7171
102
}
330
2
100
AcDbEntity
  8
KIJUN
100
AcDbSpline
210
0.0
220
0.0
230
1.0
 70
     8
 71
     3
 72
    13
 73
     9
 74
     0
 42
0.0000000001
 43
0.0000000001
 40
0.0
 40
0.0
 40
0.0
 40
0.0
 40
2.544562184603958
 40
6.785023881583449
 40
11.03840745228201
 40
13.82360745422712
 40
18.43316481107791
 40
20.41368415717923
 40
20.41368415717923
 40
20.41368415717923
 40
20.41368415717923
 10
100.9874794520205
 20
159.9986082720425
 30
0.0
 10
100.195585389383
 20
159.6123520142478
 30
0.0
 10
98.08401580024538
 20
158.582407472352
 30
0.0
 10
94.42463772151338
 20
160.3319319917462
 30
0.0
 10
90.61891495728387
 20
159.6980274800662
 30
0.0
 10
86.94013063482978
 20
158.5455308211144
 30
0.0
 10
83.62699432400964
 20
158.5278125941757
 30
0.0
 10
81.65194225348249
 20
159.5165933209925
 30
0.0
 10
81.0583787774331
 20
159.813752132154
 30
0.0
  0
ELLIPSE
  5
7092
102
{ACAD_REACTORS
330
7171
102
}
330
2
100
AcDbEntity
  8
KIJUN
100
AcDbEllipse
 10
100.0663046044167
 20
163.3699273449305
 30
0.0
 11
-0.0000000000000458
 21
2.77285255297671
 31
0.0
210
0.0
220
0.0
230
-1.0
 40
0.2198534608158724
 41
0.0000000000000744
 42
6.28318530717966
  0
ELLIPSE
  5
7093
102
{ACAD_REACTORS
330
7171
102
}
330
2
100
AcDbEntity
  8
KIJUN
100
AcDbEllipse
 10
88.83732527332393
 20
163.5020270694097
 30
0.0
 11
0.0000000000002636
 21
12.69007386958958
 31
0.0
210
0.0
220
0.0
230
1.0
 40
0.9961685333333464
 41
4.432680443796608
 42
4.992097516972811
  0
ELLIPSE
  5
7094
102
{ACAD_REACTORS
330
7171
102
}
330
2
100
AcDbEntity
  8
KIJUN
100
AcDbEllipse
 10
116.0548028268805
 20
165.6722089607301
 30
0.0
 11
-0.0000000000200952
 21
34.05653680564615
 31
0.0
210
0.0
220
0.0
230
1.0
 40
0.9961685333333464
 41
1.76665843697254
 42
2.171002663917512
  0
ELLIPSE
  5
7095
102
{ACAD_REACTORS
330
7171
102
}
330
2
100
AcDbEntity
  8
KIJUN
100
AcDbEllipse
 10
100.3908912392641
 20
154.8284390247638
 30
0.0
 11
-0.0000000000004875
 21
18.17690874634506
 31
0.0
210
0.0
220
0.0
230
1.0
 40
0.9961685333333507
 41
1.336724785839584
 42
2.145761010162107
  0
SPLINE
  5
7096
102
{ACAD_REACTORS
330
7171
102
}
330
2
100
AcDbEntity
  8
KIJUN
100
AcDbSpline
210
0.0
220
0.0
230
1.0
 70
     8
 71
     3
 72
    18
 73
    14
 74
     0
 42
0.0000000001
 43
0.0000000001
 40
0.0
 40
0.0
 40
0.0
 40
0.0
 40
3.825922407713349
 40
8.549259650730249
 40
12.97648578274998
 40
15.70020988700712
 40
20.46640177440462
 40
24.47979457291631
 40
26.93176476558288
 40
29.68451038805511
 40
32.48709240011283
 40
37.85912220621354
 40
40.36492013946511
 40
40.36492013946511
 40
40.36492013946511
 40
40.36492013946511
 10
85.17696314348677
 20
158.6312674006641
 30
0.0
 10
85.4300722140355
 20
157.3788590798449
 30
0.0
 10
85.99566004710645
 20
154.5802754227818
 30
0.0
 10
88.17745977910739
 20
150.5808298157182
 30
0.0
 10
92.36781001365732
 20
149.0493020354603
 30
0.0
 10
96.17750960641213
 20
150.5216096556367
 30
0.0
 10
100.2828686810434
 20
148.6994614382455
 30
0.0
 10
101.8754315123733
 20
145.4175200278441
 30
0.0
 10
104.0395445850269
 20
142.7049453593867
 30
0.0
 10
101.8266957930393
 20
139.9217304306902
 30
0.0
 10
98.04282253488786
 20
140.6781848250412
 30
0.0
 10
94.48208243721131
 20
140.1971790760713
 30
0.0
 10
91.96637066087996
 20
141.0392739262881
 30
0.0
 10
91.16616715575659
 20
141.3071294322842
 30
0.0
  0
ELLIPSE
  5
7097
102
{ACAD_REACTORS
330
7171
102
}
330
2
100
AcDbEntity
  8
KIJUN
100
AcDbEllipse
 10
99.79868009775087
 20
159.4999110837191
 30
0.0
 11
0.0000000000029782
 21
15.41069565544174
 31
0.0
210
0.0
220
0.0
230
1.0
 40
0.9961685333333489
 41
2.522845605877837
 42
3.063099571855631
  0
LINE
  5
7098
102
{ACAD_REACTORS
330
7171
102
}
330
2
100
AcDbEntity
  8
KIJUN
100
AcDbLine
 10
104.489055923742
 20
161.4943347617197
 30
0.0
 11
102.922332723073
 21
144.073736860717
 31
0.0
  0
LINE
  5
7099
102
{ACAD_REACTORS
330
7171
102
}
330
2
100
AcDbEntity
  8
KIJUN
100
AcDbLine
 10
102.6620965270637
 20
141.1801369395389
 30
0.0
 11
102.4352744707417
 21
138.6580731591739
 31
0.0
  0
LINE
  5
709A
102
{ACAD_REACTORS
330
7171
102
}
330
2
100
AcDbEntity
  8
KIJUN
100
AcDbLine
 10
59.4546610278024
 20
141.1801369395389
 30
0.0
 11
59.68148308412444
 21
138.6580731591739
 31
0.0
  0
LINE
  5
709B
102
{ACAD_REACTORS
330
7171
102
}
330
2
100
AcDbEntity
  8
KIJUN
100
AcDbLine
 10
57.62770163112413
 20
161.4943347617197
 30
0.0
 11
59.19442483179314
 21
144.073736860717
 31
0.0
  0
ELLIPSE
  5
709C
102
{ACAD_REACTORS
330
7171
102
}
330
2
100
AcDbEntity
  8
KIJUN
100
AcDbEllipse
 10
62.31807745711534
 20
159.4999110837191
 30
0.0
 11
-0.0000000000005119
 21
15.41069565544174
 31
0.0
210
0.0
220
0.0
230
0.9999999999999998
 40
0.9961685333333491
 41
3.220085735324115
 42
3.760339701301909
  0
SPLINE
  5
709D
102
{ACAD_REACTORS
330
7171
102
}
330
2
100
AcDbEntity
  8
KIJUN
100
AcDbSpline
210
0.0
220
0.0
230
1.0
 70
     8
 71
     3
 72
    18
 73
    14
 74
     0
 42
0.0000000001
 43
0.0000000001
 40
0.0
 40
0.0
 40
0.0
 40
0.0
 40
3.825922407713349
 40
8.549259650730249
 40
12.97648578274998
 40
15.70020988700712
 40
20.46640177440462
 40
24.47979457291631
 40
26.93176476558288
 40
29.68451038805511
 40
32.48709240011283
 40
37.85912220621354
 40
40.36492013946511
 40
40.36492013946511
 40
40.36492013946511
 40
40.36492013946511
 10
76.93979441137944
 20
158.6312674006641
 30
0.0
 10
76.68668534083069
 20
157.3788590798449
 30
0.0
 10
76.12109750775974
 20
154.5802754227818
 30
0.0
 10
73.9392977757588
 20
150.5808298157182
 30
0.0
 10
69.74894754120888
 20
149.0493020354603
 30
0.0
 10
65.93924794845408
 20
150.5216096556367
 30
0.0
 10
61.8338888738228
 20
148.6994614382455
 30
0.0
 10
60.24132604249285
 20
145.4175200278441
 30
0.0
 10
58.07721296983925
 20
142.7049453593867
 30
0.0
 10
60.29006176182686
 20
139.9217304306902
 30
0.0
 10
64.07393501997835
 20
140.6781848250412
 30
0.0
 10
67.63467511765489
 20
140.1971790760713
 30
0.0
 10
70.15038689398625
 20
141.0392739262881
 30
0.0
 10
70.9505903991096
 20
141.3071294322842
 30
0.0
  0
ELLIPSE
  5
709E
102
{ACAD_REACTORS
330
7171
102
}
330
2
100
AcDbEntity
  8
KIJUN
100
AcDbEllipse
 10
61.72586631560204
 20
154.8284390247638
 30
0.0
 11
-0.0000000000005672
 21
18.17690874634509
 31
0.0
210
0.0
220
0.0
230
1.0
 40
0.9961685333333491
 41
4.13742429701742
 42
4.946460521339943
  0
ELLIPSE
  5
709F
102
{ACAD_REACTORS
330
7171
102
}
330
2
100
AcDbEntity
  8
KIJUN
100
AcDbEllipse
 10
46.06195472798569
 20
165.6722089607301
 30
0.0
 11
0.0000000000155962
 21
34.05653680564611
 31
0.0
210
0.0
220
0.0
230
1.0
 40
0.9961685333333477
 41
4.11218264326194
 42
4.516526870206913
  0
ELLIPSE
  5
70A0
102
{ACAD_REACTORS
330
7171
102
}
330
2
100
AcDbEntity
  8
KIJUN
100
AcDbEllipse
 10
74.05837912205652
 20
142.9231809155874
 30
0.0
 11
-0.000000000002228
 21
3.5134615384575
 31
0.0
210
0.0
220
0.0
230
1.0
 40
0.9961685333333509
 41
4.712388980384058
 42
10.99557428756364
  0
ELLIPSE
  5
70A1
102
{ACAD_REACTORS
330
7171
102
}
330
2
100
AcDbEntity
  8
KIJUN
100
AcDbEllipse
 10
81.05837877743322
 20
142.9231809155874
 30
0.0
 11
-0.000000000002228
 21
3.5134615384575
 31
0.0
210
0.0
220
0.0
230
1.0
 40
0.9961685333333509
 41
4.712388980384058
 42
10.99557428756364
  0
ELLIPSE
  5
70A2
102
{ACAD_REACTORS
330
7171
102
}
330
2
100
AcDbEntity
  8
KIJUN
100
AcDbEllipse
 10
88.0583784328099
 20
142.9231809155874
 30
0.0
 11
-0.000000000002228
 21
3.5134615384575
 31
0.0
210
0.0
220
0.0
230
1.0
 40
0.9961685333333509
 41
4.712388980384058
 42
10.99557428756364
  0
ELLIPSE
  5
70A3
102
{ACAD_REACTORS
330
7171
102
}
330
2
100
AcDbEntity
  8
KIJUN
100
AcDbEllipse
 10
73.27943228154227
 20
163.5020270694097
 30
0.0
 11
0.0000000000010018
 21
12.69007386958948
 31
0.0
210
0.0
220
0.0
230
1.0
 40
0.9961685333333546
 41
1.291087790206872
 42
1.850504863383077
  0
ELLIPSE
  5
70A4
102
{ACAD_REACTORS
330
7171
102
}
330
2
100
AcDbEntity
  8
KIJUN
100
AcDbEllipse
 10
62.05045295044944
 20
163.3699273449305
 30
0.0
 11
-0.0000000000000016
 21
2.772852552976708
 31
0.0
210
0.0
220
0.0
230
1.0
 40
0.2198534608158708
 41
-0.0000000000000033
 42
6.283185307179582
  0
SPLINE
  5
70A5
102
{ACAD_REACTORS
330
7171
102
}
330
2
100
AcDbEntity
  8
KIJUN
100
AcDbSpline
210
0.0
220
0.0
230
1.0
 70
     8
 71
     3
 72
    13
 73
     9
 74
     0
 42
0.0000000001
 43
0.0000000001
 40
0.0
 40
0.0
 40
0.0
 40
0.0
 40
2.544562184603958
 40
6.785023881583449
 40
11.03840745228201
 40
13.82360745422712
 40
18.43316481107791
 40
20.41368415717923
 40
20.41368415717923
 40
20.41368415717923
 40
20.41368415717923
 10
61.12927810284571
 20
159.9986082720425
 30
0.0
 10
61.92117216548317
 20
159.6123520142478
 30
0.0
 10
64.03274175462081
 20
158.582407472352
 30
0.0
 10
67.69211983335281
 20
160.3319319917462
 30
0.0
 10
71.49784259758231
 20
159.6980274800662
 30
0.0
 10
75.17662692003641
 20
158.5455308211144
 30
0.0
 10
78.48976323085657
 20
158.5278125941757
 30
0.0
 10
80.4648153013837
 20
159.5165933209925
 30
0.0
 10
81.0583787774331
 20
159.813752132154
 30
0.0
  0
SPLINE
  5
70A6
102
{ACAD_REACTORS
330
7171
102
}
330
2
100
AcDbEntity
  8
KIJUN
100
AcDbSpline
210
0.0
220
0.0
230
1.0
 70
     8
 71
     3
 72
    13
 73
     9
 74
     0
 42
0.0000000001
 43
0.0000000001
 40
0.0
 40
0.0
 40
0.0
 40
0.0
 40
2.544562184603958
 40
6.785023881583449
 40
11.03840745228201
 40
13.82360745422712
 40
18.43316481107791
 40
20.41368415717923
 40
20.41368415717923
 40
20.41368415717923
 40
20.41368415717923
 10
61.12927810284571
 20
167.005445866777
 30
0.0
 10
61.92117216548317
 20
167.3917021245717
 30
0.0
 10
64.03274175462081
 20
168.4216466664675
 30
0.0
 10
67.69211983335281
 20
166.6721221470733
 30
0.0
 10
71.49784259758231
 20
167.3060266587533
 30
0.0
 10
75.17662692003641
 20
168.4585233177051
 30
0.0
 10
78.48976323085657
 20
168.4762415446437
 30
0.0
 10
80.4648153013837
 20
167.487460817827
 30
0.0
 10
81.0583787774331
 20
167.1903020066654
 30
0.0
  0
LINE
  5
70A7
102
{ACAD_REACTORS
330
7171
102
}
330
2
100
AcDbEntity
  8
KIJUN
100
AcDbLine
 10
61.058379762071
 20
187.5943347616897
 30
0.0
 11
61.058379762071
 21
180.5674116847747
 31
0.0
  0
LINE
  5
70A8
102
{ACAD_REACTORS
330
7171
102
}
330
2
100
AcDbEntity
  8
KIJUN
100
AcDbLine
 10
65.0583795651434
 20
187.5943347616897
 30
0.0
 11
65.0583795651434
 21
180.5674116847747
 31
0.0
  0
LINE
  5
70A9
102
{ACAD_REACTORS
330
7171
102
}
330
2
100
AcDbEntity
  8
KIJUN
100
AcDbLine
 10
73.05837917128819
 20
187.5943347616897
 30
0.0
 11
73.05837917128819
 21
180.5674116847747
 31
0.0
  0
LINE
  5
70AA
102
{ACAD_REACTORS
330
7171
102
}
330
2
100
AcDbEntity
  8
KIJUN
100
AcDbLine
 10
77.05837897436059
 20
187.5943347616897
 30
0.0
 11
77.05837897436059
 21
180.5674116847747
 31
0.0
  0
LINE
  5
70AB
102
{ACAD_REACTORS
330
7171
102
}
330
2
100
AcDbEntity
  8
KIJUN
100
AcDbLine
 10
120.5583768327729
 20
202.6520270693648
 30
0.0
 11
120.558376832773
 21
194.6212578386047
 31
0.0
  0
LINE
  5
70AD
102
{ACAD_REACTORS
330
7171
102
}
330
2
100
AcDbEntity
  8
KIJUN
100
AcDbLine
 10
109.05837739894
 20
187.5943347616897
 30
0.0
 11
109.05837739894
 21
180.5674116847747
 31
0.0
  0
LINE
  5
70AE
102
{ACAD_REACTORS
330
7171
102
}
330
2
100
AcDbEntity
  8
KIJUN
100
AcDbLine
 10
113.0583772020124
 20
187.5943347616897
 30
0.0
 11
113.0583772020124
 21
180.5674116847747
 31
0.0
  0
LINE
  5
70AF
102
{ACAD_REACTORS
330
7171
102
}
330
2
100
AcDbEntity
  8
KIJUN
100
AcDbLine
 10
114.0583771527803
 20
175.5481809155497
 30
0.0
 11
115.7740243432205
 21
180.5674116847747
 31
0.0
  0
LINE
  5
70B0
102
{ACAD_REACTORS
330
7171
102
}
330
2
100
AcDbEntity
  8
KIJUN
100
AcDbLine
 10
121.058376808157
 20
187.5943347616897
 30
0.0
 11
121.058376808157
 21
180.5674116847747
 31
0.0
  0
ELLIPSE
  5
70B1
102
{ACAD_REACTORS
330
7171
102
}
330
2
100
AcDbEntity
  8
KIJUN
100
AcDbEllipse
 10
120.6058986929677
 20
170.4462685252379
 30
0.0
 11
0.0000000000008916
 21
8.320454092711051
 31
0.0
210
0.0
220
0.0
230
1.0
 40
0.9961685333333479
 41
0.9107199875767864
 42
1.804270523586228
  0
LINE
  5
70B2
102
{ACAD_REACTORS
330
7171
102
}
330
2
100
AcDbEntity
  8
KIJUN
100
AcDbLine
 10
109.6638628179151
 20
163.7005611209937
 30
0.0
 11
112.5583772266282
 21
162.0229848704652
 31
0.0
  0
ELLIPSE
  5
70B3
102
{ACAD_REACTORS
330
7171
102
}
330
2
100
AcDbEntity
  8
KIJUN
100
AcDbEllipse
 10
120.0369385311
 20
160.7355392564553
 30
0.0
 11
-0.0000000000050718
 21
10.82688110683591
 31
0.0
210
0.0
220
0.0
230
1.0
 40
0.9961685333333536
 41
0.76827561027411
 42
1.50065442229917
  0
DIMENSION
  5
70B4
330
2
100
AcDbEntity
  8
SUNPOU
100
AcDbDimension
  2
*D21
 10
124.5583787773831
 20
230.4168347846979
 30
0.0
 11
81.0583787774331
 21
235.916834784698
 31
0.0
 70
    32
 71
     5
 42
86.99999999989998
  3
STANDARD
100
AcDbAlignedDimension
 13
37.5583787774831
 23
191.3136885161079
 33
0.0
 14
124.5583787773831
 24
191.3136885161079
 34
0.0
100
AcDbRotatedDimension
1001
ACAD
1000
DSTYLE
1002
{
1070
    41
1040
2.0
1070
    42
1040
10.0
1070
    44
1040
0.0
1070
    73
1070
     0
1070
    74
1070
     0
1070
    77
1070
     1
1070
   140
1040
5.0
1070
   141
1040
0.0
1070
   146
1040
0.064286
1070
   147
1040
3.0
1070
   176
1070
    60
1070
   177
1070
    70
1070
   178
1070
    60
1070
   271
1070
     0
1070
   272
1070
     0
1070
   340
1005
1C
1070
   342
1005
109
1002
}
  0
DIMENSION
  5
70C1
330
2
100
AcDbEntity
  8
SUNPOU
100
AcDbDimension
  2
*D22
 10
14.88600095446903
 20
32.65202706936481
 30
0.0
 11
9.386000954469029
 21
117.6520270693648
 31
0.0
 70
    32
 71
     5
 42
170.0
  3
STANDARD
100
AcDbAlignedDimension
 13
41.55838072209329
 23
202.6520270693648
 33
0.0
 14
81.04942870550873
 24
32.65202706936478
 34
0.0
 50
90.0
100
AcDbRotatedDimension
1001
ACAD
1000
DSTYLE
1002
{
1070
    41
1040
2.0
1070
    42
1040
10.0
1070
    44
1040
0.0
1070
    73
1070
     0
1070
    74
1070
     0
1070
    77
1070
     1
1070
   140
1040
5.0
1070
   141
1040
0.0
1070
   146
1040
0.064286
1070
   147
1040
3.0
1070
   176
1070
    60
1070
   177
1070
    70
1070
   178
1070
    60
1070
   271
1070
     0
1070
   272
1070
     0
1070
   340
1005
1C
1070
   342
1005
109
1002
}
  0
ARC
  5
70F4
102
{ACAD_REACTORS
330
7171
102
}
330
2
100
AcDbEntity
  8
KIJUN
100
AcDbCircle
 10
42.57196879003187
 20
188.8082401531841
 30
0.0
 40
5.900723293163381
100
AcDbArc
 50
99.89095185303547
 51
138.4253612909918
  0
ARC
  5
70F5
102
{ACAD_REACTORS
330
7171
102
}
330
2
100
AcDbEntity
  8
KIJUN
100
AcDbCircle
 10
42.58318985706707
 20
192.6025475600881
 30
0.0
 40
5.235192284632135
100
AcDbArc
 50
208.8129632923847
 51
253.0665144072567
  0
ARC
  5
70F6
102
{ACAD_REACTORS
330
7171
102
}
330
2
100
AcDbEntity
  8
KIJUN
100
AcDbCircle
 10
39.51727030058844
 20
191.3136885161079
 30
0.0
 40
1.958891523105341
100
AcDbArc
 50
133.9522179358253
 51
219.0557839847521
  0
ARC
  5
70F8
102
{ACAD_REACTORS
330
7171
102
}
330
2
100
AcDbEntity
  8
KIJUN
100
AcDbCircle
 10
119.5447887648343
 20
188.8082401531841
 30
0.0
 40
5.900723293163381
100
AcDbArc
 50
41.57463870900861
 51
80.10904814696392
  0
ARC
  5
70F9
102
{ACAD_REACTORS
330
7171
102
}
330
2
100
AcDbEntity
  8
KIJUN
100
AcDbCircle
 10
119.5335676977991
 20
192.6025475600881
 30
0.0
 40
5.235192284632135
100
AcDbArc
 50
286.933485592743
 51
331.1870367076152
  0
ARC
  5
70FA
102
{ACAD_REACTORS
330
7171
102
}
330
2
100
AcDbEntity
  8
KIJUN
100
AcDbCircle
 10
122.5994872542777
 20
191.3136885161079
 30
0.0
 40
1.958891523105341
100
AcDbArc
 50
320.9442160152482
 51
46.04778206417409
  0
ARC
  5
711F
102
{ACAD_REACTORS
330
7171
102
}
330
2
100
AcDbEntity
  8
KIJUN
100
AcDbCircle
 10
51.23120811219306
 20
20.25226637044956
 30
0.0
 40
31.98199301767861
100
AcDbArc
 50
66.60876055890162
 51
68.7879749216081
  0
ARC
  5
7121
102
{ACAD_REACTORS
330
7171
102
}
330
2
100
AcDbEntity
  8
KIJUN
100
AcDbCircle
 10
60.65806080182937
 20
41.58309603226804
 30
0.0
 40
8.663644408899743
100
AcDbArc
 50
36.08637773807216
 51
67.82312575151502
  0
ARC
  5
7122
102
{ACAD_REACTORS
330
7171
102
}
330
2
100
AcDbEntity
  8
KIJUN
100
AcDbCircle
 10
49.11967509022878
 20
34.35039474326659
 30
0.0
 40
22.26857542142512
100
AcDbArc
 50
18.04293888151228
 51
33.63826066552405
  0
ARC
  5
7123
102
{ACAD_REACTORS
330
7171
102
}
330
2
100
AcDbEntity
  8
KIJUN
100
AcDbCircle
 10
81.04942870550873
 20
43.67982453083249
 30
0.0
 40
11.02779746146771
100
AcDbArc
 50
192.7413973576821
 51
270.0232503980723
  0
ARC
  5
7124
102
{ACAD_REACTORS
330
7171
102
}
330
2
100
AcDbEntity
  8
KIJUN
100
AcDbCircle
 10
110.8765993707487
 20
20.25226637044956
 30
0.0
 40
31.98199301767861
100
AcDbArc
 50
111.2120250783919
 51
113.3912394410977
  0
ARC
  5
7125
102
{ACAD_REACTORS
330
7171
102
}
330
2
100
AcDbEntity
  8
KIJUN
100
AcDbCircle
 10
101.4497466811124
 20
41.58309603226804
 30
0.0
 40
8.663644408899743
100
AcDbArc
 50
112.1768742484853
 51
143.9136222619277
  0
ARC
  5
7126
102
{ACAD_REACTORS
330
7171
102
}
330
2
100
AcDbEntity
  8
KIJUN
100
AcDbCircle
 10
112.988132392713
 20
34.35039474326659
 30
0.0
 40
22.26857542142512
100
AcDbArc
 50
146.3617393344756
 51
161.9570611184876
  0
ARC
  5
7127
102
{ACAD_REACTORS
330
7171
102
}
330
2
100
AcDbEntity
  8
KIJUN
100
AcDbCircle
 10
81.0583787774331
 20
43.67982453083249
 30
0.0
 40
11.02779746146771
100
AcDbArc
 50
269.9767496019272
 51
347.2586026423177
  0
ENDSEC
  0
SECTION
  2
OBJECTS
  0
DICTIONARY
  5
1A
330
0
100
AcDbDictionary
281
     1
  3
ACAD_COLOR
350
144
  3
ACAD_GROUP
350
18
  3
ACAD_LAYOUT
350
58
  3
ACAD_MATERIAL
350
143
  3
ACAD_MLINESTYLE
350
19
  3
ACAD_PLOTSETTINGS
350
59
  3
ACAD_PLOTSTYLENAME
350
56
  3
ACAD_TABLESTYLE
350
145
  3
ACDBHEADERROUNDTRIPXREC
350
718A
  3
AcDbVariableDictionary
350
1D1
  0
DICTIONARY
  5
1B4
330
A
100
AcDbDictionary
280
     1
281
     1
  3
ACAD_LAYERFILTERS
360
1A2A
  3
ACLYDICTIONARY
360
1A29
  0
DICTIONARY
  5
D13
330
2
100
AcDbDictionary
280
     1
281
     1
  3
ACAD_SORTENTS
360
D14
  0
DICTIONARY
  5
144
102
{ACAD_REACTORS
330
1A
102
}
330
1A
100
AcDbDictionary
281
     1
  0
DICTIONARY
  5
18
102
{ACAD_REACTORS
330
1A
102
}
330
1A
100
AcDbDictionary
281
     1
  3
*A1
350
E0D
  3
*A10
350
1555
  3
*A11
350
2A17
  3
*A12
350
31DF
  3
*A13
350
17BC
  3
*A14
350
34BB
  3
*A15
350
45E5
  3
*A16
350
26DD
  3
*A17
350
46A5
  3
*A18
350
4781
  3
*A19
350
48BA
  3
*A2
350
422E
  3
*A20
350
4A53
  3
*A21
350
1A98
  3
*A22
350
3695
  3
*A23
350
32E4
  3
*A24
350
4B49
  3
*A25
350
4C3E
  3
*A26
350
4CEC
  3
*A27
350
4D76
  3
*A28
350
3988
  3
*A29
350
3C81
  3
*A3
350
4407
  3
*A30
350
4E16
  3
*A31
350
4EE5
  3
*A32
350
4F64
  3
*A33
350
5011
  3
*A34
350
2C6B
  3
*A35
350
22C8
  3
*A36
350
519C
  3
*A37
350
52B0
  3
*A38
350
36C9
  3
*A39
350
5396
  3
*A4
350
265A
  3
*A40
350
275E
  3
*A41
350
5464
  3
*A42
350
556A
  3
*A43
350
213E
  3
*A44
350
57BF
  3
*A45
350
3349
  3
*A46
350
58EE
  3
*A47
350
59A8
  3
*A48
350
1EFE
  3
*A49
350
382B
  3
*A5
350
4516
  3
*A50
350
2573
  3
*A51
350
3878
  3
*A52
350
2905
  3
*A53
350
5BE4
  3
*A54
350
3E5C
  3
*A55
350
3181
  3
*A56
350
24D6
  3
*A57
350
2B84
  3
*A58
350
5D9C
  3
*A59
350
5F2D
  3
*A6
350
307D
  3
*A60
350
6143
  3
*A61
350
241A
  3
*A62
350
63A1
  3
*A63
350
6541
  3
*A64
350
2EE1
  3
*A65
350
35A5
  3
*A66
350
401B
  3
*A67
350
2037
  3
*A68
350
6671
  3
*A69
350
67AB
  3
*A7
350
FF8
  3
*A70
350
1CBC
  3
*A71
350
2F81
  3
*A72
350
6951
  3
*A73
350
6B05
  3
*A74
350
6BE0
  3
*A75
350
6C6A
  3
*A76
350
6D95
  3
*A77
350
3A25
  3
*A78
350
6EED
  3
*A79
350
7171
  3
*A8
350
2D78
  3
*A80
350
3467
  3
*A9
350
136A
  0
DICTIONARY
  5
58
102
{ACAD_REACTORS
330
1A
102
}
330
1A
100
AcDbDictionary
281
     1
  3
Model
350
5A
  3
ﾚｲｱｳﾄ1
350
5B
  0
DICTIONARY
  5
143
102
{ACAD_REACTORS
330
1A
102
}
330
1A
100
AcDbDictionary
281
     1
  0
DICTIONARY
  5
19
102
{ACAD_REACTORS
330
1A
102
}
330
1A
100
AcDbDictionary
281
     1
  3
STANDARD
350
1D
  0
DICTIONARY
  5
59
102
{ACAD_REACTORS
330
1A
102
}
330
1A
100
AcDbDictionary
281
     1
  0
ACDBDICTIONARYWDFLT
  5
56
102
{ACAD_REACTORS
330
1A
102
}
330
1A
100
AcDbDictionary
281
     1
  3
Normal
350
57
100
AcDbDictionaryWithDefault
340
57
  0
DICTIONARY
  5
145
102
{ACAD_REACTORS
330
1A
102
}
330
1A
100
AcDbDictionary
281
     1
  3
Standard
350
146
  0
DICTIONARY
  5
718A
102
{ACAD_REACTORS
330
1A
102
}
330
1A
100
AcDbDictionary
281
     1
  0
DICTIONARY
  5
1D1
102
{ACAD_REACTORS
330
1A
102
}
330
1A
100
AcDbDictionary
281
     1
  3
CTABLESTYLE
350
1D2
  3
DIMASSOC
350
D03
  3
PROJECTNAME
350
D04
  0
DICTIONARY
  5
1A2A
102
{ACAD_REACTORS
330
1B4
102
}
330
1B4
100
AcDbDictionary
281
     1
  0
DICTIONARY
  5
1A29
102
{ACAD_REACTORS
330
1B4
102
}
330
1B4
100
AcDbDictionary
281
     1
1001
ACAD
1000
<All
  0
SORTENTSTABLE
  5
D14
102
{ACAD_REACTORS
330
D13
102
}
330
D13
100
AcDbSortentsTable
330
2
331
7098
  5
7098
331
7061
  5
7061
331
70A0
  5
70A0
331
7069
  5
7069
331
702A
  5
702A
331
70A8
  5
70A8
331
20
  5
20
331
70B0
  5
70B0
331
7071
  5
7071
331
703A
  5
703A
331
7079
  5
7079
331
7081
  5
7081
331
704A
  5
704A
331
7089
  5
7089
331
7052
  5
7052
331
7091
  5
7091
331
705A
  5
705A
331
7099
  5
7099
331
7062
  5
7062
331
70A1
  5
70A1
331
702B
  5
702B
331
706A
  5
706A
331
7033
  5
7033
331
70A9
  5
70A9
331
21
  5
21
331
70B1
  5
70B1
331
703B
  5
703B
331
7072
  5
7072
331
707A
  5
707A
331
704B
  5
704B
331
7082
  5
7082
331
7053
  5
7053
331
705B
  5
705B
331
7092
  5
7092
331
7063
  5
7063
331
7024
  5
7024
331
709A
  5
709A
331
706B
  5
706B
331
702C
  5
702C
331
70A2
  5
70A2
331
70AA
  5
70AA
331
7073
  5
7073
331
703C
  5
703C
331
70B2
  5
70B2
331
707B
  5
707B
331
7044
  5
7044
331
7083
  5
7083
331
704C
  5
704C
331
708B
  5
708B
331
7054
  5
7054
331
7093
  5
7093
331
705C
  5
705C
331
709B
  5
709B
331
7064
  5
7064
331
7025
  5
7025
331
70A3
  5
70A3
331
706C
  5
706C
331
702D
  5
702D
331
70AB
  5
70AB
331
7035
  5
7035
331
23
  5
23
331
70B3
  5
70B3
331
7074
  5
7074
331
703D
  5
703D
331
707C
  5
707C
331
7045
  5
7045
331
7084
  5
7084
331
704D
  5
704D
331
708C
  5
708C
331
7055
  5
7055
331
7094
  5
7094
331
705D
  5
705D
331
7065
  5
7065
331
7026
  5
7026
331
709C
  5
709C
331
70A4
  5
70A4
331
702E
  5
702E
331
706D
  5
706D
331
7036
  5
7036
331
703E
  5
703E
331
7075
  5
7075
331
707D
  5
707D
331
7046
  5
7046
331
7085
  5
7085
331
704E
  5
704E
331
708D
  5
708D
331
7056
  5
7056
331
705E
  5
705E
331
7095
  5
7095
331
709D
  5
709D
331
7066
  5
7066
331
7027
  5
7027
331
70A5
  5
70A5
331
706E
  5
706E
331
702F
  5
702F
331
70AD
  5
70AD
331
7037
  5
7037
331
7076
  5
7076
331
703F
  5
703F
331
707E
  5
707E
331
7047
  5
7047
331
7086
  5
7086
331
704F
  5
704F
331
708E
  5
708E
331
7057
  5
7057
331
7096
  5
7096
331
705F
  5
705F
331
709E
  5
709E
331
7028
  5
7028
331
7067
  5
7067
331
70A6
  5
70A6
331
7030
  5
7030
331
706F
  5
706F
331
70AE
  5
70AE
331
7038
  5
7038
331
7040
  5
7040
331
7077
  5
7077
331
7048
  5
7048
331
707F
  5
707F
331
7050
  5
7050
331
7087
  5
7087
331
708F
  5
708F
331
1F
  5
1F
331
7058
  5
7058
331
7060
  5
7060
331
7097
  5
7097
331
7068
  5
7068
331
7029
  5
7029
331
709F
  5
709F
331
7031
  5
7031
331
70A7
  5
70A7
331
70AF
  5
70AF
331
7070
  5
7070
331
7039
  5
7039
331
7078
  5
7078
331
7041
  5
7041
331
7080
  5
7080
331
7049
  5
7049
331
7088
  5
7088
331
7051
  5
7051
331
7090
  5
7090
331
7059
  5
7059
  0
GROUP
  5
E0D
102
{ACAD_REACTORS
330
18
102
}
330
18
100
AcDbGroup
300

 70
     1
 71
     1
  0
GROUP
  5
1555
102
{ACAD_REACTORS
330
18
102
}
330
18
100
AcDbGroup
300

 70
     1
 71
     1
  0
GROUP
  5
2A17
102
{ACAD_REACTORS
330
18
102
}
330
18
100
AcDbGroup
300

 70
     1
 71
     1
  0
GROUP
  5
31DF
102
{ACAD_REACTORS
330
18
102
}
330
18
100
AcDbGroup
300

 70
     1
 71
     1
  0
GROUP
  5
17BC
102
{ACAD_REACTORS
330
18
102
}
330
18
100
AcDbGroup
300

 70
     1
 71
     1
  0
GROUP
  5
34BB
102
{ACAD_REACTORS
330
18
102
}
330
18
100
AcDbGroup
300

 70
     1
 71
     1
  0
GROUP
  5
45E5
102
{ACAD_REACTORS
330
18
102
}
330
18
100
AcDbGroup
300

 70
     1
 71
     1
  0
GROUP
  5
26DD
102
{ACAD_REACTORS
330
18
102
}
330
18
100
AcDbGroup
300

 70
     1
 71
     1
  0
GROUP
  5
46A5
102
{ACAD_REACTORS
330
18
102
}
330
18
100
AcDbGroup
300

 70
     1
 71
     1
  0
GROUP
  5
4781
102
{ACAD_REACTORS
330
18
102
}
330
18
100
AcDbGroup
300

 70
     1
 71
     1
  0
GROUP
  5
48BA
102
{ACAD_REACTORS
330
18
102
}
330
18
100
AcDbGroup
300

 70
     1
 71
     1
  0
GROUP
  5
422E
102
{ACAD_REACTORS
330
18
102
}
330
18
100
AcDbGroup
300

 70
     1
 71
     1
  0
GROUP
  5
4A53
102
{ACAD_REACTORS
330
18
102
}
330
18
100
AcDbGroup
300

 70
     1
 71
     1
  0
GROUP
  5
1A98
102
{ACAD_REACTORS
330
18
102
}
330
18
100
AcDbGroup
300

 70
     1
 71
     1
  0
GROUP
  5
3695
102
{ACAD_REACTORS
330
18
102
}
330
18
100
AcDbGroup
300

 70
     1
 71
     1
  0
GROUP
  5
32E4
102
{ACAD_REACTORS
330
18
102
}
330
18
100
AcDbGroup
300

 70
     1
 71
     1
  0
GROUP
  5
4B49
102
{ACAD_REACTORS
330
18
102
}
330
18
100
AcDbGroup
300

 70
     1
 71
     1
  0
GROUP
  5
4C3E
102
{ACAD_REACTORS
330
18
102
}
330
18
100
AcDbGroup
300

 70
     1
 71
     1
  0
GROUP
  5
4CEC
102
{ACAD_REACTORS
330
18
102
}
330
18
100
AcDbGroup
300

 70
     1
 71
     1
  0
GROUP
  5
4D76
102
{ACAD_REACTORS
330
18
102
}
330
18
100
AcDbGroup
300

 70
     1
 71
     1
  0
GROUP
  5
3988
102
{ACAD_REACTORS
330
18
102
}
330
18
100
AcDbGroup
300

 70
     1
 71
     1
  0
GROUP
  5
3C81
102
{ACAD_REACTORS
330
18
102
}
330
18
100
AcDbGroup
300

 70
     1
 71
     1
  0
GROUP
  5
4407
102
{ACAD_REACTORS
330
18
102
}
330
18
100
AcDbGroup
300

 70
     1
 71
     1
  0
GROUP
  5
4E16
102
{ACAD_REACTORS
330
18
102
}
330
18
100
AcDbGroup
300

 70
     1
 71
     1
  0
GROUP
  5
4EE5
102
{ACAD_REACTORS
330
18
102
}
330
18
100
AcDbGroup
300

 70
     1
 71
     1
  0
GROUP
  5
4F64
102
{ACAD_REACTORS
330
18
102
}
330
18
100
AcDbGroup
300

 70
     1
 71
     1
  0
GROUP
  5
5011
102
{ACAD_REACTORS
330
18
102
}
330
18
100
AcDbGroup
300

 70
     1
 71
     1
  0
GROUP
  5
2C6B
102
{ACAD_REACTORS
330
18
102
}
330
18
100
AcDbGroup
300

 70
     1
 71
     1
  0
GROUP
  5
22C8
102
{ACAD_REACTORS
330
18
102
}
330
18
100
AcDbGroup
300

 70
     1
 71
     1
  0
GROUP
  5
519C
102
{ACAD_REACTORS
330
18
102
}
330
18
100
AcDbGroup
300

 70
     1
 71
     1
  0
GROUP
  5
52B0
102
{ACAD_REACTORS
330
18
102
}
330
18
100
AcDbGroup
300

 70
     1
 71
     1
  0
GROUP
  5
36C9
102
{ACAD_REACTORS
330
18
102
}
330
18
100
AcDbGroup
300

 70
     1
 71
     1
  0
GROUP
  5
5396
102
{ACAD_REACTORS
330
18
102
}
330
18
100
AcDbGroup
300

 70
     1
 71
     1
  0
GROUP
  5
265A
102
{ACAD_REACTORS
330
18
102
}
330
18
100
AcDbGroup
300

 70
     1
 71
     1
  0
GROUP
  5
275E
102
{ACAD_REACTORS
330
18
102
}
330
18
100
AcDbGroup
300

 70
     1
 71
     1
  0
GROUP
  5
5464
102
{ACAD_REACTORS
330
18
102
}
330
18
100
AcDbGroup
300

 70
     1
 71
     1
  0
GROUP
  5
556A
102
{ACAD_REACTORS
330
18
102
}
330
18
100
AcDbGroup
300

 70
     1
 71
     1
  0
GROUP
  5
213E
102
{ACAD_REACTORS
330
18
102
}
330
18
100
AcDbGroup
300

 70
     1
 71
     1
  0
GROUP
  5
57BF
102
{ACAD_REACTORS
330
18
102
}
330
18
100
AcDbGroup
300

 70
     1
 71
     1
  0
GROUP
  5
3349
102
{ACAD_REACTORS
330
18
102
}
330
18
100
AcDbGroup
300

 70
     1
 71
     1
  0
GROUP
  5
58EE
102
{ACAD_REACTORS
330
18
102
}
330
18
100
AcDbGroup
300

 70
     1
 71
     1
  0
GROUP
  5
59A8
102
{ACAD_REACTORS
330
18
102
}
330
18
100
AcDbGroup
300

 70
     1
 71
     1
  0
GROUP
  5
1EFE
102
{ACAD_REACTORS
330
18
102
}
330
18
100
AcDbGroup
300

 70
     1
 71
     1
  0
GROUP
  5
382B
102
{ACAD_REACTORS
330
18
102
}
330
18
100
AcDbGroup
300

 70
     1
 71
     1
  0
GROUP
  5
4516
102
{ACAD_REACTORS
330
18
102
}
330
18
100
AcDbGroup
300

 70
     1
 71
     1
  0
GROUP
  5
2573
102
{ACAD_REACTORS
330
18
102
}
330
18
100
AcDbGroup
300

 70
     1
 71
     1
  0
GROUP
  5
3878
102
{ACAD_REACTORS
330
18
102
}
330
18
100
AcDbGroup
300

 70
     1
 71
     1
  0
GROUP
  5
2905
102
{ACAD_REACTORS
330
18
102
}
330
18
100
AcDbGroup
300

 70
     1
 71
     1
  0
GROUP
  5
5BE4
102
{ACAD_REACTORS
330
18
102
}
330
18
100
AcDbGroup
300

 70
     1
 71
     1
  0
GROUP
  5
3E5C
102
{ACAD_REACTORS
330
18
102
}
330
18
100
AcDbGroup
300

 70
     1
 71
     1
  0
GROUP
  5
3181
102
{ACAD_REACTORS
330
18
102
}
330
18
100
AcDbGroup
300

 70
     1
 71
     1
  0
GROUP
  5
24D6
102
{ACAD_REACTORS
330
18
102
}
330
18
100
AcDbGroup
300

 70
     1
 71
     1
  0
GROUP
  5
2B84
102
{ACAD_REACTORS
330
18
102
}
330
18
100
AcDbGroup
300

 70
     1
 71
     1
  0
GROUP
  5
5D9C
102
{ACAD_REACTORS
330
18
102
}
330
18
100
AcDbGroup
300

 70
     1
 71
     1
  0
GROUP
  5
5F2D
102
{ACAD_REACTORS
330
18
102
}
330
18
100
AcDbGroup
300

 70
     1
 71
     1
  0
GROUP
  5
307D
102
{ACAD_REACTORS
330
18
102
}
330
18
100
AcDbGroup
300

 70
     1
 71
     1
  0
GROUP
  5
6143
102
{ACAD_REACTORS
330
18
102
}
330
18
100
AcDbGroup
300

 70
     1
 71
     1
  0
GROUP
  5
241A
102
{ACAD_REACTORS
330
18
102
}
330
18
100
AcDbGroup
300

 70
     1
 71
     1
  0
GROUP
  5
63A1
102
{ACAD_REACTORS
330
18
102
}
330
18
100
AcDbGroup
300

 70
     1
 71
     1
  0
GROUP
  5
6541
102
{ACAD_REACTORS
330
18
102
}
330
18
100
AcDbGroup
300

 70
     1
 71
     1
  0
GROUP
  5
2EE1
102
{ACAD_REACTORS
330
18
102
}
330
18
100
AcDbGroup
300

 70
     1
 71
     1
  0
GROUP
  5
35A5
102
{ACAD_REACTORS
330
18
102
}
330
18
100
AcDbGroup
300

 70
     1
 71
     1
  0
GROUP
  5
401B
102
{ACAD_REACTORS
330
18
102
}
330
18
100
AcDbGroup
300

 70
     1
 71
     1
  0
GROUP
  5
2037
102
{ACAD_REACTORS
330
18
102
}
330
18
100
AcDbGroup
300

 70
     1
 71
     1
  0
GROUP
  5
6671
102
{ACAD_REACTORS
330
18
102
}
330
18
100
AcDbGroup
300

 70
     1
 71
     1
  0
GROUP
  5
67AB
102
{ACAD_REACTORS
330
18
102
}
330
18
100
AcDbGroup
300

 70
     1
 71
     1
  0
GROUP
  5
FF8
102
{ACAD_REACTORS
330
18
102
}
330
18
100
AcDbGroup
300

 70
     1
 71
     1
  0
GROUP
  5
1CBC
102
{ACAD_REACTORS
330
18
102
}
330
18
100
AcDbGroup
300

 70
     1
 71
     1
  0
GROUP
  5
2F81
102
{ACAD_REACTORS
330
18
102
}
330
18
100
AcDbGroup
300

 70
     1
 71
     1
  0
GROUP
  5
6951
102
{ACAD_REACTORS
330
18
102
}
330
18
100
AcDbGroup
300

 70
     1
 71
     1
  0
GROUP
  5
6B05
102
{ACAD_REACTORS
330
18
102
}
330
18
100
AcDbGroup
300

 70
     1
 71
     1
  0
GROUP
  5
6BE0
102
{ACAD_REACTORS
330
18
102
}
330
18
100
AcDbGroup
300

 70
     1
 71
     1
  0
GROUP
  5
6C6A
102
{ACAD_REACTORS
330
18
102
}
330
18
100
AcDbGroup
300

 70
     1
 71
     1
  0
GROUP
  5
6D95
102
{ACAD_REACTORS
330
18
102
}
330
18
100
AcDbGroup
300

 70
     1
 71
     1
  0
GROUP
  5
3A25
102
{ACAD_REACTORS
330
18
102
}
330
18
100
AcDbGroup
300

 70
     1
 71
     1
  0
GROUP
  5
6EED
102
{ACAD_REACTORS
330
18
102
}
330
18
100
AcDbGroup
300

 70
     1
 71
     1
  0
GROUP
  5
7171
102
{ACAD_REACTORS
330
18
102
}
330
18
100
AcDbGroup
300

 70
     1
 71
     1
340
7127
340
7126
340
7125
340
7124
340
7123
340
7122
340
7121
340
711F
340
70FA
340
70F9
340
70F8
340
70F6
340
70F5
340
70F4
340
70B3
340
70B2
340
70B1
340
70B0
340
70AF
340
70AE
340
70AD
340
70AB
340
70AA
340
70A9
340
70A8
340
70A7
340
70A6
340
70A5
340
70A4
340
70A3
340
70A2
340
70A1
340
70A0
340
709F
340
709E
340
709D
340
709C
340
709B
340
709A
340
7099
340
7098
340
7097
340
7096
340
7095
340
7094
340
7093
340
7092
340
7091
340
7090
340
708F
340
708E
340
708D
340
708C
340
708B
340
7089
340
7088
340
7087
340
7086
340
7085
340
7084
340
7083
340
7082
340
7081
340
7080
340
707F
340
707E
340
707D
340
707C
340
707B
340
707A
340
7079
340
7078
340
7077
340
7076
340
7075
340
7074
340
7073
340
7072
340
7071
340
7070
340
706F
340
706E
340
706D
340
706C
340
706B
340
706A
340
7069
340
7068
340
7067
340
7066
340
7065
340
7064
340
7063
340
7062
340
7061
340
7060
340
705F
340
705E
340
705D
340
705C
340
705B
340
705A
340
7059
340
7058
340
7057
340
7056
340
7055
340
7054
340
7053
340
7052
340
7051
340
7050
340
704F
340
704E
340
704D
340
704C
340
704B
340
704A
340
7049
340
7048
340
7047
340
7046
340
7045
340
7044
340
7041
340
7040
340
703F
340
703E
340
703D
340
703C
340
703B
340
703A
340
7039
340
7038
340
7037
340
7036
340
7035
340
7033
340
7031
340
7030
340
702F
340
702E
340
702D
340
702C
340
702B
340
702A
340
7029
340
7028
340
7027
340
7026
340
7025
340
7024
  0
GROUP
  5
2D78
102
{ACAD_REACTORS
330
18
102
}
330
18
100
AcDbGroup
300

 70
     1
 71
     1
  0
GROUP
  5
3467
102
{ACAD_REACTORS
330
18
102
}
330
18
100
AcDbGroup
300

 70
     1
 71
     1
  0
GROUP
  5
136A
102
{ACAD_REACTORS
330
18
102
}
330
18
100
AcDbGroup
300

 70
     1
 71
     1
  0
LAYOUT
  5
5A
102
{ACAD_XDICTIONARY
360
718B
102
}
102
{ACAD_REACTORS
330
58
102
}
330
58
100
AcDbPlotSettings
  1

  2
なし
  4

  6

 40
0.0
 41
0.0
 42
0.0
 43
0.0
 44
0.0
 45
0.0
 46
0.0
 47
0.0
 48
0.0
 49
0.0
140
0.0
141
0.0
142
1.0
143
1.0
 70
  1712
 72
     0
 73
     0
 74
     0
  7
monochrome.ctb
 75
     0
147
1.0
148
0.0
149
0.0
100
AcDbLayout
  1
Model
 70
     1
 71
     0
 10
0.0
 20
0.0
 11
12.0
 21
9.0
 12
0.0
 22
0.0
 32
0.0
 14
0.0
 24
0.0
 34
0.0
 15
0.0
 25
0.0
 35
0.0
146
0.0
 13
0.0
 23
0.0
 33
0.0
 16
1.0
 26
0.0
 36
0.0
 17
0.0
 27
1.0
 37
0.0
 76
     0
330
2
  0
LAYOUT
  5
5B
102
{ACAD_XDICTIONARY
360
718D
102
}
102
{ACAD_REACTORS
330
58
102
}
330
58
100
AcDbPlotSettings
  1

  2
なし
  4

  6

 40
0.0
 41
0.0
 42
0.0
 43
0.0
 44
0.0
 45
0.0
 46
0.0
 47
0.0
 48
0.0
 49
0.0
140
0.0
141
0.0
142
1.0
143
1.0
 70
   688
 72
     0
 73
     0
 74
     5
  7
monochrome.ctb
 75
    16
147
1.0
148
0.0
149
0.0
100
AcDbLayout
  1
ﾚｲｱｳﾄ1
 70
     1
 71
     1
 10
0.0
 20
0.0
 11
12.0
 21
9.0
 12
0.0
 22
0.0
 32
0.0
 14
1.000000000000000E+20
 24
1.000000000000000E+20
 34
1.000000000000000E+20
 15
-1.000000000000000E+20
 25
-1.000000000000000E+20
 35
-1.000000000000000E+20
146
0.0
 13
0.0
 23
0.0
 33
0.0
 16
1.0
 26
0.0
 36
0.0
 17
0.0
 27
1.0
 37
0.0
 76
     0
330
7
  0
MLINESTYLE
  5
1D
102
{ACAD_REACTORS
330
19
102
}
330
19
100
AcDbMlineStyle
  2
STANDARD
 70
     0
  3

 62
   256
 51
90.0
 52
90.0
 71
     2
 49
0.5
 62
   256
  6
BYLAYER
 49
-0.5
 62
   256
  6
BYLAYER
  0
ACDBPLACEHOLDER
  5
57
102
{ACAD_REACTORS
330
56
102
}
330
56
  0
TABLESTYLE
  5
146
102
{ACAD_REACTORS
330
145
102
}
330
145
100
AcDbTableStyle
  3
Standard
 70
     0
 71
     0
 40
0.06
 41
0.06
280
     0
281
     0
  7
STANDARD
140
0.18
170
     2
 62
     0
 63
     7
283
     0
274
    -2
284
     1
 64
     0
275
    -2
285
     1
 65
     0
276
    -2
286
     1
 66
     0
277
    -2
287
     1
 67
     0
278
    -2
288
     1
 68
     0
279
    -2
289
     1
 69
     0
  7
STANDARD
140
0.25
170
     5
 62
     0
 63
     7
283
     0
274
    -2
284
     1
 64
     0
275
    -2
285
     1
 65
     0
276
    -2
286
     1
 66
     0
277
    -2
287
     1
 67
     0
278
    -2
288
     1
 68
     0
279
    -2
289
     1
 69
     0
  7
STANDARD
140
0.18
170
     5
 62
     0
 63
     7
283
     0
274
    -2
284
     1
 64
     0
275
    -2
285
     1
 65
     0
276
    -2
286
     1
 66
     0
277
    -2
287
     1
 67
     0
278
    -2
288
     1
 68
     0
279
    -2
289
     1
 69
     0
  0
DICTIONARYVAR
  5
1D2
102
{ACAD_REACTORS
330
1D1
102
}
330
1D1
100
DictionaryVariables
280
     0
  1
STANDARD
  0
DICTIONARYVAR
  5
D03
102
{ACAD_REACTORS
330
1D1
102
}
330
1D1
100
DictionaryVariables
280
     0
  1
1
  0
DICTIONARYVAR
  5
D04
102
{ACAD_REACTORS
330
1D1
102
}
330
1D1
100
DictionaryVariables
280
     0
  1

  0
DICTIONARY
  5
718B
330
5A
100
AcDbDictionary
280
     1
281
     1
  3
ACAD_XREC_ROUNDTRIP
360
718C
  0
DICTIONARY
  5
718D
330
5B
100
AcDbDictionary
280
     1
281
     1
  3
ACAD_XREC_ROUNDTRIP
360
718E
  0
XRECORD
  5
718C
102
{ACAD_REACTORS
330
718B
102
}
330
718B
100
AcDbXrecord
280
     1
102
SHADEPLOT
 70
     0
102
SHADEPLOTRESLEVEL
 70
     2
102
SHADEPLOTCUSTOMDPI
 70
   300
  0
XRECORD
  5
718E
102
{ACAD_REACTORS
330
718D
102
}
330
718D
100
AcDbXrecord
280
     1
102
SHADEPLOT
 70
     0
102
SHADEPLOTRESLEVEL
 70
     2
102
SHADEPLOTCUSTOMDPI
 70
   300
  0
ENDSEC
  0
EOF
