  0
SECTION
  2
HEADER
  9
$ACADVER
  1
AC1015
  9
$ACADMAINTVER
 70
    20
  9
$DWGCODEPAGE
  3
ANSI_932
  9
$INSBASE
 10
922.019522
 20
-675.4306699999999
 30
0.0
  9
$EXTMIN
 10
-36.84735541467585
 20
0.0
 30
0.0
  9
$EXTMAX
 10
209.8650554910068
 20
284.938570791296
 30
0.0
  9
$LIMMIN
 10
0.0
 20
0.0
  9
$LIMMAX
 10
420.0
 20
297.0
  9
$ORTHOMODE
 70
     1
  9
$REGENMODE
 70
     1
  9
$FILLMODE
 70
     1
  9
$QTEXTMODE
 70
     0
  9
$MIRRTEXT
 70
     1
  9
$LTSCALE
 40
1.0
  9
$ATTMODE
 70
     1
  9
$TEXTSIZE
 40
30.0
  9
$TRACEWID
 40
0.05
  9
$TEXTSTYLE
  7
SUNPOU
  9
$CLAYER
  8
0
  9
$CELTYPE
  6
BYLAYER
  9
$CECOLOR
 62
   256
  9
$CELTSCALE
 40
1.0
  9
$DISPSILH
 70
     0
  9
$DIMSCALE
 40
1.0
  9
$DIMASZ
 40
2.0
  9
$DIMEXO
 40
10.0
  9
$DIMDLI
 40
0.38
  9
$DIMRND
 40
0.0
  9
$DIMDLE
 40
0.0
  9
$DIMEXE
 40
0.0
  9
$DIMTP
 40
0.0
  9
$DIMTM
 40
0.0
  9
$DIMTXT
 40
5.0
  9
$DIMCEN
 40
0.0
  9
$DIMTSZ
 40
0.0
  9
$DIMTOL
 70
     0
  9
$DIMLIM
 70
     0
  9
$DIMTIH
 70
     0
  9
$DIMTOH
 70
     0
  9
$DIMSE1
 70
     0
  9
$DIMSE2
 70
     0
  9
$DIMTAD
 70
     1
  9
$DIMZIN
 70
     0
  9
$DIMBLK
  1
Dot
  9
$DIMASO
 70
     1
  9
$DIMSHO
 70
     1
  9
$DIMPOST
  1

  9
$DIMAPOST
  1

  9
$DIMALT
 70
     0
  9
$DIMALTD
 70
     2
  9
$DIMALTF
 40
25.4
  9
$DIMLFAC
 40
1.0
  9
$DIMTOFL
 70
     0
  9
$DIMTVP
 40
0.0
  9
$DIMTIX
 70
     0
  9
$DIMSOXD
 70
     0
  9
$DIMSAH
 70
     0
  9
$DIMBLK1
  1

  9
$DIMBLK2
  1

  9
$DIMSTYLE
  2
STANDARD
  9
$DIMCLRD
 70
    60
  9
$DIMCLRE
 70
    70
  9
$DIMCLRT
 70
    60
  9
$DIMTFAC
 40
0.064286
  9
$DIMGAP
 40
3.0
  9
$DIMJUST
 70
     0
  9
$DIMSD1
 70
     0
  9
$DIMSD2
 70
     0
  9
$DIMTOLJ
 70
     1
  9
$DIMTZIN
 70
     0
  9
$DIMALTZ
 70
     0
  9
$DIMALTTZ
 70
     0
  9
$DIMUPT
 70
     0
  9
$DIMDEC
 70
     0
  9
$DIMTDEC
 70
     0
  9
$DIMALTU
 70
     2
  9
$DIMALTTD
 70
     2
  9
$DIMTXSTY
  7
SUNPOU
  9
$DIMAUNIT
 70
     0
  9
$DIMADEC
 70
     0
  9
$DIMALTRND
 40
0.0
  9
$DIMAZIN
 70
     0
  9
$DIMDSEP
 70
    46
  9
$DIMATFIT
 70
     3
  9
$DIMFRAC
 70
     0
  9
$DIMLDRBLK
  1

  9
$DIMLUNIT
 70
     2
  9
$DIMLWD
 70
    -2
  9
$DIMLWE
 70
    -2
  9
$DIMTMOVE
 70
     0
  9
$LUNITS
 70
     2
  9
$LUPREC
 70
     5
  9
$SKETCHINC
 40
0.1
  9
$FILLETRAD
 40
0.0
  9
$AUNITS
 70
     0
  9
$AUPREC
 70
     0
  9
$MENU
  1
acad
  9
$ELEVATION
 40
0.0
  9
$PELEVATION
 40
0.0
  9
$THICKNESS
 40
0.0
  9
$LIMCHECK
 70
     0
  9
$CHAMFERA
 40
0.0
  9
$CHAMFERB
 40
0.0
  9
$CHAMFERC
 40
0.0
  9
$CHAMFERD
 40
0.0
  9
$SKPOLY
 70
     0
  9
$TDCREATE
 40
2450623.654673033
  9
$TDUCREATE
 40
2450623.279673032
  9
$TDUPDATE
 40
2453878.721165579
  9
$TDUUPDATE
 40
2453878.346165579
  9
$TDINDWG
 40
1.2763429630
  9
$TDUSRTIMER
 40
1.2763427894
  9
$USRTIMER
 70
     1
  9
$ANGBASE
 50
0.0
  9
$ANGDIR
 70
     0
  9
$PDMODE
 70
     0
  9
$PDSIZE
 40
0.0
  9
$PLINEWID
 40
0.0
  9
$SPLFRAME
 70
     0
  9
$SPLINETYPE
 70
     6
  9
$SPLINESEGS
 70
     8
  9
$HANDSEED
  5
74B1
  9
$SURFTAB1
 70
     6
  9
$SURFTAB2
 70
     6
  9
$SURFTYPE
 70
     6
  9
$SURFU
 70
     6
  9
$SURFV
 70
     6
  9
$UCSBASE
  2

  9
$UCSNAME
  2

  9
$UCSORG
 10
0.0
 20
0.0
 30
0.0
  9
$UCSXDIR
 10
1.0
 20
0.0
 30
0.0
  9
$UCSYDIR
 10
0.0
 20
1.0
 30
0.0
  9
$UCSORTHOREF
  2

  9
$UCSORTHOVIEW
 70
     0
  9
$UCSORGTOP
 10
0.0
 20
0.0
 30
0.0
  9
$UCSORGBOTTOM
 10
0.0
 20
0.0
 30
0.0
  9
$UCSORGLEFT
 10
0.0
 20
0.0
 30
0.0
  9
$UCSORGRIGHT
 10
0.0
 20
0.0
 30
0.0
  9
$UCSORGFRONT
 10
0.0
 20
0.0
 30
0.0
  9
$UCSORGBACK
 10
0.0
 20
0.0
 30
0.0
  9
$PUCSBASE
  2

  9
$PUCSNAME
  2

  9
$PUCSORG
 10
0.0
 20
0.0
 30
0.0
  9
$PUCSXDIR
 10
1.0
 20
0.0
 30
0.0
  9
$PUCSYDIR
 10
0.0
 20
1.0
 30
0.0
  9
$PUCSORTHOREF
  2

  9
$PUCSORTHOVIEW
 70
     0
  9
$PUCSORGTOP
 10
0.0
 20
0.0
 30
0.0
  9
$PUCSORGBOTTOM
 10
0.0
 20
0.0
 30
0.0
  9
$PUCSORGLEFT
 10
0.0
 20
0.0
 30
0.0
  9
$PUCSORGRIGHT
 10
0.0
 20
0.0
 30
0.0
  9
$PUCSORGFRONT
 10
0.0
 20
0.0
 30
0.0
  9
$PUCSORGBACK
 10
0.0
 20
0.0
 30
0.0
  9
$USERI1
 70
     0
  9
$USERI2
 70
     0
  9
$USERI3
 70
     0
  9
$USERI4
 70
     0
  9
$USERI5
 70
     0
  9
$USERR1
 40
0.0
  9
$USERR2
 40
0.0
  9
$USERR3
 40
0.0
  9
$USERR4
 40
0.0
  9
$USERR5
 40
0.0
  9
$WORLDVIEW
 70
     1
  9
$SHADEDGE
 70
     3
  9
$SHADEDIF
 70
    70
  9
$TILEMODE
 70
     1
  9
$MAXACTVP
 70
    16
  9
$PINSBASE
 10
0.0
 20
0.0
 30
0.0
  9
$PLIMCHECK
 70
     0
  9
$PEXTMIN
 10
1.000000000000000E+20
 20
1.000000000000000E+20
 30
1.000000000000000E+20
  9
$PEXTMAX
 10
-1.000000000000000E+20
 20
-1.000000000000000E+20
 30
-1.000000000000000E+20
  9
$PLIMMIN
 10
0.0
 20
0.0
  9
$PLIMMAX
 10
12.0
 20
9.0
  9
$UNITMODE
 70
     0
  9
$VISRETAIN
 70
     0
  9
$PLINEGEN
 70
     0
  9
$PSLTSCALE
 70
     1
  9
$TREEDEPTH
 70
  3020
  9
$CMLSTYLE
  2
STANDARD
  9
$CMLJUST
 70
     0
  9
$CMLSCALE
 40
1.0
  9
$PROXYGRAPHICS
 70
     1
  9
$MEASUREMENT
 70
     0
  9
$CELWEIGHT
370
    -1
  9
$ENDCAPS
280
     0
  9
$JOINSTYLE
280
     0
  9
$LWDISPLAY
290
     1
  9
$INSUNITS
 70
     0
  9
$HYPERLINKBASE
  1

  9
$STYLESHEET
  1

  9
$XEDIT
290
     1
  9
$CEPSNTYPE
380
     0
  9
$PSTYLEMODE
290
     1
  9
$FINGERPRINTGUID
  2
{FB88A696-E29C-4009-92AF-A3599A8169D5}
  9
$VERSIONGUID
  2
{D84439AE-ECBE-4462-BBD8-02D2327E8327}
  9
$EXTNAMES
290
     1
  9
$PSVPSCALE
 40
0.0
  9
$OLESTARTUP
290
     0
  0
ENDSEC
  0
SECTION
  2
CLASSES
  0
CLASS
  1
DICTIONARYVAR
  2
AcDbDictionaryVar
  3
ObjectDBX Classes
 90
        0
280
     0
281
     0
  0
CLASS
  1
ACDBDICTIONARYWDFLT
  2
AcDbDictionaryWithDefault
  3
ObjectDBX Classes
 90
        0
280
     0
281
     0
  0
CLASS
  1
ACDBPLACEHOLDER
  2
AcDbPlaceHolder
  3
ObjectDBX Classes
 90
        0
280
     0
281
     0
  0
CLASS
  1
LAYOUT
  2
AcDbLayout
  3
ObjectDBX Classes
 90
        0
280
     0
281
     0
  0
CLASS
  1
TABLESTYLE
  2
AcDbTableStyle
  3
ObjectDBX Classes
 90
     2047
280
     0
281
     0
  0
CLASS
  1
SORTENTSTABLE
  2
AcDbSortentsTable
  3
ObjectDBX Classes
 90
        0
280
     0
281
     0
  0
ENDSEC
  0
SECTION
  2
TABLES
  0
TABLE
  2
VPORT
  5
12
330
0
100
AcDbSymbolTable
 70
     3
  0
VPORT
  5
74AB
330
12
100
AcDbSymbolTableRecord
100
AcDbViewportTableRecord
  2
*Active
 70
     0
 10
0.0
 20
0.0
 11
1.0
 21
1.0
 12
88.05181660606029
 22
142.4648829443428
 13
0.0
 23
0.0
 14
1.0
 24
1.0
 15
0.0
 25
0.0
 16
0.0
 26
0.0
 36
1.0
 17
0.0
 27
0.0
 37
0.0
 40
287.129598356535
 41
1.566110397946084
 42
50.0
 43
0.0
 44
0.0
 50
0.0
 51
0.0
 71
     0
 72
 20000
 73
     1
 74
     1
 75
     0
 76
     0
 77
     0
 78
     0
281
     0
 65
     1
110
0.0
120
0.0
130
0.0
111
1.0
121
0.0
131
0.0
112
0.0
122
1.0
132
0.0
 79
     0
146
0.0
  0
ENDTAB
  0
TABLE
  2
LTYPE
  5
D
330
0
100
AcDbSymbolTable
 70
     1
  0
LTYPE
  5
E
330
D
100
AcDbSymbolTableRecord
100
AcDbLinetypeTableRecord
  2
BYBLOCK
 70
     0
  3

 72
    65
 73
     0
 40
0.0
  0
LTYPE
  5
F
330
D
100
AcDbSymbolTableRecord
100
AcDbLinetypeTableRecord
  2
BYLAYER
 70
     0
  3

 72
    65
 73
     0
 40
0.0
  0
LTYPE
  5
5
330
D
100
AcDbSymbolTableRecord
100
AcDbLinetypeTableRecord
  2
CONTINUOUS
 70
     0
  3
Solid line
 72
    65
 73
     0
 40
0.0
  0
ENDTAB
  0
TABLE
  2
LAYER
  5
A
102
{ACAD_XDICTIONARY
360
1B4
102
}
330
0
100
AcDbSymbolTable
 70
     6
  0
LAYER
  5
4
330
A
100
AcDbSymbolTableRecord
100
AcDbLayerTableRecord
  2
0
 70
     0
 62
     7
  6
CONTINUOUS
370
    -3
390
57
  0
LAYER
  5
25
330
A
100
AcDbSymbolTableRecord
100
AcDbLayerTableRecord
  2
KIJUN
 70
     0
 62
     7
  6
CONTINUOUS
370
    -3
390
57
  0
LAYER
  5
22
330
A
100
AcDbSymbolTableRecord
100
AcDbLayerTableRecord
  2
HOJO
 70
     0
 62
     3
  6
CONTINUOUS
370
    -3
390
57
  0
LAYER
  5
1B
330
A
100
AcDbSymbolTableRecord
100
AcDbLayerTableRecord
  2
WAKU
 70
     0
 62
     1
  6
CONTINUOUS
370
    -3
390
57
  0
LAYER
  5
31
330
A
100
AcDbSymbolTableRecord
100
AcDbLayerTableRecord
  2
DEFPOINTS
 70
     0
 62
     7
  6
CONTINUOUS
290
     0
370
    -3
390
57
  0
LAYER
  5
28
330
A
100
AcDbSymbolTableRecord
100
AcDbLayerTableRecord
  2
SUNPOU
 70
     0
 62
    70
  6
CONTINUOUS
370
    -3
390
57
  0
ENDTAB
  0
TABLE
  2
STYLE
  5
B
330
0
100
AcDbSymbolTable
 70
     2
  0
STYLE
  5
C
330
B
100
AcDbSymbolTableRecord
100
AcDbTextStyleTableRecord
  2
STANDARD
 70
     0
 40
0.0
 41
1.0
 50
0.0
 71
     0
 42
0.2
  3
txt
  4

  0
STYLE
  5
1C
330
B
100
AcDbSymbolTableRecord
100
AcDbTextStyleTableRecord
  2
SUNPOU
 70
     0
 40
0.0
 41
1.0
 50
0.0
 71
     0
 42
30.0
  3
txt
  4
bigfont
  0
ENDTAB
  0
TABLE
  2
VIEW
  5
10
330
0
100
AcDbSymbolTable
 70
     0
  0
ENDTAB
  0
TABLE
  2
UCS
  5
11
330
0
100
AcDbSymbolTable
 70
     0
  0
ENDTAB
  0
TABLE
  2
APPID
  5
14
330
0
100
AcDbSymbolTable
 70
    10
  0
APPID
  5
15
330
14
100
AcDbSymbolTableRecord
100
AcDbRegAppTableRecord
  2
ACAD
 70
     0
  0
APPID
  5
1D3
330
14
100
AcDbSymbolTableRecord
100
AcDbRegAppTableRecord
  2
ACAD_DSTYLE_DIMTEXT_FILL
 70
     0
  0
APPID
  5
1D4
330
14
100
AcDbSymbolTableRecord
100
AcDbRegAppTableRecord
  2
ACAD_DSTYLE_DIMEXT_LENGTH
 70
     0
  0
APPID
  5
1D5
330
14
100
AcDbSymbolTableRecord
100
AcDbRegAppTableRecord
  2
ACAD_DSTYLE_DIMEXT_ENABLED
 70
     0
  0
APPID
  5
1D6
330
14
100
AcDbSymbolTableRecord
100
AcDbRegAppTableRecord
  2
ACAD_DSTYLE_DIM_LINETYPE
 70
     0
  0
APPID
  5
1D7
330
14
100
AcDbSymbolTableRecord
100
AcDbRegAppTableRecord
  2
ACAD_DSTYLE_DIM_EXT1_LINETYPE
 70
     0
  0
APPID
  5
1D8
330
14
100
AcDbSymbolTableRecord
100
AcDbRegAppTableRecord
  2
ACAD_DSTYLE_DIM_EXT2_LINETYPE
 70
     0
  0
APPID
  5
294
330
14
100
AcDbSymbolTableRecord
100
AcDbRegAppTableRecord
  2
ACAD_DSTYLE_DIMJOGGED_JOGANGLE_SYMBOL
 70
     0
  0
APPID
  5
478
330
14
100
AcDbSymbolTableRecord
100
AcDbRegAppTableRecord
  2
ACAD_DSTYLE_DIMARC_LENGTH_SYMBOL
 70
     0
  0
APPID
  5
F55
330
14
100
AcDbSymbolTableRecord
100
AcDbRegAppTableRecord
  2
ACAD_EXEMPT_FROM_CAD_STANDARDS
 70
     0
  0
ENDTAB
  0
TABLE
  2
DIMSTYLE
  5
16
330
0
100
AcDbSymbolTable
 70
     1
100
AcDbDimStyleTable
 71
     1
340
1E
  0
DIMSTYLE
105
1E
102
{ACAD_REACTORS
330
72E4
330
72F1
330
72FE
330
736E
102
}
330
16
100
AcDbSymbolTableRecord
100
AcDbDimStyleTableRecord
  2
STANDARD
 70
     0
340
C
  0
ENDTAB
  0
TABLE
  2
BLOCK_RECORD
  5
1
330
0
100
AcDbSymbolTable
 70
     5
  0
BLOCK_RECORD
  5
2
102
{ACAD_XDICTIONARY
360
D13
102
}
330
1
100
AcDbSymbolTableRecord
100
AcDbBlockTableRecord
  2
*MODEL_SPACE
340
5A
  0
BLOCK_RECORD
  5
7
330
1
100
AcDbSymbolTableRecord
100
AcDbBlockTableRecord
  2
*PAPER_SPACE
340
5B
  0
BLOCK_RECORD
  5
109
330
1
100
AcDbSymbolTableRecord
100
AcDbBlockTableRecord
  2
_Dot
340
0
102
{BLKREFS
331
7484
331
7485
331
748D
331
748E
331
7496
331
7497
331
749F
331
74A0
102
}
  0
BLOCK_RECORD
  5
72E5
330
1
100
AcDbSymbolTableRecord
100
AcDbBlockTableRecord
  2
*D1
340
0
  0
BLOCK_RECORD
  5
72F2
330
1
100
AcDbSymbolTableRecord
100
AcDbBlockTableRecord
  2
*D2
340
0
  0
BLOCK_RECORD
  5
72FF
330
1
100
AcDbSymbolTableRecord
100
AcDbBlockTableRecord
  2
*D3
340
0
  0
BLOCK_RECORD
  5
736F
330
1
100
AcDbSymbolTableRecord
100
AcDbBlockTableRecord
  2
*D4
340
0
  0
ENDTAB
  0
ENDSEC
  0
SECTION
  2
BLOCKS
  0
BLOCK
  5
3
330
2
100
AcDbEntity
  8
0
100
AcDbBlockBegin
  2
*MODEL_SPACE
 70
     0
 10
0.0
 20
0.0
 30
0.0
  3
*MODEL_SPACE
  1

  0
ENDBLK
  5
6
330
2
100
AcDbEntity
  8
0
100
AcDbBlockEnd
  0
BLOCK
  5
8
330
7
100
AcDbEntity
 67
     1
  8
0
100
AcDbBlockBegin
  2
*PAPER_SPACE
 70
     0
 10
0.0
 20
0.0
 30
0.0
  3
*PAPER_SPACE
  1

  0
ENDBLK
  5
9
330
7
100
AcDbEntity
 67
     1
  8
0
100
AcDbBlockEnd
  0
BLOCK
  5
10C
330
109
100
AcDbEntity
  8
0
100
AcDbBlockBegin
  2
_Dot
 70
     0
 10
0.0
 20
0.0
 30
0.0
  3
_Dot
  1

  0
LWPOLYLINE
  5
10A
330
109
100
AcDbEntity
  8
0
  6
ByBlock
 62
     0
100
AcDbPolyline
 90
        2
 70
     1
 43
0.5
 10
-0.25
 20
0.0
 42
1.0
 10
0.25
 20
0.0
 42
1.0
  0
LINE
  5
10B
330
109
100
AcDbEntity
  8
0
  6
ByBlock
 62
     0
370
    -2
100
AcDbLine
 10
-0.5
 20
0.0
 30
0.0
 11
-1.0
 21
0.0
 31
0.0
  0
ENDBLK
  5
10D
330
109
100
AcDbEntity
  8
0
100
AcDbBlockEnd
  0
BLOCK
  5
72EF
330
72E5
100
AcDbEntity
  8
0
100
AcDbBlockBegin
  2
*D1
 70
     1
 10
0.0
 20
0.0
 30
0.0
  3
*D1
  1

  0
LINE
  5
748A
330
72E5
100
AcDbEntity
  8
SUNPOU
 62
    70
370
    -2
100
AcDbLine
 10
106.3047244003198
 20
260.7522883145819
 30
0.0
 11
106.3047244003198
 21
276.8965145290963
 31
0.0
  0
LINE
  5
748B
330
72E5
100
AcDbEntity
  8
SUNPOU
 62
    70
370
    -2
100
AcDbLine
 10
166.3047243997419
 20
260.7522883145819
 30
0.0
 11
166.3047243997419
 21
276.8965145290963
 31
0.0
  0
LINE
  5
748C
330
72E5
100
AcDbEntity
  8
SUNPOU
 62
    60
370
    -2
100
AcDbLine
 10
108.3047244003198
 20
276.8965145290963
 30
0.0
 11
164.3047243997419
 21
276.8965145290963
 31
0.0
  0
INSERT
  5
748D
330
72E5
100
AcDbEntity
  8
SUNPOU
 62
    60
370
    -2
100
AcDbBlockReference
  2
_Dot
 10
106.3047244003198
 20
276.8965145290963
 30
0.0
 41
2.0
 42
2.0
 43
2.0
 50
180.0
  0
INSERT
  5
748E
330
72E5
100
AcDbEntity
  8
SUNPOU
 62
    60
370
    -2
100
AcDbBlockReference
  2
_Dot
 10
166.3047243997419
 20
276.8965145290963
 30
0.0
 41
2.0
 42
2.0
 43
2.0
  0
MTEXT
  5
748F
330
72E5
100
AcDbEntity
  8
SUNPOU
 62
    60
100
AcDbMText
 10
136.3047244000309
 20
282.3965145290963
 30
0.0
 40
5.0
 41
0.0
 71
     5
 72
     1
  1
\A1;60
  7
SUNPOU
 73
     1
 44
1.0
1001
ACAD
1000
MTEXTBEGIN
1070
    73
1070
     1
1070
    44
1040
1.0
1070
    74
1070
     0
1000
MTEXTEND
  0
POINT
  5
7490
330
72E5
100
AcDbEntity
  8
DEFPOINTS
 62
     0
100
AcDbPoint
 10
106.3047244003198
 20
250.7522883145819
 30
0.0
  0
POINT
  5
7491
330
72E5
100
AcDbEntity
  8
DEFPOINTS
 62
     0
100
AcDbPoint
 10
166.3047243997419
 20
250.7522883145819
 30
0.0
  0
POINT
  5
7492
330
72E5
100
AcDbEntity
  8
DEFPOINTS
 62
     0
100
AcDbPoint
 10
166.3047243997419
 20
276.8965145290963
 30
0.0
  0
ENDBLK
  5
72F0
330
72E5
100
AcDbEntity
  8
0
100
AcDbBlockEnd
  0
BLOCK
  5
72FC
330
72F2
100
AcDbEntity
  8
0
100
AcDbBlockBegin
  2
*D2
 70
     1
 10
0.0
 20
0.0
 30
0.0
  3
*D2
  1

  0
LINE
  5
749C
330
72F2
100
AcDbEntity
  8
SUNPOU
 62
    70
370
    -2
100
AcDbLine
 10
176.3047243997419
 20
250.7522883145819
 30
0.0
 11
208.8650554910068
 21
250.7522883145819
 31
0.0
  0
LINE
  5
749D
330
72F2
100
AcDbEntity
  8
SUNPOU
 62
    70
370
    -2
100
AcDbLine
 10
146.3047244000309
 20
35.75228831458187
 30
0.0
 11
208.8650554910067
 21
35.75228831458185
 31
0.0
  0
LINE
  5
749E
330
72F2
100
AcDbEntity
  8
SUNPOU
 62
    60
370
    -2
100
AcDbLine
 10
208.8650554910068
 20
248.7522883145819
 30
0.0
 11
208.8650554910067
 21
37.75228831458185
 31
0.0
  0
INSERT
  5
749F
330
72F2
100
AcDbEntity
  8
SUNPOU
 62
    60
370
    -2
100
AcDbBlockReference
  2
_Dot
 10
208.8650554910068
 20
250.7522883145819
 30
0.0
 41
2.0
 42
2.0
 43
2.0
 50
90.0
  0
INSERT
  5
74A0
330
72F2
100
AcDbEntity
  8
SUNPOU
 62
    60
370
    -2
100
AcDbBlockReference
  2
_Dot
 10
208.8650554910067
 20
35.75228831458185
 30
0.0
 41
2.0
 42
2.0
 43
2.0
 50
270.0
  0
MTEXT
  5
74A1
330
72F2
100
AcDbEntity
  8
SUNPOU
 62
    60
100
AcDbMText
 10
203.3650554910067
 20
143.2522883145819
 30
0.0
 40
5.0
 41
0.0
 71
     5
 72
     1
  1
\A1;215
  7
SUNPOU
 11
0.0000000000000001
 21
1.0
 31
0.0
 73
     1
 44
1.0
1001
ACAD
1000
MTEXTBEGIN
1070
    73
1070
     1
1070
    44
1040
1.0
1070
    74
1070
     0
1000
MTEXTEND
  0
POINT
  5
74A2
330
72F2
100
AcDbEntity
  8
DEFPOINTS
 62
     0
100
AcDbPoint
 10
166.3047243997419
 20
250.7522883145819
 30
0.0
  0
POINT
  5
74A3
330
72F2
100
AcDbEntity
  8
DEFPOINTS
 62
     0
100
AcDbPoint
 10
136.3047244000309
 20
35.75228831458188
 30
0.0
  0
POINT
  5
74A4
330
72F2
100
AcDbEntity
  8
DEFPOINTS
 62
     0
100
AcDbPoint
 10
208.8650554910067
 20
35.75228831458185
 30
0.0
  0
ENDBLK
  5
72FD
330
72F2
100
AcDbEntity
  8
0
100
AcDbBlockEnd
  0
BLOCK
  5
7309
330
72FF
100
AcDbEntity
  8
0
100
AcDbBlockBegin
  2
*D3
 70
     1
 10
0.0
 20
0.0
 30
0.0
  3
*D3
  1

  0
LINE
  5
7481
330
72FF
100
AcDbEntity
  8
SUNPOU
 62
    70
370
    -2
100
AcDbLine
 10
-35.84735541467585
 20
261.9924014111799
 30
0.0
 11
-35.84735541467585
 21
276.938570791296
 31
0.0
  0
LINE
  5
7482
330
72FF
100
AcDbEntity
  8
SUNPOU
 62
    70
370
    -2
100
AcDbLine
 10
24.15264458532414
 20
261.9924014111799
 30
0.0
 11
24.15264458532414
 21
276.938570791296
 31
0.0
  0
LINE
  5
7483
330
72FF
100
AcDbEntity
  8
SUNPOU
 62
    60
370
    -2
100
AcDbLine
 10
-33.84735541467585
 20
276.938570791296
 30
0.0
 11
22.15264458532414
 21
276.938570791296
 31
0.0
  0
INSERT
  5
7484
330
72FF
100
AcDbEntity
  8
SUNPOU
 62
    60
370
    -2
100
AcDbBlockReference
  2
_Dot
 10
-35.84735541467585
 20
276.938570791296
 30
0.0
 41
2.0
 42
2.0
 43
2.0
 50
180.0
  0
INSERT
  5
7485
330
72FF
100
AcDbEntity
  8
SUNPOU
 62
    60
370
    -2
100
AcDbBlockReference
  2
_Dot
 10
24.15264458532414
 20
276.938570791296
 30
0.0
 41
2.0
 42
2.0
 43
2.0
  0
MTEXT
  5
7486
330
72FF
100
AcDbEntity
  8
SUNPOU
 62
    60
100
AcDbMText
 10
-5.847355414675853
 20
282.4385707912959
 30
0.0
 40
5.0
 41
0.0
 71
     5
 72
     1
  1
\A1;60
  7
SUNPOU
 73
     1
 44
1.0
1001
ACAD
1000
MTEXTBEGIN
1070
    73
1070
     1
1070
    44
1040
1.0
1070
    74
1070
     0
1000
MTEXTEND
  0
POINT
  5
7487
330
72FF
100
AcDbEntity
  8
DEFPOINTS
 62
     0
100
AcDbPoint
 10
-35.84735541467585
 20
251.9924014111799
 30
0.0
  0
POINT
  5
7488
330
72FF
100
AcDbEntity
  8
DEFPOINTS
 62
     0
100
AcDbPoint
 10
24.15264458532414
 20
251.9924014111799
 30
0.0
  0
POINT
  5
7489
330
72FF
100
AcDbEntity
  8
DEFPOINTS
 62
     0
100
AcDbPoint
 10
24.15264458532414
 20
276.938570791296
 30
0.0
  0
ENDBLK
  5
730A
330
72FF
100
AcDbEntity
  8
0
100
AcDbBlockEnd
  0
BLOCK
  5
7379
330
736F
100
AcDbEntity
  8
0
100
AcDbBlockBegin
  2
*D4
 70
     1
 10
0.0
 20
0.0
 30
0.0
  3
*D4
  1

  0
LINE
  5
7493
330
736F
100
AcDbEntity
  8
SUNPOU
 62
    70
370
    -2
100
AcDbLine
 10
34.15264458532414
 20
251.9924014111799
 30
0.0
 11
57.09628898140056
 21
251.9924014111799
 31
0.0
  0
LINE
  5
7494
330
736F
100
AcDbEntity
  8
SUNPOU
 62
    70
370
    -2
100
AcDbLine
 10
34.15264458532414
 20
36.9924014111799
 30
0.0
 11
57.09628898140052
 21
36.99240141117989
 31
0.0
  0
LINE
  5
7495
330
736F
100
AcDbEntity
  8
SUNPOU
 62
    60
370
    -2
100
AcDbLine
 10
57.09628898140056
 20
249.9924014111799
 30
0.0
 11
57.09628898140052
 21
38.99240141117989
 31
0.0
  0
INSERT
  5
7496
330
736F
100
AcDbEntity
  8
SUNPOU
 62
    60
370
    -2
100
AcDbBlockReference
  2
_Dot
 10
57.09628898140056
 20
251.9924014111799
 30
0.0
 41
2.0
 42
2.0
 43
2.0
 50
90.0
  0
INSERT
  5
7497
330
736F
100
AcDbEntity
  8
SUNPOU
 62
    60
370
    -2
100
AcDbBlockReference
  2
_Dot
 10
57.09628898140052
 20
36.99240141117989
 30
0.0
 41
2.0
 42
2.0
 43
2.0
 50
270.0
  0
MTEXT
  5
7498
330
736F
100
AcDbEntity
  8
SUNPOU
 62
    60
100
AcDbMText
 10
51.59628898140052
 20
144.4924014111799
 30
0.0
 40
5.0
 41
0.0
 71
     5
 72
     1
  1
\A1;215
  7
SUNPOU
 11
0.0000000000000001
 21
1.0
 31
0.0
 73
     1
 44
1.0
1001
ACAD
1000
MTEXTBEGIN
1070
    73
1070
     1
1070
    44
1040
1.0
1070
    74
1070
     0
1000
MTEXTEND
  0
POINT
  5
7499
330
736F
100
AcDbEntity
  8
DEFPOINTS
 62
     0
100
AcDbPoint
 10
24.15264458532414
 20
251.9924014111799
 30
0.0
  0
POINT
  5
749A
330
736F
100
AcDbEntity
  8
DEFPOINTS
 62
     0
100
AcDbPoint
 10
24.15264458532414
 20
36.9924014111799
 30
0.0
  0
POINT
  5
749B
330
736F
100
AcDbEntity
  8
DEFPOINTS
 62
     0
100
AcDbPoint
 10
57.09628898140052
 20
36.99240141117989
 30
0.0
  0
ENDBLK
  5
737A
330
736F
100
AcDbEntity
  8
0
100
AcDbBlockEnd
  0
ENDSEC
  0
SECTION
  2
ENTITIES
  0
LINE
  5
1F
330
2
100
AcDbEntity
  8
WAKU
100
AcDbLine
 10
0.0
 20
14.0
 30
0.0
 11
148.6218955736626
 21
14.0
 31
0.0
  0
LINE
  5
20
330
2
100
AcDbEntity
  8
WAKU
100
AcDbLine
 10
0.0
 20
0.0
 30
0.0
 11
148.6218955736626
 21
0.0
 31
0.0
  0
TEXT
  5
21
330
2
100
AcDbEntity
  8
HOJO
100
AcDbText
 10
9.653966000000025
 20
2.366626000000024
 30
0.0
 40
9.0
  1
TK706
  7
SUNPOU
100
AcDbText
  0
TEXT
  5
23
330
2
100
AcDbEntity
  8
HOJO
100
AcDbText
 10
85.84696046283864
 20
5.044386000000031
 30
0.0
 40
6.0
  1
60×215×60
  7
SUNPOU
100
AcDbText
  0
LINE
  5
7234
102
{ACAD_REACTORS
330
7465
102
}
330
2
100
AcDbEntity
  8
KIJUN
100
AcDbLine
 10
166.3047243997419
 20
250.7522883145819
 30
0.0
 11
166.3047243997418
 21
243.8065523145819
 31
0.0
  0
LINE
  5
7235
102
{ACAD_REACTORS
330
7465
102
}
330
2
100
AcDbEntity
  8
KIJUN
100
AcDbLine
 10
106.3047244003198
 20
250.7522883145819
 30
0.0
 11
106.3047244003198
 21
243.8065523145819
 31
0.0
  0
ELLIPSE
  5
7236
102
{ACAD_REACTORS
330
7466
102
}
330
2
100
AcDbEntity
  8
KIJUN
100
AcDbEllipse
 10
-13.89783202442721
 20
252.1466460078304
 30
0.0
 11
21.95007384156955
 21
0.0000000000050653
 31
0.0
210
0.0
220
0.0
230
1.0
 40
0.9922479999999682
 41
3.148674677223644
 42
3.571848521703322
  0
LINE
  5
7237
102
{ACAD_REACTORS
330
7466
102
}
330
2
100
AcDbEntity
  8
KIJUN
100
AcDbLine
 10
24.15264458532414
 20
36.9924014111799
 30
0.0
 11
24.15264458532414
 21
251.9924014111799
 31
0.0
  0
SPLINE
  5
7238
102
{ACAD_REACTORS
330
7466
102
}
330
2
100
AcDbEntity
  8
KIJUN
100
AcDbSpline
210
0.0
220
0.0
230
1.0
 70
     8
 71
     3
 72
    10
 73
     6
 74
     0
 42
0.0000000001
 43
0.0000000001
 40
0.0
 40
0.0
 40
0.0
 40
0.0
 40
3.217618635687003
 40
8.268506458717176
 40
14.45220302840828
 40
14.45220302840828
 40
14.45220302840828
 40
14.45220302840828
 10
19.32310504853825
 20
101.1789035475193
 30
0.0
 10
18.89678254140163
 20
100.2154830839292
 30
0.0
 10
17.80123617532136
 20
97.73972407467203
 30
0.0
 10
14.32051978472761
 20
93.67445438974526
 30
0.0
 10
10.3423135196547
 20
94.34952413057656
 30
0.0
 10
8.152644585324139
 20
94.72109341117992
 30
0.0
  0
SPLINE
  5
7239
102
{ACAD_REACTORS
330
7466
102
}
330
2
100
AcDbEntity
  8
KIJUN
100
AcDbSpline
210
0.0
220
0.0
230
1.0
 70
     8
 71
     3
 72
    10
 73
     6
 74
     0
 42
0.0000000001
 43
0.0000000001
 40
0.0
 40
0.0
 40
0.0
 40
0.0
 40
8.324500765794322
 40
13.6897766677059
 40
21.15501391532246
 40
21.15501391532246
 40
21.15501391532246
 40
21.15501391532246
 10
8.586984943142795
 20
91.33022654149824
 30
0.0
 10
11.44526241949122
 20
90.85041535115115
 30
0.0
 10
16.14574613694392
 20
90.06135805830966
 30
0.0
 10
22.36151354540071
 20
94.50918786761871
 30
0.0
 10
23.49382597093679
 20
98.72044819384441
 30
0.0
 10
24.15264458532414
 20
101.1707054111799
 30
0.0
  0
ELLIPSE
  5
723A
102
{ACAD_REACTORS
330
7466
102
}
330
2
100
AcDbEntity
  8
KIJUN
100
AcDbEllipse
 10
10.27556779255817
 20
102.2414278708133
 30
0.0
 11
11.12533737759726
 21
0.0000000000106922
 31
0.0
210
0.0
220
0.0
230
1.0
 40
0.9922479999999994
 41
1.762792503285945
 42
4.560021988072627
  0
ELLIPSE
  5
723B
102
{ACAD_REACTORS
330
7466
102
}
330
2
100
AcDbEntity
  8
KIJUN
100
AcDbEllipse
 10
8.152644585324139
 20
101.1707054111799
 30
0.0
 11
6.499999999999998
 21
0.0000000000073756
 31
0.0
210
0.0
220
0.0
230
1.0
 40
0.9922479999999945
 41
-0.0000000000011435
 42
6.283185307178442
  0
SPLINE
  5
723C
102
{ACAD_REACTORS
330
7466
102
}
330
2
100
AcDbEntity
  8
KIJUN
100
AcDbSpline
210
0.0
220
0.0
230
1.0
 70
     8
 71
     3
 72
    11
 73
     7
 74
     0
 42
0.0000000001
 43
0.0000000001
 40
0.0
 40
0.0
 40
0.0
 40
0.0
 40
6.588433425119759
 40
22.85082246916395
 40
28.44905733918561
 40
45.67992950046583
 40
45.67992950046583
 40
45.67992950046583
 40
45.67992950046583
 10
24.15264458532414
 20
49.89163874451321
 30
0.0
 10
22.11005139821427
 20
50.85241507597202
 30
0.0
 10
15.02567620859548
 20
54.184698786851
 30
0.0
 10
12.6197442110748
 20
64.27999984593184
 30
0.0
 10
4.867042742253737
 20
75.21969884767262
 30
0.0
 10
8.69807101490727
 20
82.89745894001503
 30
0.0
 10
11.58964090074818
 20
88.69245137904192
 30
0.0
  0
SPLINE
  5
723D
102
{ACAD_REACTORS
330
7466
102
}
330
2
100
AcDbEntity
  8
KIJUN
100
AcDbSpline
210
0.0
220
0.0
230
1.0
 70
     8
 71
     3
 72
     9
 73
     5
 74
     0
 42
0.0000000001
 43
0.0000000001
 40
0.0
 40
0.0
 40
0.0
 40
0.0
 40
8.635431325655728
 40
16.84410517467604
 40
16.84410517467604
 40
16.84410517467604
 40
16.84410517467604
 10
24.15264458532414
 20
61.79861474451327
 30
0.0
 10
21.48668974205484
 20
62.99019478717571
 30
0.0
 10
16.28652983370673
 20
65.31446775116982
 30
0.0
 10
12.70908756248531
 20
69.71532291210174
 30
0.0
 10
10.96568495880723
 20
71.86000108278779
 30
0.0
  0
SPLINE
  5
723F
102
{ACAD_REACTORS
330
7466
102
}
330
2
100
AcDbEntity
  8
KIJUN
100
AcDbSpline
210
0.0
220
0.0
230
1.0
 70
     8
 71
     3
 72
    10
 73
     6
 74
     0
 42
0.0000000001
 43
0.0000000001
 40
0.0
 40
0.0
 40
0.0
 40
0.0
 40
5.978601103254971
 40
13.5675504177137
 40
16.14010805563068
 40
16.14010805563068
 40
16.14010805563068
 40
16.14010805563068
 10
11.96401446591238
 20
82.99912341168658
 30
0.0
 10
12.66136583273171
 20
81.17642931070369
 30
0.0
 10
14.24390155718926
 20
77.04009479296978
 30
0.0
 10
17.83565060428731
 20
72.25601140226093
 30
0.0
 10
21.21622629743882
 20
71.64371097072887
 30
0.0
 10
22.07207630676652
 20
71.48869674309302
 30
0.0
  0
SPLINE
  5
7240
102
{ACAD_REACTORS
330
7466
102
}
330
2
100
AcDbEntity
  8
KIJUN
100
AcDbSpline
210
0.0
220
0.0
230
1.0
 70
     8
 71
     3
 72
     9
 73
     5
 74
     0
 42
0.0000000001
 43
0.0000000001
 40
0.0
 40
0.0
 40
0.0
 40
0.0
 40
4.617675152123591
 40
10.27159902301312
 40
10.27159902301312
 40
10.27159902301312
 40
10.27159902301312
 10
14.21025585689944
 20
87.45477548802769
 30
0.0
 10
15.06130639740204
 20
86.11817564072913
 30
0.0
 10
16.95439103683105
 20
83.14503066335742
 30
0.0
 10
20.41615624752491
 20
82.25265109432594
 30
0.0
 10
22.32165868354326
 20
81.76144752067235
 30
0.0
  0
SPLINE
  5
7242
102
{ACAD_REACTORS
330
7466
102
}
330
2
100
AcDbEntity
  8
KIJUN
100
AcDbSpline
210
0.0
220
0.0
230
1.0
 70
     8
 71
     3
 72
    16
 73
    12
 74
     0
 42
0.0000000001
 43
0.0000000001
 40
0.0
 40
0.0
 40
0.0
 40
0.0
 40
11.48492502138883
 40
25.70522036341542
 40
42.95898772926441
 40
53.63788117574595
 40
61.3258415171867
 40
69.10723806770356
 40
77.77805002772891
 40
83.95742629580551
 40
90.00294266555341
 40
90.00294266555341
 40
90.00294266555341
 40
90.00294266555341
 10
-29.22161955934709
 20
173.440319473508
 30
0.0
 10
-27.17703277579529
 20
170.2160285213543
 30
0.0
 10
-22.60089895468208
 20
162.9995156328047
 30
0.0
 10
-12.43367415176277
 20
152.8946097670142
 30
0.0
 10
-3.595564247124816
 20
142.0577905862468
 30
0.0
 10
4.179045370065924
 20
133.1582411580144
 30
0.0
 10
9.861962098928209
 20
126.583406041725
 30
0.0
 10
13.91991237933259
 20
119.6110214348835
 30
0.0
 10
16.1567958445575
 20
112.4171316385054
 30
0.0
 10
16.66494130616011
 20
105.3651757872354
 30
0.0
 10
15.20363659979445
 20
101.5424038087148
 30
0.0
 10
14.48098472993746
 20
99.65194707763075
 30
0.0
  0
SPLINE
  5
7243
102
{ACAD_REACTORS
330
7466
102
}
330
2
100
AcDbEntity
  8
KIJUN
100
AcDbSpline
210
0.0
220
0.0
230
1.0
 70
     8
 71
     3
 72
    13
 73
     9
 74
     0
 42
0.0000000001
 43
0.0000000001
 40
0.0
 40
0.0
 40
0.0
 40
0.0
 40
28.53700870065131
 40
42.99938518865714
 40
55.45402675109677
 40
64.00118891785972
 40
72.96641925465801
 40
81.01306498418818
 40
81.01306498418818
 40
81.01306498418818
 40
81.01306498418818
 10
-20.18799996098737
 20
168.2398652327516
 30
0.0
 10
-14.36250970000831
 20
160.762313459421
 30
0.0
 10
-5.584697621937319
 20
149.4951854873774
 30
0.0
 10
6.740525176994747
 20
135.889801093323
 30
0.0
 10
14.14201793220637
 20
126.5620668185852
 30
0.0
 10
18.06717885260584
 20
117.5208847761924
 30
0.0
 10
21.55032978270244
 20
109.4013095202072
 30
0.0
 10
20.03829840838074
 20
103.8192343876858
 30
0.0
 10
19.32310504853825
 20
101.1789035475193
 30
0.0
  0
SPLINE
  5
7244
102
{ACAD_REACTORS
330
7466
102
}
330
2
100
AcDbEntity
  8
KIJUN
100
AcDbSpline
210
0.0
220
0.0
230
1.0
 70
     8
 71
     3
 72
    14
 73
    10
 74
     0
 42
0.0000000001
 43
0.0000000001
 40
0.0
 40
0.0
 40
0.0
 40
0.0
 40
7.24134793078639
 40
15.8319333346454
 40
30.05671073552598
 40
35.78296757889055
 40
45.4810245247854
 40
54.72889513656872
 40
65.01864719352091
 40
65.01864719352091
 40
65.01864719352091
 40
65.01864719352091
 10
-15.18025801536371
 20
228.2508421794044
 30
0.0
 10
-17.52326975068631
 20
227.6580655443355
 30
0.0
 10
-22.64585272149123
 20
226.3620637145043
 30
0.0
 10
-31.18684840638439
 20
220.2151361331663
 30
0.0
 10
-33.38242951401303
 20
210.2970090217583
 30
0.0
 10
-34.11711428907549
 20
200.5851294773928
 30
0.0
 10
-33.53046910399755
 20
192.4157760776239
 30
0.0
 10
-32.76198671152699
 20
182.7207358393436
 30
0.0
 10
-30.4429640632313
 20
176.6418477430238
 30
0.0
 10
-29.22161955934739
 20
173.440319473508
 30
0.0
  0
SPLINE
  5
7245
102
{ACAD_REACTORS
330
7466
102
}
330
2
100
AcDbEntity
  8
KIJUN
100
AcDbSpline
210
0.0
220
0.0
230
1.0
 70
     8
 71
     3
 72
    10
 73
     6
 74
     0
 42
0.0000000001
 43
0.0000000001
 40
0.0
 40
0.0
 40
0.0
 40
0.0
 40
4.18208500270251
 40
7.338139872905651
 40
10.7385546511586
 40
10.7385546511586
 40
10.7385546511586
 40
10.7385546511586
 10
-14.54168197073315
 20
190.5416317960213
 30
0.0
 10
-16.34820379009767
 20
190.8287306311548
 30
0.0
 10
-19.51803648966875
 20
191.3324916518411
 30
0.0
 10
-18.52750887777276
 20
186.7783197813482
 30
0.0
 10
-17.57719194985783
 20
184.965246038416
 30
0.0
 10
-17.08432430934867
 20
184.0249224984479
 30
0.0
  0
SPLINE
  5
7246
102
{ACAD_REACTORS
330
7466
102
}
330
2
100
AcDbEntity
  8
KIJUN
100
AcDbSpline
210
0.0
220
0.0
230
1.0
 70
     8
 71
     3
 72
    10
 73
     6
 74
     0
 42
0.0000000001
 43
0.0000000001
 40
0.0
 40
0.0
 40
0.0
 40
0.0
 40
2.285364251506175
 40
4.776337102624438
 40
9.418324414953975
 40
9.418324414953975
 40
9.418324414953975
 40
9.418324414953975
 10
-24.06940782284685
 20
182.5350414111799
 30
0.0
 10
-24.00078971307908
 20
183.3311240137989
 30
0.0
 10
-23.85738009101083
 20
184.9949108123966
 30
0.0
 10
-20.48863232313584
 20
186.6325259075385
 30
0.0
 10
-18.42639013509996
 20
185.0529068665725
 30
0.0
 10
-17.08432430934867
 20
184.024922498448
 30
0.0
  0
SPLINE
  5
7247
102
{ACAD_REACTORS
330
7466
102
}
330
2
100
AcDbEntity
  8
KIJUN
100
AcDbSpline
210
0.0
220
0.0
230
1.0
 70
     8
 71
     3
 72
     9
 73
     5
 74
     0
 42
0.0000000001
 43
0.0000000001
 40
0.0
 40
0.0
 40
0.0
 40
0.0
 40
4.584769281638736
 40
9.157858453483871
 40
9.157858453483871
 40
9.157858453483871
 40
9.157858453483871
 10
-13.91514414389565
 20
178.2827061590582
 30
0.0
 10
-15.40842090344879
 20
177.788633195114
 30
0.0
 10
-18.39117016645564
 20
176.8017459622897
 30
0.0
 10
-21.36322387019426
 20
177.819068410395
 30
0.0
 10
-22.84735541467585
 20
178.3270808780847
 30
0.0
  0
ELLIPSE
  5
7248
102
{ACAD_REACTORS
330
7466
102
}
330
2
100
AcDbEntity
  8
KIJUN
100
AcDbEllipse
 10
-7.230489810605885
 20
202.5719450668594
 30
0.0
 11
16.68506264950058
 21
0.0000000000021758
 31
0.0
210
0.0
220
0.0
230
1.0
 40
0.9922480000000064
 41
2.051759295373956
 42
3.169614982879926
  0
SPLINE
  5
7249
102
{ACAD_REACTORS
330
7466
102
}
330
2
100
AcDbEntity
  8
KIJUN
100
AcDbSpline
210
0.0
220
0.0
230
1.0
 70
     8
 71
     3
 72
    12
 73
     8
 74
     0
 42
0.0000000001
 43
0.0000000001
 40
0.0
 40
0.0
 40
0.0
 40
0.0
 40
6.588533336625019
 40
38.95522252245094
 40
59.16686252324419
 40
72.52891127566127
 40
85.59501109747818
 40
85.59501109747818
 40
85.59501109747818
 40
85.59501109747818
 10
-24.06940782284685
 20
182.5350414111799
 30
0.0
 10
-23.46636332247156
 20
180.428116638916
 30
0.0
 10
-19.90081519471646
 20
167.9707578993987
 30
0.0
 10
-4.878634795369382
 20
153.7577906990412
 30
0.0
 10
8.862095572198636
 20
137.0659346204831
 30
0.0
 10
19.04542964339811
 20
125.2009802904851
 30
0.0
 10
22.46299652382695
 20
117.0884991823712
 30
0.0
 10
24.15264458532414
 20
113.0776814111799
 30
0.0
  0
ELLIPSE
  5
724B
102
{ACAD_REACTORS
330
7466
102
}
330
2
100
AcDbEntity
  8
KIJUN
100
AcDbEllipse
 10
-6.679671356563073
 20
191.216253152044
 30
0.0
 11
-34.37253350271502
 21
0.0000000000014904
 31
0.0
210
0.0
220
0.0
230
1.0
 40
0.9922479999999929
 41
4.628294362790932
 42
5.155108302795552
  0
ELLIPSE
  5
724C
102
{ACAD_REACTORS
330
7466
102
}
330
2
100
AcDbEntity
  8
KIJUN
100
AcDbEllipse
 10
-9.525927461390185
 20
204.6066399830317
 30
0.0
 11
-16.74803375957137
 21
0.0000000000012431
 31
0.0
210
0.0
220
0.0
230
1.0
 40
0.9922480000000085
 41
4.366472483343715
 42
5.512081738648502
  0
ELLIPSE
  5
724D
102
{ACAD_REACTORS
330
7466
102
}
330
2
100
AcDbEntity
  8
KIJUN
100
AcDbEllipse
 10
-5.762995167483854
 20
205.4592237426445
 30
0.0
 11
-15.01938659558067
 21
0.0000000000022754
 31
0.0
210
0.0
220
0.0
230
1.0
 40
0.9922479999999918
 41
4.584496143911535
 42
6.156562358429937
  0
ELLIPSE
  5
724E
102
{ACAD_REACTORS
330
7466
102
}
330
2
100
AcDbEntity
  8
KIJUN
100
AcDbEllipse
 10
-3.676987659997752
 20
203.8683734111804
 30
0.0
 11
13.50107496356576
 21
0.0000000000006154
 31
0.0
210
0.0
220
0.0
230
1.0
 40
0.9922479999999978
 41
1.583415490592888
 42
4.699769816586607
  0
ELLIPSE
  5
724F
102
{ACAD_REACTORS
330
7466
102
}
330
2
100
AcDbEntity
  8
KIJUN
100
AcDbEllipse
 10
-1.163806324918422
 20
204.8376972725879
 30
0.0
 11
-19.66089884305208
 21
0.0000000000059559
 31
0.0
210
0.0
220
0.0
230
1.0
 40
0.9922480000000016
 41
-0.1286859020755273
 42
1.43387724894554
  0
ELLIPSE
  5
7250
102
{ACAD_REACTORS
330
7466
102
}
330
2
100
AcDbEntity
  8
KIJUN
100
AcDbEllipse
 10
-5.314958076358433
 20
166.2663535375008
 30
0.0
 11
67.62247898053923
 21
0.0000000000605605
 31
0.0
210
0.0
220
0.0
230
1.0
 40
0.9922479999999714
 41
1.652700862267372
 42
1.926229683068432
  0
LINE
  5
7251
102
{ACAD_REACTORS
330
7466
102
}
330
2
100
AcDbEntity
  8
KIJUN
100
AcDbLine
 10
24.15264458532414
 20
237.1086814111799
 30
0.0
 11
-28.84735541467585
 21
237.1086814111799
 31
0.0
  0
LINE
  5
7252
102
{ACAD_REACTORS
330
7466
102
}
330
2
100
AcDbEntity
  8
KIJUN
100
AcDbLine
 10
24.15264458532414
 20
243.0621694111799
 30
0.0
 11
-33.84735541467585
 21
243.0621694111799
 31
0.0
  0
LINE
  5
7253
102
{ACAD_REACTORS
330
7466
102
}
330
2
100
AcDbEntity
  8
KIJUN
100
AcDbLine
 10
24.15264458532414
 20
233.1396894111799
 30
0.0
 11
-28.84735541467585
 21
233.1396894111799
 31
0.0
  0
SPLINE
  5
7254
102
{ACAD_REACTORS
330
7466
102
}
330
2
100
AcDbEntity
  8
KIJUN
100
AcDbSpline
210
0.0
220
0.0
230
1.0
 70
     8
 71
     3
 72
    13
 73
     9
 74
     0
 42
0.0000000001
 43
0.0000000001
 40
0.0
 40
0.0
 40
0.0
 40
0.0
 40
9.11576741344886
 40
17.79948250914034
 40
28.17360889287901
 40
36.24027272004848
 40
49.66893270789639
 40
59.32316214605685
 40
59.32316214605685
 40
59.32316214605685
 40
59.32316214605685
 10
-21.36792621070258
 20
222.0707563441919
 30
0.0
 10
-23.85336956058902
 20
220.1318144077611
 30
0.0
 10
-28.70645580415571
 20
216.3458289258562
 30
0.0
 10
-30.04519951998256
 20
206.6176887167303
 30
0.0
 10
-30.75362877158224
 20
197.7634585285991
 30
0.0
 10
-29.2487428827775
 20
187.2746503039232
 30
0.0
 10
-26.46683113257318
 20
177.1687852952165
 30
0.0
 10
-22.03963745497297
 20
170.8730182379288
 30
0.0
 10
-20.18799996098737
 20
168.2398652327516
 30
0.0
  0
ELLIPSE
  5
7255
102
{ACAD_REACTORS
330
7466
102
}
330
2
100
AcDbEntity
  8
KIJUN
100
AcDbEllipse
 10
17.46936772514976
 20
197.9321233297643
 30
0.0
 11
-44.34251601061823
 21
0.0000000000063632
 31
0.0
210
0.0
220
0.0
230
1.0
 40
0.9922480000000161
 41
-0.2155139909163737
 42
0.3575107253350342
  0
ELLIPSE
  5
7256
102
{ACAD_REACTORS
330
7466
102
}
330
2
100
AcDbEntity
  8
KIJUN
100
AcDbEllipse
 10
25.8692162783269
 20
210.6007733803132
 30
0.0
 11
53.21448586247699
 21
0.0000000000070574
 31
0.0
210
0.0
220
0.0
230
1.0
 40
0.9922479999999907
 41
3.301621928373376
 42
3.628676159441425
  0
ELLIPSE
  5
7257
102
{ACAD_REACTORS
330
7466
102
}
330
2
100
AcDbEntity
  8
KIJUN
100
AcDbEllipse
 10
1.285529379545344
 20
203.5728232746444
 30
0.0
 11
25.23774050857792
 21
0.0000000000467829
 31
0.0
210
0.0
220
0.0
230
1.0
 40
0.9922479999999712
 41
3.200117456772072
 42
3.793187627124799
  0
ELLIPSE
  5
7258
102
{ACAD_REACTORS
330
7466
102
}
330
2
100
AcDbEntity
  8
KIJUN
100
AcDbEllipse
 10
0.5960666089649216
 20
200.1132605472878
 30
0.0
 11
27.42841189264408
 21
0.0000000000131568
 31
0.0
210
0.0
220
0.0
230
1.0
 40
0.9922480000000085
 41
2.509726221724093
 42
2.872786712021651
  0
LINE
  5
725A
102
{ACAD_REACTORS
330
7466
102
}
330
2
100
AcDbEntity
  8
KIJUN
100
AcDbLine
 10
-28.84735541467585
 20
229.1706974111799
 30
0.0
 11
-28.84735541467585
 21
233.1396894111799
 31
0.0
  0
ELLIPSE
  5
725B
102
{ACAD_REACTORS
330
7466
102
}
330
2
100
AcDbEntity
  8
KIJUN
100
AcDbEllipse
 10
-26.42359705148409
 20
244.15674990148
 30
0.0
 11
7.50527070643085
 21
0.000000000005015
 31
0.0
210
0.0
220
0.0
230
1.0
 40
0.9922479999999803
 41
3.289108050537524
 42
4.383553809034212
  0
LINE
  5
725C
102
{ACAD_REACTORS
330
7466
102
}
330
2
100
AcDbEntity
  8
KIJUN
100
AcDbLine
 10
-28.84735541467585
 20
233.1396894111799
 30
0.0
 11
-28.84735541467585
 21
237.1086814111799
 31
0.0
  0
SPLINE
  5
725D
102
{ACAD_REACTORS
330
7466
102
}
330
2
100
AcDbEntity
  8
KIJUN
100
AcDbSpline
210
0.0
220
0.0
230
1.0
 70
     8
 71
     3
 72
    24
 73
    20
 74
     0
 42
0.0000000001
 43
0.0000000001
 40
0.0
 40
0.0
 40
0.0
 40
0.0
 40
5.835440370036648
 40
12.4494880047438
 40
17.74335246427703
 40
25.11725391477294
 40
36.45952331349331
 40
44.43373858154241
 40
47.07053364559494
 40
48.16058963172014
 40
49.68095861666057
 40
53.25229565280678
 40
58.0544392975726
 40
69.57398572824974
 40
74.60494309500436
 40
78.30059334099619
 40
82.64066289254285
 40
86.74659146633958
 40
89.63931805607897
 40
89.63931805607897
 40
89.63931805607897
 40
89.63931805607897
 10
-12.2828088939643
 20
175.8980906620104
 30
0.0
 10
-12.5263393129681
 20
173.9875927204825
 30
0.0
 10
-13.04589376608909
 20
169.9116841860955
 30
0.0
 10
-11.56671606202998
 20
163.805035923279
 30
0.0
 10
-6.354768527634153
 20
159.7107656342763
 30
0.0
 10
0.9652535004876057
 20
156.376029065696
 30
0.0
 10
7.894745062582636
 20
151.4536828200106
 30
0.0
 10
12.27852281162596
 20
143.4381791589826
 30
0.0
 10
9.604753124838321
 20
140.3312453421889
 30
0.0
 10
8.422498264788167
 20
139.0181451941614
 30
0.0
 10
8.442772522350217
 20
136.7000097266541
 30
0.0
 10
12.56059868533682
 20
134.9806768858485
 30
0.0
 10
17.496916007721
 20
141.0783878425665
 30
0.0
 10
17.35658868868565
 20
147.1800724776539
 30
0.0
 10
9.616624647274214
 20
156.3164778786305
 30
0.0
 10
13.92802271912048
 20
150.2779159054271
 30
0.0
 10
19.6368552176927
 20
153.8106890689212
 30
0.0
 10
15.23474503702249
 20
156.6470320759649
 30
0.0
 10
14.20535287356212
 20
158.6252933995817
 30
0.0
 10
13.77987826266411
 20
159.4429603653861
 30
0.0
  0
SPLINE
  5
725E
102
{ACAD_REACTORS
330
7466
102
}
330
2
100
AcDbEntity
  8
KIJUN
100
AcDbSpline
210
0.0
220
0.0
230
1.0
 70
     8
 71
     3
 72
    28
 73
    24
 74
     0
 42
0.0000000001
 43
0.0000000001
 40
0.0
 40
0.0
 40
0.0
 40
0.0
 40
2.110128364172599
 40
5.58380663258952
 40
8.984205482288356
 40
12.93693648532508
 40
18.71666984272892
 40
24.43020506641665
 40
28.55878880629962
 40
32.22571452255483
 40
36.39188020271229
 40
44.53035121310965
 40
51.422378740919
 40
54.46161017247009
 40
58.73201359198007
 40
61.66511830155016
 40
64.52036624073824
 40
70.17206848978014
 40
76.23683798618988
 40
80.47740224969663
 40
83.18425405823987
 40
86.50968700510603
 40
88.86800681108491
 40
88.86800681108491
 40
88.86800681108491
 40
88.86800681108491
 10
10.38253080136862
 20
190.4730254111799
 30
0.0
 10
9.851026171182581
 20
189.9469966210988
 30
0.0
 10
8.444562408278766
 20
188.5550229872393
 30
0.0
 10
9.785937448128247
 20
185.2951357112354
 30
0.0
 10
8.57891104407215
 20
181.9632788866769
 30
0.0
 10
6.513884415242142
 20
177.4687273391004
 30
0.0
 10
0.3307650859008149
 20
178.9055833534981
 30
0.0
 10
-4.162652599816031
 20
180.1299510463542
 30
0.0
 10
-9.57500454979532
 20
179.5942456584967
 30
0.0
 10
-10.07904137897675
 20
174.7837395934561
 30
0.0
 10
-6.646701976348797
 20
170.3727509221656
 30
0.0
 10
0.1364224430159169
 20
169.0428551637635
 30
0.0
 10
5.798489054214108
 20
168.6386723788308
 30
0.0
 10
10.77045070642962
 20
166.5036213159262
 30
0.0
 10
9.995783105378546
 20
162.7202532050603
 30
0.0
 10
11.0078964381121
 20
158.9344102221512
 30
0.0
 10
15.86091540593795
 20
159.4670592123816
 30
0.0
 10
17.07248646300765
 20
165.4626998849415
 30
0.0
 10
15.04351805791606
 20
169.6484221690567
 30
0.0
 10
6.922365197396423
 20
172.0558696284778
 30
0.0
 10
13.29005214533384
 20
171.0559904066058
 30
0.0
 10
11.41281736238179
 20
175.2260350657072
 30
0.0
 10
9.89275700702359
 20
176.1264092553905
 30
0.0
 10
9.262048987479772
 20
176.4999952251988
 30
0.0
  0
SPLINE
  5
725F
102
{ACAD_REACTORS
330
7466
102
}
330
2
100
AcDbEntity
  8
KIJUN
100
AcDbSpline
210
0.0
220
0.0
230
1.0
 70
     8
 71
     3
 72
    11
 73
     7
 74
     0
 42
0.0000000001
 43
0.0000000001
 40
0.0
 40
0.0
 40
0.0
 40
0.0
 40
3.145325594846496
 40
5.260812047868444
 40
6.75383650386767
 40
7.791190600737878
 40
7.791190600737878
 40
7.791190600737878
 40
7.791190600737878
 10
-0.1562610290121107
 20
109.8828093669845
 30
0.0
 10
-1.093514137288114
 20
110.3271766605198
 30
0.0
 10
-2.661145943673904
 20
111.0704169836646
 30
0.0
 10
-4.463387760936765
 20
112.656462731736
 30
0.0
 10
-4.145285633308407
 20
114.6538931305284
 30
0.0
 10
-3.217410636878771
 20
114.6847213019606
 30
0.0
 10
-2.837018964716715
 20
114.6973596204043
 30
0.0
  0
SPLINE
  5
7260
102
{ACAD_REACTORS
330
7466
102
}
330
2
100
AcDbEntity
  8
KIJUN
100
AcDbSpline
210
0.0
220
0.0
230
1.0
 70
     8
 71
     3
 72
    12
 73
     8
 74
     0
 42
0.0000000001
 43
0.0000000001
 40
0.0
 40
0.0
 40
0.0
 40
0.0
 40
3.765037010231493
 40
7.684824612117377
 40
8.780748672397855
 40
10.17950496944399
 40
12.86025069585343
 40
12.86025069585343
 40
12.86025069585343
 40
12.86025069585343
 10
-2.40230707130382
 20
109.8109511120342
 30
0.0
 10
-3.59433089170054
 20
110.3133845831469
 30
0.0
 10
-6.027373108370486
 20
111.3389025513008
 30
0.0
 10
-7.3046371503582
 20
114.2292503354643
 30
0.0
 10
-7.732235516094132
 20
116.2773275252779
 30
0.0
 10
-7.076029552935377
 20
118.2067328736451
 30
0.0
 10
-5.479869134833936
 20
117.7801690640827
 30
0.0
 10
-4.430991062244228
 20
117.499863011297
 30
0.0
  0
SPLINE
  5
7261
102
{ACAD_REACTORS
330
7466
102
}
330
2
100
AcDbEntity
  8
KIJUN
100
AcDbSpline
210
0.0
220
0.0
230
1.0
 70
     8
 71
     3
 72
     9
 73
     5
 74
     0
 42
0.0000000001
 43
0.0000000001
 40
0.0
 40
0.0
 40
0.0
 40
0.0
 40
3.921501599025634
 40
8.96322285573882
 40
8.96322285573882
 40
8.96322285573882
 40
8.96322285573882
 10
6.19153377686138
 20
118.1607073743313
 30
0.0
 10
6.201900181719132
 20
116.762862222534
 30
0.0
 10
6.225594267927384
 20
113.5678622213896
 30
0.0
 10
3.254346821655211
 20
112.1480734602309
 30
0.0
 10
1.583050497784771
 20
111.349456791608
 30
0.0
  0
SPLINE
  5
7263
102
{ACAD_REACTORS
330
7466
102
}
330
2
100
AcDbEntity
  8
KIJUN
100
AcDbSpline
210
0.0
220
0.0
230
1.0
 70
     8
 71
     3
 72
     9
 73
     5
 74
     0
 42
0.0000000001
 43
0.0000000001
 40
0.0
 40
0.0
 40
0.0
 40
0.0
 40
4.228371495881298
 40
10.69437650115213
 40
10.69437650115213
 40
10.69437650115213
 40
10.69437650115213
 10
15.76585414510261
 20
111.5540877171943
 30
0.0
 10
16.02994605510497
 20
110.1581592032706
 30
0.0
 10
16.69788602188125
 20
106.6275836350794
 30
0.0
 10
15.42328837088441
 20
103.2268486207979
 30
0.0
 10
14.65264458532414
 20
101.1707054111799
 30
0.0
  0
SPLINE
  5
7264
102
{ACAD_REACTORS
330
7466
102
}
330
2
100
AcDbEntity
  8
KIJUN
100
AcDbSpline
210
0.0
220
0.0
230
1.0
 70
     8
 71
     3
 72
    17
 73
    13
 74
     0
 42
0.0000000001
 43
0.0000000001
 40
0.0
 40
0.0
 40
0.0
 40
0.0
 40
3.176371552483749
 40
8.404675886982893
 40
14.32218708150441
 40
22.57819174453405
 40
29.91288833849959
 40
31.72798894437791
 40
35.17534866794217
 40
44.36112293342655
 40
54.79748015782146
 40
58.89788142515079
 40
58.89788142515079
 40
58.89788142515079
 40
58.89788142515079
 10
5.608344665760288
 20
168.3522046862524
 30
0.0
 10
6.457166747502565
 20
167.8046076402517
 30
0.0
 10
8.703149109729359
 20
166.3556664152536
 30
0.0
 10
11.88096373940874
 20
160.1702075648636
 30
0.0
 10
2.617001892524761
 20
160.5074804140902
 30
0.0
 10
-3.94488349608618
 20
162.9765154597125
 30
0.0
 10
-6.096160275560027
 20
168.3349865861148
 30
0.0
 10
-11.41123864425334
 20
170.3334596012115
 30
0.0
 10
-7.087929686295009
 20
163.387695682541
 30
0.0
 10
-0.6064294959763999
 20
162.6953674826588
 30
0.0
 10
6.793578180509278
 20
158.4201916277439
 30
0.0
 10
10.25385074885005
 20
155.0933039373614
 30
0.0
 10
11.2298940691407
 20
154.1548846529197
 30
0.0
  0
ELLIPSE
  5
7265
102
{ACAD_REACTORS
330
7466
102
}
330
2
100
AcDbEntity
  8
KIJUN
100
AcDbEllipse
 10
-4.553471185473629
 20
210.0784126751896
 30
0.0
 11
-24.76862277625353
 21
0.0000000000054903
 31
0.0
210
0.0
220
0.0
230
1.0
 40
0.9922480000000026
 41
1.599308669184365
 42
3.07053353915266
  0
ELLIPSE
  5
7266
102
{ACAD_REACTORS
330
7466
102
}
330
2
100
AcDbEntity
  8
KIJUN
100
AcDbEllipse
 10
-6.448272141683649
 20
207.3578408820203
 30
0.0
 11
26.58007960812781
 21
0.0000000000021499
 31
0.0
210
0.0
220
0.0
230
1.0
 40
0.992248000000001
 41
-0.0006293869922422
 42
1.35848633648067
  0
SPLINE
  5
7267
102
{ACAD_REACTORS
330
7466
102
}
330
2
100
AcDbEntity
  8
KIJUN
100
AcDbSpline
210
0.0
220
0.0
230
1.0
 70
     8
 71
     3
 72
     9
 73
     5
 74
     0
 42
0.0000000001
 43
0.0000000001
 40
0.0
 40
0.0
 40
0.0
 40
0.0
 40
6.369103309935224
 40
11.43014842963336
 40
11.43014842963336
 40
11.43014842963336
 40
11.43014842963336
 10
-15.18025801536371
 20
228.2508421794044
 30
0.0
 10
-13.09718864499281
 20
228.7324171411574
 30
0.0
 10
-9.358861452933876
 20
229.5966633348477
 30
0.0
 10
-5.53880246813944
 20
229.3014237138391
 30
0.0
 10
-3.847355414676005
 20
229.1706974111803
 30
0.0
  0
SPLINE
  5
7268
102
{ACAD_REACTORS
330
7466
102
}
330
2
100
AcDbEntity
  8
KIJUN
100
AcDbSpline
210
0.0
220
0.0
230
1.0
 70
     8
 71
     3
 72
    16
 73
    12
 74
     0
 42
0.0000000001
 43
0.0000000001
 40
0.0
 40
0.0
 40
0.0
 40
0.0
 40
2.336143029253669
 40
5.006834981713974
 40
13.08122072533162
 40
21.07025544060801
 40
28.62321882250153
 40
33.8991620643567
 40
35.80219498943498
 40
40.58189627377479
 40
45.7806747401219
 40
45.7806747401219
 40
45.7806747401219
 40
45.7806747401219
 10
10.38253080136892
 20
190.4730254111799
 30
0.0
 10
11.20898529377301
 20
190.8508578203844
 30
0.0
 10
12.98024724629365
 20
191.6606303813713
 30
0.0
 10
15.09545941903095
 20
186.7459321583359
 30
0.0
 10
15.15876374263698
 20
180.5047027339382
 30
0.0
 10
8.367118743485455
 20
174.484428304312
 30
0.0
 10
0.9120420250379623
 20
175.3421173590205
 30
0.0
 10
-3.356629747223198
 20
176.942357825105
 30
0.0
 10
-8.380244240426133
 20
175.2756141354185
 30
0.0
 10
-1.088105937879294
 20
173.2419482071807
 30
0.0
 10
1.562473050097597
 20
174.4293148380998
 30
0.0
 10
2.943422183666317
 20
175.0479317243101
 30
0.0
  0
SPLINE
  5
7269
102
{ACAD_REACTORS
330
7466
102
}
330
2
100
AcDbEntity
  8
KIJUN
100
AcDbSpline
210
0.0
220
0.0
230
1.0
 70
     8
 71
     3
 72
     9
 73
     5
 74
     0
 42
0.0000000001
 43
0.0000000001
 40
0.0
 40
0.0
 40
0.0
 40
0.0
 40
4.163282416493947
 40
5.926333532372513
 40
5.926333532372513
 40
5.926333532372513
 40
5.926333532372513
 10
-10.82250506691288
 20
182.1510696944032
 30
0.0
 10
-10.5801716257696
 20
183.5414326877918
 30
0.0
 10
-10.23521573409779
 20
185.5205813511743
 30
0.0
 10
-10.84695765815624
 20
187.4028175300454
 30
0.0
 10
-11.02894746280501
 20
187.9627722773404
 30
0.0
  0
ELLIPSE
  5
726A
102
{ACAD_REACTORS
330
7466
102
}
330
2
100
AcDbEntity
  8
KIJUN
100
AcDbEllipse
 10
-11.30492280901616
 20
179.06217341118
 30
0.0
 11
1.874229062018913
 21
2.932904096848227
 31
0.0
210
0.0
220
0.0
230
0.9999999999999998
 40
0.6347619961483107
 41
0.0074500318252717
 42
6.290635339004857
  0
ELLIPSE
  5
726B
102
{ACAD_REACTORS
330
7466
102
}
330
2
100
AcDbEntity
  8
KIJUN
100
AcDbEllipse
 10
-4.545230153625556
 20
208.6426221597769
 30
0.0
 11
20.70021934142503
 21
0.0000000000001392
 31
0.0
210
0.0
220
0.0
230
1.0
 40
0.9922480000000003
 41
-0.0150510304027796
 42
1.537076538852195
  0
ELLIPSE
  5
726C
102
{ACAD_REACTORS
330
7466
102
}
330
2
100
AcDbEntity
  8
KIJUN
100
AcDbEllipse
 10
-1.503727008082226
 20
207.8443900787607
 30
0.0
 11
17.66325078846507
 21
0.0000000000050644
 31
0.0
210
0.0
220
0.0
230
1.0
 40
0.992248000000001
 41
4.579312680314981
 42
6.311095484030511
  0
ELLIPSE
  5
726D
102
{ACAD_REACTORS
330
7466
102
}
330
2
100
AcDbEntity
  8
KIJUN
100
AcDbEllipse
 10
-3.792532034652342
 20
210.2492489310455
 30
0.0
 11
15.06937321409224
 21
0.0000000000012356
 31
0.0
210
0.0
220
0.0
230
1.0
 40
0.9922480000000046
 41
-0.1284756943950176
 42
1.574434401197941
  0
ELLIPSE
  5
726E
102
{ACAD_REACTORS
330
7466
102
}
330
2
100
AcDbEntity
  8
KIJUN
100
AcDbEllipse
 10
-5.125644132232739
 20
211.8612588991002
 30
0.0
 11
8.540870362107384
 21
0.0000000000148536
 31
0.0
210
0.0
220
0.0
230
1.0
 40
0.9922480000000096
 41
0.2486080042669339
 42
1.420564586922536
  0
ELLIPSE
  5
726F
102
{ACAD_REACTORS
330
7466
102
}
330
2
100
AcDbEntity
  8
KIJUN
100
AcDbEllipse
 10
-2.608245069505809
 20
209.0519796091325
 30
0.0
 11
-13.7799277899283
 21
0.0000000000004843
 31
0.0
210
0.0
220
0.0
230
1.0
 40
0.9922479999999907
 41
1.480753305681414
 42
3.089020745132714
  0
ELLIPSE
  5
7270
102
{ACAD_REACTORS
330
7466
102
}
330
2
100
AcDbEntity
  8
KIJUN
100
AcDbEllipse
 10
-1.554453099405893
 20
206.4449605142474
 30
0.0
 11
11.3311308316141
 21
0.0000000000026073
 31
0.0
210
0.0
220
0.0
230
0.9999999999999998
 40
0.9922479999999945
 41
3.034516616700196
 42
4.508627686340059
  0
ELLIPSE
  5
7271
102
{ACAD_REACTORS
330
7466
102
}
330
2
100
AcDbEntity
  8
KIJUN
100
AcDbEllipse
 10
-3.847355414675856
 20
208.3334894111799
 30
0.0
 11
-9.0
 21
0.0000000000012496
 31
0.0
210
0.0
220
0.0
230
1.0
 40
0.9922480000000007
 41
3.141592653589932
 42
9.424777960769517
  0
LINE
  5
7272
102
{ACAD_REACTORS
330
7465
102
}
330
2
100
AcDbEntity
  8
KIJUN
100
AcDbLine
 10
163.834228026604
 20
101.9364901561507
 30
0.0
 11
163.8350212453775
 21
97.93543579456681
 31
0.0
  0
LINE
  5
7273
102
{ACAD_REACTORS
330
7465
102
}
330
2
100
AcDbEntity
  8
KIJUN
100
AcDbLine
 10
161.832460803316
 20
110.8503003828948
 30
0.0
 11
161.8365713825984
 21
90.1162334185968
 31
0.0
  0
LINE
  5
7274
102
{ACAD_REACTORS
330
7465
102
}
330
2
100
AcDbEntity
  8
KIJUN
100
AcDbLine
 10
154.8324609387561
 20
110.8489340484144
 30
0.0
 11
154.8365715180382
 21
90.11486708411636
 31
0.0
  0
ELLIPSE
  5
7275
102
{ACAD_REACTORS
330
7465
102
}
330
2
100
AcDbEntity
  8
KIJUN
100
AcDbEllipse
 10
136.3047244000308
 20
100.2391014851744
 30
0.0
 11
-2.499999999999999
 21
0.0000000000071022
 31
0.0
210
0.0
220
0.0
230
1.0
 40
0.9922479999999874
 41
3.141592653592655
 42
9.424777960772242
  0
LINE
  5
7276
102
{ACAD_REACTORS
330
7465
102
}
330
2
100
AcDbEntity
  8
KIJUN
100
AcDbLine
 10
117.8047244000305
 20
110.8453203145819
 30
0.0
 11
117.8047244000306
 21
90.11125294911053
 31
0.0
  0
LINE
  5
7277
102
{ACAD_REACTORS
330
7465
102
}
330
2
100
AcDbEntity
  8
KIJUN
100
AcDbLine
 10
108.8047244000308
 20
101.9311195340811
 30
0.0
 11
108.8047244000308
 21
97.93006509508275
 31
0.0
  0
LINE
  5
7278
102
{ACAD_REACTORS
330
7465
102
}
330
2
100
AcDbEntity
  8
KIJUN
100
AcDbLine
 10
110.8047244000308
 20
110.8453203145819
 30
0.0
 11
110.8047244000308
 21
90.11125294911053
 31
0.0
  0
SPLINE
  5
7279
102
{ACAD_REACTORS
330
7465
102
}
330
2
100
AcDbEntity
  8
KIJUN
100
AcDbSpline
210
0.0
220
0.0
230
1.0
 70
     8
 71
     3
 72
    11
 73
     7
 74
     0
 42
0.0000000001
 43
0.0000000001
 40
0.0
 40
0.0
 40
0.0
 40
0.0
 40
7.626021146288403
 40
15.06288077383259
 40
17.10590148984791
 40
19.72190719456001
 40
19.72190719456001
 40
19.72190719456001
 40
19.72190719456001
 10
138.2726308450503
 20
95.28052351844211
 30
0.0
 10
140.1634746019216
 20
93.23686154628179
 30
0.0
 10
143.8982602162464
 20
89.20023011841756
 30
0.0
 10
149.9673608043624
 20
91.57241750390275
 30
0.0
 10
154.0519952223357
 20
90.84526288952595
 30
0.0
 10
155.1949873605201
 20
89.74218411588745
 30
0.0
 10
155.8367682142688
 20
89.12281429395488
 30
0.0
  0
SPLINE
  5
727A
102
{ACAD_REACTORS
330
7465
102
}
330
2
100
AcDbEntity
  8
KIJUN
100
AcDbSpline
210
0.0
220
0.0
230
1.0
 70
     8
 71
     3
 72
    10
 73
     6
 74
     0
 42
0.0000000001
 43
0.0000000001
 40
0.0
 40
0.0
 40
0.0
 40
0.0
 40
4.822423851176445
 40
7.005283390294344
 40
9.82678297219315
 40
9.82678297219315
 40
9.82678297219315
 40
9.82678297219315
 10
146.3148299337941
 20
46.27233804885932
 30
0.0
 10
146.5074879971916
 20
44.73391837814072
 30
0.0
 10
146.7873523088273
 20
42.49913643047798
 30
0.0
 10
148.3845140186236
 20
39.16024462342085
 30
0.0
 10
150.2499040893953
 20
39.50678837018001
 30
0.0
 10
151.3016266331787
 20
39.70217263676529
 30
0.0
  0
SPLINE
  5
727B
102
{ACAD_REACTORS
330
7465
102
}
330
2
100
AcDbEntity
  8
KIJUN
100
AcDbSpline
210
0.0
220
0.0
230
1.0
 70
     8
 71
     3
 72
    20
 73
    16
 74
     0
 42
0.0000000001
 43
0.0000000001
 40
0.0
 40
0.0
 40
0.0
 40
0.0
 40
4.585010722785261
 40
9.051125546931068
 40
12.71504396971392
 40
15.74529618429937
 40
19.3812908171015
 40
23.6085950642734
 40
24.6223408909955
 40
29.85374125528532
 40
34.2679645653658
 40
35.64775389082611
 40
37.9143290001991
 40
39.11080716948755
 40
43.59347376946178
 40
43.59347376946178
 40
43.59347376946178
 40
43.59347376946178
 10
155.8638629794285
 20
48.65533953066634
 30
0.0
 10
154.6393828053917
 20
49.54588321637022
 30
0.0
 10
152.2221749829852
 20
51.30387751380459
 30
0.0
 10
149.4938122570092
 20
54.89959196934673
 30
0.0
 10
148.8880683675085
 20
58.10668148420744
 30
0.0
 10
145.4039230580855
 20
62.08785511919486
 30
0.0
 10
146.4761479363621
 20
56.95100021283366
 30
0.0
 10
145.5617213333816
 20
51.91308290298106
 30
0.0
 10
143.104029466106
 20
55.14438527338747
 30
0.0
 10
143.1025120378597
 20
58.81403302274685
 30
0.0
 10
144.5770239395585
 20
62.2371792081779
 30
0.0
 10
142.3674494982284
 20
65.21516525181017
 30
0.0
 10
141.8899618965822
 20
62.55270805247459
 30
0.0
 10
141.1564114949638
 20
60.23433973618161
 30
0.0
 10
142.3113512910318
 20
58.46471786803885
 30
0.0
 10
143.2229691946355
 20
57.06791867287778
 30
0.0
  0
SPLINE
  5
727D
102
{ACAD_REACTORS
330
7465
102
}
330
2
100
AcDbEntity
  8
KIJUN
100
AcDbSpline
210
0.0
220
0.0
230
1.0
 70
     8
 71
     3
 72
    11
 73
     7
 74
     0
 42
0.0000000001
 43
0.0000000001
 40
0.0
 40
0.0
 40
0.0
 40
0.0
 40
4.276364012811435
 40
9.993845612073187
 40
13.39107832945798
 40
24.13678821756608
 40
24.13678821756608
 40
24.13678821756608
 40
24.13678821756608
 10
157.5014882312476
 20
70.25271759624423
 30
0.0
 10
156.2111050367935
 20
70.87577702445634
 30
0.0
 10
153.1954846669759
 20
72.33186441880485
 30
0.0
 10
149.930709516502
 20
75.32727310925176
 30
0.0
 10
144.8468865230682
 20
79.89697204345715
 30
0.0
 10
145.6627710193986
 20
85.04422310734366
 30
0.0
 10
146.2826744118064
 20
88.95506883419411
 30
0.0
  0
SPLINE
  5
727E
102
{ACAD_REACTORS
330
7465
102
}
330
2
100
AcDbEntity
  8
KIJUN
100
AcDbSpline
210
0.0
220
0.0
230
1.0
 70
     8
 71
     3
 72
    10
 73
     6
 74
     0
 42
0.0000000001
 43
0.0000000001
 40
0.0
 40
0.0
 40
0.0
 40
0.0
 40
9.259498527297944
 40
16.34905210964224
 40
25.75033157756626
 40
25.75033157756626
 40
25.75033157756626
 40
25.75033157756626
 10
156.984680854309
 20
60.56253453421153
 30
0.0
 10
154.2117478905731
 20
62.13212376375151
 30
0.0
 10
149.3157132525189
 20
64.90347212876605
 30
0.0
 10
146.1073194781073
 20
73.25370603496168
 30
0.0
 10
145.8382667493396
 20
78.6917104472505
 30
0.0
 10
145.6848821454786
 20
81.79186912764542
 30
0.0
  0
ELLIPSE
  5
727F
102
{ACAD_REACTORS
330
7465
102
}
330
2
100
AcDbEntity
  8
KIJUN
100
AcDbEllipse
 10
136.4772040369085
 20
45.42460971000444
 30
0.0
 11
-3.254838308330846
 21
0.0000000000125394
 31
0.0
210
0.0
220
0.0
230
1.0
 40
0.9922479999999985
 41
3.623553415563371
 42
4.753183607644237
  0
ELLIPSE
  5
7280
102
{ACAD_REACTORS
330
7465
102
}
330
2
100
AcDbEntity
  8
KIJUN
100
AcDbEllipse
 10
142.3620559220255
 20
41.89259475937279
 30
0.0
 11
-5.925155525779434
 21
0.0000000000007371
 31
0.0
210
0.0
220
0.0
230
1.0
 40
0.9922479999999927
 41
3.982056514658006
 42
5.246677099219454
  0
SPLINE
  5
7281
102
{ACAD_REACTORS
330
7465
102
}
330
2
100
AcDbEntity
  8
KIJUN
100
AcDbSpline
210
0.0
220
0.0
230
1.0
 70
     8
 71
     3
 72
    11
 73
     7
 74
     0
 42
0.0000000001
 43
0.0000000001
 40
0.0
 40
0.0
 40
0.0
 40
0.0
 40
5.344985215471112
 40
14.88344463866627
 40
28.66153385175269
 40
39.43982410037143
 40
39.43982410037143
 40
39.43982410037143
 40
39.43982410037143
 10
143.6063565260003
 20
87.84356388916965
 30
0.0
 10
142.677923916696
 20
86.32713644456829
 30
0.0
 10
140.0926454202616
 20
82.10454966267242
 30
0.0
 10
137.944861122218
 20
72.67576987426147
 30
0.0
 10
137.8633485637112
 20
61.40640254350718
 30
0.0
 10
137.5288086170205
 20
53.289619811367
 30
0.0
 10
137.3819722867381
 20
49.72700015449071
 30
0.0
  0
SPLINE
  5
7283
102
{ACAD_REACTORS
330
7465
102
}
330
2
100
AcDbEntity
  8
KIJUN
100
AcDbSpline
210
0.0
220
0.0
230
1.0
 70
     8
 71
     3
 72
    11
 73
     7
 74
     0
 42
0.0000000001
 43
0.0000000001
 40
0.0
 40
0.0
 40
0.0
 40
0.0
 40
5.344985215471138
 40
14.88344463866624
 40
28.66153385175273
 40
39.43982410037147
 40
39.43982410037147
 40
39.43982410037147
 40
39.43982410037147
 10
129.0350590454426
 20
87.84214179871504
 30
0.0
 10
129.9637922722124
 20
86.32589560480949
 30
0.0
 10
132.5499078567241
 20
82.10381352677872
 30
0.0
 10
134.699561391736
 20
72.6754531481928
 30
0.0
 10
134.7833081281477
 20
61.40610194597212
 30
0.0
 10
135.1194572402826
 20
53.28938466994606
 30
0.0
 10
135.2669998657356
 20
49.72679374307841
 30
0.0
  0
SPLINE
  5
7284
102
{ACAD_REACTORS
330
7465
102
}
330
2
100
AcDbEntity
  8
KIJUN
100
AcDbSpline
210
0.0
220
0.0
230
1.0
 70
     8
 71
     3
 72
    20
 73
    16
 74
     0
 42
0.0000000001
 43
0.0000000001
 40
0.0
 40
0.0
 40
0.0
 40
0.0
 40
4.585010722785177
 40
9.051125546931007
 40
12.71504396971388
 40
15.74529618429927
 40
19.38129081710137
 40
23.60859506427335
 40
24.62234089099547
 40
29.85374125528518
 40
34.26796456536582
 40
35.64775389082603
 40
37.91432900019903
 40
39.11080716948749
 40
43.59347376946182
 40
43.59347376946182
 40
43.59347376946182
 40
43.59347376946182
 10
116.7853219899673
 20
48.65152564791514
 30
0.0
 10
118.0096255878603
 20
49.54230832345728
 30
0.0
 10
120.4264848368523
 20
51.30077440321912
 30
0.0
 10
123.1541346509035
 20
54.89702134005632
 30
0.0
 10
123.7592427153873
 20
58.10422902840186
 30
0.0
 10
127.2425986800416
 20
62.08608265891292
 30
0.0
 10
126.1713922164892
 20
56.94901856368154
 30
0.0
 10
127.0868175811367
 20
51.91127983881914
 30
0.0
 10
129.5438687873055
 20
55.14306186515369
 30
0.0
 10
129.5446586989321
 20
58.81270983969859
 30
0.0
 10
128.0694681787053
 20
62.23556814797529
 30
0.0
 10
130.278452184308
 20
65.21398542223685
 30
0.0
 10
130.7564676153302
 20
62.55162147552647
 30
0.0
 10
131.4904776249134
 20
60.23339638626352
 30
0.0
 10
130.3358886830306
 20
58.46354911892193
 30
0.0
 10
129.4245477159028
 20
57.06657201150459
 30
0.0
  0
SPLINE
  5
7285
102
{ACAD_REACTORS
330
7465
102
}
330
2
100
AcDbEntity
  8
KIJUN
100
AcDbSpline
210
0.0
220
0.0
230
1.0
 70
     8
 71
     3
 72
    10
 73
     6
 74
     0
 42
0.0000000001
 43
0.0000000001
 40
0.0
 40
0.0
 40
0.0
 40
0.0
 40
9.259498527298076
 40
16.34905210964247
 40
25.7503315775665
 40
25.7503315775665
 40
25.7503315775665
 40
25.7503315775665
 10
115.6621435064041
 20
60.55850164791542
 30
0.0
 10
118.4347652416059
 20
62.12863209764629
 30
0.0
 10
123.3302503583757
 20
64.90093606917418
 30
0.0
 10
126.5369886165289
 20
73.25179606223959
 30
0.0
 10
126.8049632424906
 20
78.68985288588561
 30
0.0
 10
126.9577332293856
 20
81.79004144553601
 30
0.0
  0
SPLINE
  5
7286
102
{ACAD_REACTORS
330
7465
102
}
330
2
100
AcDbEntity
  8
KIJUN
100
AcDbSpline
210
0.0
220
0.0
230
1.0
 70
     8
 71
     3
 72
    11
 73
     7
 74
     0
 42
0.0000000001
 43
0.0000000001
 40
0.0
 40
0.0
 40
0.0
 40
0.0
 40
4.276364012811328
 40
9.993845612073062
 40
13.39107832945797
 40
24.13678821756598
 40
24.13678821756598
 40
24.13678821756598
 40
24.13678821756598
 10
115.1434150371058
 20
70.24858364649493
 30
0.0
 10
116.4336746835458
 20
70.87189493337366
 30
0.0
 10
119.449006322148
 20
72.32857092041912
 30
0.0
 10
122.7131875623959
 20
75.32461680646062
 30
0.0
 10
127.7961045035377
 20
79.89530796691314
 30
0.0
 10
126.9791995679513
 20
85.04239967819101
 30
0.0
 10
126.3585208528609
 20
88.95312433003239
 30
0.0
  0
SPLINE
  5
7287
102
{ACAD_REACTORS
330
7465
102
}
330
2
100
AcDbEntity
  8
KIJUN
100
AcDbSpline
210
0.0
220
0.0
230
1.0
 70
     8
 71
     3
 72
     9
 73
     5
 74
     0
 42
0.0000000001
 43
0.0000000001
 40
0.0
 40
0.0
 40
0.0
 40
0.0
 40
3.699555928395302
 40
8.624355194763165
 40
8.624355194763165
 40
8.624355194763165
 40
8.624355194763165
 10
115.2750941725652
 20
80.52133442407427
 30
0.0
 10
116.3993781674088
 20
81.15087804410979
 30
0.0
 10
119.0202939472988
 20
82.6184616933016
 30
0.0
 10
119.527388715103
 20
85.61560392856728
 30
0.0
 10
119.816957023001
 20
87.32707377739702
 30
0.0
  0
SPLINE
  5
7289
102
{ACAD_REACTORS
330
7465
102
}
330
2
100
AcDbEntity
  8
KIJUN
100
AcDbSpline
210
0.0
220
0.0
230
1.0
 70
     8
 71
     3
 72
    10
 73
     6
 74
     0
 42
0.0000000001
 43
0.0000000001
 40
0.0
 40
0.0
 40
0.0
 40
0.0
 40
4.822423851176433
 40
7.005283390294396
 40
9.826782972193266
 40
9.826782972193266
 40
9.826782972193266
 40
9.826782972193266
 10
126.3348272866817
 20
46.2703880940878
 30
0.0
 10
126.1424742224531
 20
44.73193084808468
 30
0.0
 10
125.8630529671881
 20
42.49709431676772
 30
0.0
 10
124.2665532317166
 20
39.15789082329652
 30
0.0
 10
122.4010944938966
 20
39.50407045666838
 30
0.0
 10
121.3493332350562
 20
39.69924943307704
 30
0.0
  0
ELLIPSE
  5
728A
102
{ACAD_REACTORS
330
7465
102
}
330
2
100
AcDbEntity
  8
KIJUN
100
AcDbEllipse
 10
130.2884695167291
 20
41.89141643383237
 30
0.0
 11
-5.925155525779316
 21
0.0000000000044736
 31
0.0
210
0.0
220
0.0
230
1.0
 40
0.992248000000003
 41
4.178297577131372
 42
5.442918161692705
  0
ELLIPSE
  5
728B
102
{ACAD_REACTORS
330
7465
102
}
330
2
100
AcDbEntity
  8
KIJUN
100
AcDbEllipse
 10
136.1726210574287
 20
45.42457998413077
 30
0.0
 11
-3.25483830833059
 21
0.0000000000055998
 31
0.0
210
0.0
220
0.0
230
1.0
 40
0.9922480000000568
 41
4.671791068711096
 42
5.801421260792142
  0
ELLIPSE
  5
728C
102
{ACAD_REACTORS
330
7465
102
}
330
2
100
AcDbEntity
  8
KIJUN
100
AcDbEllipse
 10
116.8047244000306
 20
90.11125294911053
 30
0.0
 11
0.9999999999999996
 21
0.000000000003537
 31
0.0
210
0.0
220
0.0
230
1.0
 40
0.9922480000000179
 41
4.71238898038118
 42
6.283185307176021
  0
ELLIPSE
  5
728D
102
{ACAD_REACTORS
330
7465
102
}
330
2
100
AcDbEntity
  8
KIJUN
100
AcDbEllipse
 10
111.8047244000308
 20
90.11125294911053
 30
0.0
 11
-0.9999999999999998
 21
0.000000000003537
 31
0.0
210
0.0
220
0.0
230
1.0
 40
0.9922480000000176
 41
0.0000000000035645
 42
1.570796326798405
  0
SPLINE
  5
728E
102
{ACAD_REACTORS
330
7465
102
}
330
2
100
AcDbEntity
  8
KIJUN
100
AcDbSpline
210
0.0
220
0.0
230
1.0
 70
     8
 71
     3
 72
    11
 73
     7
 74
     0
 42
0.0000000001
 43
0.0000000001
 40
0.0
 40
0.0
 40
0.0
 40
0.0
 40
7.626021146288452
 40
15.06288077383247
 40
17.10590148984788
 40
19.72190719456001
 40
19.72190719456001
 40
19.72190719456001
 40
19.72190719456001
 10
134.3676406485795
 20
95.28014240967051
 30
0.0
 10
132.4772020892502
 20
93.23611140204887
 30
0.0
 10
128.7432168191859
 20
89.19875105709289
 30
0.0
 10
122.6736460565782
 20
91.56975376505146
 30
0.0
 10
118.5891558778081
 20
90.84180188233736
 30
0.0
 10
117.4463824497885
 20
89.7385000286747
 30
0.0
 10
116.8047244000306
 20
89.11900494911051
 30
0.0
  0
ELLIPSE
  5
728F
102
{ACAD_REACTORS
330
7465
102
}
330
2
100
AcDbEntity
  8
KIJUN
100
AcDbEllipse
 10
136.3047244000308
 20
95.77398548517445
 30
0.0
 11
1.999999999999999
 21
0.0000000000068249
 31
0.0
210
0.0
220
0.0
230
1.0
 40
0.9922479999999801
 41
-0.000000000003439
 42
6.283185307176147
  0
ELLIPSE
  5
7290
102
{ACAD_REACTORS
330
7465
102
}
330
2
100
AcDbEntity
  8
KIJUN
100
AcDbEllipse
 10
115.0092366742399
 20
98.00897814616117
 30
0.0
 11
-6.205021959058891
 21
0.0000000000074349
 31
0.0
210
0.0
220
0.0
230
1.0
 40
0.992248000000011
 41
0.0128173183596363
 42
0.8263043369629365
  0
LINE
  5
7291
102
{ACAD_REACTORS
330
7465
102
}
330
2
100
AcDbEntity
  8
KIJUN
100
AcDbLine
 10
111.8047244000308
 20
89.11900494911051
 30
0.0
 11
116.8047244000306
 21
89.11900494911051
 31
0.0
  0
ELLIPSE
  5
7292
102
{ACAD_REACTORS
330
7465
102
}
330
2
100
AcDbEntity
  8
KIJUN
100
AcDbEllipse
 10
160.836571401947
 20
90.11603822795684
 30
0.0
 11
0.9999999999999193
 21
0.0000000000017345
 31
0.0
210
0.0
220
0.0
230
1.0
 40
0.9922480000000939
 41
-1.570599611216175
 42
0.000196715578709
  0
ELLIPSE
  5
7293
102
{ACAD_REACTORS
330
7465
102
}
330
2
100
AcDbEntity
  8
KIJUN
100
AcDbEllipse
 10
155.8365714986896
 20
90.11506227475646
 30
0.0
 11
0.9999999999999193
 21
0.0000000000109466
 31
0.0
210
0.0
220
0.0
230
1.0
 40
0.9922480000000939
 41
3.141789369159218
 42
4.71258569595427
  0
LINE
  5
7294
102
{ACAD_REACTORS
330
7465
102
}
330
2
100
AcDbEntity
  8
KIJUN
100
AcDbLine
 10
160.8367681175261
 20
89.12379024715527
 30
0.0
 11
155.8367682142688
 21
89.12281429395488
 31
0.0
  0
SPLINE
  5
7295
102
{ACAD_REACTORS
330
7465
102
}
330
2
100
AcDbEntity
  8
KIJUN
100
AcDbSpline
210
0.0
220
0.0
230
1.0
 70
     8
 71
     3
 72
     9
 73
     5
 74
     0
 42
0.0000000001
 43
0.0000000001
 40
0.0
 40
0.0
 40
0.0
 40
0.0
 40
3.699555928395194
 40
8.624355194762983
 40
8.624355194762983
 40
8.624355194762983
 40
8.624355194762983
 10
157.3677725005097
 20
80.52544247252638
 30
0.0
 10
156.2433637188659
 20
81.15476663066873
 30
0.0
 10
153.6221570376594
 20
82.62183867323678
 30
0.0
 10
153.114468088929
 20
85.61888187035952
 30
0.0
 10
152.8245604835734
 20
87.33029516505133
 30
0.0
  0
ELLIPSE
  5
7297
102
{ACAD_REACTORS
330
7465
102
}
330
2
100
AcDbEntity
  8
KIJUN
100
AcDbEllipse
 10
157.6304934465122
 20
98.01313778139629
 30
0.0
 11
-6.205021959058845
 21
0.0000000000003545
 31
0.0
210
0.0
220
0.0
230
1.0
 40
0.9922480000000032
 41
2.315485032208728
 42
3.128972050811945
  0
LINE
  5
7298
102
{ACAD_REACTORS
330
7465
102
}
330
2
100
AcDbEntity
  8
KIJUN
100
AcDbLine
 10
136.3094455739324
 20
226.9383367753462
 30
0.0
 11
158.3094451482653
 21
226.9426309694277
 31
0.0
  0
SPLINE
  5
7299
102
{ACAD_REACTORS
330
7465
102
}
330
2
100
AcDbEntity
  8
KIJUN
100
AcDbSpline
210
0.0
220
0.0
230
1.0
 70
     8
 71
     3
 72
    24
 73
    20
 74
     0
 42
0.0000000001
 43
0.0000000001
 40
0.0
 40
0.0
 40
0.0
 40
0.0
 40
4.685916461549335
 40
9.173147051369312
 40
12.00068294933415
 40
13.38576028459837
 40
15.85072950087058
 40
19.17109662751766
 40
25.18569705880857
 40
30.80985205398624
 40
36.6747735953723
 40
40.1182118904489
 40
42.91734287902623
 40
44.48560512249315
 40
46.33423749892393
 40
48.88622629229899
 40
51.92400652962205
 40
62.63533563026668
 40
68.45376637776981
 40
68.45376637776981
 40
68.45376637776981
 40
68.45376637776981
 10
146.4267916765454
 20
213.3424868065659
 30
0.0
 10
147.1455059013814
 20
211.9412567969069
 30
0.0
 10
148.5524604056777
 20
209.1982098312032
 30
0.0
 10
151.8617727943855
 20
206.8113216861861
 30
0.0
 10
153.1702670854361
 20
204.0592996486735
 30
0.0
 10
152.1940878100042
 20
201.5215513251812
 30
0.0
 10
149.3188094963236
 20
203.2736686470428
 30
0.0
 10
146.9988060904272
 20
205.2729758317321
 30
0.0
 10
144.0462604659917
 20
214.1172407368761
 30
0.0
 10
146.8370185508604
 20
204.2896218598948
 30
0.0
 10
150.1904647950422
 20
201.8064091649975
 30
0.0
 10
151.9011557953353
 20
197.8332739994916
 30
0.0
 10
152.3220557827634
 20
195.5251024349916
 30
0.0
 10
153.307718010567
 20
193.1567193828801
 30
0.0
 10
150.6307922740259
 20
192.6093981305807
 30
0.0
 10
148.5535275831487
 20
193.8705796064151
 30
0.0
 10
144.5591236106346
 20
197.7428750957277
 30
0.0
 10
143.8657510621685
 20
204.6617629518324
 30
0.0
 10
142.6558683987057
 20
209.9455539050438
 30
0.0
 10
142.2299929743418
 20
211.8054340259875
 30
0.0
  0
SPLINE
  5
729A
102
{ACAD_REACTORS
330
7465
102
}
330
2
100
AcDbEntity
  8
KIJUN
100
AcDbSpline
210
0.0
220
0.0
230
1.0
 70
     8
 71
     3
 72
    17
 73
    13
 74
     0
 42
0.0000000001
 43
0.0000000001
 40
0.0
 40
0.0
 40
0.0
 40
0.0
 40
5.153574885104
 40
10.53018423640451
 40
12.73412589439346
 40
15.25190092059549
 40
16.51665109871529
 40
18.53869638958132
 40
21.63473837639875
 40
25.77583721172865
 40
30.39082239700409
 40
36.48444210059226
 40
36.48444210059226
 40
36.48444210059226
 40
36.48444210059226
 10
146.7593240063333
 20
195.4213384409102
 30
0.0
 10
147.2282365198979
 20
193.7861597373202
 30
0.0
 10
148.1863549655741
 20
190.4450356841864
 30
0.0
 10
150.0639763308905
 20
186.5480500126613
 30
0.0
 10
152.4203439631054
 20
184.1747989110123
 30
0.0
 10
153.1107554764293
 20
182.090014573105
 30
0.0
 10
152.108493415907
 20
180.2064530307213
 30
0.0
 10
149.6435085499429
 20
180.1978610400716
 30
0.0
 10
146.9207271504079
 20
181.7941544476607
 30
0.0
 10
144.969876775758
 20
185.3475247267437
 30
0.0
 10
143.088419885255
 20
189.86861232035
 30
0.0
 10
142.3518283624228
 20
193.3493773655798
 30
0.0
 10
141.9326786539767
 20
195.330070339436
 30
0.0
  0
SPLINE
  5
729B
102
{ACAD_REACTORS
330
7465
102
}
330
2
100
AcDbEntity
  8
KIJUN
100
AcDbSpline
210
0.0
220
0.0
230
1.0
 70
     8
 71
     3
 72
    26
 73
    22
 74
     0
 42
0.0000000001
 43
0.0000000001
 40
0.0
 40
0.0
 40
0.0
 40
0.0
 40
3.47890801080055
 40
6.382577192590592
 40
8.175764013437351
 40
8.948335408111866
 40
10.86295222857782
 40
13.11146413372489
 40
16.5103085770268
 40
19.88328244808811
 40
21.4941279292913
 40
24.84248400744535
 40
27.73562070058939
 40
29.30196769277421
 40
30.48936026357624
 40
33.31285948700678
 40
40.41365952210576
 40
41.73960259159791
 40
43.48850742129498
 40
52.07926927645059
 40
63.03337097615592
 40
63.03337097615592
 40
63.03337097615592
 40
63.03337097615592
 10
147.3084963464997
 20
181.5117470384349
 30
0.0
 10
148.0749030972604
 20
180.6120189009435
 30
0.0
 10
149.4809909364519
 20
178.9613330328331
 30
0.0
 10
151.5799571800158
 20
177.5825035097161
 30
0.0
 10
152.9773548201943
 20
175.7204530361169
 30
0.0
 10
151.8111273819488
 20
174.5103319551489
 30
0.0
 10
149.1264264700708
 20
175.4066316792839
 30
0.0
 10
152.0976061294131
 20
172.3348918685202
 30
0.0
 10
152.3330196542858
 20
169.9776629739344
 30
0.0
 10
153.3776632075356
 20
166.8038658542448
 30
0.0
 10
151.0846671471674
 20
164.7157498814316
 30
0.0
 10
147.9940915361402
 20
165.6535773076852
 30
0.0
 10
147.4827673891555
 20
170.5014704591768
 30
0.0
 10
146.5834135529354
 20
167.697426312441
 30
0.0
 10
144.3578078406434
 20
167.7693153362661
 30
0.0
 10
143.553914790815
 20
171.8440737838373
 30
0.0
 10
146.3799095365671
 20
178.997646937291
 30
0.0
 10
142.4740867217123
 20
176.73910421472
 30
0.0
 10
140.4336993750153
 20
181.1353405413722
 30
0.0
 10
139.042917964181
 20
187.2194126077558
 30
0.0
 10
138.7351596467877
 20
193.8636504300564
 30
0.0
 10
138.5626736174941
 20
197.5874757009885
 30
0.0
  0
SPLINE
  5
729C
102
{ACAD_REACTORS
330
7465
102
}
330
2
100
AcDbEntity
  8
KIJUN
100
AcDbSpline
210
0.0
220
0.0
230
1.0
 70
     8
 71
     3
 72
    17
 73
    13
 74
     0
 42
0.0000000001
 43
0.0000000001
 40
0.0
 40
0.0
 40
0.0
 40
0.0
 40
5.153574885104
 40
10.53018423640451
 40
12.73412589439346
 40
15.25190092059549
 40
16.51665109871529
 40
18.53869638958132
 40
21.63473837639872
 40
25.77583721172854
 40
30.39082239700408
 40
36.48444210059223
 40
36.48444210059223
 40
36.48444210059223
 40
36.48444210059223
 10
146.7646960137288
 20
168.324534457692
 30
0.0
 10
147.2336085272935
 20
166.689355754102
 30
0.0
 10
148.1917269729695
 20
163.3482317009682
 30
0.0
 10
150.0693483382858
 20
159.4512460294432
 30
0.0
 10
152.4257159705009
 20
157.0779949277939
 30
0.0
 10
153.1161274838246
 20
154.9932105898868
 30
0.0
 10
152.1138654233029
 20
153.1096490475031
 30
0.0
 10
149.648880557338
 20
153.1010570568535
 30
0.0
 10
146.9260991578035
 20
154.6973504644421
 30
0.0
 10
144.9752487831537
 20
158.2507207435257
 30
0.0
 10
143.0937918926509
 20
162.7718083371315
 30
0.0
 10
142.3572003698181
 20
166.2525733823616
 30
0.0
 10
141.9380506613722
 20
168.2332663562178
 30
0.0
  0
SPLINE
  5
729D
102
{ACAD_REACTORS
330
7465
102
}
330
2
100
AcDbEntity
  8
KIJUN
100
AcDbSpline
210
0.0
220
0.0
230
1.0
 70
     8
 71
     3
 72
    24
 73
    20
 74
     0
 42
0.0000000001
 43
0.0000000001
 40
0.0
 40
0.0
 40
0.0
 40
0.0
 40
4.440565862611244
 40
6.757893507073282
 40
8.935372167737128
 40
10.72341630465689
 40
15.00951392848721
 40
18.96638477290778
 40
23.00515587089241
 40
24.75929880456603
 40
26.83499363878977
 40
28.31665259395517
 40
30.28888236862541
 40
32.08206846228127
 40
34.87536707644688
 40
36.53868329754978
 40
40.54475891400445
 40
45.3640965998316
 40
46.33232474394588
 40
46.33232474394588
 40
46.33232474394588
 40
46.33232474394588
 10
152.2375986630549
 20
226.9465619100696
 30
0.0
 10
152.4405210166047
 20
225.5266308263499
 30
0.0
 10
152.7493392388583
 20
223.3657028392314
 30
0.0
 10
152.9835083281328
 20
220.164948192517
 30
0.0
 10
150.4205912396806
 20
218.8742634331178
 30
0.0
 10
148.65869364254
 20
221.2638950246822
 30
0.0
 10
148.5737373427584
 20
227.3358136872253
 30
0.0
 10
148.434096777
 20
220.2287923724562
 30
0.0
 10
150.3434771752952
 20
218.0903242855545
 30
0.0
 10
152.3394655652718
 20
216.2954585662991
 30
0.0
 10
152.9594222213697
 20
214.5600646924619
 30
0.0
 10
152.5199309174391
 20
212.5953782104606
 30
0.0
 10
150.6104764233083
 20
211.9675073244378
 30
0.0
 10
148.4912064355226
 20
212.1557481100533
 30
0.0
 10
146.3133816967334
 20
212.8970581770718
 30
0.0
 10
145.0619768189331
 20
215.5568818587563
 30
0.0
 10
145.2624730635952
 20
219.0761047764933
 30
0.0
 10
145.0228692440519
 20
222.3072598373541
 30
0.0
 10
145.2246255984503
 20
224.2126731150143
 30
0.0
 10
145.2583783342845
 20
224.5314383465139
 30
0.0
  0
SPLINE
  5
729E
102
{ACAD_REACTORS
330
7465
102
}
330
2
100
AcDbEntity
  8
KIJUN
100
AcDbSpline
210
0.0
220
0.0
230
1.0
 70
     8
 71
     3
 72
    10
 73
     6
 74
     0
 42
0.0000000001
 43
0.0000000001
 40
0.0
 40
0.0
 40
0.0
 40
0.0
 40
2.927138051184472
 40
7.928578519717749
 40
11.2502462681123
 40
11.2502462681123
 40
11.2502462681123
 40
11.2502462681123
 10
149.7865264801346
 20
107.2646559144972
 30
0.0
 10
148.8137779446538
 20
107.362358652892
 30
0.0
 10
146.1789472640928
 20
107.6270007091973
 30
0.0
 10
142.4246277660294
 20
107.0984887106594
 30
0.0
 10
139.7367566420528
 20
106.4272281438136
 30
0.0
 10
138.6640546427932
 20
106.1593348859647
 30
0.0
  0
SPLINE
  5
729F
102
{ACAD_REACTORS
330
7465
102
}
330
2
100
AcDbEntity
  8
KIJUN
100
AcDbSpline
210
0.0
220
0.0
230
1.0
 70
     8
 71
     3
 72
    13
 73
     9
 74
     0
 42
0.0000000001
 43
0.0000000001
 40
0.0
 40
0.0
 40
0.0
 40
0.0
 40
8.062093823739749
 40
15.22803393111414
 40
18.25845620706663
 40
20.70187841659252
 40
24.31652439969625
 40
34.85270505501325
 40
34.85270505501325
 40
34.85270505501325
 40
34.85270505501325
 10
147.1663120636748
 20
141.8868753919008
 30
0.0
 10
147.3466109442177
 20
139.1563612933768
 30
0.0
 10
147.6871673220863
 20
133.9988473459119
 30
0.0
 10
149.6841130868557
 20
128.855847220953
 30
0.0
 10
154.1332647627728
 20
125.1091311252182
 30
0.0
 10
150.0634170090431
 20
123.2431909928107
 30
0.0
 10
146.4164879206453
 20
128.5928087556216
 30
0.0
 10
145.4896798856767
 20
133.002852067137
 30
0.0
 10
144.7996129985083
 20
136.2864067466738
 30
0.0
  0
SPLINE
  5
72A0
102
{ACAD_REACTORS
330
7465
102
}
330
2
100
AcDbEntity
  8
KIJUN
100
AcDbSpline
210
0.0
220
0.0
230
1.0
 70
     8
 71
     3
 72
    19
 73
    15
 74
     0
 42
0.0000000001
 43
0.0000000001
 40
0.0
 40
0.0
 40
0.0
 40
0.0
 40
5.404438192062078
 40
9.908391352212543
 40
13.48534084196162
 40
16.07354457018738
 40
24.50840772990393
 40
31.41728776529105
 40
34.20226414895603
 40
35.92033337426373
 40
41.45743154100837
 40
48.79642571610172
 40
50.34157410686129
 40
52.736179878639
 40
52.736179878639
 40
52.736179878639
 40
52.736179878639
 10
148.8089942753419
 20
124.5452357761075
 30
0.0
 10
149.8844801434293
 20
123.0344448379319
 30
0.0
 10
151.8562549137348
 20
120.2645902601135
 30
0.0
 10
153.1155048712179
 20
116.5717386649818
 30
0.0
 10
152.4785559816293
 20
111.0002130570385
 30
0.0
 10
148.0067214975166
 20
115.8849564133703
 30
0.0
 10
145.6552419900979
 20
120.6611764343817
 30
0.0
 10
142.8633348312798
 20
124.9582017396103
 30
0.0
 10
143.2702355291593
 20
131.1367363547768
 30
0.0
 10
139.5880293436332
 20
127.4188834547601
 30
0.0
 10
140.3191430530571
 20
136.6308625917166
 30
0.0
 10
141.1482171293758
 20
140.6838812007402
 30
0.0
 10
137.80247469151
 20
143.0595811709576
 30
0.0
 10
137.848559024395
 20
144.4638194718015
 30
0.0
 10
137.8765693532031
 20
145.3173237772546
 30
0.0
  0
SPLINE
  5
72A1
102
{ACAD_REACTORS
330
7465
102
}
330
2
100
AcDbEntity
  8
KIJUN
100
AcDbSpline
210
0.0
220
0.0
230
1.0
 70
     8
 71
     3
 72
    12
 73
     8
 74
     0
 42
0.0000000001
 43
0.0000000001
 40
0.0
 40
0.0
 40
0.0
 40
0.0
 40
2.40378887267999
 40
5.510353943784263
 40
7.784852042605987
 40
10.74039180908669
 40
18.66580436000818
 40
18.66580436000818
 40
18.66580436000818
 40
18.66580436000818
 10
138.8444543059694
 20
108.7704035242692
 30
0.0
 10
139.4547960526718
 20
108.1334445968163
 30
0.0
 10
140.853920197567
 20
106.6733042418085
 30
0.0
 10
143.6367325398368
 20
108.3372492007764
 30
0.0
 10
146.2543769820515
 20
106.884288075622
 30
0.0
 10
150.9586759731309
 20
109.3735941902387
 30
0.0
 10
149.2943246558712
 20
113.4482077237451
 30
0.0
 10
148.0820529323881
 20
116.4160539468151
 30
0.0
  0
SPLINE
  5
72A2
102
{ACAD_REACTORS
330
7465
102
}
330
2
100
AcDbEntity
  8
KIJUN
100
AcDbSpline
210
0.0
220
0.0
230
1.0
 70
     8
 71
     3
 72
    26
 73
    22
 74
     0
 42
0.0000000001
 43
0.0000000001
 40
0.0
 40
0.0
 40
0.0
 40
0.0
 40
3.478908010800663
 40
6.382577192590705
 40
8.175764013437373
 40
8.948335408111725
 40
10.8629522285779
 40
13.11146413372497
 40
16.51030857702689
 40
19.88328244808826
 40
21.49412792929128
 40
24.84248400744556
 40
27.7356207005896
 40
29.30196769277439
 40
30.48936026357663
 40
33.31285948700712
 40
40.4136595221061
 40
41.73960259159847
 40
43.48850742129554
 40
52.07926927645115
 40
63.03337097615642
 40
63.03337097615642
 40
63.03337097615642
 40
63.03337097615642
 10
147.3138683538952
 20
154.4149430552166
 30
0.0
 10
148.080275104656
 20
153.5152149177252
 30
0.0
 10
149.4863629438475
 20
151.8645290496148
 30
0.0
 10
151.5853291874114
 20
150.4856995264982
 30
0.0
 10
152.9827268275899
 20
148.6236490528986
 30
0.0
 10
151.8164993893444
 20
147.4135279719306
 30
0.0
 10
149.1317984774664
 20
148.3098276960658
 30
0.0
 10
152.1029781368081
 20
145.2380878853018
 30
0.0
 10
152.3383916616815
 20
142.8808589907162
 30
0.0
 10
153.3830352149306
 20
139.7070618710266
 30
0.0
 10
151.0900391545635
 20
137.618945898213
 30
0.0
 10
147.9994635435355
 20
138.5567733244668
 30
0.0
 10
147.4881393965505
 20
143.4046664759588
 30
0.0
 10
146.5887855603313
 20
140.6006223292224
 30
0.0
 10
144.3631798480389
 20
140.672511353048
 30
0.0
 10
143.5592867982103
 20
144.7472698006189
 30
0.0
 10
146.3852815439634
 20
151.9008429540726
 30
0.0
 10
142.4794587291078
 20
149.6423002315018
 30
0.0
 10
140.4390713824111
 20
154.0385365581538
 30
0.0
 10
139.0482899715767
 20
160.1226086245376
 30
0.0
 10
138.7405316541831
 20
166.7668464468382
 30
0.0
 10
138.5680456248894
 20
170.4906717177701
 30
0.0
  0
LINE
  5
72A3
102
{ACAD_REACTORS
330
7465
102
}
330
2
100
AcDbEntity
  8
KIJUN
100
AcDbLine
 10
137.5473955660781
 20
127.1195448978486
 30
0.0
 11
138.9759245446784
 21
226.9383363145818
 31
0.0
  0
LINE
  5
72A4
102
{ACAD_REACTORS
330
7465
102
}
330
2
100
AcDbEntity
  8
KIJUN
100
AcDbLine
 10
109.3047244000308
 20
231.8995763145819
 30
0.0
 11
110.8047244000308
 21
110.8453203145819
 31
0.0
  0
SPLINE
  5
72A5
102
{ACAD_REACTORS
330
7465
102
}
330
2
100
AcDbEntity
  8
KIJUN
100
AcDbSpline
210
0.0
220
0.0
230
1.0
 70
     8
 71
     3
 72
    26
 73
    22
 74
     0
 42
0.0000000001
 43
0.0000000001
 40
0.0
 40
0.0
 40
0.0
 40
0.0
 40
3.478908010800568
 40
6.382577192590584
 40
8.175764013437385
 40
8.948335408111917
 40
10.86295222857794
 40
13.11146413372491
 40
16.51030857702683
 40
19.88328244808819
 40
21.49412792929118
 40
24.84248400744529
 40
27.73562070058944
 40
29.30196769277431
 40
30.48936026357634
 40
33.31285948700693
 40
40.4136595221059
 40
41.73960259159833
 40
43.48850742129537
 40
52.07926927645091
 40
63.03337097615622
 40
63.03337097615622
 40
63.03337097615622
 40
63.03337097615622
 10
125.3146797721755
 20
181.5096005448468
 30
0.0
 10
124.548451409535
 20
180.6097228293395
 30
0.0
 10
123.1426908500376
 20
178.958762537982
 30
0.0
 10
121.0439980033921
 20
177.5795233429792
 30
0.0
 10
119.6469695462858
 20
175.7172001464675
 30
0.0
 10
120.8134368714141
 20
174.5073067255942
 30
0.0
 10
123.4979600377473
 20
175.4041304608761
 30
0.0
 10
120.5273894157815
 20
172.3318107630867
 30
0.0
 10
120.2924432218241
 20
169.9745359635934
 30
0.0
 10
119.2484289017853
 20
166.8005350006679
 30
0.0
 10
121.5418388918566
 20
164.7128666396254
 30
0.0
 10
124.6322285165178
 20
165.651297299165
 30
0.0
 10
125.1425915470023
 20
170.4992901625449
 30
0.0
 10
126.0425012743922
 20
167.695421615514
 30
0.0
 10
128.2680926914488
 20
167.7677450553518
 30
0.0
 10
129.0711778949501
 20
171.8426603364813
 30
0.0
 10
126.2437649906001
 20
178.9956817438006
 30
0.0
 10
130.150035491472
 20
176.7379014449845
 30
0.0
 10
132.1895512341457
 20
181.1345359510879
 30
0.0
 10
133.5791264359876
 20
187.218879367268
 30
0.0
 10
133.8855675111186
 20
193.8631771325553
 30
0.0
 10
134.0573152796577
 20
197.5870359990953
 30
0.0
  0
LINE
  5
72A6
102
{ACAD_REACTORS
330
7465
102
}
330
2
100
AcDbEntity
  8
KIJUN
100
AcDbLine
 10
114.3047244000308
 20
226.9383363145819
 30
0.0
 11
114.3047244000308
 21
111.8375683145819
 31
0.0
  0
LINE
  5
72A7
102
{ACAD_REACTORS
330
7465
102
}
330
2
100
AcDbEntity
  8
KIJUN
100
AcDbLine
 10
135.2332533786311
 20
127.1195448978486
 30
0.0
 11
133.8047244000307
 21
226.9383363145818
 31
0.0
  0
SPLINE
  5
72A8
102
{ACAD_REACTORS
330
7465
102
}
330
2
100
AcDbEntity
  8
KIJUN
100
AcDbSpline
210
0.0
220
0.0
230
1.0
 70
     8
 71
     3
 72
    11
 73
     7
 74
     0
 42
0.0000000001
 43
0.0000000001
 40
0.0
 40
0.0
 40
0.0
 40
0.0
 40
2.768111184445353
 40
5.731217909935385
 40
9.126620087029589
 40
17.7296694081063
 40
17.7296694081063
 40
17.7296694081063
 40
17.7296694081063
 10
138.7212158379636
 20
117.8479970750352
 30
0.0
 10
139.2012773020099
 20
118.792413754098
 30
0.0
 10
140.1952174573303
 20
120.7477751629536
 30
0.0
 10
143.8174136131195
 20
119.1089119883299
 30
0.0
 10
145.4687281461822
 20
114.3468483871481
 30
0.0
 10
145.4319568356713
 20
110.3449922829065
 30
0.0
 10
145.4055913169231
 20
107.4756082256478
 30
0.0
  0
SPLINE
  5
72A9
102
{ACAD_REACTORS
330
7465
102
}
330
2
100
AcDbEntity
  8
KIJUN
100
AcDbSpline
210
0.0
220
0.0
230
1.0
 70
     8
 71
     3
 72
    11
 73
     7
 74
     0
 42
0.0000000001
 43
0.0000000001
 40
0.0
 40
0.0
 40
0.0
 40
0.0
 40
2.768111184445325
 40
5.731217909935148
 40
9.126620087029429
 40
17.72966940810622
 40
17.72966940810622
 40
17.72966940810622
 40
17.72966940810622
 10
133.7960992054011
 20
117.8353279668169
 30
0.0
 10
133.3111092778147
 20
118.7772621989797
 30
0.0
 10
132.3069650170134
 20
120.7274838416965
 30
0.0
 10
128.6933811972878
 20
119.0700077313006
 30
0.0
 10
127.0669723524724
 20
114.2995126887373
 30
0.0
 10
127.124654303798
 20
110.2978995510455
 30
0.0
 10
127.1660130301524
 20
107.4286897040347
 30
0.0
  0
ELLIPSE
  5
72AA
102
{ACAD_REACTORS
330
7465
102
}
330
2
100
AcDbEntity
  8
KIJUN
100
AcDbEllipse
 10
136.3903244723547
 20
119.8881279540491
 30
0.0
 11
-2.676140191019128
 21
0.0000000000007893
 31
0.0
210
0.0
220
0.0
230
1.0
 40
0.9922480000000074
 41
3.552832117050438
 42
4.734391729485428
  0
LINE
  5
72AB
102
{ACAD_REACTORS
330
7465
102
}
330
2
100
AcDbEntity
  8
KIJUN
100
AcDbLine
 10
138.8433443030224
 20
120.9496107454158
 30
0.0
 11
138.8328764566045
 21
108.7514696566167
 31
0.0
  0
ELLIPSE
  5
72AC
102
{ACAD_REACTORS
330
7465
102
}
330
2
100
AcDbEntity
  8
KIJUN
100
AcDbEllipse
 10
136.9910422188993
 20
109.5822841679426
 30
0.0
 11
2.02598768027981
 21
0.000000000002047
 31
0.0
210
0.0
220
0.0
230
1.0
 40
0.9922479999999433
 41
4.381634242231771
 42
5.86744858022621
  0
SPLINE
  5
72AD
102
{ACAD_REACTORS
330
7465
102
}
330
2
100
AcDbEntity
  8
KIJUN
100
AcDbSpline
210
0.0
220
0.0
230
1.0
 70
     8
 71
     3
 72
    19
 73
    15
 74
     0
 42
0.0000000001
 43
0.0000000001
 40
0.0
 40
0.0
 40
0.0
 40
0.0
 40
5.404438192062025
 40
9.908391352212472
 40
13.48534084196154
 40
16.07354457018727
 40
24.50840772990385
 40
31.41728776529099
 40
34.20226414895591
 40
35.92033337426356
 40
41.45743154100818
 40
48.79642571610153
 40
50.34157410686101
 40
52.73617987863872
 40
52.73617987863872
 40
52.73617987863872
 40
52.73617987863872
 10
123.8254756217711
 20
124.5427975015855
 30
0.0
 10
122.7502892924709
 20
123.0317966678664
 30
0.0
 10
120.7790636907229
 20
120.2615572716609
 30
0.0
 10
119.5205458744142
 20
116.5684599541754
 30
0.0
 10
120.1585993201815
 20
110.9970587804944
 30
0.0
 10
124.6294653055201
 20
115.8826749025486
 30
0.0
 10
126.9799978702057
 20
120.6593538179374
 30
0.0
 10
129.7710530792876
 20
124.9569239941706
 30
0.0
 10
129.3629274797663
 20
131.1353790665838
 30
0.0
 10
133.0458706674267
 20
127.4182449706841
 30
0.0
 10
132.3129306748808
 20
136.6300812228498
 30
0.0
 10
131.4830530938063
 20
140.6829379259538
 30
0.0
 10
134.8283244786403
 20
143.0592909078131
 30
0.0
 10
134.7819617529884
 20
144.4635201862565
 30
0.0
 10
134.753782215418
 20
145.3170190078415
 30
0.0
  0
SPLINE
  5
72AE
102
{ACAD_REACTORS
330
7465
102
}
330
2
100
AcDbEntity
  8
KIJUN
100
AcDbSpline
210
0.0
220
0.0
230
1.0
 70
     8
 71
     3
 72
    13
 73
     9
 74
     0
 42
0.0000000001
 43
0.0000000001
 40
0.0
 40
0.0
 40
0.0
 40
0.0
 40
8.062093823739781
 40
15.22803393111415
 40
18.25845620706651
 40
20.70187841659229
 40
24.31652439969608
 40
34.85270505501297
 40
34.85270505501297
 40
34.85270505501297
 40
34.85270505501297
 10
125.4647197794247
 20
141.884757418036
 30
0.0
 10
125.2849622334313
 20
139.1542081796896
 30
0.0
 10
124.9454283518361
 20
133.9966278585974
 30
0.0
 10
122.9495022379867
 20
128.8532380480257
 30
0.0
 10
118.5010934437331
 20
125.1056535920213
 30
0.0
 10
122.5713110458863
 20
123.2405078919049
 30
0.0
 10
126.2171794889896
 20
128.5908373976316
 30
0.0
 10
127.1431132042137
 20
133.0010615280729
 30
0.0
 10
127.8325291053287
 20
136.2847508386751
 30
0.0
  0
SPLINE
  5
72AF
102
{ACAD_REACTORS
330
7465
102
}
330
2
100
AcDbEntity
  8
KIJUN
100
AcDbSpline
210
0.0
220
0.0
230
1.0
 70
     8
 71
     3
 72
    26
 73
    22
 74
     0
 42
0.0000000001
 43
0.0000000001
 40
0.0
 40
0.0
 40
0.0
 40
0.0
 40
3.478908010800568
 40
6.382577192590584
 40
8.175764013437385
 40
8.948335408111917
 40
10.86295222857794
 40
13.11146413372491
 40
16.51030857702683
 40
19.88328244808819
 40
21.49412792929118
 40
24.84248400744529
 40
27.73562070058944
 40
29.30196769277431
 40
30.48936026357634
 40
33.31285948700693
 40
40.4136595221059
 40
41.73960259159833
 40
43.48850742129537
 40
52.07926927645091
 40
63.03337097615622
 40
63.03337097615622
 40
63.03337097615622
 40
63.03337097615622
 10
125.3146797721755
 20
154.4127960373458
 30
0.0
 10
124.548451409535
 20
153.5129183218386
 30
0.0
 10
123.1426908500376
 20
151.861958030481
 30
0.0
 10
121.0439980033921
 20
150.4827188354781
 30
0.0
 10
119.6469695462858
 20
148.6203956389665
 30
0.0
 10
120.8134368714141
 20
147.4105022180933
 30
0.0
 10
123.4979600377473
 20
148.307325953375
 30
0.0
 10
120.5273894157815
 20
145.2350062555856
 30
0.0
 10
120.2924432218241
 20
142.8777314560923
 30
0.0
 10
119.2484289017853
 20
139.7037304931669
 30
0.0
 10
121.5418388918566
 20
137.6160621321243
 30
0.0
 10
124.6322285165178
 20
138.5544927916641
 30
0.0
 10
125.1425915470023
 20
143.4024856550439
 30
0.0
 10
126.0425012743922
 20
140.598617108013
 30
0.0
 10
128.2680926914488
 20
140.6709405478507
 30
0.0
 10
129.0711778949501
 20
144.7458558289803
 30
0.0
 10
126.2437649906001
 20
151.8988772362997
 30
0.0
 10
130.150035491472
 20
149.6410969374835
 30
0.0
 10
132.1895512341457
 20
154.0377314435869
 30
0.0
 10
133.5791264359876
 20
160.1220748597669
 30
0.0
 10
133.8855675111186
 20
166.7663726250543
 30
0.0
 10
134.0573152796577
 20
170.4902314915942
 30
0.0
  0
SPLINE
  5
72B0
102
{ACAD_REACTORS
330
7465
102
}
330
2
100
AcDbEntity
  8
KIJUN
100
AcDbSpline
210
0.0
220
0.0
230
1.0
 70
     8
 71
     3
 72
    17
 73
    13
 74
     0
 42
0.0000000001
 43
0.0000000001
 40
0.0
 40
0.0
 40
0.0
 40
0.0
 40
5.153574885104017
 40
10.53018423640451
 40
12.73412589439339
 40
15.25190092059545
 40
16.51665109871532
 40
18.53869638958135
 40
21.63473837639886
 40
25.77583721172862
 40
30.39082239700416
 40
36.48444210059228
 40
36.48444210059228
 40
36.48444210059228
 40
36.48444210059228
 10
125.8610944913916
 20
168.3224943639918
 30
0.0
 10
125.3925061650548
 20
166.6872241647064
 30
0.0
 10
124.4350501238865
 20
163.3459131604657
 30
0.0
 10
122.5582013817865
 20
159.4485610702258
 30
0.0
 10
120.2023042979659
 20
157.0748500735887
 30
0.0
 10
119.5123061115654
 20
154.9899310141538
 30
0.0
 10
120.5149415733528
 20
153.1065651403876
 30
0.0
 10
122.9799280950067
 20
153.0984542918776
 30
0.0
 10
125.7023929728091
 20
154.6952791300249
 30
0.0
 10
127.6525388454126
 20
158.2490301280891
 30
0.0
 10
129.533099382901
 20
162.7704848769934
 30
0.0
 10
130.269000821346
 20
166.2513936306465
 30
0.0
 10
130.6877578444827
 20
168.2321683802792
 30
0.0
  0
ELLIPSE
  5
72B1
102
{ACAD_REACTORS
330
7465
102
}
330
2
100
AcDbEntity
  8
KIJUN
100
AcDbEllipse
 10
116.8047244000305
 20
110.8453203145819
 30
0.0
 11
-0.9999999999999998
 21
0.000000000003537
 31
0.0
210
0.0
220
0.0
230
1.0
 40
0.9922480000000176
 41
3.141592653593357
 42
4.712388980388198
  0
ELLIPSE
  5
72B2
102
{ACAD_REACTORS
330
7465
102
}
330
2
100
AcDbEntity
  8
KIJUN
100
AcDbEllipse
 10
111.8047244000308
 20
110.8453203145819
 30
0.0
 11
0.9999999999999996
 21
0.000000000003537
 31
0.0
210
0.0
220
0.0
230
1.0
 40
0.9922480000000179
 41
1.570796326791386
 42
3.141592653586228
  0
SPLINE
  5
72B3
102
{ACAD_REACTORS
330
7465
102
}
330
2
100
AcDbEntity
  8
KIJUN
100
AcDbSpline
210
0.0
220
0.0
230
1.0
 70
     8
 71
     3
 72
    10
 73
     6
 74
     0
 42
0.0000000001
 43
0.0000000001
 40
0.0
 40
0.0
 40
0.0
 40
0.0
 40
2.927138051184614
 40
7.928578519717813
 40
11.25024626811241
 40
11.25024626811241
 40
11.25024626811241
 40
11.25024626811241
 10
122.8513693528778
 20
107.2620271691918
 30
0.0
 10
123.8240984997315
 20
107.3599197771055
 30
0.0
 10
126.4588766633811
 20
107.6250761225773
 30
0.0
 10
130.213300867593
 20
107.0972969422915
 30
0.0
 10
132.9013050186036
 20
106.4265610357183
 30
0.0
 10
133.9740601075981
 20
106.1588771644427
 30
0.0
  0
ELLIPSE
  5
72B4
102
{ACAD_REACTORS
330
7465
102
}
330
2
100
AcDbEntity
  8
KIJUN
100
AcDbEllipse
 10
136.3047244000308
 20
105.2003414851744
 30
0.0
 11
-2.499999999999999
 21
0.0000000000071022
 31
0.0
210
0.0
220
0.0
230
1.0
 40
0.9922479999999874
 41
3.141592653592655
 42
9.424777960772242
  0
SPLINE
  5
72B5
102
{ACAD_REACTORS
330
7465
102
}
330
2
100
AcDbEntity
  8
KIJUN
100
AcDbSpline
210
0.0
220
0.0
230
1.0
 70
     8
 71
     3
 72
     9
 73
     5
 74
     0
 42
0.0000000001
 43
0.0000000001
 40
0.0
 40
0.0
 40
0.0
 40
0.0
 40
2.699642458813646
 40
5.259926529001331
 40
5.259926529001331
 40
5.259926529001331
 40
5.259926529001331
 10
122.8513693528775
 20
107.2620271691919
 30
0.0
 10
121.9528297450749
 20
107.1582233240637
 30
0.0
 10
120.2021340909113
 20
106.9559740976818
 30
0.0
 10
118.5701456776708
 20
106.2969692707969
 30
0.0
 10
117.775770715566
 20
105.9761968130166
 30
0.0
  0
ELLIPSE
  5
72B6
102
{ACAD_REACTORS
330
7465
102
}
330
2
100
AcDbEntity
  8
KIJUN
100
AcDbEllipse
 10
115.0092366742399
 20
101.8522064830027
 30
0.0
 11
6.205021959058889
 21
0.0000000000021966
 31
0.0
210
0.0
220
0.0
230
1.0
 40
0.9922479999999829
 41
2.315288316627694
 42
3.128775335231006
  0
LINE
  5
72B7
102
{ACAD_REACTORS
330
7465
102
}
330
2
100
AcDbEntity
  8
KIJUN
100
AcDbLine
 10
111.8047244000308
 20
111.8375683145819
 30
0.0
 11
116.8047244000305
 21
111.8375683145819
 31
0.0
  0
SPLINE
  5
72B8
102
{ACAD_REACTORS
330
7465
102
}
330
2
100
AcDbEntity
  8
KIJUN
100
AcDbSpline
210
0.0
220
0.0
230
1.0
 70
     8
 71
     3
 72
    12
 73
     8
 74
     0
 42
0.0000000001
 43
0.0000000001
 40
0.0
 40
0.0
 40
0.0
 40
0.0
 40
2.403788872680272
 40
5.510353943784186
 40
7.784852042606251
 40
10.74039180908681
 40
18.66580436000825
 40
18.66580436000825
 40
18.66580436000825
 40
18.66580436000825
 10
133.7931427972046
 20
108.7699105399012
 30
0.0
 10
133.1829273409678
 20
108.1328324917762
 30
0.0
 10
131.7840926995202
 20
106.6724190690824
 30
0.0
 10
129.0009505299583
 20
108.3358208169336
 30
0.0
 10
126.3835941914684
 20
106.8823487801973
 30
0.0
 10
121.6788017804182
 20
109.3707366115188
 30
0.0
 10
123.3423452634326
 20
113.4456749319864
 30
0.0
 10
124.5540285807282
 20
116.4137577217265
 30
0.0
  0
LINE
  5
72B9
102
{ACAD_REACTORS
330
7465
102
}
330
2
100
AcDbEntity
  8
KIJUN
100
AcDbLine
 10
133.7931427972043
 20
120.9491178693788
 30
0.0
 11
133.8047244000307
 21
108.750978932503
 31
0.0
  0
ELLIPSE
  5
72BA
102
{ACAD_REACTORS
330
7465
102
}
330
2
100
AcDbEntity
  8
KIJUN
100
AcDbEllipse
 10
136.2463730219547
 20
119.8881139050611
 30
0.0
 11
-2.676140191019187
 21
0.0000000000075088
 31
0.0
210
0.0
220
0.0
230
1.0
 40
0.9922480000000094
 41
4.690582946867482
 42
5.872142559302576
  0
ELLIPSE
  5
72BB
102
{ACAD_REACTORS
330
7465
102
}
330
2
100
AcDbEntity
  8
KIJUN
100
AcDbEllipse
 10
135.6463938911017
 20
109.5821529365575
 30
0.0
 11
2.025987680279726
 21
0.0000000000050633
 31
0.0
210
0.0
220
0.0
230
1.0
 40
0.9922479999999989
 41
3.55752609612013
 42
5.043340434114615
  0
LINE
  5
72BC
102
{ACAD_REACTORS
330
7465
102
}
330
2
100
AcDbEntity
  8
KIJUN
100
AcDbLine
 10
136.3047244000308
 20
232.8918243145819
 30
0.0
 11
111.8047244003198
 21
232.8918243145819
 31
0.0
  0
LINE
  5
72BD
102
{ACAD_REACTORS
330
7465
102
}
330
2
100
AcDbEntity
  8
KIJUN
100
AcDbLine
 10
136.3047244000308
 20
237.8530643145819
 30
0.0
 11
109.3047244003198
 21
237.8530643145819
 31
0.0
  0
LINE
  5
72BE
102
{ACAD_REACTORS
330
7465
102
}
330
2
100
AcDbEntity
  8
KIJUN
100
AcDbLine
 10
136.3047244000308
 20
242.8143043145819
 30
0.0
 11
107.3047244003198
 21
242.8143043145819
 31
0.0
  0
LINE
  5
72BF
102
{ACAD_REACTORS
330
7465
102
}
330
2
100
AcDbEntity
  8
KIJUN
100
AcDbLine
 10
108.3047244003198
 20
242.8143043145819
 30
0.0
 11
108.3047244003198
 21
238.8453123145819
 31
0.0
  0
ELLIPSE
  5
72C0
102
{ACAD_REACTORS
330
7465
102
}
330
2
100
AcDbEntity
  8
KIJUN
100
AcDbEllipse
 10
107.3047244003198
 20
243.8065523145819
 30
0.0
 11
-0.9999999999999998
 21
0.000000000003537
 31
0.0
210
0.0
220
0.0
230
1.0
 40
0.9922480000000176
 41
0.0000000000035645
 42
1.570796326798405
  0
ELLIPSE
  5
72C1
102
{ACAD_REACTORS
330
7465
102
}
330
2
100
AcDbEntity
  8
KIJUN
100
AcDbEllipse
 10
109.3047244003198
 20
238.8453123145819
 30
0.0
 11
-0.9999999999999998
 21
0.0000000000010801
 31
0.0
210
0.0
220
0.0
230
1.0
 40
0.9922479999999795
 41
0.0000000000010882
 42
1.570796326795968
  0
LINE
  5
72C2
102
{ACAD_REACTORS
330
7465
102
}
330
2
100
AcDbEntity
  8
KIJUN
100
AcDbLine
 10
110.8047244003197
 20
237.8530643145819
 30
0.0
 11
110.8047244003198
 21
233.8840723145819
 31
0.0
  0
ELLIPSE
  5
72C3
102
{ACAD_REACTORS
330
7465
102
}
330
2
100
AcDbEntity
  8
KIJUN
100
AcDbEllipse
 10
111.8047244003198
 20
233.8840723145819
 30
0.0
 11
-0.9999999999999996
 21
0.0000000000045653
 31
0.0
210
0.0
220
0.0
230
1.0
 40
0.9922479999999801
 41
0.0000000000046008
 42
1.570796326799426
  0
SPLINE
  5
72C4
102
{ACAD_REACTORS
330
7465
102
}
330
2
100
AcDbEntity
  8
KIJUN
100
AcDbSpline
210
0.0
220
0.0
230
1.0
 70
     8
 71
     3
 72
    14
 73
    10
 74
     0
 42
0.0000000001
 43
0.0000000001
 40
0.0
 40
0.0
 40
0.0
 40
0.0
 40
1.550697396754443
 40
4.102686190128009
 40
6.141179362864177
 40
9.840005486774501
 40
14.72763512727892
 40
18.21254397187412
 40
19.80556776621807
 40
19.80556776621807
 40
19.80556776621807
 40
19.80556776621807
 10
146.7300663925373
 20
195.7501746653246
 30
0.0
 10
146.6668020254599
 20
195.221206460914
 30
0.0
 10
146.4994232411281
 20
193.821713205947
 30
0.0
 10
144.0524158529641
 20
192.7761662319248
 30
0.0
 10
141.5361637077448
 20
194.7717645892671
 30
0.0
 10
142.6120409617751
 20
198.6324615494666
 30
0.0
 10
141.4939040915844
 20
202.4692560446814
 30
0.0
 10
140.111422300295
 20
205.5321668335908
 30
0.0
 10
138.9483119612828
 20
206.7609666942194
 30
0.0
 10
138.5834267654288
 20
207.1464596803723
 30
0.0
  0
SPLINE
  5
72C5
102
{ACAD_REACTORS
330
7465
102
}
330
2
100
AcDbEntity
  8
KIJUN
100
AcDbSpline
210
0.0
220
0.0
230
1.0
 70
     8
 71
     3
 72
    13
 73
     9
 74
     0
 42
0.0000000001
 43
0.0000000001
 40
0.0
 40
0.0
 40
0.0
 40
0.0
 40
1.434662434701857
 40
3.155480091381502
 40
4.29211274540296
 40
6.245033814227
 40
10.60058734132454
 40
15.377557442416
 40
15.377557442416
 40
15.377557442416
 40
15.377557442416
 10
145.2601389759973
 20
215.6506308832717
 30
0.0
 10
145.2696666892682
 20
215.1964319573818
 30
0.0
 10
145.2906224965823
 20
214.1974403942755
 30
0.0
 10
143.9242633383833
 20
212.5144304424777
 30
0.0
 10
142.8519000731466
 20
214.1980389226549
 30
0.0
 10
141.5929753988217
 20
216.1217863255217
 30
0.0
 10
141.4146042559104
 20
220.0488478859442
 30
0.0
 10
141.5866797506098
 20
223.0214156740162
 30
0.0
 10
141.6766876746814
 20
224.5762835314896
 30
0.0
  0
LINE
  5
72C6
102
{ACAD_REACTORS
330
7465
102
}
330
2
100
AcDbEntity
  8
KIJUN
100
AcDbLine
 10
109.3047244000308
 20
231.8995763145819
 30
0.0
 11
114.3047244000308
 21
231.8995763145819
 31
0.0
  0
SPLINE
  5
72C7
102
{ACAD_REACTORS
330
7465
102
}
330
2
100
AcDbEntity
  8
KIJUN
100
AcDbSpline
210
0.0
220
0.0
230
1.0
 70
     8
 71
     3
 72
    17
 73
    13
 74
     0
 42
0.0000000001
 43
0.0000000001
 40
0.0
 40
0.0
 40
0.0
 40
0.0
 40
5.153574885104017
 40
10.53018423640451
 40
12.73412589439339
 40
15.25190092059545
 40
16.51665109871532
 40
18.53869638958135
 40
21.63473837639886
 40
25.77583721172862
 40
30.39082239700416
 40
36.48444210059228
 40
36.48444210059228
 40
36.48444210059228
 40
36.48444210059228
 10
125.8610944913916
 20
195.4192988714928
 30
0.0
 10
125.3925061650548
 20
193.7840286722075
 30
0.0
 10
124.4350501238865
 20
190.4427176679667
 30
0.0
 10
122.5582013817865
 20
186.5453655777267
 30
0.0
 10
120.2023042979659
 20
184.1716545810898
 30
0.0
 10
119.5123061115654
 20
182.0867355216547
 30
0.0
 10
120.5149415733528
 20
180.2033696478886
 30
0.0
 10
122.9799280950067
 20
180.1952587993787
 30
0.0
 10
125.7023929728091
 20
181.7920836375259
 30
0.0
 10
127.6525388454126
 20
185.3458346355902
 30
0.0
 10
129.533099382901
 20
189.8672893844944
 30
0.0
 10
130.269000821346
 20
193.3481981381476
 30
0.0
 10
130.6877578444827
 20
195.3289728877803
 30
0.0
  0
SPLINE
  5
72C8
102
{ACAD_REACTORS
330
7465
102
}
330
2
100
AcDbEntity
  8
KIJUN
100
AcDbSpline
210
0.0
220
0.0
230
1.0
 70
     8
 71
     3
 72
    14
 73
    10
 74
     0
 42
0.0000000001
 43
0.0000000001
 40
0.0
 40
0.0
 40
0.0
 40
0.0
 40
1.550697396754417
 40
4.102686190128217
 40
6.14117936286436
 40
9.840005486774721
 40
14.72763512727911
 40
18.2125439718743
 40
19.80556776621823
 40
19.80556776621823
 40
19.80556776621823
 40
19.80556776621823
 10
125.8902869120401
 20
195.7481408003571
 30
0.0
 10
125.9536561471264
 20
195.2191849547936
 30
0.0
 10
126.1213123811615
 20
193.8197243976766
 30
0.0
 10
128.5685270042094
 20
192.7746550768226
 30
0.0
 10
131.0843834685155
 20
194.7707445444196
 30
0.0
 10
130.0077408427398
 20
198.6312314287509
 30
0.0
 10
131.1251170374558
 20
202.4682440995806
 30
0.0
 10
132.5069915724837
 20
205.531424676733
 30
0.0
 10
133.66985827643
 20
206.7604515418377
 30
0.0
 10
134.0346670403022
 20
207.1460157427068
 30
0.0
  0
SPLINE
  5
72C9
102
{ACAD_REACTORS
330
7465
102
}
330
2
100
AcDbEntity
  8
KIJUN
100
AcDbSpline
210
0.0
220
0.0
230
1.0
 70
     8
 71
     3
 72
    24
 73
    20
 74
     0
 42
0.0000000001
 43
0.0000000001
 40
0.0
 40
0.0
 40
0.0
 40
0.0
 40
4.685916461549485
 40
9.173147051369273
 40
12.0006829493342
 40
13.38576028459839
 40
15.85072950087063
 40
19.17109662751757
 40
25.18569705880848
 40
30.80985205398612
 40
36.67477359537227
 40
40.11821189044879
 40
42.91734287902614
 40
44.48560512249312
 40
46.33423749892398
 40
48.8862262922991
 40
51.92400652962207
 40
62.63533563026675
 40
68.45376637776983
 40
68.45376637776983
 40
68.45376637776983
 40
68.45376637776983
 10
126.1900739034963
 20
213.3405117975993
 30
0.0
 10
125.4716374898234
 20
211.9391415287624
 30
0.0
 10
124.0652268284818
 20
209.1958199917826
 30
0.0
 10
120.7563877101847
 20
206.8082859461446
 30
0.0
 10
119.4484390395133
 20
204.0560085560413
 30
0.0
 10
120.4251214108343
 20
201.5184508227084
 30
0.0
 10
123.3000523073626
 20
203.2711293380837
 30
0.0
 10
125.6196593008583
 20
205.2708893270389
 30
0.0
 10
128.5704514711393
 20
214.1157303703298
 30
0.0
 10
125.7816417896122
 20
204.2875669536416
 30
0.0
 10
122.4286879132686
 20
201.8036997454717
 30
0.0
 10
120.7187846297865
 20
197.8302307459689
 30
0.0
 10
120.2983422511269
 20
195.5219770703907
 30
0.0
 10
119.3131495800956
 20
193.1534016720626
 30
0.0
 10
121.9901837726117
 20
192.6066029412013
 30
0.0
 10
124.067198391002
 20
193.8681898552579
 30
0.0
 10
128.0608345942309
 20
197.7412649399159
 30
0.0
 10
128.7528354429368
 20
204.6602880019815
 30
0.0
 10
129.9616705585836
 20
209.944315010731
 30
0.0
 10
130.38717724895
 20
211.8042782225855
 30
0.0
  0
SPLINE
  5
72CA
102
{ACAD_REACTORS
330
7465
102
}
330
2
100
AcDbEntity
  8
KIJUN
100
AcDbSpline
210
0.0
220
0.0
230
1.0
 70
     8
 71
     3
 72
    13
 73
     9
 74
     0
 42
0.0000000001
 43
0.0000000001
 40
0.0
 40
0.0
 40
0.0
 40
0.0
 40
1.434662434701821
 40
3.155480091381513
 40
4.292112745402984
 40
6.245033814226943
 40
10.60058734132445
 40
15.3775574424159
 40
15.3775574424159
 40
15.3775574424159
 40
15.3775574424159
 10
127.3562689862946
 20
215.6488835493333
 30
0.0
 10
127.3468313192497
 20
215.1946827725111
 30
0.0
 10
127.3260735648487
 20
214.1956871383563
 30
0.0
 10
128.6927663574266
 20
212.512943919641
 30
0.0
 10
129.7647958224378
 20
214.1967616825149
 30
0.0
 10
131.0233390848039
 20
216.1207547784731
 30
0.0
 10
131.2009316747586
 20
220.0478510792904
 30
0.0
 10
131.0282668645949
 20
223.0203852223215
 30
0.0
 10
130.9379506859303
 20
224.5752354810063
 30
0.0
  0
SPLINE
  5
72CB
102
{ACAD_REACTORS
330
7465
102
}
330
2
100
AcDbEntity
  8
KIJUN
100
AcDbSpline
210
0.0
220
0.0
230
1.0
 70
     8
 71
     3
 72
    24
 73
    20
 74
     0
 42
0.0000000001
 43
0.0000000001
 40
0.0
 40
0.0
 40
0.0
 40
0.0
 40
4.440565862611277
 40
6.75789350707334
 40
8.935372167737012
 40
10.72341630465685
 40
15.00951392848719
 40
18.96638477290779
 40
23.00515587089249
 40
24.75929880456606
 40
26.83499363878977
 40
28.31665259395522
 40
30.2888823686254
 40
32.08206846228154
 40
34.87536707644697
 40
36.53868329754988
 40
40.54475891400457
 40
45.3640965998317
 40
46.33232474394607
 40
46.33232474394607
 40
46.33232474394607
 40
46.33232474394607
 10
120.3765699884415
 20
226.9434524227494
 30
0.0
 10
120.1739291436087
 20
225.5234817579593
 30
0.0
 10
119.8655393365588
 20
223.3624935342249
 30
0.0
 10
119.6320048092095
 20
220.1616932418263
 30
0.0
 10
122.1951777294643
 20
218.8715087648266
 30
0.0
 10
123.9566015422411
 20
221.2614842160748
 30
0.0
 10
124.0403540677367
 20
227.3334193438099
 30
0.0
 10
124.1814036150529
 20
220.2264254230823
 30
0.0
 10
122.2724472102014
 20
218.0875846843747
 30
0.0
 10
120.2768146953378
 20
216.2923294015963
 30
0.0
 10
119.6572020972914
 20
214.5568145515997
 30
0.0
 10
120.0970828965918
 20
212.5922138922012
 30
0.0
 10
122.0066618307072
 20
211.9647157259714
 30
0.0
 10
124.1258944582956
 20
212.1533701696102
 30
0.0
 10
126.303572188423
 20
212.8951053132903
 30
0.0
 10
127.5544497254967
 20
215.55517320603
 30
0.0
 10
127.3532557902113
 20
219.0743569206854
 30
0.0
 10
127.5922190207698
 20
222.3055586874504
 30
0.0
 10
127.3900849174584
 20
224.2109325472922
 30
0.0
 10
127.3562689862946
 20
224.5296911844059
 30
0.0
  0
LINE
  5
72CC
102
{ACAD_REACTORS
330
7465
102
}
330
2
100
AcDbEntity
  8
KIJUN
100
AcDbLine
 10
114.3047244000308
 20
232.8918243145819
 30
0.0
 11
114.3047244000308
 21
226.9383363145819
 31
0.0
  0
LINE
  5
72CD
102
{ACAD_REACTORS
330
7465
102
}
330
2
100
AcDbEntity
  8
KIJUN
100
AcDbLine
 10
136.3047244000308
 20
226.9383363145818
 30
0.0
 11
114.3047244000308
 21
226.9383363145818
 31
0.0
  0
LINE
  5
72CE
102
{ACAD_REACTORS
330
7465
102
}
330
2
100
AcDbEntity
  8
KIJUN
100
AcDbLine
 10
158.3094451482653
 20
226.9426309694278
 30
0.0
 11
158.3322641554566
 21
111.8418651964562
 31
0.0
  0
LINE
  5
72CF
102
{ACAD_REACTORS
330
7465
102
}
330
2
100
AcDbEntity
  8
KIJUN
100
AcDbLine
 10
163.3084614736268
 20
231.9048468266355
 30
0.0
 11
161.832460803316
 21
110.8503003828948
 31
0.0
  0
SPLINE
  5
72D0
102
{ACAD_REACTORS
330
7465
102
}
330
2
100
AcDbEntity
  8
KIJUN
100
AcDbSpline
210
0.0
220
0.0
230
1.0
 70
     8
 71
     3
 72
     9
 73
     5
 74
     0
 42
0.0000000001
 43
0.0000000001
 40
0.0
 40
0.0
 40
0.0
 40
0.0
 40
2.699642458813781
 40
5.259926529001348
 40
5.259926529001348
 40
5.259926529001348
 40
5.259926529001348
 10
149.7865264801347
 20
107.2646559144973
 30
0.0
 10
150.6850866499169
 20
107.1610274578987
 30
0.0
 10
152.4358223666079
 20
106.9591199548355
 30
0.0
 10
154.0679413975815
 20
106.300433689564
 30
0.0
 10
154.8623799382364
 20
105.9798162925477
 30
0.0
  0
ELLIPSE
  5
72D1
102
{ACAD_REACTORS
330
7465
102
}
330
2
100
AcDbEntity
  8
KIJUN
100
AcDbEllipse
 10
160.8324608226646
 20
110.8501051922548
 30
0.0
 11
1.00000000000007
 21
0.0000000000011973
 31
0.0
210
0.0
220
0.0
230
1.0
 40
0.992247999999944
 41
0.0001967155793265
 42
1.570993042374302
  0
ELLIPSE
  5
72D2
102
{ACAD_REACTORS
330
7465
102
}
330
2
100
AcDbEntity
  8
KIJUN
100
AcDbEllipse
 10
155.8324609194075
 20
110.8491292390545
 30
0.0
 11
1.00000000000007
 21
0.0000000000046388
 31
0.0
210
0.0
220
0.0
230
1.0
 40
0.992247999999944
 41
1.570993042370888
 42
3.141789369165651
  0
LINE
  5
72D3
102
{ACAD_REACTORS
330
7465
102
}
330
2
100
AcDbEntity
  8
KIJUN
100
AcDbLine
 10
160.8322641070853
 20
111.8423531730563
 30
0.0
 11
155.8322642038282
 21
111.8413772198559
 31
0.0
  0
ELLIPSE
  5
72D4
102
{ACAD_REACTORS
330
7465
102
}
330
2
100
AcDbEntity
  8
KIJUN
100
AcDbEllipse
 10
157.6297315171474
 20
101.8563660438771
 30
0.0
 11
-6.205021959058772
 21
0.0000000000143515
 31
0.0
210
0.0
220
0.0
230
1.0
 40
0.9922480000000239
 41
3.154606687531039
 42
3.968093706134236
  0
LINE
  5
72D5
102
{ACAD_REACTORS
330
7465
102
}
330
2
100
AcDbEntity
  8
KIJUN
100
AcDbLine
 10
161.8047243997421
 20
237.8530643145819
 30
0.0
 11
161.8047243997418
 21
233.8840723145819
 31
0.0
  0
LINE
  5
72D6
102
{ACAD_REACTORS
330
7465
102
}
330
2
100
AcDbEntity
  8
KIJUN
100
AcDbLine
 10
164.3047243997419
 20
242.8143043145819
 30
0.0
 11
164.3047243997419
 21
238.8453123145819
 31
0.0
  0
LINE
  5
72D7
102
{ACAD_REACTORS
330
7465
102
}
330
2
100
AcDbEntity
  8
KIJUN
100
AcDbLine
 10
158.3082648547899
 20
232.8961188542367
 30
0.0
 11
158.3094451482653
 21
226.9426309694278
 31
0.0
  0
LINE
  5
72D8
102
{ACAD_REACTORS
330
7465
102
}
330
2
100
AcDbEntity
  8
KIJUN
100
AcDbLine
 10
163.3084614736268
 20
231.9048468266355
 30
0.0
 11
158.3084615703691
 21
231.9038708734352
 31
0.0
  0
LINE
  5
72D9
102
{ACAD_REACTORS
330
7466
102
}
330
2
100
AcDbEntity
  8
KIJUN
100
AcDbLine
 10
24.15264458532414
 20
251.9924014111799
 30
0.0
 11
-35.84735541467585
 21
251.9924014111799
 31
0.0
  0
LINE
  5
72DB
102
{ACAD_REACTORS
330
7465
102
}
330
2
100
AcDbEntity
  8
KIJUN
100
AcDbLine
 10
166.3047243997419
 20
250.7522883145819
 30
0.0
 11
106.3047244003198
 21
250.7522883145819
 31
0.0
  0
ELLIPSE
  5
72DC
102
{ACAD_REACTORS
330
7465
102
}
330
2
100
AcDbEntity
  8
KIJUN
100
AcDbEllipse
 10
163.3047243997417
 20
238.8453123145819
 30
0.0
 11
0.9999999999999998
 21
0.0000000000010801
 31
0.0
210
0.0
220
0.0
230
-1.0
 40
0.9922479999999795
 41
0.0000000000010882
 42
1.570796326795968
  0
ELLIPSE
  5
72DD
102
{ACAD_REACTORS
330
7465
102
}
330
2
100
AcDbEntity
  8
KIJUN
100
AcDbEllipse
 10
165.3047243997417
 20
243.8065523145819
 30
0.0
 11
0.9999999999999998
 21
0.000000000003537
 31
0.0
210
0.0
220
0.0
230
-1.0
 40
0.9922480000000176
 41
0.0000000000035645
 42
1.570796326798405
  0
LINE
  5
72DE
102
{ACAD_REACTORS
330
7465
102
}
330
2
100
AcDbEntity
  8
KIJUN
100
AcDbLine
 10
164.3047243997417
 20
242.8143043145819
 30
0.0
 11
164.3047243997417
 21
238.8453123145819
 31
0.0
  0
ELLIPSE
  5
72DF
102
{ACAD_REACTORS
330
7465
102
}
330
2
100
AcDbEntity
  8
KIJUN
100
AcDbEllipse
 10
160.8047243997417
 20
233.8840723145819
 30
0.0
 11
0.9999999999999996
 21
0.0000000000045653
 31
0.0
210
0.0
220
0.0
230
-1.0
 40
0.9922479999999801
 41
0.0000000000046008
 42
1.570796326799426
  0
LINE
  5
72E0
102
{ACAD_REACTORS
330
7465
102
}
330
2
100
AcDbEntity
  8
KIJUN
100
AcDbLine
 10
161.8047243997418
 20
237.8530643145819
 30
0.0
 11
161.8047243997417
 21
233.8840723145819
 31
0.0
  0
LINE
  5
72E1
102
{ACAD_REACTORS
330
7465
102
}
330
2
100
AcDbEntity
  8
KIJUN
100
AcDbLine
 10
136.3047244000308
 20
242.8143043145819
 30
0.0
 11
165.3047243997417
 21
242.8143043145819
 31
0.0
  0
LINE
  5
72E2
102
{ACAD_REACTORS
330
7465
102
}
330
2
100
AcDbEntity
  8
KIJUN
100
AcDbLine
 10
136.3047244000308
 20
237.8530643145819
 30
0.0
 11
163.3047243997417
 21
237.8530643145819
 31
0.0
  0
LINE
  5
72E3
102
{ACAD_REACTORS
330
7465
102
}
330
2
100
AcDbEntity
  8
KIJUN
100
AcDbLine
 10
136.3047244000308
 20
232.8918243145819
 30
0.0
 11
160.8047243997417
 21
232.8918243145819
 31
0.0
  0
DIMENSION
  5
72E4
330
2
100
AcDbEntity
  8
SUNPOU
100
AcDbDimension
  2
*D1
 10
166.3047243997419
 20
276.8965145290963
 30
0.0
 11
136.3047244000309
 21
282.3965145290963
 31
0.0
 70
    32
 71
     5
 42
59.99999999942203
  3
STANDARD
100
AcDbAlignedDimension
 13
106.3047244003198
 23
250.7522883145819
 33
0.0
 14
166.3047243997419
 24
250.7522883145819
 34
0.0
100
AcDbRotatedDimension
1001
ACAD
1000
DSTYLE
1002
{
1070
    41
1040
2.0
1070
    42
1040
10.0
1070
    44
1040
0.0
1070
    73
1070
     0
1070
    74
1070
     0
1070
    77
1070
     1
1070
   140
1040
5.0
1070
   141
1040
0.0
1070
   146
1040
0.064286
1070
   147
1040
3.0
1070
   176
1070
    60
1070
   177
1070
    70
1070
   178
1070
    60
1070
   271
1070
     0
1070
   272
1070
     0
1070
   340
1005
1C
1070
   342
1005
109
1002
}
  0
DIMENSION
  5
72F1
330
2
100
AcDbEntity
  8
SUNPOU
100
AcDbDimension
  2
*D2
 10
208.8650554910067
 20
35.75228831458185
 30
0.0
 11
203.3650554910067
 21
143.2522883145819
 31
0.0
 70
    32
 71
     5
 42
215.0
  3
STANDARD
100
AcDbAlignedDimension
 13
166.3047243997419
 23
250.7522883145819
 33
0.0
 14
136.3047244000309
 24
35.75228831458188
 34
0.0
 50
90.0
100
AcDbRotatedDimension
1001
ACAD
1000
DSTYLE
1002
{
1070
    41
1040
2.0
1070
    42
1040
10.0
1070
    44
1040
0.0
1070
    73
1070
     0
1070
    74
1070
     0
1070
    77
1070
     1
1070
   140
1040
5.0
1070
   141
1040
0.0
1070
   146
1040
0.064286
1070
   147
1040
3.0
1070
   176
1070
    60
1070
   177
1070
    70
1070
   178
1070
    60
1070
   271
1070
     0
1070
   272
1070
     0
1070
   340
1005
1C
1070
   342
1005
109
1002
}
  0
DIMENSION
  5
72FE
330
2
100
AcDbEntity
  8
SUNPOU
100
AcDbDimension
  2
*D3
 10
24.15264458532414
 20
276.938570791296
 30
0.0
 11
-5.847355414675853
 21
282.4385707912959
 31
0.0
 70
    32
 71
     5
 42
59.99999999999999
  3
STANDARD
100
AcDbAlignedDimension
 13
-35.84735541467585
 23
251.9924014111799
 33
0.0
 14
24.15264458532414
 24
251.9924014111799
 34
0.0
100
AcDbRotatedDimension
1001
ACAD
1000
DSTYLE
1002
{
1070
    41
1040
2.0
1070
    42
1040
10.0
1070
    44
1040
0.0
1070
    73
1070
     0
1070
    74
1070
     0
1070
    77
1070
     1
1070
   140
1040
5.0
1070
   141
1040
0.0
1070
   146
1040
0.064286
1070
   147
1040
3.0
1070
   176
1070
    60
1070
   177
1070
    70
1070
   178
1070
    60
1070
   271
1070
     0
1070
   272
1070
     0
1070
   340
1005
1C
1070
   342
1005
109
1002
}
  0
ARC
  5
7329
102
{ACAD_REACTORS
330
7465
102
}
330
2
100
AcDbEntity
  8
KIJUN
100
AcDbCircle
 10
124.4124626329004
 20
41.25783572838257
 30
0.0
 40
5.093303877301123
100
AcDbArc
 50
184.7601987532583
 51
257.6530078759433
  0
ARC
  5
732A
102
{ACAD_REACTORS
330
7465
102
}
330
2
100
AcDbEntity
  8
KIJUN
100
AcDbCircle
 10
99.57106739050972
 20
82.00699464441651
 30
0.0
 40
15.70771836424415
100
AcDbArc
 50
346.980897446147
 51
26.921652719513
  0
ARC
  5
732B
102
{ACAD_REACTORS
330
7465
102
}
330
2
100
AcDbEntity
  8
KIJUN
100
AcDbCircle
 10
124.3975183369802
 20
75.70580340898638
 30
0.0
 40
9.915143316456585
100
AcDbArc
 50
163.8217579171246
 51
191.5315850862709
  0
ARC
  5
732C
102
{ACAD_REACTORS
330
7465
102
}
330
2
100
AcDbEntity
  8
KIJUN
100
AcDbCircle
 10
102.2273135411703
 20
70.35417334491413
 30
0.0
 40
12.90293278851701
100
AcDbArc
 50
349.3215563593671
 51
15.13790379342321
  0
ARC
  5
732D
102
{ACAD_REACTORS
330
7465
102
}
330
2
100
AcDbEntity
  8
KIJUN
100
AcDbCircle
 10
124.1622898799189
 20
66.25470074408248
 30
0.0
 40
9.411874842603779
100
AcDbArc
 50
169.540729677297
 51
196.2068659210439
  0
ARC
  5
732E
102
{ACAD_REACTORS
330
7465
102
}
330
2
100
AcDbEntity
  8
KIJUN
100
AcDbCircle
 10
105.2935378464378
 20
60.43752152235374
 30
0.0
 40
10.33559150057386
100
AcDbArc
 50
342.7616577404998
 51
17.97897888675874
  0
ARC
  5
7330
102
{ACAD_REACTORS
330
7465
102
}
330
2
100
AcDbEntity
  8
KIJUN
100
AcDbCircle
 10
123.0256161810042
 20
54.75014115535326
 30
0.0
 40
8.287297566816782
100
AcDbArc
 50
161.5374826169755
 51
205.0189480051714
  0
ARC
  5
7331
102
{ACAD_REACTORS
330
7465
102
}
330
2
100
AcDbEntity
  8
KIJUN
100
AcDbCircle
 10
161.8770051058007
 20
72.04456970642342
 30
0.0
 40
50.81297977323465
100
AcDbArc
 50
204.1627515615261
 51
209.2431623560312
  0
ARC
  5
7332
102
{ACAD_REACTORS
330
7465
102
}
330
2
100
AcDbEntity
  8
KIJUN
100
AcDbCircle
 10
109.8567530895917
 20
43.03411902025483
 30
0.0
 40
8.7501838916298
100
AcDbArc
 50
5.290823086410533
 51
28.5910405903849
  0
ARC
  5
7333
102
{ACAD_REACTORS
330
7465
102
}
330
2
100
AcDbEntity
  8
KIJUN
100
AcDbCircle
 10
125.8390520905624
 20
44.09531206706239
 30
0.0
 40
7.273843089389378
100
AcDbArc
 50
182.0037475454484
 51
206.6283508654295
  0
ARC
  5
7334
102
{ACAD_REACTORS
330
7465
102
}
330
2
100
AcDbEntity
  8
KIJUN
100
AcDbCircle
 10
148.1969861671613
 20
41.25783572838257
 30
0.0
 40
5.093303877301122
100
AcDbArc
 50
282.3469921240558
 51
355.2398012467417
  0
ARC
  5
7335
102
{ACAD_REACTORS
330
7465
102
}
330
2
100
AcDbEntity
  8
KIJUN
100
AcDbCircle
 10
173.038381409552
 20
82.00699464441651
 30
0.0
 40
15.70771836424414
100
AcDbArc
 50
153.0602078737336
 51
193.019102553853
  0
ARC
  5
7336
102
{ACAD_REACTORS
330
7465
102
}
330
2
100
AcDbEntity
  8
KIJUN
100
AcDbCircle
 10
148.2119304630815
 20
75.70580340898638
 30
0.0
 40
9.915143316456584
100
AcDbArc
 50
348.4684149137287
 51
16.17824208287551
  0
ARC
  5
7337
102
{ACAD_REACTORS
330
7465
102
}
330
2
100
AcDbEntity
  8
KIJUN
100
AcDbCircle
 10
170.3821352588914
 20
70.35417334491413
 30
0.0
 40
12.90293278851701
100
AcDbArc
 50
164.8620962065767
 51
190.6784436406327
  0
ARC
  5
7338
102
{ACAD_REACTORS
330
7465
102
}
330
2
100
AcDbEntity
  8
KIJUN
100
AcDbCircle
 10
148.4471589201428
 20
66.25470074408248
 30
0.0
 40
9.411874842603777
100
AcDbArc
 50
343.7931340789559
 51
10.45927032270315
  0
ARC
  5
7339
102
{ACAD_REACTORS
330
7465
102
}
330
2
100
AcDbEntity
  8
KIJUN
100
AcDbCircle
 10
167.315910953624
 20
60.43752152235374
 30
0.0
 40
10.33559150057386
100
AcDbArc
 50
162.0210211132412
 51
197.2383422594998
  0
ARC
  5
733A
102
{ACAD_REACTORS
330
7465
102
}
330
2
100
AcDbEntity
  8
KIJUN
100
AcDbCircle
 10
149.5838326190575
 20
54.75014115535326
 30
0.0
 40
8.287297566816778
100
AcDbArc
 50
334.9810519948288
 51
18.46251738302475
  0
ARC
  5
733B
102
{ACAD_REACTORS
330
7465
102
}
330
2
100
AcDbEntity
  8
KIJUN
100
AcDbCircle
 10
110.732443694261
 20
72.04456970642342
 30
0.0
 40
50.81297977323464
100
AcDbArc
 50
330.7568376439683
 51
335.8372484384743
  0
ARC
  5
733C
102
{ACAD_REACTORS
330
7465
102
}
330
2
100
AcDbEntity
  8
KIJUN
100
AcDbCircle
 10
162.75269571047
 20
43.03411902025483
 30
0.0
 40
8.750183891629799
100
AcDbArc
 50
151.4089594096144
 51
174.7091769135894
  0
ARC
  5
733D
102
{ACAD_REACTORS
330
7465
102
}
330
2
100
AcDbEntity
  8
KIJUN
100
AcDbCircle
 10
146.7703967094992
 20
44.09531206706239
 30
0.0
 40
7.273843089389377
100
AcDbArc
 50
333.3716491345706
 51
357.9962524545516
  0
ARC
  5
733E
102
{ACAD_REACTORS
330
7465
102
}
330
2
100
AcDbEntity
  8
KIJUN
100
AcDbCircle
 10
136.3047244000309
 20
195.8708556127296
 30
0.0
 40
160.1185672981477
100
AcDbArc
 50
265.3497272603089
 51
274.6502727396911
  0
DIMENSION
  5
736E
330
2
100
AcDbEntity
  8
SUNPOU
100
AcDbDimension
  2
*D4
 10
57.09628898140052
 20
36.99240141117989
 30
0.0
 11
51.59628898140052
 21
144.4924014111799
 31
0.0
 70
    32
 71
     5
 42
215.0
  3
STANDARD
100
AcDbAlignedDimension
 13
24.15264458532414
 23
251.9924014111799
 33
0.0
 14
24.15264458532414
 24
36.9924014111799
 34
0.0
 50
90.0
100
AcDbRotatedDimension
1001
ACAD
1000
DSTYLE
1002
{
1070
    41
1040
2.0
1070
    42
1040
10.0
1070
    44
1040
0.0
1070
    73
1070
     0
1070
    74
1070
     0
1070
    77
1070
     1
1070
   140
1040
5.0
1070
   141
1040
0.0
1070
   146
1040
0.064286
1070
   147
1040
3.0
1070
   176
1070
    60
1070
   177
1070
    70
1070
   178
1070
    60
1070
   271
1070
     0
1070
   272
1070
     0
1070
   340
1005
1C
1070
   342
1005
109
1002
}
  0
ARC
  5
7385
102
{ACAD_REACTORS
330
7466
102
}
330
2
100
AcDbEntity
  8
KIJUN
100
AcDbCircle
 10
24.6942959682854
 20
61.63719843473593
 30
0.0
 40
24.65074860025432
100
AcDbArc
 50
235.0192347328025
 51
268.7409373825844
  0
ARC
  5
7386
102
{ACAD_REACTORS
330
7466
102
}
330
2
100
AcDbEntity
  8
KIJUN
100
AcDbCircle
 10
15.92851487677084
 20
39.43614284737537
 30
0.0
 40
8.726882261148444
100
AcDbArc
 50
108.2264136609191
 51
136.821092737282
  0
ARC
  5
7387
102
{ACAD_REACTORS
330
7466
102
}
330
2
100
AcDbEntity
  8
KIJUN
100
AcDbCircle
 10
-227.9521845766534
 20
171.9028775587821
 30
0.0
 40
250.993168143632
100
AcDbArc
 50
338.0323513463931
 51
341.2315173975164
  0
ARC
  5
7388
102
{ACAD_REACTORS
330
7466
102
}
330
2
100
AcDbEntity
  8
KIJUN
100
AcDbCircle
 10
14.67898488191454
 20
74.17485303323937
 30
0.0
 40
10.58103279315298
100
AcDbArc
 50
158.7454931752435
 51
201.399991565447
  0
ARC
  5
7389
102
{ACAD_REACTORS
330
7466
102
}
330
2
100
AcDbEntity
  8
KIJUN
100
AcDbCircle
 10
76.97667003859203
 20
106.2283813768623
 30
0.0
 40
80.5937130817651
100
AcDbArc
 50
206.4631160012201
 51
215.9384836046122
  0
ARC
  5
738B
102
{ACAD_REACTORS
330
7466
102
}
330
2
100
AcDbEntity
  8
KIJUN
100
AcDbCircle
 10
-5.437030577571992
 20
47.96657204330678
 30
0.0
 40
20.36244458033835
100
AcDbArc
 50
5.424847958928445
 51
32.56445292165758
  0
ARC
  5
738C
102
{ACAD_REACTORS
330
7466
102
}
330
2
100
AcDbEntity
  8
KIJUN
100
AcDbCircle
 10
12.52432728842719
 20
49.93476459242934
 30
0.0
 40
2.310287057966007
100
AcDbArc
 50
286.9790827932524
 51
358.9304045193523
  0
ARC
  5
738D
102
{ACAD_REACTORS
330
7466
102
}
330
2
100
AcDbEntity
  8
KIJUN
100
AcDbCircle
 10
13.73312340487782
 20
45.28059008819837
 30
0.0
 40
4.980785145137715
100
AcDbArc
 50
204.6114459709732
 51
230.4557488448523
  0
ARC
  5
7390
102
{ACAD_REACTORS
330
7466
102
}
330
2
100
AcDbEntity
  8
KIJUN
100
AcDbCircle
 10
11.02313385486284
 20
44.03920508736935
 30
0.0
 40
1.999999999999999
100
AcDbArc
 50
136.8210927372819
 51
204.6114459709732
  0
ARC
  5
7391
102
{ACAD_REACTORS
330
7466
102
}
330
2
100
AcDbEntity
  8
KIJUN
100
AcDbCircle
 10
-1.217705938908029
 20
116.2756626618527
 30
0.0
 40
7.913496231789137
100
AcDbArc
 50
167.0275738013924
 51
288.6210274899429
  0
ARC
  5
7392
102
{ACAD_REACTORS
330
7466
102
}
330
2
100
AcDbEntity
  8
KIJUN
100
AcDbCircle
 10
-0.006454489184236
 20
120.629543488728
 30
0.0
 40
2.961709710339921
100
AcDbArc
 50
258.6374937309098
 51
335.9477015893233
  0
ARC
  5
7393
102
{ACAD_REACTORS
330
7466
102
}
330
2
100
AcDbEntity
  8
KIJUN
100
AcDbCircle
 10
17.39087075774178
 20
186.2787242970835
 30
0.0
 40
70.87173163101827
100
AcDbArc
 50
250.4615718334305
 51
255.3028718230479
  0
ARC
  5
7394
102
{ACAD_REACTORS
330
7466
102
}
330
2
100
AcDbEntity
  8
KIJUN
100
AcDbCircle
 10
-6.980279164400965
 20
117.6031367686496
 30
0.0
 40
1.999999999999999
100
AcDbArc
 50
70.46157183343116
 51
167.0275738013925
  0
ARC
  5
7395
102
{ACAD_REACTORS
330
7466
102
}
330
2
100
AcDbEntity
  8
KIJUN
100
AcDbCircle
 10
-57.69866761954545
 20
105.9486567004433
 30
0.0
 40
63.72985698000896
100
AcDbArc
 50
20.37934368953365
 51
35.54974937361135
  0
ARC
  5
7396
102
{ACAD_REACTORS
330
7466
102
}
330
2
100
AcDbEntity
  8
KIJUN
100
AcDbCircle
 10
-14.87833678205408
 20
121.255329467504
 30
0.0
 40
18.26812265599196
100
AcDbArc
 50
3.284646133987529
 51
22.14511893575043
  0
ARC
  5
7397
102
{ACAD_REACTORS
330
7466
102
}
330
2
100
AcDbEntity
  8
KIJUN
100
AcDbCircle
 10
-3.147548302832522
 20
122.2814700913791
 30
0.0
 40
6.507355899747858
100
AcDbArc
 50
333.9373408027972
 51
0.1810154024905832
  0
ARC
  5
7399
102
{ACAD_REACTORS
330
7466
102
}
330
2
100
AcDbEntity
  8
KIJUN
100
AcDbCircle
 10
11.89892191995537
 20
204.0676203592261
 30
0.0
 40
47.85837015723584
100
AcDbArc
 50
148.3634953679356
 51
176.0777760853843
  0
ARC
  5
739B
102
{ACAD_REACTORS
330
7466
102
}
330
2
100
AcDbEntity
  8
KIJUN
100
AcDbCircle
 10
184.8655495487014
 20
329.6448316754971
 30
0.0
 40
266.8464540576358
100
AcDbArc
 50
217.464661739945
 51
224.3820740086262
  0
ARC
  5
739C
102
{ACAD_REACTORS
330
7466
102
}
330
2
100
AcDbEntity
  8
KIJUN
100
AcDbCircle
 10
230.4630451300814
 20
207.1665539936071
 30
0.0
 40
266.3104578382211
100
AcDbArc
 50
179.9624165999441
 51
183.7128486098179
  0
ARC
  5
739D
102
{ACAD_REACTORS
330
7466
102
}
330
2
100
AcDbEntity
  8
KIJUN
100
AcDbCircle
 10
9.895890186792492
 20
193.7832444753454
 30
0.0
 40
45.34908861510296
100
AcDbArc
 50
184.8852078079835
 51
215.685340022368
  0
ENDSEC
  0
SECTION
  2
OBJECTS
  0
DICTIONARY
  5
1A
330
0
100
AcDbDictionary
281
     1
  3
ACAD_COLOR
350
144
  3
ACAD_GROUP
350
18
  3
ACAD_LAYOUT
350
58
  3
ACAD_MATERIAL
350
143
  3
ACAD_MLINESTYLE
350
19
  3
ACAD_PLOTSETTINGS
350
59
  3
ACAD_PLOTSTYLENAME
350
56
  3
ACAD_TABLESTYLE
350
145
  3
ACDBHEADERROUNDTRIPXREC
350
74AC
  3
AcDbVariableDictionary
350
1D1
  0
DICTIONARY
  5
1B4
330
A
100
AcDbDictionary
280
     1
281
     1
  3
ACAD_LAYERFILTERS
360
1A2A
  3
ACLYDICTIONARY
360
1A29
  0
DICTIONARY
  5
D13
330
2
100
AcDbDictionary
280
     1
281
     1
  3
ACAD_SORTENTS
360
D14
  0
DICTIONARY
  5
144
102
{ACAD_REACTORS
330
1A
102
}
330
1A
100
AcDbDictionary
281
     1
  0
DICTIONARY
  5
18
102
{ACAD_REACTORS
330
1A
102
}
330
1A
100
AcDbDictionary
281
     1
  3
*A1
350
E0D
  3
*A10
350
4781
  3
*A11
350
48BA
  3
*A12
350
422E
  3
*A13
350
4A53
  3
*A14
350
1A98
  3
*A15
350
3695
  3
*A16
350
32E4
  3
*A17
350
4B49
  3
*A18
350
4C3E
  3
*A19
350
4CEC
  3
*A2
350
1555
  3
*A20
350
4D76
  3
*A21
350
3988
  3
*A22
350
3C81
  3
*A23
350
4407
  3
*A24
350
4E16
  3
*A25
350
4EE5
  3
*A26
350
4F64
  3
*A27
350
5011
  3
*A28
350
2C6B
  3
*A29
350
22C8
  3
*A3
350
2A17
  3
*A30
350
519C
  3
*A31
350
52B0
  3
*A32
350
36C9
  3
*A33
350
5396
  3
*A34
350
265A
  3
*A35
350
275E
  3
*A36
350
5464
  3
*A37
350
556A
  3
*A38
350
213E
  3
*A39
350
57BF
  3
*A4
350
31DF
  3
*A40
350
3349
  3
*A41
350
58EE
  3
*A42
350
59A8
  3
*A43
350
1EFE
  3
*A44
350
382B
  3
*A45
350
4516
  3
*A46
350
2573
  3
*A47
350
3878
  3
*A48
350
2905
  3
*A49
350
5BE4
  3
*A5
350
17BC
  3
*A50
350
3E5C
  3
*A51
350
3181
  3
*A52
350
24D6
  3
*A53
350
2B84
  3
*A54
350
5D9C
  3
*A55
350
5F2D
  3
*A56
350
307D
  3
*A57
350
6143
  3
*A58
350
241A
  3
*A59
350
63A1
  3
*A6
350
34BB
  3
*A60
350
6541
  3
*A61
350
2EE1
  3
*A62
350
35A5
  3
*A63
350
401B
  3
*A64
350
2037
  3
*A65
350
6671
  3
*A66
350
67AB
  3
*A67
350
FF8
  3
*A68
350
1CBC
  3
*A69
350
2F81
  3
*A7
350
45E5
  3
*A70
350
6951
  3
*A71
350
6B05
  3
*A72
350
6BE0
  3
*A73
350
6C6A
  3
*A74
350
6D95
  3
*A75
350
3A25
  3
*A76
350
6EED
  3
*A77
350
7171
  3
*A78
350
2D78
  3
*A79
350
7465
  3
*A8
350
26DD
  3
*A80
350
7466
  3
*A81
350
3467
  3
*A82
350
136A
  3
*A9
350
46A5
  0
DICTIONARY
  5
58
102
{ACAD_REACTORS
330
1A
102
}
330
1A
100
AcDbDictionary
281
     1
  3
Model
350
5A
  3
ﾚｲｱｳﾄ1
350
5B
  0
DICTIONARY
  5
143
102
{ACAD_REACTORS
330
1A
102
}
330
1A
100
AcDbDictionary
281
     1
  0
DICTIONARY
  5
19
102
{ACAD_REACTORS
330
1A
102
}
330
1A
100
AcDbDictionary
281
     1
  3
STANDARD
350
1D
  0
DICTIONARY
  5
59
102
{ACAD_REACTORS
330
1A
102
}
330
1A
100
AcDbDictionary
281
     1
  0
ACDBDICTIONARYWDFLT
  5
56
102
{ACAD_REACTORS
330
1A
102
}
330
1A
100
AcDbDictionary
281
     1
  3
Normal
350
57
100
AcDbDictionaryWithDefault
340
57
  0
DICTIONARY
  5
145
102
{ACAD_REACTORS
330
1A
102
}
330
1A
100
AcDbDictionary
281
     1
  3
Standard
350
146
  0
DICTIONARY
  5
74AC
102
{ACAD_REACTORS
330
1A
102
}
330
1A
100
AcDbDictionary
281
     1
  0
DICTIONARY
  5
1D1
102
{ACAD_REACTORS
330
1A
102
}
330
1A
100
AcDbDictionary
281
     1
  3
CTABLESTYLE
350
1D2
  3
DIMASSOC
350
D03
  3
PROJECTNAME
350
D04
  0
DICTIONARY
  5
1A2A
102
{ACAD_REACTORS
330
1B4
102
}
330
1B4
100
AcDbDictionary
281
     1
  0
DICTIONARY
  5
1A29
102
{ACAD_REACTORS
330
1B4
102
}
330
1B4
100
AcDbDictionary
281
     1
1001
ACAD
1000
<All
  0
SORTENTSTABLE
  5
D14
102
{ACAD_REACTORS
330
D13
102
}
330
D13
100
AcDbSortentsTable
330
2
331
732E
  5
732E
331
20
  5
20
331
7298
  5
7298
331
7261
  5
7261
331
72A0
  5
72A0
331
72D7
  5
72D7
331
7336
  5
7336
331
72DF
  5
72DF
331
7269
  5
7269
331
72A8
  5
72A8
331
733E
  5
733E
331
736E
  5
736E
331
723A
  5
723A
331
7271
  5
7271
331
72B0
  5
72B0
331
72B8
  5
72B8
331
7242
  5
7242
331
7279
  5
7279
331
72C0
  5
72C0
331
7281
  5
7281
331
72C8
  5
72C8
331
7252
  5
7252
331
7289
  5
7289
331
7291
  5
7291
331
21
  5
21
331
725A
  5
725A
331
7299
  5
7299
331
72D0
  5
72D0
331
72A1
  5
72A1
331
72D8
  5
72D8
331
7337
  5
7337
331
726A
  5
726A
331
72A9
  5
72A9
331
72E0
  5
72E0
331
7272
  5
7272
331
723B
  5
723B
331
72B1
  5
72B1
331
72B9
  5
72B9
331
7243
  5
7243
331
727A
  5
727A
331
724B
  5
724B
331
72C1
  5
72C1
331
7387
  5
738B
331
72C9
  5
72C9
331
7253
  5
7253
331
728A
  5
728A
331
7292
  5
7292
331
729A
  5
729A
331
725B
  5
725B
331
72D1
  5
72D1
331
7330
  5
7330
331
72A2
  5
72A2
331
7263
  5
7263
331
72D9
  5
72D9
331
7338
  5
7338
331
72AA
  5
72AA
331
7234
  5
7234
331
726B
  5
726B
331
72E1
  5
72E1
331
72B2
  5
72B2
331
723C
  5
723C
331
7273
  5
7273
331
72BA
  5
72BA
331
72F1
  5
72F1
331
7244
  5
7244
331
727B
  5
727B
331
72C2
  5
72C2
331
7388
  5
738C
331
724C
  5
724C
331
7283
  5
7283
331
72CA
  5
72CA
331
7390
  5
7387
331
7254
  5
7254
331
728B
  5
728B
331
7293
  5
7293
331
7329
  5
7329
331
23
  5
23
331
7331
  5
7331
331
725C
  5
725C
331
729B
  5
729B
331
72D2
  5
72D2
331
7339
  5
7339
331
7264
  5
7264
331
72A3
  5
72A3
331
7235
  5
7235
331
726C
  5
726C
331
72AB
  5
72AB
331
72E2
  5
72E2
331
723D
  5
723D
331
7274
  5
7274
331
72B3
  5
72B3
331
7245
  5
7245
331
72BB
  5
72BB
331
7389
  5
738D
331
72C3
  5
72C3
331
724D
  5
724D
331
7284
  5
7284
331
72CB
  5
72CB
331
7255
  5
7255
331
728C
  5
728C
331
7294
  5
7294
331
732A
  5
732A
331
725D
  5
725D
331
729C
  5
729C
331
72D3
  5
72D3
331
7332
  5
7332
331
7265
  5
7265
331
72A4
  5
72A4
331
72DB
  5
72DB
331
733A
  5
733A
331
726D
  5
726D
331
7236
  5
7236
331
72AC
  5
72AC
331
72E3
  5
72E3
331
7275
  5
7275
331
72B4
  5
72B4
331
72BC
  5
72BC
331
7246
  5
7246
331
727D
  5
727D
331
72C4
  5
72C4
331
724E
  5
724E
331
7285
  5
7285
331
72CC
  5
72CC
331
7392
  5
7393
331
7256
  5
7256
331
728D
  5
728D
331
7295
  5
7295
331
732B
  5
732B
331
729D
  5
729D
331
725E
  5
725E
331
72D4
  5
72D4
331
7333
  5
7333
331
72A5
  5
72A5
331
7266
  5
7266
331
72DC
  5
72DC
331
733B
  5
733B
331
72AD
  5
72AD
331
7237
  5
7237
331
726E
  5
726E
331
72E4
  5
72E4
331
72B5
  5
72B5
331
723F
  5
723F
331
7276
  5
7276
331
72BD
  5
72BD
331
7247
  5
7247
331
727E
  5
727E
331
72C5
  5
72C5
331
738B
  5
738E
331
724F
  5
724F
331
7286
  5
7286
331
72CD
  5
72CD
331
7393
  5
7394
331
7257
  5
7257
331
728E
  5
728E
331
732C
  5
732C
331
7334
  5
7334
331
725F
  5
725F
331
729E
  5
729E
331
72D5
  5
72D5
331
733C
  5
733C
331
7267
  5
7267
331
72A6
  5
72A6
331
72DD
  5
72DD
331
7238
  5
7238
331
726F
  5
726F
331
72AE
  5
72AE
331
7277
  5
7277
331
72B6
  5
72B6
331
1F
  5
1F
331
7240
  5
7240
331
72BE
  5
72BE
331
7248
  5
7248
331
727F
  5
727F
331
738C
  5
738F
331
72C6
  5
72C6
331
7250
  5
7250
331
7287
  5
7287
331
7394
  5
7392
331
72CE
  5
72CE
331
728F
  5
728F
331
7297
  5
7297
331
732D
  5
732D
331
7258
  5
7258
331
7260
  5
7260
331
729F
  5
729F
331
72D6
  5
72D6
331
7335
  5
7335
331
7268
  5
7268
331
72A7
  5
72A7
331
72DE
  5
72DE
331
733D
  5
733D
331
7270
  5
7270
331
7239
  5
7239
331
72AF
  5
72AF
331
72B7
  5
72B7
331
7278
  5
7278
331
72BF
  5
72BF
331
7385
  5
7385
331
7249
  5
7249
331
7280
  5
7280
331
738D
  5
7390
331
7251
  5
7251
331
72C7
  5
72C7
331
72FE
  5
72FE
331
72CF
  5
72CF
331
7290
  5
7290
  0
GROUP
  5
E0D
102
{ACAD_REACTORS
330
18
102
}
330
18
100
AcDbGroup
300

 70
     1
 71
     1
  0
GROUP
  5
4781
102
{ACAD_REACTORS
330
18
102
}
330
18
100
AcDbGroup
300

 70
     1
 71
     1
  0
GROUP
  5
48BA
102
{ACAD_REACTORS
330
18
102
}
330
18
100
AcDbGroup
300

 70
     1
 71
     1
  0
GROUP
  5
422E
102
{ACAD_REACTORS
330
18
102
}
330
18
100
AcDbGroup
300

 70
     1
 71
     1
  0
GROUP
  5
4A53
102
{ACAD_REACTORS
330
18
102
}
330
18
100
AcDbGroup
300

 70
     1
 71
     1
  0
GROUP
  5
1A98
102
{ACAD_REACTORS
330
18
102
}
330
18
100
AcDbGroup
300

 70
     1
 71
     1
  0
GROUP
  5
3695
102
{ACAD_REACTORS
330
18
102
}
330
18
100
AcDbGroup
300

 70
     1
 71
     1
  0
GROUP
  5
32E4
102
{ACAD_REACTORS
330
18
102
}
330
18
100
AcDbGroup
300

 70
     1
 71
     1
  0
GROUP
  5
4B49
102
{ACAD_REACTORS
330
18
102
}
330
18
100
AcDbGroup
300

 70
     1
 71
     1
  0
GROUP
  5
4C3E
102
{ACAD_REACTORS
330
18
102
}
330
18
100
AcDbGroup
300

 70
     1
 71
     1
  0
GROUP
  5
4CEC
102
{ACAD_REACTORS
330
18
102
}
330
18
100
AcDbGroup
300

 70
     1
 71
     1
  0
GROUP
  5
1555
102
{ACAD_REACTORS
330
18
102
}
330
18
100
AcDbGroup
300

 70
     1
 71
     1
  0
GROUP
  5
4D76
102
{ACAD_REACTORS
330
18
102
}
330
18
100
AcDbGroup
300

 70
     1
 71
     1
  0
GROUP
  5
3988
102
{ACAD_REACTORS
330
18
102
}
330
18
100
AcDbGroup
300

 70
     1
 71
     1
  0
GROUP
  5
3C81
102
{ACAD_REACTORS
330
18
102
}
330
18
100
AcDbGroup
300

 70
     1
 71
     1
  0
GROUP
  5
4407
102
{ACAD_REACTORS
330
18
102
}
330
18
100
AcDbGroup
300

 70
     1
 71
     1
  0
GROUP
  5
4E16
102
{ACAD_REACTORS
330
18
102
}
330
18
100
AcDbGroup
300

 70
     1
 71
     1
  0
GROUP
  5
4EE5
102
{ACAD_REACTORS
330
18
102
}
330
18
100
AcDbGroup
300

 70
     1
 71
     1
  0
GROUP
  5
4F64
102
{ACAD_REACTORS
330
18
102
}
330
18
100
AcDbGroup
300

 70
     1
 71
     1
  0
GROUP
  5
5011
102
{ACAD_REACTORS
330
18
102
}
330
18
100
AcDbGroup
300

 70
     1
 71
     1
  0
GROUP
  5
2C6B
102
{ACAD_REACTORS
330
18
102
}
330
18
100
AcDbGroup
300

 70
     1
 71
     1
  0
GROUP
  5
22C8
102
{ACAD_REACTORS
330
18
102
}
330
18
100
AcDbGroup
300

 70
     1
 71
     1
  0
GROUP
  5
2A17
102
{ACAD_REACTORS
330
18
102
}
330
18
100
AcDbGroup
300

 70
     1
 71
     1
  0
GROUP
  5
519C
102
{ACAD_REACTORS
330
18
102
}
330
18
100
AcDbGroup
300

 70
     1
 71
     1
  0
GROUP
  5
52B0
102
{ACAD_REACTORS
330
18
102
}
330
18
100
AcDbGroup
300

 70
     1
 71
     1
  0
GROUP
  5
36C9
102
{ACAD_REACTORS
330
18
102
}
330
18
100
AcDbGroup
300

 70
     1
 71
     1
  0
GROUP
  5
5396
102
{ACAD_REACTORS
330
18
102
}
330
18
100
AcDbGroup
300

 70
     1
 71
     1
  0
GROUP
  5
265A
102
{ACAD_REACTORS
330
18
102
}
330
18
100
AcDbGroup
300

 70
     1
 71
     1
  0
GROUP
  5
275E
102
{ACAD_REACTORS
330
18
102
}
330
18
100
AcDbGroup
300

 70
     1
 71
     1
  0
GROUP
  5
5464
102
{ACAD_REACTORS
330
18
102
}
330
18
100
AcDbGroup
300

 70
     1
 71
     1
  0
GROUP
  5
556A
102
{ACAD_REACTORS
330
18
102
}
330
18
100
AcDbGroup
300

 70
     1
 71
     1
  0
GROUP
  5
213E
102
{ACAD_REACTORS
330
18
102
}
330
18
100
AcDbGroup
300

 70
     1
 71
     1
  0
GROUP
  5
57BF
102
{ACAD_REACTORS
330
18
102
}
330
18
100
AcDbGroup
300

 70
     1
 71
     1
  0
GROUP
  5
31DF
102
{ACAD_REACTORS
330
18
102
}
330
18
100
AcDbGroup
300

 70
     1
 71
     1
  0
GROUP
  5
3349
102
{ACAD_REACTORS
330
18
102
}
330
18
100
AcDbGroup
300

 70
     1
 71
     1
  0
GROUP
  5
58EE
102
{ACAD_REACTORS
330
18
102
}
330
18
100
AcDbGroup
300

 70
     1
 71
     1
  0
GROUP
  5
59A8
102
{ACAD_REACTORS
330
18
102
}
330
18
100
AcDbGroup
300

 70
     1
 71
     1
  0
GROUP
  5
1EFE
102
{ACAD_REACTORS
330
18
102
}
330
18
100
AcDbGroup
300

 70
     1
 71
     1
  0
GROUP
  5
382B
102
{ACAD_REACTORS
330
18
102
}
330
18
100
AcDbGroup
300

 70
     1
 71
     1
  0
GROUP
  5
4516
102
{ACAD_REACTORS
330
18
102
}
330
18
100
AcDbGroup
300

 70
     1
 71
     1
  0
GROUP
  5
2573
102
{ACAD_REACTORS
330
18
102
}
330
18
100
AcDbGroup
300

 70
     1
 71
     1
  0
GROUP
  5
3878
102
{ACAD_REACTORS
330
18
102
}
330
18
100
AcDbGroup
300

 70
     1
 71
     1
  0
GROUP
  5
2905
102
{ACAD_REACTORS
330
18
102
}
330
18
100
AcDbGroup
300

 70
     1
 71
     1
  0
GROUP
  5
5BE4
102
{ACAD_REACTORS
330
18
102
}
330
18
100
AcDbGroup
300

 70
     1
 71
     1
  0
GROUP
  5
17BC
102
{ACAD_REACTORS
330
18
102
}
330
18
100
AcDbGroup
300

 70
     1
 71
     1
  0
GROUP
  5
3E5C
102
{ACAD_REACTORS
330
18
102
}
330
18
100
AcDbGroup
300

 70
     1
 71
     1
  0
GROUP
  5
3181
102
{ACAD_REACTORS
330
18
102
}
330
18
100
AcDbGroup
300

 70
     1
 71
     1
  0
GROUP
  5
24D6
102
{ACAD_REACTORS
330
18
102
}
330
18
100
AcDbGroup
300

 70
     1
 71
     1
  0
GROUP
  5
2B84
102
{ACAD_REACTORS
330
18
102
}
330
18
100
AcDbGroup
300

 70
     1
 71
     1
  0
GROUP
  5
5D9C
102
{ACAD_REACTORS
330
18
102
}
330
18
100
AcDbGroup
300

 70
     1
 71
     1
  0
GROUP
  5
5F2D
102
{ACAD_REACTORS
330
18
102
}
330
18
100
AcDbGroup
300

 70
     1
 71
     1
  0
GROUP
  5
307D
102
{ACAD_REACTORS
330
18
102
}
330
18
100
AcDbGroup
300

 70
     1
 71
     1
  0
GROUP
  5
6143
102
{ACAD_REACTORS
330
18
102
}
330
18
100
AcDbGroup
300

 70
     1
 71
     1
  0
GROUP
  5
241A
102
{ACAD_REACTORS
330
18
102
}
330
18
100
AcDbGroup
300

 70
     1
 71
     1
  0
GROUP
  5
63A1
102
{ACAD_REACTORS
330
18
102
}
330
18
100
AcDbGroup
300

 70
     1
 71
     1
  0
GROUP
  5
34BB
102
{ACAD_REACTORS
330
18
102
}
330
18
100
AcDbGroup
300

 70
     1
 71
     1
  0
GROUP
  5
6541
102
{ACAD_REACTORS
330
18
102
}
330
18
100
AcDbGroup
300

 70
     1
 71
     1
  0
GROUP
  5
2EE1
102
{ACAD_REACTORS
330
18
102
}
330
18
100
AcDbGroup
300

 70
     1
 71
     1
  0
GROUP
  5
35A5
102
{ACAD_REACTORS
330
18
102
}
330
18
100
AcDbGroup
300

 70
     1
 71
     1
  0
GROUP
  5
401B
102
{ACAD_REACTORS
330
18
102
}
330
18
100
AcDbGroup
300

 70
     1
 71
     1
  0
GROUP
  5
2037
102
{ACAD_REACTORS
330
18
102
}
330
18
100
AcDbGroup
300

 70
     1
 71
     1
  0
GROUP
  5
6671
102
{ACAD_REACTORS
330
18
102
}
330
18
100
AcDbGroup
300

 70
     1
 71
     1
  0
GROUP
  5
67AB
102
{ACAD_REACTORS
330
18
102
}
330
18
100
AcDbGroup
300

 70
     1
 71
     1
  0
GROUP
  5
FF8
102
{ACAD_REACTORS
330
18
102
}
330
18
100
AcDbGroup
300

 70
     1
 71
     1
  0
GROUP
  5
1CBC
102
{ACAD_REACTORS
330
18
102
}
330
18
100
AcDbGroup
300

 70
     1
 71
     1
  0
GROUP
  5
2F81
102
{ACAD_REACTORS
330
18
102
}
330
18
100
AcDbGroup
300

 70
     1
 71
     1
  0
GROUP
  5
45E5
102
{ACAD_REACTORS
330
18
102
}
330
18
100
AcDbGroup
300

 70
     1
 71
     1
  0
GROUP
  5
6951
102
{ACAD_REACTORS
330
18
102
}
330
18
100
AcDbGroup
300

 70
     1
 71
     1
  0
GROUP
  5
6B05
102
{ACAD_REACTORS
330
18
102
}
330
18
100
AcDbGroup
300

 70
     1
 71
     1
  0
GROUP
  5
6BE0
102
{ACAD_REACTORS
330
18
102
}
330
18
100
AcDbGroup
300

 70
     1
 71
     1
  0
GROUP
  5
6C6A
102
{ACAD_REACTORS
330
18
102
}
330
18
100
AcDbGroup
300

 70
     1
 71
     1
  0
GROUP
  5
6D95
102
{ACAD_REACTORS
330
18
102
}
330
18
100
AcDbGroup
300

 70
     1
 71
     1
  0
GROUP
  5
3A25
102
{ACAD_REACTORS
330
18
102
}
330
18
100
AcDbGroup
300

 70
     1
 71
     1
  0
GROUP
  5
6EED
102
{ACAD_REACTORS
330
18
102
}
330
18
100
AcDbGroup
300

 70
     1
 71
     1
  0
GROUP
  5
7171
102
{ACAD_REACTORS
330
18
102
}
330
18
100
AcDbGroup
300

 70
     1
 71
     1
  0
GROUP
  5
2D78
102
{ACAD_REACTORS
330
18
102
}
330
18
100
AcDbGroup
300

 70
     1
 71
     1
  0
GROUP
  5
7465
102
{ACAD_REACTORS
330
18
102
}
330
18
100
AcDbGroup
300

 70
     1
 71
     1
340
733E
340
733D
340
733C
340
733B
340
733A
340
7339
340
7338
340
7337
340
7336
340
7335
340
7334
340
7333
340
7332
340
7331
340
7330
340
732E
340
732D
340
732C
340
732B
340
732A
340
7329
340
72E3
340
72E2
340
72E1
340
72E0
340
72DF
340
72DE
340
72DD
340
72DC
340
72DB
340
72D8
340
72D7
340
72D6
340
72D5
340
72D4
340
72D3
340
72D2
340
72D1
340
72D0
340
72CF
340
72CE
340
72CD
340
72CC
340
72CB
340
72CA
340
72C9
340
72C8
340
72C7
340
72C6
340
72C5
340
72C4
340
72C3
340
72C2
340
72C1
340
72C0
340
72BF
340
72BE
340
72BD
340
72BC
340
72BB
340
72BA
340
72B9
340
72B8
340
72B7
340
72B6
340
72B5
340
72B4
340
72B3
340
72B2
340
72B1
340
72B0
340
72AF
340
72AE
340
72AD
340
72AC
340
72AB
340
72AA
340
72A9
340
72A8
340
72A7
340
72A6
340
72A5
340
72A4
340
72A3
340
72A2
340
72A1
340
72A0
340
729F
340
729E
340
729D
340
729C
340
729B
340
729A
340
7299
340
7298
340
7297
340
7295
340
7294
340
7293
340
7292
340
7291
340
7290
340
728F
340
728E
340
728D
340
728C
340
728B
340
728A
340
7289
340
7287
340
7286
340
7285
340
7284
340
7283
340
7281
340
7280
340
727F
340
727E
340
727D
340
727B
340
727A
340
7279
340
7278
340
7277
340
7276
340
7275
340
7274
340
7273
340
7272
340
7235
340
7234
  0
GROUP
  5
26DD
102
{ACAD_REACTORS
330
18
102
}
330
18
100
AcDbGroup
300

 70
     1
 71
     1
  0
GROUP
  5
7466
102
{ACAD_REACTORS
330
18
102
}
330
18
100
AcDbGroup
300

 70
     1
 71
     1
340
739D
340
739C
340
739B
340
7399
340
7397
340
7396
340
7395
340
7393
340
7392
340
7394
340
7391
340
738D
340
738C
340
738B
340
7389
340
7388
340
7387
340
7390
340
7386
340
7385
340
72D9
340
7271
340
7270
340
726F
340
726E
340
726D
340
726C
340
726B
340
726A
340
7269
340
7268
340
7267
340
7266
340
7265
340
7264
340
7263
340
7261
340
7260
340
725F
340
725E
340
725D
340
725C
340
725B
340
725A
340
7258
340
7257
340
7256
340
7255
340
7254
340
7253
340
7252
340
7251
340
7250
340
724F
340
724E
340
724D
340
724C
340
724B
340
7249
340
7248
340
7247
340
7246
340
7245
340
7244
340
7243
340
7242
340
7240
340
723F
340
723D
340
723C
340
723B
340
723A
340
7239
340
7238
340
7237
340
7236
  0
GROUP
  5
3467
102
{ACAD_REACTORS
330
18
102
}
330
18
100
AcDbGroup
300

 70
     1
 71
     1
  0
GROUP
  5
136A
102
{ACAD_REACTORS
330
18
102
}
330
18
100
AcDbGroup
300

 70
     1
 71
     1
  0
GROUP
  5
46A5
102
{ACAD_REACTORS
330
18
102
}
330
18
100
AcDbGroup
300

 70
     1
 71
     1
  0
LAYOUT
  5
5A
102
{ACAD_XDICTIONARY
360
74AD
102
}
102
{ACAD_REACTORS
330
58
102
}
330
58
100
AcDbPlotSettings
  1

  2
なし
  4

  6

 40
0.0
 41
0.0
 42
0.0
 43
0.0
 44
0.0
 45
0.0
 46
0.0
 47
0.0
 48
0.0
 49
0.0
140
0.0
141
0.0
142
1.0
143
1.0
 70
  1712
 72
     0
 73
     0
 74
     0
  7
monochrome.ctb
 75
     0
147
1.0
148
0.0
149
0.0
100
AcDbLayout
  1
Model
 70
     1
 71
     0
 10
0.0
 20
0.0
 11
12.0
 21
9.0
 12
0.0
 22
0.0
 32
0.0
 14
0.0
 24
0.0
 34
0.0
 15
0.0
 25
0.0
 35
0.0
146
0.0
 13
0.0
 23
0.0
 33
0.0
 16
1.0
 26
0.0
 36
0.0
 17
0.0
 27
1.0
 37
0.0
 76
     0
330
2
  0
LAYOUT
  5
5B
102
{ACAD_XDICTIONARY
360
74AF
102
}
102
{ACAD_REACTORS
330
58
102
}
330
58
100
AcDbPlotSettings
  1

  2
なし
  4

  6

 40
0.0
 41
0.0
 42
0.0
 43
0.0
 44
0.0
 45
0.0
 46
0.0
 47
0.0
 48
0.0
 49
0.0
140
0.0
141
0.0
142
1.0
143
1.0
 70
   688
 72
     0
 73
     0
 74
     5
  7
monochrome.ctb
 75
    16
147
1.0
148
0.0
149
0.0
100
AcDbLayout
  1
ﾚｲｱｳﾄ1
 70
     1
 71
     1
 10
0.0
 20
0.0
 11
12.0
 21
9.0
 12
0.0
 22
0.0
 32
0.0
 14
1.000000000000000E+20
 24
1.000000000000000E+20
 34
1.000000000000000E+20
 15
-1.000000000000000E+20
 25
-1.000000000000000E+20
 35
-1.000000000000000E+20
146
0.0
 13
0.0
 23
0.0
 33
0.0
 16
1.0
 26
0.0
 36
0.0
 17
0.0
 27
1.0
 37
0.0
 76
     0
330
7
  0
MLINESTYLE
  5
1D
102
{ACAD_REACTORS
330
19
102
}
330
19
100
AcDbMlineStyle
  2
STANDARD
 70
     0
  3

 62
   256
 51
90.0
 52
90.0
 71
     2
 49
0.5
 62
   256
  6
BYLAYER
 49
-0.5
 62
   256
  6
BYLAYER
  0
ACDBPLACEHOLDER
  5
57
102
{ACAD_REACTORS
330
56
102
}
330
56
  0
TABLESTYLE
  5
146
102
{ACAD_REACTORS
330
145
102
}
330
145
100
AcDbTableStyle
  3
Standard
 70
     0
 71
     0
 40
0.06
 41
0.06
280
     0
281
     0
  7
STANDARD
140
0.18
170
     2
 62
     0
 63
     7
283
     0
274
    -2
284
     1
 64
     0
275
    -2
285
     1
 65
     0
276
    -2
286
     1
 66
     0
277
    -2
287
     1
 67
     0
278
    -2
288
     1
 68
     0
279
    -2
289
     1
 69
     0
  7
STANDARD
140
0.25
170
     5
 62
     0
 63
     7
283
     0
274
    -2
284
     1
 64
     0
275
    -2
285
     1
 65
     0
276
    -2
286
     1
 66
     0
277
    -2
287
     1
 67
     0
278
    -2
288
     1
 68
     0
279
    -2
289
     1
 69
     0
  7
STANDARD
140
0.18
170
     5
 62
     0
 63
     7
283
     0
274
    -2
284
     1
 64
     0
275
    -2
285
     1
 65
     0
276
    -2
286
     1
 66
     0
277
    -2
287
     1
 67
     0
278
    -2
288
     1
 68
     0
279
    -2
289
     1
 69
     0
  0
DICTIONARYVAR
  5
1D2
102
{ACAD_REACTORS
330
1D1
102
}
330
1D1
100
DictionaryVariables
280
     0
  1
STANDARD
  0
DICTIONARYVAR
  5
D03
102
{ACAD_REACTORS
330
1D1
102
}
330
1D1
100
DictionaryVariables
280
     0
  1
1
  0
DICTIONARYVAR
  5
D04
102
{ACAD_REACTORS
330
1D1
102
}
330
1D1
100
DictionaryVariables
280
     0
  1

  0
DICTIONARY
  5
74AD
330
5A
100
AcDbDictionary
280
     1
281
     1
  3
ACAD_XREC_ROUNDTRIP
360
74AE
  0
DICTIONARY
  5
74AF
330
5B
100
AcDbDictionary
280
     1
281
     1
  3
ACAD_XREC_ROUNDTRIP
360
74B0
  0
XRECORD
  5
74AE
102
{ACAD_REACTORS
330
74AD
102
}
330
74AD
100
AcDbXrecord
280
     1
102
SHADEPLOT
 70
     0
102
SHADEPLOTRESLEVEL
 70
     2
102
SHADEPLOTCUSTOMDPI
 70
   300
  0
XRECORD
  5
74B0
102
{ACAD_REACTORS
330
74AF
102
}
330
74AF
100
AcDbXrecord
280
     1
102
SHADEPLOT
 70
     0
102
SHADEPLOTRESLEVEL
 70
     2
102
SHADEPLOTCUSTOMDPI
 70
   300
  0
ENDSEC
  0
EOF
