  0
SECTION
  2
HEADER
  9
$ACADVER
  1
AC1015
  9
$ACADMAINTVER
 70
    20
  9
$DWGCODEPAGE
  3
ANSI_932
  9
$INSBASE
 10
922.019522
 20
-675.4306699999999
 30
0.0
  9
$EXTMIN
 10
-40.79972470069981
 20
-0.0032364959763527
 30
-0.000000000000013
  9
$EXTMAX
 10
224.2200615058124
 20
163.7194975957141
 30
0.0000000000000023
  9
$LIMMIN
 10
0.0
 20
0.0
  9
$LIMMAX
 10
420.0
 20
297.0
  9
$ORTHOMODE
 70
     1
  9
$REGENMODE
 70
     1
  9
$FILLMODE
 70
     1
  9
$QTEXTMODE
 70
     0
  9
$MIRRTEXT
 70
     1
  9
$LTSCALE
 40
50.0
  9
$ATTMODE
 70
     1
  9
$TEXTSIZE
 40
30.0
  9
$TRACEWID
 40
0.05
  9
$TEXTSTYLE
  7
SUNPOU
  9
$CLAYER
  8
0
  9
$CELTYPE
  6
BYLAYER
  9
$CECOLOR
 62
   256
  9
$CELTSCALE
 40
1.0
  9
$DISPSILH
 70
     0
  9
$DIMSCALE
 40
1.0
  9
$DIMASZ
 40
2.0
  9
$DIMEXO
 40
10.0
  9
$DIMDLI
 40
0.38
  9
$DIMRND
 40
0.0
  9
$DIMDLE
 40
0.0
  9
$DIMEXE
 40
0.0
  9
$DIMTP
 40
0.0
  9
$DIMTM
 40
0.0
  9
$DIMTXT
 40
5.0
  9
$DIMCEN
 40
0.0
  9
$DIMTSZ
 40
0.0
  9
$DIMTOL
 70
     0
  9
$DIMLIM
 70
     0
  9
$DIMTIH
 70
     0
  9
$DIMTOH
 70
     0
  9
$DIMSE1
 70
     0
  9
$DIMSE2
 70
     0
  9
$DIMTAD
 70
     1
  9
$DIMZIN
 70
     0
  9
$DIMBLK
  1
Dot
  9
$DIMASO
 70
     1
  9
$DIMSHO
 70
     1
  9
$DIMPOST
  1

  9
$DIMAPOST
  1

  9
$DIMALT
 70
     0
  9
$DIMALTD
 70
     2
  9
$DIMALTF
 40
25.4
  9
$DIMLFAC
 40
1.0
  9
$DIMTOFL
 70
     0
  9
$DIMTVP
 40
0.0
  9
$DIMTIX
 70
     0
  9
$DIMSOXD
 70
     0
  9
$DIMSAH
 70
     0
  9
$DIMBLK1
  1

  9
$DIMBLK2
  1

  9
$DIMSTYLE
  2
STANDARD
  9
$DIMCLRD
 70
    60
  9
$DIMCLRE
 70
    70
  9
$DIMCLRT
 70
    60
  9
$DIMTFAC
 40
0.064286
  9
$DIMGAP
 40
3.0
  9
$DIMJUST
 70
     0
  9
$DIMSD1
 70
     0
  9
$DIMSD2
 70
     0
  9
$DIMTOLJ
 70
     1
  9
$DIMTZIN
 70
     0
  9
$DIMALTZ
 70
     0
  9
$DIMALTTZ
 70
     0
  9
$DIMUPT
 70
     0
  9
$DIMDEC
 70
     0
  9
$DIMTDEC
 70
     0
  9
$DIMALTU
 70
     2
  9
$DIMALTTD
 70
     2
  9
$DIMTXSTY
  7
SUNPOU
  9
$DIMAUNIT
 70
     0
  9
$DIMADEC
 70
     0
  9
$DIMALTRND
 40
0.0
  9
$DIMAZIN
 70
     0
  9
$DIMDSEP
 70
    46
  9
$DIMATFIT
 70
     3
  9
$DIMFRAC
 70
     0
  9
$DIMLDRBLK
  1

  9
$DIMLUNIT
 70
     2
  9
$DIMLWD
 70
    -2
  9
$DIMLWE
 70
    -2
  9
$DIMTMOVE
 70
     0
  9
$LUNITS
 70
     2
  9
$LUPREC
 70
     5
  9
$SKETCHINC
 40
0.1
  9
$FILLETRAD
 40
0.0
  9
$AUNITS
 70
     0
  9
$AUPREC
 70
     0
  9
$MENU
  1
acad
  9
$ELEVATION
 40
0.0
  9
$PELEVATION
 40
0.0
  9
$THICKNESS
 40
0.0
  9
$LIMCHECK
 70
     0
  9
$CHAMFERA
 40
0.0
  9
$CHAMFERB
 40
0.0
  9
$CHAMFERC
 40
0.0
  9
$CHAMFERD
 40
0.0
  9
$SKPOLY
 70
     0
  9
$TDCREATE
 40
2450623.654673033
  9
$TDUCREATE
 40
2450623.279673032
  9
$TDUPDATE
 40
2453887.625710891
  9
$TDUUPDATE
 40
2453887.250710891
  9
$TDINDWG
 40
1.2928594676
  9
$TDUSRTIMER
 40
1.2928592940
  9
$USRTIMER
 70
     1
  9
$ANGBASE
 50
0.0
  9
$ANGDIR
 70
     0
  9
$PDMODE
 70
     0
  9
$PDSIZE
 40
0.0
  9
$PLINEWID
 40
0.0
  9
$SPLFRAME
 70
     0
  9
$SPLINETYPE
 70
     6
  9
$SPLINESEGS
 70
     8
  9
$HANDSEED
  5
783C
  9
$SURFTAB1
 70
     6
  9
$SURFTAB2
 70
     6
  9
$SURFTYPE
 70
     6
  9
$SURFU
 70
     6
  9
$SURFV
 70
     6
  9
$UCSBASE
  2

  9
$UCSNAME
  2

  9
$UCSORG
 10
0.0
 20
0.0
 30
0.0
  9
$UCSXDIR
 10
1.0
 20
0.0
 30
0.0
  9
$UCSYDIR
 10
0.0
 20
1.0
 30
0.0
  9
$UCSORTHOREF
  2

  9
$UCSORTHOVIEW
 70
     0
  9
$UCSORGTOP
 10
0.0
 20
0.0
 30
0.0
  9
$UCSORGBOTTOM
 10
0.0
 20
0.0
 30
0.0
  9
$UCSORGLEFT
 10
0.0
 20
0.0
 30
0.0
  9
$UCSORGRIGHT
 10
0.0
 20
0.0
 30
0.0
  9
$UCSORGFRONT
 10
0.0
 20
0.0
 30
0.0
  9
$UCSORGBACK
 10
0.0
 20
0.0
 30
0.0
  9
$PUCSBASE
  2

  9
$PUCSNAME
  2

  9
$PUCSORG
 10
0.0
 20
0.0
 30
0.0
  9
$PUCSXDIR
 10
1.0
 20
0.0
 30
0.0
  9
$PUCSYDIR
 10
0.0
 20
1.0
 30
0.0
  9
$PUCSORTHOREF
  2

  9
$PUCSORTHOVIEW
 70
     0
  9
$PUCSORGTOP
 10
0.0
 20
0.0
 30
0.0
  9
$PUCSORGBOTTOM
 10
0.0
 20
0.0
 30
0.0
  9
$PUCSORGLEFT
 10
0.0
 20
0.0
 30
0.0
  9
$PUCSORGRIGHT
 10
0.0
 20
0.0
 30
0.0
  9
$PUCSORGFRONT
 10
0.0
 20
0.0
 30
0.0
  9
$PUCSORGBACK
 10
0.0
 20
0.0
 30
0.0
  9
$USERI1
 70
     0
  9
$USERI2
 70
     0
  9
$USERI3
 70
     0
  9
$USERI4
 70
     0
  9
$USERI5
 70
     0
  9
$USERR1
 40
0.0
  9
$USERR2
 40
0.0
  9
$USERR3
 40
0.0
  9
$USERR4
 40
0.0
  9
$USERR5
 40
0.0
  9
$WORLDVIEW
 70
     1
  9
$SHADEDGE
 70
     3
  9
$SHADEDIF
 70
    70
  9
$TILEMODE
 70
     1
  9
$MAXACTVP
 70
    16
  9
$PINSBASE
 10
0.0
 20
0.0
 30
0.0
  9
$PLIMCHECK
 70
     0
  9
$PEXTMIN
 10
1.000000000000000E+20
 20
1.000000000000000E+20
 30
1.000000000000000E+20
  9
$PEXTMAX
 10
-1.000000000000000E+20
 20
-1.000000000000000E+20
 30
-1.000000000000000E+20
  9
$PLIMMIN
 10
0.0
 20
0.0
  9
$PLIMMAX
 10
12.0
 20
9.0
  9
$UNITMODE
 70
     0
  9
$VISRETAIN
 70
     0
  9
$PLINEGEN
 70
     0
  9
$PSLTSCALE
 70
     1
  9
$TREEDEPTH
 70
  3020
  9
$CMLSTYLE
  2
STANDARD
  9
$CMLJUST
 70
     0
  9
$CMLSCALE
 40
1.0
  9
$PROXYGRAPHICS
 70
     1
  9
$MEASUREMENT
 70
     0
  9
$CELWEIGHT
370
    -1
  9
$ENDCAPS
280
     0
  9
$JOINSTYLE
280
     0
  9
$LWDISPLAY
290
     1
  9
$INSUNITS
 70
     0
  9
$HYPERLINKBASE
  1

  9
$STYLESHEET
  1

  9
$XEDIT
290
     1
  9
$CEPSNTYPE
380
     0
  9
$PSTYLEMODE
290
     1
  9
$FINGERPRINTGUID
  2
{FB88A696-E29C-4009-92AF-A3599A8169D5}
  9
$VERSIONGUID
  2
{BF9530B1-D353-4357-8F4F-2E7B69B7587C}
  9
$EXTNAMES
290
     1
  9
$PSVPSCALE
 40
0.0
  9
$OLESTARTUP
290
     0
  0
ENDSEC
  0
SECTION
  2
CLASSES
  0
CLASS
  1
DICTIONARYVAR
  2
AcDbDictionaryVar
  3
ObjectDBX Classes
 90
        0
280
     0
281
     0
  0
CLASS
  1
ACDBDICTIONARYWDFLT
  2
AcDbDictionaryWithDefault
  3
ObjectDBX Classes
 90
        0
280
     0
281
     0
  0
CLASS
  1
ACDBPLACEHOLDER
  2
AcDbPlaceHolder
  3
ObjectDBX Classes
 90
        0
280
     0
281
     0
  0
CLASS
  1
LAYOUT
  2
AcDbLayout
  3
ObjectDBX Classes
 90
        0
280
     0
281
     0
  0
CLASS
  1
TABLESTYLE
  2
AcDbTableStyle
  3
ObjectDBX Classes
 90
     2047
280
     0
281
     0
  0
CLASS
  1
SORTENTSTABLE
  2
AcDbSortentsTable
  3
ObjectDBX Classes
 90
        0
280
     0
281
     0
  0
ENDSEC
  0
SECTION
  2
TABLES
  0
TABLE
  2
VPORT
  5
12
330
0
100
AcDbSymbolTable
 70
     3
  0
VPORT
  5
7836
330
12
100
AcDbSymbolTableRecord
100
AcDbViewportTableRecord
  2
*Active
 70
     0
 10
0.0
 20
0.0
 11
1.0
 21
1.0
 12
91.7101684025563
 22
81.85813054986892
 13
0.0
 23
0.0
 14
1.0
 24
1.0
 15
0.0
 25
0.0
 16
0.0
 26
0.0
 36
1.0
 17
0.0
 27
0.0
 37
0.0
 40
170.2090213463681
 41
1.564660691421254
 42
50.0
 43
0.0
 44
0.0
 50
0.0
 51
0.0
 71
     0
 72
 20000
 73
     1
 74
     1
 75
     0
 76
     0
 77
     0
 78
     0
281
     0
 65
     1
110
0.0
120
0.0
130
0.0
111
1.0
121
0.0
131
0.0
112
0.0
122
1.0
132
0.0
 79
     0
146
0.0
  0
ENDTAB
  0
TABLE
  2
LTYPE
  5
D
330
0
100
AcDbSymbolTable
 70
     2
  0
LTYPE
  5
E
330
D
100
AcDbSymbolTableRecord
100
AcDbLinetypeTableRecord
  2
BYBLOCK
 70
     0
  3

 72
    65
 73
     0
 40
0.0
  0
LTYPE
  5
F
330
D
100
AcDbSymbolTableRecord
100
AcDbLinetypeTableRecord
  2
BYLAYER
 70
     0
  3

 72
    65
 73
     0
 40
0.0
  0
LTYPE
  5
5
330
D
100
AcDbSymbolTableRecord
100
AcDbLinetypeTableRecord
  2
CONTINUOUS
 70
     0
  3
Solid line
 72
    65
 73
     0
 40
0.0
  0
LTYPE
  5
7752
330
D
100
AcDbSymbolTableRecord
100
AcDbLinetypeTableRecord
  2
HIDDEN
 70
     0
  3
Hidden __ __ __ __ __ __ __ __ __ __ __ __ __ _
 72
    65
 73
     2
 40
0.375
 49
0.25
 74
     0
 49
-0.125
 74
     0
  0
ENDTAB
  0
TABLE
  2
LAYER
  5
A
102
{ACAD_XDICTIONARY
360
1B4
102
}
330
0
100
AcDbSymbolTable
 70
     7
  0
LAYER
  5
4
330
A
100
AcDbSymbolTableRecord
100
AcDbLayerTableRecord
  2
0
 70
     0
 62
     7
  6
CONTINUOUS
370
    -3
390
57
  0
LAYER
  5
25
330
A
100
AcDbSymbolTableRecord
100
AcDbLayerTableRecord
  2
KIJUN
 70
     0
 62
     7
  6
CONTINUOUS
370
    -3
390
57
  0
LAYER
  5
22
330
A
100
AcDbSymbolTableRecord
100
AcDbLayerTableRecord
  2
HOJO
 70
     0
 62
     3
  6
CONTINUOUS
370
    -3
390
57
  0
LAYER
  5
1B
330
A
100
AcDbSymbolTableRecord
100
AcDbLayerTableRecord
  2
WAKU
 70
     0
 62
     1
  6
CONTINUOUS
370
    -3
390
57
  0
LAYER
  5
31
330
A
100
AcDbSymbolTableRecord
100
AcDbLayerTableRecord
  2
DEFPOINTS
 70
     0
 62
     7
  6
CONTINUOUS
290
     0
370
    -3
390
57
  0
LAYER
  5
28
330
A
100
AcDbSymbolTableRecord
100
AcDbLayerTableRecord
  2
SUNPOU
 70
     0
 62
    70
  6
CONTINUOUS
370
    -3
390
57
  0
LAYER
  5
7753
330
A
100
AcDbSymbolTableRecord
100
AcDbLayerTableRecord
  2
HIDDEN
 70
     0
 62
     6
  6
HIDDEN
370
     9
390
57
  0
ENDTAB
  0
TABLE
  2
STYLE
  5
B
330
0
100
AcDbSymbolTable
 70
     3
  0
STYLE
  5
C
330
B
100
AcDbSymbolTableRecord
100
AcDbTextStyleTableRecord
  2
STANDARD
 70
     0
 40
0.0
 41
1.0
 50
0.0
 71
     0
 42
0.2
  3
txt
  4

  0
STYLE
  5
1C
330
B
100
AcDbSymbolTableRecord
100
AcDbTextStyleTableRecord
  2
SUNPOU
 70
     0
 40
0.0
 41
1.0
 50
0.0
 71
     0
 42
30.0
  3
txt
  4
bigfont
  0
STYLE
  5
7754
330
B
100
AcDbSymbolTableRecord
100
AcDbTextStyleTableRecord
  2
LIFE
 70
     0
 40
0.0
 41
0.7
 50
0.0
 71
     0
 42
10.0
  3
romans
  4
extfont
  0
ENDTAB
  0
TABLE
  2
VIEW
  5
10
330
0
100
AcDbSymbolTable
 70
     0
  0
ENDTAB
  0
TABLE
  2
UCS
  5
11
330
0
100
AcDbSymbolTable
 70
     0
  0
ENDTAB
  0
TABLE
  2
APPID
  5
14
330
0
100
AcDbSymbolTable
 70
    11
  0
APPID
  5
15
330
14
100
AcDbSymbolTableRecord
100
AcDbRegAppTableRecord
  2
ACAD
 70
     0
  0
APPID
  5
1D3
330
14
100
AcDbSymbolTableRecord
100
AcDbRegAppTableRecord
  2
ACAD_DSTYLE_DIMTEXT_FILL
 70
     0
  0
APPID
  5
1D4
330
14
100
AcDbSymbolTableRecord
100
AcDbRegAppTableRecord
  2
ACAD_DSTYLE_DIMEXT_LENGTH
 70
     0
  0
APPID
  5
1D5
330
14
100
AcDbSymbolTableRecord
100
AcDbRegAppTableRecord
  2
ACAD_DSTYLE_DIMEXT_ENABLED
 70
     0
  0
APPID
  5
1D6
330
14
100
AcDbSymbolTableRecord
100
AcDbRegAppTableRecord
  2
ACAD_DSTYLE_DIM_LINETYPE
 70
     0
  0
APPID
  5
1D7
330
14
100
AcDbSymbolTableRecord
100
AcDbRegAppTableRecord
  2
ACAD_DSTYLE_DIM_EXT1_LINETYPE
 70
     0
  0
APPID
  5
1D8
330
14
100
AcDbSymbolTableRecord
100
AcDbRegAppTableRecord
  2
ACAD_DSTYLE_DIM_EXT2_LINETYPE
 70
     0
  0
APPID
  5
294
330
14
100
AcDbSymbolTableRecord
100
AcDbRegAppTableRecord
  2
ACAD_DSTYLE_DIMJOGGED_JOGANGLE_SYMBOL
 70
     0
  0
APPID
  5
478
330
14
100
AcDbSymbolTableRecord
100
AcDbRegAppTableRecord
  2
ACAD_DSTYLE_DIMARC_LENGTH_SYMBOL
 70
     0
  0
APPID
  5
F55
330
14
100
AcDbSymbolTableRecord
100
AcDbRegAppTableRecord
  2
ACAD_EXEMPT_FROM_CAD_STANDARDS
 70
     0
  0
APPID
  5
7756
330
14
100
AcDbSymbolTableRecord
100
AcDbRegAppTableRecord
  2
ACAD_PSEXT
 70
     0
  0
ENDTAB
  0
TABLE
  2
DIMSTYLE
  5
16
330
0
100
AcDbSymbolTable
 70
     2
100
AcDbDimStyleTable
 71
     1
340
1E
  0
DIMSTYLE
105
1E
102
{ACAD_REACTORS
330
76D6
330
76E3
102
}
330
16
100
AcDbSymbolTableRecord
100
AcDbDimStyleTableRecord
  2
STANDARD
 70
     0
340
C
  0
DIMSTYLE
105
7755
102
{ACAD_REACTORS
330
7785
102
}
330
16
100
AcDbSymbolTableRecord
100
AcDbDimStyleTableRecord
  2
STANDARD$0
 70
     0
 40
2.0
 41
1.0
 42
2.0
 43
0.0
 44
1.0
 73
     0
 74
     0
 77
     3
 78
     9
140
4.5
141
0.0
147
1.0
172
     1
173
     1
178
     3
271
     2
340
7754
341
109
343
109
344
109
  0
ENDTAB
  0
TABLE
  2
BLOCK_RECORD
  5
1
330
0
100
AcDbSymbolTable
 70
     5
  0
BLOCK_RECORD
  5
2
102
{ACAD_XDICTIONARY
360
D13
102
}
330
1
100
AcDbSymbolTableRecord
100
AcDbBlockTableRecord
  2
*MODEL_SPACE
340
5A
  0
BLOCK_RECORD
  5
7
330
1
100
AcDbSymbolTableRecord
100
AcDbBlockTableRecord
  2
*PAPER_SPACE
340
5B
  0
BLOCK_RECORD
  5
109
330
1
100
AcDbSymbolTableRecord
100
AcDbBlockTableRecord
  2
_Dot
340
0
102
{BLKREFS
331
771E
331
771F
331
7731
331
7732
102
}
  0
BLOCK_RECORD
  5
76D7
330
1
100
AcDbSymbolTableRecord
100
AcDbBlockTableRecord
  2
*D1
340
0
  0
BLOCK_RECORD
  5
76E4
330
1
100
AcDbSymbolTableRecord
100
AcDbBlockTableRecord
  2
*D2
340
0
  0
BLOCK_RECORD
  5
7742
330
1
100
AcDbSymbolTableRecord
100
AcDbBlockTableRecord
  2
_DOTSMALL
340
0
102
{BLKREFS
331
7800
331
7801
102
}
  0
BLOCK_RECORD
  5
7787
330
1
100
AcDbSymbolTableRecord
100
AcDbBlockTableRecord
  2
*D4
340
0
  0
ENDTAB
  0
ENDSEC
  0
SECTION
  2
BLOCKS
  0
BLOCK
  5
3
330
2
100
AcDbEntity
  8
0
100
AcDbBlockBegin
  2
*MODEL_SPACE
 70
     0
 10
0.0
 20
0.0
 30
0.0
  3
*MODEL_SPACE
  1

  0
ENDBLK
  5
6
330
2
100
AcDbEntity
  8
0
100
AcDbBlockEnd
  0
BLOCK
  5
8
330
7
100
AcDbEntity
 67
     1
  8
0
100
AcDbBlockBegin
  2
*PAPER_SPACE
 70
     0
 10
0.0
 20
0.0
 30
0.0
  3
*PAPER_SPACE
  1

  0
ENDBLK
  5
9
330
7
100
AcDbEntity
 67
     1
  8
0
100
AcDbBlockEnd
  0
BLOCK
  5
10C
330
109
100
AcDbEntity
  8
0
100
AcDbBlockBegin
  2
_Dot
 70
     0
 10
0.0
 20
0.0
 30
0.0
  3
_Dot
  1

  0
LWPOLYLINE
  5
10A
330
109
100
AcDbEntity
  8
0
  6
ByBlock
 62
     0
100
AcDbPolyline
 90
        2
 70
     1
 43
0.5
 10
-0.25
 20
0.0
 42
1.0
 10
0.25
 20
0.0
 42
1.0
  0
LINE
  5
10B
330
109
100
AcDbEntity
  8
0
  6
ByBlock
 62
     0
370
    -2
100
AcDbLine
 10
-0.5
 20
0.0
 30
0.0
 11
-1.0
 21
0.0
 31
0.0
  0
ENDBLK
  5
10D
330
109
100
AcDbEntity
  8
0
100
AcDbBlockEnd
  0
BLOCK
  5
76E1
330
76D7
100
AcDbEntity
  8
0
100
AcDbBlockBegin
  2
*D1
 70
     1
 10
0.0
 20
0.0
 30
0.0
  3
*D1
  1

  0
LINE
  5
772E
330
76D7
100
AcDbEntity
  8
SUNPOU
 62
    70
370
    -2
100
AcDbLine
 10
0.3715899498163686
 20
129.9635156569967
 30
0.0
 11
0.3715899498163701
 21
155.7086268532242
 31
0.0
  0
LINE
  5
772F
330
76D7
100
AcDbEntity
  8
SUNPOU
 62
    70
370
    -2
100
AcDbLine
 10
150.3715899497817
 20
129.9635156569967
 30
0.0
 11
150.3715899497817
 21
155.7086268532242
 31
0.0
  0
LINE
  5
7730
330
76D7
100
AcDbEntity
  8
SUNPOU
 62
    60
370
    -2
100
AcDbLine
 10
2.37158994981637
 20
155.7086268532242
 30
0.0
 11
148.3715899497816
 21
155.7086268532242
 31
0.0
  0
INSERT
  5
7731
330
76D7
100
AcDbEntity
  8
SUNPOU
 62
    60
370
    -2
100
AcDbBlockReference
  2
_Dot
 10
0.3715899498163701
 20
155.7086268532242
 30
0.0
 41
2.0
 42
2.0
 43
2.0
 50
180.0
  0
INSERT
  5
7732
330
76D7
100
AcDbEntity
  8
SUNPOU
 62
    60
370
    -2
100
AcDbBlockReference
  2
_Dot
 10
150.3715899497817
 20
155.7086268532242
 30
0.0
 41
2.0
 42
2.0
 43
2.0
  0
MTEXT
  5
7733
330
76D7
100
AcDbEntity
  8
SUNPOU
 62
    60
100
AcDbMText
 10
75.37158994979903
 20
161.2086268532242
 30
0.0
 40
5.0
 41
0.0
 71
     5
 72
     1
  1
\A1;150
  7
SUNPOU
 73
     1
 44
1.0
1001
ACAD
1000
MTEXTBEGIN
1070
    73
1070
     1
1070
    44
1040
1.0
1070
    74
1070
     0
1000
MTEXTEND
  0
POINT
  5
7734
330
76D7
100
AcDbEntity
  8
DEFPOINTS
 62
     0
100
AcDbPoint
 10
0.3715899498163679
 20
119.9635156569967
 30
0.0
  0
POINT
  5
7735
330
76D7
100
AcDbEntity
  8
DEFPOINTS
 62
     0
100
AcDbPoint
 10
150.3715899497817
 20
119.9635156569967
 30
0.0
  0
POINT
  5
7736
330
76D7
100
AcDbEntity
  8
DEFPOINTS
 62
     0
100
AcDbPoint
 10
150.3715899497817
 20
155.7086268532242
 30
0.0
  0
ENDBLK
  5
76E2
330
76D7
100
AcDbEntity
  8
0
100
AcDbBlockEnd
  0
BLOCK
  5
76EE
330
76E4
100
AcDbEntity
  8
0
100
AcDbBlockBegin
  2
*D2
 70
     1
 10
0.0
 20
0.0
 30
0.0
  3
*D2
  1

  0
LINE
  5
771B
330
76E4
100
AcDbEntity
  8
SUNPOU
 62
    70
370
    -2
100
AcDbLine
 10
-7.628410050213005
 20
119.9427237064778
 30
0.0
 11
-32.79546699316437
 21
119.9427237064778
 31
0.0
  0
LINE
  5
771C
330
76E4
100
AcDbEntity
  8
SUNPOU
 62
    70
370
    -2
100
AcDbLine
 10
19.80362841105076
 20
36.94272370647786
 30
0.0
 11
-32.7954669931644
 21
36.94272370647789
 31
0.0
  0
LINE
  5
771D
330
76E4
100
AcDbEntity
  8
SUNPOU
 62
    60
370
    -2
100
AcDbLine
 10
-32.79546699316437
 20
117.9427237064778
 30
0.0
 11
-32.7954669931644
 21
38.94272370647789
 31
0.0
  0
INSERT
  5
771E
330
76E4
100
AcDbEntity
  8
SUNPOU
 62
    60
370
    -2
100
AcDbBlockReference
  2
_Dot
 10
-32.79546699316437
 20
119.9427237064778
 30
0.0
 41
2.0
 42
2.0
 43
2.0
 50
90.0
  0
INSERT
  5
771F
330
76E4
100
AcDbEntity
  8
SUNPOU
 62
    60
370
    -2
100
AcDbBlockReference
  2
_Dot
 10
-32.7954669931644
 20
36.94272370647789
 30
0.0
 41
2.0
 42
2.0
 43
2.0
 50
270.0
  0
MTEXT
  5
7720
330
76E4
100
AcDbEntity
  8
SUNPOU
 62
    60
100
AcDbMText
 10
-38.2954669931644
 20
78.44272370647786
 30
0.0
 40
5.0
 41
0.0
 71
     5
 72
     1
  1
\A1;83
  7
SUNPOU
 11
0.0000000000000001
 21
1.0
 31
0.0
 73
     1
 44
1.0
1001
ACAD
1000
MTEXTBEGIN
1070
    73
1070
     1
1070
    44
1040
1.0
1070
    74
1070
     0
1000
MTEXTEND
  0
POINT
  5
7721
330
76E4
100
AcDbEntity
  8
DEFPOINTS
 62
     0
100
AcDbPoint
 10
2.371589949786994
 20
119.9427237064778
 30
0.0
  0
POINT
  5
7722
330
76E4
100
AcDbEntity
  8
DEFPOINTS
 62
     0
100
AcDbPoint
 10
29.80362841105077
 20
36.94272370647786
 30
0.0
  0
POINT
  5
7723
330
76E4
100
AcDbEntity
  8
DEFPOINTS
 62
     0
100
AcDbPoint
 10
-32.7954669931644
 20
36.94272370647789
 30
0.0
  0
ENDBLK
  5
76EF
330
76E4
100
AcDbEntity
  8
0
100
AcDbBlockEnd
  0
BLOCK
  5
7743
330
7742
100
AcDbEntity
  8
0
100
AcDbBlockBegin
  2
_DOTSMALL
 70
     0
 10
0.0
 20
0.0
 30
0.0
  3
_DOTSMALL
  1

  0
LWPOLYLINE
  5
7744
330
7742
100
AcDbEntity
  8
0
  6
ByBlock
 62
     0
100
AcDbPolyline
 90
        2
 70
     1
 43
0.5
 10
-0.0625
 20
0.0
 42
1.0
 10
0.0625
 20
0.0
 42
1.0
  0
ENDBLK
  5
7745
330
7742
100
AcDbEntity
  8
0
100
AcDbBlockEnd
  0
BLOCK
  5
7791
330
7787
100
AcDbEntity
  8
0
100
AcDbBlockBegin
  2
*D4
 70
     1
 10
0.0
 20
0.0
 30
0.0
  3
*D4
  1

  0
LINE
  5
77FD
330
7787
100
AcDbEntity
  8
SUNPOU
 62
    70
370
    -2
100
AcDbLine
 10
188.6865492970556
 20
121.5427237064778
 30
0.0
 11
188.6865492970556
 21
143.6021550486938
 31
0.0
  0
LINE
  5
77FE
330
7787
100
AcDbEntity
  8
SUNPOU
 62
    70
370
    -2
100
AcDbLine
 10
223.6865492970556
 20
121.542723706478
 30
0.0
 11
223.6865492970556
 21
143.6021550486938
 31
0.0
  0
LINE
  5
77FF
330
7787
100
AcDbEntity
  8
SUNPOU
 62
    60
370
    -2
100
AcDbLine
 10
188.6865492970556
 20
142.8021550486938
 30
0.0
 11
223.6865492970556
 21
142.8021550486938
 31
0.0
  0
INSERT
  5
7800
330
7787
100
AcDbEntity
  8
SUNPOU
 62
    60
370
    -2
100
AcDbBlockReference
  2
_DOTSMALL
 10
188.6865492970556
 20
142.8021550486938
 30
0.0
 41
4.0
 42
4.0
 43
4.0
 50
180.0
  0
INSERT
  5
7801
330
7787
100
AcDbEntity
  8
SUNPOU
 62
    60
370
    -2
100
AcDbBlockReference
  2
_DOTSMALL
 10
223.6865492970556
 20
142.8021550486938
 30
0.0
 41
4.0
 42
4.0
 43
4.0
  0
MTEXT
  5
7802
330
7787
100
AcDbEntity
  8
SUNPOU
 62
    60
100
AcDbMText
 10
206.1865492970556
 20
148.0021550486938
 30
0.0
 40
5.6
 41
0.0
 71
     5
 72
     1
  1
\A1;35
  7
SUNPOU
 73
     1
 44
1.0
1001
ACAD
1000
MTEXTBEGIN
1070
    73
1070
     1
1070
    44
1040
1.0
1070
    74
1070
     0
1000
MTEXTEND
  0
POINT
  5
7803
330
7787
100
AcDbEntity
  8
DEFPOINTS
 62
     0
100
AcDbPoint
 10
188.6865492970556
 20
119.9427237064778
 30
0.0
  0
POINT
  5
7804
330
7787
100
AcDbEntity
  8
DEFPOINTS
 62
     0
100
AcDbPoint
 10
223.6865492970556
 20
119.942723706478
 30
0.0
  0
POINT
  5
7805
330
7787
100
AcDbEntity
  8
DEFPOINTS
 62
     0
100
AcDbPoint
 10
223.6865492970556
 20
142.8021550486938
 30
0.0
  0
ENDBLK
  5
7792
330
7787
100
AcDbEntity
  8
0
100
AcDbBlockEnd
  0
ENDSEC
  0
SECTION
  2
ENTITIES
  0
LINE
  5
1F
330
2
100
AcDbEntity
  8
WAKU
100
AcDbLine
 10
0.0
 20
14.0
 30
0.0
 11
148.6218955736626
 21
14.0
 31
0.0
  0
LINE
  5
20
330
2
100
AcDbEntity
  8
WAKU
100
AcDbLine
 10
0.0
 20
0.0
 30
0.0
 11
148.6218955736626
 21
0.0
 31
0.0
  0
TEXT
  5
21
330
2
100
AcDbEntity
  8
HOJO
100
AcDbText
 10
9.653966000000025
 20
2.366626000000024
 30
0.0
 40
9.0
  1
TK705
  7
SUNPOU
100
AcDbText
  0
TEXT
  5
23
330
2
100
AcDbEntity
  8
HOJO
100
AcDbText
 10
85.84696046283864
 20
5.044386000000031
 30
0.0
 40
6.0
  1
150×83×35
  7
SUNPOU
100
AcDbText
  0
LINE
  5
75AA
102
{ACAD_REACTORS
330
7737
102
}
330
2
100
AcDbEntity
  8
KIJUN
100
AcDbLine
 10
148.371589949787
 20
119.9427237064778
 30
0.0
 11
148.371589949787
 21
112.9427237064633
 31
0.0
  0
LINE
  5
75AC
102
{ACAD_REACTORS
330
7737
102
}
330
2
100
AcDbEntity
  8
KIJUN
100
AcDbLine
 10
145.371589949787
 20
110.9427237064487
 30
0.0
 11
145.371589949787
 21
102.9427237064778
 31
0.0
  0
LINE
  5
75AD
102
{ACAD_REACTORS
330
7737
102
}
330
2
100
AcDbEntity
  8
KIJUN
100
AcDbLine
 10
148.371589949787
 20
112.9427237064633
 30
0.0
 11
146.371589949787
 21
110.9427237064487
 31
0.0
  0
ARC
  5
75AE
102
{ACAD_REACTORS
330
7737
102
}
330
2
100
AcDbEntity
  8
KIJUN
100
AcDbCircle
 10
143.371589949787
 20
102.9427237064778
 30
0.0
 40
2.0
100
AcDbArc
 50
270.0
 51
0.0
  0
LINE
  5
75AF
102
{ACAD_REACTORS
330
7737
102
}
330
2
100
AcDbEntity
  8
KIJUN
100
AcDbLine
 10
142.2000170745264
 20
99.35693726884757
 30
0.0
 11
142.2000170745264
 21
100.9427237064778
 31
0.0
  0
LINE
  5
75B0
102
{ACAD_REACTORS
330
7737
102
}
330
2
100
AcDbEntity
  8
KIJUN
100
AcDbLine
 10
142.7858035121712
 20
97.94272370647787
 30
0.0
 11
142.7858035121712
 21
95.94272370647786
 31
0.0
  0
LINE
  5
75B1
102
{ACAD_REACTORS
330
7737
102
}
330
2
100
AcDbEntity
  8
KIJUN
100
AcDbLine
 10
136.7858035121712
 20
97.94272370647787
 30
0.0
 11
136.7858035121712
 21
95.94272370647786
 31
0.0
  0
LINE
  5
75B2
102
{ACAD_REACTORS
330
7737
102
}
330
2
100
AcDbEntity
  8
KIJUN
100
AcDbLine
 10
140.7858035121712
 20
99.94272370647786
 30
0.0
 11
138.7858035121712
 21
99.94272370647786
 31
0.0
  0
LINE
  5
75B3
102
{ACAD_REACTORS
330
7737
102
}
330
2
100
AcDbEntity
  8
KIJUN
100
AcDbLine
 10
140.7858035121712
 20
93.94272370647787
 30
0.0
 11
138.7858035121712
 21
93.94272370647787
 31
0.0
  0
ARC
  5
75B4
102
{ACAD_REACTORS
330
7737
102
}
330
2
100
AcDbEntity
  8
KIJUN
100
AcDbCircle
 10
140.7858035121712
 20
95.94272370647786
 30
0.0
 40
2.0
100
AcDbArc
 50
270.0
 51
0.0
  0
ARC
  5
75B5
102
{ACAD_REACTORS
330
7737
102
}
330
2
100
AcDbEntity
  8
KIJUN
100
AcDbCircle
 10
140.7858035121712
 20
97.94272370647787
 30
0.0
 40
2.0
100
AcDbArc
 50
0.0
 51
90.0
  0
ARC
  5
75B6
102
{ACAD_REACTORS
330
7737
102
}
330
2
100
AcDbEntity
  8
KIJUN
100
AcDbCircle
 10
138.7858035121712
 20
97.94272370647787
 30
0.0
 40
2.0
100
AcDbArc
 50
90.0
 51
180.0
  0
ARC
  5
75B7
102
{ACAD_REACTORS
330
7737
102
}
330
2
100
AcDbEntity
  8
KIJUN
100
AcDbCircle
 10
138.7858035121712
 20
95.94272370647786
 30
0.0
 40
2.0
100
AcDbArc
 50
180.0
 51
270.0
  0
ARC
  5
75B8
102
{ACAD_REACTORS
330
7737
102
}
330
2
100
AcDbEntity
  8
KIJUN
100
AcDbCircle
 10
134.0358035121712
 20
95.94272370647786
 30
0.0
 40
2.0
100
AcDbArc
 50
270.0
 51
0.0
  0
ARC
  5
75B9
102
{ACAD_REACTORS
330
7737
102
}
330
2
100
AcDbEntity
  8
KIJUN
100
AcDbCircle
 10
134.0358035121712
 20
97.94272370647787
 30
0.0
 40
2.0
100
AcDbArc
 50
0.0
 51
90.0
  0
LINE
  5
75BA
102
{ACAD_REACTORS
330
7737
102
}
330
2
100
AcDbEntity
  8
KIJUN
100
AcDbLine
 10
136.0358035121712
 20
97.94272370647787
 30
0.0
 11
136.0358035121712
 21
95.94272370647786
 31
0.0
  0
ARC
  5
75BB
102
{ACAD_REACTORS
330
7737
102
}
330
2
100
AcDbEntity
  8
KIJUN
100
AcDbCircle
 10
132.0358035121712
 20
97.94272370647787
 30
0.0
 40
2.0
100
AcDbArc
 50
90.0
 51
180.0
  0
LINE
  5
75BC
102
{ACAD_REACTORS
330
7737
102
}
330
2
100
AcDbEntity
  8
KIJUN
100
AcDbLine
 10
134.0358035121712
 20
99.94272370647786
 30
0.0
 11
132.0358035121712
 21
99.94272370647786
 31
0.0
  0
ARC
  5
75BD
102
{ACAD_REACTORS
330
7737
102
}
330
2
100
AcDbEntity
  8
KIJUN
100
AcDbCircle
 10
132.0358035121712
 20
95.94272370647786
 30
0.0
 40
2.0
100
AcDbArc
 50
180.0
 51
270.0
  0
LINE
  5
75BE
102
{ACAD_REACTORS
330
7737
102
}
330
2
100
AcDbEntity
  8
KIJUN
100
AcDbLine
 10
130.0358035121712
 20
97.94272370647787
 30
0.0
 11
130.0358035121712
 21
95.94272370647786
 31
0.0
  0
LINE
  5
75BF
102
{ACAD_REACTORS
330
7737
102
}
330
2
100
AcDbEntity
  8
KIJUN
100
AcDbLine
 10
134.0358035121712
 20
93.94272370647787
 30
0.0
 11
132.0358035121712
 21
93.94272370647787
 31
0.0
  0
LINE
  5
75C0
102
{ACAD_REACTORS
330
7737
102
}
330
2
100
AcDbEntity
  8
KIJUN
100
AcDbLine
 10
127.2858035121712
 20
93.94272370647787
 30
0.0
 11
125.2858035121712
 21
93.94272370647787
 31
0.0
  0
LINE
  5
75C1
102
{ACAD_REACTORS
330
7737
102
}
330
2
100
AcDbEntity
  8
KIJUN
100
AcDbLine
 10
123.2858035121712
 20
97.94272370647787
 30
0.0
 11
123.2858035121712
 21
95.94272370647786
 31
0.0
  0
ARC
  5
75C2
102
{ACAD_REACTORS
330
7737
102
}
330
2
100
AcDbEntity
  8
KIJUN
100
AcDbCircle
 10
125.2858035121712
 20
95.94272370647786
 30
0.0
 40
2.0
100
AcDbArc
 50
180.0
 51
270.0
  0
LINE
  5
75C3
102
{ACAD_REACTORS
330
7737
102
}
330
2
100
AcDbEntity
  8
KIJUN
100
AcDbLine
 10
127.2858035121712
 20
99.94272370647786
 30
0.0
 11
125.2858035121712
 21
99.94272370647786
 31
0.0
  0
ARC
  5
75C4
102
{ACAD_REACTORS
330
7737
102
}
330
2
100
AcDbEntity
  8
KIJUN
100
AcDbCircle
 10
125.2858035121712
 20
97.94272370647787
 30
0.0
 40
2.0
100
AcDbArc
 50
90.0
 51
180.0
  0
LINE
  5
75C5
102
{ACAD_REACTORS
330
7737
102
}
330
2
100
AcDbEntity
  8
KIJUN
100
AcDbLine
 10
129.2858035121712
 20
97.94272370647787
 30
0.0
 11
129.2858035121712
 21
95.94272370647786
 31
0.0
  0
ARC
  5
75C6
102
{ACAD_REACTORS
330
7737
102
}
330
2
100
AcDbEntity
  8
KIJUN
100
AcDbCircle
 10
127.2858035121712
 20
97.94272370647787
 30
0.0
 40
2.0
100
AcDbArc
 50
0.0
 51
90.0
  0
ARC
  5
75C7
102
{ACAD_REACTORS
330
7737
102
}
330
2
100
AcDbEntity
  8
KIJUN
100
AcDbCircle
 10
127.2858035121712
 20
95.94272370647786
 30
0.0
 40
2.0
100
AcDbArc
 50
270.0
 51
0.0
  0
ARC
  5
75C8
102
{ACAD_REACTORS
330
7737
102
}
330
2
100
AcDbEntity
  8
KIJUN
100
AcDbCircle
 10
113.7858035121712
 20
95.94272370647786
 30
0.0
 40
2.0
100
AcDbArc
 50
270.0
 51
0.0
  0
ARC
  5
75C9
102
{ACAD_REACTORS
330
7737
102
}
330
2
100
AcDbEntity
  8
KIJUN
100
AcDbCircle
 10
113.7858035121712
 20
97.94272370647787
 30
0.0
 40
2.0
100
AcDbArc
 50
0.0
 51
90.0
  0
LINE
  5
75CA
102
{ACAD_REACTORS
330
7737
102
}
330
2
100
AcDbEntity
  8
KIJUN
100
AcDbLine
 10
115.7858035121712
 20
97.94272370647787
 30
0.0
 11
115.7858035121712
 21
95.94272370647786
 31
0.0
  0
ARC
  5
75CB
102
{ACAD_REACTORS
330
7737
102
}
330
2
100
AcDbEntity
  8
KIJUN
100
AcDbCircle
 10
111.7858035121712
 20
97.94272370647787
 30
0.0
 40
2.0
100
AcDbArc
 50
90.0
 51
180.0
  0
LINE
  5
75CC
102
{ACAD_REACTORS
330
7737
102
}
330
2
100
AcDbEntity
  8
KIJUN
100
AcDbLine
 10
113.7858035121712
 20
99.94272370647786
 30
0.0
 11
111.7858035121712
 21
99.94272370647786
 31
0.0
  0
ARC
  5
75CD
102
{ACAD_REACTORS
330
7737
102
}
330
2
100
AcDbEntity
  8
KIJUN
100
AcDbCircle
 10
111.7858035121712
 20
95.94272370647786
 30
0.0
 40
2.0
100
AcDbArc
 50
180.0
 51
270.0
  0
LINE
  5
75CE
102
{ACAD_REACTORS
330
7737
102
}
330
2
100
AcDbEntity
  8
KIJUN
100
AcDbLine
 10
109.7858035121712
 20
97.94272370647787
 30
0.0
 11
109.7858035121712
 21
95.94272370647786
 31
0.0
  0
LINE
  5
75CF
102
{ACAD_REACTORS
330
7737
102
}
330
2
100
AcDbEntity
  8
KIJUN
100
AcDbLine
 10
113.7858035121712
 20
93.94272370647787
 30
0.0
 11
111.7858035121712
 21
93.94272370647787
 31
0.0
  0
LINE
  5
75D0
102
{ACAD_REACTORS
330
7737
102
}
330
2
100
AcDbEntity
  8
KIJUN
100
AcDbLine
 10
120.5358035121712
 20
93.94272370647787
 30
0.0
 11
118.5358035121712
 21
93.94272370647787
 31
0.0
  0
LINE
  5
75D1
102
{ACAD_REACTORS
330
7737
102
}
330
2
100
AcDbEntity
  8
KIJUN
100
AcDbLine
 10
116.5358035121712
 20
97.94272370647787
 30
0.0
 11
116.5358035121712
 21
95.94272370647786
 31
0.0
  0
ARC
  5
75D2
102
{ACAD_REACTORS
330
7737
102
}
330
2
100
AcDbEntity
  8
KIJUN
100
AcDbCircle
 10
118.5358035121712
 20
95.94272370647786
 30
0.0
 40
2.0
100
AcDbArc
 50
180.0
 51
270.0
  0
LINE
  5
75D3
102
{ACAD_REACTORS
330
7737
102
}
330
2
100
AcDbEntity
  8
KIJUN
100
AcDbLine
 10
120.5358035121712
 20
99.94272370647786
 30
0.0
 11
118.5358035121712
 21
99.94272370647786
 31
0.0
  0
ARC
  5
75D4
102
{ACAD_REACTORS
330
7737
102
}
330
2
100
AcDbEntity
  8
KIJUN
100
AcDbCircle
 10
118.5358035121712
 20
97.94272370647787
 30
0.0
 40
2.0
100
AcDbArc
 50
90.0
 51
180.0
  0
LINE
  5
75D5
102
{ACAD_REACTORS
330
7737
102
}
330
2
100
AcDbEntity
  8
KIJUN
100
AcDbLine
 10
122.5358035121712
 20
97.94272370647787
 30
0.0
 11
122.5358035121712
 21
95.94272370647786
 31
0.0
  0
ARC
  5
75D6
102
{ACAD_REACTORS
330
7737
102
}
330
2
100
AcDbEntity
  8
KIJUN
100
AcDbCircle
 10
120.5358035121712
 20
97.94272370647787
 30
0.0
 40
2.0
100
AcDbArc
 50
0.0
 51
90.0
  0
ARC
  5
75D7
102
{ACAD_REACTORS
330
7737
102
}
330
2
100
AcDbEntity
  8
KIJUN
100
AcDbCircle
 10
120.5358035121712
 20
95.94272370647786
 30
0.0
 40
2.0
100
AcDbArc
 50
270.0
 51
0.0
  0
ARC
  5
75D8
102
{ACAD_REACTORS
330
7737
102
}
330
2
100
AcDbEntity
  8
KIJUN
100
AcDbCircle
 10
127.2858035121712
 20
95.94272370647786
 30
0.0
 40
2.0
100
AcDbArc
 50
270.0
 51
0.0
  0
ARC
  5
75D9
102
{ACAD_REACTORS
330
7737
102
}
330
2
100
AcDbEntity
  8
KIJUN
100
AcDbCircle
 10
127.2858035121712
 20
97.94272370647787
 30
0.0
 40
2.0
100
AcDbArc
 50
0.0
 51
90.0
  0
LINE
  5
75DA
102
{ACAD_REACTORS
330
7737
102
}
330
2
100
AcDbEntity
  8
KIJUN
100
AcDbLine
 10
129.2858035121712
 20
97.94272370647787
 30
0.0
 11
129.2858035121712
 21
95.94272370647786
 31
0.0
  0
ARC
  5
75DB
102
{ACAD_REACTORS
330
7737
102
}
330
2
100
AcDbEntity
  8
KIJUN
100
AcDbCircle
 10
125.2858035121712
 20
97.94272370647787
 30
0.0
 40
2.0
100
AcDbArc
 50
90.0
 51
180.0
  0
LINE
  5
75DC
102
{ACAD_REACTORS
330
7737
102
}
330
2
100
AcDbEntity
  8
KIJUN
100
AcDbLine
 10
127.2858035121712
 20
99.94272370647786
 30
0.0
 11
125.2858035121712
 21
99.94272370647786
 31
0.0
  0
ARC
  5
75DD
102
{ACAD_REACTORS
330
7737
102
}
330
2
100
AcDbEntity
  8
KIJUN
100
AcDbCircle
 10
125.2858035121712
 20
95.94272370647786
 30
0.0
 40
2.0
100
AcDbArc
 50
180.0
 51
270.0
  0
LINE
  5
75DE
102
{ACAD_REACTORS
330
7737
102
}
330
2
100
AcDbEntity
  8
KIJUN
100
AcDbLine
 10
123.2858035121712
 20
97.94272370647787
 30
0.0
 11
123.2858035121712
 21
95.94272370647786
 31
0.0
  0
LINE
  5
75DF
102
{ACAD_REACTORS
330
7737
102
}
330
2
100
AcDbEntity
  8
KIJUN
100
AcDbLine
 10
127.2858035121712
 20
93.94272370647787
 30
0.0
 11
125.2858035121712
 21
93.94272370647787
 31
0.0
  0
LINE
  5
75E0
102
{ACAD_REACTORS
330
7737
102
}
330
2
100
AcDbEntity
  8
KIJUN
100
AcDbLine
 10
100.2858035121712
 20
93.94272370647787
 30
0.0
 11
98.28580351217125
 21
93.94272370647787
 31
0.0
  0
LINE
  5
75E1
102
{ACAD_REACTORS
330
7737
102
}
330
2
100
AcDbEntity
  8
KIJUN
100
AcDbLine
 10
96.28580351217124
 20
97.94272370647787
 30
0.0
 11
96.28580351217124
 21
95.94272370647786
 31
0.0
  0
ARC
  5
75E2
102
{ACAD_REACTORS
330
7737
102
}
330
2
100
AcDbEntity
  8
KIJUN
100
AcDbCircle
 10
98.28580351217125
 20
95.94272370647786
 30
0.0
 40
2.0
100
AcDbArc
 50
180.0
 51
270.0
  0
LINE
  5
75E3
102
{ACAD_REACTORS
330
7737
102
}
330
2
100
AcDbEntity
  8
KIJUN
100
AcDbLine
 10
100.2858035121712
 20
99.94272370647786
 30
0.0
 11
98.28580351217125
 21
99.94272370647786
 31
0.0
  0
ARC
  5
75E4
102
{ACAD_REACTORS
330
7737
102
}
330
2
100
AcDbEntity
  8
KIJUN
100
AcDbCircle
 10
98.28580351217125
 20
97.94272370647787
 30
0.0
 40
2.0
100
AcDbArc
 50
90.0
 51
180.0
  0
LINE
  5
75E5
102
{ACAD_REACTORS
330
7737
102
}
330
2
100
AcDbEntity
  8
KIJUN
100
AcDbLine
 10
102.2858035121712
 20
97.94272370647787
 30
0.0
 11
102.2858035121712
 21
95.94272370647786
 31
0.0
  0
ARC
  5
75E6
102
{ACAD_REACTORS
330
7737
102
}
330
2
100
AcDbEntity
  8
KIJUN
100
AcDbCircle
 10
100.2858035121712
 20
97.94272370647787
 30
0.0
 40
2.0
100
AcDbArc
 50
0.0
 51
90.0
  0
ARC
  5
75E7
102
{ACAD_REACTORS
330
7737
102
}
330
2
100
AcDbEntity
  8
KIJUN
100
AcDbCircle
 10
100.2858035121712
 20
95.94272370647786
 30
0.0
 40
2.0
100
AcDbArc
 50
270.0
 51
0.0
  0
ARC
  5
75E8
102
{ACAD_REACTORS
330
7737
102
}
330
2
100
AcDbEntity
  8
KIJUN
100
AcDbCircle
 10
93.53580351217123
 20
95.94272370647786
 30
0.0
 40
2.0
100
AcDbArc
 50
270.0
 51
0.0
  0
ARC
  5
75E9
102
{ACAD_REACTORS
330
7737
102
}
330
2
100
AcDbEntity
  8
KIJUN
100
AcDbCircle
 10
93.53580351217123
 20
97.94272370647787
 30
0.0
 40
2.0
100
AcDbArc
 50
0.0
 51
90.0
  0
LINE
  5
75EA
102
{ACAD_REACTORS
330
7737
102
}
330
2
100
AcDbEntity
  8
KIJUN
100
AcDbLine
 10
95.53580351217124
 20
97.94272370647787
 30
0.0
 11
95.53580351217124
 21
95.94272370647786
 31
0.0
  0
ARC
  5
75EB
102
{ACAD_REACTORS
330
7737
102
}
330
2
100
AcDbEntity
  8
KIJUN
100
AcDbCircle
 10
91.53580351217124
 20
97.94272370647787
 30
0.0
 40
2.0
100
AcDbArc
 50
90.0
 51
180.0
  0
LINE
  5
75EC
102
{ACAD_REACTORS
330
7737
102
}
330
2
100
AcDbEntity
  8
KIJUN
100
AcDbLine
 10
93.53580351217123
 20
99.94272370647786
 30
0.0
 11
91.53580351217124
 21
99.94272370647786
 31
0.0
  0
ARC
  5
75ED
102
{ACAD_REACTORS
330
7737
102
}
330
2
100
AcDbEntity
  8
KIJUN
100
AcDbCircle
 10
91.53580351217124
 20
95.94272370647786
 30
0.0
 40
2.0
100
AcDbArc
 50
180.0
 51
270.0
  0
LINE
  5
75EE
102
{ACAD_REACTORS
330
7737
102
}
330
2
100
AcDbEntity
  8
KIJUN
100
AcDbLine
 10
89.53580351217125
 20
97.94272370647787
 30
0.0
 11
89.53580351217125
 21
95.94272370647786
 31
0.0
  0
LINE
  5
75EF
102
{ACAD_REACTORS
330
7737
102
}
330
2
100
AcDbEntity
  8
KIJUN
100
AcDbLine
 10
93.53580351217123
 20
93.94272370647787
 30
0.0
 11
91.53580351217124
 21
93.94272370647787
 31
0.0
  0
LINE
  5
75F0
102
{ACAD_REACTORS
330
7737
102
}
330
2
100
AcDbEntity
  8
KIJUN
100
AcDbLine
 10
88.78580351217124
 20
97.94272370647787
 30
0.0
 11
88.78580351217124
 21
95.94272370647786
 31
0.0
  0
ARC
  5
75F1
102
{ACAD_REACTORS
330
7737
102
}
330
2
100
AcDbEntity
  8
KIJUN
100
AcDbCircle
 10
100.2858035121712
 20
95.94272370647786
 30
0.0
 40
2.0
100
AcDbArc
 50
270.0
 51
0.0
  0
ARC
  5
75F2
102
{ACAD_REACTORS
330
7737
102
}
330
2
100
AcDbEntity
  8
KIJUN
100
AcDbCircle
 10
100.2858035121712
 20
97.94272370647787
 30
0.0
 40
2.0
100
AcDbArc
 50
0.0
 51
90.0
  0
LINE
  5
75F3
102
{ACAD_REACTORS
330
7737
102
}
330
2
100
AcDbEntity
  8
KIJUN
100
AcDbLine
 10
102.2858035121712
 20
97.94272370647787
 30
0.0
 11
102.2858035121712
 21
95.94272370647786
 31
0.0
  0
ARC
  5
75F4
102
{ACAD_REACTORS
330
7737
102
}
330
2
100
AcDbEntity
  8
KIJUN
100
AcDbCircle
 10
98.28580351217125
 20
97.94272370647787
 30
0.0
 40
2.0
100
AcDbArc
 50
90.0
 51
180.0
  0
LINE
  5
75F5
102
{ACAD_REACTORS
330
7737
102
}
330
2
100
AcDbEntity
  8
KIJUN
100
AcDbLine
 10
100.2858035121712
 20
99.94272370647786
 30
0.0
 11
98.28580351217125
 21
99.94272370647786
 31
0.0
  0
ARC
  5
75F6
102
{ACAD_REACTORS
330
7737
102
}
330
2
100
AcDbEntity
  8
KIJUN
100
AcDbCircle
 10
98.28580351217125
 20
95.94272370647786
 30
0.0
 40
2.0
100
AcDbArc
 50
180.0
 51
270.0
  0
LINE
  5
75F7
102
{ACAD_REACTORS
330
7737
102
}
330
2
100
AcDbEntity
  8
KIJUN
100
AcDbLine
 10
96.28580351217124
 20
97.94272370647787
 30
0.0
 11
96.28580351217124
 21
95.94272370647786
 31
0.0
  0
LINE
  5
75F8
102
{ACAD_REACTORS
330
7737
102
}
330
2
100
AcDbEntity
  8
KIJUN
100
AcDbLine
 10
100.2858035121712
 20
93.94272370647787
 30
0.0
 11
98.28580351217125
 21
93.94272370647787
 31
0.0
  0
LINE
  5
75F9
102
{ACAD_REACTORS
330
7737
102
}
330
2
100
AcDbEntity
  8
KIJUN
100
AcDbLine
 10
107.0358035121712
 20
93.94272370647787
 30
0.0
 11
105.0358035121712
 21
93.94272370647787
 31
0.0
  0
LINE
  5
75FA
102
{ACAD_REACTORS
330
7737
102
}
330
2
100
AcDbEntity
  8
KIJUN
100
AcDbLine
 10
103.0358035121712
 20
97.94272370647787
 30
0.0
 11
103.0358035121712
 21
95.94272370647786
 31
0.0
  0
ARC
  5
75FB
102
{ACAD_REACTORS
330
7737
102
}
330
2
100
AcDbEntity
  8
KIJUN
100
AcDbCircle
 10
105.0358035121712
 20
95.94272370647786
 30
0.0
 40
2.0
100
AcDbArc
 50
180.0
 51
270.0
  0
LINE
  5
75FC
102
{ACAD_REACTORS
330
7737
102
}
330
2
100
AcDbEntity
  8
KIJUN
100
AcDbLine
 10
107.0358035121712
 20
99.94272370647786
 30
0.0
 11
105.0358035121712
 21
99.94272370647786
 31
0.0
  0
ARC
  5
75FD
102
{ACAD_REACTORS
330
7737
102
}
330
2
100
AcDbEntity
  8
KIJUN
100
AcDbCircle
 10
105.0358035121712
 20
97.94272370647787
 30
0.0
 40
2.0
100
AcDbArc
 50
90.0
 51
180.0
  0
LINE
  5
75FE
102
{ACAD_REACTORS
330
7737
102
}
330
2
100
AcDbEntity
  8
KIJUN
100
AcDbLine
 10
109.0358035121712
 20
97.94272370647787
 30
0.0
 11
109.0358035121712
 21
95.94272370647786
 31
0.0
  0
ARC
  5
75FF
102
{ACAD_REACTORS
330
7737
102
}
330
2
100
AcDbEntity
  8
KIJUN
100
AcDbCircle
 10
107.0358035121712
 20
97.94272370647787
 30
0.0
 40
2.0
100
AcDbArc
 50
0.0
 51
90.0
  0
ARC
  5
7600
102
{ACAD_REACTORS
330
7737
102
}
330
2
100
AcDbEntity
  8
KIJUN
100
AcDbCircle
 10
107.0358035121712
 20
95.94272370647786
 30
0.0
 40
2.0
100
AcDbArc
 50
270.0
 51
0.0
  0
LINE
  5
7601
102
{ACAD_REACTORS
330
7737
102
}
330
2
100
AcDbEntity
  8
KIJUN
100
AcDbLine
 10
142.2000170745264
 20
94.52851014410816
 30
0.0
 11
142.2000170745264
 21
92.94272370647787
 31
0.0
  0
ARC
  5
7602
102
{ACAD_REACTORS
330
7737
102
}
330
2
100
AcDbEntity
  8
KIJUN
100
AcDbCircle
 10
122.3063384178926
 20
61.21566588368705
 30
0.0
 40
4.61343016164696
100
AcDbArc
 50
124.0511487545816
 51
282.3629127036404
  0
ARC
  5
7603
102
{ACAD_REACTORS
330
7737
102
}
330
2
100
AcDbEntity
  8
KIJUN
100
AcDbCircle
 10
123.2940880558703
 20
64.70921622687865
 30
0.0
 40
7.999999999985448
100
AcDbArc
 50
270.0
 51
90.0
  0
ARC
  5
7604
102
{ACAD_REACTORS
330
7737
102
}
330
2
100
AcDbEntity
  8
KIJUN
100
AcDbCircle
 10
124.6998445467575
 20
63.18349240650104
 30
0.0
 40
15.80332174713247
100
AcDbArc
 50
178.0178406225223
 51
317.4371058289112
  0
ARC
  5
7605
102
{ACAD_REACTORS
330
7737
102
}
330
2
100
AcDbEntity
  8
KIJUN
100
AcDbCircle
 10
120.6150451296958
 20
60.98481593564475
 30
0.0
 40
12.02658859324767
100
AcDbArc
 50
77.12880676810067
 51
166.8048705936828
  0
ARC
  5
7606
102
{ACAD_REACTORS
330
7737
102
}
330
2
100
AcDbEntity
  8
KIJUN
100
AcDbCircle
 10
121.5502357919717
 20
61.71347031667801
 30
0.0
 40
23.24242562363453
100
AcDbArc
 50
85.69712054039859
 51
175.7544126429499
  0
ARC
  5
7608
102
{ACAD_REACTORS
330
7737
102
}
330
2
100
AcDbEntity
  8
KIJUN
100
AcDbCircle
 10
121.0611259267566
 20
64.78088939026611
 30
0.0
 40
20.23308907609504
100
AcDbArc
 50
359.7970365109197
 51
83.66382213721822
  0
ARC
  5
7609
102
{ACAD_REACTORS
330
7737
102
}
330
2
100
AcDbEntity
  8
KIJUN
100
AcDbCircle
 10
122.8736944732623
 20
65.06834497210775
 30
0.0
 40
18.4238940833318
100
AcDbArc
 50
316.9611230244935
 51
358.8830882018621
  0
LINE
  5
760A
102
{ACAD_REACTORS
330
7737
102
}
330
2
100
AcDbEntity
  8
KIJUN
100
AcDbLine
 10
100.1633606802747
 20
51.12384718794465
 30
0.0
 11
100.1633606802747
 21
47.76160022502563
 31
0.0
  0
ARC
  5
760B
102
{ACAD_REACTORS
330
7737
102
}
330
2
100
AcDbEntity
  8
KIJUN
100
AcDbCircle
 10
94.40358169050478
 20
49.44163450919996
 30
0.0
 40
6.00040777845133
100
AcDbArc
 50
16.28107857254232
 51
48.60168794639786
  0
ARC
  5
760C
102
{ACAD_REACTORS
330
7737
102
}
330
2
100
AcDbEntity
  8
KIJUN
100
AcDbCircle
 10
94.40358169050478
 20
49.44381290375577
 30
0.0
 40
6.00040777845133
100
AcDbArc
 50
311.3983120536021
 51
343.7189214274576
  0
ARC
  5
760D
102
{ACAD_REACTORS
330
7737
102
}
330
2
100
AcDbEntity
  8
KIJUN
100
AcDbCircle
 10
100.9231396700738
 20
49.44163450919996
 30
0.0
 40
6.00040777845133
100
AcDbArc
 50
131.3983120536021
 51
163.7189214274576
  0
LINE
  5
760E
102
{ACAD_REACTORS
330
7737
102
}
330
2
100
AcDbEntity
  8
KIJUN
100
AcDbLine
 10
95.16336068027476
 20
51.12384718794465
 30
0.0
 11
95.16336068027476
 21
47.76160022502563
 31
0.0
  0
ARC
  5
760F
102
{ACAD_REACTORS
330
7737
102
}
330
2
100
AcDbEntity
  8
KIJUN
100
AcDbCircle
 10
100.9231396700738
 20
49.44381290375577
 30
0.0
 40
6.00040777845133
100
AcDbArc
 50
196.2810785725423
 51
228.6016879463979
  0
ARC
  5
7611
102
{ACAD_REACTORS
330
7737
102
}
330
2
100
AcDbEntity
  8
KIJUN
100
AcDbCircle
 10
111.3484124515921
 20
62.41910493703881
 30
0.0
 40
35.77023751143753
100
AcDbArc
 50
5.541179020418593
 51
58.57511888231142
  0
ARC
  5
7613
102
{ACAD_REACTORS
330
7737
102
}
330
2
100
AcDbEntity
  8
KIJUN
100
AcDbCircle
 10
64.2337727896479
 20
72.24296654929322
 30
0.0
 40
31.10516050280838
100
AcDbArc
 50
353.909481247776
 51
24.17604252938495
  0
LINE
  5
7614
102
{ACAD_REACTORS
330
7737
102
}
330
2
100
AcDbEntity
  8
KIJUN
100
AcDbLine
 10
98.371589949787
 20
53.94272370647787
 30
0.0
 11
96.95513141076254
 21
53.94272370647787
 31
0.0
  0
LINE
  5
7615
102
{ACAD_REACTORS
330
7737
102
}
330
2
100
AcDbEntity
  8
KIJUN
100
AcDbLine
 10
98.371589949787
 20
44.94272370647786
 30
0.0
 11
96.95513141076254
 21
44.94272370647786
 31
0.0
  0
ARC
  5
7616
102
{ACAD_REACTORS
330
7737
102
}
330
2
100
AcDbEntity
  8
KIJUN
100
AcDbCircle
 10
125.8391125976009
 20
65.24627740011465
 30
0.0
 40
29.22973322238578
100
AcDbArc
 50
137.6351153540777
 51
172.4791556557217
  0
ARC
  5
7617
102
{ACAD_REACTORS
330
7737
102
}
330
2
100
AcDbEntity
  8
KIJUN
100
AcDbCircle
 10
112.1388545241166
 20
65.12493161318388
 30
0.0
 40
15.7796637582784
100
AcDbArc
 50
165.5141690829545
 51
212.3066048641536
  0
LINE
  5
7618
102
{ACAD_REACTORS
330
7737
102
}
330
2
100
AcDbEntity
  8
KIJUN
100
AcDbLine
 10
86.78580351217124
 20
93.94272370647787
 30
0.0
 11
84.78580351217123
 21
93.94272370647787
 31
0.0
  0
LINE
  5
7619
102
{ACAD_REACTORS
330
7737
102
}
330
2
100
AcDbEntity
  8
KIJUN
100
AcDbLine
 10
82.78580351217124
 20
97.94272370647787
 30
0.0
 11
82.78580351217124
 21
95.94272370647786
 31
0.0
  0
ARC
  5
761A
102
{ACAD_REACTORS
330
7737
102
}
330
2
100
AcDbEntity
  8
KIJUN
100
AcDbCircle
 10
84.78580351217123
 20
95.94272370647786
 30
0.0
 40
2.0
100
AcDbArc
 50
180.0
 51
270.0
  0
LINE
  5
761B
102
{ACAD_REACTORS
330
7737
102
}
330
2
100
AcDbEntity
  8
KIJUN
100
AcDbLine
 10
86.78580351217124
 20
99.94272370647786
 30
0.0
 11
84.78580351217123
 21
99.94272370647786
 31
0.0
  0
ARC
  5
761C
102
{ACAD_REACTORS
330
7737
102
}
330
2
100
AcDbEntity
  8
KIJUN
100
AcDbCircle
 10
84.78580351217123
 20
97.94272370647787
 30
0.0
 40
2.0
100
AcDbArc
 50
90.0
 51
180.0
  0
LINE
  5
761D
102
{ACAD_REACTORS
330
7737
102
}
330
2
100
AcDbEntity
  8
KIJUN
100
AcDbLine
 10
80.03580351217124
 20
93.94272370647787
 30
0.0
 11
78.03580351217124
 21
93.94272370647787
 31
0.0
  0
LINE
  5
761E
102
{ACAD_REACTORS
330
7737
102
}
330
2
100
AcDbEntity
  8
KIJUN
100
AcDbLine
 10
76.03580351217124
 20
97.94272370647787
 30
0.0
 11
76.03580351217124
 21
95.94272370647786
 31
0.0
  0
ARC
  5
761F
102
{ACAD_REACTORS
330
7737
102
}
330
2
100
AcDbEntity
  8
KIJUN
100
AcDbCircle
 10
78.03580351217124
 20
95.94272370647786
 30
0.0
 40
2.0
100
AcDbArc
 50
180.0
 51
270.0
  0
LINE
  5
7620
102
{ACAD_REACTORS
330
7737
102
}
330
2
100
AcDbEntity
  8
KIJUN
100
AcDbLine
 10
80.03580351217124
 20
99.94272370647786
 30
0.0
 11
78.03580351217124
 21
99.94272370647786
 31
0.0
  0
ARC
  5
7621
102
{ACAD_REACTORS
330
7737
102
}
330
2
100
AcDbEntity
  8
KIJUN
100
AcDbCircle
 10
78.03580351217124
 20
97.94272370647787
 30
0.0
 40
2.0
100
AcDbArc
 50
90.0
 51
180.0
  0
LINE
  5
7622
102
{ACAD_REACTORS
330
7737
102
}
330
2
100
AcDbEntity
  8
KIJUN
100
AcDbLine
 10
82.03580351217125
 20
97.94272370647787
 30
0.0
 11
82.03580351217125
 21
95.94272370647786
 31
0.0
  0
ARC
  5
7623
102
{ACAD_REACTORS
330
7737
102
}
330
2
100
AcDbEntity
  8
KIJUN
100
AcDbCircle
 10
80.03580351217124
 20
97.94272370647787
 30
0.0
 40
2.0
100
AcDbArc
 50
0.0
 51
90.0
  0
ARC
  5
7624
102
{ACAD_REACTORS
330
7737
102
}
330
2
100
AcDbEntity
  8
KIJUN
100
AcDbCircle
 10
80.03580351217124
 20
95.94272370647786
 30
0.0
 40
2.0
100
AcDbArc
 50
270.0
 51
0.0
  0
ARC
  5
7625
102
{ACAD_REACTORS
330
7737
102
}
330
2
100
AcDbEntity
  8
KIJUN
100
AcDbCircle
 10
98.0666781164432
 20
71.44652357841232
 30
0.0
 40
20.06018591047965
100
AcDbArc
 50
187.1700371803919
 51
235.3574262081751
  0
ARC
  5
7626
102
{ACAD_REACTORS
330
7737
102
}
330
2
100
AcDbEntity
  8
KIJUN
100
AcDbCircle
 10
86.52983387303128
 20
41.7752248573056
 30
0.0
 40
12.16823149239489
100
AcDbArc
 50
89.37125817654667
 51
133.4378150982519
  0
ARC
  5
7627
102
{ACAD_REACTORS
330
7737
102
}
330
2
100
AcDbEntity
  8
KIJUN
100
AcDbCircle
 10
86.5298338730604
 20
57.11022255565012
 30
0.0
 40
12.16823149239489
100
AcDbArc
 50
226.5621849013036
 51
270.6287418230364
  0
LINE
  5
7628
102
{ACAD_REACTORS
330
7737
102
}
330
2
100
AcDbEntity
  8
KIJUN
100
AcDbLine
 10
78.16336068030387
 20
51.12384718797375
 30
0.0
 11
78.16336068030387
 21
47.76160022505473
 31
0.0
  0
LINE
  5
7629
102
{ACAD_REACTORS
330
7737
102
}
330
2
100
AcDbEntity
  8
KIJUN
100
AcDbLine
 10
78.16336068030387
 20
51.12384718797375
 30
0.0
 11
78.16336068030387
 21
47.76160022505473
 31
0.0
  0
ARC
  5
762A
102
{ACAD_REACTORS
330
7737
102
}
330
2
100
AcDbEntity
  8
KIJUN
100
AcDbCircle
 10
72.40358169053388
 20
49.44381290378487
 30
0.0
 40
6.00040777845133
100
AcDbArc
 50
311.3983120536021
 51
343.7189214274576
  0
ARC
  5
762B
102
{ACAD_REACTORS
330
7737
102
}
330
2
100
AcDbEntity
  8
KIJUN
100
AcDbCircle
 10
72.40358169053388
 20
49.44163450922906
 30
0.0
 40
6.00040777845133
100
AcDbArc
 50
16.28107857254232
 51
48.60168794639786
  0
ARC
  5
762C
102
{ACAD_REACTORS
330
7737
102
}
330
2
100
AcDbEntity
  8
KIJUN
100
AcDbCircle
 10
109.0929485709016
 20
72.24296654929322
 30
0.0
 40
31.10516050280838
100
AcDbArc
 50
155.823957470615
 51
186.090518752224
  0
LINE
  5
762D
102
{ACAD_REACTORS
330
7737
102
}
330
2
100
AcDbEntity
  8
KIJUN
100
AcDbLine
 10
76.3715899498161
 20
53.94272370650696
 30
0.0
 11
74.37158994978699
 21
53.94272370650696
 31
0.0
  0
LINE
  5
762E
102
{ACAD_REACTORS
330
7737
102
}
330
2
100
AcDbEntity
  8
KIJUN
100
AcDbLine
 10
76.3715899498161
 20
44.94272370650697
 30
0.0
 11
74.37158994978699
 21
44.94272370650697
 31
0.0
  0
ARC
  5
762F
102
{ACAD_REACTORS
330
7737
102
}
330
2
100
AcDbEntity
  8
KIJUN
100
AcDbCircle
 10
82.22438723072583
 20
47.16734834323552
 30
0.0
 40
8.953264618254042
100
AcDbArc
 50
60.27788929437729
 51
130.8215580203033
  0
ARC
  5
7630
102
{ACAD_REACTORS
330
7737
102
}
330
2
100
AcDbEntity
  8
KIJUN
100
AcDbCircle
 10
78.66315107774744
 20
54.81266391589861
 30
0.0
 40
5.512742426476632
100
AcDbArc
 50
44.41162482798447
 51
126.6612199315444
  0
ARC
  5
7631
102
{ACAD_REACTORS
330
7737
102
}
330
2
100
AcDbEntity
  8
KIJUN
100
AcDbCircle
 10
72.08002882182654
 20
54.81266391589861
 30
0.0
 40
5.512742426476632
100
AcDbArc
 50
53.33878006845558
 51
135.5883751720155
  0
ARC
  5
7632
102
{ACAD_REACTORS
330
7737
102
}
330
2
100
AcDbEntity
  8
KIJUN
100
AcDbCircle
 10
68.51879266887727
 20
47.16734834323552
 30
0.0
 40
8.953264618254042
100
AcDbArc
 50
49.17844197969669
 51
119.7221107056227
  0
ARC
  5
7633
102
{ACAD_REACTORS
330
7737
102
}
330
2
100
AcDbEntity
  8
KIJUN
100
AcDbCircle
 10
61.81166491968497
 20
48.62212201434568
 30
0.0
 40
6.715246062306647
100
AcDbArc
 50
70.25942426779417
 51
158.1273968387068
  0
ARC
  5
7634
102
{ACAD_REACTORS
330
7737
102
}
330
2
100
AcDbEntity
  8
KIJUN
100
AcDbCircle
 10
38.60432537545739
 20
65.12493161318388
 30
0.0
 40
15.7796637582784
100
AcDbArc
 50
327.6933951358462
 51
14.48583091704552
  0
ARC
  5
7635
102
{ACAD_REACTORS
330
7737
102
}
330
2
100
AcDbEntity
  8
KIJUN
100
AcDbCircle
 10
24.9040673019731
 20
65.24627740011465
 30
0.0
 40
29.22973322238578
100
AcDbArc
 50
7.520844344278235
 51
42.36488464592228
  0
LINE
  5
7636
102
{ACAD_REACTORS
330
7737
102
}
330
2
100
AcDbEntity
  8
KIJUN
100
AcDbLine
 10
148.371589949787
 20
119.9427237064778
 30
0.0
 11
2.371589949786994
 21
119.9427237064778
 31
0.0
  0
LINE
  5
7637
102
{ACAD_REACTORS
330
7737
102
}
330
2
100
AcDbEntity
  8
KIJUN
100
AcDbLine
 10
4.37158994978699
 20
110.9427237064487
 30
0.0
 11
146.371589949787
 21
110.9427237064487
 31
0.0
  0
LINE
  5
7638
102
{ACAD_REACTORS
330
7737
102
}
330
2
100
AcDbEntity
  8
KIJUN
100
AcDbLine
 10
75.371589949787
 20
100.9427237064778
 30
0.0
 11
7.371589949786994
 21
100.9427237064778
 31
0.0
  0
LINE
  5
7639
102
{ACAD_REACTORS
330
7737
102
}
330
2
100
AcDbEntity
  8
KIJUN
100
AcDbLine
 10
75.371589949787
 20
92.94272370647787
 30
0.0
 11
8.543162825047602
 21
92.94272370647787
 31
0.0
  0
LINE
  5
763A
102
{ACAD_REACTORS
330
7737
102
}
330
2
100
AcDbEntity
  8
KIJUN
100
AcDbLine
 10
74.37158994975789
 20
44.94272370650697
 30
0.0
 11
76.37158994978699
 21
44.94272370650697
 31
0.0
  0
LINE
  5
763B
102
{ACAD_REACTORS
330
7737
102
}
330
2
100
AcDbEntity
  8
KIJUN
100
AcDbLine
 10
52.37158994978699
 20
44.94272370647786
 30
0.0
 11
53.78804848881145
 21
44.94272370647786
 31
0.0
  0
LINE
  5
763C
102
{ACAD_REACTORS
330
7737
102
}
330
2
100
AcDbEntity
  8
KIJUN
100
AcDbLine
 10
74.37158994975789
 20
53.94272370650696
 30
0.0
 11
76.37158994978699
 21
53.94272370650696
 31
0.0
  0
LINE
  5
763D
102
{ACAD_REACTORS
330
7737
102
}
330
2
100
AcDbEntity
  8
KIJUN
100
AcDbLine
 10
52.37158994978699
 20
53.94272370647787
 30
0.0
 11
53.78804848881145
 21
53.94272370647787
 31
0.0
  0
ARC
  5
763E
102
{ACAD_REACTORS
330
7737
102
}
330
2
100
AcDbEntity
  8
KIJUN
100
AcDbCircle
 10
41.65023132867236
 20
72.24296654929322
 30
0.0
 40
31.10516050280838
100
AcDbArc
 50
353.909481247776
 51
24.17604252938495
  0
ARC
  5
763F
102
{ACAD_REACTORS
330
7737
102
}
330
2
100
AcDbEntity
  8
KIJUN
100
AcDbCircle
 10
86.50940710992609
 20
72.24296654929322
 30
0.0
 40
31.10516050280838
100
AcDbArc
 50
155.823957470615
 51
186.090518752224
  0
LINE
  5
7640
102
{ACAD_REACTORS
330
7737
102
}
330
2
100
AcDbEntity
  8
KIJUN
100
AcDbLine
 10
75.371589949787
 20
84.94272370647786
 30
0.0
 11
28.41055301433835
 21
84.94272370647786
 31
0.0
  0
ARC
  5
7642
102
{ACAD_REACTORS
330
7737
102
}
330
2
100
AcDbEntity
  8
KIJUN
100
AcDbCircle
 10
39.39476744798185
 20
62.41910493703881
 30
0.0
 40
35.77023751143753
100
AcDbArc
 50
121.4248811176886
 51
174.4588209795814
  0
ARC
  5
7643
102
{ACAD_REACTORS
330
7737
102
}
330
2
100
AcDbEntity
  8
KIJUN
100
AcDbCircle
 10
30.34661527953174
 20
63.58860648573156
 30
0.0
 40
26.65301985727019
100
AcDbArc
 50
175.0829678688385
 51
266.7759750459762
  0
LINE
  5
7644
102
{ACAD_REACTORS
330
7737
102
}
330
2
100
AcDbEntity
  8
KIJUN
100
AcDbLine
 10
78.16336068027476
 20
51.1238471879883
 30
0.0
 11
78.16336068027476
 21
47.76160022506928
 31
0.0
  0
LINE
  5
7645
102
{ACAD_REACTORS
330
7737
102
}
330
2
100
AcDbEntity
  8
KIJUN
100
AcDbLine
 10
78.16336068027476
 20
51.1238471879883
 30
0.0
 11
78.16336068030387
 21
47.76160022506928
 31
0.0
  0
ARC
  5
7646
102
{ACAD_REACTORS
330
7737
102
}
330
2
100
AcDbEntity
  8
KIJUN
100
AcDbCircle
 10
72.40358169050478
 20
49.44381290377032
 30
0.0
 40
6.00040777845133
100
AcDbArc
 50
311.3983120536716
 51
343.7189214275567
  0
ARC
  5
7647
102
{ACAD_REACTORS
330
7737
102
}
330
2
100
AcDbEntity
  8
KIJUN
100
AcDbCircle
 10
72.40358169050478
 20
49.4416345092145
 30
0.0
 40
6.00040777845133
100
AcDbArc
 50
16.28107857274208
 51
48.60168794677988
  0
ARC
  5
7648
102
{ACAD_REACTORS
330
7737
102
}
330
2
100
AcDbEntity
  8
KIJUN
100
AcDbCircle
 10
78.33959820906921
 20
49.44163450922906
 30
0.0
 40
6.00040777845133
100
AcDbArc
 50
131.3983120536021
 51
163.7189214274576
  0
ARC
  5
7649
102
{ACAD_REACTORS
330
7737
102
}
330
2
100
AcDbEntity
  8
KIJUN
100
AcDbCircle
 10
78.33959820906921
 20
49.44381290378487
 30
0.0
 40
6.00040777845133
100
AcDbArc
 50
196.2810785725423
 51
228.6016879463979
  0
LINE
  5
764A
102
{ACAD_REACTORS
330
7737
102
}
330
2
100
AcDbEntity
  8
KIJUN
100
AcDbLine
 10
72.57981921927012
 20
51.12384718797375
 30
0.0
 11
72.57981921927012
 21
47.76160022505473
 31
0.0
  0
LINE
  5
764B
102
{ACAD_REACTORS
330
7737
102
}
330
2
100
AcDbEntity
  8
KIJUN
100
AcDbLine
 10
72.57981921927012
 20
51.12384718797375
 30
0.0
 11
72.57981921929922
 21
47.76160022505473
 31
0.0
  0
ARC
  5
764C
102
{ACAD_REACTORS
330
7737
102
}
330
2
100
AcDbEntity
  8
KIJUN
100
AcDbCircle
 10
64.21334602651359
 20
57.11022255565012
 30
0.0
 40
12.16823149239489
100
AcDbArc
 50
269.3712581769636
 51
313.4378150986964
  0
ARC
  5
764D
102
{ACAD_REACTORS
330
7737
102
}
330
2
100
AcDbEntity
  8
KIJUN
100
AcDbCircle
 10
64.2133460265718
 20
41.7752248573056
 30
0.0
 40
12.16823149239489
100
AcDbArc
 50
46.56218490174802
 51
90.6287418234533
  0
ARC
  5
764E
102
{ACAD_REACTORS
330
7737
102
}
330
2
100
AcDbEntity
  8
KIJUN
100
AcDbCircle
 10
49.82004022952924
 20
49.44381290375577
 30
0.0
 40
6.00040777845133
100
AcDbArc
 50
311.3983120536021
 51
343.7189214274576
  0
LINE
  5
764F
102
{ACAD_REACTORS
330
7737
102
}
330
2
100
AcDbEntity
  8
KIJUN
100
AcDbLine
 10
55.57981921929922
 20
51.12384718794465
 30
0.0
 11
55.57981921929922
 21
47.76160022502563
 31
0.0
  0
ARC
  5
7650
102
{ACAD_REACTORS
330
7737
102
}
330
2
100
AcDbEntity
  8
KIJUN
100
AcDbCircle
 10
49.82004022952924
 20
49.44163450919996
 30
0.0
 40
6.00040777845133
100
AcDbArc
 50
16.28107857254232
 51
48.60168794639786
  0
ARC
  5
7651
102
{ACAD_REACTORS
330
7737
102
}
330
2
100
AcDbEntity
  8
KIJUN
100
AcDbCircle
 10
56.33959820909831
 20
49.44381290375577
 30
0.0
 40
6.00040777845133
100
AcDbArc
 50
196.2810785725423
 51
228.6016879463979
  0
ARC
  5
7652
102
{ACAD_REACTORS
330
7737
102
}
330
2
100
AcDbEntity
  8
KIJUN
100
AcDbCircle
 10
56.33959820909831
 20
49.44163450919996
 30
0.0
 40
6.00040777845133
100
AcDbArc
 50
131.3983120536021
 51
163.7189214274576
  0
LINE
  5
7653
102
{ACAD_REACTORS
330
7737
102
}
330
2
100
AcDbEntity
  8
KIJUN
100
AcDbLine
 10
50.57981921929922
 20
51.12384718794465
 30
0.0
 11
50.57981921929922
 21
47.76160022502563
 31
0.0
  0
ARC
  5
7654
102
{ACAD_REACTORS
330
7737
102
}
330
2
100
AcDbEntity
  8
KIJUN
100
AcDbCircle
 10
63.94629241205575
 20
57.11022255565012
 30
0.0
 40
12.16823149239489
100
AcDbArc
 50
226.5621849013753
 51
270.6287418234533
  0
ARC
  5
7655
102
{ACAD_REACTORS
330
7737
102
}
330
2
100
AcDbEntity
  8
KIJUN
100
AcDbCircle
 10
63.94629241205575
 20
41.7752248573056
 30
0.0
 40
12.16823149239489
100
AcDbArc
 50
89.37125817654667
 51
133.4378150986246
  0
ARC
  5
7656
102
{ACAD_REACTORS
330
7737
102
}
330
2
100
AcDbEntity
  8
KIJUN
100
AcDbCircle
 10
52.67650178315989
 20
71.44652357841232
 30
0.0
 40
20.06018591047965
100
AcDbArc
 50
304.6425737918249
 51
352.8299628196081
  0
ARC
  5
7657
102
{ACAD_REACTORS
330
7737
102
}
330
2
100
AcDbEntity
  8
KIJUN
100
AcDbCircle
 10
75.48313665546766
 20
71.44652357841232
 30
0.0
 40
20.06018591047965
100
AcDbArc
 50
187.1700371803919
 51
235.3574262081751
  0
ARC
  5
7658
102
{ACAD_REACTORS
330
7737
102
}
330
2
100
AcDbEntity
  8
KIJUN
100
AcDbCircle
 10
27.86948542631171
 20
65.06834497210775
 30
0.0
 40
18.4238940833318
100
AcDbArc
 50
181.1169117981379
 51
223.0388769755065
  0
ARC
  5
7659
102
{ACAD_REACTORS
330
7737
102
}
330
2
100
AcDbEntity
  8
KIJUN
100
AcDbCircle
 10
29.68205397284646
 20
64.78088939026611
 30
0.0
 40
20.23308907609504
100
AcDbArc
 50
96.33617786278179
 51
180.2029634890803
  0
ARC
  5
765A
102
{ACAD_REACTORS
330
7737
102
}
330
2
100
AcDbEntity
  8
KIJUN
100
AcDbCircle
 10
27.80585230006686
 20
61.59055188161955
 30
0.0
 40
24.63481898867236
100
AcDbArc
 50
272.4237295934065
 51
4.291853171868829
  0
ARC
  5
765B
102
{ACAD_REACTORS
330
7737
102
}
330
2
100
AcDbEntity
  8
KIJUN
100
AcDbCircle
 10
29.19294410763132
 20
61.71347031667801
 30
0.0
 40
23.24242562363453
100
AcDbArc
 50
4.245587357050028
 51
94.30287945960143
  0
ARC
  5
765C
102
{ACAD_REACTORS
330
7737
102
}
330
2
100
AcDbEntity
  8
KIJUN
100
AcDbCircle
 10
30.12813476990732
 20
60.98481593564475
 30
0.0
 40
12.02658859324767
100
AcDbArc
 50
13.19512940631713
 51
102.8711932318993
  0
ARC
  5
765D
102
{ACAD_REACTORS
330
7737
102
}
330
2
100
AcDbEntity
  8
KIJUN
100
AcDbCircle
 10
26.04333535284559
 20
63.18349240650104
 30
0.0
 40
15.80332174713247
100
AcDbArc
 50
222.5628941710889
 51
1.982159377477507
  0
ARC
  5
765E
102
{ACAD_REACTORS
330
7737
102
}
330
2
100
AcDbEntity
  8
KIJUN
100
AcDbCircle
 10
27.44909184370363
 20
64.70921622687865
 30
0.0
 40
7.999999999985448
100
AcDbArc
 50
90.0
 51
270.0
  0
ARC
  5
765F
102
{ACAD_REACTORS
330
7737
102
}
330
2
100
AcDbEntity
  8
KIJUN
100
AcDbCircle
 10
28.43684148168131
 20
61.21566588368705
 30
0.0
 40
4.61343016164696
100
AcDbArc
 50
257.6370872963595
 51
55.94885124541832
  0
LINE
  5
7660
102
{ACAD_REACTORS
330
7737
102
}
330
2
100
AcDbEntity
  8
KIJUN
100
AcDbLine
 10
8.543162825047602
 20
94.52851014410816
 30
0.0
 11
8.543162825047602
 21
92.94272370647787
 31
0.0
  0
ARC
  5
7661
102
{ACAD_REACTORS
330
7737
102
}
330
2
100
AcDbEntity
  8
KIJUN
100
AcDbCircle
 10
70.70737638743185
 20
95.94272370647786
 30
0.0
 40
2.0
100
AcDbArc
 50
180.0
 51
270.0
  0
ARC
  5
7662
102
{ACAD_REACTORS
330
7737
102
}
330
2
100
AcDbEntity
  8
KIJUN
100
AcDbCircle
 10
70.70737638743185
 20
97.94272370647787
 30
0.0
 40
2.0
100
AcDbArc
 50
90.0
 51
180.0
  0
LINE
  5
7663
102
{ACAD_REACTORS
330
7737
102
}
330
2
100
AcDbEntity
  8
KIJUN
100
AcDbLine
 10
68.70737638743185
 20
97.94272370647787
 30
0.0
 11
68.70737638743185
 21
95.94272370647786
 31
0.0
  0
ARC
  5
7664
102
{ACAD_REACTORS
330
7737
102
}
330
2
100
AcDbEntity
  8
KIJUN
100
AcDbCircle
 10
72.70737638743185
 20
97.94272370647787
 30
0.0
 40
2.0
100
AcDbArc
 50
0.0
 51
90.0
  0
LINE
  5
7665
102
{ACAD_REACTORS
330
7737
102
}
330
2
100
AcDbEntity
  8
KIJUN
100
AcDbLine
 10
70.70737638743185
 20
99.94272370647786
 30
0.0
 11
72.70737638743185
 21
99.94272370647786
 31
0.0
  0
ARC
  5
7666
102
{ACAD_REACTORS
330
7737
102
}
330
2
100
AcDbEntity
  8
KIJUN
100
AcDbCircle
 10
72.70737638743185
 20
95.94272370647786
 30
0.0
 40
2.0
100
AcDbArc
 50
270.0
 51
0.0
  0
LINE
  5
7667
102
{ACAD_REACTORS
330
7737
102
}
330
2
100
AcDbEntity
  8
KIJUN
100
AcDbLine
 10
74.70737638743185
 20
97.94272370647787
 30
0.0
 11
74.70737638743185
 21
95.94272370647786
 31
0.0
  0
LINE
  5
7668
102
{ACAD_REACTORS
330
7737
102
}
330
2
100
AcDbEntity
  8
KIJUN
100
AcDbLine
 10
70.70737638743185
 20
93.94272370647787
 30
0.0
 11
72.70737638743185
 21
93.94272370647787
 31
0.0
  0
ARC
  5
7669
102
{ACAD_REACTORS
330
7737
102
}
330
2
100
AcDbEntity
  8
KIJUN
100
AcDbCircle
 10
43.70737638743185
 20
95.94272370647786
 30
0.0
 40
2.0
100
AcDbArc
 50
180.0
 51
270.0
  0
ARC
  5
766A
102
{ACAD_REACTORS
330
7737
102
}
330
2
100
AcDbEntity
  8
KIJUN
100
AcDbCircle
 10
43.70737638743185
 20
97.94272370647787
 30
0.0
 40
2.0
100
AcDbArc
 50
90.0
 51
180.0
  0
LINE
  5
766B
102
{ACAD_REACTORS
330
7737
102
}
330
2
100
AcDbEntity
  8
KIJUN
100
AcDbLine
 10
41.70737638743185
 20
97.94272370647787
 30
0.0
 11
41.70737638743185
 21
95.94272370647786
 31
0.0
  0
ARC
  5
766C
102
{ACAD_REACTORS
330
7737
102
}
330
2
100
AcDbEntity
  8
KIJUN
100
AcDbCircle
 10
45.70737638743184
 20
97.94272370647787
 30
0.0
 40
2.0
100
AcDbArc
 50
0.0
 51
90.0
  0
LINE
  5
766D
102
{ACAD_REACTORS
330
7737
102
}
330
2
100
AcDbEntity
  8
KIJUN
100
AcDbLine
 10
43.70737638743185
 20
99.94272370647786
 30
0.0
 11
45.70737638743184
 21
99.94272370647786
 31
0.0
  0
ARC
  5
766E
102
{ACAD_REACTORS
330
7737
102
}
330
2
100
AcDbEntity
  8
KIJUN
100
AcDbCircle
 10
45.70737638743184
 20
95.94272370647786
 30
0.0
 40
2.0
100
AcDbArc
 50
270.0
 51
0.0
  0
LINE
  5
766F
102
{ACAD_REACTORS
330
7737
102
}
330
2
100
AcDbEntity
  8
KIJUN
100
AcDbLine
 10
47.70737638743185
 20
97.94272370647787
 30
0.0
 11
47.70737638743185
 21
95.94272370647786
 31
0.0
  0
LINE
  5
7670
102
{ACAD_REACTORS
330
7737
102
}
330
2
100
AcDbEntity
  8
KIJUN
100
AcDbLine
 10
43.70737638743185
 20
93.94272370647787
 30
0.0
 11
45.70737638743184
 21
93.94272370647787
 31
0.0
  0
LINE
  5
7671
102
{ACAD_REACTORS
330
7737
102
}
330
2
100
AcDbEntity
  8
KIJUN
100
AcDbLine
 10
50.45737638743185
 20
93.94272370647787
 30
0.0
 11
52.45737638743185
 21
93.94272370647787
 31
0.0
  0
LINE
  5
7672
102
{ACAD_REACTORS
330
7737
102
}
330
2
100
AcDbEntity
  8
KIJUN
100
AcDbLine
 10
54.45737638743185
 20
97.94272370647787
 30
0.0
 11
54.45737638743185
 21
95.94272370647786
 31
0.0
  0
ARC
  5
7673
102
{ACAD_REACTORS
330
7737
102
}
330
2
100
AcDbEntity
  8
KIJUN
100
AcDbCircle
 10
52.45737638743185
 20
95.94272370647786
 30
0.0
 40
2.0
100
AcDbArc
 50
270.0
 51
0.0
  0
LINE
  5
7674
102
{ACAD_REACTORS
330
7737
102
}
330
2
100
AcDbEntity
  8
KIJUN
100
AcDbLine
 10
50.45737638743185
 20
99.94272370647786
 30
0.0
 11
52.45737638743185
 21
99.94272370647786
 31
0.0
  0
ARC
  5
7675
102
{ACAD_REACTORS
330
7737
102
}
330
2
100
AcDbEntity
  8
KIJUN
100
AcDbCircle
 10
52.45737638743185
 20
97.94272370647787
 30
0.0
 40
2.0
100
AcDbArc
 50
0.0
 51
90.0
  0
LINE
  5
7676
102
{ACAD_REACTORS
330
7737
102
}
330
2
100
AcDbEntity
  8
KIJUN
100
AcDbLine
 10
48.45737638743185
 20
97.94272370647787
 30
0.0
 11
48.45737638743185
 21
95.94272370647786
 31
0.0
  0
ARC
  5
7677
102
{ACAD_REACTORS
330
7737
102
}
330
2
100
AcDbEntity
  8
KIJUN
100
AcDbCircle
 10
50.45737638743185
 20
97.94272370647787
 30
0.0
 40
2.0
100
AcDbArc
 50
90.0
 51
180.0
  0
ARC
  5
7678
102
{ACAD_REACTORS
330
7737
102
}
330
2
100
AcDbEntity
  8
KIJUN
100
AcDbCircle
 10
50.45737638743185
 20
95.94272370647786
 30
0.0
 40
2.0
100
AcDbArc
 50
180.0
 51
270.0
  0
ARC
  5
7679
102
{ACAD_REACTORS
330
7737
102
}
330
2
100
AcDbEntity
  8
KIJUN
100
AcDbCircle
 10
63.95737638743185
 20
95.94272370647786
 30
0.0
 40
2.0
100
AcDbArc
 50
180.0
 51
270.0
  0
ARC
  5
767A
102
{ACAD_REACTORS
330
7737
102
}
330
2
100
AcDbEntity
  8
KIJUN
100
AcDbCircle
 10
63.95737638743185
 20
97.94272370647787
 30
0.0
 40
2.0
100
AcDbArc
 50
90.0
 51
180.0
  0
LINE
  5
767B
102
{ACAD_REACTORS
330
7737
102
}
330
2
100
AcDbEntity
  8
KIJUN
100
AcDbLine
 10
61.95737638743185
 20
97.94272370647787
 30
0.0
 11
61.95737638743185
 21
95.94272370647786
 31
0.0
  0
ARC
  5
767C
102
{ACAD_REACTORS
330
7737
102
}
330
2
100
AcDbEntity
  8
KIJUN
100
AcDbCircle
 10
65.95737638743185
 20
97.94272370647787
 30
0.0
 40
2.0
100
AcDbArc
 50
0.0
 51
90.0
  0
LINE
  5
767D
102
{ACAD_REACTORS
330
7737
102
}
330
2
100
AcDbEntity
  8
KIJUN
100
AcDbLine
 10
63.95737638743185
 20
99.94272370647786
 30
0.0
 11
65.95737638743185
 21
99.94272370647786
 31
0.0
  0
ARC
  5
767E
102
{ACAD_REACTORS
330
7737
102
}
330
2
100
AcDbEntity
  8
KIJUN
100
AcDbCircle
 10
65.95737638743185
 20
95.94272370647786
 30
0.0
 40
2.0
100
AcDbArc
 50
270.0
 51
0.0
  0
LINE
  5
767F
102
{ACAD_REACTORS
330
7737
102
}
330
2
100
AcDbEntity
  8
KIJUN
100
AcDbLine
 10
67.95737638743185
 20
97.94272370647787
 30
0.0
 11
67.95737638743185
 21
95.94272370647786
 31
0.0
  0
LINE
  5
7680
102
{ACAD_REACTORS
330
7737
102
}
330
2
100
AcDbEntity
  8
KIJUN
100
AcDbLine
 10
63.95737638743185
 20
93.94272370647787
 30
0.0
 11
65.95737638743185
 21
93.94272370647787
 31
0.0
  0
LINE
  5
7681
102
{ACAD_REACTORS
330
7737
102
}
330
2
100
AcDbEntity
  8
KIJUN
100
AcDbLine
 10
57.20737638743185
 20
93.94272370647787
 30
0.0
 11
59.20737638743185
 21
93.94272370647787
 31
0.0
  0
LINE
  5
7682
102
{ACAD_REACTORS
330
7737
102
}
330
2
100
AcDbEntity
  8
KIJUN
100
AcDbLine
 10
61.20737638743185
 20
97.94272370647787
 30
0.0
 11
61.20737638743185
 21
95.94272370647786
 31
0.0
  0
ARC
  5
7683
102
{ACAD_REACTORS
330
7737
102
}
330
2
100
AcDbEntity
  8
KIJUN
100
AcDbCircle
 10
59.20737638743185
 20
95.94272370647786
 30
0.0
 40
2.0
100
AcDbArc
 50
270.0
 51
0.0
  0
LINE
  5
7684
102
{ACAD_REACTORS
330
7737
102
}
330
2
100
AcDbEntity
  8
KIJUN
100
AcDbLine
 10
57.20737638743185
 20
99.94272370647786
 30
0.0
 11
59.20737638743185
 21
99.94272370647786
 31
0.0
  0
ARC
  5
7685
102
{ACAD_REACTORS
330
7737
102
}
330
2
100
AcDbEntity
  8
KIJUN
100
AcDbCircle
 10
59.20737638743185
 20
97.94272370647787
 30
0.0
 40
2.0
100
AcDbArc
 50
0.0
 51
90.0
  0
LINE
  5
7686
102
{ACAD_REACTORS
330
7737
102
}
330
2
100
AcDbEntity
  8
KIJUN
100
AcDbLine
 10
55.20737638743185
 20
97.94272370647787
 30
0.0
 11
55.20737638743185
 21
95.94272370647786
 31
0.0
  0
ARC
  5
7687
102
{ACAD_REACTORS
330
7737
102
}
330
2
100
AcDbEntity
  8
KIJUN
100
AcDbCircle
 10
57.20737638743185
 20
97.94272370647787
 30
0.0
 40
2.0
100
AcDbArc
 50
90.0
 51
180.0
  0
ARC
  5
7688
102
{ACAD_REACTORS
330
7737
102
}
330
2
100
AcDbEntity
  8
KIJUN
100
AcDbCircle
 10
57.20737638743185
 20
95.94272370647786
 30
0.0
 40
2.0
100
AcDbArc
 50
180.0
 51
270.0
  0
ARC
  5
7689
102
{ACAD_REACTORS
330
7737
102
}
330
2
100
AcDbEntity
  8
KIJUN
100
AcDbCircle
 10
50.45737638743185
 20
95.94272370647786
 30
0.0
 40
2.0
100
AcDbArc
 50
180.0
 51
270.0
  0
ARC
  5
768A
102
{ACAD_REACTORS
330
7737
102
}
330
2
100
AcDbEntity
  8
KIJUN
100
AcDbCircle
 10
50.45737638743185
 20
97.94272370647787
 30
0.0
 40
2.0
100
AcDbArc
 50
90.0
 51
180.0
  0
LINE
  5
768B
102
{ACAD_REACTORS
330
7737
102
}
330
2
100
AcDbEntity
  8
KIJUN
100
AcDbLine
 10
48.45737638743185
 20
97.94272370647787
 30
0.0
 11
48.45737638743185
 21
95.94272370647786
 31
0.0
  0
ARC
  5
768C
102
{ACAD_REACTORS
330
7737
102
}
330
2
100
AcDbEntity
  8
KIJUN
100
AcDbCircle
 10
52.45737638743185
 20
97.94272370647787
 30
0.0
 40
2.0
100
AcDbArc
 50
0.0
 51
90.0
  0
LINE
  5
768D
102
{ACAD_REACTORS
330
7737
102
}
330
2
100
AcDbEntity
  8
KIJUN
100
AcDbLine
 10
50.45737638743185
 20
99.94272370647786
 30
0.0
 11
52.45737638743185
 21
99.94272370647786
 31
0.0
  0
ARC
  5
768E
102
{ACAD_REACTORS
330
7737
102
}
330
2
100
AcDbEntity
  8
KIJUN
100
AcDbCircle
 10
52.45737638743185
 20
95.94272370647786
 30
0.0
 40
2.0
100
AcDbArc
 50
270.0
 51
0.0
  0
LINE
  5
768F
102
{ACAD_REACTORS
330
7737
102
}
330
2
100
AcDbEntity
  8
KIJUN
100
AcDbLine
 10
54.45737638743185
 20
97.94272370647787
 30
0.0
 11
54.45737638743185
 21
95.94272370647786
 31
0.0
  0
LINE
  5
7690
102
{ACAD_REACTORS
330
7737
102
}
330
2
100
AcDbEntity
  8
KIJUN
100
AcDbLine
 10
50.45737638743185
 20
93.94272370647787
 30
0.0
 11
52.45737638743185
 21
93.94272370647787
 31
0.0
  0
LINE
  5
7691
102
{ACAD_REACTORS
330
7737
102
}
330
2
100
AcDbEntity
  8
KIJUN
100
AcDbLine
 10
23.45737638743185
 20
93.94272370647787
 30
0.0
 11
25.45737638743185
 21
93.94272370647787
 31
0.0
  0
LINE
  5
7692
102
{ACAD_REACTORS
330
7737
102
}
330
2
100
AcDbEntity
  8
KIJUN
100
AcDbLine
 10
27.45737638743185
 20
97.94272370647787
 30
0.0
 11
27.45737638743185
 21
95.94272370647786
 31
0.0
  0
ARC
  5
7693
102
{ACAD_REACTORS
330
7737
102
}
330
2
100
AcDbEntity
  8
KIJUN
100
AcDbCircle
 10
25.45737638743185
 20
95.94272370647786
 30
0.0
 40
2.0
100
AcDbArc
 50
270.0
 51
0.0
  0
LINE
  5
7694
102
{ACAD_REACTORS
330
7737
102
}
330
2
100
AcDbEntity
  8
KIJUN
100
AcDbLine
 10
23.45737638743185
 20
99.94272370647786
 30
0.0
 11
25.45737638743185
 21
99.94272370647786
 31
0.0
  0
ARC
  5
7695
102
{ACAD_REACTORS
330
7737
102
}
330
2
100
AcDbEntity
  8
KIJUN
100
AcDbCircle
 10
25.45737638743185
 20
97.94272370647787
 30
0.0
 40
2.0
100
AcDbArc
 50
0.0
 51
90.0
  0
LINE
  5
7696
102
{ACAD_REACTORS
330
7737
102
}
330
2
100
AcDbEntity
  8
KIJUN
100
AcDbLine
 10
21.45737638743185
 20
97.94272370647787
 30
0.0
 11
21.45737638743185
 21
95.94272370647786
 31
0.0
  0
ARC
  5
7697
102
{ACAD_REACTORS
330
7737
102
}
330
2
100
AcDbEntity
  8
KIJUN
100
AcDbCircle
 10
23.45737638743185
 20
97.94272370647787
 30
0.0
 40
2.0
100
AcDbArc
 50
90.0
 51
180.0
  0
ARC
  5
7698
102
{ACAD_REACTORS
330
7737
102
}
330
2
100
AcDbEntity
  8
KIJUN
100
AcDbCircle
 10
23.45737638743185
 20
95.94272370647786
 30
0.0
 40
2.0
100
AcDbArc
 50
180.0
 51
270.0
  0
ARC
  5
7699
102
{ACAD_REACTORS
330
7737
102
}
330
2
100
AcDbEntity
  8
KIJUN
100
AcDbCircle
 10
30.20737638743185
 20
95.94272370647786
 30
0.0
 40
2.0
100
AcDbArc
 50
180.0
 51
270.0
  0
ARC
  5
769A
102
{ACAD_REACTORS
330
7737
102
}
330
2
100
AcDbEntity
  8
KIJUN
100
AcDbCircle
 10
30.20737638743185
 20
97.94272370647787
 30
0.0
 40
2.0
100
AcDbArc
 50
90.0
 51
180.0
  0
LINE
  5
769B
102
{ACAD_REACTORS
330
7737
102
}
330
2
100
AcDbEntity
  8
KIJUN
100
AcDbLine
 10
28.20737638743185
 20
97.94272370647787
 30
0.0
 11
28.20737638743185
 21
95.94272370647786
 31
0.0
  0
ARC
  5
769C
102
{ACAD_REACTORS
330
7737
102
}
330
2
100
AcDbEntity
  8
KIJUN
100
AcDbCircle
 10
32.20737638743185
 20
97.94272370647787
 30
0.0
 40
2.0
100
AcDbArc
 50
0.0
 51
90.0
  0
LINE
  5
769D
102
{ACAD_REACTORS
330
7737
102
}
330
2
100
AcDbEntity
  8
KIJUN
100
AcDbLine
 10
30.20737638743185
 20
99.94272370647786
 30
0.0
 11
32.20737638743185
 21
99.94272370647786
 31
0.0
  0
ARC
  5
769E
102
{ACAD_REACTORS
330
7737
102
}
330
2
100
AcDbEntity
  8
KIJUN
100
AcDbCircle
 10
32.20737638743185
 20
95.94272370647786
 30
0.0
 40
2.0
100
AcDbArc
 50
270.0
 51
0.0
  0
LINE
  5
769F
102
{ACAD_REACTORS
330
7737
102
}
330
2
100
AcDbEntity
  8
KIJUN
100
AcDbLine
 10
34.20737638743185
 20
97.94272370647787
 30
0.0
 11
34.20737638743185
 21
95.94272370647786
 31
0.0
  0
LINE
  5
76A0
102
{ACAD_REACTORS
330
7737
102
}
330
2
100
AcDbEntity
  8
KIJUN
100
AcDbLine
 10
30.20737638743185
 20
93.94272370647787
 30
0.0
 11
32.20737638743185
 21
93.94272370647787
 31
0.0
  0
LINE
  5
76A1
102
{ACAD_REACTORS
330
7737
102
}
330
2
100
AcDbEntity
  8
KIJUN
100
AcDbLine
 10
36.95737638743185
 20
93.94272370647787
 30
0.0
 11
38.95737638743185
 21
93.94272370647787
 31
0.0
  0
LINE
  5
76A2
102
{ACAD_REACTORS
330
7737
102
}
330
2
100
AcDbEntity
  8
KIJUN
100
AcDbLine
 10
40.95737638743185
 20
97.94272370647787
 30
0.0
 11
40.95737638743185
 21
95.94272370647786
 31
0.0
  0
ARC
  5
76A3
102
{ACAD_REACTORS
330
7737
102
}
330
2
100
AcDbEntity
  8
KIJUN
100
AcDbCircle
 10
38.95737638743185
 20
95.94272370647786
 30
0.0
 40
2.0
100
AcDbArc
 50
270.0
 51
0.0
  0
LINE
  5
76A4
102
{ACAD_REACTORS
330
7737
102
}
330
2
100
AcDbEntity
  8
KIJUN
100
AcDbLine
 10
36.95737638743185
 20
99.94272370647786
 30
0.0
 11
38.95737638743185
 21
99.94272370647786
 31
0.0
  0
ARC
  5
76A5
102
{ACAD_REACTORS
330
7737
102
}
330
2
100
AcDbEntity
  8
KIJUN
100
AcDbCircle
 10
38.95737638743185
 20
97.94272370647787
 30
0.0
 40
2.0
100
AcDbArc
 50
0.0
 51
90.0
  0
LINE
  5
76A6
102
{ACAD_REACTORS
330
7737
102
}
330
2
100
AcDbEntity
  8
KIJUN
100
AcDbLine
 10
34.95737638743185
 20
97.94272370647787
 30
0.0
 11
34.95737638743185
 21
95.94272370647786
 31
0.0
  0
ARC
  5
76A7
102
{ACAD_REACTORS
330
7737
102
}
330
2
100
AcDbEntity
  8
KIJUN
100
AcDbCircle
 10
36.95737638743185
 20
97.94272370647787
 30
0.0
 40
2.0
100
AcDbArc
 50
90.0
 51
180.0
  0
ARC
  5
76A8
102
{ACAD_REACTORS
330
7737
102
}
330
2
100
AcDbEntity
  8
KIJUN
100
AcDbCircle
 10
36.95737638743185
 20
95.94272370647786
 30
0.0
 40
2.0
100
AcDbArc
 50
180.0
 51
270.0
  0
ARC
  5
76A9
102
{ACAD_REACTORS
330
7737
102
}
330
2
100
AcDbEntity
  8
KIJUN
100
AcDbCircle
 10
23.45737638743185
 20
95.94272370647786
 30
0.0
 40
2.0
100
AcDbArc
 50
180.0
 51
270.0
  0
ARC
  5
76AA
102
{ACAD_REACTORS
330
7737
102
}
330
2
100
AcDbEntity
  8
KIJUN
100
AcDbCircle
 10
23.45737638743185
 20
97.94272370647787
 30
0.0
 40
2.0
100
AcDbArc
 50
90.0
 51
180.0
  0
LINE
  5
76AB
102
{ACAD_REACTORS
330
7737
102
}
330
2
100
AcDbEntity
  8
KIJUN
100
AcDbLine
 10
21.45737638743185
 20
97.94272370647787
 30
0.0
 11
21.45737638743185
 21
95.94272370647786
 31
0.0
  0
ARC
  5
76AC
102
{ACAD_REACTORS
330
7737
102
}
330
2
100
AcDbEntity
  8
KIJUN
100
AcDbCircle
 10
25.45737638743185
 20
97.94272370647787
 30
0.0
 40
2.0
100
AcDbArc
 50
0.0
 51
90.0
  0
LINE
  5
76AD
102
{ACAD_REACTORS
330
7737
102
}
330
2
100
AcDbEntity
  8
KIJUN
100
AcDbLine
 10
23.45737638743185
 20
99.94272370647786
 30
0.0
 11
25.45737638743185
 21
99.94272370647786
 31
0.0
  0
ARC
  5
76AE
102
{ACAD_REACTORS
330
7737
102
}
330
2
100
AcDbEntity
  8
KIJUN
100
AcDbCircle
 10
25.45737638743185
 20
95.94272370647786
 30
0.0
 40
2.0
100
AcDbArc
 50
270.0
 51
0.0
  0
LINE
  5
76AF
102
{ACAD_REACTORS
330
7737
102
}
330
2
100
AcDbEntity
  8
KIJUN
100
AcDbLine
 10
27.45737638743185
 20
97.94272370647787
 30
0.0
 11
27.45737638743185
 21
95.94272370647786
 31
0.0
  0
LINE
  5
76B0
102
{ACAD_REACTORS
330
7737
102
}
330
2
100
AcDbEntity
  8
KIJUN
100
AcDbLine
 10
23.45737638743185
 20
93.94272370647787
 30
0.0
 11
25.45737638743185
 21
93.94272370647787
 31
0.0
  0
LINE
  5
76B1
102
{ACAD_REACTORS
330
7737
102
}
330
2
100
AcDbEntity
  8
KIJUN
100
AcDbLine
 10
16.70737638743185
 20
93.94272370647787
 30
0.0
 11
18.70737638743185
 21
93.94272370647787
 31
0.0
  0
LINE
  5
76B2
102
{ACAD_REACTORS
330
7737
102
}
330
2
100
AcDbEntity
  8
KIJUN
100
AcDbLine
 10
20.70737638743185
 20
97.94272370647787
 30
0.0
 11
20.70737638743185
 21
95.94272370647786
 31
0.0
  0
ARC
  5
76B3
102
{ACAD_REACTORS
330
7737
102
}
330
2
100
AcDbEntity
  8
KIJUN
100
AcDbCircle
 10
18.70737638743185
 20
95.94272370647786
 30
0.0
 40
2.0
100
AcDbArc
 50
270.0
 51
0.0
  0
LINE
  5
76B4
102
{ACAD_REACTORS
330
7737
102
}
330
2
100
AcDbEntity
  8
KIJUN
100
AcDbLine
 10
16.70737638743185
 20
99.94272370647786
 30
0.0
 11
18.70737638743185
 21
99.94272370647786
 31
0.0
  0
ARC
  5
76B5
102
{ACAD_REACTORS
330
7737
102
}
330
2
100
AcDbEntity
  8
KIJUN
100
AcDbCircle
 10
18.70737638743185
 20
97.94272370647787
 30
0.0
 40
2.0
100
AcDbArc
 50
0.0
 51
90.0
  0
LINE
  5
76B6
102
{ACAD_REACTORS
330
7737
102
}
330
2
100
AcDbEntity
  8
KIJUN
100
AcDbLine
 10
14.70737638743185
 20
97.94272370647787
 30
0.0
 11
14.70737638743185
 21
95.94272370647786
 31
0.0
  0
ARC
  5
76B7
102
{ACAD_REACTORS
330
7737
102
}
330
2
100
AcDbEntity
  8
KIJUN
100
AcDbCircle
 10
16.70737638743185
 20
97.94272370647787
 30
0.0
 40
2.0
100
AcDbArc
 50
90.0
 51
180.0
  0
ARC
  5
76B8
102
{ACAD_REACTORS
330
7737
102
}
330
2
100
AcDbEntity
  8
KIJUN
100
AcDbCircle
 10
16.70737638743185
 20
95.94272370647786
 30
0.0
 40
2.0
100
AcDbArc
 50
180.0
 51
270.0
  0
ARC
  5
76B9
102
{ACAD_REACTORS
330
7737
102
}
330
2
100
AcDbEntity
  8
KIJUN
100
AcDbCircle
 10
11.95737638743185
 20
95.94272370647786
 30
0.0
 40
2.0
100
AcDbArc
 50
270.0
 51
0.0
  0
ARC
  5
76BA
102
{ACAD_REACTORS
330
7737
102
}
330
2
100
AcDbEntity
  8
KIJUN
100
AcDbCircle
 10
11.95737638743185
 20
97.94272370647787
 30
0.0
 40
2.0
100
AcDbArc
 50
0.0
 51
90.0
  0
ARC
  5
76BB
102
{ACAD_REACTORS
330
7737
102
}
330
2
100
AcDbEntity
  8
KIJUN
100
AcDbCircle
 10
9.95737638743185
 20
97.94272370647787
 30
0.0
 40
2.0
100
AcDbArc
 50
90.0
 51
180.0
  0
ARC
  5
76BC
102
{ACAD_REACTORS
330
7737
102
}
330
2
100
AcDbEntity
  8
KIJUN
100
AcDbCircle
 10
9.95737638743185
 20
95.94272370647786
 30
0.0
 40
2.0
100
AcDbArc
 50
180.0
 51
270.0
  0
LINE
  5
76BD
102
{ACAD_REACTORS
330
7737
102
}
330
2
100
AcDbEntity
  8
KIJUN
100
AcDbLine
 10
9.95737638743185
 20
93.94272370647787
 30
0.0
 11
11.95737638743185
 21
93.94272370647787
 31
0.0
  0
LINE
  5
76BE
102
{ACAD_REACTORS
330
7737
102
}
330
2
100
AcDbEntity
  8
KIJUN
100
AcDbLine
 10
9.95737638743185
 20
99.94272370647786
 30
0.0
 11
11.95737638743185
 21
99.94272370647786
 31
0.0
  0
LINE
  5
76BF
102
{ACAD_REACTORS
330
7737
102
}
330
2
100
AcDbEntity
  8
KIJUN
100
AcDbLine
 10
13.95737638743185
 20
97.94272370647787
 30
0.0
 11
13.95737638743185
 21
95.94272370647786
 31
0.0
  0
LINE
  5
76C0
102
{ACAD_REACTORS
330
7737
102
}
330
2
100
AcDbEntity
  8
KIJUN
100
AcDbLine
 10
7.95737638743185
 20
97.94272370647787
 30
0.0
 11
7.95737638743185
 21
95.94272370647786
 31
0.0
  0
LINE
  5
76C1
102
{ACAD_REACTORS
330
7737
102
}
330
2
100
AcDbEntity
  8
KIJUN
100
AcDbLine
 10
8.543162825047602
 20
99.35693726884757
 30
0.0
 11
8.543162825047602
 21
100.9427237064778
 31
0.0
  0
ARC
  5
76C2
102
{ACAD_REACTORS
330
7737
102
}
330
2
100
AcDbEntity
  8
KIJUN
100
AcDbCircle
 10
7.371589949786994
 20
102.9427237064778
 30
0.0
 40
2.0
100
AcDbArc
 50
180.0
 51
270.0
  0
LINE
  5
76C3
102
{ACAD_REACTORS
330
7737
102
}
330
2
100
AcDbEntity
  8
KIJUN
100
AcDbLine
 10
2.371589949786994
 20
112.9427237064633
 30
0.0
 11
4.37158994978699
 21
110.9427237064487
 31
0.0
  0
LINE
  5
76C4
102
{ACAD_REACTORS
330
7737
102
}
330
2
100
AcDbEntity
  8
KIJUN
100
AcDbLine
 10
5.371589949786994
 20
110.9427237064487
 30
0.0
 11
5.371589949786994
 21
102.9427237064778
 31
0.0
  0
LINE
  5
76C6
102
{ACAD_REACTORS
330
7737
102
}
330
2
100
AcDbEntity
  8
KIJUN
100
AcDbLine
 10
2.371589949786994
 20
119.9427237064778
 30
0.0
 11
2.371589949786994
 21
112.9427237064633
 31
0.0
  0
ARC
  5
76C7
102
{ACAD_REACTORS
330
7737
102
}
330
2
100
AcDbEntity
  8
KIJUN
100
AcDbCircle
 10
86.78580351217124
 20
97.94272370647787
 30
0.0
 40
2.0
100
AcDbArc
 50
0.0
 51
90.0
  0
ARC
  5
76C8
102
{ACAD_REACTORS
330
7737
102
}
330
2
100
AcDbEntity
  8
KIJUN
100
AcDbCircle
 10
86.78580351217124
 20
95.94272370647786
 30
0.0
 40
2.0
100
AcDbArc
 50
270.0
 51
0.0
  0
ARC
  5
76C9
102
{ACAD_REACTORS
330
7737
102
}
330
2
100
AcDbEntity
  8
KIJUN
100
AcDbCircle
 10
75.26004324413543
 20
71.44652357841232
 30
0.0
 40
20.06018591047965
100
AcDbArc
 50
304.6425737918249
 51
352.8299628196081
  0
ARC
  5
76CA
102
{ACAD_REACTORS
330
7737
102
}
330
2
100
AcDbEntity
  8
KIJUN
100
AcDbCircle
 10
86.79688748754733
 20
41.7752248573056
 30
0.0
 40
12.16823149239489
100
AcDbArc
 50
46.56218490137529
 51
90.6287418234533
  0
ARC
  5
76CB
102
{ACAD_REACTORS
330
7737
102
}
330
2
100
AcDbEntity
  8
KIJUN
100
AcDbCircle
 10
86.79688748754733
 20
57.11022255565012
 30
0.0
 40
12.16823149239489
100
AcDbArc
 50
269.3712581765467
 51
313.4378150986247
  0
LINE
  5
76CC
102
{ACAD_REACTORS
330
7737
102
}
330
2
100
AcDbEntity
  8
KIJUN
100
AcDbLine
 10
75.371589949787
 20
84.94272370647786
 30
0.0
 11
122.3326268852356
 21
84.94272370647786
 31
0.0
  0
LINE
  5
76CD
102
{ACAD_REACTORS
330
7737
102
}
330
2
100
AcDbEntity
  8
KIJUN
100
AcDbLine
 10
75.37158994981609
 20
92.94272370647787
 30
0.0
 11
142.2000170745264
 21
92.94272370647787
 31
0.0
  0
LINE
  5
76CE
102
{ACAD_REACTORS
330
7737
102
}
330
2
100
AcDbEntity
  8
KIJUN
100
AcDbLine
 10
75.37158994981609
 20
100.9427237064778
 30
0.0
 11
143.371589949787
 21
100.9427237064778
 31
0.0
  0
ARC
  5
76D1
102
{ACAD_REACTORS
330
7737
102
}
330
2
100
AcDbEntity
  8
KIJUN
100
AcDbCircle
 10
88.93151497991812
 20
48.62212201434568
 30
0.0
 40
6.715246062306647
100
AcDbArc
 50
21.87260316129317
 51
109.7405757322058
  0
ARC
  5
76D3
102
{ACAD_REACTORS
330
7737
102
}
330
2
100
AcDbEntity
  8
KIJUN
100
AcDbCircle
 10
75.87268154127696
 20
47.05470699710395
 30
0.0
 40
77.53771035855191
100
AcDbArc
 50
143.7140542326836
 51
166.838929055253
  0
ARC
  5
76D5
102
{ACAD_REACTORS
330
7737
102
}
330
2
100
AcDbEntity
  8
KIJUN
100
AcDbCircle
 10
74.87049835826792
 20
47.05470699704574
 30
0.0
 40
77.53771035860649
100
AcDbArc
 50
13.16107094474694
 51
36.28594576731638
  0
DIMENSION
  5
76D6
330
2
100
AcDbEntity
  8
SUNPOU
100
AcDbDimension
  2
*D1
 10
150.3715899497817
 20
155.7086268532242
 30
0.0
 11
75.37158994979903
 21
161.2086268532242
 31
0.0
 70
    32
 71
     5
 42
149.9999999999653
  3
STANDARD
100
AcDbAlignedDimension
 13
0.3715899498163679
 23
119.9635156569967
 33
0.0
 14
150.3715899497817
 24
119.9635156569967
 34
0.0
100
AcDbRotatedDimension
1001
ACAD
1000
DSTYLE
1002
{
1070
    41
1040
2.0
1070
    42
1040
10.0
1070
    44
1040
0.0
1070
    73
1070
     0
1070
    74
1070
     0
1070
    77
1070
     1
1070
   140
1040
5.0
1070
   141
1040
0.0
1070
   146
1040
0.064286
1070
   147
1040
3.0
1070
   176
1070
    60
1070
   177
1070
    70
1070
   178
1070
    60
1070
   271
1070
     0
1070
   272
1070
     0
1070
   340
1005
1C
1070
   342
1005
109
1002
}
  0
DIMENSION
  5
76E3
330
2
100
AcDbEntity
  8
SUNPOU
100
AcDbDimension
  2
*D2
 10
-32.7954669931644
 20
36.94272370647789
 30
0.0
 11
-38.2954669931644
 21
78.44272370647786
 31
0.0
 70
    32
 71
     5
 42
83.0
  3
STANDARD
100
AcDbAlignedDimension
 13
2.371589949786994
 23
119.9427237064778
 33
0.0
 14
29.80362841105077
 24
36.94272370647786
 34
0.0
 50
90.0
100
AcDbRotatedDimension
1001
ACAD
1000
DSTYLE
1002
{
1070
    41
1040
2.0
1070
    42
1040
10.0
1070
    44
1040
0.0
1070
    73
1070
     0
1070
    74
1070
     0
1070
    77
1070
     1
1070
   140
1040
5.0
1070
   141
1040
0.0
1070
   146
1040
0.064286
1070
   147
1040
3.0
1070
   176
1070
    60
1070
   177
1070
    70
1070
   178
1070
    60
1070
   271
1070
     0
1070
   272
1070
     0
1070
   340
1005
1C
1070
   342
1005
109
1002
}
  0
ARC
  5
7704
102
{ACAD_REACTORS
330
7737
102
}
330
2
100
AcDbEntity
  8
KIJUN
100
AcDbCircle
 10
29.80362841105078
 20
66.42489221548505
 30
0.0
 40
29.48216850900718
100
AcDbArc
 50
183.3417082764055
 51
316.7444009155176
  0
ARC
  5
770F
102
{ACAD_REACTORS
330
7737
102
}
330
2
100
AcDbEntity
  8
KIJUN
100
AcDbCircle
 10
120.3965646200422
 20
63.58860648573156
 30
0.0
 40
26.65301985727018
100
AcDbArc
 50
273.2240249540239
 51
4.917032131161413
  0
ARC
  5
7710
102
{ACAD_REACTORS
330
7737
102
}
330
2
100
AcDbEntity
  8
KIJUN
100
AcDbCircle
 10
122.9373275995071
 20
61.59055188161955
 30
0.0
 40
24.63481898867236
100
AcDbArc
 50
175.7081468281311
 51
267.5762704065938
  0
ARC
  5
7711
102
{ACAD_REACTORS
330
7737
102
}
330
2
100
AcDbEntity
  8
KIJUN
100
AcDbCircle
 10
120.9395514885232
 20
66.42489221548505
 30
0.0
 40
29.48216850900717
100
AcDbArc
 50
223.2555990844821
 51
356.6582917235944
  0
LINE
  5
7773
330
2
100
AcDbEntity
  8
KIJUN
 48
0.5
100
AcDbLine
 10
218.8818617970557
 20
41.7473855814776
 30
0.0
 11
218.8818617970557
 21
88.13803620647787
 31
0.0
  0
LINE
  5
7774
330
2
100
AcDbEntity
  8
HIDDEN
 48
0.5
370
     5
100
AcDbLine
 10
209.2724867970557
 20
36.9426980814776
 30
0.0
 11
209.2724867970557
 21
51.3567605814776
 31
0.0
  0
ARC
  5
7776
330
2
100
AcDbEntity
  8
KIJUN
 48
0.5
100
AcDbCircle
 10
214.0771742970557
 20
41.7473855814776
 30
0.0
 40
4.8046875
100
AcDbArc
 50
269.8128726833194
 51
0.000000000000007
  0
LINE
  5
7777
330
2
100
AcDbEntity
  8
HIDDEN
 48
0.5
370
     5
100
AcDbLine
 10
209.2724867970557
 20
51.3567605814776
 30
0.0
 11
188.6865492970564
 21
51.35676058147765
 31
0.0
  0
LINE
  5
7778
330
2
100
AcDbEntity
  8
KIJUN
 48
0.5
100
AcDbLine
 10
223.6865492970557
 20
112.0751949564478
 30
0.0
 11
223.6865492970556
 21
119.942723706478
 31
0.0
  0
LINE
  5
7779
330
2
100
AcDbEntity
  8
KIJUN
 48
0.5
100
AcDbLine
 10
214.0771742970557
 20
92.94272370647787
 30
0.0
 11
188.686549297056
 21
92.94272370647787
 31
0.0
  0
LINE
  5
777A
330
2
100
AcDbEntity
  8
KIJUN
 48
0.5
100
AcDbLine
 10
214.0771742970557
 20
100.942723706478
 30
0.0
 11
188.6865492970559
 21
100.9427237064778
 31
0.0
  0
LINE
  5
777B
330
2
100
AcDbEntity
  8
KIJUN
 48
0.5
100
AcDbLine
 10
188.6865492970557
 20
110.9427237064487
 30
0.0
 11
223.2174580470585
 21
110.9427237064487
 31
0.0
  0
ARC
  5
777C
330
2
100
AcDbEntity
  8
KIJUN
 48
0.5
100
AcDbCircle
 10
215.6314586720565
 20
104.8488193314794
 30
0.0
 40
3.203125
100
AcDbArc
 50
288.6669140000033
 51
359.5801970000021
  0
ARC
  5
777D
330
2
100
AcDbEntity
  8
KIJUN
 48
0.5
100
AcDbCircle
 10
214.0771742970557
 20
88.13803620647787
 30
0.0
 40
4.8046875
100
AcDbArc
 50
0.000000000000007
 51
90.0
  0
LINE
  5
777E
330
2
100
AcDbEntity
  8
KIJUN
 48
0.5
100
AcDbLine
 10
216.6566892970569
 20
101.8141787064784
 30
0.0
 11
214.0771742970557
 21
100.942723706478
 31
0.0
  0
ARC
  5
7780
330
2
100
AcDbEntity
  8
KIJUN
 48
0.5
100
AcDbCircle
 10
212.0804346236798
 20
96.94272114316857
 30
0.0
 40
4.470676550228786
100
AcDbArc
 50
296.5276930788593
 51
63.47221859514963
  0
ARC
  5
7781
330
2
100
AcDbEntity
  8
KIJUN
 48
0.5
100
AcDbCircle
 10
222.0849867970557
 20
107.2705074564478
 30
0.0
 40
3.203125
100
AcDbArc
 50
90.0
 51
180.0
  0
ARC
  5
7782
330
2
100
AcDbEntity
  8
KIJUN
 48
0.5
100
AcDbCircle
 10
222.0849867970557
 20
112.0751949564478
 30
0.0
 40
1.6015625
100
AcDbArc
 50
270.0
 51
0.0000000000010248
  0
LINE
  5
7783
330
2
100
AcDbEntity
  8
KIJUN
 48
0.5
100
AcDbLine
 10
218.8344976939732
 20
104.8253504221724
 30
0.0
 11
218.8818617970558
 21
107.2705074564478
 31
0.0
  0
LINE
  5
7784
330
2
100
AcDbEntity
  8
KIJUN
 48
0.5
100
AcDbLine
 10
223.6865492970556
 20
119.942723706478
 30
0.0
 11
188.6865492970556
 21
119.9427237064778
 31
0.0
  0
DIMENSION
  5
7785
330
2
100
AcDbEntity
  8
SUNPOU
100
AcDbDimension
  2
*D4
 10
223.6865492970556
 20
142.8021550486938
 30
0.0
 11
206.1865492970556
 21
148.0021550486938
 31
0.0
 70
    32
 71
     5
 42
35.0
  3
STANDARD$0
100
AcDbAlignedDimension
 13
188.6865492970556
 23
119.9427237064778
 33
0.0
 14
223.6865492970556
 24
119.942723706478
 34
0.0
 50
180.0
100
AcDbRotatedDimension
1001
ACAD
1000
DSTYLE
1002
{
1070
   147
1040
3.0
1070
    40
1040
0.8
1070
    41
1040
5.0
1070
   140
1040
7.0
1070
   146
1040
0.0642857142857143
1070
   176
1070
    60
1070
   177
1070
    70
1070
   178
1070
    60
1070
   271
1070
     6
1070
   272
1070
     0
1070
   279
1070
     2
1070
   340
1005
1C
1070
   341
1005
7742
1070
   343
1005
7742
1070
   344
1005
7742
1002
}
  0
LINE
  5
7786
330
2
100
AcDbEntity
  8
KIJUN
 48
0.5
100
AcDbLine
 10
188.6865492970567
 20
36.94272370647785
 30
0.0
 11
188.6865492970556
 21
119.9427237064778
 31
0.0
  0
LINE
  5
77C8
330
2
100
AcDbEntity
  8
KIJUN
 48
0.5
100
AcDbLine
 10
214.0614822742117
 20
36.94272370647794
 30
0.0
 11
188.6865492970567
 21
36.94272370647785
 31
0.0
  0
LINE
  5
782D
330
2
100
AcDbEntity
  8
HIDDEN
 48
0.5
370
     5
100
AcDbLine
 10
127.371589949799
 20
37.6529068612179
 30
0.0
 11
127.371589949799
 21
51.35676058147765
 31
0.0
  0
LINE
  5
782E
330
2
100
AcDbEntity
  8
HIDDEN
 48
0.5
370
     5
100
AcDbLine
 10
127.371589949799
 20
51.35676058147765
 30
0.0
 11
23.37158994979902
 21
51.35676058147794
 31
0.0
  0
LINE
  5
782F
330
2
100
AcDbEntity
  8
HIDDEN
 48
0.5
370
     5
100
AcDbLine
 10
23.37158994979902
 20
37.65290686121252
 30
0.0
 11
23.37158994979902
 21
51.35676058147794
 31
0.0
  0
ENDSEC
  0
SECTION
  2
OBJECTS
  0
DICTIONARY
  5
1A
330
0
100
AcDbDictionary
281
     1
  3
ACAD_COLOR
350
144
  3
ACAD_GROUP
350
18
  3
ACAD_LAYOUT
350
58
  3
ACAD_MATERIAL
350
143
  3
ACAD_MLINESTYLE
350
19
  3
ACAD_PLOTSETTINGS
350
59
  3
ACAD_PLOTSTYLENAME
350
56
  3
ACAD_TABLESTYLE
350
145
  3
ACDBHEADERROUNDTRIPXREC
350
7837
  3
AcDbVariableDictionary
350
1D1
  0
DICTIONARY
  5
1B4
330
A
100
AcDbDictionary
280
     1
281
     1
  3
ACAD_LAYERFILTERS
360
1A2A
  3
ACLYDICTIONARY
360
1A29
  0
DICTIONARY
  5
D13
330
2
100
AcDbDictionary
280
     1
281
     1
  3
ACAD_SORTENTS
360
D14
  0
DICTIONARY
  5
144
102
{ACAD_REACTORS
330
1A
102
}
330
1A
100
AcDbDictionary
281
     1
  0
DICTIONARY
  5
18
102
{ACAD_REACTORS
330
1A
102
}
330
1A
100
AcDbDictionary
281
     1
  3
*A1
350
E0D
  3
*A10
350
4C3E
  3
*A11
350
4CEC
  3
*A12
350
1555
  3
*A13
350
4D76
  3
*A14
350
3988
  3
*A15
350
3C81
  3
*A16
350
4407
  3
*A17
350
4E16
  3
*A18
350
4EE5
  3
*A19
350
4F64
  3
*A2
350
4781
  3
*A20
350
5011
  3
*A21
350
2C6B
  3
*A22
350
22C8
  3
*A23
350
2A17
  3
*A24
350
519C
  3
*A25
350
52B0
  3
*A26
350
36C9
  3
*A27
350
5396
  3
*A28
350
265A
  3
*A29
350
275E
  3
*A3
350
48BA
  3
*A30
350
5464
  3
*A31
350
556A
  3
*A32
350
213E
  3
*A33
350
57BF
  3
*A34
350
31DF
  3
*A35
350
3349
  3
*A36
350
58EE
  3
*A37
350
59A8
  3
*A38
350
1EFE
  3
*A39
350
382B
  3
*A4
350
422E
  3
*A40
350
4516
  3
*A41
350
2573
  3
*A42
350
3878
  3
*A43
350
2905
  3
*A44
350
5BE4
  3
*A45
350
17BC
  3
*A46
350
3E5C
  3
*A47
350
3181
  3
*A48
350
24D6
  3
*A49
350
2B84
  3
*A5
350
4A53
  3
*A50
350
5D9C
  3
*A51
350
5F2D
  3
*A52
350
307D
  3
*A53
350
6143
  3
*A54
350
241A
  3
*A55
350
63A1
  3
*A56
350
34BB
  3
*A57
350
6541
  3
*A58
350
2EE1
  3
*A59
350
35A5
  3
*A6
350
1A98
  3
*A60
350
401B
  3
*A61
350
2037
  3
*A62
350
6671
  3
*A63
350
67AB
  3
*A64
350
FF8
  3
*A65
350
1CBC
  3
*A66
350
2F81
  3
*A67
350
45E5
  3
*A68
350
6951
  3
*A69
350
6B05
  3
*A7
350
3695
  3
*A70
350
6BE0
  3
*A71
350
6C6A
  3
*A72
350
6D95
  3
*A73
350
3A25
  3
*A74
350
6EED
  3
*A75
350
7171
  3
*A76
350
2D78
  3
*A77
350
7465
  3
*A78
350
26DD
  3
*A79
350
7466
  3
*A8
350
32E4
  3
*A80
350
7737
  3
*A81
350
3467
  3
*A82
350
136A
  3
*A83
350
46A5
  3
*A9
350
4B49
  0
DICTIONARY
  5
58
102
{ACAD_REACTORS
330
1A
102
}
330
1A
100
AcDbDictionary
281
     1
  3
Model
350
5A
  3
ﾚｲｱｳﾄ1
350
5B
  0
DICTIONARY
  5
143
102
{ACAD_REACTORS
330
1A
102
}
330
1A
100
AcDbDictionary
281
     1
  0
DICTIONARY
  5
19
102
{ACAD_REACTORS
330
1A
102
}
330
1A
100
AcDbDictionary
281
     1
  3
STANDARD
350
1D
  0
DICTIONARY
  5
59
102
{ACAD_REACTORS
330
1A
102
}
330
1A
100
AcDbDictionary
281
     1
  0
ACDBDICTIONARYWDFLT
  5
56
102
{ACAD_REACTORS
330
1A
102
}
330
1A
100
AcDbDictionary
281
     1
  3
Normal
350
57
100
AcDbDictionaryWithDefault
340
57
  0
DICTIONARY
  5
145
102
{ACAD_REACTORS
330
1A
102
}
330
1A
100
AcDbDictionary
281
     1
  3
Standard
350
146
  0
DICTIONARY
  5
7837
102
{ACAD_REACTORS
330
1A
102
}
330
1A
100
AcDbDictionary
281
     1
  0
DICTIONARY
  5
1D1
102
{ACAD_REACTORS
330
1A
102
}
330
1A
100
AcDbDictionary
281
     1
  3
CTABLESTYLE
350
1D2
  3
DIMASSOC
350
D03
  3
PROJECTNAME
350
D04
  0
DICTIONARY
  5
1A2A
102
{ACAD_REACTORS
330
1B4
102
}
330
1B4
100
AcDbDictionary
281
     1
  0
DICTIONARY
  5
1A29
102
{ACAD_REACTORS
330
1B4
102
}
330
1B4
100
AcDbDictionary
281
     1
1001
ACAD
1000
<All
  0
SORTENTSTABLE
  5
D14
102
{ACAD_REACTORS
330
D13
102
}
330
D13
100
AcDbSortentsTable
330
2
331
23
  5
23
331
21
  5
21
331
1F
  5
1F
331
20
  5
20
  0
GROUP
  5
E0D
102
{ACAD_REACTORS
330
18
102
}
330
18
100
AcDbGroup
300

 70
     1
 71
     1
  0
GROUP
  5
4C3E
102
{ACAD_REACTORS
330
18
102
}
330
18
100
AcDbGroup
300

 70
     1
 71
     1
  0
GROUP
  5
4CEC
102
{ACAD_REACTORS
330
18
102
}
330
18
100
AcDbGroup
300

 70
     1
 71
     1
  0
GROUP
  5
1555
102
{ACAD_REACTORS
330
18
102
}
330
18
100
AcDbGroup
300

 70
     1
 71
     1
  0
GROUP
  5
4D76
102
{ACAD_REACTORS
330
18
102
}
330
18
100
AcDbGroup
300

 70
     1
 71
     1
  0
GROUP
  5
3988
102
{ACAD_REACTORS
330
18
102
}
330
18
100
AcDbGroup
300

 70
     1
 71
     1
  0
GROUP
  5
3C81
102
{ACAD_REACTORS
330
18
102
}
330
18
100
AcDbGroup
300

 70
     1
 71
     1
  0
GROUP
  5
4407
102
{ACAD_REACTORS
330
18
102
}
330
18
100
AcDbGroup
300

 70
     1
 71
     1
  0
GROUP
  5
4E16
102
{ACAD_REACTORS
330
18
102
}
330
18
100
AcDbGroup
300

 70
     1
 71
     1
  0
GROUP
  5
4EE5
102
{ACAD_REACTORS
330
18
102
}
330
18
100
AcDbGroup
300

 70
     1
 71
     1
  0
GROUP
  5
4F64
102
{ACAD_REACTORS
330
18
102
}
330
18
100
AcDbGroup
300

 70
     1
 71
     1
  0
GROUP
  5
4781
102
{ACAD_REACTORS
330
18
102
}
330
18
100
AcDbGroup
300

 70
     1
 71
     1
  0
GROUP
  5
5011
102
{ACAD_REACTORS
330
18
102
}
330
18
100
AcDbGroup
300

 70
     1
 71
     1
  0
GROUP
  5
2C6B
102
{ACAD_REACTORS
330
18
102
}
330
18
100
AcDbGroup
300

 70
     1
 71
     1
  0
GROUP
  5
22C8
102
{ACAD_REACTORS
330
18
102
}
330
18
100
AcDbGroup
300

 70
     1
 71
     1
  0
GROUP
  5
2A17
102
{ACAD_REACTORS
330
18
102
}
330
18
100
AcDbGroup
300

 70
     1
 71
     1
  0
GROUP
  5
519C
102
{ACAD_REACTORS
330
18
102
}
330
18
100
AcDbGroup
300

 70
     1
 71
     1
  0
GROUP
  5
52B0
102
{ACAD_REACTORS
330
18
102
}
330
18
100
AcDbGroup
300

 70
     1
 71
     1
  0
GROUP
  5
36C9
102
{ACAD_REACTORS
330
18
102
}
330
18
100
AcDbGroup
300

 70
     1
 71
     1
  0
GROUP
  5
5396
102
{ACAD_REACTORS
330
18
102
}
330
18
100
AcDbGroup
300

 70
     1
 71
     1
  0
GROUP
  5
265A
102
{ACAD_REACTORS
330
18
102
}
330
18
100
AcDbGroup
300

 70
     1
 71
     1
  0
GROUP
  5
275E
102
{ACAD_REACTORS
330
18
102
}
330
18
100
AcDbGroup
300

 70
     1
 71
     1
  0
GROUP
  5
48BA
102
{ACAD_REACTORS
330
18
102
}
330
18
100
AcDbGroup
300

 70
     1
 71
     1
  0
GROUP
  5
5464
102
{ACAD_REACTORS
330
18
102
}
330
18
100
AcDbGroup
300

 70
     1
 71
     1
  0
GROUP
  5
556A
102
{ACAD_REACTORS
330
18
102
}
330
18
100
AcDbGroup
300

 70
     1
 71
     1
  0
GROUP
  5
213E
102
{ACAD_REACTORS
330
18
102
}
330
18
100
AcDbGroup
300

 70
     1
 71
     1
  0
GROUP
  5
57BF
102
{ACAD_REACTORS
330
18
102
}
330
18
100
AcDbGroup
300

 70
     1
 71
     1
  0
GROUP
  5
31DF
102
{ACAD_REACTORS
330
18
102
}
330
18
100
AcDbGroup
300

 70
     1
 71
     1
  0
GROUP
  5
3349
102
{ACAD_REACTORS
330
18
102
}
330
18
100
AcDbGroup
300

 70
     1
 71
     1
  0
GROUP
  5
58EE
102
{ACAD_REACTORS
330
18
102
}
330
18
100
AcDbGroup
300

 70
     1
 71
     1
  0
GROUP
  5
59A8
102
{ACAD_REACTORS
330
18
102
}
330
18
100
AcDbGroup
300

 70
     1
 71
     1
  0
GROUP
  5
1EFE
102
{ACAD_REACTORS
330
18
102
}
330
18
100
AcDbGroup
300

 70
     1
 71
     1
  0
GROUP
  5
382B
102
{ACAD_REACTORS
330
18
102
}
330
18
100
AcDbGroup
300

 70
     1
 71
     1
  0
GROUP
  5
422E
102
{ACAD_REACTORS
330
18
102
}
330
18
100
AcDbGroup
300

 70
     1
 71
     1
  0
GROUP
  5
4516
102
{ACAD_REACTORS
330
18
102
}
330
18
100
AcDbGroup
300

 70
     1
 71
     1
  0
GROUP
  5
2573
102
{ACAD_REACTORS
330
18
102
}
330
18
100
AcDbGroup
300

 70
     1
 71
     1
  0
GROUP
  5
3878
102
{ACAD_REACTORS
330
18
102
}
330
18
100
AcDbGroup
300

 70
     1
 71
     1
  0
GROUP
  5
2905
102
{ACAD_REACTORS
330
18
102
}
330
18
100
AcDbGroup
300

 70
     1
 71
     1
  0
GROUP
  5
5BE4
102
{ACAD_REACTORS
330
18
102
}
330
18
100
AcDbGroup
300

 70
     1
 71
     1
  0
GROUP
  5
17BC
102
{ACAD_REACTORS
330
18
102
}
330
18
100
AcDbGroup
300

 70
     1
 71
     1
  0
GROUP
  5
3E5C
102
{ACAD_REACTORS
330
18
102
}
330
18
100
AcDbGroup
300

 70
     1
 71
     1
  0
GROUP
  5
3181
102
{ACAD_REACTORS
330
18
102
}
330
18
100
AcDbGroup
300

 70
     1
 71
     1
  0
GROUP
  5
24D6
102
{ACAD_REACTORS
330
18
102
}
330
18
100
AcDbGroup
300

 70
     1
 71
     1
  0
GROUP
  5
2B84
102
{ACAD_REACTORS
330
18
102
}
330
18
100
AcDbGroup
300

 70
     1
 71
     1
  0
GROUP
  5
4A53
102
{ACAD_REACTORS
330
18
102
}
330
18
100
AcDbGroup
300

 70
     1
 71
     1
  0
GROUP
  5
5D9C
102
{ACAD_REACTORS
330
18
102
}
330
18
100
AcDbGroup
300

 70
     1
 71
     1
  0
GROUP
  5
5F2D
102
{ACAD_REACTORS
330
18
102
}
330
18
100
AcDbGroup
300

 70
     1
 71
     1
  0
GROUP
  5
307D
102
{ACAD_REACTORS
330
18
102
}
330
18
100
AcDbGroup
300

 70
     1
 71
     1
  0
GROUP
  5
6143
102
{ACAD_REACTORS
330
18
102
}
330
18
100
AcDbGroup
300

 70
     1
 71
     1
  0
GROUP
  5
241A
102
{ACAD_REACTORS
330
18
102
}
330
18
100
AcDbGroup
300

 70
     1
 71
     1
  0
GROUP
  5
63A1
102
{ACAD_REACTORS
330
18
102
}
330
18
100
AcDbGroup
300

 70
     1
 71
     1
  0
GROUP
  5
34BB
102
{ACAD_REACTORS
330
18
102
}
330
18
100
AcDbGroup
300

 70
     1
 71
     1
  0
GROUP
  5
6541
102
{ACAD_REACTORS
330
18
102
}
330
18
100
AcDbGroup
300

 70
     1
 71
     1
  0
GROUP
  5
2EE1
102
{ACAD_REACTORS
330
18
102
}
330
18
100
AcDbGroup
300

 70
     1
 71
     1
  0
GROUP
  5
35A5
102
{ACAD_REACTORS
330
18
102
}
330
18
100
AcDbGroup
300

 70
     1
 71
     1
  0
GROUP
  5
1A98
102
{ACAD_REACTORS
330
18
102
}
330
18
100
AcDbGroup
300

 70
     1
 71
     1
  0
GROUP
  5
401B
102
{ACAD_REACTORS
330
18
102
}
330
18
100
AcDbGroup
300

 70
     1
 71
     1
  0
GROUP
  5
2037
102
{ACAD_REACTORS
330
18
102
}
330
18
100
AcDbGroup
300

 70
     1
 71
     1
  0
GROUP
  5
6671
102
{ACAD_REACTORS
330
18
102
}
330
18
100
AcDbGroup
300

 70
     1
 71
     1
  0
GROUP
  5
67AB
102
{ACAD_REACTORS
330
18
102
}
330
18
100
AcDbGroup
300

 70
     1
 71
     1
  0
GROUP
  5
FF8
102
{ACAD_REACTORS
330
18
102
}
330
18
100
AcDbGroup
300

 70
     1
 71
     1
  0
GROUP
  5
1CBC
102
{ACAD_REACTORS
330
18
102
}
330
18
100
AcDbGroup
300

 70
     1
 71
     1
  0
GROUP
  5
2F81
102
{ACAD_REACTORS
330
18
102
}
330
18
100
AcDbGroup
300

 70
     1
 71
     1
  0
GROUP
  5
45E5
102
{ACAD_REACTORS
330
18
102
}
330
18
100
AcDbGroup
300

 70
     1
 71
     1
  0
GROUP
  5
6951
102
{ACAD_REACTORS
330
18
102
}
330
18
100
AcDbGroup
300

 70
     1
 71
     1
  0
GROUP
  5
6B05
102
{ACAD_REACTORS
330
18
102
}
330
18
100
AcDbGroup
300

 70
     1
 71
     1
  0
GROUP
  5
3695
102
{ACAD_REACTORS
330
18
102
}
330
18
100
AcDbGroup
300

 70
     1
 71
     1
  0
GROUP
  5
6BE0
102
{ACAD_REACTORS
330
18
102
}
330
18
100
AcDbGroup
300

 70
     1
 71
     1
  0
GROUP
  5
6C6A
102
{ACAD_REACTORS
330
18
102
}
330
18
100
AcDbGroup
300

 70
     1
 71
     1
  0
GROUP
  5
6D95
102
{ACAD_REACTORS
330
18
102
}
330
18
100
AcDbGroup
300

 70
     1
 71
     1
  0
GROUP
  5
3A25
102
{ACAD_REACTORS
330
18
102
}
330
18
100
AcDbGroup
300

 70
     1
 71
     1
  0
GROUP
  5
6EED
102
{ACAD_REACTORS
330
18
102
}
330
18
100
AcDbGroup
300

 70
     1
 71
     1
  0
GROUP
  5
7171
102
{ACAD_REACTORS
330
18
102
}
330
18
100
AcDbGroup
300

 70
     1
 71
     1
  0
GROUP
  5
2D78
102
{ACAD_REACTORS
330
18
102
}
330
18
100
AcDbGroup
300

 70
     1
 71
     1
  0
GROUP
  5
7465
102
{ACAD_REACTORS
330
18
102
}
330
18
100
AcDbGroup
300

 70
     1
 71
     1
  0
GROUP
  5
26DD
102
{ACAD_REACTORS
330
18
102
}
330
18
100
AcDbGroup
300

 70
     1
 71
     1
  0
GROUP
  5
7466
102
{ACAD_REACTORS
330
18
102
}
330
18
100
AcDbGroup
300

 70
     1
 71
     1
  0
GROUP
  5
32E4
102
{ACAD_REACTORS
330
18
102
}
330
18
100
AcDbGroup
300

 70
     1
 71
     1
  0
GROUP
  5
7737
102
{ACAD_REACTORS
330
18
102
}
330
18
100
AcDbGroup
300

 70
     1
 71
     1
340
7711
340
7710
340
770F
340
7704
340
76D5
340
76D3
340
76D1
340
76CE
340
76CD
340
76CC
340
76CB
340
76CA
340
76C9
340
76C8
340
76C7
340
76C6
340
76C4
340
76C3
340
76C2
340
76C1
340
76C0
340
76BF
340
76BE
340
76BD
340
76BC
340
76BB
340
76BA
340
76B9
340
76B8
340
76B7
340
76B6
340
76B5
340
76B4
340
76B3
340
76B2
340
76B1
340
76B0
340
76AF
340
76AE
340
76AD
340
76AC
340
76AB
340
76AA
340
76A9
340
76A8
340
76A7
340
76A6
340
76A5
340
76A4
340
76A3
340
76A2
340
76A1
340
76A0
340
769F
340
769E
340
769D
340
769C
340
769B
340
769A
340
7699
340
7698
340
7697
340
7696
340
7695
340
7694
340
7693
340
7692
340
7691
340
7690
340
768F
340
768E
340
768D
340
768C
340
768B
340
768A
340
7689
340
7688
340
7687
340
7686
340
7685
340
7684
340
7683
340
7682
340
7681
340
7680
340
767F
340
767E
340
767D
340
767C
340
767B
340
767A
340
7679
340
7678
340
7677
340
7676
340
7675
340
7674
340
7673
340
7672
340
7671
340
7670
340
766F
340
766E
340
766D
340
766C
340
766B
340
766A
340
7669
340
7668
340
7667
340
7666
340
7665
340
7664
340
7663
340
7662
340
7661
340
7660
340
765F
340
765E
340
765D
340
765C
340
765B
340
765A
340
7659
340
7658
340
7657
340
7656
340
7655
340
7654
340
7653
340
7652
340
7651
340
7650
340
764F
340
764E
340
764D
340
764C
340
764B
340
764A
340
7649
340
7648
340
7647
340
7646
340
7645
340
7644
340
7643
340
7642
340
7640
340
763F
340
763E
340
763D
340
763C
340
763B
340
763A
340
7639
340
7638
340
7637
340
7636
340
7635
340
7634
340
7633
340
7632
340
7631
340
7630
340
762F
340
762E
340
762D
340
762C
340
762B
340
762A
340
7629
340
7628
340
7627
340
7626
340
7625
340
7624
340
7623
340
7622
340
7621
340
7620
340
761F
340
761E
340
761D
340
761C
340
761B
340
761A
340
7619
340
7618
340
7617
340
7616
340
7615
340
7614
340
7613
340
7611
340
760F
340
760E
340
760D
340
760C
340
760B
340
760A
340
7609
340
7608
340
7606
340
7605
340
7604
340
7603
340
7602
340
7601
340
7600
340
75FF
340
75FE
340
75FD
340
75FC
340
75FB
340
75FA
340
75F9
340
75F8
340
75F7
340
75F6
340
75F5
340
75F4
340
75F3
340
75F2
340
75F1
340
75F0
340
75EF
340
75EE
340
75ED
340
75EC
340
75EB
340
75EA
340
75E9
340
75E8
340
75E7
340
75E6
340
75E5
340
75E4
340
75E3
340
75E2
340
75E1
340
75E0
340
75DF
340
75DE
340
75DD
340
75DC
340
75DB
340
75DA
340
75D9
340
75D8
340
75D7
340
75D6
340
75D5
340
75D4
340
75D3
340
75D2
340
75D1
340
75D0
340
75CF
340
75CE
340
75CD
340
75CC
340
75CB
340
75CA
340
75C9
340
75C8
340
75C7
340
75C6
340
75C5
340
75C4
340
75C3
340
75C2
340
75C1
340
75C0
340
75BF
340
75BE
340
75BD
340
75BC
340
75BB
340
75BA
340
75B9
340
75B8
340
75B7
340
75B6
340
75B5
340
75B4
340
75B3
340
75B2
340
75B1
340
75B0
340
75AF
340
75AE
340
75AD
340
75AC
340
75AA
  0
GROUP
  5
3467
102
{ACAD_REACTORS
330
18
102
}
330
18
100
AcDbGroup
300

 70
     1
 71
     1
  0
GROUP
  5
136A
102
{ACAD_REACTORS
330
18
102
}
330
18
100
AcDbGroup
300

 70
     1
 71
     1
  0
GROUP
  5
46A5
102
{ACAD_REACTORS
330
18
102
}
330
18
100
AcDbGroup
300

 70
     1
 71
     1
  0
GROUP
  5
4B49
102
{ACAD_REACTORS
330
18
102
}
330
18
100
AcDbGroup
300

 70
     1
 71
     1
  0
LAYOUT
  5
5A
102
{ACAD_XDICTIONARY
360
7838
102
}
102
{ACAD_REACTORS
330
58
102
}
330
58
100
AcDbPlotSettings
  1

  2
なし
  4

  6

 40
0.0
 41
0.0
 42
0.0
 43
0.0
 44
0.0
 45
0.0
 46
0.0
 47
0.0
 48
0.0
 49
0.0
140
0.0
141
0.0
142
1.0
143
1.0
 70
  1712
 72
     0
 73
     0
 74
     0
  7
monochrome.ctb
 75
     0
147
1.0
148
0.0
149
0.0
100
AcDbLayout
  1
Model
 70
     1
 71
     0
 10
0.0
 20
0.0
 11
12.0
 21
9.0
 12
0.0
 22
0.0
 32
0.0
 14
0.0
 24
0.0
 34
0.0
 15
0.0
 25
0.0
 35
0.0
146
0.0
 13
0.0
 23
0.0
 33
0.0
 16
1.0
 26
0.0
 36
0.0
 17
0.0
 27
1.0
 37
0.0
 76
     0
330
2
  0
LAYOUT
  5
5B
102
{ACAD_XDICTIONARY
360
783A
102
}
102
{ACAD_REACTORS
330
58
102
}
330
58
100
AcDbPlotSettings
  1

  2
なし
  4

  6

 40
0.0
 41
0.0
 42
0.0
 43
0.0
 44
0.0
 45
0.0
 46
0.0
 47
0.0
 48
0.0
 49
0.0
140
0.0
141
0.0
142
1.0
143
1.0
 70
   688
 72
     0
 73
     0
 74
     5
  7
monochrome.ctb
 75
    16
147
1.0
148
0.0
149
0.0
100
AcDbLayout
  1
ﾚｲｱｳﾄ1
 70
     1
 71
     1
 10
0.0
 20
0.0
 11
12.0
 21
9.0
 12
0.0
 22
0.0
 32
0.0
 14
1.000000000000000E+20
 24
1.000000000000000E+20
 34
1.000000000000000E+20
 15
-1.000000000000000E+20
 25
-1.000000000000000E+20
 35
-1.000000000000000E+20
146
0.0
 13
0.0
 23
0.0
 33
0.0
 16
1.0
 26
0.0
 36
0.0
 17
0.0
 27
1.0
 37
0.0
 76
     0
330
7
  0
MLINESTYLE
  5
1D
102
{ACAD_REACTORS
330
19
102
}
330
19
100
AcDbMlineStyle
  2
STANDARD
 70
     0
  3

 62
   256
 51
90.0
 52
90.0
 71
     2
 49
0.5
 62
   256
  6
BYLAYER
 49
-0.5
 62
   256
  6
BYLAYER
  0
ACDBPLACEHOLDER
  5
57
102
{ACAD_REACTORS
330
56
102
}
330
56
  0
TABLESTYLE
  5
146
102
{ACAD_REACTORS
330
145
102
}
330
145
100
AcDbTableStyle
  3
Standard
 70
     0
 71
     0
 40
0.06
 41
0.06
280
     0
281
     0
  7
STANDARD
140
0.18
170
     2
 62
     0
 63
     7
283
     0
274
    -2
284
     1
 64
     0
275
    -2
285
     1
 65
     0
276
    -2
286
     1
 66
     0
277
    -2
287
     1
 67
     0
278
    -2
288
     1
 68
     0
279
    -2
289
     1
 69
     0
  7
STANDARD
140
0.25
170
     5
 62
     0
 63
     7
283
     0
274
    -2
284
     1
 64
     0
275
    -2
285
     1
 65
     0
276
    -2
286
     1
 66
     0
277
    -2
287
     1
 67
     0
278
    -2
288
     1
 68
     0
279
    -2
289
     1
 69
     0
  7
STANDARD
140
0.18
170
     5
 62
     0
 63
     7
283
     0
274
    -2
284
     1
 64
     0
275
    -2
285
     1
 65
     0
276
    -2
286
     1
 66
     0
277
    -2
287
     1
 67
     0
278
    -2
288
     1
 68
     0
279
    -2
289
     1
 69
     0
  0
DICTIONARYVAR
  5
1D2
102
{ACAD_REACTORS
330
1D1
102
}
330
1D1
100
DictionaryVariables
280
     0
  1
STANDARD
  0
DICTIONARYVAR
  5
D03
102
{ACAD_REACTORS
330
1D1
102
}
330
1D1
100
DictionaryVariables
280
     0
  1
1
  0
DICTIONARYVAR
  5
D04
102
{ACAD_REACTORS
330
1D1
102
}
330
1D1
100
DictionaryVariables
280
     0
  1

  0
DICTIONARY
  5
7838
330
5A
100
AcDbDictionary
280
     1
281
     1
  3
ACAD_XREC_ROUNDTRIP
360
7839
  0
DICTIONARY
  5
783A
330
5B
100
AcDbDictionary
280
     1
281
     1
  3
ACAD_XREC_ROUNDTRIP
360
783B
  0
XRECORD
  5
7839
102
{ACAD_REACTORS
330
7838
102
}
330
7838
100
AcDbXrecord
280
     1
102
SHADEPLOT
 70
     0
102
SHADEPLOTRESLEVEL
 70
     2
102
SHADEPLOTCUSTOMDPI
 70
   300
  0
XRECORD
  5
783B
102
{ACAD_REACTORS
330
783A
102
}
330
783A
100
AcDbXrecord
280
     1
102
SHADEPLOT
 70
     0
102
SHADEPLOTRESLEVEL
 70
     2
102
SHADEPLOTCUSTOMDPI
 70
   300
  0
ENDSEC
  0
EOF
