  0
SECTION
  2
HEADER
  9
$ACADVER
  1
AC1015
  9
$ACADMAINTVER
 70
    20
  9
$DWGCODEPAGE
  3
ANSI_932
  9
$INSBASE
 10
922.019522
 20
-675.4306699999999
 30
0.0
  9
$EXTMIN
 10
-6.940912182375996
 20
-0.0181263349739993
 30
-0.0000000349181948
  9
$EXTMAX
 10
141.2613114794535
 20
220.8714874076419
 30
0.0000000814935746
  9
$LIMMIN
 10
0.0
 20
0.0
  9
$LIMMAX
 10
420.0
 20
297.0
  9
$ORTHOMODE
 70
     1
  9
$REGENMODE
 70
     1
  9
$FILLMODE
 70
     1
  9
$QTEXTMODE
 70
     0
  9
$MIRRTEXT
 70
     1
  9
$LTSCALE
 40
1.0
  9
$ATTMODE
 70
     1
  9
$TEXTSIZE
 40
30.0
  9
$TRACEWID
 40
0.05
  9
$TEXTSTYLE
  7
SUNPOU
  9
$CLAYER
  8
0
  9
$CELTYPE
  6
BYLAYER
  9
$CECOLOR
 62
   256
  9
$CELTSCALE
 40
1.0
  9
$DISPSILH
 70
     0
  9
$DIMSCALE
 40
1.0
  9
$DIMASZ
 40
2.0
  9
$DIMEXO
 40
10.0
  9
$DIMDLI
 40
0.38
  9
$DIMRND
 40
0.0
  9
$DIMDLE
 40
0.0
  9
$DIMEXE
 40
0.0
  9
$DIMTP
 40
0.0
  9
$DIMTM
 40
0.0
  9
$DIMTXT
 40
10.0
  9
$DIMCEN
 40
0.0
  9
$DIMTSZ
 40
0.0
  9
$DIMTOL
 70
     0
  9
$DIMLIM
 70
     0
  9
$DIMTIH
 70
     0
  9
$DIMTOH
 70
     0
  9
$DIMSE1
 70
     0
  9
$DIMSE2
 70
     0
  9
$DIMTAD
 70
     1
  9
$DIMZIN
 70
     0
  9
$DIMBLK
  1
Dot
  9
$DIMASO
 70
     1
  9
$DIMSHO
 70
     1
  9
$DIMPOST
  1

  9
$DIMAPOST
  1

  9
$DIMALT
 70
     0
  9
$DIMALTD
 70
     2
  9
$DIMALTF
 40
25.4
  9
$DIMLFAC
 40
1.0
  9
$DIMTOFL
 70
     0
  9
$DIMTVP
 40
0.0
  9
$DIMTIX
 70
     0
  9
$DIMSOXD
 70
     0
  9
$DIMSAH
 70
     0
  9
$DIMBLK1
  1

  9
$DIMBLK2
  1

  9
$DIMSTYLE
  2
STANDARD
  9
$DIMCLRD
 70
    60
  9
$DIMCLRE
 70
    70
  9
$DIMCLRT
 70
    60
  9
$DIMTFAC
 40
0.064286
  9
$DIMGAP
 40
3.0
  9
$DIMJUST
 70
     0
  9
$DIMSD1
 70
     0
  9
$DIMSD2
 70
     0
  9
$DIMTOLJ
 70
     1
  9
$DIMTZIN
 70
     0
  9
$DIMALTZ
 70
     0
  9
$DIMALTTZ
 70
     0
  9
$DIMUPT
 70
     0
  9
$DIMDEC
 70
     0
  9
$DIMTDEC
 70
     0
  9
$DIMALTU
 70
     2
  9
$DIMALTTD
 70
     2
  9
$DIMTXSTY
  7
SUNPOU
  9
$DIMAUNIT
 70
     0
  9
$DIMADEC
 70
     0
  9
$DIMALTRND
 40
0.0
  9
$DIMAZIN
 70
     0
  9
$DIMDSEP
 70
    46
  9
$DIMATFIT
 70
     3
  9
$DIMFRAC
 70
     0
  9
$DIMLDRBLK
  1

  9
$DIMLUNIT
 70
     2
  9
$DIMLWD
 70
    -2
  9
$DIMLWE
 70
    -2
  9
$DIMTMOVE
 70
     0
  9
$LUNITS
 70
     2
  9
$LUPREC
 70
     5
  9
$SKETCHINC
 40
0.1
  9
$FILLETRAD
 40
0.0
  9
$AUNITS
 70
     0
  9
$AUPREC
 70
     0
  9
$MENU
  1
acad
  9
$ELEVATION
 40
0.0
  9
$PELEVATION
 40
0.0
  9
$THICKNESS
 40
0.0
  9
$LIMCHECK
 70
     0
  9
$CHAMFERA
 40
0.0
  9
$CHAMFERB
 40
0.0
  9
$CHAMFERC
 40
0.0
  9
$CHAMFERD
 40
0.0
  9
$SKPOLY
 70
     0
  9
$TDCREATE
 40
2450623.654673033
  9
$TDUCREATE
 40
2450623.279673032
  9
$TDUPDATE
 40
2453865.427435741
  9
$TDUUPDATE
 40
2453865.052435741
  9
$TDINDWG
 40
0.5088543634
  9
$TDUSRTIMER
 40
0.5088541898
  9
$USRTIMER
 70
     1
  9
$ANGBASE
 50
0.0
  9
$ANGDIR
 70
     0
  9
$PDMODE
 70
     0
  9
$PDSIZE
 40
0.0
  9
$PLINEWID
 40
0.0
  9
$SPLFRAME
 70
     0
  9
$SPLINETYPE
 70
     6
  9
$SPLINESEGS
 70
     8
  9
$HANDSEED
  5
6D8F
  9
$SURFTAB1
 70
     6
  9
$SURFTAB2
 70
     6
  9
$SURFTYPE
 70
     6
  9
$SURFU
 70
     6
  9
$SURFV
 70
     6
  9
$UCSBASE
  2

  9
$UCSNAME
  2

  9
$UCSORG
 10
0.0
 20
0.0
 30
0.0
  9
$UCSXDIR
 10
1.0
 20
0.0
 30
0.0
  9
$UCSYDIR
 10
0.0
 20
1.0
 30
0.0
  9
$UCSORTHOREF
  2

  9
$UCSORTHOVIEW
 70
     0
  9
$UCSORGTOP
 10
0.0
 20
0.0
 30
0.0
  9
$UCSORGBOTTOM
 10
0.0
 20
0.0
 30
0.0
  9
$UCSORGLEFT
 10
0.0
 20
0.0
 30
0.0
  9
$UCSORGRIGHT
 10
0.0
 20
0.0
 30
0.0
  9
$UCSORGFRONT
 10
0.0
 20
0.0
 30
0.0
  9
$UCSORGBACK
 10
0.0
 20
0.0
 30
0.0
  9
$PUCSBASE
  2

  9
$PUCSNAME
  2

  9
$PUCSORG
 10
0.0
 20
0.0
 30
0.0
  9
$PUCSXDIR
 10
1.0
 20
0.0
 30
0.0
  9
$PUCSYDIR
 10
0.0
 20
1.0
 30
0.0
  9
$PUCSORTHOREF
  2

  9
$PUCSORTHOVIEW
 70
     0
  9
$PUCSORGTOP
 10
0.0
 20
0.0
 30
0.0
  9
$PUCSORGBOTTOM
 10
0.0
 20
0.0
 30
0.0
  9
$PUCSORGLEFT
 10
0.0
 20
0.0
 30
0.0
  9
$PUCSORGRIGHT
 10
0.0
 20
0.0
 30
0.0
  9
$PUCSORGFRONT
 10
0.0
 20
0.0
 30
0.0
  9
$PUCSORGBACK
 10
0.0
 20
0.0
 30
0.0
  9
$USERI1
 70
     0
  9
$USERI2
 70
     0
  9
$USERI3
 70
     0
  9
$USERI4
 70
     0
  9
$USERI5
 70
     0
  9
$USERR1
 40
0.0
  9
$USERR2
 40
0.0
  9
$USERR3
 40
0.0
  9
$USERR4
 40
0.0
  9
$USERR5
 40
0.0
  9
$WORLDVIEW
 70
     1
  9
$SHADEDGE
 70
     3
  9
$SHADEDIF
 70
    70
  9
$TILEMODE
 70
     1
  9
$MAXACTVP
 70
    16
  9
$PINSBASE
 10
0.0
 20
0.0
 30
0.0
  9
$PLIMCHECK
 70
     0
  9
$PEXTMIN
 10
1.000000000000000E+20
 20
1.000000000000000E+20
 30
1.000000000000000E+20
  9
$PEXTMAX
 10
-1.000000000000000E+20
 20
-1.000000000000000E+20
 30
-1.000000000000000E+20
  9
$PLIMMIN
 10
0.0
 20
0.0
  9
$PLIMMAX
 10
12.0
 20
9.0
  9
$UNITMODE
 70
     0
  9
$VISRETAIN
 70
     0
  9
$PLINEGEN
 70
     0
  9
$PSLTSCALE
 70
     1
  9
$TREEDEPTH
 70
  3020
  9
$CMLSTYLE
  2
STANDARD
  9
$CMLJUST
 70
     0
  9
$CMLSCALE
 40
1.0
  9
$PROXYGRAPHICS
 70
     1
  9
$MEASUREMENT
 70
     0
  9
$CELWEIGHT
370
    -1
  9
$ENDCAPS
280
     0
  9
$JOINSTYLE
280
     0
  9
$LWDISPLAY
290
     0
  9
$INSUNITS
 70
     0
  9
$HYPERLINKBASE
  1

  9
$STYLESHEET
  1
monochrome.ctb
  9
$XEDIT
290
     1
  9
$CEPSNTYPE
380
     0
  9
$PSTYLEMODE
290
     1
  9
$FINGERPRINTGUID
  2
{FB88A696-E29C-4009-92AF-A3599A8169D5}
  9
$VERSIONGUID
  2
{0E4047EB-47A8-4834-A85E-29D322A414A5}
  9
$EXTNAMES
290
     1
  9
$PSVPSCALE
 40
0.0
  9
$OLESTARTUP
290
     0
  0
ENDSEC
  0
SECTION
  2
CLASSES
  0
CLASS
  1
DICTIONARYVAR
  2
AcDbDictionaryVar
  3
ObjectDBX Classes
 90
        0
280
     0
281
     0
  0
CLASS
  1
ACDBDICTIONARYWDFLT
  2
AcDbDictionaryWithDefault
  3
ObjectDBX Classes
 90
        0
280
     0
281
     0
  0
CLASS
  1
ACDBPLACEHOLDER
  2
AcDbPlaceHolder
  3
ObjectDBX Classes
 90
        0
280
     0
281
     0
  0
CLASS
  1
LAYOUT
  2
AcDbLayout
  3
ObjectDBX Classes
 90
        0
280
     0
281
     0
  0
CLASS
  1
TABLESTYLE
  2
AcDbTableStyle
  3
ObjectDBX Classes
 90
     2047
280
     0
281
     0
  0
CLASS
  1
SORTENTSTABLE
  2
AcDbSortentsTable
  3
ObjectDBX Classes
 90
        0
280
     0
281
     0
  0
ENDSEC
  0
SECTION
  2
TABLES
  0
TABLE
  2
VPORT
  5
12
330
0
100
AcDbSymbolTable
 70
    16
  0
VPORT
  5
6D89
330
12
100
AcDbSymbolTableRecord
100
AcDbViewportTableRecord
  2
*Active
 70
     0
 10
0.0
 20
0.0
 11
1.0
 21
1.0
 12
67.16019964853876
 22
110.4266805363339
 13
0.0
 23
0.0
 14
1.0
 24
1.0
 15
0.0
 25
0.0
 16
0.0
 26
0.0
 36
1.0
 17
0.0
 27
0.0
 37
0.0
 40
222.5822544609501
 41
1.560102301790281
 42
50.0
 43
0.0
 44
0.0
 50
0.0
 51
0.0
 71
     0
 72
 20000
 73
     1
 74
     1
 75
     0
 76
     0
 77
     0
 78
     0
281
     0
 65
     1
110
0.0
120
0.0
130
0.0
111
1.0
121
0.0
131
0.0
112
0.0
122
1.0
132
0.0
 79
     0
146
0.0
  0
ENDTAB
  0
TABLE
  2
LTYPE
  5
D
330
0
100
AcDbSymbolTable
 70
     2
  0
LTYPE
  5
E
330
D
100
AcDbSymbolTableRecord
100
AcDbLinetypeTableRecord
  2
BYBLOCK
 70
     0
  3

 72
    65
 73
     0
 40
0.0
  0
LTYPE
  5
F
330
D
100
AcDbSymbolTableRecord
100
AcDbLinetypeTableRecord
  2
BYLAYER
 70
     0
  3

 72
    65
 73
     0
 40
0.0
  0
LTYPE
  5
5
330
D
100
AcDbSymbolTableRecord
100
AcDbLinetypeTableRecord
  2
CONTINUOUS
 70
     0
  3
Solid line
 72
    65
 73
     0
 40
0.0
  0
ENDTAB
  0
TABLE
  2
LAYER
  5
A
102
{ACAD_XDICTIONARY
360
1B4
102
}
330
0
100
AcDbSymbolTable
 70
     6
  0
LAYER
  5
4
330
A
100
AcDbSymbolTableRecord
100
AcDbLayerTableRecord
  2
0
 70
     0
 62
     7
  6
CONTINUOUS
370
    -3
390
57
  0
LAYER
  5
25
330
A
100
AcDbSymbolTableRecord
100
AcDbLayerTableRecord
  2
KIJUN
 70
     0
 62
     7
  6
CONTINUOUS
370
    -3
390
57
  0
LAYER
  5
22
330
A
100
AcDbSymbolTableRecord
100
AcDbLayerTableRecord
  2
HOJO
 70
     0
 62
     3
  6
CONTINUOUS
370
    -3
390
57
  0
LAYER
  5
1B
330
A
100
AcDbSymbolTableRecord
100
AcDbLayerTableRecord
  2
WAKU
 70
     0
 62
     1
  6
CONTINUOUS
370
    -3
390
57
  0
LAYER
  5
31
330
A
100
AcDbSymbolTableRecord
100
AcDbLayerTableRecord
  2
DEFPOINTS
 70
     0
 62
     7
  6
CONTINUOUS
290
     0
370
    -3
390
57
  0
LAYER
  5
28
330
A
100
AcDbSymbolTableRecord
100
AcDbLayerTableRecord
  2
SUNPOU
 70
     0
 62
    70
  6
CONTINUOUS
370
    -3
390
57
  0
ENDTAB
  0
TABLE
  2
STYLE
  5
B
330
0
100
AcDbSymbolTable
 70
     3
  0
STYLE
  5
C
330
B
100
AcDbSymbolTableRecord
100
AcDbTextStyleTableRecord
  2
STANDARD
 70
     0
 40
0.0
 41
1.0
 50
0.0
 71
     0
 42
0.2
  3
txt
  4

  0
STYLE
  5
1C
330
B
100
AcDbSymbolTableRecord
100
AcDbTextStyleTableRecord
  2
SUNPOU
 70
     0
 40
0.0
 41
1.0
 50
0.0
 71
     0
 42
30.0
  3
txt
  4
bigfont
  0
STYLE
  5
14A
330
B
100
AcDbSymbolTableRecord
100
AcDbTextStyleTableRecord
  2
LIFE
 70
     0
 40
0.0
 41
0.7
 50
0.0
 71
     0
 42
10.0
  3
romans
  4
extfont
  0
ENDTAB
  0
TABLE
  2
VIEW
  5
10
330
0
100
AcDbSymbolTable
 70
     0
  0
ENDTAB
  0
TABLE
  2
UCS
  5
11
330
0
100
AcDbSymbolTable
 70
     0
  0
ENDTAB
  0
TABLE
  2
APPID
  5
14
330
0
100
AcDbSymbolTable
 70
    11
  0
APPID
  5
15
330
14
100
AcDbSymbolTableRecord
100
AcDbRegAppTableRecord
  2
ACAD
 70
     0
  0
APPID
  5
1D3
330
14
100
AcDbSymbolTableRecord
100
AcDbRegAppTableRecord
  2
ACAD_DSTYLE_DIMTEXT_FILL
 70
     0
  0
APPID
  5
1D4
330
14
100
AcDbSymbolTableRecord
100
AcDbRegAppTableRecord
  2
ACAD_DSTYLE_DIMEXT_LENGTH
 70
     0
  0
APPID
  5
1D5
330
14
100
AcDbSymbolTableRecord
100
AcDbRegAppTableRecord
  2
ACAD_DSTYLE_DIMEXT_ENABLED
 70
     0
  0
APPID
  5
1D6
330
14
100
AcDbSymbolTableRecord
100
AcDbRegAppTableRecord
  2
ACAD_DSTYLE_DIM_LINETYPE
 70
     0
  0
APPID
  5
1D7
330
14
100
AcDbSymbolTableRecord
100
AcDbRegAppTableRecord
  2
ACAD_DSTYLE_DIM_EXT1_LINETYPE
 70
     0
  0
APPID
  5
1D8
330
14
100
AcDbSymbolTableRecord
100
AcDbRegAppTableRecord
  2
ACAD_DSTYLE_DIM_EXT2_LINETYPE
 70
     0
  0
APPID
  5
294
330
14
100
AcDbSymbolTableRecord
100
AcDbRegAppTableRecord
  2
ACAD_DSTYLE_DIMJOGGED_JOGANGLE_SYMBOL
 70
     0
  0
APPID
  5
478
330
14
100
AcDbSymbolTableRecord
100
AcDbRegAppTableRecord
  2
ACAD_DSTYLE_DIMARC_LENGTH_SYMBOL
 70
     0
  0
APPID
  5
157B
330
14
100
AcDbSymbolTableRecord
100
AcDbRegAppTableRecord
  2
ACAD_EXEMPT_FROM_CAD_STANDARDS
 70
     0
  0
APPID
  5
5228
330
14
100
AcDbSymbolTableRecord
100
AcDbRegAppTableRecord
  2
ACAD_PSEXT
 70
     0
  0
ENDTAB
  0
TABLE
  2
DIMSTYLE
  5
16
330
0
100
AcDbSymbolTable
 70
     2
100
AcDbDimStyleTable
 71
     1
340
1E
  0
DIMSTYLE
105
1E
102
{ACAD_REACTORS
330
6D13
330
6D20
102
}
330
16
100
AcDbSymbolTableRecord
100
AcDbDimStyleTableRecord
  2
STANDARD
 70
     0
340
C
  0
ENDTAB
  0
TABLE
  2
BLOCK_RECORD
  5
1
330
0
100
AcDbSymbolTable
 70
    23
  0
BLOCK_RECORD
  5
2
102
{ACAD_XDICTIONARY
360
1578
102
}
330
1
100
AcDbSymbolTableRecord
100
AcDbBlockTableRecord
  2
*MODEL_SPACE
340
5A
  0
BLOCK_RECORD
  5
7
330
1
100
AcDbSymbolTableRecord
100
AcDbBlockTableRecord
  2
*PAPER_SPACE
340
5B
  0
BLOCK_RECORD
  5
109
330
1
100
AcDbSymbolTableRecord
100
AcDbBlockTableRecord
  2
_Dot
340
0
102
{BLKREFS
331
5FA4
331
5FA5
331
5FB1
331
5FB2
331
61BD
331
61BE
331
61C6
331
61C7
331
63F3
331
63F4
331
6405
331
6406
331
657D
331
657E
331
658F
331
6590
331
6758
331
6759
331
676A
331
676B
331
69DA
331
69DB
331
69EC
331
69ED
331
6C3C
331
6C3D
331
6C57
331
6C58
331
6D70
331
6D71
331
6D82
331
6D83
102
}
  0
BLOCK_RECORD
  5
62DB
330
1
100
AcDbSymbolTableRecord
100
AcDbBlockTableRecord
  2
*D5
340
0
  0
BLOCK_RECORD
  5
62E8
330
1
100
AcDbSymbolTableRecord
100
AcDbBlockTableRecord
  2
*D6
340
0
  0
BLOCK_RECORD
  5
651C
330
1
100
AcDbSymbolTableRecord
100
AcDbBlockTableRecord
  2
*D9
340
0
  0
BLOCK_RECORD
  5
6529
330
1
100
AcDbSymbolTableRecord
100
AcDbBlockTableRecord
  2
*D10
340
0
  0
BLOCK_RECORD
  5
66ED
330
1
100
AcDbSymbolTableRecord
100
AcDbBlockTableRecord
  2
*D12
340
0
  0
BLOCK_RECORD
  5
66FA
330
1
100
AcDbSymbolTableRecord
100
AcDbBlockTableRecord
  2
*D13
340
0
  0
BLOCK_RECORD
  5
6970
330
1
100
AcDbSymbolTableRecord
100
AcDbBlockTableRecord
  2
*D15
340
0
  0
BLOCK_RECORD
  5
697D
330
1
100
AcDbSymbolTableRecord
100
AcDbBlockTableRecord
  2
*D16
340
0
  0
BLOCK_RECORD
  5
6BE1
330
1
100
AcDbSymbolTableRecord
100
AcDbBlockTableRecord
  2
*D18
340
0
  0
BLOCK_RECORD
  5
6BEE
330
1
100
AcDbSymbolTableRecord
100
AcDbBlockTableRecord
  2
*D19
340
0
  0
BLOCK_RECORD
  5
6D14
330
1
100
AcDbSymbolTableRecord
100
AcDbBlockTableRecord
  2
*D21
340
0
  0
BLOCK_RECORD
  5
6D21
330
1
100
AcDbSymbolTableRecord
100
AcDbBlockTableRecord
  2
*D22
340
0
  0
ENDTAB
  0
ENDSEC
  0
SECTION
  2
BLOCKS
  0
BLOCK
  5
3
330
2
100
AcDbEntity
  8
0
100
AcDbBlockBegin
  2
*MODEL_SPACE
 70
     0
 10
0.0
 20
0.0
 30
0.0
  3
*MODEL_SPACE
  1

  0
ENDBLK
  5
6
330
2
100
AcDbEntity
  8
0
100
AcDbBlockEnd
  0
BLOCK
  5
8
330
7
100
AcDbEntity
 67
     1
  8
0
100
AcDbBlockBegin
  2
*PAPER_SPACE
 70
     0
 10
0.0
 20
0.0
 30
0.0
  3
*PAPER_SPACE
  1

  0
ENDBLK
  5
9
330
7
100
AcDbEntity
 67
     1
  8
0
100
AcDbBlockEnd
  0
BLOCK
  5
10C
330
109
100
AcDbEntity
  8
0
100
AcDbBlockBegin
  2
_Dot
 70
     0
 10
0.0
 20
0.0
 30
0.0
  3
_Dot
  1

  0
LWPOLYLINE
  5
10A
330
109
100
AcDbEntity
  8
0
  6
ByBlock
 62
     0
100
AcDbPolyline
 90
        2
 70
     1
 43
0.5
 10
-0.25
 20
0.0
 42
1.0
 10
0.25
 20
0.0
 42
1.0
  0
LINE
  5
10B
330
109
100
AcDbEntity
  8
0
  6
ByBlock
 62
     0
370
    -2
100
AcDbLine
 10
-0.5
 20
0.0
 30
0.0
 11
-1.0
 21
0.0
 31
0.0
  0
ENDBLK
  5
10D
330
109
100
AcDbEntity
  8
0
100
AcDbBlockEnd
  0
BLOCK
  5
62E5
330
62DB
100
AcDbEntity
  8
0
100
AcDbBlockBegin
  2
*D5
 70
     1
 10
0.0
 20
0.0
 30
0.0
  3
*D5
  1

  0
LINE
  5
6402
330
62DB
100
AcDbEntity
  8
SUNPOU
 62
    70
370
    -2
100
AcDbLine
 10
-85.42716796114975
 20
121.4737171718616
 30
0.0
 11
-85.42716796114975
 21
142.4176355462473
 31
0.0
  0
LINE
  5
6403
330
62DB
100
AcDbEntity
  8
SUNPOU
 62
    70
370
    -2
100
AcDbLine
 10
216.5728320388502
 20
119.4224477702546
 30
0.0
 11
216.5728320388502
 21
142.4176355462473
 31
0.0
  0
LINE
  5
6404
330
62DB
100
AcDbEntity
  8
SUNPOU
 62
    60
370
    -2
100
AcDbLine
 10
-83.42716796114975
 20
142.4176355462473
 30
0.0
 11
214.5728320388503
 21
142.4176355462473
 31
0.0
  0
INSERT
  5
6405
330
62DB
100
AcDbEntity
  8
SUNPOU
 62
    60
370
    -2
100
AcDbBlockReference
  2
_Dot
 10
-85.42716796114975
 20
142.4176355462473
 30
0.0
 41
2.0
 42
2.0
 43
2.0
 50
180.0
  0
INSERT
  5
6406
330
62DB
100
AcDbEntity
  8
SUNPOU
 62
    60
370
    -2
100
AcDbBlockReference
  2
_Dot
 10
216.5728320388502
 20
142.4176355462473
 30
0.0
 41
2.0
 42
2.0
 43
2.0
  0
MTEXT
  5
6407
330
62DB
100
AcDbEntity
  8
SUNPOU
 62
    60
100
AcDbMText
 10
65.57283203885027
 20
150.4176355462473
 30
0.0
 40
10.0
 41
0.0
 71
     5
 72
     1
  1
\A1;302
  7
SUNPOU
 73
     1
 44
1.0
1001
ACAD
1000
MTEXTBEGIN
1070
    73
1070
     1
1070
    44
1040
1.0
1070
    74
1070
     0
1000
MTEXTEND
  0
POINT
  5
6408
330
62DB
100
AcDbEntity
  8
DEFPOINTS
 62
     0
100
AcDbPoint
 10
-85.42716796114975
 20
111.4737171718616
 30
0.0
  0
POINT
  5
6409
330
62DB
100
AcDbEntity
  8
DEFPOINTS
 62
     0
100
AcDbPoint
 10
216.5728320388502
 20
109.4224477702546
 30
0.0
  0
POINT
  5
640A
330
62DB
100
AcDbEntity
  8
DEFPOINTS
 62
     0
100
AcDbPoint
 10
216.5728320388502
 20
142.4176355462473
 30
0.0
  0
ENDBLK
  5
62E6
330
62DB
100
AcDbEntity
  8
0
100
AcDbBlockEnd
  0
BLOCK
  5
62F2
330
62E8
100
AcDbEntity
  8
0
100
AcDbBlockBegin
  2
*D6
 70
     1
 10
0.0
 20
0.0
 30
0.0
  3
*D6
  1

  0
LINE
  5
63F0
330
62E8
100
AcDbEntity
  8
SUNPOU
 62
    70
370
    -2
100
AcDbLine
 10
-95.42716796114975
 20
111.4737171718616
 30
0.0
 11
-112.5311197901296
 21
111.4737171718616
 31
0.0
  0
LINE
  5
63F1
330
62E8
100
AcDbEntity
  8
SUNPOU
 62
    70
370
    -2
100
AcDbLine
 10
-96.42086172002109
 20
51.47371717186161
 30
0.0
 11
-112.5311197901296
 21
51.47371717186162
 31
0.0
  0
LINE
  5
63F2
330
62E8
100
AcDbEntity
  8
SUNPOU
 62
    60
370
    -2
100
AcDbLine
 10
-112.5311197901296
 20
109.4737171718616
 30
0.0
 11
-112.5311197901296
 21
53.47371717186162
 31
0.0
  0
INSERT
  5
63F3
330
62E8
100
AcDbEntity
  8
SUNPOU
 62
    60
370
    -2
100
AcDbBlockReference
  2
_Dot
 10
-112.5311197901296
 20
111.4737171718616
 30
0.0
 41
2.0
 42
2.0
 43
2.0
 50
90.0
  0
INSERT
  5
63F4
330
62E8
100
AcDbEntity
  8
SUNPOU
 62
    60
370
    -2
100
AcDbBlockReference
  2
_Dot
 10
-112.5311197901296
 20
51.47371717186162
 30
0.0
 41
2.0
 42
2.0
 43
2.0
 50
270.0
  0
MTEXT
  5
63F5
330
62E8
100
AcDbEntity
  8
SUNPOU
 62
    60
100
AcDbMText
 10
-120.5311197901296
 20
81.47371717186162
 30
0.0
 40
10.0
 41
0.0
 71
     5
 72
     1
  1
\A1;60
  7
SUNPOU
 11
0.0000000000000001
 21
1.0
 31
0.0
 73
     1
 44
1.0
1001
ACAD
1000
MTEXTBEGIN
1070
    73
1070
     1
1070
    44
1040
1.0
1070
    74
1070
     0
1000
MTEXTEND
  0
POINT
  5
63F6
330
62E8
100
AcDbEntity
  8
DEFPOINTS
 62
     0
100
AcDbPoint
 10
-85.42716796114975
 20
111.4737171718616
 30
0.0
  0
POINT
  5
63F7
330
62E8
100
AcDbEntity
  8
DEFPOINTS
 62
     0
100
AcDbPoint
 10
-86.42086172002109
 20
51.47371717186161
 30
0.0
  0
POINT
  5
63F8
330
62E8
100
AcDbEntity
  8
DEFPOINTS
 62
     0
100
AcDbPoint
 10
-112.5311197901296
 20
51.47371717186162
 30
0.0
  0
ENDBLK
  5
62F3
330
62E8
100
AcDbEntity
  8
0
100
AcDbBlockEnd
  0
BLOCK
  5
6526
330
651C
100
AcDbEntity
  8
0
100
AcDbBlockBegin
  2
*D9
 70
     1
 10
0.0
 20
0.0
 30
0.0
  3
*D9
  1

  0
LINE
  5
658C
330
651C
100
AcDbEntity
  8
SUNPOU
 62
    70
370
    -2
100
AcDbLine
 10
-136.8324480859921
 20
135.3095965443211
 30
0.0
 11
-136.8324480859921
 21
163.8989039910901
 31
0.0
  0
LINE
  5
658D
330
651C
100
AcDbEntity
  8
SUNPOU
 62
    70
370
    -2
100
AcDbLine
 10
283.1675519140079
 20
138.3714950539507
 30
0.0
 11
283.1675519140079
 21
163.8989039910901
 31
0.0
  0
LINE
  5
658E
330
651C
100
AcDbEntity
  8
SUNPOU
 62
    60
370
    -2
100
AcDbLine
 10
-134.8324480859921
 20
163.8989039910901
 30
0.0
 11
281.1675519140079
 21
163.8989039910901
 31
0.0
  0
INSERT
  5
658F
330
651C
100
AcDbEntity
  8
SUNPOU
 62
    60
370
    -2
100
AcDbBlockReference
  2
_Dot
 10
-136.8324480859921
 20
163.8989039910901
 30
0.0
 41
2.0
 42
2.0
 43
2.0
 50
180.0
  0
INSERT
  5
6590
330
651C
100
AcDbEntity
  8
SUNPOU
 62
    60
370
    -2
100
AcDbBlockReference
  2
_Dot
 10
283.1675519140079
 20
163.8989039910901
 30
0.0
 41
2.0
 42
2.0
 43
2.0
  0
MTEXT
  5
6591
330
651C
100
AcDbEntity
  8
SUNPOU
 62
    60
100
AcDbMText
 10
73.16755191400784
 20
171.8989039910901
 30
0.0
 40
10.0
 41
0.0
 71
     5
 72
     1
  1
\A1;420
  7
SUNPOU
 73
     1
 44
1.0
1001
ACAD
1000
MTEXTBEGIN
1070
    73
1070
     1
1070
    44
1040
1.0
1070
    74
1070
     0
1000
MTEXTEND
  0
POINT
  5
6592
330
651C
100
AcDbEntity
  8
DEFPOINTS
 62
     0
100
AcDbPoint
 10
-136.8324480859921
 20
125.3095965443211
 30
0.0
  0
POINT
  5
6593
330
651C
100
AcDbEntity
  8
DEFPOINTS
 62
     0
100
AcDbPoint
 10
283.1675519140079
 20
128.3714950539507
 30
0.0
  0
POINT
  5
6594
330
651C
100
AcDbEntity
  8
DEFPOINTS
 62
     0
100
AcDbPoint
 10
283.1675519140079
 20
163.8989039910901
 30
0.0
  0
ENDBLK
  5
6527
330
651C
100
AcDbEntity
  8
0
100
AcDbBlockEnd
  0
BLOCK
  5
6533
330
6529
100
AcDbEntity
  8
0
100
AcDbBlockBegin
  2
*D10
 70
     1
 10
0.0
 20
0.0
 30
0.0
  3
*D10
  1

  0
LINE
  5
657A
330
6529
100
AcDbEntity
  8
SUNPOU
 62
    70
370
    -2
100
AcDbLine
 10
-146.8324480859921
 20
125.3095965443211
 30
0.0
 11
-173.7561393165434
 21
125.3095965443211
 31
0.0
  0
LINE
  5
657B
330
6529
100
AcDbEntity
  8
SUNPOU
 62
    70
370
    -2
100
AcDbLine
 10
-147.8194886196872
 20
40.30959654432172
 30
0.0
 11
-173.7561393165434
 21
40.30959654432172
 31
0.0
  0
LINE
  5
657C
330
6529
100
AcDbEntity
  8
SUNPOU
 62
    60
370
    -2
100
AcDbLine
 10
-173.7561393165434
 20
123.3095965443211
 30
0.0
 11
-173.7561393165434
 21
42.30959654432172
 31
0.0
  0
INSERT
  5
657D
330
6529
100
AcDbEntity
  8
SUNPOU
 62
    60
370
    -2
100
AcDbBlockReference
  2
_Dot
 10
-173.7561393165434
 20
125.3095965443211
 30
0.0
 41
2.0
 42
2.0
 43
2.0
 50
90.0
  0
INSERT
  5
657E
330
6529
100
AcDbEntity
  8
SUNPOU
 62
    60
370
    -2
100
AcDbBlockReference
  2
_Dot
 10
-173.7561393165434
 20
40.30959654432172
 30
0.0
 41
2.0
 42
2.0
 43
2.0
 50
270.0
  0
MTEXT
  5
657F
330
6529
100
AcDbEntity
  8
SUNPOU
 62
    60
100
AcDbMText
 10
-181.7561393165435
 20
82.80959654432139
 30
0.0
 40
10.0
 41
0.0
 71
     5
 72
     1
  1
\A1;85
  7
SUNPOU
 11
0.0000000000000001
 21
1.0
 31
0.0
 73
     1
 44
1.0
1001
ACAD
1000
MTEXTBEGIN
1070
    73
1070
     1
1070
    44
1040
1.0
1070
    74
1070
     0
1000
MTEXTEND
  0
POINT
  5
6580
330
6529
100
AcDbEntity
  8
DEFPOINTS
 62
     0
100
AcDbPoint
 10
-136.8324480859921
 20
125.3095965443211
 30
0.0
  0
POINT
  5
6581
330
6529
100
AcDbEntity
  8
DEFPOINTS
 62
     0
100
AcDbPoint
 10
-137.8194886196872
 20
40.30959654432172
 30
0.0
  0
POINT
  5
6582
330
6529
100
AcDbEntity
  8
DEFPOINTS
 62
     0
100
AcDbPoint
 10
-173.7561393165434
 20
40.30959654432172
 30
0.0
  0
ENDBLK
  5
6534
330
6529
100
AcDbEntity
  8
0
100
AcDbBlockEnd
  0
BLOCK
  5
66F7
330
66ED
100
AcDbEntity
  8
0
100
AcDbBlockBegin
  2
*D12
 70
     1
 10
0.0
 20
0.0
 30
0.0
  3
*D12
  1

  0
LINE
  5
6755
330
66ED
100
AcDbEntity
  8
SUNPOU
 62
    70
370
    -2
100
AcDbLine
 10
-1.779532207315014
 20
46.69111642556379
 30
0.0
 11
-32.32032960348217
 21
46.69111642556379
 31
0.0
  0
LINE
  5
6756
330
66ED
100
AcDbEntity
  8
SUNPOU
 62
    70
370
    -2
100
AcDbLine
 10
-3.869570361668479
 20
160.6911164255638
 30
0.0
 11
-32.32032960348214
 21
160.6911164255638
 31
0.0
  0
LINE
  5
6757
330
66ED
100
AcDbEntity
  8
SUNPOU
 62
    60
370
    -2
100
AcDbLine
 10
-32.32032960348217
 20
48.69111642556379
 30
0.0
 11
-32.32032960348214
 21
158.6911164255638
 31
0.0
  0
INSERT
  5
6758
330
66ED
100
AcDbEntity
  8
SUNPOU
 62
    60
370
    -2
100
AcDbBlockReference
  2
_Dot
 10
-32.32032960348217
 20
46.69111642556379
 30
0.0
 41
2.0
 42
2.0
 43
2.0
 50
270.0
  0
INSERT
  5
6759
330
66ED
100
AcDbEntity
  8
SUNPOU
 62
    60
370
    -2
100
AcDbBlockReference
  2
_Dot
 10
-32.32032960348214
 20
160.6911164255638
 30
0.0
 41
2.0
 42
2.0
 43
2.0
 50
90.0
  0
MTEXT
  5
675A
330
66ED
100
AcDbEntity
  8
SUNPOU
 62
    60
100
AcDbMText
 10
-40.32032960348217
 20
103.6911164255638
 30
0.0
 40
10.0
 41
0.0
 71
     5
 72
     1
  1
\A1;114
  7
SUNPOU
 11
0.0000000000000001
 21
1.0
 31
0.0
 73
     1
 44
1.0
1001
ACAD
1000
MTEXTBEGIN
1070
    73
1070
     1
1070
    44
1040
1.0
1070
    74
1070
     0
1000
MTEXTEND
  0
POINT
  5
675B
330
66ED
100
AcDbEntity
  8
DEFPOINTS
 62
     0
100
AcDbPoint
 10
8.220467792684985
 20
46.69111642556379
 30
0.0
  0
POINT
  5
675C
330
66ED
100
AcDbEntity
  8
DEFPOINTS
 62
     0
100
AcDbPoint
 10
6.13042963833152
 20
160.6911164255638
 30
0.0
  0
POINT
  5
675D
330
66ED
100
AcDbEntity
  8
DEFPOINTS
 62
     0
100
AcDbPoint
 10
-32.32032960348214
 20
160.6911164255638
 30
0.0
  0
ENDBLK
  5
66F8
330
66ED
100
AcDbEntity
  8
0
100
AcDbBlockEnd
  0
BLOCK
  5
6704
330
66FA
100
AcDbEntity
  8
0
100
AcDbBlockBegin
  2
*D13
 70
     1
 10
0.0
 20
0.0
 30
0.0
  3
*D13
  1

  0
LINE
  5
6767
330
66FA
100
AcDbEntity
  8
SUNPOU
 62
    70
370
    -2
100
AcDbLine
 10
6.130429638331521
 20
170.6911164255638
 30
0.0
 11
6.130429638331522
 21
188.3480242701968
 31
0.0
  0
LINE
  5
6768
330
66FA
100
AcDbEntity
  8
SUNPOU
 62
    70
370
    -2
100
AcDbLine
 10
131.1304296383315
 20
173.8700759424145
 30
0.0
 11
131.1304296383315
 21
188.3480242701968
 31
0.0
  0
LINE
  5
6769
330
66FA
100
AcDbEntity
  8
SUNPOU
 62
    60
370
    -2
100
AcDbLine
 10
8.130429638331522
 20
188.3480242701968
 30
0.0
 11
129.1304296383315
 21
188.3480242701968
 31
0.0
  0
INSERT
  5
676A
330
66FA
100
AcDbEntity
  8
SUNPOU
 62
    60
370
    -2
100
AcDbBlockReference
  2
_Dot
 10
6.130429638331522
 20
188.3480242701968
 30
0.0
 41
2.0
 42
2.0
 43
2.0
 50
180.0
  0
INSERT
  5
676B
330
66FA
100
AcDbEntity
  8
SUNPOU
 62
    60
370
    -2
100
AcDbBlockReference
  2
_Dot
 10
131.1304296383315
 20
188.3480242701968
 30
0.0
 41
2.0
 42
2.0
 43
2.0
  0
MTEXT
  5
676C
330
66FA
100
AcDbEntity
  8
SUNPOU
 62
    60
100
AcDbMText
 10
68.63042963833152
 20
196.3480242701968
 30
0.0
 40
10.0
 41
0.0
 71
     5
 72
     1
  1
\A1;125
  7
SUNPOU
 73
     1
 44
1.0
1001
ACAD
1000
MTEXTBEGIN
1070
    73
1070
     1
1070
    44
1040
1.0
1070
    74
1070
     0
1000
MTEXTEND
  0
POINT
  5
676D
330
66FA
100
AcDbEntity
  8
DEFPOINTS
 62
     0
100
AcDbPoint
 10
6.13042963833152
 20
160.6911164255638
 30
0.0
  0
POINT
  5
676E
330
66FA
100
AcDbEntity
  8
DEFPOINTS
 62
     0
100
AcDbPoint
 10
131.1304296383315
 20
163.8700759424144
 30
0.0
  0
POINT
  5
676F
330
66FA
100
AcDbEntity
  8
DEFPOINTS
 62
     0
100
AcDbPoint
 10
131.1304296383315
 20
188.3480242701968
 30
0.0
  0
ENDBLK
  5
6705
330
66FA
100
AcDbEntity
  8
0
100
AcDbBlockEnd
  0
BLOCK
  5
697A
330
6970
100
AcDbEntity
  8
0
100
AcDbBlockBegin
  2
*D15
 70
     1
 10
0.0
 20
0.0
 30
0.0
  3
*D15
  1

  0
LINE
  5
69E9
330
6970
100
AcDbEntity
  8
SUNPOU
 62
    70
370
    -2
100
AcDbLine
 10
-130.9769609984037
 20
156.7042797114769
 30
0.0
 11
-130.9769609984037
 21
182.5066692205532
 31
0.0
  0
LINE
  5
69EA
330
6970
100
AcDbEntity
  8
SUNPOU
 62
    70
370
    -2
100
AcDbLine
 10
289.0230390015963
 20
158.0193343355014
 30
0.0
 11
289.0230390015963
 21
182.5066692205532
 31
0.0
  0
LINE
  5
69EB
330
6970
100
AcDbEntity
  8
SUNPOU
 62
    60
370
    -2
100
AcDbLine
 10
-128.9769609984037
 20
182.5066692205532
 30
0.0
 11
287.0230390015963
 21
182.5066692205532
 31
0.0
  0
INSERT
  5
69EC
330
6970
100
AcDbEntity
  8
SUNPOU
 62
    60
370
    -2
100
AcDbBlockReference
  2
_Dot
 10
-130.9769609984037
 20
182.5066692205532
 30
0.0
 41
2.0
 42
2.0
 43
2.0
 50
180.0
  0
INSERT
  5
69ED
330
6970
100
AcDbEntity
  8
SUNPOU
 62
    60
370
    -2
100
AcDbBlockReference
  2
_Dot
 10
289.0230390015963
 20
182.5066692205532
 30
0.0
 41
2.0
 42
2.0
 43
2.0
  0
MTEXT
  5
69EE
330
6970
100
AcDbEntity
  8
SUNPOU
 62
    60
100
AcDbMText
 10
79.02303900159632
 20
190.5066692205532
 30
0.0
 40
10.0
 41
0.0
 71
     5
 72
     1
  1
\A1;420
  7
SUNPOU
 73
     1
 44
1.0
1001
ACAD
1000
MTEXTBEGIN
1070
    73
1070
     1
1070
    44
1040
1.0
1070
    74
1070
     0
1000
MTEXTEND
  0
POINT
  5
69EF
330
6970
100
AcDbEntity
  8
DEFPOINTS
 62
     0
100
AcDbPoint
 10
-130.9769609984037
 20
146.7042797114769
 30
0.0
  0
POINT
  5
69F0
330
6970
100
AcDbEntity
  8
DEFPOINTS
 62
     0
100
AcDbPoint
 10
289.0230390015963
 20
148.0193343355014
 30
0.0
  0
POINT
  5
69F1
330
6970
100
AcDbEntity
  8
DEFPOINTS
 62
     0
100
AcDbPoint
 10
289.0230390015963
 20
182.5066692205532
 30
0.0
  0
ENDBLK
  5
697B
330
6970
100
AcDbEntity
  8
0
100
AcDbBlockEnd
  0
BLOCK
  5
6987
330
697D
100
AcDbEntity
  8
0
100
AcDbBlockBegin
  2
*D16
 70
     1
 10
0.0
 20
0.0
 30
0.0
  3
*D16
  1

  0
LINE
  5
69D7
330
697D
100
AcDbEntity
  8
SUNPOU
 62
    70
370
    -2
100
AcDbLine
 10
-140.9769609984037
 20
146.7042797114769
 30
0.0
 11
-179.1664650259927
 21
146.7042797114769
 31
0.0
  0
LINE
  5
69D8
330
697D
100
AcDbEntity
  8
SUNPOU
 62
    70
370
    -2
100
AcDbLine
 10
-139.9262582361066
 20
51.70427971147688
 30
0.0
 11
-179.1664650259927
 21
51.7042797114769
 31
0.0
  0
LINE
  5
69D9
330
697D
100
AcDbEntity
  8
SUNPOU
 62
    60
370
    -2
100
AcDbLine
 10
-179.1664650259927
 20
144.7042797114769
 30
0.0
 11
-179.1664650259927
 21
53.7042797114769
 31
0.0
  0
INSERT
  5
69DA
330
697D
100
AcDbEntity
  8
SUNPOU
 62
    60
370
    -2
100
AcDbBlockReference
  2
_Dot
 10
-179.1664650259927
 20
146.7042797114769
 30
0.0
 41
2.0
 42
2.0
 43
2.0
 50
90.0
  0
INSERT
  5
69DB
330
697D
100
AcDbEntity
  8
SUNPOU
 62
    60
370
    -2
100
AcDbBlockReference
  2
_Dot
 10
-179.1664650259927
 20
51.7042797114769
 30
0.0
 41
2.0
 42
2.0
 43
2.0
 50
270.0
  0
MTEXT
  5
69DC
330
697D
100
AcDbEntity
  8
SUNPOU
 62
    60
100
AcDbMText
 10
-187.1664650259927
 20
99.2042797114769
 30
0.0
 40
10.0
 41
0.0
 71
     5
 72
     1
  1
\A1;95
  7
SUNPOU
 11
0.0000000000000001
 21
1.0
 31
0.0
 73
     1
 44
1.0
1001
ACAD
1000
MTEXTBEGIN
1070
    73
1070
     1
1070
    44
1040
1.0
1070
    74
1070
     0
1000
MTEXTEND
  0
POINT
  5
69DD
330
697D
100
AcDbEntity
  8
DEFPOINTS
 62
     0
100
AcDbPoint
 10
-130.9769609984037
 20
146.7042797114769
 30
0.0
  0
POINT
  5
69DE
330
697D
100
AcDbEntity
  8
DEFPOINTS
 62
     0
100
AcDbPoint
 10
-129.9262582361066
 20
51.70427971147688
 30
0.0
  0
POINT
  5
69DF
330
697D
100
AcDbEntity
  8
DEFPOINTS
 62
     0
100
AcDbPoint
 10
-179.1664650259927
 20
51.7042797114769
 30
0.0
  0
ENDBLK
  5
6988
330
697D
100
AcDbEntity
  8
0
100
AcDbBlockEnd
  0
BLOCK
  5
6BEB
330
6BE1
100
AcDbEntity
  8
0
100
AcDbBlockBegin
  2
*D18
 70
     1
 10
0.0
 20
0.0
 30
0.0
  3
*D18
  1

  0
LINE
  5
6C39
330
6BE1
100
AcDbEntity
  8
SUNPOU
 62
    70
370
    -2
100
AcDbLine
 10
-131.6592584309973
 20
200.2270842764356
 30
0.0
 11
-131.6592584309973
 21
238.6555696630281
 31
0.0
  0
LINE
  5
6C3A
330
6BE1
100
AcDbEntity
  8
SUNPOU
 62
    70
370
    -2
100
AcDbLine
 10
253.3407415690027
 20
200.2270842764356
 30
0.0
 11
253.3407415690027
 21
238.6555696630281
 31
0.0
  0
LINE
  5
6C3B
330
6BE1
100
AcDbEntity
  8
SUNPOU
 62
    60
370
    -2
100
AcDbLine
 10
-129.6592584309973
 20
238.6555696630281
 30
0.0
 11
251.3407415690027
 21
238.6555696630281
 31
0.0
  0
INSERT
  5
6C3C
330
6BE1
100
AcDbEntity
  8
SUNPOU
 62
    60
370
    -2
100
AcDbBlockReference
  2
_Dot
 10
-131.6592584309973
 20
238.6555696630281
 30
0.0
 41
2.0
 42
2.0
 43
2.0
 50
180.0
  0
INSERT
  5
6C3D
330
6BE1
100
AcDbEntity
  8
SUNPOU
 62
    60
370
    -2
100
AcDbBlockReference
  2
_Dot
 10
253.3407415690027
 20
238.6555696630281
 30
0.0
 41
2.0
 42
2.0
 43
2.0
  0
MTEXT
  5
6C3E
330
6BE1
100
AcDbEntity
  8
SUNPOU
 62
    60
100
AcDbMText
 10
60.84074156900268
 20
246.6555696630281
 30
0.0
 40
10.0
 41
0.0
 71
     5
 72
     1
  1
\A1;385
  7
SUNPOU
 73
     1
 44
1.0
1001
ACAD
1000
MTEXTBEGIN
1070
    73
1070
     1
1070
    44
1040
1.0
1070
    74
1070
     0
1000
MTEXTEND
  0
POINT
  5
6C3F
330
6BE1
100
AcDbEntity
  8
DEFPOINTS
 62
     0
100
AcDbPoint
 10
-131.6592584309973
 20
190.2270842764356
 30
0.0
  0
POINT
  5
6C40
330
6BE1
100
AcDbEntity
  8
DEFPOINTS
 62
     0
100
AcDbPoint
 10
253.3407415690027
 20
190.2270842764356
 30
0.0
  0
POINT
  5
6C41
330
6BE1
100
AcDbEntity
  8
DEFPOINTS
 62
     0
100
AcDbPoint
 10
253.3407415690027
 20
238.6555696630281
 30
0.0
  0
ENDBLK
  5
6BEC
330
6BE1
100
AcDbEntity
  8
0
100
AcDbBlockEnd
  0
BLOCK
  5
6BF8
330
6BEE
100
AcDbEntity
  8
0
100
AcDbBlockBegin
  2
*D19
 70
     1
 10
0.0
 20
0.0
 30
0.0
  3
*D19
  1

  0
LINE
  5
6C54
330
6BEE
100
AcDbEntity
  8
SUNPOU
 62
    70
370
    -2
100
AcDbLine
 10
-142.1007168125511
 20
195.4244008577638
 30
0.0
 11
-159.137702196172
 21
195.4244008577638
 31
0.0
  0
LINE
  5
6C55
330
6BEE
100
AcDbEntity
  8
SUNPOU
 62
    70
370
    -2
100
AcDbLine
 10
-135.8654635120085
 20
60.42440085776383
 30
0.0
 11
-159.1377021961721
 21
60.42440085776384
 31
0.0
  0
LINE
  5
6C56
330
6BEE
100
AcDbEntity
  8
SUNPOU
 62
    60
370
    -2
100
AcDbLine
 10
-159.137702196172
 20
193.4244008577638
 30
0.0
 11
-159.1377021961721
 21
62.42440085776383
 31
0.0
  0
INSERT
  5
6C57
330
6BEE
100
AcDbEntity
  8
SUNPOU
 62
    60
370
    -2
100
AcDbBlockReference
  2
_Dot
 10
-159.137702196172
 20
195.4244008577638
 30
0.0
 41
2.0
 42
2.0
 43
2.0
 50
90.0
  0
INSERT
  5
6C58
330
6BEE
100
AcDbEntity
  8
SUNPOU
 62
    60
370
    -2
100
AcDbBlockReference
  2
_Dot
 10
-159.1377021961721
 20
60.42440085776384
 30
0.0
 41
2.0
 42
2.0
 43
2.0
 50
270.0
  0
MTEXT
  5
6C59
330
6BEE
100
AcDbEntity
  8
SUNPOU
 62
    60
100
AcDbMText
 10
-167.1377021961721
 20
127.9244008577638
 30
0.0
 40
10.0
 41
0.0
 71
     5
 72
     1
  1
\A1;135
  7
SUNPOU
 11
0.0000000000000001
 21
1.0
 31
0.0
 73
     1
 44
1.0
1001
ACAD
1000
MTEXTBEGIN
1070
    73
1070
     1
1070
    44
1040
1.0
1070
    74
1070
     0
1000
MTEXTEND
  0
POINT
  5
6C5A
330
6BEE
100
AcDbEntity
  8
DEFPOINTS
 62
     0
100
AcDbPoint
 10
-132.1007168125511
 20
195.4244008577638
 30
0.0
  0
POINT
  5
6C5B
330
6BEE
100
AcDbEntity
  8
DEFPOINTS
 62
     0
100
AcDbPoint
 10
-125.8654635120085
 20
60.42440085776383
 30
0.0
  0
POINT
  5
6C5C
330
6BEE
100
AcDbEntity
  8
DEFPOINTS
 62
     0
100
AcDbPoint
 10
-159.1377021961721
 20
60.42440085776384
 30
0.0
  0
ENDBLK
  5
6BF9
330
6BEE
100
AcDbEntity
  8
0
100
AcDbBlockEnd
  0
BLOCK
  5
6D1E
330
6D14
100
AcDbEntity
  8
0
100
AcDbBlockBegin
  2
*D21
 70
     1
 10
0.0
 20
0.0
 30
0.0
  3
*D21
  1

  0
LINE
  5
6D7F
330
6D14
100
AcDbEntity
  8
SUNPOU
 62
    70
370
    -2
100
AcDbLine
 10
40.02079058755966
 20
182.5615403501002
 30
0.0
 11
40.02079058755966
 21
207.8524639354928
 31
0.0
  0
LINE
  5
6D80
330
6D14
100
AcDbEntity
  8
SUNPOU
 62
    70
370
    -2
100
AcDbLine
 10
95.02079058755965
 20
183.5201678509866
 30
0.0
 11
95.02079058755965
 21
207.8524639354928
 31
0.0
  0
LINE
  5
6D81
330
6D14
100
AcDbEntity
  8
SUNPOU
 62
    60
370
    -2
100
AcDbLine
 10
42.02079058755965
 20
207.8524639354928
 30
0.0
 11
93.02079058755966
 21
207.8524639354928
 31
0.0
  0
INSERT
  5
6D82
330
6D14
100
AcDbEntity
  8
SUNPOU
 62
    60
370
    -2
100
AcDbBlockReference
  2
_Dot
 10
40.02079058755966
 20
207.8524639354928
 30
0.0
 41
2.0
 42
2.0
 43
2.0
 50
180.0
  0
INSERT
  5
6D83
330
6D14
100
AcDbEntity
  8
SUNPOU
 62
    60
370
    -2
100
AcDbBlockReference
  2
_Dot
 10
95.02079058755965
 20
207.8524639354928
 30
0.0
 41
2.0
 42
2.0
 43
2.0
  0
MTEXT
  5
6D84
330
6D14
100
AcDbEntity
  8
SUNPOU
 62
    60
100
AcDbMText
 10
67.52079058755966
 20
215.8524639354928
 30
0.0
 40
10.0
 41
0.0
 71
     5
 72
     1
  1
\A1;55
  7
SUNPOU
 73
     1
 44
1.0
1001
ACAD
1000
MTEXTBEGIN
1070
    73
1070
     1
1070
    44
1040
1.0
1070
    74
1070
     0
1000
MTEXTEND
  0
POINT
  5
6D85
330
6D14
100
AcDbEntity
  8
DEFPOINTS
 62
     0
100
AcDbPoint
 10
40.02079058755966
 20
172.5615403501001
 30
0.0
  0
POINT
  5
6D86
330
6D14
100
AcDbEntity
  8
DEFPOINTS
 62
     0
100
AcDbPoint
 10
95.02079058755965
 20
173.5201678509866
 30
0.0
  0
POINT
  5
6D87
330
6D14
100
AcDbEntity
  8
DEFPOINTS
 62
     0
100
AcDbPoint
 10
95.02079058755965
 20
207.8524639354928
 30
0.0
  0
ENDBLK
  5
6D1F
330
6D14
100
AcDbEntity
  8
0
100
AcDbBlockEnd
  0
BLOCK
  5
6D2B
330
6D21
100
AcDbEntity
  8
0
100
AcDbBlockBegin
  2
*D22
 70
     1
 10
0.0
 20
0.0
 30
0.0
  3
*D22
  1

  0
LINE
  5
6D6D
330
6D21
100
AcDbEntity
  8
SUNPOU
 62
    70
370
    -2
100
AcDbLine
 10
57.66138975240823
 20
172.5615403501001
 30
0.0
 11
6.061357679313021
 21
172.5615403501001
 31
0.0
  0
LINE
  5
6D6E
330
6D21
100
AcDbEntity
  8
SUNPOU
 62
    70
370
    -2
100
AcDbLine
 10
57.52079058755967
 20
28.56154035010013
 30
0.0
 11
6.061357679312989
 21
28.56154035010015
 31
0.0
  0
LINE
  5
6D6F
330
6D21
100
AcDbEntity
  8
SUNPOU
 62
    60
370
    -2
100
AcDbLine
 10
6.061357679313023
 20
170.5615403501001
 30
0.0
 11
6.061357679312992
 21
30.56154035010015
 31
0.0
  0
INSERT
  5
6D70
330
6D21
100
AcDbEntity
  8
SUNPOU
 62
    60
370
    -2
100
AcDbBlockReference
  2
_Dot
 10
6.061357679313023
 20
172.5615403501001
 30
0.0
 41
2.0
 42
2.0
 43
2.0
 50
90.0
  0
INSERT
  5
6D71
330
6D21
100
AcDbEntity
  8
SUNPOU
 62
    60
370
    -2
100
AcDbBlockReference
  2
_Dot
 10
6.061357679312991
 20
28.56154035010015
 30
0.0
 41
2.0
 42
2.0
 43
2.0
 50
270.0
  0
MTEXT
  5
6D72
330
6D21
100
AcDbEntity
  8
SUNPOU
 62
    60
100
AcDbMText
 10
-1.938642320687008
 20
100.5615403501001
 30
0.0
 40
10.0
 41
0.0
 71
     5
 72
     1
  1
\A1;144
  7
SUNPOU
 11
0.0000000000000001
 21
1.0
 31
0.0
 73
     1
 44
1.0
1001
ACAD
1000
MTEXTBEGIN
1070
    73
1070
     1
1070
    44
1040
1.0
1070
    74
1070
     0
1000
MTEXTEND
  0
POINT
  5
6D73
330
6D21
100
AcDbEntity
  8
DEFPOINTS
 62
     0
100
AcDbPoint
 10
67.66138975240824
 20
172.5615403501001
 30
0.0
  0
POINT
  5
6D74
330
6D21
100
AcDbEntity
  8
DEFPOINTS
 62
     0
100
AcDbPoint
 10
67.52079058755966
 20
28.56154035010013
 30
0.0
  0
POINT
  5
6D75
330
6D21
100
AcDbEntity
  8
DEFPOINTS
 62
     0
100
AcDbPoint
 10
6.061357679312991
 20
28.56154035010015
 30
0.0
  0
ENDBLK
  5
6D2C
330
6D21
100
AcDbEntity
  8
0
100
AcDbBlockEnd
  0
ENDSEC
  0
SECTION
  2
ENTITIES
  0
LINE
  5
1F
330
2
100
AcDbEntity
  8
WAKU
100
AcDbLine
 10
0.0
 20
14.0
 30
0.0
 11
141.2350666841796
 21
14.0
 31
0.0
  0
LINE
  5
20
330
2
100
AcDbEntity
  8
WAKU
100
AcDbLine
 10
0.0
 20
0.0
 30
0.0
 11
141.2350666841796
 21
0.0
 31
0.0
  0
TEXT
  5
21
330
2
100
AcDbEntity
  8
HOJO
100
AcDbText
 10
9.653966000000025
 20
2.366626000000024
 30
0.0
 40
9.0
  1
TK603
  7
SUNPOU
100
AcDbText
  0
TEXT
  5
23
330
2
100
AcDbEntity
  8
HOJO
100
AcDbText
 10
75.65253479254602
 20
5.044386000000031
 30
0.0
 40
6.0
  1
55×144×9
  7
SUNPOU
100
AcDbText
  0
ARC
  5
6CC1
102
{ACAD_REACTORS
330
6D88
102
}
330
2
100
AcDbEntity
  8
KIJUN
100
AcDbCircle
 10
60.06110785518961
 20
45.2427632604048
 30
0.0
 40
18.27320618421664
100
AcDbArc
 50
294.0937350007011
 51
17.86816784233895
  0
ARC
  5
6CC2
102
{ACAD_REACTORS
330
6D88
102
}
330
2
100
AcDbEntity
  8
KIJUN
100
AcDbCircle
 10
42.53705341563613
 20
58.0357023590042
 30
0.0
 40
16.1186092759966
100
AcDbArc
 50
289.8346306458415
 51
359.0279046160617
  0
ARC
  5
6CC3
102
{ACAD_REACTORS
330
6D88
102
}
330
2
100
AcDbEntity
  8
KIJUN
100
AcDbCircle
 10
60.12508346304935
 20
46.34657205765529
 30
0.0
 40
13.77858960193182
100
AcDbArc
 50
143.3478633201262
 51
196.8982574628551
  0
ARC
  5
6CC4
102
{ACAD_REACTORS
330
6D88
102
}
330
2
100
AcDbEntity
  8
KIJUN
100
AcDbCircle
 10
74.98047331993856
 20
45.24276326040505
 30
0.0
 40
18.27320618422048
100
AcDbArc
 50
162.1318321576657
 51
245.9062649992739
  0
ARC
  5
6CC5
102
{ACAD_REACTORS
330
6D88
102
}
330
2
100
AcDbEntity
  8
KIJUN
100
AcDbCircle
 10
29.00590737858625
 20
44.35754281263709
 30
0.0
 40
40.0345627913342
100
AcDbArc
 50
350.0508605779387
 51
14.41672827864455
  0
ARC
  5
6CC6
102
{ACAD_REACTORS
330
6D88
102
}
330
2
100
AcDbEntity
  8
KIJUN
100
AcDbCircle
 10
108.5922710024836
 20
42.16640645191371
 30
0.0
 40
42.15329265082246
100
AcDbArc
 50
169.6769779405989
 51
191.873018577111
  0
ARC
  5
6CC7
102
{ACAD_REACTORS
330
6D88
102
}
330
2
100
AcDbEntity
  8
KIJUN
100
AcDbCircle
 10
74.91649771207517
 20
46.34657205765529
 30
0.0
 40
13.77858960193182
100
AcDbArc
 50
343.1017425371449
 51
36.65213667987383
  0
ARC
  5
6CC8
102
{ACAD_REACTORS
330
6D88
102
}
330
2
100
AcDbEntity
  8
KIJUN
100
AcDbCircle
 10
92.50452775948838
 20
58.0357023590042
 30
0.0
 40
16.1186092759966
100
AcDbArc
 50
180.9720953839383
 51
250.1653693541585
  0
ARC
  5
6CC9
102
{ACAD_REACTORS
330
6D88
102
}
330
2
100
AcDbEntity
  8
KIJUN
100
AcDbCircle
 10
88.49107196382623
 20
143.5819209602816
 30
0.0
 40
48.10925571395081
100
AcDbArc
 50
147.0718602555033
 51
204.0068286207734
  0
ARC
  5
6CCA
102
{ACAD_REACTORS
330
6D88
102
}
330
2
100
AcDbEntity
  8
KIJUN
100
AcDbCircle
 10
46.0995745341822
 20
94.68411320927613
 30
0.0
 40
6.078783946622553
100
AcDbArc
 50
337.4762579152825
 51
270.0
  0
ARC
  5
6CCB
102
{ACAD_REACTORS
330
6D88
102
}
330
2
100
AcDbEntity
  8
KIJUN
100
AcDbCircle
 10
103.9200199736072
 20
104.3030514746026
 30
0.0
 40
29.97602090798455
100
AcDbArc
 50
131.3142410346594
 51
216.0779798511046
  0
CIRCLE
  5
6CCC
102
{ACAD_REACTORS
330
6D88
102
}
330
2
100
AcDbEntity
  8
KIJUN
100
AcDbCircle
 10
68.32221285222181
 20
122.9398406769343
 30
0.0
 40
8.067554138850589
  0
ARC
  5
6CCD
102
{ACAD_REACTORS
330
6D88
102
}
330
2
100
AcDbEntity
  8
KIJUN
100
AcDbCircle
 10
35.10773646877783
 20
105.8077153949836
 30
0.0
 40
20.23481174394889
100
AcDbArc
 50
335.095565272574
 51
64.09214554894126
  0
ARC
  5
6CCE
102
{ACAD_REACTORS
330
6D88
102
}
330
2
100
AcDbEntity
  8
KIJUN
100
AcDbCircle
 10
31.12156120151599
 20
104.3030514746026
 30
0.0
 40
29.97602090798455
100
AcDbArc
 50
323.9220201488954
 51
48.68575896534061
  0
ARC
  5
6CCF
102
{ACAD_REACTORS
330
6D88
102
}
330
2
100
AcDbEntity
  8
KIJUN
100
AcDbCircle
 10
99.93384470634623
 20
105.8077153949836
 30
0.0
 40
20.23481174394889
100
AcDbArc
 50
115.9078544510587
 51
204.904434727426
  0
ARC
  5
6CD0
102
{ACAD_REACTORS
330
6D88
102
}
330
2
100
AcDbEntity
  8
KIJUN
100
AcDbCircle
 10
88.94200664093711
 20
94.68411320927613
 30
0.0
 40
6.078783946622553
100
AcDbArc
 50
270.0
 51
202.5237420847167
  0
ARC
  5
6CD1
102
{ACAD_REACTORS
330
6D88
102
}
330
2
100
AcDbEntity
  8
KIJUN
100
AcDbCircle
 10
104.1804943211271
 20
99.3952146057984
 30
0.0
 40
33.81393648313329
100
AcDbArc
 50
198.5918459640691
 51
226.7895938049697
  0
ARC
  5
6CD2
102
{ACAD_REACTORS
330
6D88
102
}
330
2
100
AcDbEntity
  8
KIJUN
100
AcDbCircle
 10
74.08300766118668
 20
69.84223299054071
 30
0.0
 40
1.883637687216746
100
AcDbArc
 50
205.9959375319259
 51
67.91638058834178
  0
ARC
  5
6CD3
102
{ACAD_REACTORS
330
6D88
102
}
330
2
100
AcDbEntity
  8
KIJUN
100
AcDbCircle
 10
73.50855513594002
 20
52.02921048864489
 30
0.0
 40
2.241461783903925
100
AcDbArc
 50
188.6080619755313
 51
39.26809543978023
  0
ARC
  5
6CD4
102
{ACAD_REACTORS
330
6D88
102
}
330
2
100
AcDbEntity
  8
KIJUN
100
AcDbCircle
 10
99.40897059309305
 20
73.56992620434181
 30
0.0
 40
28.16069909954667
100
AcDbArc
 50
194.3851622022962
 51
215.2157346302466
  0
ARC
  5
6CD5
102
{ACAD_REACTORS
330
6D88
102
}
330
2
100
AcDbEntity
  8
KIJUN
100
AcDbCircle
 10
113.2915572549179
 20
91.52794024328821
 30
0.0
 40
43.35773429237885
100
AcDbArc
 50
164.1287425256638
 51
207.3807121250875
  0
ARC
  5
6CD6
102
{ACAD_REACTORS
330
6D88
102
}
330
2
100
AcDbEntity
  8
KIJUN
100
AcDbCircle
 10
103.7639742679741
 20
72.39933290433149
 30
0.0
 40
34.24253226492172
100
AcDbArc
 50
178.3217669361453
 51
213.6037395846976
  0
CIRCLE
  5
6CD7
102
{ACAD_REACTORS
330
6D88
102
}
330
2
100
AcDbEntity
  8
KIJUN
100
AcDbCircle
 10
68.04478883799015
 20
108.5349625110777
 30
0.0
 40
6.250144675099575
  0
ARC
  5
6CD8
102
{ACAD_REACTORS
330
6D88
102
}
330
2
100
AcDbEntity
  8
KIJUN
100
AcDbCircle
 10
33.31954622750596
 20
91.9010054454395
 30
0.0
 40
19.50760750356986
100
AcDbArc
 50
300.8977987194146
 51
326.5884333862037
  0
ARC
  5
6CD9
102
{ACAD_REACTORS
330
6D88
102
}
330
2
100
AcDbEntity
  8
KIJUN
100
AcDbCircle
 10
49.33712429600996
 20
90.8029198828609
 30
0.0
 40
9.647435753636036
100
AcDbArc
 50
234.0159520912592
 51
313.6117362759442
  0
ARC
  5
6CDA
102
{ACAD_REACTORS
330
6D88
102
}
330
2
100
AcDbEntity
  8
KIJUN
100
AcDbCircle
 10
4.08543695932235
 20
91.0468672786229
 30
0.0
 40
56.07765147464193
100
AcDbArc
 50
338.0979215054804
 51
356.0587963207524
  0
ARC
  5
6CDB
102
{ACAD_REACTORS
330
6D88
102
}
330
2
100
AcDbEntity
  8
KIJUN
100
AcDbCircle
 10
21.7500239202052
 20
91.52794024328821
 30
0.0
 40
43.35773429237885
100
AcDbArc
 50
332.6192878749125
 51
17.84742708213025
  0
ARC
  5
6CDC
102
{ACAD_REACTORS
330
6D88
102
}
330
2
100
AcDbEntity
  8
KIJUN
100
AcDbCircle
 10
36.36193035829524
 20
68.97523603181261
 30
0.0
 40
18.81333972305034
100
AcDbArc
 50
298.5189932765019
 51
343.4348125467789
  0
ARC
  5
6CDD
102
{ACAD_REACTORS
330
6D88
102
}
330
2
100
AcDbEntity
  8
KIJUN
100
AcDbCircle
 10
46.14294780333807
 20
80.65546447016828
 30
0.0
 40
14.50540351057066
100
AcDbArc
 50
262.6198231177806
 51
315.6973541022629
  0
ARC
  5
6CDE
102
{ACAD_REACTORS
330
6D88
102
}
330
2
100
AcDbEntity
  8
KIJUN
100
AcDbCircle
 10
39.76064982157209
 20
79.84578298825562
 30
0.0
 40
13.80444521427807
100
AcDbArc
 50
289.1087023060162
 51
325.9648960664609
  0
ARC
  5
6CDF
102
{ACAD_REACTORS
330
6D88
102
}
330
2
100
AcDbEntity
  8
KIJUN
100
AcDbCircle
 10
48.1283536194012
 20
77.54071681235481
 30
0.0
 40
6.364617797169473
100
AcDbArc
 50
217.1133111535785
 51
334.2751008933238
  0
ARC
  5
6CE0
102
{ACAD_REACTORS
330
6D88
102
}
330
2
100
AcDbEntity
  8
KIJUN
100
AcDbCircle
 10
55.74383056131705
 20
76.63305298153329
 30
0.0
 40
10.28240223598457
100
AcDbArc
 50
312.2067891658586
 51
13.90148001541264
  0
ARC
  5
6CE1
102
{ACAD_REACTORS
330
6D88
102
}
330
2
100
AcDbEntity
  8
KIJUN
100
AcDbCircle
 10
61.37398881427748
 20
70.23020872090839
 30
0.0
 40
1.76215047939247
100
AcDbArc
 50
129.6147511385455
 51
316.4729307411339
  0
ARC
  5
6CE2
102
{ACAD_REACTORS
330
6D88
102
}
330
2
100
AcDbEntity
  8
KIJUN
100
AcDbCircle
 10
61.53302603918314
 20
52.02921048864489
 30
0.0
 40
2.241461783903925
100
AcDbArc
 50
140.7319045602197
 51
351.3919380244686
  0
ARC
  5
6CE3
102
{ACAD_REACTORS
330
6D88
102
}
330
2
100
AcDbEntity
  8
KIJUN
100
AcDbCircle
 10
-149.1400341425944
 20
99.16744862930872
 30
0.0
 40
218.1183101678783
100
AcDbArc
 50
347.4288817262201
 51
353.7958186925699
  0
ARC
  5
6CE4
102
{ACAD_REACTORS
330
6D88
102
}
330
2
100
AcDbEntity
  8
KIJUN
100
AcDbCircle
 10
31.27760690715036
 20
72.39933290433149
 30
0.0
 40
34.24253226492172
100
AcDbArc
 50
326.3962604153023
 51
1.678233063854661
  0
ARC
  5
6CE5
102
{ACAD_REACTORS
330
6D88
102
}
330
2
100
AcDbEntity
  8
KIJUN
100
AcDbCircle
 10
53.35248912568864
 20
57.23046583885139
 30
0.0
 40
9.316416319827146
100
AcDbArc
 50
121.1127148741355
 51
203.5492018606171
  0
ARC
  5
6CE6
102
{ACAD_REACTORS
330
6D88
102
}
330
2
100
AcDbEntity
  8
KIJUN
100
AcDbCircle
 10
43.85037258968464
 20
74.30374254321228
 30
0.0
 40
1.0
100
AcDbArc
 50
120.8977987194411
 51
217.1133111535521
  0
ARC
  5
6CE7
102
{ACAD_REACTORS
330
6D88
102
}
330
2
100
AcDbEntity
  8
KIJUN
100
AcDbCircle
 10
48.9738101407631
 20
93.7899911796558
 30
0.0
 40
3.093541073489983
100
AcDbArc
 50
136.4499452905652
 51
332.3743005192454
  0
ARC
  5
6CE8
102
{ACAD_REACTORS
330
6D88
102
}
330
2
100
AcDbEntity
  8
KIJUN
100
AcDbCircle
 10
50.2382128474494
 20
96.27728549807219
 30
0.0
 40
9.089044659239011
100
AcDbArc
 50
237.57438571563
 51
351.6736898452563
  0
ARC
  5
6CEA
102
{ACAD_REACTORS
330
6D88
102
}
330
2
100
AcDbEntity
  8
KIJUN
100
AcDbCircle
 10
198.3336502897621
 20
104.8064337331872
 30
0.0
 40
131.1888998928715
100
AcDbArc
 50
181.595129284266
 51
189.4020969875585
  0
ARC
  5
6CEB
102
{ACAD_REACTORS
330
6D88
102
}
330
2
100
AcDbEntity
  8
KIJUN
100
AcDbCircle
 10
46.8874377685504
 20
89.46902047929521
 30
0.0
 40
20.48353731418876
100
AcDbArc
 50
337.6066590789262
 51
16.6617763945836
  0
ARC
  5
6CEC
102
{ACAD_REACTORS
330
6D88
102
}
330
2
100
AcDbEntity
  8
KIJUN
100
AcDbCircle
 10
33.85931148052871
 20
101.9047515115583
 30
0.0
 40
20.24849346386987
100
AcDbArc
 50
331.8617114441287
 51
346.3072842628033
  0
ARC
  5
6CED
102
{ACAD_REACTORS
330
6D88
102
}
330
2
100
AcDbEntity
  8
KIJUN
100
AcDbCircle
 10
33.12436586208628
 20
101.9047515115583
 30
0.0
 40
20.24849346386987
100
AcDbArc
 50
301.5935421723573
 51
315.1273728285201
  0
ARC
  5
6CEE
102
{ACAD_REACTORS
330
6D88
102
}
330
2
100
AcDbEntity
  8
KIJUN
100
AcDbCircle
 10
44.25623706720648
 20
83.80558252630562
 30
0.0
 40
1.0
100
AcDbArc
 50
121.5935421723573
 51
234.0159520912914
  0
ARC
  5
6CEF
102
{ACAD_REACTORS
330
6D88
102
}
330
2
100
AcDbEntity
  8
KIJUN
100
AcDbCircle
 10
79.29775061380792
 20
76.63305298153329
 30
0.0
 40
10.28240223598457
100
AcDbArc
 50
166.0985199845874
 51
227.7932108341414
  0
ARC
  5
6CF0
102
{ACAD_REACTORS
330
6D88
102
}
330
2
100
AcDbEntity
  8
KIJUN
100
AcDbCircle
 10
284.1816153177171
 20
99.16744862930872
 30
0.0
 40
218.1183101678783
100
AcDbArc
 50
186.2041813074293
 51
192.5711182737796
  0
ARC
  5
6CF1
102
{ACAD_REACTORS
330
6D88
102
}
330
2
100
AcDbEntity
  8
KIJUN
100
AcDbCircle
 10
85.70445687911457
 20
90.8029198828609
 30
0.0
 40
9.647435753636036
100
AcDbArc
 50
226.3882637240557
 51
313.6117362759442
  0
ARC
  5
6CF2
102
{ACAD_REACTORS
330
6D88
102
}
330
2
100
AcDbEntity
  8
KIJUN
100
AcDbCircle
 10
101.7220349476186
 20
91.9010054454395
 30
0.0
 40
19.50760750356986
100
AcDbArc
 50
213.4115666137962
 51
244.8247695465511
  0
ARC
  5
6CF3
102
{ACAD_REACTORS
330
6D88
102
}
330
2
100
AcDbEntity
  8
KIJUN
100
AcDbCircle
 10
86.91322755572333
 20
77.54071681235481
 30
0.0
 40
6.364617797169473
100
AcDbArc
 50
205.7248991066756
 51
328.8287533378333
  0
ARC
  5
6CF4
102
{ACAD_REACTORS
330
6D88
102
}
330
2
100
AcDbEntity
  8
KIJUN
100
AcDbCircle
 10
81.68909204943588
 20
57.23046583885139
 30
0.0
 40
9.316416319827146
100
AcDbArc
 50
336.4507981393829
 51
58.88728512586443
  0
ARC
  5
6CF5
102
{ACAD_REACTORS
330
6D88
102
}
330
2
100
AcDbEntity
  8
KIJUN
100
AcDbCircle
 10
101.9172153130369
 20
101.9047515115583
 30
0.0
 40
20.24849346386987
100
AcDbArc
 50
224.8726271714796
 51
240.110059762845
  0
ARC
  5
6CF6
102
{ACAD_REACTORS
330
6D88
102
}
330
2
100
AcDbEntity
  8
KIJUN
100
AcDbCircle
 10
95.28093135355106
 20
79.84578298825562
 30
0.0
 40
13.80444521427807
100
AcDbArc
 50
214.0351039335391
 51
250.8912976939838
  0
ARC
  5
6CF7
102
{ACAD_REACTORS
330
6D88
102
}
330
2
100
AcDbEntity
  8
KIJUN
100
AcDbCircle
 10
88.8986333717869
 20
80.65546447016828
 30
0.0
 40
14.50540351057066
100
AcDbArc
 50
224.3026458977372
 51
277.3801768822194
  0
ARC
  5
6CF8
102
{ACAD_REACTORS
330
6D88
102
}
330
2
100
AcDbEntity
  8
KIJUN
100
AcDbCircle
 10
86.06777103435348
 20
93.7899911796558
 30
0.0
 40
3.093541073489983
100
AcDbArc
 50
207.6256994807547
 51
43.55005470943477
  0
ARC
  5
6CF9
102
{ACAD_REACTORS
330
6D88
102
}
330
2
100
AcDbEntity
  8
KIJUN
100
AcDbCircle
 10
98.67965081682928
 20
68.97523603181261
 30
0.0
 40
18.81333972305034
100
AcDbArc
 50
196.565187453221
 51
241.4810067234981
  0
ARC
  5
6CFA
102
{ACAD_REACTORS
330
6D88
102
}
330
2
100
AcDbEntity
  8
KIJUN
100
AcDbCircle
 10
84.80336832767193
 20
96.27728549807219
 30
0.0
 40
9.089044659239011
100
AcDbArc
 50
188.3263101547432
 51
302.4256142843701
  0
ARC
  5
6CFB
102
{ACAD_REACTORS
330
6D88
102
}
330
2
100
AcDbEntity
  8
KIJUN
100
AcDbCircle
 10
101.182269694587
 20
101.9047515115583
 30
0.0
 40
20.24849346386987
100
AcDbArc
 50
193.6927157371967
 51
208.1382885558711
  0
ARC
  5
6CFC
102
{ACAD_REACTORS
330
6D88
102
}
330
2
100
AcDbEntity
  8
KIJUN
100
AcDbCircle
 10
46.55050921129691
 20
143.5819209602816
 30
0.0
 40
48.10925571395081
100
AcDbArc
 50
335.9931713792266
 51
32.9281397444963
  0
ARC
  5
6CFD
102
{ACAD_REACTORS
330
6D88
102
}
330
2
100
AcDbEntity
  8
KIJUN
100
AcDbCircle
 10
80.58616932276141
 20
157.4329513981593
 30
0.0
 40
7.947389698701057
100
AcDbArc
 50
204.5572418399732
 51
300.6444458765606
  0
ARC
  5
6CFE
102
{ACAD_REACTORS
330
6D88
102
}
330
2
100
AcDbEntity
  8
KIJUN
100
AcDbCircle
 10
82.55657531907422
 20
164.4487389165736
 30
0.0
 40
10.10964188323281
100
AcDbArc
 50
200.4249897781281
 51
262.3202184335081
  0
ARC
  5
6CFF
102
{ACAD_REACTORS
330
6D88
102
}
330
2
100
AcDbEntity
  8
KIJUN
100
AcDbCircle
 10
67.32339207448126
 20
146.3591920810834
 30
0.0
 40
6.867038618618992
100
AcDbArc
 50
202.3560164303392
 51
335.6360164361719
  0
ARC
  5
6D00
102
{ACAD_REACTORS
330
6D88
102
}
330
2
100
AcDbEntity
  8
KIJUN
100
AcDbCircle
 10
67.52079058755966
 20
162.0569242487583
 30
0.0
 40
10.5046161013418
100
AcDbArc
 50
33.82737876053047
 51
146.1726212394276
  0
ARC
  5
6D01
102
{ACAD_REACTORS
330
6D88
102
}
330
2
100
AcDbEntity
  8
KIJUN
100
AcDbCircle
 10
86.00606418220626
 20
144.6982865041519
 30
0.0
 40
39.38705181438696
100
AcDbArc
 50
154.8374207702685
 51
206.9981983110896
  0
LINE
  5
6D02
102
{ACAD_REACTORS
330
6D88
102
}
330
2
100
AcDbEntity
  8
KIJUN
100
AcDbLine
 10
50.91138177821062
 20
126.8180427252828
 30
0.0
 11
46.75128834098427
 21
125.4330024902976
 31
0.0
  0
ARC
  5
6D03
102
{ACAD_REACTORS
330
6D88
102
}
330
2
100
AcDbEntity
  8
KIJUN
100
AcDbCircle
 10
53.40852487486995
 20
163.6070699869707
 30
0.0
 40
3.688293586151537
100
AcDbArc
 50
74.64052906321417
 51
221.517033927442
  0
ARC
  5
6D04
102
{ACAD_REACTORS
330
6D88
102
}
330
2
100
AcDbEntity
  8
KIJUN
100
AcDbCircle
 10
53.01296108170368
 20
166.2516534466378
 30
0.0
 40
6.013147946346959
100
AcDbArc
 50
347.8293515500143
 51
144.6173221686027
  0
ARC
  5
6D05
102
{ACAD_REACTORS
330
6D88
102
}
330
2
100
AcDbEntity
  8
KIJUN
100
AcDbCircle
 10
62.74238660122932
 20
149.5512497560541
 30
0.0
 40
6.808964869311268
100
AcDbArc
 50
180.5078905321713
 51
259.1673892307034
  0
ARC
  5
6D06
102
{ACAD_REACTORS
330
6D88
102
}
330
2
100
AcDbEntity
  8
KIJUN
100
AcDbCircle
 10
54.45541185236312
 20
157.4329513981593
 30
0.0
 40
7.947389698701057
100
AcDbArc
 50
239.3555541234394
 51
335.4427581600269
  0
ARC
  5
6D07
102
{ACAD_REACTORS
330
6D88
102
}
330
2
100
AcDbEntity
  8
KIJUN
100
AcDbCircle
 10
155.9871411338151
 20
145.2342507695596
 30
0.0
 40
91.13043996732011
100
AcDbArc
 50
173.1822639072616
 51
182.7216708456005
  0
ARC
  5
6D08
102
{ACAD_REACTORS
330
6D88
102
}
330
2
100
AcDbEntity
  8
KIJUN
100
AcDbCircle
 10
54.23943349568094
 20
164.2153422251814
 30
0.0
 40
4.714595981247837
100
AcDbArc
 50
220.3586355691868
 51
9.382496826197481
  0
ARC
  5
6D09
102
{ACAD_REACTORS
330
6D88
102
}
330
2
100
AcDbEntity
  8
KIJUN
100
AcDbCircle
 10
59.33129165491641
 20
155.6915602122774
 30
0.0
 40
10.26392099833023
100
AcDbArc
 50
147.7910847624879
 51
206.9662870909443
  0
ARC
  5
6D0A
102
{ACAD_REACTORS
330
6D88
102
}
330
2
100
AcDbEntity
  8
KIJUN
100
AcDbCircle
 10
49.35969824406242
 20
168.2995374065977
 30
0.0
 40
14.34791566428952
100
AcDbArc
 50
291.7240755403673
 51
333.9673750317472
  0
ARC
  5
6D0B
102
{ACAD_REACTORS
330
6D88
102
}
330
2
100
AcDbEntity
  8
KIJUN
100
AcDbCircle
 10
50.34227144514421
 20
152.8198984994471
 30
0.0
 40
19.85792032106646
100
AcDbArc
 50
334.1208854338047
 51
17.39640376118466
  0
ARC
  5
6D0C
102
{ACAD_REACTORS
330
6D88
102
}
330
2
100
AcDbEntity
  8
KIJUN
100
AcDbCircle
 10
49.03551699291643
 20
144.6982865041519
 30
0.0
 40
39.38705181438696
100
AcDbArc
 50
333.0018016889103
 51
25.16257922973144
  0
LINE
  5
6D0D
102
{ACAD_REACTORS
330
6D88
102
}
330
2
100
AcDbEntity
  8
KIJUN
100
AcDbLine
 10
84.13019939691343
 20
126.8180427252828
 30
0.0
 11
88.29029283413934
 21
125.4330024902976
 31
0.0
  0
ARC
  5
6D0E
102
{ACAD_REACTORS
330
6D88
102
}
330
2
100
AcDbEntity
  8
KIJUN
100
AcDbCircle
 10
82.02862009342174
 20
166.2516534466378
 30
0.0
 40
6.013147946346959
100
AcDbArc
 50
35.38267783139725
 51
192.1706484499857
  0
ARC
  5
6D0F
102
{ACAD_REACTORS
330
6D88
102
}
330
2
100
AcDbEntity
  8
KIJUN
100
AcDbCircle
 10
81.6330563002532
 20
163.6070699869707
 30
0.0
 40
3.688293586151537
100
AcDbArc
 50
318.482966072558
 51
105.3594709367858
  0
ARC
  5
6D10
102
{ACAD_REACTORS
330
6D88
102
}
330
2
100
AcDbEntity
  8
KIJUN
100
AcDbCircle
 10
72.29919457389155
 20
149.5512497560541
 30
0.0
 40
6.808964869311268
100
AcDbArc
 50
280.8326107692967
 51
359.4921094678286
  0
ARC
  5
6D11
102
{ACAD_REACTORS
330
6D88
102
}
330
2
100
AcDbEntity
  8
KIJUN
100
AcDbCircle
 10
80.80214767944221
 20
164.2153422251814
 30
0.0
 40
4.714595981247837
100
AcDbArc
 50
170.6175031738025
 51
319.6413644308131
  0
ARC
  5
6D12
102
{ACAD_REACTORS
330
6D88
102
}
330
2
100
AcDbEntity
  8
KIJUN
100
AcDbCircle
 10
75.71028952020447
 20
155.6915602122774
 30
0.0
 40
10.26392099833023
100
AcDbArc
 50
333.0337129090557
 51
32.2089152375121
  0
DIMENSION
  5
6D13
330
2
100
AcDbEntity
  8
SUNPOU
100
AcDbDimension
  2
*D21
 10
95.02079058755965
 20
207.8524639354928
 30
0.0
 11
67.52079058755966
 21
215.8524639354928
 31
0.0
 70
    32
 71
     5
 42
55.0
  3
STANDARD
100
AcDbAlignedDimension
 13
40.02079058755966
 23
172.5615403501001
 33
0.0
 14
95.02079058755965
 24
173.5201678509866
 34
0.0
100
AcDbRotatedDimension
1001
ACAD
1000
DSTYLE
1002
{
1070
    41
1040
2.0
1070
    42
1040
10.0
1070
    44
1040
0.0
1070
    73
1070
     0
1070
    74
1070
     0
1070
    77
1070
     1
1070
   140
1040
10.0
1070
   141
1040
0.0
1070
   146
1040
0.064286
1070
   147
1040
3.0
1070
   176
1070
    60
1070
   177
1070
    70
1070
   178
1070
    60
1070
   271
1070
     0
1070
   272
1070
     0
1070
   340
1005
1C
1070
   342
1005
109
1002
}
  0
DIMENSION
  5
6D20
330
2
100
AcDbEntity
  8
SUNPOU
100
AcDbDimension
  2
*D22
 10
6.061357679312991
 20
28.56154035010015
 30
0.0
 11
-1.938642320687008
 21
100.5615403501001
 31
0.0
 70
    32
 71
     5
 42
144.0
  3
STANDARD
100
AcDbAlignedDimension
 13
67.66138975240824
 23
172.5615403501001
 33
0.0
 14
67.52079058755966
 24
28.56154035010013
 34
0.0
 50
90.0
100
AcDbRotatedDimension
1001
ACAD
1000
DSTYLE
1002
{
1070
    41
1040
2.0
1070
    42
1040
10.0
1070
    44
1040
0.0
1070
    73
1070
     0
1070
    74
1070
     0
1070
    77
1070
     1
1070
   140
1040
10.0
1070
   141
1040
0.0
1070
   146
1040
0.064286
1070
   147
1040
3.0
1070
   176
1070
    60
1070
   177
1070
    70
1070
   178
1070
    60
1070
   271
1070
     0
1070
   272
1070
     0
1070
   340
1005
1C
1070
   342
1005
109
1002
}
  0
ENDSEC
  0
SECTION
  2
OBJECTS
  0
DICTIONARY
  5
1A
330
0
100
AcDbDictionary
281
     1
  3
ACAD_COLOR
350
144
  3
ACAD_GROUP
350
18
  3
ACAD_LAYOUT
350
58
  3
ACAD_MATERIAL
350
143
  3
ACAD_MLINESTYLE
350
19
  3
ACAD_PLOTSETTINGS
350
59
  3
ACAD_PLOTSTYLENAME
350
56
  3
ACAD_TABLESTYLE
350
145
  3
ACDBHEADERROUNDTRIPXREC
350
6D8A
  3
AcDbVariableDictionary
350
1D1
  0
DICTIONARY
  5
1B4
330
A
100
AcDbDictionary
280
     1
281
     1
  3
ACAD_LAYERFILTERS
360
6359
  3
ACLYDICTIONARY
360
6358
  0
DICTIONARY
  5
1578
330
2
100
AcDbDictionary
280
     1
281
     1
  3
ACAD_SORTENTS
360
1579
  0
DICTIONARY
  5
144
102
{ACAD_REACTORS
330
1A
102
}
330
1A
100
AcDbDictionary
281
     1
  0
DICTIONARY
  5
18
102
{ACAD_REACTORS
330
1A
102
}
330
1A
100
AcDbDictionary
281
     1
  3
*A1
350
CFC
  3
*A10
350
5075
  3
*A11
350
5141
  3
*A12
350
481A
  3
*A13
350
5167
  3
*A14
350
218C
  3
*A15
350
527D
  3
*A16
350
3FA3
  3
*A17
350
52B3
  3
*A18
350
3154
  3
*A19
350
327B
  3
*A2
350
2FBC
  3
*A20
350
32AA
  3
*A21
350
2FE9
  3
*A22
350
3650
  3
*A23
350
2862
  3
*A24
350
367C
  3
*A25
350
18ED
  3
*A26
350
19E5
  3
*A27
350
1F8A
  3
*A28
350
1682
  3
*A29
350
2108
  3
*A3
350
4989
  3
*A30
350
3732
  3
*A31
350
563B
  3
*A32
350
38C3
  3
*A33
350
39C3
  3
*A34
350
37CF
  3
*A35
350
2335
  3
*A36
350
3AB4
  3
*A37
350
3BBC
  3
*A38
350
58EE
  3
*A39
350
5A5E
  3
*A4
350
3D8C
  3
*A40
350
419F
  3
*A41
350
5AF5
  3
*A42
350
439B
  3
*A43
350
4590
  3
*A44
350
312A
  3
*A45
350
299B
  3
*A46
350
46F3
  3
*A47
350
61CC
  3
*A48
350
2C07
  3
*A49
350
2DB5
  3
*A5
350
4B40
  3
*A50
350
1827
  3
*A51
350
2E88
  3
*A52
350
640B
  3
*A53
350
6570
  3
*A54
350
674B
  3
*A55
350
69F2
  3
*A56
350
6C5D
  3
*A57
350
6D88
  3
*A6
350
15D1
  3
*A7
350
4CED
  3
*A8
350
3837
  3
*A9
350
4EB3
  0
DICTIONARY
  5
58
102
{ACAD_REACTORS
330
1A
102
}
330
1A
100
AcDbDictionary
281
     1
  3
Model
350
5A
  3
ﾚｲｱｳﾄ1
350
5B
  0
DICTIONARY
  5
143
102
{ACAD_REACTORS
330
1A
102
}
330
1A
100
AcDbDictionary
281
     1
  0
DICTIONARY
  5
19
102
{ACAD_REACTORS
330
1A
102
}
330
1A
100
AcDbDictionary
281
     1
  3
STANDARD
350
1D
  0
DICTIONARY
  5
59
102
{ACAD_REACTORS
330
1A
102
}
330
1A
100
AcDbDictionary
281
     1
  0
ACDBDICTIONARYWDFLT
  5
56
102
{ACAD_REACTORS
330
1A
102
}
330
1A
100
AcDbDictionary
281
     1
  3
Normal
350
57
100
AcDbDictionaryWithDefault
340
57
  0
DICTIONARY
  5
145
102
{ACAD_REACTORS
330
1A
102
}
330
1A
100
AcDbDictionary
281
     1
  3
Standard
350
146
  0
DICTIONARY
  5
6D8A
102
{ACAD_REACTORS
330
1A
102
}
330
1A
100
AcDbDictionary
281
     1
  0
DICTIONARY
  5
1D1
102
{ACAD_REACTORS
330
1A
102
}
330
1A
100
AcDbDictionary
281
     1
  3
CTABLESTYLE
350
1D2
  3
DIMASSOC
350
D03
  3
PROJECTNAME
350
D04
  0
DICTIONARY
  5
6359
102
{ACAD_REACTORS
330
1B4
102
}
330
1B4
100
AcDbDictionary
281
     1
  0
DICTIONARY
  5
6358
102
{ACAD_REACTORS
330
1B4
102
}
330
1B4
100
AcDbDictionary
281
     1
1001
ACAD
1000
<All
  0
SORTENTSTABLE
  5
1579
102
{ACAD_REACTORS
330
1578
102
}
330
1578
100
AcDbSortentsTable
330
2
331
20
  5
20
331
21
  5
21
331
23
  5
23
331
1F
  5
1F
  0
GROUP
  5
CFC
102
{ACAD_REACTORS
330
18
102
}
330
18
100
AcDbGroup
300

 70
     1
 71
     1
  0
GROUP
  5
5075
102
{ACAD_REACTORS
330
18
102
}
330
18
100
AcDbGroup
300

 70
     1
 71
     1
  0
GROUP
  5
5141
102
{ACAD_REACTORS
330
18
102
}
330
18
100
AcDbGroup
300

 70
     1
 71
     1
  0
GROUP
  5
481A
102
{ACAD_REACTORS
330
18
102
}
330
18
100
AcDbGroup
300

 70
     1
 71
     1
  0
GROUP
  5
5167
102
{ACAD_REACTORS
330
18
102
}
330
18
100
AcDbGroup
300

 70
     1
 71
     1
  0
GROUP
  5
218C
102
{ACAD_REACTORS
330
18
102
}
330
18
100
AcDbGroup
300

 70
     1
 71
     1
  0
GROUP
  5
527D
102
{ACAD_REACTORS
330
18
102
}
330
18
100
AcDbGroup
300

 70
     1
 71
     1
  0
GROUP
  5
3FA3
102
{ACAD_REACTORS
330
18
102
}
330
18
100
AcDbGroup
300

 70
     1
 71
     1
  0
GROUP
  5
52B3
102
{ACAD_REACTORS
330
18
102
}
330
18
100
AcDbGroup
300

 70
     1
 71
     1
  0
GROUP
  5
3154
102
{ACAD_REACTORS
330
18
102
}
330
18
100
AcDbGroup
300

 70
     1
 71
     1
  0
GROUP
  5
327B
102
{ACAD_REACTORS
330
18
102
}
330
18
100
AcDbGroup
300

 70
     1
 71
     1
  0
GROUP
  5
2FBC
102
{ACAD_REACTORS
330
18
102
}
330
18
100
AcDbGroup
300

 70
     1
 71
     1
  0
GROUP
  5
32AA
102
{ACAD_REACTORS
330
18
102
}
330
18
100
AcDbGroup
300

 70
     1
 71
     1
  0
GROUP
  5
2FE9
102
{ACAD_REACTORS
330
18
102
}
330
18
100
AcDbGroup
300

 70
     1
 71
     1
  0
GROUP
  5
3650
102
{ACAD_REACTORS
330
18
102
}
330
18
100
AcDbGroup
300

 70
     1
 71
     1
  0
GROUP
  5
2862
102
{ACAD_REACTORS
330
18
102
}
330
18
100
AcDbGroup
300

 70
     1
 71
     1
  0
GROUP
  5
367C
102
{ACAD_REACTORS
330
18
102
}
330
18
100
AcDbGroup
300

 70
     1
 71
     1
  0
GROUP
  5
18ED
102
{ACAD_REACTORS
330
18
102
}
330
18
100
AcDbGroup
300

 70
     1
 71
     1
  0
GROUP
  5
19E5
102
{ACAD_REACTORS
330
18
102
}
330
18
100
AcDbGroup
300

 70
     1
 71
     1
  0
GROUP
  5
1F8A
102
{ACAD_REACTORS
330
18
102
}
330
18
100
AcDbGroup
300

 70
     1
 71
     1
  0
GROUP
  5
1682
102
{ACAD_REACTORS
330
18
102
}
330
18
100
AcDbGroup
300

 70
     1
 71
     1
  0
GROUP
  5
2108
102
{ACAD_REACTORS
330
18
102
}
330
18
100
AcDbGroup
300

 70
     1
 71
     1
  0
GROUP
  5
4989
102
{ACAD_REACTORS
330
18
102
}
330
18
100
AcDbGroup
300

 70
     1
 71
     1
  0
GROUP
  5
3732
102
{ACAD_REACTORS
330
18
102
}
330
18
100
AcDbGroup
300

 70
     1
 71
     1
  0
GROUP
  5
563B
102
{ACAD_REACTORS
330
18
102
}
330
18
100
AcDbGroup
300

 70
     1
 71
     1
  0
GROUP
  5
38C3
102
{ACAD_REACTORS
330
18
102
}
330
18
100
AcDbGroup
300

 70
     1
 71
     1
  0
GROUP
  5
39C3
102
{ACAD_REACTORS
330
18
102
}
330
18
100
AcDbGroup
300

 70
     1
 71
     1
  0
GROUP
  5
37CF
102
{ACAD_REACTORS
330
18
102
}
330
18
100
AcDbGroup
300

 70
     1
 71
     1
  0
GROUP
  5
2335
102
{ACAD_REACTORS
330
18
102
}
330
18
100
AcDbGroup
300

 70
     1
 71
     1
  0
GROUP
  5
3AB4
102
{ACAD_REACTORS
330
18
102
}
330
18
100
AcDbGroup
300

 70
     1
 71
     1
  0
GROUP
  5
3BBC
102
{ACAD_REACTORS
330
18
102
}
330
18
100
AcDbGroup
300

 70
     1
 71
     1
  0
GROUP
  5
58EE
102
{ACAD_REACTORS
330
18
102
}
330
18
100
AcDbGroup
300

 70
     1
 71
     1
  0
GROUP
  5
5A5E
102
{ACAD_REACTORS
330
18
102
}
330
18
100
AcDbGroup
300

 70
     1
 71
     1
  0
GROUP
  5
3D8C
102
{ACAD_REACTORS
330
18
102
}
330
18
100
AcDbGroup
300

 70
     1
 71
     1
  0
GROUP
  5
419F
102
{ACAD_REACTORS
330
18
102
}
330
18
100
AcDbGroup
300

 70
     1
 71
     1
  0
GROUP
  5
5AF5
102
{ACAD_REACTORS
330
18
102
}
330
18
100
AcDbGroup
300

 70
     1
 71
     1
  0
GROUP
  5
439B
102
{ACAD_REACTORS
330
18
102
}
330
18
100
AcDbGroup
300

 70
     1
 71
     1
  0
GROUP
  5
4590
102
{ACAD_REACTORS
330
18
102
}
330
18
100
AcDbGroup
300

 70
     1
 71
     1
  0
GROUP
  5
312A
102
{ACAD_REACTORS
330
18
102
}
330
18
100
AcDbGroup
300

 70
     1
 71
     1
  0
GROUP
  5
299B
102
{ACAD_REACTORS
330
18
102
}
330
18
100
AcDbGroup
300

 70
     1
 71
     1
  0
GROUP
  5
46F3
102
{ACAD_REACTORS
330
18
102
}
330
18
100
AcDbGroup
300

 70
     1
 71
     1
  0
GROUP
  5
61CC
102
{ACAD_REACTORS
330
18
102
}
330
18
100
AcDbGroup
300

 70
     1
 71
     1
  0
GROUP
  5
2C07
102
{ACAD_REACTORS
330
18
102
}
330
18
100
AcDbGroup
300

 70
     1
 71
     1
  0
GROUP
  5
2DB5
102
{ACAD_REACTORS
330
18
102
}
330
18
100
AcDbGroup
300

 70
     1
 71
     1
  0
GROUP
  5
4B40
102
{ACAD_REACTORS
330
18
102
}
330
18
100
AcDbGroup
300

 70
     1
 71
     1
  0
GROUP
  5
1827
102
{ACAD_REACTORS
330
18
102
}
330
18
100
AcDbGroup
300

 70
     1
 71
     1
  0
GROUP
  5
2E88
102
{ACAD_REACTORS
330
18
102
}
330
18
100
AcDbGroup
300

 70
     1
 71
     1
  0
GROUP
  5
640B
102
{ACAD_REACTORS
330
18
102
}
330
18
100
AcDbGroup
300

 70
     1
 71
     1
  0
GROUP
  5
6570
102
{ACAD_REACTORS
330
18
102
}
330
18
100
AcDbGroup
300

 70
     1
 71
     1
  0
GROUP
  5
674B
102
{ACAD_REACTORS
330
18
102
}
330
18
100
AcDbGroup
300

 70
     1
 71
     1
  0
GROUP
  5
69F2
102
{ACAD_REACTORS
330
18
102
}
330
18
100
AcDbGroup
300

 70
     1
 71
     1
  0
GROUP
  5
6C5D
102
{ACAD_REACTORS
330
18
102
}
330
18
100
AcDbGroup
300

 70
     1
 71
     1
  0
GROUP
  5
6D88
102
{ACAD_REACTORS
330
18
102
}
330
18
100
AcDbGroup
300

 70
     1
 71
     1
340
6D12
340
6D11
340
6D10
340
6D0F
340
6D0E
340
6D0D
340
6D0C
340
6D0B
340
6D0A
340
6D09
340
6D08
340
6D07
340
6D06
340
6D05
340
6D04
340
6D03
340
6D02
340
6D01
340
6D00
340
6CFF
340
6CFE
340
6CFD
340
6CFC
340
6CFB
340
6CFA
340
6CF9
340
6CF8
340
6CF7
340
6CF6
340
6CF5
340
6CF4
340
6CF3
340
6CF2
340
6CF1
340
6CF0
340
6CEF
340
6CEE
340
6CED
340
6CEC
340
6CEB
340
6CEA
340
6CE8
340
6CE7
340
6CE6
340
6CE5
340
6CE4
340
6CE3
340
6CE2
340
6CE1
340
6CE0
340
6CDF
340
6CDE
340
6CDD
340
6CDC
340
6CDB
340
6CDA
340
6CD9
340
6CD8
340
6CD7
340
6CD6
340
6CD5
340
6CD4
340
6CD3
340
6CD2
340
6CD1
340
6CD0
340
6CCF
340
6CCE
340
6CCD
340
6CCC
340
6CCB
340
6CCA
340
6CC9
340
6CC8
340
6CC7
340
6CC6
340
6CC5
340
6CC4
340
6CC3
340
6CC2
340
6CC1
  0
GROUP
  5
15D1
102
{ACAD_REACTORS
330
18
102
}
330
18
100
AcDbGroup
300

 70
     1
 71
     1
  0
GROUP
  5
4CED
102
{ACAD_REACTORS
330
18
102
}
330
18
100
AcDbGroup
300

 70
     1
 71
     1
  0
GROUP
  5
3837
102
{ACAD_REACTORS
330
18
102
}
330
18
100
AcDbGroup
300

 70
     1
 71
     1
  0
GROUP
  5
4EB3
102
{ACAD_REACTORS
330
18
102
}
330
18
100
AcDbGroup
300

 70
     1
 71
     1
  0
LAYOUT
  5
5A
102
{ACAD_XDICTIONARY
360
6D8B
102
}
102
{ACAD_REACTORS
330
58
102
}
330
58
100
AcDbPlotSettings
  1

  2
none_device
  4
Letter_(8.50_x_11.00_Inches)
  6

 40
6.349999904632568
 41
6.349999904632568
 42
6.350006103515625
 43
6.350006103515625
 44
215.8999938964844
 45
279.3999938964844
 46
0.0
 47
0.0
 48
0.0
 49
0.0
140
0.0
141
0.0
142
1.0
143
76.54229552604896
 70
 11952
 72
     0
 73
     1
 74
     0
  7
monochrome.ctb
 75
     0
147
0.0130646721936851
148
9973.459437949902
149
463.9633285297773
100
AcDbLayout
  1
Model
 70
     1
 71
     0
 10
0.0
 20
0.0
 11
12.0
 21
9.0
 12
0.0
 22
0.0
 32
0.0
 14
0.0
 24
0.0
 34
0.0
 15
0.0
 25
0.0
 35
0.0
146
0.0
 13
0.0
 23
0.0
 33
0.0
 16
1.0
 26
0.0
 36
0.0
 17
0.0
 27
1.0
 37
0.0
 76
     0
330
2
1001
ACAD_PSEXT
1000
なし
1000
なし
1000
適切ではありません
1000
新しいプロッタ環境設定名を選択しない限り、レイアウトは印刷されません。
1070
     0
  0
LAYOUT
  5
5B
102
{ACAD_XDICTIONARY
360
6D8D
102
}
102
{ACAD_REACTORS
330
58
102
}
330
58
100
AcDbPlotSettings
  1

  2
なし
  4

  6

 40
0.0
 41
0.0
 42
0.0
 43
0.0
 44
0.0
 45
0.0
 46
0.0
 47
0.0
 48
0.0
 49
0.0
140
0.0
141
0.0
142
1.0
143
1.0
 70
   688
 72
     0
 73
     0
 74
     5
  7
monochrome.ctb
 75
    16
147
1.0
148
0.0
149
0.0
100
AcDbLayout
  1
ﾚｲｱｳﾄ1
 70
     1
 71
     1
 10
0.0
 20
0.0
 11
12.0
 21
9.0
 12
0.0
 22
0.0
 32
0.0
 14
1.000000000000000E+20
 24
1.000000000000000E+20
 34
1.000000000000000E+20
 15
-1.000000000000000E+20
 25
-1.000000000000000E+20
 35
-1.000000000000000E+20
146
0.0
 13
0.0
 23
0.0
 33
0.0
 16
1.0
 26
0.0
 36
0.0
 17
0.0
 27
1.0
 37
0.0
 76
     0
330
7
  0
MLINESTYLE
  5
1D
102
{ACAD_REACTORS
330
19
102
}
330
19
100
AcDbMlineStyle
  2
STANDARD
 70
     0
  3

 62
   256
 51
90.0
 52
90.0
 71
     2
 49
0.5
 62
   256
  6
BYLAYER
 49
-0.5
 62
   256
  6
BYLAYER
  0
ACDBPLACEHOLDER
  5
57
102
{ACAD_REACTORS
330
56
102
}
330
56
  0
TABLESTYLE
  5
146
102
{ACAD_REACTORS
330
145
102
}
330
145
100
AcDbTableStyle
  3
Standard
 70
     0
 71
     0
 40
0.06
 41
0.06
280
     0
281
     0
  7
STANDARD
140
0.18
170
     2
 62
     0
 63
     7
283
     0
274
    -2
284
     1
 64
     0
275
    -2
285
     1
 65
     0
276
    -2
286
     1
 66
     0
277
    -2
287
     1
 67
     0
278
    -2
288
     1
 68
     0
279
    -2
289
     1
 69
     0
  7
STANDARD
140
0.25
170
     5
 62
     0
 63
     7
283
     0
274
    -2
284
     1
 64
     0
275
    -2
285
     1
 65
     0
276
    -2
286
     1
 66
     0
277
    -2
287
     1
 67
     0
278
    -2
288
     1
 68
     0
279
    -2
289
     1
 69
     0
  7
STANDARD
140
0.18
170
     5
 62
     0
 63
     7
283
     0
274
    -2
284
     1
 64
     0
275
    -2
285
     1
 65
     0
276
    -2
286
     1
 66
     0
277
    -2
287
     1
 67
     0
278
    -2
288
     1
 68
     0
279
    -2
289
     1
 69
     0
  0
DICTIONARYVAR
  5
1D2
102
{ACAD_REACTORS
330
1D1
102
}
330
1D1
100
DictionaryVariables
280
     0
  1
STANDARD
  0
DICTIONARYVAR
  5
D03
102
{ACAD_REACTORS
330
1D1
102
}
330
1D1
100
DictionaryVariables
280
     0
  1
1
  0
DICTIONARYVAR
  5
D04
102
{ACAD_REACTORS
330
1D1
102
}
330
1D1
100
DictionaryVariables
280
     0
  1

  0
DICTIONARY
  5
6D8B
330
5A
100
AcDbDictionary
280
     1
281
     1
  3
ACAD_XREC_ROUNDTRIP
360
6D8C
  0
DICTIONARY
  5
6D8D
330
5B
100
AcDbDictionary
280
     1
281
     1
  3
ACAD_XREC_ROUNDTRIP
360
6D8E
  0
XRECORD
  5
6D8C
102
{ACAD_REACTORS
330
6D8B
102
}
330
6D8B
100
AcDbXrecord
280
     1
102
SHADEPLOT
 70
     0
102
SHADEPLOTRESLEVEL
 70
     2
102
SHADEPLOTCUSTOMDPI
 70
   300
  0
XRECORD
  5
6D8E
102
{ACAD_REACTORS
330
6D8D
102
}
330
6D8D
100
AcDbXrecord
280
     1
102
SHADEPLOT
 70
     0
102
SHADEPLOTRESLEVEL
 70
     2
102
SHADEPLOTCUSTOMDPI
 70
   300
  0
ENDSEC
  0
EOF
