  0
SECTION
  2
HEADER
  9
$ACADVER
  1
AC1015
  9
$ACADMAINTVER
 70
    20
  9
$DWGCODEPAGE
  3
ANSI_932
  9
$INSBASE
 10
922.019522
 20
-675.4306699999999
 30
0.0
  9
$EXTMIN
 10
-0.0254342169564552
 20
-0.0151915403520207
 30
-0.000000000000013
  9
$EXTMAX
 10
148.6927171303223
 20
377.3379469032414
 30
0.0000000000000023
  9
$LIMMIN
 10
0.0
 20
0.0
  9
$LIMMAX
 10
420.0
 20
297.0
  9
$ORTHOMODE
 70
     1
  9
$REGENMODE
 70
     1
  9
$FILLMODE
 70
     1
  9
$QTEXTMODE
 70
     0
  9
$MIRRTEXT
 70
     1
  9
$LTSCALE
 40
1.0
  9
$ATTMODE
 70
     1
  9
$TEXTSIZE
 40
30.0
  9
$TRACEWID
 40
0.05
  9
$TEXTSTYLE
  7
SUNPOU
  9
$CLAYER
  8
0
  9
$CELTYPE
  6
BYLAYER
  9
$CECOLOR
 62
   256
  9
$CELTSCALE
 40
1.0
  9
$DISPSILH
 70
     0
  9
$DIMSCALE
 40
1.0
  9
$DIMASZ
 40
2.0
  9
$DIMEXO
 40
10.0
  9
$DIMDLI
 40
0.38
  9
$DIMRND
 40
0.0
  9
$DIMDLE
 40
0.0
  9
$DIMEXE
 40
0.0
  9
$DIMTP
 40
0.0
  9
$DIMTM
 40
0.0
  9
$DIMTXT
 40
5.0
  9
$DIMCEN
 40
0.0
  9
$DIMTSZ
 40
0.0
  9
$DIMTOL
 70
     0
  9
$DIMLIM
 70
     0
  9
$DIMTIH
 70
     0
  9
$DIMTOH
 70
     0
  9
$DIMSE1
 70
     0
  9
$DIMSE2
 70
     0
  9
$DIMTAD
 70
     1
  9
$DIMZIN
 70
     0
  9
$DIMBLK
  1
Dot
  9
$DIMASO
 70
     1
  9
$DIMSHO
 70
     1
  9
$DIMPOST
  1

  9
$DIMAPOST
  1

  9
$DIMALT
 70
     0
  9
$DIMALTD
 70
     2
  9
$DIMALTF
 40
25.4
  9
$DIMLFAC
 40
1.0
  9
$DIMTOFL
 70
     0
  9
$DIMTVP
 40
0.0
  9
$DIMTIX
 70
     0
  9
$DIMSOXD
 70
     0
  9
$DIMSAH
 70
     0
  9
$DIMBLK1
  1

  9
$DIMBLK2
  1

  9
$DIMSTYLE
  2
STANDARD
  9
$DIMCLRD
 70
    60
  9
$DIMCLRE
 70
    70
  9
$DIMCLRT
 70
    60
  9
$DIMTFAC
 40
0.064286
  9
$DIMGAP
 40
3.0
  9
$DIMJUST
 70
     0
  9
$DIMSD1
 70
     0
  9
$DIMSD2
 70
     0
  9
$DIMTOLJ
 70
     1
  9
$DIMTZIN
 70
     0
  9
$DIMALTZ
 70
     0
  9
$DIMALTTZ
 70
     0
  9
$DIMUPT
 70
     0
  9
$DIMDEC
 70
     0
  9
$DIMTDEC
 70
     0
  9
$DIMALTU
 70
     2
  9
$DIMALTTD
 70
     2
  9
$DIMTXSTY
  7
SUNPOU
  9
$DIMAUNIT
 70
     0
  9
$DIMADEC
 70
     0
  9
$DIMALTRND
 40
0.0
  9
$DIMAZIN
 70
     0
  9
$DIMDSEP
 70
    46
  9
$DIMATFIT
 70
     3
  9
$DIMFRAC
 70
     0
  9
$DIMLDRBLK
  1

  9
$DIMLUNIT
 70
     2
  9
$DIMLWD
 70
    -2
  9
$DIMLWE
 70
    -2
  9
$DIMTMOVE
 70
     0
  9
$LUNITS
 70
     2
  9
$LUPREC
 70
     5
  9
$SKETCHINC
 40
0.1
  9
$FILLETRAD
 40
0.0
  9
$AUNITS
 70
     0
  9
$AUPREC
 70
     0
  9
$MENU
  1
acad
  9
$ELEVATION
 40
0.0
  9
$PELEVATION
 40
0.0
  9
$THICKNESS
 40
0.0
  9
$LIMCHECK
 70
     0
  9
$CHAMFERA
 40
0.0
  9
$CHAMFERB
 40
0.0
  9
$CHAMFERC
 40
0.0
  9
$CHAMFERD
 40
0.0
  9
$SKPOLY
 70
     0
  9
$TDCREATE
 40
2450623.654673033
  9
$TDUCREATE
 40
2450623.279673032
  9
$TDUPDATE
 40
2453868.773953102
  9
$TDUUPDATE
 40
2453868.398953102
  9
$TDINDWG
 40
0.9272486806
  9
$TDUSRTIMER
 40
0.9272485069
  9
$USRTIMER
 70
     1
  9
$ANGBASE
 50
0.0
  9
$ANGDIR
 70
     0
  9
$PDMODE
 70
     0
  9
$PDSIZE
 40
0.0
  9
$PLINEWID
 40
0.0
  9
$SPLFRAME
 70
     0
  9
$SPLINETYPE
 70
     6
  9
$SPLINESEGS
 70
     8
  9
$HANDSEED
  5
5BF1
  9
$SURFTAB1
 70
     6
  9
$SURFTAB2
 70
     6
  9
$SURFTYPE
 70
     6
  9
$SURFU
 70
     6
  9
$SURFV
 70
     6
  9
$UCSBASE
  2

  9
$UCSNAME
  2

  9
$UCSORG
 10
0.0
 20
0.0
 30
0.0
  9
$UCSXDIR
 10
1.0
 20
0.0
 30
0.0
  9
$UCSYDIR
 10
0.0
 20
1.0
 30
0.0
  9
$UCSORTHOREF
  2

  9
$UCSORTHOVIEW
 70
     0
  9
$UCSORGTOP
 10
0.0
 20
0.0
 30
0.0
  9
$UCSORGBOTTOM
 10
0.0
 20
0.0
 30
0.0
  9
$UCSORGLEFT
 10
0.0
 20
0.0
 30
0.0
  9
$UCSORGRIGHT
 10
0.0
 20
0.0
 30
0.0
  9
$UCSORGFRONT
 10
0.0
 20
0.0
 30
0.0
  9
$UCSORGBACK
 10
0.0
 20
0.0
 30
0.0
  9
$PUCSBASE
  2

  9
$PUCSNAME
  2

  9
$PUCSORG
 10
0.0
 20
0.0
 30
0.0
  9
$PUCSXDIR
 10
1.0
 20
0.0
 30
0.0
  9
$PUCSYDIR
 10
0.0
 20
1.0
 30
0.0
  9
$PUCSORTHOREF
  2

  9
$PUCSORTHOVIEW
 70
     0
  9
$PUCSORGTOP
 10
0.0
 20
0.0
 30
0.0
  9
$PUCSORGBOTTOM
 10
0.0
 20
0.0
 30
0.0
  9
$PUCSORGLEFT
 10
0.0
 20
0.0
 30
0.0
  9
$PUCSORGRIGHT
 10
0.0
 20
0.0
 30
0.0
  9
$PUCSORGFRONT
 10
0.0
 20
0.0
 30
0.0
  9
$PUCSORGBACK
 10
0.0
 20
0.0
 30
0.0
  9
$USERI1
 70
     0
  9
$USERI2
 70
     0
  9
$USERI3
 70
     0
  9
$USERI4
 70
     0
  9
$USERI5
 70
     0
  9
$USERR1
 40
0.0
  9
$USERR2
 40
0.0
  9
$USERR3
 40
0.0
  9
$USERR4
 40
0.0
  9
$USERR5
 40
0.0
  9
$WORLDVIEW
 70
     1
  9
$SHADEDGE
 70
     3
  9
$SHADEDIF
 70
    70
  9
$TILEMODE
 70
     1
  9
$MAXACTVP
 70
    16
  9
$PINSBASE
 10
0.0
 20
0.0
 30
0.0
  9
$PLIMCHECK
 70
     0
  9
$PEXTMIN
 10
1.000000000000000E+20
 20
1.000000000000000E+20
 30
1.000000000000000E+20
  9
$PEXTMAX
 10
-1.000000000000000E+20
 20
-1.000000000000000E+20
 30
-1.000000000000000E+20
  9
$PLIMMIN
 10
0.0
 20
0.0
  9
$PLIMMAX
 10
12.0
 20
9.0
  9
$UNITMODE
 70
     0
  9
$VISRETAIN
 70
     0
  9
$PLINEGEN
 70
     0
  9
$PSLTSCALE
 70
     1
  9
$TREEDEPTH
 70
  3020
  9
$CMLSTYLE
  2
STANDARD
  9
$CMLJUST
 70
     0
  9
$CMLSCALE
 40
1.0
  9
$PROXYGRAPHICS
 70
     1
  9
$MEASUREMENT
 70
     0
  9
$CELWEIGHT
370
    -1
  9
$ENDCAPS
280
     0
  9
$JOINSTYLE
280
     0
  9
$LWDISPLAY
290
     0
  9
$INSUNITS
 70
     0
  9
$HYPERLINKBASE
  1

  9
$STYLESHEET
  1

  9
$XEDIT
290
     1
  9
$CEPSNTYPE
380
     0
  9
$PSTYLEMODE
290
     1
  9
$FINGERPRINTGUID
  2
{FB88A696-E29C-4009-92AF-A3599A8169D5}
  9
$VERSIONGUID
  2
{9B9F4D8E-6174-492E-8B40-5096999E571C}
  9
$EXTNAMES
290
     1
  9
$PSVPSCALE
 40
0.0
  9
$OLESTARTUP
290
     0
  0
ENDSEC
  0
SECTION
  2
CLASSES
  0
CLASS
  1
DICTIONARYVAR
  2
AcDbDictionaryVar
  3
ObjectDBX Classes
 90
        0
280
     0
281
     0
  0
CLASS
  1
ACDBDICTIONARYWDFLT
  2
AcDbDictionaryWithDefault
  3
ObjectDBX Classes
 90
        0
280
     0
281
     0
  0
CLASS
  1
ACDBPLACEHOLDER
  2
AcDbPlaceHolder
  3
ObjectDBX Classes
 90
        0
280
     0
281
     0
  0
CLASS
  1
LAYOUT
  2
AcDbLayout
  3
ObjectDBX Classes
 90
        0
280
     0
281
     0
  0
CLASS
  1
TABLESTYLE
  2
AcDbTableStyle
  3
ObjectDBX Classes
 90
     2047
280
     0
281
     0
  0
CLASS
  1
SORTENTSTABLE
  2
AcDbSortentsTable
  3
ObjectDBX Classes
 90
        0
280
     0
281
     0
  0
ENDSEC
  0
SECTION
  2
TABLES
  0
TABLE
  2
VPORT
  5
12
330
0
100
AcDbSymbolTable
 70
     8
  0
VPORT
  5
5BEB
330
12
100
AcDbSymbolTableRecord
100
AcDbViewportTableRecord
  2
*Active
 70
     0
 10
0.0
 20
0.0
 11
1.0
 21
1.0
 12
74.33364145668287
 22
188.6613776814447
 13
0.0
 23
0.0
 14
1.0
 24
1.0
 15
0.0
 25
0.0
 16
0.0
 26
0.0
 36
1.0
 17
0.0
 27
0.0
 37
0.0
 40
380.2633168891739
 41
1.571428571428571
 42
50.0
 43
0.0
 44
0.0
 50
0.0
 51
0.0
 71
     0
 72
 20000
 73
     1
 74
     1
 75
     0
 76
     0
 77
     0
 78
     0
281
     0
 65
     1
110
0.0
120
0.0
130
0.0
111
1.0
121
0.0
131
0.0
112
0.0
122
1.0
132
0.0
 79
     0
146
0.0
  0
ENDTAB
  0
TABLE
  2
LTYPE
  5
D
330
0
100
AcDbSymbolTable
 70
     2
  0
LTYPE
  5
E
330
D
100
AcDbSymbolTableRecord
100
AcDbLinetypeTableRecord
  2
BYBLOCK
 70
     0
  3

 72
    65
 73
     0
 40
0.0
  0
LTYPE
  5
F
330
D
100
AcDbSymbolTableRecord
100
AcDbLinetypeTableRecord
  2
BYLAYER
 70
     0
  3

 72
    65
 73
     0
 40
0.0
  0
LTYPE
  5
5
330
D
100
AcDbSymbolTableRecord
100
AcDbLinetypeTableRecord
  2
CONTINUOUS
 70
     0
  3
Solid line
 72
    65
 73
     0
 40
0.0
  0
ENDTAB
  0
TABLE
  2
LAYER
  5
A
102
{ACAD_XDICTIONARY
360
1B4
102
}
330
0
100
AcDbSymbolTable
 70
     7
  0
LAYER
  5
4
330
A
100
AcDbSymbolTableRecord
100
AcDbLayerTableRecord
  2
0
 70
     0
 62
     7
  6
CONTINUOUS
370
    -3
390
57
  0
LAYER
  5
25
330
A
100
AcDbSymbolTableRecord
100
AcDbLayerTableRecord
  2
KIJUN
 70
     0
 62
     7
  6
CONTINUOUS
370
    -3
390
57
  0
LAYER
  5
22
330
A
100
AcDbSymbolTableRecord
100
AcDbLayerTableRecord
  2
HOJO
 70
     0
 62
     3
  6
CONTINUOUS
370
    -3
390
57
  0
LAYER
  5
1B
330
A
100
AcDbSymbolTableRecord
100
AcDbLayerTableRecord
  2
WAKU
 70
     0
 62
     1
  6
CONTINUOUS
370
    -3
390
57
  0
LAYER
  5
31
330
A
100
AcDbSymbolTableRecord
100
AcDbLayerTableRecord
  2
DEFPOINTS
 70
     0
 62
     7
  6
CONTINUOUS
290
     0
370
    -3
390
57
  0
LAYER
  5
28
330
A
100
AcDbSymbolTableRecord
100
AcDbLayerTableRecord
  2
SUNPOU
 70
     0
 62
    70
  6
CONTINUOUS
370
    -3
390
57
  0
ENDTAB
  0
TABLE
  2
STYLE
  5
B
330
0
100
AcDbSymbolTable
 70
     3
  0
STYLE
  5
C
330
B
100
AcDbSymbolTableRecord
100
AcDbTextStyleTableRecord
  2
STANDARD
 70
     0
 40
0.0
 41
1.0
 50
0.0
 71
     0
 42
0.2
  3
txt
  4

  0
STYLE
  5
1C
330
B
100
AcDbSymbolTableRecord
100
AcDbTextStyleTableRecord
  2
SUNPOU
 70
     0
 40
0.0
 41
1.0
 50
0.0
 71
     0
 42
30.0
  3
txt
  4
bigfont
  0
ENDTAB
  0
TABLE
  2
VIEW
  5
10
330
0
100
AcDbSymbolTable
 70
     0
  0
ENDTAB
  0
TABLE
  2
UCS
  5
11
330
0
100
AcDbSymbolTable
 70
     0
  0
ENDTAB
  0
TABLE
  2
APPID
  5
14
330
0
100
AcDbSymbolTable
 70
    10
  0
APPID
  5
15
330
14
100
AcDbSymbolTableRecord
100
AcDbRegAppTableRecord
  2
ACAD
 70
     0
  0
APPID
  5
1D3
330
14
100
AcDbSymbolTableRecord
100
AcDbRegAppTableRecord
  2
ACAD_DSTYLE_DIMTEXT_FILL
 70
     0
  0
APPID
  5
1D4
330
14
100
AcDbSymbolTableRecord
100
AcDbRegAppTableRecord
  2
ACAD_DSTYLE_DIMEXT_LENGTH
 70
     0
  0
APPID
  5
1D5
330
14
100
AcDbSymbolTableRecord
100
AcDbRegAppTableRecord
  2
ACAD_DSTYLE_DIMEXT_ENABLED
 70
     0
  0
APPID
  5
1D6
330
14
100
AcDbSymbolTableRecord
100
AcDbRegAppTableRecord
  2
ACAD_DSTYLE_DIM_LINETYPE
 70
     0
  0
APPID
  5
1D7
330
14
100
AcDbSymbolTableRecord
100
AcDbRegAppTableRecord
  2
ACAD_DSTYLE_DIM_EXT1_LINETYPE
 70
     0
  0
APPID
  5
1D8
330
14
100
AcDbSymbolTableRecord
100
AcDbRegAppTableRecord
  2
ACAD_DSTYLE_DIM_EXT2_LINETYPE
 70
     0
  0
APPID
  5
294
330
14
100
AcDbSymbolTableRecord
100
AcDbRegAppTableRecord
  2
ACAD_DSTYLE_DIMJOGGED_JOGANGLE_SYMBOL
 70
     0
  0
APPID
  5
478
330
14
100
AcDbSymbolTableRecord
100
AcDbRegAppTableRecord
  2
ACAD_DSTYLE_DIMARC_LENGTH_SYMBOL
 70
     0
  0
APPID
  5
F55
330
14
100
AcDbSymbolTableRecord
100
AcDbRegAppTableRecord
  2
ACAD_EXEMPT_FROM_CAD_STANDARDS
 70
     0
  0
ENDTAB
  0
TABLE
  2
DIMSTYLE
  5
16
330
0
100
AcDbSymbolTable
 70
     6
100
AcDbDimStyleTable
 71
     1
340
1E
  0
DIMSTYLE
105
1E
102
{ACAD_REACTORS
330
5A83
330
5A90
102
}
330
16
100
AcDbSymbolTableRecord
100
AcDbDimStyleTableRecord
  2
STANDARD
 70
     0
340
C
  0
ENDTAB
  0
TABLE
  2
BLOCK_RECORD
  5
1
330
0
100
AcDbSymbolTable
 70
    51
  0
BLOCK_RECORD
  5
2
102
{ACAD_XDICTIONARY
360
D13
102
}
330
1
100
AcDbSymbolTableRecord
100
AcDbBlockTableRecord
  2
*MODEL_SPACE
340
5A
  0
BLOCK_RECORD
  5
7
330
1
100
AcDbSymbolTableRecord
100
AcDbBlockTableRecord
  2
*PAPER_SPACE
340
5B
  0
BLOCK_RECORD
  5
109
330
1
100
AcDbSymbolTableRecord
100
AcDbBlockTableRecord
  2
_Dot
340
0
102
{BLKREFS
331
44FE
331
44FF
331
4510
331
4511
331
4599
331
459A
331
45CD
331
45CE
331
467E
331
467F
331
468B
331
468C
331
475A
331
475B
331
4767
331
4768
331
48C7
331
48C8
331
48D9
331
48DA
331
4A60
331
4A61
331
4A72
331
4A73
331
4B22
331
4B23
331
4B2F
331
4B30
331
4C2F
331
4C30
331
4C38
331
4C39
331
4CC5
331
4CC6
331
4CD2
331
4CD3
331
4D4F
331
4D50
331
4D5C
331
4D5D
331
4DCD
331
4DCE
331
4DDA
331
4DDB
331
4E93
331
4E94
331
4EA0
331
4EA1
331
4F3C
331
4F3D
331
4F49
331
4F4A
331
4FE9
331
4FEA
331
4FF6
331
4FF7
331
518D
331
518E
331
5196
331
5197
331
52A1
331
52A2
331
52AA
331
52AB
331
5387
331
5388
331
5390
331
5391
331
5468
331
5469
331
5471
331
5472
331
556E
331
556F
331
5577
331
5578
331
57B0
331
57B1
331
57B9
331
57BA
331
58E8
331
58E9
331
58F2
331
58F3
331
5999
331
599A
331
59A2
331
59A3
331
5BCC
331
5BCD
331
5BDE
331
5BDF
102
}
  0
BLOCK_RECORD
  5
5A84
330
1
100
AcDbSymbolTableRecord
100
AcDbBlockTableRecord
  2
*D48
340
0
  0
BLOCK_RECORD
  5
5A91
330
1
100
AcDbSymbolTableRecord
100
AcDbBlockTableRecord
  2
*D49
340
0
  0
ENDTAB
  0
ENDSEC
  0
SECTION
  2
BLOCKS
  0
BLOCK
  5
3
330
2
100
AcDbEntity
  8
0
100
AcDbBlockBegin
  2
*MODEL_SPACE
 70
     0
 10
0.0
 20
0.0
 30
0.0
  3
*MODEL_SPACE
  1

  0
ENDBLK
  5
6
330
2
100
AcDbEntity
  8
0
100
AcDbBlockEnd
  0
BLOCK
  5
8
330
7
100
AcDbEntity
 67
     1
  8
0
100
AcDbBlockBegin
  2
*PAPER_SPACE
 70
     0
 10
0.0
 20
0.0
 30
0.0
  3
*PAPER_SPACE
  1

  0
ENDBLK
  5
9
330
7
100
AcDbEntity
 67
     1
  8
0
100
AcDbBlockEnd
  0
BLOCK
  5
10C
330
109
100
AcDbEntity
  8
0
100
AcDbBlockBegin
  2
_Dot
 70
     0
 10
0.0
 20
0.0
 30
0.0
  3
_Dot
  1

  0
LWPOLYLINE
  5
10A
330
109
100
AcDbEntity
  8
0
  6
ByBlock
 62
     0
100
AcDbPolyline
 90
        2
 70
     1
 43
0.5
 10
-0.25
 20
0.0
 42
1.0
 10
0.25
 20
0.0
 42
1.0
  0
LINE
  5
10B
330
109
100
AcDbEntity
  8
0
  6
ByBlock
 62
     0
370
    -2
100
AcDbLine
 10
-0.5
 20
0.0
 30
0.0
 11
-1.0
 21
0.0
 31
0.0
  0
ENDBLK
  5
10D
330
109
100
AcDbEntity
  8
0
100
AcDbBlockEnd
  0
BLOCK
  5
5A8E
330
5A84
100
AcDbEntity
  8
0
100
AcDbBlockBegin
  2
*D48
 70
     1
 10
0.0
 20
0.0
 30
0.0
  3
*D48
  1

  0
LINE
  5
5BC9
330
5A84
100
AcDbEntity
  8
SUNPOU
 62
    70
370
    -2
100
AcDbLine
 10
40.0041220239454
 20
350.5816776148524
 30
0.0
 11
40.0041220239454
 21
369.3262011259117
 31
0.0
  0
LINE
  5
5BCA
330
5A84
100
AcDbEntity
  8
SUNPOU
 62
    70
370
    -2
100
AcDbLine
 10
120.0041220239454
 20
350.806671461306
 30
0.0
 11
120.0041220239454
 21
369.3262011259117
 31
0.0
  0
LINE
  5
5BCB
330
5A84
100
AcDbEntity
  8
SUNPOU
 62
    60
370
    -2
100
AcDbLine
 10
42.00412202394541
 20
369.3262011259117
 30
0.0
 11
118.0041220239454
 21
369.3262011259117
 31
0.0
  0
INSERT
  5
5BCC
330
5A84
100
AcDbEntity
  8
SUNPOU
 62
    60
370
    -2
100
AcDbBlockReference
  2
_Dot
 10
40.0041220239454
 20
369.3262011259117
 30
0.0
 41
2.0
 42
2.0
 43
2.0
 50
180.0
  0
INSERT
  5
5BCD
330
5A84
100
AcDbEntity
  8
SUNPOU
 62
    60
370
    -2
100
AcDbBlockReference
  2
_Dot
 10
120.0041220239454
 20
369.3262011259117
 30
0.0
 41
2.0
 42
2.0
 43
2.0
  0
MTEXT
  5
5BCE
330
5A84
100
AcDbEntity
  8
SUNPOU
 62
    60
100
AcDbMText
 10
80.0041220239454
 20
374.8262011259117
 30
0.0
 40
5.0
 41
0.0
 71
     5
 72
     1
  1
\A1;80
  7
SUNPOU
 73
     1
 44
1.0
1001
ACAD
1000
MTEXTBEGIN
1070
    73
1070
     1
1070
    44
1040
1.0
1070
    74
1070
     0
1000
MTEXTEND
  0
POINT
  5
5BCF
330
5A84
100
AcDbEntity
  8
DEFPOINTS
 62
     0
100
AcDbPoint
 10
40.0041220239454
 20
340.5816776148524
 30
0.0
  0
POINT
  5
5BD0
330
5A84
100
AcDbEntity
  8
DEFPOINTS
 62
     0
100
AcDbPoint
 10
120.0041220239454
 20
340.806671461306
 30
0.0
  0
POINT
  5
5BD1
330
5A84
100
AcDbEntity
  8
DEFPOINTS
 62
     0
100
AcDbPoint
 10
120.0041220239454
 20
369.3262011259117
 30
0.0
  0
ENDBLK
  5
5A8F
330
5A84
100
AcDbEntity
  8
0
100
AcDbBlockEnd
  0
BLOCK
  5
5A9B
330
5A91
100
AcDbEntity
  8
0
100
AcDbBlockBegin
  2
*D49
 70
     1
 10
0.0
 20
0.0
 30
0.0
  3
*D49
  1

  0
LINE
  5
5BDB
330
5A91
100
AcDbEntity
  8
SUNPOU
 62
    70
370
    -2
100
AcDbLine
 10
30.0041220239454
 20
340.5816776148524
 30
0.0
 11
13.01896463789633
 21
340.5816776148524
 31
0.0
  0
LINE
  5
5BDC
330
5A91
100
AcDbEntity
  8
SUNPOU
 62
    70
370
    -2
100
AcDbLine
 10
33.46912805305874
 20
38.58167761485237
 30
0.0
 11
13.01896463789626
 21
38.58167761485237
 31
0.0
  0
LINE
  5
5BDD
330
5A91
100
AcDbEntity
  8
SUNPOU
 62
    60
370
    -2
100
AcDbLine
 10
13.01896463789632
 20
338.5816776148524
 30
0.0
 11
13.01896463789626
 21
40.58167761485237
 31
0.0
  0
INSERT
  5
5BDE
330
5A91
100
AcDbEntity
  8
SUNPOU
 62
    60
370
    -2
100
AcDbBlockReference
  2
_Dot
 10
13.01896463789633
 20
340.5816776148524
 30
0.0
 41
2.0
 42
2.0
 43
2.0
 50
90.0
  0
INSERT
  5
5BDF
330
5A91
100
AcDbEntity
  8
SUNPOU
 62
    60
370
    -2
100
AcDbBlockReference
  2
_Dot
 10
13.01896463789626
 20
38.58167761485237
 30
0.0
 41
2.0
 42
2.0
 43
2.0
 50
270.0
  0
MTEXT
  5
5BE0
330
5A91
100
AcDbEntity
  8
SUNPOU
 62
    60
100
AcDbMText
 10
7.518964637896263
 20
189.5816776148523
 30
0.0
 40
5.0
 41
0.0
 71
     5
 72
     1
  1
\A1;302
  7
SUNPOU
 11
0.0000000000000001
 21
1.0
 31
0.0
 73
     1
 44
1.0
1001
ACAD
1000
MTEXTBEGIN
1070
    73
1070
     1
1070
    44
1040
1.0
1070
    74
1070
     0
1000
MTEXTEND
  0
POINT
  5
5BE1
330
5A91
100
AcDbEntity
  8
DEFPOINTS
 62
     0
100
AcDbPoint
 10
40.0041220239454
 20
340.5816776148524
 30
0.0
  0
POINT
  5
5BE2
330
5A91
100
AcDbEntity
  8
DEFPOINTS
 62
     0
100
AcDbPoint
 10
43.46912805305874
 20
38.58167761485237
 30
0.0
  0
POINT
  5
5BE3
330
5A91
100
AcDbEntity
  8
DEFPOINTS
 62
     0
100
AcDbPoint
 10
13.01896463789626
 20
38.58167761485237
 30
0.0
  0
ENDBLK
  5
5A9C
330
5A91
100
AcDbEntity
  8
0
100
AcDbBlockEnd
  0
ENDSEC
  0
SECTION
  2
ENTITIES
  0
LINE
  5
1F
330
2
100
AcDbEntity
  8
WAKU
100
AcDbLine
 10
0.0
 20
14.0
 30
0.0
 11
148.6829221395387
 21
14.0
 31
0.0
  0
LINE
  5
20
330
2
100
AcDbEntity
  8
WAKU
100
AcDbLine
 10
0.0
 20
0.0
 30
0.0
 11
148.6829221395387
 21
0.0
 31
0.0
  0
TEXT
  5
21
330
2
100
AcDbEntity
  8
HOJO
100
AcDbText
 10
9.653966000000025
 20
2.366626000000024
 30
0.0
 40
9.0
  1
TK582
  7
SUNPOU
100
AcDbText
  0
TEXT
  5
23
330
2
100
AcDbEntity
  8
HOJO
100
AcDbText
 10
85.84696046283864
 20
5.044386000000031
 30
0.0
 40
6.0
  1
80×302×25
  7
SUNPOU
100
AcDbText
  0
ARC
  5
5A23
102
{ACAD_REACTORS
330
5BE4
102
}
330
2
100
AcDbEntity
  8
KIJUN
100
AcDbCircle
 10
81.81239824780176
 20
258.7151887439788
 30
0.0
 40
9.539443205435155
100
AcDbArc
 50
30.82667945445186
 51
100.9269812249601
  0
ARC
  5
5A24
102
{ACAD_REACTORS
330
5BE4
102
}
330
2
100
AcDbEntity
  8
KIJUN
100
AcDbCircle
 10
81.81239824780176
 20
262.448166485726
 30
0.0
 40
9.539443205435155
100
AcDbArc
 50
259.0730187750398
 51
329.1733205455483
  0
ARC
  5
5A25
102
{ACAD_REACTORS
330
5BE4
102
}
330
2
100
AcDbEntity
  8
KIJUN
100
AcDbCircle
 10
84.11584034739906
 20
299.6110648358983
 30
0.0
 40
25.06022593150323
100
AcDbArc
 50
52.24980745043855
 51
99.44341491791623
  0
ARC
  5
5A26
102
{ACAD_REACTORS
330
5BE4
102
}
330
2
100
AcDbEntity
  8
KIJUN
100
AcDbCircle
 10
84.11584034739906
 20
311.5522903938065
 30
0.0
 40
25.06022593150323
100
AcDbArc
 50
260.5565850820838
 51
307.7501925495615
  0
SPLINE
  5
5A28
102
{ACAD_REACTORS
330
5BE4
102
}
330
2
100
AcDbEntity
  8
KIJUN
100
AcDbSpline
210
0.0
220
0.0
230
1.0
 70
     8
 71
     3
 72
    12
 73
     8
 74
     6
 42
0.0000000001
 43
0.0000000001
 44
0.0000000001
 40
0.0
 40
0.0
 40
0.0
 40
0.0
 40
3.724232534691511
 40
7.056956109040756
 40
10.25097389905967
 40
14.82597287429138
 40
19.87557479245574
 40
19.87557479245574
 40
19.87557479245574
 40
19.87557479245574
 10
80.00412202399719
 20
325.5816776148524
 30
0.0
 10
81.17488127749249
 20
325.7346181924384
 30
0.0
 10
83.39332402756474
 20
326.0244215098368
 30
0.0
 10
87.65201553614065
 20
325.6918327936996
 30
0.0
 10
87.66161921503595
 20
330.200960628678
 30
0.0
 10
89.33583712243075
 20
334.2250115085083
 30
0.0
 10
92.3976987861422
 20
335.5947056348473
 30
0.0
 10
94.00412202399719
 20
336.3133234938388
 30
0.0
 11
80.00412202399719
 21
325.5816776148524
 31
0.0
 11
83.71506493940513
 21
325.8960192300394
 31
0.0
 11
87.00412202399718
 21
326.4337458495385
 31
0.0
 11
87.83079465845629
 21
329.518930122543
 31
0.0
 11
89.6816505699561
 21
333.7028216147111
 31
0.0
 11
94.00412202399719
 21
336.3133234938388
 31
0.0
  0
SPLINE
  5
5A29
102
{ACAD_REACTORS
330
5BE4
102
}
330
2
100
AcDbEntity
  8
KIJUN
100
AcDbSpline
210
0.0
220
0.0
230
1.0
 70
     8
 71
     3
 72
    12
 73
     8
 74
     6
 42
0.0000000001
 43
0.0000000001
 44
0.0000000001
 40
0.0
 40
0.0
 40
0.0
 40
0.0
 40
2.972964893043169
 40
7.845986561362568
 40
15.58465885227064
 40
16.56763159693482
 40
17.187239528755
 40
17.187239528755
 40
17.187239528755
 40
17.187239528755
 10
91.6150367742547
 20
338.335543259421
 30
0.0
 10
90.65322842242109
 20
338.6035805615362
 30
0.0
 10
88.11490870638555
 20
339.3109609531652
 30
0.0
 10
82.48676430529394
 20
336.7336032528216
 30
0.0
 10
83.13472361319027
 20
331.1732659680534
 30
0.0
 10
80.74361448728536
 20
328.9468093190903
 30
0.0
 10
80.21031307099576
 20
328.8509411669488
 30
0.0
 10
80.00412202399719
 20
328.8138755337815
 30
0.0
 11
91.6150367742547
 21
338.335543259421
 31
0.0
 11
88.68723789815238
 21
338.851793195364
 31
0.0
 11
84.2913627504048
 21
336.7487901365632
 31
0.0
 11
81.3718079418785
 21
329.5819743480781
 31
0.0
 11
80.60429611074766
 21
328.967839993212
 31
0.0
 11
80.00412202399719
 21
328.8138755337815
 31
0.0
  0
SPLINE
  5
5A2A
102
{ACAD_REACTORS
330
5BE4
102
}
330
2
100
AcDbEntity
  8
KIJUN
100
AcDbSpline
210
0.0
220
0.0
230
1.0
 70
     8
 71
     3
 72
    13
 73
     9
 74
     7
 42
0.0000000001
 43
0.0000000001
 44
0.0000000001
 40
0.0
 40
0.0
 40
0.0
 40
0.0
 40
4.137147462014304
 40
8.301531155193163
 40
13.93891292603505
 40
14.88288021296019
 40
16.05003380918702
 40
16.89787894696515
 40
16.89787894696515
 40
16.89787894696515
 40
16.89787894696515
 10
91.6150367742547
 20
338.335543259421
 30
0.0
 10
90.75810732632687
 20
337.2550894799092
 30
0.0
 10
89.03860697612385
 20
335.0870689307952
 30
0.0
 10
85.18204128088905
 20
332.2512050231118
 30
0.0
 10
84.58806529540551
 20
328.1987309199349
 30
0.0
 10
81.71634216687754
 20
327.1329536056923
 30
0.0
 10
81.21774602213713
 20
328.2502514592989
 30
0.0
 10
80.88826721477454
 20
328.8059886086135
 30
0.0
 10
80.74963337838097
 20
329.0398245073549
 30
0.0
 11
91.6150367742547
 21
338.335543259421
 31
0.0
 11
88.90085998742405
 21
335.2131670021001
 31
0.0
 11
85.98130517889774
 21
332.2436062157168
 31
0.0
 11
82.80591309344424
 21
327.5856068239329
 31
0.0
 11
81.88436774601257
 21
327.3810868703542
 31
0.0
 11
81.16731517022969
 21
328.3020011555884
 31
0.0
 11
80.74963337838097
 21
329.0398245073549
 31
0.0
  0
SPLINE
  5
5A2B
102
{ACAD_REACTORS
330
5BE4
102
}
330
2
100
AcDbEntity
  8
KIJUN
100
AcDbSpline
210
0.0
220
0.0
230
1.0
 70
     8
 71
     3
 72
     9
 73
     5
 74
     3
 42
0.0000000001
 43
0.0000000001
 44
0.0000000001
 40
0.0
 40
0.0
 40
0.0
 40
0.0
 40
5.926987487363778
 40
13.27309730493709
 40
13.27309730493709
 40
13.27309730493709
 40
13.27309730493709
 10
97.71774682068178
 20
330.0434510388833
 30
0.0
 10
95.53377659466503
 20
330.7091178560319
 30
0.0
 10
90.64291941252861
 20
332.1998347599425
 30
0.0
 10
89.08809152991443
 20
327.1349059885881
 30
0.0
 10
88.22755867080093
 20
324.3316776148524
 30
0.0
 11
97.71774682068178
 21
330.0434510388833
 31
0.0
 11
91.8310377969782
 21
330.7332608283279
 31
0.0
 11
88.22755867080093
 21
324.3316776148524
 31
0.0
  0
SPLINE
  5
5A2C
102
{ACAD_REACTORS
330
5BE4
102
}
330
2
100
AcDbEntity
  8
KIJUN
100
AcDbSpline
210
0.0
220
0.0
230
1.0
 70
     8
 71
     3
 72
    11
 73
     7
 74
     5
 42
0.0000000001
 43
0.0000000001
 44
0.0000000001
 40
0.0
 40
0.0
 40
0.0
 40
0.0
 40
5.123968101848523
 40
10.14571033422316
 40
17.19436065679569
 40
19.34143912761694
 40
19.34143912761694
 40
19.34143912761694
 40
19.34143912761694
 10
93.18724094034667
 20
270.0706893216367
 30
0.0
 10
91.60102508450899
 20
270.9050121411879
 30
0.0
 10
88.46023921679933
 20
272.5570125994545
 30
0.0
 10
87.04588120042059
 20
278.5065754778433
 30
0.0
 10
87.34081882490114
 20
283.468248785063
 30
0.0
 10
85.4800582839111
 20
285.962510141888
 30
0.0
 10
85.04559583001798
 20
286.5448864798775
 30
0.0
 11
93.18724094034667
 21
270.0706893216367
 31
0.0
 11
89.01682774961489
 21
273.0477185333395
 31
0.0
 11
87.42780383181786
 21
277.8114248673912
 31
0.0
 11
86.23714245594134
 21
284.7587838517749
 31
0.0
 11
85.04559583001798
 21
286.5448864798775
 31
0.0
  0
SPLINE
  5
5A2E
102
{ACAD_REACTORS
330
5BE4
102
}
330
2
100
AcDbEntity
  8
KIJUN
100
AcDbSpline
210
0.0
220
0.0
230
1.0
 70
     8
 71
     3
 72
    11
 73
     7
 74
     5
 42
0.0000000001
 43
0.0000000001
 44
0.0000000001
 40
0.0
 40
0.0
 40
0.0
 40
0.0
 40
18.33452842393363
 40
34.09459334129496
 40
53.86432981358927
 40
67.15304447024762
 40
67.15304447024762
 40
67.15304447024762
 40
67.15304447024762
 10
98.00412202402629
 20
68.58167761485237
 30
0.0
 10
97.32928433494556
 20
74.69479383925737
 30
0.0
 10
96.07436705272334
 20
86.06264617229513
 30
0.0
 10
89.24423340456218
 20
102.7245261869363
 30
0.0
 10
84.07873766545675
 20
118.3791486469912
 30
0.0
 10
84.13000124161442
 20
129.4539695159363
 30
0.0
 10
84.15060798550518
 20
133.9057852960206
 30
0.0
 11
98.00412202402629
 21
68.58167761485237
 31
0.0
 11
95.09229914163269
 21
86.68350680500878
 31
0.0
 11
89.89942209288972
 21
101.5634824150722
 31
0.0
 11
84.66228253959242
 21
120.6269251650912
 31
0.0
 11
84.15060798550518
 21
133.9057852960206
 31
0.0
  0
SPLINE
  5
5A2F
102
{ACAD_REACTORS
330
5BE4
102
}
330
2
100
AcDbEntity
  8
KIJUN
100
AcDbSpline
210
0.0
220
0.0
230
1.0
 70
     8
 71
     3
 72
    10
 73
     6
 74
     4
 42
0.0000000001
 43
0.0000000001
 44
0.0000000001
 40
0.0
 40
0.0
 40
0.0
 40
0.0
 40
6.695210605070501
 40
16.23524449901622
 40
72.5168452101735
 40
72.5168452101735
 40
72.5168452101735
 40
72.5168452101735
 10
110.0041220239972
 20
138.5626356992681
 30
0.0
 10
108.0469501426361
 20
139.6915721324446
 30
0.0
 10
103.3009957739366
 20
142.4291348616272
 30
0.0
 10
90.32980120869058
 20
163.7359280674092
 30
0.0
 10
89.14815531022162
 20
186.1456600481229
 30
0.0
 10
88.13777440676028
 20
205.3073778472855
 30
0.0
 11
110.0041220239972
 21
138.5626356992681
 31
0.0
 11
104.44585163001
 21
142.295124851774
 31
0.0
 11
98.91303854534896
 21
150.0668830870665
 31
0.0
 11
88.13777440676028
 21
205.3073778472855
 31
0.0
  0
SPLINE
  5
5A30
102
{ACAD_REACTORS
330
5BE4
102
}
330
2
100
AcDbEntity
  8
KIJUN
100
AcDbSpline
210
0.0
220
0.0
230
1.0
 70
     8
 71
     3
 72
    16
 73
    12
 74
    10
 42
0.0000000001
 43
0.0000000001
 44
0.0000000001
 40
0.0
 40
0.0
 40
0.0
 40
0.0
 40
13.73810331301823
 40
21.57354042341317
 40
44.53444518661679
 40
84.86928185067455
 40
121.8020748076595
 40
138.7024333192212
 40
157.1182131361424
 40
172.0450335765846
 40
176.8629085469578
 40
176.8629085469578
 40
176.8629085469578
 40
176.8629085469578
 10
107.7611132303162
 20
69.67560448709554
 30
0.0
 10
106.0794092753267
 20
73.91269045802963
 30
0.0
 10
103.4385565006355
 20
80.56637061959927
 30
0.0
 10
96.41014521090051
 20
93.99748292590222
 30
0.0
 10
92.34824453743852
 20
113.5472911250532
 30
0.0
 10
81.47978169245375
 20
174.1876260263906
 30
0.0
 10
91.50295630799604
 20
119.1243558040437
 30
0.0
 10
92.27673870907613
 20
97.6212351893119
 30
0.0
 10
98.37955037086898
 20
81.58279675346227
 30
0.0
 10
100.0951163800337
 20
68.15604209692203
 30
0.0
 10
105.08329276871
 20
63.70607155070103
 30
0.0
 10
106.300450575948
 20
62.62024058357491
 30
0.0
 11
107.7611132303162
 21
69.67560448709554
 31
0.0
 11
102.4062354145016
 21
82.32711689537536
 31
0.0
 11
98.9980225543867
 21
89.38248079889598
 31
0.0
 11
92.91281341138789
 21
111.5223402661751
 31
0.0
 11
85.63517239230248
 21
151.1951897972278
 31
0.0
 11
91.20959223137731
 21
114.6855056153392
 31
0.0
 11
93.15625718707712
 21
97.8976345957737
 31
0.0
 11
98.02513270156021
 21
80.13714480833295
 31
0.0
 11
102.89312296588
 21
66.02641700117527
 31
0.0
 11
106.300450575948
 21
62.62024058357491
 31
0.0
  0
SPLINE
  5
5A31
102
{ACAD_REACTORS
330
5BE4
102
}
330
2
100
AcDbEntity
  8
KIJUN
100
AcDbSpline
210
0.0
220
0.0
230
1.0
 70
     8
 71
     3
 72
     9
 73
     5
 74
     3
 42
0.0000000001
 43
0.0000000001
 44
0.0000000001
 40
0.0
 40
0.0
 40
0.0
 40
0.0
 40
44.76511943603087
 40
105.4981617171158
 40
105.4981617171158
 40
105.4981617171158
 40
105.4981617171158
 10
97.06463635008811
 20
251.6713619265021
 30
0.0
 10
92.89443443425421
 20
237.2701045179521
 30
0.0
 10
83.0665005059563
 20
203.3305953161929
 30
0.0
 10
83.30450725178696
 20
167.9237803176619
 30
0.0
 10
83.44152266060962
 20
147.5408318629735
 30
0.0
 11
97.06463635008811
 21
251.6713619265021
 31
0.0
 11
86.36638896964985
 21
208.2034033695483
 31
0.0
 11
83.44152266060962
 21
147.5408318629735
 31
0.0
  0
SPLINE
  5
5A32
102
{ACAD_REACTORS
330
5BE4
102
}
330
2
100
AcDbEntity
  8
KIJUN
100
AcDbSpline
210
0.0
220
0.0
230
1.0
 70
     8
 71
     3
 72
    14
 73
    10
 74
     8
 42
0.0000000001
 43
0.0000000001
 44
0.0000000001
 40
0.0
 40
0.0
 40
0.0
 40
0.0
 40
8.584401262073951
 40
24.7589609712824
 40
81.54843646456814
 40
115.2926070728397
 40
132.6357047039692
 40
152.4828522487146
 40
172.4341146018195
 40
172.4341146018195
 40
172.4341146018195
 40
172.4341146018195
 10
108.428591800798
 20
90.64694264661666
 30
0.0
 10
106.2243856287751
 20
92.63742649015423
 30
0.0
 10
99.86705761955443
 20
98.37834077078618
 30
0.0
 10
97.88958748428024
 20
123.9881968171538
 30
0.0
 10
80.1949286833538
 20
195.1497557201849
 30
0.0
 10
92.56821883106159
 20
138.3482999605407
 30
0.0
 10
94.13775468059595
 20
117.1978436208529
 30
0.0
 10
96.42073930476392
 20
97.42524960533749
 30
0.0
 10
103.0798987525269
 20
85.87047377637039
 30
0.0
 10
106.418188838349
 20
80.07797190037235
 30
0.0
 11
108.428591800798
 21
90.64694264661666
 31
0.0
 11
102.5080391752443
 21
96.86297044870588
 31
0.0
 11
98.36683923768839
 21
112.4984059995287
 31
0.0
 11
86.36638896964985
 21
168.005466092519
 31
0.0
 11
92.38608960568933
 21
134.8025708227898
 31
0.0
 11
94.2265245501793
 21
117.5574023789042
 31
0.0
 11
97.67722941475483
 21
98.01253344610012
 31
0.0
 11
106.418188838349
 21
80.07797190037235
 31
0.0
  0
SPLINE
  5
5A33
102
{ACAD_REACTORS
330
5BE4
102
}
330
2
100
AcDbEntity
  8
KIJUN
100
AcDbSpline
210
0.0
220
0.0
230
1.0
 70
     8
 71
     3
 72
    15
 73
    11
 74
     9
 42
0.0000000001
 43
0.0000000001
 44
0.0000000001
 40
0.0
 40
0.0
 40
0.0
 40
0.0
 40
8.212320425013238
 40
17.70043568080619
 40
38.79840092571365
 40
80.57893233451725
 40
112.7874729474066
 40
138.4080337075782
 40
154.7861125407937
 40
161.4528319811308
 40
161.4528319811308
 40
161.4528319811308
 40
161.4528319811308
 10
109.1969888819757
 20
102.2999840455842
 30
0.0
 10
109.1808699967513
 20
105.0473837092516
 30
0.0
 10
109.1461281361816
 20
110.9689952050834
 30
0.0
 10
104.3431011280933
 20
123.4815660736817
 30
0.0
 10
98.399769851619
 20
142.6449775827748
 30
0.0
 10
79.92446075093681
 20
200.5863178585108
 30
0.0
 10
95.62065260587258
 20
146.9294922174392
 30
0.0
 10
99.36193227159771
 20
127.0240607485737
 30
0.0
 10
101.7645996967167
 20
109.5305879579337
 30
0.0
 10
107.1317463268896
 20
103.9223988993802
 30
0.0
 10
108.6844290778416
 20
102.2999840455842
 30
0.0
 11
109.1969888819757
 21
102.2999840455842
 31
0.0
 11
108.6844290778416
 21
110.4962935328032
 31
0.0
 11
105.9029732839579
 21
119.5675577651956
 31
0.0
 11
99.30431908666186
 21
139.6070662486847
 31
0.0
 11
86.36638896964985
 21
179.333918239364
 31
0.0
 11
94.73642860405641
 21
148.2319484475549
 31
0.0
 11
99.811567390282
 21
123.1190812284141
 31
0.0
 11
104.3803431230507
 21
107.391152103107
 31
0.0
 11
108.6844290778416
 21
102.2999840455842
 31
0.0
  0
SPLINE
  5
5A34
102
{ACAD_REACTORS
330
5BE4
102
}
330
2
100
AcDbEntity
  8
KIJUN
100
AcDbSpline
210
0.0
220
0.0
230
1.0
 70
     8
 71
     3
 72
    11
 73
     7
 74
     5
 42
0.0000000001
 43
0.0000000001
 44
0.0000000001
 40
0.0
 40
0.0
 40
0.0
 40
0.0
 40
4.372140176200059
 40
9.961639393721338
 40
12.57213076683934
 40
13.01574856712478
 40
13.01574856712478
 40
13.01574856712478
 40
13.01574856712478
 10
84.84641455899952
 20
271.261615905237
 30
0.0
 10
83.51946719355851
 20
272.0893626985565
 30
0.0
 10
80.49610320790042
 20
273.9753303784688
 30
0.0
 10
80.64672202156566
 20
278.2921192041979
 30
0.0
 10
81.18760068999296
 20
281.9022636714569
 30
0.0
 10
80.2214494446987
 20
282.3167285197241
 30
0.0
 10
80.08111330546933
 20
282.3769306846909
 30
0.0
 11
84.84641455899952
 21
271.261615905237
 31
0.0
 11
81.47095595236431
 21
274.0404446000713
 31
0.0
 11
80.87518263940262
 21
279.5981019898565
 31
0.0
 11
80.47770534741255
 21
282.1781556736925
 31
0.0
 11
80.08111330546933
 21
282.3769306846909
 31
0.0
  0
SPLINE
  5
5A35
102
{ACAD_REACTORS
330
5BE4
102
}
330
2
100
AcDbEntity
  8
KIJUN
100
AcDbSpline
210
0.0
220
0.0
230
1.0
 70
     8
 71
     3
 72
    12
 73
     8
 74
     6
 42
0.0000000001
 43
0.0000000001
 44
0.0000000001
 40
0.0
 40
0.0
 40
0.0
 40
0.0
 40
1.157778426127479
 40
7.105987478123348
 40
11.88624753755954
 40
13.84179552472735
 40
16.87867010798949
 40
16.87867010798949
 40
16.87867010798949
 40
16.87867010798949
 10
86.63373449788457
 20
272.6507430054728
 30
0.0
 10
86.43935438611379
 20
272.9808965538713
 30
0.0
 10
85.24632590236558
 20
275.0072488574162
 30
0.0
 10
82.45471660724035
 20
278.5394932272765
 30
0.0
 10
84.38400056953879
 20
282.7541067520449
 30
0.0
 10
83.10612489267578
 20
286.2126866090022
 30
0.0
 10
81.22524592721896
 20
286.1724106737879
 30
0.0
 10
80.08111330546933
 20
286.1479109520107
 30
0.0
 11
86.63373449788457
 21
272.6507430054728
 31
0.0
 11
86.03796118492288
 21
273.6434690722046
 31
0.0
 11
83.45657191210454
 21
279.002351450875
 31
0.0
 11
83.85404920409461
 21
283.7660577850431
 31
0.0
 11
83.05909462011447
 21
285.552734907392
 31
0.0
 11
80.08111330546933
 21
286.1479109520107
 31
0.0
  0
SPLINE
  5
5A36
102
{ACAD_REACTORS
330
5BE4
102
}
330
2
100
AcDbEntity
  8
KIJUN
100
AcDbSpline
210
0.0
220
0.0
230
1.0
 70
    24
 71
     3
 72
     8
 73
     4
 74
     2
 42
0.0000000001
 43
0.0000000001
 44
0.0000000001
 40
0.0
 40
0.0
 40
0.0
 40
0.0
 40
1.883811850484019
 40
1.883811850484019
 40
1.883811850484019
 40
1.883811850484019
 10
84.84641455899952
 20
271.261615905237
 30
0.0
 10
85.4421878719612
 20
271.4600079201098
 30
0.0
 10
86.03796118492288
 20
271.6583999349828
 30
0.0
 10
86.63373449788457
 20
271.8567919498557
 30
0.0
 11
84.84641455899952
 21
271.261615905237
 31
0.0
 11
86.63373449788457
 21
271.8567919498557
 31
0.0
  0
SPLINE
  5
5A37
102
{ACAD_REACTORS
330
5BE4
102
}
330
2
100
AcDbEntity
  8
KIJUN
100
AcDbSpline
210
0.0
220
0.0
230
1.0
 70
     8
 71
     3
 72
     9
 73
     5
 74
     3
 42
0.0000000001
 43
0.0000000001
 44
0.0000000001
 40
0.0
 40
0.0
 40
0.0
 40
0.0
 40
4.174597038646538
 40
6.058408889130557
 40
6.058408889130557
 40
6.058408889130557
 40
6.058408889130557
 10
85.64136914297966
 20
267.4900611435543
 30
0.0
 10
84.40529498399554
 20
268.139337436551
 30
0.0
 10
82.61143497712845
 20
269.0816035351895
 30
0.0
 10
80.68127919192381
 20
269.684460844767
 30
0.0
 10
80.08111330546933
 20
269.8719143106384
 30
0.0
 11
85.64136914297966
 21
267.4900611435543
 31
0.0
 11
81.86843324435438
 21
269.2767382660197
 31
0.0
 11
80.08111330546933
 21
269.8719143106384
 31
0.0
  0
SPLINE
  5
5A38
102
{ACAD_REACTORS
330
5BE4
102
}
330
2
100
AcDbEntity
  8
KIJUN
100
AcDbSpline
210
0.0
220
0.0
230
1.0
 70
     8
 71
     3
 72
    15
 73
    11
 74
     9
 42
0.0000000001
 43
0.0000000001
 44
0.0000000001
 40
0.0
 40
0.0
 40
0.0
 40
0.0
 40
58.75118568114854
 40
92.55408998953527
 40
99.23468317271266
 40
104.7849717196903
 40
120.6355028030027
 40
139.6511381366944
 40
157.803754066061
 40
191.0535636671791
 40
191.0535636671791
 40
191.0535636671791
 40
191.0535636671791
 10
83.48932616558419
 20
147.1335154385553
 30
0.0
 10
82.82627910264626
 20
126.6675592233825
 30
0.0
 10
81.78174328913081
 20
94.42637240647059
 30
0.0
 10
82.86891820919208
 20
66.93097533146283
 30
0.0
 10
81.80261660284344
 20
46.30680000477299
 30
0.0
 10
93.80262494009093
 20
50.82504729151599
 30
0.0
 10
93.50076677715406
 20
66.1548023358126
 30
0.0
 10
93.97843840276136
 20
83.41218799099209
 30
0.0
 10
83.32549806961527
 20
105.2488464682851
 30
0.0
 10
83.82652029236055
 20
122.6498774243409
 30
0.0
 10
84.15060798550518
 20
133.9057852960206
 30
0.0
 11
83.48932616558419
 21
147.1335154385553
 31
0.0
 11
82.32964854309363
 21
88.39377619200531
 31
0.0
 11
82.20305777964211
 21
54.59110892356983
 31
0.0
 11
83.42027665832109
 21
48.02234165105182
 31
0.0
 11
88.77515447413577
 21
49.48213154429248
 31
0.0
 11
93.64314473845558
 21
64.56662710793461
 31
0.0
 11
92.42681110993988
 21
83.54332122593332
 31
0.0
 11
86.64170174865546
 21
100.7494240605985
 31
0.0
 11
84.15060798550518
 21
133.9057852960206
 31
0.0
  0
SPLINE
  5
5A39
102
{ACAD_REACTORS
330
5BE4
102
}
330
2
100
AcDbEntity
  8
KIJUN
100
AcDbSpline
210
0.0
220
0.0
230
1.0
 70
     8
 71
     3
 72
    15
 73
    11
 74
     9
 42
0.0000000001
 43
0.0000000001
 44
0.0000000001
 40
0.0
 40
0.0
 40
0.0
 40
0.0
 40
8.212320425013238
 40
17.70043568080619
 40
38.79840092571365
 40
80.57893233451725
 40
112.7874729474066
 40
138.4080337075782
 40
154.7861125407937
 40
161.4528319811308
 40
161.4528319811308
 40
161.4528319811308
 40
161.4528319811308
 10
50.81125516601867
 20
102.2999840455842
 30
0.0
 10
50.82737405124302
 20
105.0473837092516
 30
0.0
 10
50.86211591181276
 20
110.9689952050834
 30
0.0
 10
55.66514291990106
 20
123.4815660736817
 30
0.0
 10
61.6084741963754
 20
142.6449775827748
 30
0.0
 10
80.08378329705749
 20
200.5863178585108
 30
0.0
 10
64.38759144212181
 20
146.9294922174392
 30
0.0
 10
60.64631177639663
 20
127.0240607485737
 30
0.0
 10
58.24364435127762
 20
109.5305879579337
 30
0.0
 10
52.87649772110473
 20
103.9223988993802
 30
0.0
 10
51.32381497015273
 20
102.2999840455842
 30
0.0
 11
50.81125516601867
 21
102.2999840455842
 31
0.0
 11
51.32381497015273
 21
110.4962935328032
 31
0.0
 11
54.10527076403639
 21
119.5675577651956
 31
0.0
 11
60.70392496133251
 21
139.6070662486847
 31
0.0
 11
73.64185507834452
 21
179.333918239364
 31
0.0
 11
65.27181544393795
 21
148.2319484475549
 31
0.0
 11
60.19667665771237
 21
123.1190812284141
 31
0.0
 11
55.62790092494367
 21
107.391152103107
 31
0.0
 11
51.32381497015273
 21
102.2999840455842
 31
0.0
  0
SPLINE
  5
5A3A
102
{ACAD_REACTORS
330
5BE4
102
}
330
2
100
AcDbEntity
  8
KIJUN
100
AcDbSpline
210
0.0
220
0.0
230
1.0
 70
     8
 71
     3
 72
    14
 73
    10
 74
     8
 42
0.0000000001
 43
0.0000000001
 44
0.0000000001
 40
0.0
 40
0.0
 40
0.0
 40
0.0
 40
8.584401262073951
 40
24.7589609712824
 40
81.54843646456814
 40
115.2926070728397
 40
132.6357047039692
 40
152.4828522487146
 40
172.4341146018195
 40
172.4341146018195
 40
172.4341146018195
 40
172.4341146018195
 10
51.57965224719635
 20
90.64694264661666
 30
0.0
 10
53.78385841921917
 20
92.63742649015423
 30
0.0
 10
60.14118642843993
 20
98.37834077078618
 30
0.0
 10
62.1186565637141
 20
123.9881968171538
 30
0.0
 10
79.81331536464058
 20
195.1497557201849
 30
0.0
 10
67.44002521693278
 20
138.3482999605407
 30
0.0
 10
65.87048936739842
 20
117.1978436208529
 30
0.0
 10
63.58750474323045
 20
97.42524960533749
 30
0.0
 10
56.92834529546743
 20
85.87047377637039
 30
0.0
 10
53.59005520964536
 20
80.07797190037235
 30
0.0
 11
51.57965224719635
 21
90.64694264661666
 31
0.0
 11
57.50020487275003
 21
96.86297044870588
 31
0.0
 11
61.64140481030597
 21
112.4984059995287
 31
0.0
 11
73.64185507834452
 21
168.005466092519
 31
0.0
 11
67.62215444230503
 21
134.8025708227898
 31
0.0
 11
65.78171949781506
 21
117.5574023789042
 31
0.0
 11
62.33101463323953
 21
98.01253344610012
 31
0.0
 11
53.59005520964536
 21
80.07797190037235
 31
0.0
  0
SPLINE
  5
5A3C
102
{ACAD_REACTORS
330
5BE4
102
}
330
2
100
AcDbEntity
  8
KIJUN
100
AcDbSpline
210
0.0
220
0.0
230
1.0
 70
     8
 71
     3
 72
    16
 73
    12
 74
     0
 42
0.0000000001
 43
0.0000000001
 40
0.0
 40
0.0
 40
0.0
 40
0.0
 40
4.851832401539866
 40
10.53512916904598
 40
15.64222994799564
 40
21.97735077722345
 40
27.6336106528646
 40
33.11422820258816
 40
43.15300064593201
 40
55.69452425806942
 40
64.04628323938993
 40
64.04628323938993
 40
64.04628323938993
 40
64.04628323938993
 10
55.77131144010024
 20
234.7519317233484
 30
0.0
 10
56.70177035794714
 20
233.2521689745009
 30
0.0
 10
58.72214205975956
 20
229.9956273270571
 30
0.0
 10
53.23053062077895
 20
224.5400150241805
 30
0.0
 10
48.13809783009469
 20
229.742984808716
 30
0.0
 10
48.07484405768679
 20
235.5164911750667
 30
0.0
 10
50.75969026493229
 20
241.4705736809641
 30
0.0
 10
59.03665737167603
 20
242.0548815126586
 30
0.0
 10
65.12754672355459
 20
232.3257956534438
 30
0.0
 10
60.4704916902982
 20
221.4724250016485
 30
0.0
 10
52.80242620411015
 20
218.4671567994872
 30
0.0
 10
50.00401181839539
 20
218.4591902870744
 30
0.0
  0
SPLINE
  5
5A3E
102
{ACAD_REACTORS
330
5BE4
102
}
330
2
100
AcDbEntity
  8
KIJUN
100
AcDbSpline
210
0.0
220
0.0
230
1.0
 70
     8
 71
     3
 72
    15
 73
    11
 74
     9
 42
0.0000000001
 43
0.0000000001
 44
0.0000000001
 40
0.0
 40
0.0
 40
0.0
 40
0.0
 40
58.75118568114854
 40
92.55408998953527
 40
99.23468317271266
 40
104.7849717196903
 40
120.6355028030027
 40
139.6511381366944
 40
157.803754066061
 40
191.0535636671813
 40
191.0535636671813
 40
191.0535636671813
 40
191.0535636671813
 10
76.51891788241016
 20
147.1335154385553
 30
0.0
 10
77.18196494534812
 20
126.6675592233825
 30
0.0
 10
78.22650075886355
 20
94.42637240647059
 30
0.0
 10
77.13932583880228
 20
66.93097533146283
 30
0.0
 10
78.20562744515092
 20
46.30680000477299
 30
0.0
 10
66.20561910790343
 20
50.82504729151598
 30
0.0
 10
66.50747727084013
 20
66.15480233581263
 30
0.0
 10
66.02980564523386
 20
83.41218799099204
 30
0.0
 10
76.68274597837546
 20
105.2488464682861
 30
0.0
 10
76.18172375565001
 20
122.6498774243411
 30
0.0
 10
75.85763606251828
 20
133.9057852960206
 30
0.0
 11
76.51891788241016
 21
147.1335154385553
 31
0.0
 11
77.67859550490072
 21
88.39377619200531
 31
0.0
 11
77.80518626835226
 21
54.59110892356983
 31
0.0
 11
76.58796738967328
 21
48.02234165105182
 31
0.0
 11
71.23308957385859
 21
49.48213154429248
 31
0.0
 11
66.36509930953877
 21
64.56662710793461
 31
0.0
 11
67.58143293805449
 21
83.54332122593332
 31
0.0
 11
73.3665422993389
 21
100.7494240605985
 31
0.0
 11
75.85763606251828
 21
133.9057852960206
 31
0.0
  0
SPLINE
  5
5A3F
102
{ACAD_REACTORS
330
5BE4
102
}
330
2
100
AcDbEntity
  8
KIJUN
100
AcDbSpline
210
0.0
220
0.0
230
1.0
 70
     8
 71
     3
 72
     9
 73
     5
 74
     3
 42
0.0000000001
 43
0.0000000001
 44
0.0000000001
 40
0.0
 40
0.0
 40
0.0
 40
0.0
 40
44.76511943603087
 40
105.4981617171158
 40
105.4981617171158
 40
105.4981617171158
 40
105.4981617171158
 10
62.94360769790626
 20
251.6713619265021
 30
0.0
 10
67.11380961374018
 20
237.2701045179521
 30
0.0
 10
76.94174354203801
 20
203.3305953161929
 30
0.0
 10
76.70373679620741
 20
167.9237803176619
 30
0.0
 10
76.56672138738475
 20
147.5408318629735
 30
0.0
 11
62.94360769790626
 21
251.6713619265021
 31
0.0
 11
73.64185507834452
 21
208.2034033695483
 31
0.0
 11
76.56672138738475
 21
147.5408318629735
 31
0.0
  0
SPLINE
  5
5A40
102
{ACAD_REACTORS
330
5BE4
102
}
330
2
100
AcDbEntity
  8
KIJUN
100
AcDbSpline
210
0.0
220
0.0
230
1.0
 70
     8
 71
     3
 72
    16
 73
    12
 74
    10
 42
0.0000000001
 43
0.0000000001
 44
0.0000000001
 40
0.0
 40
0.0
 40
0.0
 40
0.0
 40
13.73810331301823
 40
21.57354042341317
 40
44.53444518661679
 40
84.86928185067455
 40
121.8020748076595
 40
138.7024333192212
 40
157.1182131361424
 40
172.0450335765846
 40
176.8629085469578
 40
176.8629085469578
 40
176.8629085469578
 40
176.8629085469578
 10
52.24713081767811
 20
69.67560448709554
 30
0.0
 10
53.92883477266758
 20
73.91269045802963
 30
0.0
 10
56.56968754735885
 20
80.56637061959927
 30
0.0
 10
63.59809883709385
 20
93.99748292590222
 30
0.0
 10
67.65999951055585
 20
113.5472911250532
 30
0.0
 10
78.52846235554068
 20
174.1876260263906
 30
0.0
 10
68.50528773999832
 20
119.1243558040437
 30
0.0
 10
67.73150533891819
 20
97.6212351893119
 30
0.0
 10
61.6286936771254
 20
81.58279675346227
 30
0.0
 10
59.91312766796074
 20
68.15604209692203
 30
0.0
 10
54.92495127928433
 20
63.70607155070103
 30
0.0
 10
53.70779347204631
 20
62.62024058357491
 30
0.0
 11
52.24713081767811
 21
69.67560448709554
 31
0.0
 11
57.6020086334928
 21
82.32711689537536
 31
0.0
 11
61.01022149360767
 21
89.38248079889598
 31
0.0
 11
67.09543063660646
 21
111.5223402661751
 31
0.0
 11
74.37307165569189
 21
151.1951897972278
 31
0.0
 11
68.79865181661705
 21
114.6855056153392
 31
0.0
 11
66.85198686091723
 21
97.8976345957737
 31
0.0
 11
61.98311134643415
 21
80.13714480833295
 31
0.0
 11
57.11512108211434
 21
66.02641700117527
 31
0.0
 11
53.70779347204631
 21
62.62024058357491
 31
0.0
  0
SPLINE
  5
5A41
102
{ACAD_REACTORS
330
5BE4
102
}
330
2
100
AcDbEntity
  8
KIJUN
100
AcDbSpline
210
0.0
220
0.0
230
1.0
 70
     8
 71
     3
 72
    10
 73
     6
 74
     4
 42
0.0000000001
 43
0.0000000001
 44
0.0000000001
 40
0.0
 40
0.0
 40
0.0
 40
0.0
 40
6.695210605070501
 40
16.23524449901622
 40
72.5168452101735
 40
72.5168452101735
 40
72.5168452101735
 40
72.5168452101735
 10
50.00412202399719
 20
138.5626356992681
 30
0.0
 10
51.9612939053583
 20
139.6915721324446
 30
0.0
 10
56.70724827405774
 20
142.4291348616272
 30
0.0
 10
69.67844283930384
 20
163.7359280674092
 30
0.0
 10
70.86008873777277
 20
186.1456600481229
 30
0.0
 10
71.87046964123408
 20
205.3073778472855
 30
0.0
 11
50.00412202399719
 21
138.5626356992681
 31
0.0
 11
55.56239241798436
 21
142.295124851774
 31
0.0
 11
61.0952055026454
 21
150.0668830870665
 31
0.0
 11
71.87046964123408
 21
205.3073778472855
 31
0.0
  0
SPLINE
  5
5A42
102
{ACAD_REACTORS
330
5BE4
102
}
330
2
100
AcDbEntity
  8
KIJUN
100
AcDbSpline
210
0.0
220
0.0
230
1.0
 70
     8
 71
     3
 72
    11
 73
     7
 74
     5
 42
0.0000000001
 43
0.0000000001
 44
0.0000000001
 40
0.0
 40
0.0
 40
0.0
 40
0.0
 40
18.334528423929
 40
34.09459334129034
 40
53.86432981358464
 40
67.153044470243
 40
67.153044470243
 40
67.153044470243
 40
67.153044470243
 10
62.00412202399718
 20
68.58167761485237
 30
0.0
 10
62.67895971306566
 20
74.69479383925778
 30
0.0
 10
63.93387699526513
 20
86.06264617229763
 30
0.0
 10
70.76401064343428
 20
102.7245261869359
 30
0.0
 10
75.92950638253729
 20
118.3791486469913
 30
0.0
 10
75.87824280637983
 20
129.4539695159363
 30
0.0
 10
75.85763606248917
 20
133.9057852960206
 30
0.0
 11
62.00412202399718
 21
68.58167761485237
 31
0.0
 11
64.91594490636169
 21
86.68350680500878
 31
0.0
 11
70.10882195510465
 21
101.5634824150722
 31
0.0
 11
75.34596150840195
 21
120.6269251650912
 31
0.0
 11
75.85763606248917
 21
133.9057852960206
 31
0.0
  0
SPLINE
  5
5A43
102
{ACAD_REACTORS
330
5BE4
102
}
330
2
100
AcDbEntity
  8
KIJUN
100
AcDbSpline
210
0.0
220
0.0
230
1.0
 70
     8
 71
     3
 72
    10
 73
     6
 74
     4
 42
0.0000000001
 43
0.0000000001
 44
0.0000000001
 40
0.0
 40
0.0
 40
0.0
 40
0.0
 40
3.003131084725433
 40
6.298183309118905
 40
8.247005545624592
 40
8.247005545624592
 40
8.247005545624592
 40
8.247005545624592
 10
52.24713081767811
 20
69.67560448709554
 30
0.0
 10
52.0158173585975
 20
68.74802803685341
 30
0.0
 10
51.53070547834497
 20
66.8027095169391
 30
0.0
 10
51.20083672682759
 20
63.38459228871744
 30
0.0
 10
53.02854711194289
 20
62.82733754069119
 30
0.0
 10
53.70779347204631
 20
62.62024058357491
 30
0.0
 11
52.24713081767811
 21
69.67560448709554
 31
0.0
 11
51.60620974999881
 21
66.74166234433795
 31
0.0
 11
51.95145728643081
 21
63.46474713334027
 31
0.0
 11
53.70779347204631
 21
62.62024058357491
 31
0.0
  0
SPLINE
  5
5A44
102
{ACAD_REACTORS
330
5BE4
102
}
330
2
100
AcDbEntity
  8
KIJUN
100
AcDbSpline
210
0.0
220
0.0
230
1.0
 70
     8
 71
     3
 72
    10
 73
     6
 74
     4
 42
0.0000000001
 43
0.0000000001
 44
0.0000000001
 40
0.0
 40
0.0
 40
0.0
 40
0.0
 40
4.311120609986597
 40
13.163797582844
 40
23.55341417626162
 40
23.55341417626162
 40
23.55341417626162
 40
23.55341417626162
 10
43.98960497023916
 20
121.5275643744637
 30
0.0
 10
45.0693613844574
 20
122.4710114855666
 30
0.0
 10
48.36634519943604
 20
125.3517814579745
 30
0.0
 10
53.36087679320607
 20
131.7581196209718
 30
0.0
 10
54.32129749846601
 20
138.2078974793924
 30
0.0
 10
54.83986369025922
 20
141.6903679463823
 30
0.0
 11
43.98960497023916
 21
121.5275643744637
 31
0.0
 11
47.17464778170949
 21
124.4329495817903
 31
0.0
 11
52.3746068311765
 21
131.5974673931734
 31
0.0
 11
54.83986369025922
 21
141.6903679463823
 31
0.0
  0
SPLINE
  5
5A45
102
{ACAD_REACTORS
330
5BE4
102
}
330
2
100
AcDbEntity
  8
KIJUN
100
AcDbSpline
210
0.0
220
0.0
230
1.0
 70
    11
 71
     3
 72
    15
 73
    11
 74
     9
 42
0.0000000001
 43
0.0000000001
 44
0.0000000001
 40
0.0
 40
0.0
 40
0.0
 40
0.0
 40
12.55645434901564
 40
28.42664028390408
 40
30.70816723971137
 40
32.39961609515598
 40
35.15644888886587
 40
42.72107169376631
 40
52.18647089892307
 40
64.893785520465
 40
64.893785520465
 40
64.893785520465
 40
64.893785520465
 10
60.94559823681163
 20
176.2218828785946
 30
0.0
 10
60.47788150211966
 20
171.9828285002161
 30
0.0
 10
59.41901448422669
 20
162.3860051766383
 30
0.0
 10
55.28062723812627
 20
153.7469694630586
 30
0.0
 10
49.21353589151181
 20
148.3687271826066
 30
0.0
 10
51.51029516056417
 20
146.1088624213943
 30
0.0
 10
54.30508537008853
 20
150.6896170687047
 30
0.0
 10
58.47554122115329
 20
154.6098457082693
 30
0.0
 10
62.35994564531353
 20
164.6286521493988
 30
0.0
 10
61.46086609362161
 20
171.9982960035257
 30
0.0
 10
60.94559823681163
 20
176.2218828785946
 30
0.0
 11
60.94559823681163
 21
176.2218828785946
 31
0.0
 11
59.00158903136878
 21
163.8168285043459
 31
0.0
 11
51.07683019404328
 21
150.0668830870665
 31
0.0
 11
49.88085731765284
 21
148.1239435283016
 31
0.0
 11
51.07683019404328
 21
146.9278464964838
 31
0.0
 11
53.1704466653199
 21
148.7214175499059
 31
0.0
 11
57.80561615509475
 21
154.6996047317763
 31
0.0
 11
61.24481276847916
 21
163.5180914935437
 31
0.0
 11
60.94559823681163
 21
176.2218828785946
 31
0.0
  0
SPLINE
  5
5A46
102
{ACAD_REACTORS
330
5BE4
102
}
330
2
100
AcDbEntity
  8
KIJUN
100
AcDbSpline
210
0.0
220
0.0
230
1.0
 70
     8
 71
     3
 72
    10
 73
     6
 74
     4
 42
0.0000000001
 43
0.0000000001
 44
0.0000000001
 40
0.0
 40
0.0
 40
0.0
 40
0.0
 40
5.711956046525431
 40
16.40017275505394
 40
24.32686880768584
 40
24.32686880768584
 40
24.32686880768584
 40
24.32686880768584
 10
49.2200506819671
 20
154.2013181282629
 30
0.0
 10
50.67970731265609
 20
155.446613569277
 30
0.0
 10
54.87067459450717
 20
159.0221068324184
 30
0.0
 10
57.6435083432635
 20
167.3074283650364
 30
0.0
 10
57.02517604319874
 20
173.4851312768068
 30
0.0
 10
56.76187466408271
 20
176.1157518933716
 30
0.0
 11
49.2200506819671
 21
154.2013181282629
 31
0.0
 11
53.31739818078029
 21
158.1810398963527
 31
0.0
 11
57.05492407566897
 21
168.1944747013287
 31
0.0
 11
56.76187466408271
 21
176.1157518933716
 31
0.0
  0
SPLINE
  5
5A47
102
{ACAD_REACTORS
330
5BE4
102
}
330
2
100
AcDbEntity
  8
KIJUN
100
AcDbSpline
210
0.0
220
0.0
230
1.0
 70
     8
 71
     3
 72
    11
 73
     7
 74
     5
 42
0.0000000001
 43
0.0000000001
 44
0.0000000001
 40
0.0
 40
0.0
 40
0.0
 40
0.0
 40
10.84776480127058
 40
23.17276600483498
 40
26.72582018315218
 40
29.59767814517701
 40
29.59767814517701
 40
29.59767814517701
 40
29.59767814517701
 10
65.46568521444249
 20
201.2991314541097
 30
0.0
 10
64.77808791498905
 20
197.5592392650987
 30
0.0
 10
63.30925708968158
 20
189.5701605777444
 30
0.0
 10
58.8998424062936
 20
183.9500685577391
 30
0.0
 10
57.07944825187488
 20
174.7127994067225
 30
0.0
 10
55.61623255904215
 20
177.2318620113894
 30
0.0
 10
54.96219285455561
 20
178.3578525058939
 30
0.0
 11
65.46568521444249
 21
201.2991314541097
 31
0.0
 11
62.88695169199752
 21
190.7623323858963
 31
0.0
 11
58.10217493638891
 21
179.404006538006
 31
0.0
 11
56.7565947941647
 21
176.1156014420805
 31
0.0
 11
54.96219285455561
 21
178.3578525058939
 31
0.0
  0
SPLINE
  5
5A48
102
{ACAD_REACTORS
330
5BE4
102
}
330
2
100
AcDbEntity
  8
KIJUN
100
AcDbSpline
210
0.0
220
0.0
230
1.0
 70
     8
 71
     3
 72
    11
 73
     7
 74
     5
 42
0.0000000001
 43
0.0000000001
 44
0.0000000001
 40
0.0
 40
0.0
 40
0.0
 40
0.0
 40
6.800588789559028
 40
14.27798013495095
 40
30.90552675835876
 40
35.92290904658197
 40
35.92290904658197
 40
35.92290904658197
 40
35.92290904658197
 10
50.00412202399719
 20
169.4647202043372
 30
0.0
 10
51.63932538780042
 20
171.1704247900267
 30
0.0
 10
55.07246946803551
 20
174.7515876781519
 30
0.0
 10
54.43952484339732
 20
185.7305390025141
 30
0.0
 10
60.39780037573706
 20
194.0470534274508
 30
0.0
 10
64.51199761257342
 20
199.93441676111
 30
0.0
 10
65.46568521444249
 20
201.2991314541097
 30
0.0
 11
50.00412202399719
 21
169.4647202043372
 31
0.0
 11
54.06454925978585
 21
174.9200789045091
 31
0.0
 11
55.1489806243361
 21
182.3184158762698
 31
0.0
 11
62.58773716032999
 21
197.1891995782745
 31
0.0
 11
65.46568521444249
 21
201.2991314541097
 31
0.0
  0
SPLINE
  5
5A49
102
{ACAD_REACTORS
330
5BE4
102
}
330
2
100
AcDbEntity
  8
KIJUN
100
AcDbSpline
210
0.0
220
0.0
230
1.0
 70
     8
 71
     3
 72
    13
 73
     9
 74
     7
 42
0.0000000001
 43
0.0000000001
 44
0.0000000001
 40
0.0
 40
0.0
 40
0.0
 40
0.0
 40
10.86196053801178
 40
22.87316712738823
 40
26.94344661293677
 40
32.60247186846732
 40
44.06708189647249
 40
53.1277562363967
 40
53.1277562363967
 40
53.1277562363967
 40
53.1277562363967
 10
47.52343631856172
 20
176.2649699474233
 30
0.0
 10
47.87835050327376
 20
180.1180330649904
 30
0.0
 10
48.62573044765764
 20
188.2318313366806
 30
0.0
 10
54.09434680943792
 20
193.2322365772834
 30
0.0
 10
61.68558806439091
 20
201.11156595212
 30
0.0
 10
54.18660209183423
 20
191.3226996262874
 30
0.0
 10
52.66432020946448
 20
185.1096064913739
 30
0.0
 10
49.0978275767523
 20
178.8700077321714
 30
0.0
 10
47.52343631856172
 20
176.1156014420805
 30
0.0
 11
47.52343631856172
 21
176.2649699474233
 31
0.0
 11
49.46656027384131
 21
186.951712015226
 31
0.0
 11
57.01774357183865
 21
196.2924140516217
 31
0.0
 11
59.93375737994472
 21
199.1321391371559
 31
0.0
 11
56.79377529811143
 21
194.42415874547
 31
0.0
 11
51.78414501872873
 21
184.1119869296919
 31
0.0
 11
47.52343631856172
 21
176.1156014420805
 31
0.0
  0
SPLINE
  5
5A4A
102
{ACAD_REACTORS
330
5BE4
102
}
330
2
100
AcDbEntity
  8
KIJUN
100
AcDbSpline
210
0.0
220
0.0
230
1.0
 70
     8
 71
     3
 72
    11
 73
     7
 74
     5
 42
0.0000000001
 43
0.0000000001
 44
0.0000000001
 40
0.0
 40
0.0
 40
0.0
 40
0.0
 40
6.57651506878708
 40
18.18533629669823
 40
32.78003355176708
 40
47.03106235324093
 40
47.03106235324093
 40
47.03106235324093
 40
47.03106235324093
 10
50.00412202399719
 20
195.5816776148378
 30
0.0
 10
52.18887255906017
 20
196.0975524545197
 30
0.0
 10
58.23013039682854
 20
197.5240461747495
 30
0.0
 10
64.88494542563699
 20
207.0971063932386
 30
0.0
 10
70.71472573922943
 20
219.523895165447
 30
0.0
 10
69.47905904468007
 20
229.280348063125
 30
0.0
 10
68.86858657404343
 20
234.100455242001
 30
0.0
 11
50.00412202399719
 21
195.5816776148378
 31
0.0
 11
56.25111699075467
 21
197.637305094536
 31
0.0
 11
63.97580930701486
 21
206.3029763853657
 31
0.0
 11
69.38380212843447
 21
219.8587427455015
 31
0.0
 11
68.86858657404343
 21
234.100455242001
 31
0.0
  0
SPLINE
  5
5A4B
102
{ACAD_REACTORS
330
5BE4
102
}
330
2
100
AcDbEntity
  8
KIJUN
100
AcDbSpline
210
0.0
220
0.0
230
1.0
 70
     8
 71
     3
 72
    11
 73
     7
 74
     5
 42
0.0000000001
 43
0.0000000001
 44
0.0000000001
 40
0.0
 40
0.0
 40
0.0
 40
0.0
 40
8.508679268815566
 40
23.89637470458273
 40
34.20405873240208
 40
44.35912283816413
 40
44.35912283816413
 40
44.35912283816413
 40
44.35912283816413
 10
50.00412202399719
 20
208.0478087864569
 30
0.0
 10
52.69638553600649
 20
209.0867345281546
 30
0.0
 10
60.25752818269674
 20
212.0045268234683
 30
0.0
 10
66.17315962354703
 20
223.2283916378788
 30
0.0
 10
66.83323914813133
 20
235.1845895200966
 30
0.0
 10
65.7447311546735
 20
241.9416957878011
 30
0.0
 10
65.20453643688495
 20
245.2950502282722
 30
0.0
 11
50.00412202399719
 21
208.0478087864569
 31
0.0
 11
57.64627113816357
 21
211.7888219936532
 31
0.0
 11
65.62768598151421
 21
224.9447403546903
 31
0.0
 11
66.46424731990816
 21
235.2184210556108
 31
0.0
 11
65.20453643688495
 21
245.2950502282722
 31
0.0
  0
SPLINE
  5
5A4E
102
{ACAD_REACTORS
330
5BE4
102
}
330
2
100
AcDbEntity
  8
KIJUN
100
AcDbSpline
210
0.0
220
0.0
230
1.0
 70
     8
 71
     3
 72
    11
 73
     7
 74
     5
 42
0.0000000001
 43
0.0000000001
 44
0.0000000001
 40
0.0
 40
0.0
 40
0.0
 40
0.0
 40
3.647087790824024
 40
9.275771068192568
 40
23.73930571122822
 40
29.79510361159114
 40
29.79510361159114
 40
29.79510361159114
 40
29.79510361159114
 10
44.31493597277119
 20
247.2781919179062
 30
0.0
 10
45.57260881976069
 20
247.3510148313626
 30
0.0
 10
48.77129392865976
 20
247.5362279966283
 30
0.0
 10
53.95559905740111
 20
254.8778833680873
 30
0.0
 10
66.2361130188838
 20
248.4697749728523
 30
0.0
 10
69.14548838266838
 20
255.4883735665009
 30
0.0
 10
70.00412202399719
 20
257.559747698043
 30
0.0
 11
44.31493597277119
 21
247.2781919179062
 31
0.0
 11
47.906616305091
 21
247.9115020665733
 31
0.0
 11
52.42241033626749
 21
251.2715139274034
 31
0.0
 11
66.84224910993624
 21
252.3949390970039
 31
0.0
 11
70.00412202399719
 21
257.559747698043
 31
0.0
  0
SPLINE
  5
5A4F
102
{ACAD_REACTORS
330
5BE4
102
}
330
2
100
AcDbEntity
  8
KIJUN
100
AcDbSpline
210
0.0
220
0.0
230
1.0
 70
     8
 71
     3
 72
    14
 73
    10
 74
     8
 42
0.0000000001
 43
0.0000000001
 44
0.0000000001
 40
0.0
 40
0.0
 40
0.0
 40
0.0
 40
4.763706334051676
 40
11.09752968079611
 40
16.96064926215544
 40
23.12946474578712
 40
28.2922432913074
 40
33.74532665008203
 40
40.97330065288086
 40
40.97330065288086
 40
40.97330065288086
 40
40.97330065288086
 10
47.9563236142884
 20
248.2370352905956
 30
0.0
 10
47.79553119635614
 20
249.8584382780844
 30
0.0
 10
47.42094919962494
 20
253.635658475217
 30
0.0
 10
50.84943883554544
 20
258.5748871927969
 30
0.0
 10
56.72890751901002
 20
261.9559193796566
 30
0.0
 10
61.41741683834252
 20
260.5403098997029
 30
0.0
 10
70.7909511289599
 20
260.5778659796418
 30
0.0
 10
60.75325298183315
 20
261.7851667125668
 30
0.0
 10
57.40859190628174
 20
263.0169733229936
 30
0.0
 10
55.50219541165541
 20
263.7190808762345
 30
0.0
 11
47.9563236142884
 21
248.2370352905956
 31
0.0
 11
47.9563236142884
 21
253.0007416246473
 31
0.0
 11
51.33266747108689
 21
258.3596240033177
 31
0.0
 11
56.49544601660716
 21
261.1384526981521
 31
0.0
 11
62.65147516707918
 21
260.7414771704018
 31
0.0
 11
67.81425371259945
 21
260.7414771704018
 31
0.0
 11
62.45229389606072
 21
261.7342032371336
 31
0.0
 11
55.50219541165541
 21
263.7190808762345
 31
0.0
  0
SPLINE
  5
5A50
102
{ACAD_REACTORS
330
5BE4
102
}
330
2
100
AcDbEntity
  8
KIJUN
100
AcDbSpline
210
0.0
220
0.0
230
1.0
 70
     8
 71
     3
 72
    10
 73
     6
 74
     4
 42
0.0000000001
 43
0.0000000001
 44
0.0000000001
 40
0.0
 40
0.0
 40
0.0
 40
0.0
 40
5.391898199031822
 40
13.57593745971259
 40
23.54403103507614
 40
23.54403103507614
 40
23.54403103507614
 40
23.54403103507614
 10
47.16225428035511
 20
284.1630333127934
 30
0.0
 10
46.86768823729375
 20
282.3895064501598
 30
0.0
 10
46.1260180442114
 20
277.924049410456
 30
0.0
 10
48.00530822935328
 20
269.758742118041
 30
0.0
 10
52.84468932106381
 20
265.8600276645363
 30
0.0
 10
55.50219541165541
 20
263.7190808762345
 30
0.0
 11
47.16225428035511
 21
284.1630333127934
 31
0.0
 11
46.56648096750984
 21
278.804150934123
 31
0.0
 11
48.55209692725009
 21
270.8646403773702
 31
0.0
 11
55.50219541165541
 21
263.7190808762345
 31
0.0
  0
SPLINE
  5
5A51
102
{ACAD_REACTORS
330
5BE4
102
}
330
2
100
AcDbEntity
  8
KIJUN
100
AcDbSpline
210
0.0
220
0.0
230
1.0
 70
     8
 71
     3
 72
     9
 73
     5
 74
     3
 42
0.0000000001
 43
0.0000000001
 44
0.0000000001
 40
0.0
 40
0.0
 40
0.0
 40
0.0
 40
4.174597038646538
 40
6.058408889130557
 40
6.058408889130557
 40
6.058408889130557
 40
6.058408889130557
 10
74.36687490501469
 20
267.4900611435543
 30
0.0
 10
75.60294906399878
 20
268.139337436551
 30
0.0
 10
77.39680907086591
 20
269.0816035351895
 30
0.0
 10
79.32696485607056
 20
269.684460844767
 30
0.0
 10
79.92713074252503
 20
269.8719143106384
 30
0.0
 11
74.36687490501469
 21
267.4900611435543
 31
0.0
 11
78.13981080363999
 21
269.2767382660197
 31
0.0
 11
79.92713074252503
 21
269.8719143106384
 31
0.0
  0
SPLINE
  5
5A52
102
{ACAD_REACTORS
330
5BE4
102
}
330
2
100
AcDbEntity
  8
KIJUN
100
AcDbSpline
210
0.0
220
0.0
230
1.0
 70
     8
 71
     3
 72
    11
 73
     7
 74
     5
 42
0.0000000001
 43
0.0000000001
 44
0.0000000001
 40
0.0
 40
0.0
 40
0.0
 40
0.0
 40
5.123968101848523
 40
10.14571033422316
 40
17.19436065679569
 40
19.34143912761694
 40
19.34143912761694
 40
19.34143912761694
 40
19.34143912761694
 10
66.8210031076477
 20
270.0706893216367
 30
0.0
 10
68.40721896348537
 20
270.9050121411879
 30
0.0
 10
71.54800483119505
 20
272.5570125994545
 30
0.0
 10
72.96236284757378
 20
278.5065754778433
 30
0.0
 10
72.66742522309323
 20
283.468248785063
 30
0.0
 10
74.52818576408327
 20
285.962510141888
 30
0.0
 10
74.96264821797637
 20
286.5448864798775
 30
0.0
 11
66.8210031076477
 21
270.0706893216367
 31
0.0
 11
70.99141629837948
 21
273.0477185333395
 31
0.0
 11
72.58044021617649
 21
277.8114248673912
 31
0.0
 11
73.77110159205301
 21
284.7587838517749
 31
0.0
 11
74.96264821797637
 21
286.5448864798775
 31
0.0
  0
SPLINE
  5
5A53
102
{ACAD_REACTORS
330
5BE4
102
}
330
2
100
AcDbEntity
  8
KIJUN
100
AcDbSpline
210
0.0
220
0.0
230
1.0
 70
    24
 71
     3
 72
     8
 73
     4
 74
     2
 42
0.0000000001
 43
0.0000000001
 44
0.0000000001
 40
0.0
 40
0.0
 40
0.0
 40
0.0
 40
1.883811850484019
 40
1.883811850484019
 40
1.883811850484019
 40
1.883811850484019
 10
75.16182948899484
 20
271.261615905237
 30
0.0
 10
74.56605617603315
 20
271.4600079201098
 30
0.0
 10
73.97028286307147
 20
271.6583999349828
 30
0.0
 10
73.37450955010979
 20
271.8567919498557
 30
0.0
 11
75.16182948899484
 21
271.261615905237
 31
0.0
 11
73.37450955010979
 21
271.8567919498557
 31
0.0
  0
SPLINE
  5
5A54
102
{ACAD_REACTORS
330
5BE4
102
}
330
2
100
AcDbEntity
  8
KIJUN
100
AcDbSpline
210
0.0
220
0.0
230
1.0
 70
     8
 71
     3
 72
    12
 73
     8
 74
     6
 42
0.0000000001
 43
0.0000000001
 44
0.0000000001
 40
0.0
 40
0.0
 40
0.0
 40
0.0
 40
1.157778426127479
 40
7.105987478123348
 40
11.88624753755954
 40
13.84179552472735
 40
16.87867010798949
 40
16.87867010798949
 40
16.87867010798949
 40
16.87867010798949
 10
73.37450955010979
 20
272.6507430054728
 30
0.0
 10
73.56888966188058
 20
272.9808965538713
 30
0.0
 10
74.76191814562878
 20
275.0072488574162
 30
0.0
 10
77.55352744075401
 20
278.5394932272765
 30
0.0
 10
75.62424347845558
 20
282.7541067520449
 30
0.0
 10
76.90211915531858
 20
286.2126866090022
 30
0.0
 10
78.7829981207754
 20
286.1724106737879
 30
0.0
 10
79.92713074252503
 20
286.1479109520107
 30
0.0
 11
73.37450955010979
 21
272.6507430054728
 31
0.0
 11
73.97028286307147
 21
273.6434690722046
 31
0.0
 11
76.55167213588981
 21
279.002351450875
 31
0.0
 11
76.15419484389974
 21
283.7660577850431
 31
0.0
 11
76.94914942787988
 21
285.552734907392
 31
0.0
 11
79.92713074252503
 21
286.1479109520107
 31
0.0
  0
SPLINE
  5
5A55
102
{ACAD_REACTORS
330
5BE4
102
}
330
2
100
AcDbEntity
  8
KIJUN
100
AcDbSpline
210
0.0
220
0.0
230
1.0
 70
     8
 71
     3
 72
    11
 73
     7
 74
     5
 42
0.0000000001
 43
0.0000000001
 44
0.0000000001
 40
0.0
 40
0.0
 40
0.0
 40
0.0
 40
4.372140176200059
 40
9.961639393721338
 40
12.57213076683934
 40
13.01574856712478
 40
13.01574856712478
 40
13.01574856712478
 40
13.01574856712478
 10
75.16182948899484
 20
271.261615905237
 30
0.0
 10
76.48877685443586
 20
272.0893626985565
 30
0.0
 10
79.51214084009388
 20
273.9753303784688
 30
0.0
 10
79.36152202642865
 20
278.2921192041979
 30
0.0
 10
78.82064335800141
 20
281.9022636714569
 30
0.0
 10
79.78679460329567
 20
282.3167285197241
 30
0.0
 10
79.92713074252503
 20
282.3769306846909
 30
0.0
 11
75.16182948899484
 21
271.261615905237
 31
0.0
 11
78.53728809563006
 21
274.0404446000713
 31
0.0
 11
79.13306140859174
 21
279.5981019898565
 31
0.0
 11
79.53053870058181
 21
282.1781556736925
 31
0.0
 11
79.92713074252503
 21
282.3769306846909
 31
0.0
  0
SPLINE
  5
5A56
102
{ACAD_REACTORS
330
5BE4
102
}
330
2
100
AcDbEntity
  8
KIJUN
100
AcDbSpline
210
0.0
220
0.0
230
1.0
 70
     8
 71
     3
 72
    16
 73
    12
 74
    10
 42
0.0000000001
 43
0.0000000001
 44
0.0000000001
 40
0.0
 40
0.0
 40
0.0
 40
0.0
 40
16.53863121163841
 40
42.68147247779518
 40
49.12471453597085
 40
55.29042756510043
 40
60.85162140942619
 40
68.49044276165699
 40
77.10928874889617
 40
92.29126921066706
 40
108.2906045095317
 40
108.2906045095317
 40
108.2906045095317
 40
108.2906045095317
 10
49.49975628586514
 20
318.1051629224195
 30
0.0
 10
47.99692712359152
 20
312.704744371841
 30
0.0
 10
44.11855528570498
 20
298.7678101246532
 30
0.0
 10
51.72948401921252
 20
282.1506816887112
 30
0.0
 10
61.63274647010343
 20
273.337024337046
 30
0.0
 10
69.31327473485644
 20
274.5284499835819
 30
0.0
 10
69.39228463785346
 20
283.3160507460957
 30
0.0
 10
60.41287939232498
 20
284.0059198395246
 30
0.0
 10
54.84986747618862
 20
293.6023314081049
 30
0.0
 10
51.45440409992318
 20
307.109000449445
 30
0.0
 10
56.36240036272775
 20
316.6818251646989
 30
0.0
 10
58.88072506900323
 20
321.5937035970375
 30
0.0
 11
49.49975628586514
 21
318.1051629224195
 31
0.0
 11
46.56648096750984
 21
301.8287315487643
 31
0.0
 11
56.89203805855038
 21
277.8114248673912
 31
0.0
 11
62.25399787508911
 21
274.2386451168233
 31
0.0
 11
68.21173100458953
 21
275.8265472281739
 31
0.0
 11
68.41002702556114
 21
281.384204617959
 31
0.0
 11
61.65822456212743
 21
284.9569843685269
 31
0.0
 11
56.29714999563555
 21
291.7055683417959
 31
0.0
 11
53.31828343094355
 21
306.592437882816
 31
0.0
 11
58.88072506900323
 21
321.5937035970375
 31
0.0
  0
SPLINE
  5
5A57
102
{ACAD_REACTORS
330
5BE4
102
}
330
2
100
AcDbEntity
  8
KIJUN
100
AcDbSpline
210
0.0
220
0.0
230
1.0
 70
     8
 71
     3
 72
    13
 73
     9
 74
     7
 42
0.0000000001
 43
0.0000000001
 44
0.0000000001
 40
0.0
 40
0.0
 40
0.0
 40
0.0
 40
2.498659846691315
 40
12.67181461659109
 40
16.33385580355356
 40
21.70269656149745
 40
28.03615899199606
 40
32.04110526594052
 40
32.04110526594052
 40
32.04110526594052
 40
32.04110526594052
 10
60.5500337535367
 20
319.4258726357468
 30
0.0
 10
60.16489133472095
 20
320.2658488531678
 30
0.0
 10
58.2116629516415
 20
324.525741580703
 30
0.0
 10
46.80262332423296
 20
314.5513753551983
 30
0.0
 10
51.97616151524477
 20
322.4092554971756
 30
0.0
 10
55.74438664603377
 20
324.2494311996764
 30
0.0
 10
62.40609754687636
 20
326.9229242837778
 30
0.0
 10
63.61964392770261
 20
323.1712485136484
 30
0.0
 10
64.08975380583695
 20
321.7179049357175
 30
0.0
 11
60.5500337535367
 21
319.4258726357468
 31
0.0
 11
59.12640929461019
 21
321.4793074239525
 31
0.0
 11
49.49488827685389
 21
318.2041156956941
 31
0.0
 11
51.48050423671055
 21
321.2811069070842
 31
0.0
 11
55.94836145878332
 21
324.2581361187869
 31
0.0
 11
62.20353861974115
 21
325.2508621855188
 31
0.0
 11
64.08975380583695
 21
321.7179049357175
 31
0.0
  0
SPLINE
  5
5A58
102
{ACAD_REACTORS
330
5BE4
102
}
330
2
100
AcDbEntity
  8
KIJUN
100
AcDbSpline
210
0.0
220
0.0
230
1.0
 70
     8
 71
     3
 72
     9
 73
     5
 74
     3
 42
0.0000000001
 43
0.0000000001
 44
0.0000000001
 40
0.0
 40
0.0
 40
0.0
 40
0.0
 40
5.926987487363778
 40
13.27309730495136
 40
13.27309730495136
 40
13.27309730495136
 40
13.27309730495136
 10
62.29049722731258
 20
330.0434510388833
 30
0.0
 10
64.47446745332777
 20
330.7091178560306
 30
0.0
 10
69.36532463546595
 20
332.1998347599401
 30
0.0
 10
70.92015251809829
 20
327.1349059885889
 30
0.0
 10
71.78068537722253
 20
324.3316776148524
 30
0.0
 11
62.29049722731258
 21
330.0434510388833
 31
0.0
 11
68.17720625101618
 21
330.7332608283279
 31
0.0
 11
71.78068537722253
 21
324.3316776148524
 31
0.0
  0
SPLINE
  5
5A59
102
{ACAD_REACTORS
330
5BE4
102
}
330
2
100
AcDbEntity
  8
KIJUN
100
AcDbSpline
210
0.0
220
0.0
230
1.0
 70
     8
 71
     3
 72
    12
 73
     8
 74
     6
 42
0.0000000001
 43
0.0000000001
 44
0.0000000001
 40
0.0
 40
0.0
 40
0.0
 40
0.0
 40
5.953936782523944
 40
12.41597993019756
 40
19.50005616168762
 40
25.80165592835194
 40
31.92601849989752
 40
31.92601849989752
 40
31.92601849989752
 40
31.92601849989752
 10
56.76367679500515
 20
338.0523175933878
 30
0.0
 10
57.76952913544278
 20
336.1874609369524
 30
0.0
 10
59.86707281583133
 20
332.2986015713374
 30
0.0
 10
51.37330293711173
 20
324.7048234139609
 30
0.0
 10
63.20730061000538
 20
327.8978183668375
 30
0.0
 10
63.53540261645594
 20
336.1769508186253
 30
0.0
 10
59.17369005205393
 20
337.568626689683
 30
0.0
 10
57.02394032239943
 20
338.2545395698646
 30
0.0
 11
56.76367679500515
 21
338.0523175933878
 31
0.0
 11
58.05525668146117
 21
332.2401592501221
 31
0.0
 11
54.82497909007623
 21
326.6434362513493
 31
0.0
 11
61.50153529556963
 21
329.0115015562871
 31
0.0
 11
62.36288363655592
 21
335.2539560939433
 31
0.0
 11
57.02394032239943
 21
338.2545395698646
 31
0.0
  0
SPLINE
  5
5A5B
102
{ACAD_REACTORS
330
5BE4
102
}
330
2
100
AcDbEntity
  8
KIJUN
100
AcDbSpline
210
0.0
220
0.0
230
1.0
 70
     8
 71
     3
 72
    11
 73
     7
 74
     0
 42
0.0000000001
 43
0.0000000001
 40
0.0
 40
0.0
 40
0.0
 40
0.0
 40
8.358195593634597
 40
15.76439837174016
 40
21.68488842520893
 40
32.01282929372164
 40
32.01282929372164
 40
32.01282929372164
 40
32.01282929372164
 10
70.00412202399719
 20
263.6036075316908
 30
0.0
 10
69.04679658448569
 20
266.8760570947784
 30
0.0
 10
67.24118442444555
 20
273.0482264327668
 30
0.0
 10
58.30957676647352
 20
268.8888176694793
 30
0.0
 10
52.66714295295119
 20
275.9975096075891
 30
0.0
 10
50.8962605809495
 20
280.1566748543097
 30
0.0
 10
48.37320099757873
 20
283.1091039780093
 30
0.0
  0
ARC
  5
5A5C
102
{ACAD_REACTORS
330
5BE4
102
}
330
2
100
AcDbEntity
  8
KIJUN
100
AcDbCircle
 10
62.00215872746571
 20
333.8353868564921
 30
0.0
 40
6.656693563064687
100
AcDbArc
 50
53.04455051052286
 51
138.4046111646878
  0
LINE
  5
5A5D
102
{ACAD_REACTORS
330
5BE4
102
}
330
2
100
AcDbEntity
  8
KIJUN
100
AcDbLine
 10
66.00412202399718
 20
339.1547720621121
 30
0.0
 11
66.00412202399718
 21
336.3133234938243
 31
0.0
  0
SPLINE
  5
5A5E
102
{ACAD_REACTORS
330
5BE4
102
}
330
2
100
AcDbEntity
  8
KIJUN
100
AcDbSpline
210
0.0
220
0.0
230
1.0
 70
     8
 71
     3
 72
    13
 73
     9
 74
     7
 42
0.0000000001
 43
0.0000000001
 44
0.0000000001
 40
0.0
 40
0.0
 40
0.0
 40
0.0
 40
4.137147462014304
 40
8.301531155193163
 40
13.93891292603505
 40
14.88288021296019
 40
16.05003380918702
 40
16.89787894697949
 40
16.89787894697949
 40
16.89787894697949
 40
16.89787894697949
 10
68.39320727373968
 20
338.335543259421
 30
0.0
 10
69.25013672166741
 20
337.2550894799093
 30
0.0
 10
70.96963707187029
 20
335.0870689307953
 30
0.0
 10
74.82620276710633
 20
332.2512050231113
 30
0.0
 10
75.42017875258557
 20
328.1987309199366
 30
0.0
 10
78.29190188111875
 20
327.1329536056914
 30
0.0
 10
78.79049802585115
 20
328.2502514593086
 30
0.0
 10
79.11997683323756
 20
328.8059886086147
 30
0.0
 10
79.25861066964251
 20
329.0398245073549
 30
0.0
 11
68.39320727373968
 21
338.335543259421
 31
0.0
 11
71.10738406057032
 21
335.2131670021001
 31
0.0
 11
74.02693886909663
 21
332.2436062157168
 31
0.0
 11
77.20233095455012
 21
327.5856068239329
 31
0.0
 11
78.1238763019818
 21
327.3810868703542
 31
0.0
 11
78.84092887776467
 21
328.3020011555884
 31
0.0
 11
79.25861066964251
 21
329.0398245073549
 31
0.0
  0
SPLINE
  5
5A5F
102
{ACAD_REACTORS
330
5BE4
102
}
330
2
100
AcDbEntity
  8
KIJUN
100
AcDbSpline
210
0.0
220
0.0
230
1.0
 70
     8
 71
     3
 72
    12
 73
     8
 74
     6
 42
0.0000000001
 43
0.0000000001
 44
0.0000000001
 40
0.0
 40
0.0
 40
0.0
 40
0.0
 40
2.972964893043169
 40
7.845986561362568
 40
15.58465885227064
 40
16.56763159693482
 40
17.187239528755
 40
17.187239528755
 40
17.187239528755
 40
17.187239528755
 10
68.39320727373968
 20
338.335543259421
 30
0.0
 10
69.35501562557329
 20
338.6035805615362
 30
0.0
 10
71.89333534160877
 20
339.3109609531652
 30
0.0
 10
77.52147974270042
 20
336.7336032528216
 30
0.0
 10
76.87352043480411
 20
331.1732659680534
 30
0.0
 10
79.26462956070901
 20
328.9468093190903
 30
0.0
 10
79.7979309769986
 20
328.8509411669488
 30
0.0
 10
80.00412202399719
 20
328.8138755337815
 30
0.0
 11
68.39320727373968
 21
338.335543259421
 31
0.0
 11
71.32100614984199
 21
338.851793195364
 31
0.0
 11
75.71688129758957
 21
336.7487901365632
 31
0.0
 11
78.63643610611586
 21
329.5819743480781
 31
0.0
 11
79.4039479372467
 21
328.967839993212
 31
0.0
 11
80.00412202399719
 21
328.8138755337815
 31
0.0
  0
SPLINE
  5
5A60
102
{ACAD_REACTORS
330
5BE4
102
}
330
2
100
AcDbEntity
  8
KIJUN
100
AcDbSpline
210
0.0
220
0.0
230
1.0
 70
     8
 71
     3
 72
    12
 73
     8
 74
     6
 42
0.0000000001
 43
0.0000000001
 44
0.0000000001
 40
0.0
 40
0.0
 40
0.0
 40
0.0
 40
3.724232534691511
 40
7.056956109040756
 40
10.25097389905214
 40
14.82597287429562
 40
19.87557479245998
 40
19.87557479245998
 40
19.87557479245998
 40
19.87557479245998
 10
80.00412202399719
 20
325.5816776148524
 30
0.0
 10
78.83336277050307
 20
325.7346181924388
 30
0.0
 10
76.61492002043303
 20
326.024421509838
 30
0.0
 10
72.35622851184501
 20
325.6918327936958
 30
0.0
 10
72.3466248330063
 20
330.2009606286912
 30
0.0
 10
70.67240692555245
 20
334.2250115085006
 30
0.0
 10
67.61054526184702
 20
335.5947056348452
 30
0.0
 10
66.00412202399718
 20
336.3133234938388
 30
0.0
 11
80.00412202399719
 21
325.5816776148524
 31
0.0
 11
76.29317910858924
 21
325.8960192300394
 31
0.0
 11
73.00412202399718
 21
326.4337458495385
 31
0.0
 11
72.17744938956719
 21
329.518930122543
 31
0.0
 11
70.32659347803826
 21
333.7028216147111
 31
0.0
 11
66.00412202399718
 21
336.3133234938388
 31
0.0
  0
ARC
  5
5A61
102
{ACAD_REACTORS
330
5BE4
102
}
330
2
100
AcDbEntity
  8
KIJUN
100
AcDbCircle
 10
73.09718430273696
 20
322.1489300388139
 30
0.0
 40
18.4327475760384
100
AcDbArc
 50
67.99360015010138
 51
112.6317994638222
  0
ARC
  5
5A62
102
{ACAD_REACTORS
330
5BE4
102
}
330
2
100
AcDbEntity
  8
KIJUN
100
AcDbCircle
 10
75.89240370062441
 20
311.5522903938065
 30
0.0
 40
25.06022593150323
100
AcDbArc
 50
232.2498074504385
 51
279.4434149179163
  0
ARC
  5
5A63
102
{ACAD_REACTORS
330
5BE4
102
}
330
2
100
AcDbEntity
  8
KIJUN
100
AcDbCircle
 10
76.54746756059728
 20
306.1788995080525
 30
0.0
 40
21.55162200155669
100
AcDbArc
 50
181.5879396393026
 51
222.0736193397497
  0
ARC
  5
5A64
102
{ACAD_REACTORS
330
5BE4
102
}
330
2
100
AcDbEntity
  8
KIJUN
100
AcDbCircle
 10
76.54746756059728
 20
304.9844557216522
 30
0.0
 40
21.55162200155669
100
AcDbArc
 50
137.9263806602503
 51
178.4120603606973
  0
ARC
  5
5A65
102
{ACAD_REACTORS
330
5BE4
102
}
330
2
100
AcDbEntity
  8
KIJUN
100
AcDbCircle
 10
75.89240370062441
 20
299.6110648358983
 30
0.0
 40
25.06022593150323
100
AcDbArc
 50
80.55658508208377
 51
127.7501925495614
  0
LINE
  5
5A66
102
{ACAD_REACTORS
330
5BE4
102
}
330
2
100
AcDbEntity
  8
KIJUN
100
AcDbLine
 10
70.00412202399719
 20
263.6036075316908
 30
0.0
 11
70.00412202399719
 21
257.5597476980139
 31
0.0
  0
ARC
  5
5A67
102
{ACAD_REACTORS
330
5BE4
102
}
330
2
100
AcDbEntity
  8
KIJUN
100
AcDbCircle
 10
78.19584580022172
 20
262.448166485726
 30
0.0
 40
9.539443205435155
100
AcDbArc
 50
210.8266794544519
 51
280.9269812249602
  0
ARC
  5
5A68
102
{ACAD_REACTORS
330
5BE4
102
}
330
2
100
AcDbEntity
  8
KIJUN
100
AcDbCircle
 10
78.19584580022172
 20
258.7151887439788
 30
0.0
 40
9.539443205435155
100
AcDbArc
 50
79.07301877503986
 51
149.1733205455481
  0
LINE
  5
5A69
102
{ACAD_REACTORS
330
5BE4
102
}
330
2
100
AcDbEntity
  8
KIJUN
100
AcDbLine
 10
90.00412202399719
 20
263.6036075316908
 30
0.0
 11
90.00412202399719
 21
257.5597476980139
 31
0.0
  0
ARC
  5
5A6A
102
{ACAD_REACTORS
330
5BE4
102
}
330
2
100
AcDbEntity
  8
KIJUN
100
AcDbCircle
 10
83.46077648739708
 20
304.9844557216522
 30
0.0
 40
21.55162200155669
100
AcDbArc
 50
1.587939639302656
 51
42.0736193397497
  0
ARC
  5
5A6B
102
{ACAD_REACTORS
330
5BE4
102
}
330
2
100
AcDbEntity
  8
KIJUN
100
AcDbCircle
 10
83.46077648739708
 20
306.1788995080525
 30
0.0
 40
21.55162200155669
100
AcDbArc
 50
317.9263806602502
 51
358.4120603606974
  0
LINE
  5
5A6C
102
{ACAD_REACTORS
330
5BE4
102
}
330
2
100
AcDbEntity
  8
KIJUN
100
AcDbLine
 10
94.00412202399719
 20
339.1547720621121
 30
0.0
 11
94.00412202399719
 21
336.3133234938243
 31
0.0
  0
SPLINE
  5
5A6E
102
{ACAD_REACTORS
330
5BE4
102
}
330
2
100
AcDbEntity
  8
KIJUN
100
AcDbSpline
210
0.0
220
0.0
230
1.0
 70
     8
 71
     3
 72
    11
 73
     7
 74
     0
 42
0.0000000001
 43
0.0000000001
 40
0.0
 40
0.0
 40
0.0
 40
0.0
 40
8.358195593634597
 40
15.76439837174016
 40
21.68488842520893
 40
31.27713053530359
 40
31.27713053530359
 40
31.27713053530359
 40
31.27713053530359
 10
90.00412202399719
 20
263.6036075316908
 30
0.0
 10
90.96144746350871
 20
266.8760570947784
 30
0.0
 10
92.76705962354879
 20
273.0482264327668
 30
0.0
 10
101.6986672815208
 20
268.8888176694793
 30
0.0
 10
107.1656119454881
 20
275.7764173725897
 30
0.0
 10
108.9473036222224
 20
279.7785524083541
 30
0.0
 10
111.1163218622801
 20
282.4826482473635
 30
0.0
  0
SPLINE
  5
5A70
102
{ACAD_REACTORS
330
5BE4
102
}
330
2
100
AcDbEntity
  8
KIJUN
100
AcDbSpline
210
0.0
220
0.0
230
1.0
 70
     8
 71
     3
 72
    12
 73
     8
 74
     6
 42
0.0000000001
 43
0.0000000001
 44
0.0000000001
 40
0.0
 40
0.0
 40
0.0
 40
0.0
 40
5.953936782523944
 40
12.41597993019756
 40
19.50005616168762
 40
25.80165592835194
 40
31.92601849989752
 40
31.92601849989752
 40
31.92601849989752
 40
31.92601849989752
 10
103.2445672529892
 20
338.0523175933878
 30
0.0
 10
102.2387149125516
 20
336.1874609369524
 30
0.0
 10
100.141171232163
 20
332.2986015713374
 30
0.0
 10
108.6349411108826
 20
324.7048234139609
 30
0.0
 10
96.80094343798897
 20
327.8978183668375
 30
0.0
 10
96.47284143153843
 20
336.1769508186253
 30
0.0
 10
100.8345539959404
 20
337.568626689683
 30
0.0
 10
102.9843037255949
 20
338.2545395698646
 30
0.0
 11
103.2445672529892
 21
338.0523175933878
 31
0.0
 11
101.9529873665332
 21
332.2401592501221
 31
0.0
 11
105.1832649579181
 21
326.6434362513493
 31
0.0
 11
98.50670875242474
 21
329.0115015562871
 31
0.0
 11
97.64536041143845
 21
335.2539560939433
 31
0.0
 11
102.9843037255949
 21
338.2545395698646
 31
0.0
  0
SPLINE
  5
5A71
102
{ACAD_REACTORS
330
5BE4
102
}
330
2
100
AcDbEntity
  8
KIJUN
100
AcDbSpline
210
0.0
220
0.0
230
1.0
 70
     8
 71
     3
 72
    13
 73
     9
 74
     7
 42
0.0000000001
 43
0.0000000001
 44
0.0000000001
 40
0.0
 40
0.0
 40
0.0
 40
0.0
 40
2.498659846691315
 40
12.67181461659109
 40
16.33385580355356
 40
21.70269656149745
 40
28.03615899199606
 40
32.04110526592681
 40
32.04110526592681
 40
32.04110526592681
 40
32.04110526592681
 10
99.45821029445767
 20
319.4258726357468
 30
0.0
 10
99.84335271327342
 20
320.2658488531678
 30
0.0
 10
101.7965810963528
 20
324.525741580703
 30
0.0
 10
113.2056207237617
 20
314.5513753551981
 30
0.0
 10
108.0320825327491
 20
322.4092554971759
 30
0.0
 10
104.2638574019637
 20
324.2494311996741
 30
0.0
 10
97.60214650111221
 20
326.9229242837835
 30
0.0
 10
96.3886001203104
 20
323.1712485136478
 30
0.0
 10
95.91849024218651
 20
321.7179049357175
 30
0.0
 11
99.45821029445767
 21
319.4258726357468
 31
0.0
 11
100.8818347533841
 21
321.4793074239525
 31
0.0
 11
110.5133557711404
 21
318.2041156956941
 31
0.0
 11
108.5277398112838
 21
321.2811069070842
 31
0.0
 11
104.059882589211
 21
324.2581361187869
 31
0.0
 11
97.80470542825321
 21
325.2508621855188
 31
0.0
 11
95.91849024218651
 21
321.7179049357175
 31
0.0
  0
SPLINE
  5
5A72
102
{ACAD_REACTORS
330
5BE4
102
}
330
2
100
AcDbEntity
  8
KIJUN
100
AcDbSpline
210
0.0
220
0.0
230
1.0
 70
     8
 71
     3
 72
    16
 73
    12
 74
    10
 42
0.0000000001
 43
0.0000000001
 44
0.0000000001
 40
0.0
 40
0.0
 40
0.0
 40
0.0
 40
16.53863121163841
 40
42.68147247779518
 40
49.12471453597085
 40
55.29042756510043
 40
60.85162140942619
 40
68.49044276165699
 40
77.10928874889617
 40
92.29126921066706
 40
108.2906045095216
 40
108.2906045095216
 40
108.2906045095216
 40
108.2906045095216
 10
110.5084877621292
 20
318.1051629224195
 30
0.0
 10
112.0113169244028
 20
312.704744371841
 30
0.0
 10
115.8896887622894
 20
298.7678101246532
 30
0.0
 10
108.2787600287818
 20
282.1506816887112
 30
0.0
 10
98.37549757789094
 20
273.337024337046
 30
0.0
 10
90.69496931313791
 20
274.5284499835819
 30
0.0
 10
90.61595941014093
 20
283.3160507460957
 30
0.0
 10
99.59536465566925
 20
284.0059198395246
 30
0.0
 10
105.1583765718065
 20
293.6023314081052
 30
0.0
 10
108.5538399480643
 20
307.1090004494392
 30
0.0
 10
103.645843685283
 20
316.6818251646978
 30
0.0
 10
101.1275189790202
 20
321.5937035970375
 30
0.0
 11
110.5084877621292
 21
318.1051629224195
 31
0.0
 11
113.4417630804845
 21
301.8287315487643
 31
0.0
 11
103.1162059894439
 21
277.8114248673912
 31
0.0
 11
97.75424617290525
 21
274.2386451168233
 31
0.0
 11
91.79651304340485
 21
275.8265472281739
 31
0.0
 11
91.59821702243323
 21
281.384204617959
 31
0.0
 11
98.35001948586693
 21
284.9569843685269
 31
0.0
 11
103.7110940523588
 21
291.7055683417959
 31
0.0
 11
106.6899606170508
 21
306.592437882816
 31
0.0
 11
101.1275189790202
 21
321.5937035970375
 31
0.0
  0
SPLINE
  5
5A73
102
{ACAD_REACTORS
330
5BE4
102
}
330
2
100
AcDbEntity
  8
KIJUN
100
AcDbSpline
210
0.0
220
0.0
230
1.0
 70
     8
 71
     3
 72
    10
 73
     6
 74
     4
 42
0.0000000001
 43
0.0000000001
 44
0.0000000001
 40
0.0
 40
0.0
 40
0.0
 40
0.0
 40
5.391898199031822
 40
13.57593745971259
 40
23.54403103507614
 40
23.54403103507614
 40
23.54403103507614
 40
23.54403103507614
 10
112.8459897676392
 20
284.1630333127934
 30
0.0
 10
113.1405558107006
 20
282.3895064501598
 30
0.0
 10
113.882226003783
 20
277.924049410456
 30
0.0
 10
112.002935818641
 20
269.758742118041
 30
0.0
 10
107.1635547269305
 20
265.8600276645363
 30
0.0
 10
104.5060486363389
 20
263.7190808762345
 30
0.0
 11
112.8459897676392
 21
284.1630333127934
 31
0.0
 11
113.4417630804845
 21
278.804150934123
 31
0.0
 11
111.4561471207442
 21
270.8646403773702
 31
0.0
 11
104.5060486363389
 21
263.7190808762345
 31
0.0
  0
SPLINE
  5
5A74
102
{ACAD_REACTORS
330
5BE4
102
}
330
2
100
AcDbEntity
  8
KIJUN
100
AcDbSpline
210
0.0
220
0.0
230
1.0
 70
     8
 71
     3
 72
    14
 73
    10
 74
     8
 42
0.0000000001
 43
0.0000000001
 44
0.0000000001
 40
0.0
 40
0.0
 40
0.0
 40
0.0
 40
4.763706334051676
 40
11.09752968079611
 40
16.96064926215544
 40
23.12946474578712
 40
28.2922432913074
 40
33.74532665008203
 40
40.97330065288086
 40
40.97330065288086
 40
40.97330065288086
 40
40.97330065288086
 10
112.0519204337059
 20
248.2370352905956
 30
0.0
 10
112.2127128516382
 20
249.8584382780844
 30
0.0
 10
112.5872948483694
 20
253.635658475217
 30
0.0
 10
109.1588052124489
 20
258.5748871927969
 30
0.0
 10
103.2793365289843
 20
261.9559193796566
 30
0.0
 10
98.59082720965188
 20
260.5403098997029
 30
0.0
 10
89.21729291903444
 20
260.5778659796418
 30
0.0
 10
99.25499106616122
 20
261.7851667125668
 30
0.0
 10
102.5996521417126
 20
263.0169733229936
 30
0.0
 10
104.5060486363389
 20
263.7190808762345
 30
0.0
 11
112.0519204337059
 21
248.2370352905956
 31
0.0
 11
112.0519204337059
 21
253.0007416246473
 31
0.0
 11
108.6755765769074
 21
258.3596240033177
 31
0.0
 11
103.5127980313872
 21
261.1384526981521
 31
0.0
 11
97.35676888091518
 21
260.7414771704018
 31
0.0
 11
92.19399033539492
 21
260.7414771704018
 31
0.0
 11
97.55595015193364
 21
261.7342032371336
 31
0.0
 11
104.5060486363389
 21
263.7190808762345
 31
0.0
  0
SPLINE
  5
5A75
102
{ACAD_REACTORS
330
5BE4
102
}
330
2
100
AcDbEntity
  8
KIJUN
100
AcDbSpline
210
0.0
220
0.0
230
1.0
 70
     8
 71
     3
 72
    11
 73
     7
 74
     5
 42
0.0000000001
 43
0.0000000001
 44
0.0000000001
 40
0.0
 40
0.0
 40
0.0
 40
0.0
 40
3.647087790824024
 40
9.275771068192568
 40
23.73930571122822
 40
29.79510361157594
 40
29.79510361157594
 40
29.79510361157594
 40
29.79510361157594
 10
115.6933080752232
 20
247.2781919179062
 30
0.0
 10
114.4356352282336
 20
247.3510148313626
 30
0.0
 10
111.2369501193344
 20
247.5362279966282
 30
0.0
 10
106.0526449905955
 20
254.8778833680889
 30
0.0
 10
93.7721310291006
 20
248.469774972843
 30
0.0
 10
90.86275566534499
 20
255.4883735665015
 30
0.0
 10
90.00412202402628
 20
257.559747698043
 30
0.0
 11
115.6933080752232
 21
247.2781919179062
 31
0.0
 11
112.1016277429033
 21
247.9115020665733
 31
0.0
 11
107.5858337117268
 21
251.2715139274034
 31
0.0
 11
93.16599493805814
 21
252.3949390970039
 31
0.0
 11
90.00412202402628
 21
257.559747698043
 31
0.0
  0
SPLINE
  5
5A77
102
{ACAD_REACTORS
330
5BE4
102
}
330
2
100
AcDbEntity
  8
KIJUN
100
AcDbSpline
210
0.0
220
0.0
230
1.0
 70
     8
 71
     3
 72
    11
 73
     7
 74
     5
 42
0.0000000001
 43
0.0000000001
 44
0.0000000001
 40
0.0
 40
0.0
 40
0.0
 40
0.0
 40
8.508679268815566
 40
23.89637470458273
 40
34.20405873240208
 40
44.35912283816413
 40
44.35912283816413
 40
44.35912283816413
 40
44.35912283816413
 10
110.0041220239972
 20
208.0478087864569
 30
0.0
 10
107.3118585119878
 20
209.0867345281546
 30
0.0
 10
99.75071586529764
 20
212.0045268234683
 30
0.0
 10
93.83508442444735
 20
223.2283916378788
 30
0.0
 10
93.17500489986304
 20
235.1845895200966
 30
0.0
 10
94.26351289332087
 20
241.9416957878011
 30
0.0
 10
94.80370761110942
 20
245.2950502282722
 30
0.0
 11
110.0041220239972
 21
208.0478087864569
 31
0.0
 11
102.3619729098308
 21
211.7888219936532
 31
0.0
 11
94.38055806648014
 21
224.9447403546903
 31
0.0
 11
93.5439967280862
 21
235.2184210556108
 31
0.0
 11
94.80370761110942
 21
245.2950502282722
 31
0.0
  0
SPLINE
  5
5A78
102
{ACAD_REACTORS
330
5BE4
102
}
330
2
100
AcDbEntity
  8
KIJUN
100
AcDbSpline
210
0.0
220
0.0
230
1.0
 70
     8
 71
     3
 72
    11
 73
     7
 74
     5
 42
0.0000000001
 43
0.0000000001
 44
0.0000000001
 40
0.0
 40
0.0
 40
0.0
 40
0.0
 40
6.57651506878708
 40
18.18533629669823
 40
32.78003355176708
 40
47.03106235324093
 40
47.03106235324093
 40
47.03106235324093
 40
47.03106235324093
 10
110.0041220239972
 20
195.5816776148378
 30
0.0
 10
107.8193714889341
 20
196.0975524545197
 30
0.0
 10
101.7781136511658
 20
197.5240461747495
 30
0.0
 10
95.12329862235736
 20
207.0971063932386
 30
0.0
 10
89.29351830876493
 20
219.523895165447
 30
0.0
 10
90.52918500331429
 20
229.280348063125
 30
0.0
 10
91.13965747395093
 20
234.100455242001
 30
0.0
 11
110.0041220239972
 21
195.5816776148378
 31
0.0
 11
103.7571270572397
 21
197.637305094536
 31
0.0
 11
96.03243474097951
 21
206.3029763853657
 31
0.0
 11
90.62444191955989
 21
219.8587427455015
 31
0.0
 11
91.13965747395093
 21
234.100455242001
 31
0.0
  0
SPLINE
  5
5A79
102
{ACAD_REACTORS
330
5BE4
102
}
330
2
100
AcDbEntity
  8
KIJUN
100
AcDbSpline
210
0.0
220
0.0
230
1.0
 70
     8
 71
     3
 72
    13
 73
     9
 74
     7
 42
0.0000000001
 43
0.0000000001
 44
0.0000000001
 40
0.0
 40
0.0
 40
0.0
 40
0.0
 40
10.86196053801178
 40
22.87316712738823
 40
26.94344661293677
 40
32.60247186846732
 40
44.06708189647249
 40
53.1277562363967
 40
53.1277562363967
 40
53.1277562363967
 40
53.1277562363967
 10
112.4848077294326
 20
176.2649699474233
 30
0.0
 10
112.1298935447206
 20
180.1180330649904
 30
0.0
 10
111.3825136003367
 20
188.2318313366806
 30
0.0
 10
105.9138972385564
 20
193.2322365772834
 30
0.0
 10
98.32265598360345
 20
201.11156595212
 30
0.0
 10
105.8216419561601
 20
191.3226996262874
 30
0.0
 10
107.3439238385299
 20
185.1096064913739
 30
0.0
 10
110.910416471242
 20
178.8700077321714
 30
0.0
 10
112.4848077294326
 20
176.1156014420805
 30
0.0
 11
112.4848077294326
 21
176.2649699474233
 31
0.0
 11
110.541683774153
 21
186.951712015226
 31
0.0
 11
102.9905004761557
 21
196.2924140516217
 31
0.0
 11
100.0744866680496
 21
199.1321391371559
 31
0.0
 11
103.2144687498829
 21
194.42415874547
 31
0.0
 11
108.2240990292656
 21
184.1119869296919
 31
0.0
 11
112.4848077294326
 21
176.1156014420805
 31
0.0
  0
SPLINE
  5
5A7A
102
{ACAD_REACTORS
330
5BE4
102
}
330
2
100
AcDbEntity
  8
KIJUN
100
AcDbSpline
210
0.0
220
0.0
230
1.0
 70
     8
 71
     3
 72
    11
 73
     7
 74
     5
 42
0.0000000001
 43
0.0000000001
 44
0.0000000001
 40
0.0
 40
0.0
 40
0.0
 40
0.0
 40
6.800588789559028
 40
14.27798013495095
 40
30.90552675835876
 40
35.92290904658197
 40
35.92290904658197
 40
35.92290904658197
 40
35.92290904658197
 10
110.0041220239972
 20
169.4647202043372
 30
0.0
 10
108.3689186601939
 20
171.1704247900267
 30
0.0
 10
104.9357745799589
 20
174.7515876781519
 30
0.0
 10
105.568719204597
 20
185.7305390025141
 30
0.0
 10
99.61044367225737
 20
194.0470534274508
 30
0.0
 10
95.49624643542097
 20
199.93441676111
 30
0.0
 10
94.54255883355187
 20
201.2991314541097
 30
0.0
 11
110.0041220239972
 21
169.4647202043372
 31
0.0
 11
105.9436947882085
 21
174.9200789045091
 31
0.0
 11
104.8592634236582
 21
182.3184158762698
 31
0.0
 11
97.42050688766438
 21
197.1891995782745
 31
0.0
 11
94.54255883355187
 21
201.2991314541097
 31
0.0
  0
SPLINE
  5
5A7B
102
{ACAD_REACTORS
330
5BE4
102
}
330
2
100
AcDbEntity
  8
KIJUN
100
AcDbSpline
210
0.0
220
0.0
230
1.0
 70
     8
 71
     3
 72
    11
 73
     7
 74
     5
 42
0.0000000001
 43
0.0000000001
 44
0.0000000001
 40
0.0
 40
0.0
 40
0.0
 40
0.0
 40
10.84776480126366
 40
23.17276600482806
 40
26.72582018314526
 40
29.59767814517009
 40
29.59767814517009
 40
29.59767814517009
 40
29.59767814517009
 10
94.54255883358099
 20
201.2991314541097
 30
0.0
 10
95.23015613302248
 20
197.5592392650983
 30
0.0
 10
96.69898695830495
 20
189.5701605777406
 30
0.0
 10
101.1084016417014
 20
183.9500685577392
 30
0.0
 10
102.9287957961194
 20
174.7127994067225
 30
0.0
 10
104.3920114889522
 20
177.2318620113894
 30
0.0
 10
105.0460511934387
 20
178.3578525058939
 30
0.0
 11
94.54255883358099
 21
201.2991314541097
 31
0.0
 11
97.12129235599684
 21
190.7623323858963
 31
0.0
 11
101.9060691116054
 21
179.404006538006
 31
0.0
 11
103.2516492538297
 21
176.1156014420805
 31
0.0
 11
105.0460511934387
 21
178.3578525058939
 31
0.0
  0
SPLINE
  5
5A7C
102
{ACAD_REACTORS
330
5BE4
102
}
330
2
100
AcDbEntity
  8
KIJUN
100
AcDbSpline
210
0.0
220
0.0
230
1.0
 70
     8
 71
     3
 72
    10
 73
     6
 74
     4
 42
0.0000000001
 43
0.0000000001
 44
0.0000000001
 40
0.0
 40
0.0
 40
0.0
 40
0.0
 40
5.711956046525431
 40
16.40017275505394
 40
24.32686880768584
 40
24.32686880768584
 40
24.32686880768584
 40
24.32686880768584
 10
110.7881933660272
 20
154.2013181282629
 30
0.0
 10
109.3285367353383
 20
155.446613569277
 30
0.0
 10
105.1375694534872
 20
159.0221068324184
 30
0.0
 10
102.3647357047309
 20
167.3074283650364
 30
0.0
 10
102.9830680047956
 20
173.4851312768068
 30
0.0
 10
103.2463693839116
 20
176.1157518933716
 30
0.0
 11
110.7881933660272
 21
154.2013181282629
 31
0.0
 11
106.6908458672141
 21
158.1810398963527
 31
0.0
 11
102.9533199723254
 21
168.1944747013287
 31
0.0
 11
103.2463693839116
 21
176.1157518933716
 31
0.0
  0
SPLINE
  5
5A7D
102
{ACAD_REACTORS
330
5BE4
102
}
330
2
100
AcDbEntity
  8
KIJUN
100
AcDbSpline
210
0.0
220
0.0
230
1.0
 70
    11
 71
     3
 72
    15
 73
    11
 74
     9
 42
0.0000000001
 43
0.0000000001
 44
0.0000000001
 40
0.0
 40
0.0
 40
0.0
 40
0.0
 40
12.55645434901564
 40
28.42664028390408
 40
30.70816723971137
 40
32.39961609515598
 40
35.15644888886587
 40
42.72107169376631
 40
52.18647089892307
 40
64.893785520465
 40
64.893785520465
 40
64.893785520465
 40
64.893785520465
 10
99.06264581118273
 20
176.2218828785946
 30
0.0
 10
99.53036254587471
 20
171.9828285002161
 30
0.0
 10
100.5892295637676
 20
162.3860051766383
 30
0.0
 10
104.7276168098681
 20
153.7469694630586
 30
0.0
 10
110.7947081564825
 20
148.3687271826066
 30
0.0
 10
108.4979488874302
 20
146.1088624213943
 30
0.0
 10
105.7031586779058
 20
150.6896170687047
 30
0.0
 10
101.532702826841
 20
154.6098457082693
 30
0.0
 10
97.64829840268085
 20
164.6286521493988
 30
0.0
 10
98.54737795437273
 20
171.9982960035257
 30
0.0
 10
99.06264581118273
 20
176.2218828785946
 30
0.0
 11
99.06264581118273
 21
176.2218828785946
 31
0.0
 11
101.0066550166256
 21
163.8168285043459
 31
0.0
 11
108.9314138539511
 21
150.0668830870665
 31
0.0
 11
110.1273867303415
 21
148.1239435283016
 31
0.0
 11
108.9314138539511
 21
146.9278464964838
 31
0.0
 11
106.8377973826744
 21
148.7214175499059
 31
0.0
 11
102.2026278928996
 21
154.6996047317763
 31
0.0
 11
98.76343127951521
 21
163.5180914935437
 31
0.0
 11
99.06264581118273
 21
176.2218828785946
 31
0.0
  0
SPLINE
  5
5A7E
102
{ACAD_REACTORS
330
5BE4
102
}
330
2
100
AcDbEntity
  8
KIJUN
100
AcDbSpline
210
0.0
220
0.0
230
1.0
 70
     8
 71
     3
 72
    10
 73
     6
 74
     4
 42
0.0000000001
 43
0.0000000001
 44
0.0000000001
 40
0.0
 40
0.0
 40
0.0
 40
0.0
 40
4.311120610008098
 40
13.1637975828655
 40
23.55341417627622
 40
23.55341417627622
 40
23.55341417627622
 40
23.55341417627622
 10
116.0186390777843
 20
121.5275643744637
 30
0.0
 10
114.9388826635556
 20
122.4710114855656
 30
0.0
 10
111.6418988485561
 20
125.3517814579607
 30
0.0
 10
106.647367254786
 20
131.7581196209714
 30
0.0
 10
105.6869465495463
 20
138.2078974793929
 30
0.0
 10
105.1683803577642
 20
141.6903679463823
 30
0.0
 11
116.0186390777843
 21
121.5275643744637
 31
0.0
 11
112.8335962662848
 21
124.4329495817903
 31
0.0
 11
107.6336372168178
 21
131.5974673931734
 31
0.0
 11
105.1683803577642
 21
141.6903679463823
 31
0.0
  0
SPLINE
  5
5A7F
102
{ACAD_REACTORS
330
5BE4
102
}
330
2
100
AcDbEntity
  8
KIJUN
100
AcDbSpline
210
0.0
220
0.0
230
1.0
 70
     8
 71
     3
 72
    10
 73
     6
 74
     4
 42
0.0000000001
 43
0.0000000001
 44
0.0000000001
 40
0.0
 40
0.0
 40
0.0
 40
0.0
 40
3.003131084725433
 40
6.298183309118905
 40
8.247005545624592
 40
8.247005545624592
 40
8.247005545624592
 40
8.247005545624592
 10
107.7611132303162
 20
69.67560448709554
 30
0.0
 10
107.9924266893969
 20
68.74802803685341
 30
0.0
 10
108.4775385696493
 20
66.8027095169391
 30
0.0
 10
108.8074073211668
 20
63.38459228871744
 30
0.0
 10
106.9796969360515
 20
62.82733754069119
 30
0.0
 10
106.300450575948
 20
62.62024058357491
 30
0.0
 11
107.7611132303162
 21
69.67560448709554
 31
0.0
 11
108.4020342979955
 21
66.74166234433795
 31
0.0
 11
108.0567867615635
 21
63.46474713334027
 31
0.0
 11
106.300450575948
 21
62.62024058357491
 31
0.0
  0
SPLINE
  5
5A82
102
{ACAD_REACTORS
330
5BE4
102
}
330
2
100
AcDbEntity
  8
KIJUN
100
AcDbSpline
210
0.0
220
0.0
230
1.0
 70
     8
 71
     3
 72
    16
 73
    12
 74
     0
 42
0.0000000001
 43
0.0000000001
 40
0.0
 40
0.0
 40
0.0
 40
0.0
 40
4.851832401539866
 40
10.53512916904598
 40
15.64222994799564
 40
21.97735077722345
 40
27.6336106528646
 40
33.11422820258816
 40
43.15300064593201
 40
55.69452425806942
 40
64.04628323928671
 40
64.04628323928671
 40
64.04628323928671
 40
64.04628323928671
 10
104.2369326078941
 20
234.7519317233484
 30
0.0
 10
103.3064736900472
 20
233.2521689745009
 30
0.0
 10
101.2861019882348
 20
229.9956273270571
 30
0.0
 10
106.7777134272154
 20
224.5400150241805
 30
0.0
 10
111.8701462178997
 20
229.742984808716
 30
0.0
 10
111.9333999903076
 20
235.5164911750667
 30
0.0
 10
109.2485537830621
 20
241.4705736809641
 30
0.0
 10
100.9715866763183
 20
242.0548815126586
 30
0.0
 10
94.88069732443978
 20
232.3257956534438
 30
0.0
 10
99.53775235768064
 20
221.4724250016847
 30
0.0
 10
107.2058178438084
 20
218.4671567995169
 30
0.0
 10
110.0042322294952
 20
218.4591902870747
 30
0.0
  0
DIMENSION
  5
5A83
330
2
100
AcDbEntity
  8
SUNPOU
100
AcDbDimension
  2
*D48
 10
120.0041220239454
 20
369.3262011259117
 30
0.0
 11
80.0041220239454
 21
374.8262011259117
 31
0.0
 70
    32
 71
     5
 42
80.0
  3
STANDARD
100
AcDbAlignedDimension
 13
40.0041220239454
 23
340.5816776148524
 33
0.0
 14
120.0041220239454
 24
340.806671461306
 34
0.0
100
AcDbRotatedDimension
1001
ACAD
1000
DSTYLE
1002
{
1070
    41
1040
2.0
1070
    42
1040
10.0
1070
    44
1040
0.0
1070
    73
1070
     0
1070
    74
1070
     0
1070
    77
1070
     1
1070
   140
1040
5.0
1070
   141
1040
0.0
1070
   146
1040
0.064286
1070
   147
1040
3.0
1070
   176
1070
    60
1070
   177
1070
    70
1070
   178
1070
    60
1070
   271
1070
     0
1070
   272
1070
     0
1070
   340
1005
1C
1070
   342
1005
109
1002
}
  0
DIMENSION
  5
5A90
330
2
100
AcDbEntity
  8
SUNPOU
100
AcDbDimension
  2
*D49
 10
13.01896463789626
 20
38.58167761485237
 30
0.0
 11
7.518964637896263
 21
189.5816776148523
 31
0.0
 70
    32
 71
     5
 42
302.0
  3
STANDARD
100
AcDbAlignedDimension
 13
40.0041220239454
 23
340.5816776148524
 33
0.0
 14
43.46912805305874
 24
38.58167761485237
 34
0.0
 50
90.0
100
AcDbRotatedDimension
1001
ACAD
1000
DSTYLE
1002
{
1070
    41
1040
2.0
1070
    42
1040
10.0
1070
    44
1040
0.0
1070
    73
1070
     0
1070
    74
1070
     0
1070
    77
1070
     1
1070
   140
1040
5.0
1070
   141
1040
0.0
1070
   146
1040
0.064286
1070
   147
1040
3.0
1070
   176
1070
    60
1070
   177
1070
    70
1070
   178
1070
    60
1070
   271
1070
     0
1070
   272
1070
     0
1070
   340
1005
1C
1070
   342
1005
109
1002
}
  0
ARC
  5
5AC6
102
{ACAD_REACTORS
330
5BE4
102
}
330
2
100
AcDbEntity
  8
KIJUN
100
AcDbCircle
 10
98.0060853204246
 20
333.8353868564921
 30
0.0
 40
6.656693563064687
100
AcDbArc
 50
41.59538883531167
 51
126.9554494894772
  0
ARC
  5
5AC7
102
{ACAD_REACTORS
330
5BE4
102
}
330
2
100
AcDbEntity
  8
KIJUN
100
AcDbCircle
 10
86.91105974515336
 20
322.1489300388139
 30
0.0
 40
18.4327475760384
100
AcDbArc
 50
67.36820053617748
 51
112.0063998498979
  0
ARC
  5
5AC8
102
{ACAD_REACTORS
330
5BE4
102
}
330
2
100
AcDbEntity
  8
KIJUN
100
AcDbCircle
 10
51.43785728186068
 20
331.6261702727981
 30
0.0
 40
8.668310289444455
100
AcDbArc
 50
49.87736029141909
 51
114.5294684013178
  0
ARC
  5
5AC9
102
{ACAD_REACTORS
330
5BE4
102
}
330
2
100
AcDbEntity
  8
KIJUN
100
AcDbCircle
 10
49.74012193783604
 20
337.7192891634576
 30
0.0
 40
2.613078893627905
100
AcDbArc
 50
136.6770853090992
 51
224.1373161193175
  0
ARC
  5
5ACA
102
{ACAD_REACTORS
330
5BE4
102
}
330
2
100
AcDbEntity
  8
KIJUN
100
AcDbCircle
 10
56.38414684553177
 20
345.7720654651201
 30
0.0
 40
13.04013935168059
100
AcDbArc
 50
229.2077476803405
 51
239.9343717145878
  0
ARC
  5
5ACB
102
{ACAD_REACTORS
330
5BE4
102
}
330
2
100
AcDbEntity
  8
KIJUN
100
AcDbCircle
 10
48.50616243111073
 20
331.893578964322
 30
0.0
 40
2.920951370349106
100
AcDbArc
 50
356.6823262401602
 51
62.58315455175378
  0
ARC
  5
5ACC
102
{ACAD_REACTORS
330
5BE4
102
}
330
2
100
AcDbEntity
  8
KIJUN
100
AcDbCircle
 10
43.64942586079953
 20
332.212777195567
 30
0.0
 40
7.7881114814762
100
AcDbArc
 50
328.6343332325711
 51
356.4057503984642
  0
ARC
  5
5ACD
102
{ACAD_REACTORS
330
5BE4
102
}
330
2
100
AcDbEntity
  8
KIJUN
100
AcDbCircle
 10
87.17983958343912
 20
304.0160142624434
 30
0.0
 40
44.08008729545406
100
AcDbArc
 50
146.790009237077
 51
219.603708388988
  0
ARC
  5
5ACE
102
{ACAD_REACTORS
330
5BE4
102
}
330
2
100
AcDbEntity
  8
KIJUN
100
AcDbCircle
 10
37.93032201695826
 20
274.7078704085552
 30
0.0
 40
13.40277758124813
100
AcDbArc
 50
38.81646913187782
 51
54.29348028783024
  0
ARC
  5
5ACF
102
{ACAD_REACTORS
330
5BE4
102
}
330
2
100
AcDbEntity
  8
KIJUN
100
AcDbCircle
 10
81.48504620441713
 20
250.364623174371
 30
0.0
 40
37.29803148335717
100
AcDbArc
 50
178.011580432842
 51
184.5408931765651
  0
ARC
  5
5AD0
102
{ACAD_REACTORS
330
5BE4
102
}
330
2
100
AcDbEntity
  8
KIJUN
100
AcDbCircle
 10
54.10810153698444
 20
251.7505156168436
 30
0.0
 40
9.899053341248748
100
AcDbArc
 50
136.4002528761012
 51
180.5310218651499
  0
ARC
  5
5AD2
102
{ACAD_REACTORS
330
5BE4
102
}
330
2
100
AcDbEntity
  8
KIJUN
100
AcDbCircle
 10
45.71763902237974
 20
263.0500369264819
 30
0.0
 40
3.737024200395839
100
AcDbArc
 50
326.0455966513507
 51
27.72680333414756
  0
ARC
  5
5AD3
102
{ACAD_REACTORS
330
5BE4
102
}
330
2
100
AcDbEntity
  8
KIJUN
100
AcDbCircle
 10
28.29691039968089
 20
275.1840116491444
 30
0.0
 40
24.96668135923675
100
AcDbArc
 50
318.3050629074164
 51
325.2770924897561
  0
ARC
  5
5AD4
102
{ACAD_REACTORS
330
5BE4
102
}
330
2
100
AcDbEntity
  8
KIJUN
100
AcDbCircle
 10
51.19742484334544
 20
276.4513111856452
 30
0.0
 40
8.501014820730544
100
AcDbArc
 50
173.2044389641265
 51
216.9291433658982
  0
ARC
  5
5AD5
102
{ACAD_REACTORS
330
5BE4
102
}
330
2
100
AcDbEntity
  8
KIJUN
100
AcDbCircle
 10
-4.082965724834383
 20
232.2357367723855
 30
0.0
 40
62.29134748214764
100
AcDbArc
 50
31.50629390347694
 51
38.88968391891328
  0
ARC
  5
5AD6
102
{ACAD_REACTORS
330
5BE4
102
}
330
2
100
AcDbEntity
  8
KIJUN
100
AcDbCircle
 10
81.34744533212602
 20
274.0215702605628
 30
0.0
 40
38.74394227325564
100
AcDbArc
 50
163.4402893534428
 51
174.9125823083877
  0
ARC
  5
5AD8
102
{ACAD_REACTORS
330
5BE4
102
}
330
2
100
AcDbEntity
  8
KIJUN
100
AcDbCircle
 10
45.16899993178552
 20
284.7791381428229
 30
0.0
 40
1.0
100
AcDbArc
 50
54.2934802878297
 51
163.4402893534424
  0
ARC
  5
5AD9
102
{ACAD_REACTORS
330
5BE4
102
}
330
2
100
AcDbEntity
  8
KIJUN
100
AcDbCircle
 10
63.51580465253134
 20
233.8577773480726
 30
0.0
 40
23.51168262858594
100
AcDbArc
 50
144.7968842170474
 51
208.514506337498
  0
ARC
  5
5ADA
102
{ACAD_REACTORS
330
5BE4
102
}
330
2
100
AcDbEntity
  8
KIJUN
100
AcDbCircle
 10
50.02346588904876
 20
226.6232946269032
 30
0.0
 40
8.202839312942035
100
AcDbArc
 50
209.1017800170248
 51
269.864885460767
  0
ARC
  5
5ADB
102
{ACAD_REACTORS
330
5BE4
102
}
330
2
100
AcDbEntity
  8
KIJUN
100
AcDbCircle
 10
54.35535480586938
 20
209.0409098391438
 30
0.0
 40
10.33970637395928
100
AcDbArc
 50
114.8868420354049
 51
158.9650418732187
  0
ARC
  5
5ADC
102
{ACAD_REACTORS
330
5BE4
102
}
330
2
100
AcDbEntity
  8
KIJUN
100
AcDbCircle
 10
63.72419827879693
 20
243.1479006086249
 30
0.0
 40
37.52847004397326
100
AcDbArc
 50
241.1321917692643
 51
248.2780508876444
  0
ARC
  5
5ADD
102
{ACAD_REACTORS
330
5BE4
102
}
330
2
100
AcDbEntity
  8
KIJUN
100
AcDbCircle
 10
54.92011509537131
 20
196.0511593961642
 30
0.0
 40
12.39486458134755
100
AcDbArc
 50
114.1242866146551
 51
134.7091528261939
  0
ARC
  5
5ADE
102
{ACAD_REACTORS
330
5BE4
102
}
330
2
100
AcDbEntity
  8
KIJUN
100
AcDbCircle
 10
49.63373940646008
 20
201.5083945590816
 30
0.0
 40
4.798174114044295
100
AcDbArc
 50
135.6913724519541
 51
244.3994713419825
  0
ARC
  5
5AE0
102
{ACAD_REACTORS
330
5BE4
102
}
330
2
100
AcDbEntity
  8
KIJUN
100
AcDbCircle
 10
46.57139312011335
 20
212.0343431319598
 30
0.0
 40
2.0
100
AcDbArc
 50
158.9650418732186
 51
241.132191769264
  0
ARC
  5
5AE1
102
{ACAD_REACTORS
330
5BE4
102
}
330
2
100
AcDbEntity
  8
KIJUN
100
AcDbCircle
 10
49.64976012344173
 20
207.819799548754
 30
0.0
 40
0.5
100
AcDbArc
 50
294.1242866146551
 51
68.27805088764359
  0
ARC
  5
5AE2
102
{ACAD_REACTORS
330
5BE4
102
}
330
2
100
AcDbEntity
  8
KIJUN
100
AcDbCircle
 10
64.00350616429972
 20
174.1392173379582
 30
0.0
 40
23.56224877114022
100
AcDbArc
 50
131.5715051236674
 51
186.7449230127602
  0
ARC
  5
5AE3
102
{ACAD_REACTORS
330
5BE4
102
}
330
2
100
AcDbEntity
  8
KIJUN
100
AcDbCircle
 10
39.87433984306954
 20
181.4346673333513
 30
0.0
 40
17.52232903351488
100
AcDbArc
 50
56.50794917216671
 51
63.98234128166786
  0
ARC
  5
5AE4
102
{ACAD_REACTORS
330
5BE4
102
}
330
2
100
AcDbEntity
  8
KIJUN
100
AcDbCircle
 10
39.36001335130376
 20
200.0064780474761
 30
0.0
 40
12.20853416656058
100
AcDbArc
 50
317.552733888615
 51
330.8886595726488
  0
ARC
  5
5AE7
102
{ACAD_REACTORS
330
5BE4
102
}
330
2
100
AcDbEntity
  8
KIJUN
100
AcDbCircle
 10
48.71580207630402
 20
194.7966871371273
 30
0.0
 40
1.5
100
AcDbArc
 50
330.8886595726483
 51
56.50794917216671
  0
ARC
  5
5AE8
102
{ACAD_REACTORS
330
5BE4
102
}
330
2
100
AcDbEntity
  8
KIJUN
100
AcDbCircle
 10
42.68352173195897
 20
171.8454841889083
 30
0.0
 40
7.725306885093142
100
AcDbArc
 50
307.6749676887292
 51
343.246641445694
  0
ARC
  5
5AE9
102
{ACAD_REACTORS
330
5BE4
102
}
330
2
100
AcDbEntity
  8
KIJUN
100
AcDbCircle
 10
49.93024074211863
 20
172.7262315571549
 30
0.0
 40
9.423740404367771
100
AcDbArc
 50
188.2632026721482
 51
214.900608576137
  0
ARC
  5
5AEA
102
{ACAD_REACTORS
330
5BE4
102
}
330
2
100
AcDbEntity
  8
KIJUN
100
AcDbCircle
 10
45.96599947373857
 20
170.306260930302
 30
0.0
 40
4.796269106945571
100
AcDbArc
 50
218.2884112821267
 51
287.4601656039406
  0
ARC
  5
5AEB
102
{ACAD_REACTORS
330
5BE4
102
}
330
2
100
AcDbEntity
  8
KIJUN
100
AcDbCircle
 10
102.6971181734544
 20
88.11518583174947
 30
0.0
 40
54.48431435296488
100
AcDbArc
 50
235.720534938218
 51
245.3858628204356
  0
ARC
  5
5AEC
102
{ACAD_REACTORS
330
5BE4
102
}
330
2
100
AcDbEntity
  8
KIJUN
100
AcDbCircle
 10
140.8204172183303
 20
75.47065486364015
 30
0.0
 40
79.11678959421052
100
AcDbArc
 50
184.9952709237085
 51
196.4320295607735
  0
ARC
  5
5AED
102
{ACAD_REACTORS
330
5BE4
102
}
330
2
100
AcDbEntity
  8
KIJUN
100
AcDbCircle
 10
84.7665331976327
 20
59.62550872608968
 30
0.0
 40
20.88051633278405
100
AcDbArc
 50
198.2390398278866
 51
232.3429507472779
  0
ARC
  5
5AEF
102
{ACAD_REACTORS
330
5BE4
102
}
330
2
100
AcDbEntity
  8
KIJUN
100
AcDbCircle
 10
39.1173763770051
 20
164.7548769349968
 30
0.0
 40
11.99398274086939
100
AcDbArc
 50
345.3731062392182
 51
23.92355581686465
  0
ARC
  5
5AF0
102
{ACAD_REACTORS
330
5BE4
102
}
330
2
100
AcDbEntity
  8
KIJUN
100
AcDbCircle
 10
46.59792559954069
 20
163.0055979905115
 30
0.0
 40
4.318607915932884
100
AcDbArc
 50
286.3378604585599
 51
342.7661493258081
  0
ARC
  5
5AF1
102
{ACAD_REACTORS
330
5BE4
102
}
330
2
100
AcDbEntity
  8
KIJUN
100
AcDbCircle
 10
50.1624225733724
 20
153.2131010001729
 30
0.0
 40
6.117513079084254
100
AcDbArc
 50
112.5871887935858
 51
131.9851043657757
  0
ARC
  5
5AF2
102
{ACAD_REACTORS
330
5BE4
102
}
330
2
100
AcDbEntity
  8
KIJUN
100
AcDbCircle
 10
48.10281430186648
 20
158.2891280837895
 30
0.0
 40
3.979464439815439
100
AcDbArc
 50
238.5610206628061
 51
268.2088166688009
  0
ARC
  5
5AF3
102
{ACAD_REACTORS
330
5BE4
102
}
330
2
100
AcDbEntity
  8
KIJUN
100
AcDbCircle
 10
49.53750088593544
 20
154.8242632721137
 30
0.0
 40
4.54344935222437
100
AcDbArc
 50
139.7422605972315
 51
153.680456575353
  0
ARC
  5
5AF4
102
{ACAD_REACTORS
330
5BE4
102
}
330
2
100
AcDbEntity
  8
KIJUN
100
AcDbCircle
 10
46.80954995623777
 20
156.1736585754687
 30
0.0
 40
1.5
100
AcDbArc
 50
153.6804565753531
 51
238.5610206628058
  0
ARC
  5
5AF5
102
{ACAD_REACTORS
330
5BE4
102
}
330
2
100
AcDbEntity
  8
KIJUN
100
AcDbCircle
 10
47.61159080356887
 20
143.6059751734532
 30
0.0
 40
10.71191606408106
100
AcDbArc
 50
83.14743061386275
 51
88.03747955330411
  0
ARC
  5
5AF6
102
{ACAD_REACTORS
330
5BE4
102
}
330
2
100
AcDbEntity
  8
KIJUN
100
AcDbCircle
 10
142.1402099360657
 20
72.84506417445465
 30
0.0
 40
122.9972905799821
100
AcDbArc
 50
139.0747303622599
 51
140.3396956848468
  0
ARC
  5
5AF8
102
{ACAD_REACTORS
330
5BE4
102
}
330
2
100
AcDbEntity
  8
KIJUN
100
AcDbCircle
 10
48.83002529309656
 20
153.7449419400703
 30
0.0
 40
0.5
100
AcDbArc
 50
319.074730362258
 51
83.14743061386286
  0
ARC
  5
5AF9
102
{ACAD_REACTORS
330
5BE4
102
}
330
2
100
AcDbEntity
  8
KIJUN
100
AcDbCircle
 10
97.73720858259807
 20
166.7567862665326
 30
0.0
 40
54.00840234223269
100
AcDbArc
 50
199.8559032775323
 51
203.0158085866125
  0
ARC
  5
5AFA
102
{ACAD_REACTORS
330
5BE4
102
}
330
2
100
AcDbEntity
  8
KIJUN
100
AcDbCircle
 10
93.17122887147517
 20
104.132924307695
 30
0.0
 40
59.62344539877454
100
AcDbArc
 50
139.9033662614022
 51
141.8325260391159
  0
ARC
  5
5AFD
102
{ACAD_REACTORS
330
5BE4
102
}
330
2
100
AcDbEntity
  8
KIJUN
100
AcDbCircle
 10
49.76126515357584
 20
149.4314879544587
 30
0.0
 40
3.0
100
AcDbArc
 50
140.3396956848467
 51
199.8559032775321
  0
ARC
  5
5AFE
102
{ACAD_REACTORS
330
5BE4
102
}
330
2
100
AcDbEntity
  8
KIJUN
100
AcDbCircle
 10
45.26684546188678
 20
144.4673508408745
 30
0.0
 40
3.0
100
AcDbArc
 50
319.9033662614021
 51
23.01580858661292
  0
ARC
  5
5AFF
102
{ACAD_REACTORS
330
5BE4
102
}
330
2
100
AcDbEntity
  8
KIJUN
100
AcDbCircle
 10
48.54500832650796
 20
141.9283277424017
 30
0.0
 40
3.661273325034648
100
AcDbArc
 50
240.2979963865612
 51
293.1806726528362
  0
ARC
  5
5B01
102
{ACAD_REACTORS
330
5BE4
102
}
330
2
100
AcDbEntity
  8
KIJUN
100
AcDbCircle
 10
47.47412107314317
 20
140.0510150683681
 30
0.0
 40
1.5
100
AcDbArc
 50
141.8325260391157
 51
240.2979963865612
  0
ARC
  5
5B02
102
{ACAD_REACTORS
330
5BE4
102
}
330
2
100
AcDbEntity
  8
KIJUN
100
AcDbCircle
 10
21.17628313999349
 20
147.321362189143
 30
0.0
 40
30.12904884734995
100
AcDbArc
 50
323.5540476310058
 51
343.0997100238984
  0
ARC
  5
5B03
102
{ACAD_REACTORS
330
5BE4
102
}
330
2
100
AcDbEntity
  8
KIJUN
100
AcDbCircle
 10
54.00194560584767
 20
124.4564887704881
 30
0.0
 40
10.5021974809617
100
AcDbArc
 50
179.9854555214694
 51
207.8151528183097
  0
ARC
  5
5B06
102
{ACAD_REACTORS
330
5BE4
102
}
330
2
100
AcDbEntity
  8
KIJUN
100
AcDbCircle
 10
53.44879745566721
 20
123.4754023005625
 30
0.0
 40
9.997566940092481
100
AcDbArc
 50
143.4958017425497
 51
174.3530041007195
  0
ARC
  5
5B07
102
{ACAD_REACTORS
330
5BE4
102
}
330
2
100
AcDbEntity
  8
KIJUN
100
AcDbCircle
 10
43.80726779289267
 20
75.99758549274554
 30
0.0
 40
21.48703658234228
100
AcDbArc
 50
301.497945818866
 51
329.7850993534546
  0
ARC
  5
5B08
102
{ACAD_REACTORS
330
5BE4
102
}
330
2
100
AcDbEntity
  8
KIJUN
100
AcDbCircle
 10
47.58473220782183
 20
71.15456471709361
 30
0.0
 40
15.39947901755761
100
AcDbArc
 50
286.7634333630086
 51
298.9277452865666
  0
ARC
  5
5B0A
102
{ACAD_REACTORS
330
5BE4
102
}
330
2
100
AcDbEntity
  8
KIJUN
100
AcDbCircle
 10
9.646716864420282
 20
62.94170434924979
 30
0.0
 40
39.36354881541765
100
AcDbArc
 50
354.3267348046276
 51
8.270076329012358
  0
ARC
  5
5B0D
102
{ACAD_REACTORS
330
5BE4
102
}
330
2
100
AcDbEntity
  8
KIJUN
100
AcDbCircle
 10
51.30520986522982
 20
58.80326499094587
 30
0.0
 40
2.5
100
AcDbArc
 50
174.3267348046275
 51
286.7634333630085
  0
ARC
  5
5B0E
102
{ACAD_REACTORS
330
5BE4
102
}
330
2
100
AcDbEntity
  8
KIJUN
100
AcDbCircle
 10
82.60235224719995
 20
49.42525313687817
 30
0.0
 40
41.5980074207466
100
AcDbArc
 50
136.011212585462
 51
142.0174708497504
  0
ARC
  5
5B0F
102
{ACAD_REACTORS
330
5BE4
102
}
330
2
100
AcDbEntity
  8
KIJUN
100
AcDbCircle
 10
55.59861348006676
 20
70.60657717226916
 30
0.0
 40
7.278668510170024
100
AcDbArc
 50
142.6189959432259
 51
195.9719238475832
  0
ARC
  5
5B10
102
{ACAD_REACTORS
330
5BE4
102
}
330
2
100
AcDbEntity
  8
KIJUN
100
AcDbCircle
 10
143.2968902864665
 20
90.04266798458424
 30
0.0
 40
98.4104406411904
100
AcDbArc
 50
163.0305485138781
 51
172.7159376337201
  0
ARC
  5
5B11
102
{ACAD_REACTORS
330
5BE4
102
}
330
2
100
AcDbEntity
  8
KIJUN
100
AcDbCircle
 10
54.18363257524613
 20
101.6783003904363
 30
0.0
 40
8.544543726077133
100
AcDbArc
 50
174.3467865929531
 51
225.6449335898257
  0
ARC
  5
5B12
102
{ACAD_REACTORS
330
5BE4
102
}
330
2
100
AcDbEntity
  8
KIJUN
100
AcDbCircle
 10
29.83647162710802
 20
75.2894331932482
 30
0.0
 40
27.36498523621954
100
AcDbArc
 50
38.37524464148779
 51
47.82254328051475
  0
ARC
  5
5B13
102
{ACAD_REACTORS
330
5BE4
102
}
330
2
100
AcDbEntity
  8
KIJUN
100
AcDbCircle
 10
68.99044972465535
 20
78.4345158118486
 30
0.0
 40
20.68669896816919
100
AcDbArc
 50
147.9876198685954
 51
166.1744836825616
  0
ARC
  5
5B14
102
{ACAD_REACTORS
330
5BE4
102
}
330
2
100
AcDbEntity
  8
KIJUN
100
AcDbCircle
 10
49.32966918641423
 20
90.7258427405255
 30
0.0
 40
2.5
100
AcDbArc
 50
327.9876198685955
 51
38.37524464148795
  0
ARC
  5
5B15
102
{ACAD_REACTORS
330
5BE4
102
}
330
2
100
AcDbEntity
  8
KIJUN
100
AcDbCircle
 10
42.21089151924735
 20
427.8871768438373
 30
0.0
 40
347.7265844143863
100
AcDbArc
 50
271.5050435266045
 51
271.7950129149729
  0
ARC
  5
5B16
102
{ACAD_REACTORS
330
5BE4
102
}
330
2
100
AcDbEntity
  8
KIJUN
100
AcDbCircle
 10
51.33065663148698
 20
82.78051710790101
 30
0.0
 40
2.5
100
AcDbArc
 50
166.1744836825616
 51
270.3037657649131
  0
ARC
  5
5B18
102
{ACAD_REACTORS
330
5BE4
102
}
330
2
100
AcDbEntity
  8
KIJUN
100
AcDbCircle
 10
47.07541956811328
 20
83.13775014862088
 30
0.0
 40
7.388556685255425
100
AcDbArc
 50
319.2602669329081
 51
331.3167553682911
  0
ARC
  5
5B1B
102
{ACAD_REACTORS
330
5BE4
102
}
330
2
100
AcDbEntity
  8
KIJUN
100
AcDbCircle
 10
53.11865777278267
 20
79.83147048597865
 30
0.0
 40
0.5
100
AcDbArc
 50
331.3167553682917
 51
91.79501291499642
  0
ARC
  5
5B1C
102
{ACAD_REACTORS
330
5BE4
102
}
330
2
100
AcDbEntity
  8
KIJUN
100
AcDbCircle
 10
62.04593772669961
 20
87.89821056877688
 30
0.0
 40
35.09044681164445
100
AcDbArc
 50
113.9363119604034
 51
117.1133111088537
  0
ARC
  5
5B1E
102
{ACAD_REACTORS
330
5BE4
102
}
330
2
100
AcDbEntity
  8
KIJUN
100
AcDbCircle
 10
45.59765482134896
 20
120.0225680025013
 30
0.0
 40
1.0
100
AcDbArc
 50
207.8151528183096
 51
297.1133111088544
  0
ARC
  5
5B1F
102
{ACAD_REACTORS
330
5BE4
102
}
330
2
100
AcDbEntity
  8
KIJUN
100
AcDbCircle
 10
48.21473008020385
 20
119.0567769487802
 30
0.0
 40
1.0
100
AcDbArc
 50
343.0305485138799
 51
113.9363119604034
  0
ARC
  5
5B21
102
{ACAD_REACTORS
330
5BE4
102
}
330
2
100
AcDbEntity
  8
KIJUN
100
AcDbCircle
 10
108.5703867660295
 20
331.6261702727981
 30
0.0
 40
8.668310289444452
100
AcDbArc
 50
65.47053159868148
 51
130.1226397085808
  0
ARC
  5
5B22
102
{ACAD_REACTORS
330
5BE4
102
}
330
2
100
AcDbEntity
  8
KIJUN
100
AcDbCircle
 10
110.2681221100542
 20
337.7192891634576
 30
0.0
 40
2.613078893627903
100
AcDbArc
 50
315.8626838806819
 51
43.3229146909009
  0
ARC
  5
5B23
102
{ACAD_REACTORS
330
5BE4
102
}
330
2
100
AcDbEntity
  8
KIJUN
100
AcDbCircle
 10
103.6240972023585
 20
345.7720654651201
 30
0.0
 40
13.04013935168059
100
AcDbArc
 50
300.0656282854116
 51
310.7922523196598
  0
ARC
  5
5B24
102
{ACAD_REACTORS
330
5BE4
102
}
330
2
100
AcDbEntity
  8
KIJUN
100
AcDbCircle
 10
111.5020816167795
 20
331.893578964322
 30
0.0
 40
2.920951370349105
100
AcDbArc
 50
117.4168454482456
 51
183.3176737598398
  0
ARC
  5
5B25
102
{ACAD_REACTORS
330
5BE4
102
}
330
2
100
AcDbEntity
  8
KIJUN
100
AcDbCircle
 10
116.3588181870907
 20
332.212777195567
 30
0.0
 40
7.788111481476196
100
AcDbArc
 50
183.5942496015358
 51
211.3656667674285
  0
ARC
  5
5B26
102
{ACAD_REACTORS
330
5BE4
102
}
330
2
100
AcDbEntity
  8
KIJUN
100
AcDbCircle
 10
72.82840446445113
 20
304.0160142624434
 30
0.0
 40
44.08008729545405
100
AcDbArc
 50
320.3962916110124
 51
33.20999076292334
  0
ARC
  5
5B27
102
{ACAD_REACTORS
330
5BE4
102
}
330
2
100
AcDbEntity
  8
KIJUN
100
AcDbCircle
 10
122.077922030932
 20
274.7078704085552
 30
0.0
 40
13.40277758124813
100
AcDbArc
 50
125.7065197121701
 51
141.1835308681226
  0
ARC
  5
5B28
102
{ACAD_REACTORS
330
5BE4
102
}
330
2
100
AcDbEntity
  8
KIJUN
100
AcDbCircle
 10
78.52319784347314
 20
250.364623174371
 30
0.0
 40
37.29803148335715
100
AcDbArc
 50
355.4591068234359
 51
1.988419567157976
  0
ARC
  5
5B29
102
{ACAD_REACTORS
330
5BE4
102
}
330
2
100
AcDbEntity
  8
KIJUN
100
AcDbCircle
 10
105.9001425109058
 20
251.7505156168436
 30
0.0
 40
9.899053341248745
100
AcDbArc
 50
359.46897813485
 51
43.59974712389907
  0
ARC
  5
5B2A
102
{ACAD_REACTORS
330
5BE4
102
}
330
2
100
AcDbEntity
  8
KIJUN
100
AcDbCircle
 10
114.2906050255105
 20
263.0500369264819
 30
0.0
 40
3.737024200395837
100
AcDbArc
 50
152.2731966658523
 51
213.9544033486491
  0
ARC
  5
5B2B
102
{ACAD_REACTORS
330
5BE4
102
}
330
2
100
AcDbEntity
  8
KIJUN
100
AcDbCircle
 10
131.7113336482093
 20
275.1840116491444
 30
0.0
 40
24.96668135923675
100
AcDbArc
 50
214.7229075102442
 51
221.6949370925836
  0
ARC
  5
5B2C
102
{ACAD_REACTORS
330
5BE4
102
}
330
2
100
AcDbEntity
  8
KIJUN
100
AcDbCircle
 10
108.8108192045448
 20
276.4513111856452
 30
0.0
 40
8.50101482073054
100
AcDbArc
 50
323.0708566341022
 51
6.795561035873567
  0
ARC
  5
5B2D
102
{ACAD_REACTORS
330
5BE4
102
}
330
2
100
AcDbEntity
  8
KIJUN
100
AcDbCircle
 10
164.0912097727246
 20
232.2357367723855
 30
0.0
 40
62.29134748214761
100
AcDbArc
 50
141.1103160810864
 51
148.4937060965234
  0
ARC
  5
5B2E
102
{ACAD_REACTORS
330
5BE4
102
}
330
2
100
AcDbEntity
  8
KIJUN
100
AcDbCircle
 10
78.66079871576424
 20
274.0215702605628
 30
0.0
 40
38.74394227325563
100
AcDbArc
 50
5.087417691612269
 51
16.55971064655717
  0
ARC
  5
5B2F
102
{ACAD_REACTORS
330
5BE4
102
}
330
2
100
AcDbEntity
  8
KIJUN
100
AcDbCircle
 10
114.8392441161047
 20
284.7791381428229
 30
0.0
 40
0.9999999999999996
100
AcDbArc
 50
16.5597106465575
 51
125.7065197121702
  0
ARC
  5
5B30
102
{ACAD_REACTORS
330
5BE4
102
}
330
2
100
AcDbEntity
  8
KIJUN
100
AcDbCircle
 10
96.49243939535947
 20
233.8577773480726
 30
0.0
 40
23.51168262858593
100
AcDbArc
 50
331.4854936625023
 51
35.20311578295465
  0
ARC
  5
5B31
102
{ACAD_REACTORS
330
5BE4
102
}
330
2
100
AcDbEntity
  8
KIJUN
100
AcDbCircle
 10
109.984778158841
 20
226.623294626905
 30
0.0
 40
8.202839312943876
100
AcDbArc
 50
270.1351145392357
 51
330.8982199829685
  0
ARC
  5
5B32
102
{ACAD_REACTORS
330
5BE4
102
}
330
2
100
AcDbEntity
  8
KIJUN
100
AcDbCircle
 10
105.6528892420208
 20
209.0409098391438
 30
0.0
 40
10.33970637395928
100
AcDbArc
 50
21.03495812678138
 51
65.11315796459526
  0
ARC
  5
5B33
102
{ACAD_REACTORS
330
5BE4
102
}
330
2
100
AcDbEntity
  8
KIJUN
100
AcDbCircle
 10
96.28404576909332
 20
243.1479006086249
 30
0.0
 40
37.52847004397324
100
AcDbArc
 50
291.7219491123564
 51
298.8678082307359
  0
ARC
  5
5B34
102
{ACAD_REACTORS
330
5BE4
102
}
330
2
100
AcDbEntity
  8
KIJUN
100
AcDbCircle
 10
110.3584839244485
 20
207.819799548754
 30
0.0
 40
0.4999999999999999
100
AcDbArc
 50
111.7219491123565
 51
245.8757133853456
  0
ARC
  5
5B35
102
{ACAD_REACTORS
330
5BE4
102
}
330
2
100
AcDbEntity
  8
KIJUN
100
AcDbCircle
 10
113.4368509277769
 20
212.0343431319598
 30
0.0
 40
1.999999999999999
100
AcDbArc
 50
298.8678082307361
 51
21.03495812678147
  0
ARC
  5
5B36
102
{ACAD_REACTORS
330
5BE4
102
}
330
2
100
AcDbEntity
  8
KIJUN
100
AcDbCircle
 10
105.0881289525189
 20
196.0511593961642
 30
0.0
 40
12.39486458134755
100
AcDbArc
 50
45.29084717380553
 51
65.87571338534555
  0
ARC
  5
5B37
102
{ACAD_REACTORS
330
5BE4
102
}
330
2
100
AcDbEntity
  8
KIJUN
100
AcDbCircle
 10
110.3745046414301
 20
201.5083945590816
 30
0.0
 40
4.798174114044293
100
AcDbArc
 50
295.6005286580179
 51
44.30862754804621
  0
ARC
  5
5B38
102
{ACAD_REACTORS
330
5BE4
102
}
330
2
100
AcDbEntity
  8
KIJUN
100
AcDbCircle
 10
96.00473788359053
 20
174.1392173379582
 30
0.0
 40
23.56224877114021
100
AcDbArc
 50
353.2550769872398
 51
48.428494876332
  0
ARC
  5
5B39
102
{ACAD_REACTORS
330
5BE4
102
}
330
2
100
AcDbEntity
  8
KIJUN
100
AcDbCircle
 10
120.1339042048207
 20
181.4346673333513
 30
0.0
 40
17.52232903351487
100
AcDbArc
 50
116.0176587183325
 51
123.4920508278329
  0
ARC
  5
5B3A
102
{ACAD_REACTORS
330
5BE4
102
}
330
2
100
AcDbEntity
  8
KIJUN
100
AcDbCircle
 10
111.2924419715862
 20
194.7966871371273
 30
0.0
 40
1.499999999999999
100
AcDbArc
 50
123.4920508278329
 51
209.1113404273514
  0
ARC
  5
5B3B
102
{ACAD_REACTORS
330
5BE4
102
}
330
2
100
AcDbEntity
  8
KIJUN
100
AcDbCircle
 10
120.6482306965865
 20
200.0064780474761
 30
0.0
 40
12.20853416656057
100
AcDbArc
 50
209.111340427351
 51
222.4472661113855
  0
ARC
  5
5B3C
102
{ACAD_REACTORS
330
5BE4
102
}
330
2
100
AcDbEntity
  8
KIJUN
100
AcDbCircle
 10
117.3247223159312
 20
171.8454841889083
 30
0.0
 40
7.725306885093139
100
AcDbArc
 50
196.753358554306
 51
232.3250323112706
  0
ARC
  5
5B3D
102
{ACAD_REACTORS
330
5BE4
102
}
330
2
100
AcDbEntity
  8
KIJUN
100
AcDbCircle
 10
110.0780033057716
 20
172.7262315571549
 30
0.0
 40
9.423740404367768
100
AcDbArc
 50
325.0993914238626
 51
351.7367973278517
  0
ARC
  5
5B3E
102
{ACAD_REACTORS
330
5BE4
102
}
330
2
100
AcDbEntity
  8
KIJUN
100
AcDbCircle
 10
114.0422445741517
 20
170.306260930302
 30
0.0
 40
4.796269106945569
100
AcDbArc
 50
252.5398343960586
 51
321.7115887178736
  0
ARC
  5
5B3F
102
{ACAD_REACTORS
330
5BE4
102
}
330
2
100
AcDbEntity
  8
KIJUN
100
AcDbCircle
 10
57.31112587443586
 20
88.11518583174947
 30
0.0
 40
54.48431435296487
100
AcDbArc
 50
294.6141371795641
 51
304.2794650617818
  0
ARC
  5
5B40
102
{ACAD_REACTORS
330
5BE4
102
}
330
2
100
AcDbEntity
  8
KIJUN
100
AcDbCircle
 10
19.18782682955995
 20
75.47065486364015
 30
0.0
 40
79.11678959421049
100
AcDbArc
 50
343.5679704392266
 51
355.0047290762914
  0
ARC
  5
5B41
102
{ACAD_REACTORS
330
5BE4
102
}
330
2
100
AcDbEntity
  8
KIJUN
100
AcDbCircle
 10
75.24171085025756
 20
59.62550872608968
 30
0.0
 40
20.88051633278404
100
AcDbArc
 50
307.6570492527216
 51
341.7609601721135
  0
ARC
  5
5B42
102
{ACAD_REACTORS
330
5BE4
102
}
330
2
100
AcDbEntity
  8
KIJUN
100
AcDbCircle
 10
120.8908676708851
 20
164.7548769349968
 30
0.0
 40
11.99398274086938
100
AcDbArc
 50
156.0764441831353
 51
194.6268937607819
  0
ARC
  5
5B43
102
{ACAD_REACTORS
330
5BE4
102
}
330
2
100
AcDbEntity
  8
KIJUN
100
AcDbCircle
 10
113.4103184483495
 20
163.0055979905115
 30
0.0
 40
4.318607915932882
100
AcDbArc
 50
197.2338506741918
 51
253.6621395414401
  0
ARC
  5
5B44
102
{ACAD_REACTORS
330
5BE4
102
}
330
2
100
AcDbEntity
  8
KIJUN
100
AcDbCircle
 10
109.8458214745178
 20
153.2131010001729
 30
0.0
 40
6.117513079084251
100
AcDbArc
 50
48.01489563422467
 51
67.41281120641492
  0
ARC
  5
5B45
102
{ACAD_REACTORS
330
5BE4
102
}
330
2
100
AcDbEntity
  8
KIJUN
100
AcDbCircle
 10
111.9054297460237
 20
158.2891280837895
 30
0.0
 40
3.979464439815437
100
AcDbArc
 50
271.7911833311984
 51
301.4389793371945
  0
ARC
  5
5B46
102
{ACAD_REACTORS
330
5BE4
102
}
330
2
100
AcDbEntity
  8
KIJUN
100
AcDbCircle
 10
110.4707431619548
 20
154.8242632721137
 30
0.0
 40
4.543449352224368
100
AcDbArc
 50
26.31954342464731
 51
40.25773940276859
  0
ARC
  5
5B47
102
{ACAD_REACTORS
330
5BE4
102
}
330
2
100
AcDbEntity
  8
KIJUN
100
AcDbCircle
 10
113.1986940916524
 20
156.1736585754687
 30
0.0
 40
1.499999999999999
100
AcDbArc
 50
301.4389793371946
 51
26.31954342464724
  0
ARC
  5
5B48
102
{ACAD_REACTORS
330
5BE4
102
}
330
2
100
AcDbEntity
  8
KIJUN
100
AcDbCircle
 10
112.3966532443214
 20
143.6059751734532
 30
0.0
 40
10.71191606408105
100
AcDbArc
 50
91.96252044669634
 51
96.85256938613715
  0
ARC
  5
5B49
102
{ACAD_REACTORS
330
5BE4
102
}
330
2
100
AcDbEntity
  8
KIJUN
100
AcDbCircle
 10
111.1782187547937
 20
153.7449419400703
 30
0.0
 40
0.4999999999999999
100
AcDbArc
 50
96.85256938613715
 51
220.9252696377421
  0
ARC
  5
5B4A
102
{ACAD_REACTORS
330
5BE4
102
}
330
2
100
AcDbEntity
  8
KIJUN
100
AcDbCircle
 10
17.86803411182461
 20
72.84506417445465
 30
0.0
 40
122.9972905799821
100
AcDbArc
 50
39.66030431515292
 51
40.92526963773993
  0
ARC
  5
5B4B
102
{ACAD_REACTORS
330
5BE4
102
}
330
2
100
AcDbEntity
  8
KIJUN
100
AcDbCircle
 10
110.2469788943144
 20
149.4314879544587
 30
0.0
 40
2.999999999999998
100
AcDbArc
 50
340.1440967224676
 51
39.66030431515297
  0
ARC
  5
5B4C
102
{ACAD_REACTORS
330
5BE4
102
}
330
2
100
AcDbEntity
  8
KIJUN
100
AcDbCircle
 10
62.27103546529221
 20
166.7567862665326
 30
0.0
 40
54.00840234223267
100
AcDbArc
 50
336.9841914133876
 51
340.1440967224675
  0
ARC
  5
5B4D
102
{ACAD_REACTORS
330
5BE4
102
}
330
2
100
AcDbEntity
  8
KIJUN
100
AcDbCircle
 10
114.7413985860034
 20
144.4673508408745
 30
0.0
 40
2.999999999999998
100
AcDbArc
 50
156.9841914133872
 51
220.0966337385983
  0
ARC
  5
5B4E
102
{ACAD_REACTORS
330
5BE4
102
}
330
2
100
AcDbEntity
  8
KIJUN
100
AcDbCircle
 10
66.83701517641509
 20
104.132924307695
 30
0.0
 40
59.62344539877451
100
AcDbArc
 50
38.16747396088385
 51
40.09663373859828
  0
ARC
  5
5B4F
102
{ACAD_REACTORS
330
5BE4
102
}
330
2
100
AcDbEntity
  8
KIJUN
100
AcDbCircle
 10
112.534122974747
 20
140.0510150683681
 30
0.0
 40
1.499999999999999
100
AcDbArc
 50
299.7020036134386
 51
38.167473960884
  0
ARC
  5
5B50
102
{ACAD_REACTORS
330
5BE4
102
}
330
2
100
AcDbEntity
  8
KIJUN
100
AcDbCircle
 10
111.4632357213823
 20
141.9283277424017
 30
0.0
 40
3.661273325034646
100
AcDbArc
 50
246.8193273471643
 51
299.7020036134386
  0
ARC
  5
5B51
102
{ACAD_REACTORS
330
5BE4
102
}
330
2
100
AcDbEntity
  8
KIJUN
100
AcDbCircle
 10
138.8319609078967
 20
147.321362189143
 30
0.0
 40
30.12904884734993
100
AcDbArc
 50
196.9002899761018
 51
216.4459523689942
  0
ARC
  5
5B52
102
{ACAD_REACTORS
330
5BE4
102
}
330
2
100
AcDbEntity
  8
KIJUN
100
AcDbCircle
 10
106.0062984420426
 20
124.4564887704881
 30
0.0
 40
10.50219748096169
100
AcDbArc
 50
332.1848471816903
 51
0.0145444785305424
  0
ARC
  5
5B53
102
{ACAD_REACTORS
330
5BE4
102
}
330
2
100
AcDbEntity
  8
KIJUN
100
AcDbCircle
 10
114.4105892265413
 20
120.0225680025013
 30
0.0
 40
0.9999999999999996
100
AcDbArc
 50
242.8866888911464
 51
332.1848471816904
  0
ARC
  5
5B54
102
{ACAD_REACTORS
330
5BE4
102
}
330
2
100
AcDbEntity
  8
KIJUN
100
AcDbCircle
 10
106.559446592223
 20
123.4754023005625
 30
0.0
 40
9.997566940092477
100
AcDbArc
 50
5.646995899280574
 51
36.50419825745031
  0
ARC
  5
5B55
102
{ACAD_REACTORS
330
5BE4
102
}
330
2
100
AcDbEntity
  8
KIJUN
100
AcDbCircle
 10
116.2009762549976
 20
75.99758549274554
 30
0.0
 40
21.48703658234227
100
AcDbArc
 50
210.2149006465456
 51
238.5020541811347
  0
ARC
  5
5B56
102
{ACAD_REACTORS
330
5BE4
102
}
330
2
100
AcDbEntity
  8
KIJUN
100
AcDbCircle
 10
112.4235118400684
 20
71.15456471709361
 30
0.0
 40
15.39947901755761
100
AcDbArc
 50
241.0722547134339
 51
253.2365666369913
  0
ARC
  5
5B57
102
{ACAD_REACTORS
330
5BE4
102
}
330
2
100
AcDbEntity
  8
KIJUN
100
AcDbCircle
 10
108.7030341826604
 20
58.80326499094587
 30
0.0
 40
2.499999999999999
100
AcDbArc
 50
253.2365666369913
 51
5.673265195372438
  0
ARC
  5
5B58
102
{ACAD_REACTORS
330
5BE4
102
}
330
2
100
AcDbEntity
  8
KIJUN
100
AcDbCircle
 10
150.3615271834699
 20
62.94170434924979
 30
0.0
 40
39.36354881541763
100
AcDbArc
 50
171.7299236709876
 51
185.6732651953724
  0
ARC
  5
5B59
102
{ACAD_REACTORS
330
5BE4
102
}
330
2
100
AcDbEntity
  8
KIJUN
100
AcDbCircle
 10
77.40589180069033
 20
49.42525313687817
 30
0.0
 40
41.59800742074657
100
AcDbArc
 50
37.98252915024955
 51
43.98878741453841
  0
ARC
  5
5B5A
102
{ACAD_REACTORS
330
5BE4
102
}
330
2
100
AcDbEntity
  8
KIJUN
100
AcDbCircle
 10
104.4096305678235
 20
70.60657717226916
 30
0.0
 40
7.27866851017002
100
AcDbArc
 50
344.0280761524165
 51
37.38100405677393
  0
ARC
  5
5B5B
102
{ACAD_REACTORS
330
5BE4
102
}
330
2
100
AcDbEntity
  8
KIJUN
100
AcDbCircle
 10
16.71135376142376
 20
90.04266798458424
 30
0.0
 40
98.41044064119037
100
AcDbArc
 50
7.284062366279758
 51
16.96945148612196
  0
ARC
  5
5B5C
102
{ACAD_REACTORS
330
5BE4
102
}
330
2
100
AcDbEntity
  8
KIJUN
100
AcDbCircle
 10
105.8246114726441
 20
101.6783003904363
 30
0.0
 40
8.544543726077129
100
AcDbArc
 50
314.3550664101748
 51
5.65321340704679
  0
ARC
  5
5B5D
102
{ACAD_REACTORS
330
5BE4
102
}
330
2
100
AcDbEntity
  8
KIJUN
100
AcDbCircle
 10
130.1717724207822
 20
75.2894331932482
 30
0.0
 40
27.36498523621953
100
AcDbArc
 50
132.1774567194852
 51
141.6247553585121
  0
ARC
  5
5B5E
102
{ACAD_REACTORS
330
5BE4
102
}
330
2
100
AcDbEntity
  8
KIJUN
100
AcDbCircle
 10
110.678574861476
 20
90.7258427405255
 30
0.0
 40
2.499999999999999
100
AcDbArc
 50
141.624755358512
 51
212.0123801314045
  0
ARC
  5
5B5F
102
{ACAD_REACTORS
330
5BE4
102
}
330
2
100
AcDbEntity
  8
KIJUN
100
AcDbCircle
 10
91.01779432323491
 20
78.4345158118486
 30
0.0
 40
20.68669896816918
100
AcDbArc
 50
13.82551631743836
 51
32.01238013140462
  0
ARC
  5
5B60
102
{ACAD_REACTORS
330
5BE4
102
}
330
2
100
AcDbEntity
  8
KIJUN
100
AcDbCircle
 10
108.6775874164032
 20
82.78051710790101
 30
0.0
 40
2.499999999999999
100
AcDbArc
 50
269.6962342350873
 51
13.82551631743831
  0
ARC
  5
5B61
102
{ACAD_REACTORS
330
5BE4
102
}
330
2
100
AcDbEntity
  8
KIJUN
100
AcDbCircle
 10
117.7973525286429
 20
427.8871768438373
 30
0.0
 40
347.7265844143861
100
AcDbArc
 50
268.2049870850278
 51
268.4949564733951
  0
ARC
  5
5B62
102
{ACAD_REACTORS
330
5BE4
102
}
330
2
100
AcDbEntity
  8
KIJUN
100
AcDbCircle
 10
106.8895862751076
 20
79.83147048597865
 30
0.0
 40
0.4999999999999999
100
AcDbArc
 50
88.20498708500336
 51
208.6832446317086
  0
ARC
  5
5B63
102
{ACAD_REACTORS
330
5BE4
102
}
330
2
100
AcDbEntity
  8
KIJUN
100
AcDbCircle
 10
112.9328244797769
 20
83.13775014862088
 30
0.0
 40
7.388556685255421
100
AcDbArc
 50
208.683244631709
 51
220.7397330670917
  0
ARC
  5
5B64
102
{ACAD_REACTORS
330
5BE4
102
}
330
2
100
AcDbEntity
  8
KIJUN
100
AcDbCircle
 10
97.96230632119065
 20
87.89821056877688
 30
0.0
 40
35.09044681164443
100
AcDbArc
 50
62.88668889114649
 51
66.06368803959694
  0
ARC
  5
5B65
102
{ACAD_REACTORS
330
5BE4
102
}
330
2
100
AcDbEntity
  8
KIJUN
100
AcDbCircle
 10
111.7935139676864
 20
119.0567769487802
 30
0.0
 40
0.9999999999999996
100
AcDbArc
 50
66.06368803959693
 51
196.9694514861203
  0
ENDSEC
  0
SECTION
  2
OBJECTS
  0
DICTIONARY
  5
1A
330
0
100
AcDbDictionary
281
     1
  3
ACAD_COLOR
350
144
  3
ACAD_GROUP
350
18
  3
ACAD_LAYOUT
350
58
  3
ACAD_MATERIAL
350
143
  3
ACAD_MLINESTYLE
350
19
  3
ACAD_PLOTSETTINGS
350
59
  3
ACAD_PLOTSTYLENAME
350
56
  3
ACAD_TABLESTYLE
350
145
  3
ACDBHEADERROUNDTRIPXREC
350
5BEC
  3
AcDbVariableDictionary
350
1D1
  0
DICTIONARY
  5
1B4
330
A
100
AcDbDictionary
280
     1
281
     1
  3
ACAD_LAYERFILTERS
360
1A2A
  3
ACLYDICTIONARY
360
1A29
  0
DICTIONARY
  5
D13
330
2
100
AcDbDictionary
280
     1
281
     1
  3
ACAD_SORTENTS
360
D14
  0
DICTIONARY
  5
144
102
{ACAD_REACTORS
330
1A
102
}
330
1A
100
AcDbDictionary
281
     1
  0
DICTIONARY
  5
18
102
{ACAD_REACTORS
330
1A
102
}
330
1A
100
AcDbDictionary
281
     1
  3
*A1
350
E0D
  3
*A10
350
2C6B
  3
*A11
350
2D78
  3
*A12
350
1A98
  3
*A13
350
22C8
  3
*A14
350
1EFE
  3
*A15
350
241A
  3
*A16
350
35A5
  3
*A17
350
401B
  3
*A18
350
265A
  3
*A19
350
26DD
  3
*A2
350
3988
  3
*A20
350
275E
  3
*A21
350
2905
  3
*A22
350
2EE1
  3
*A23
350
1CBC
  3
*A24
350
2F81
  3
*A25
350
31DF
  3
*A26
350
32E4
  3
*A27
350
3349
  3
*A28
350
24D6
  3
*A29
350
2037
  3
*A3
350
3A25
  3
*A30
350
3467
  3
*A31
350
422E
  3
*A32
350
4407
  3
*A33
350
4516
  3
*A34
350
307D
  3
*A35
350
FF8
  3
*A36
350
136A
  3
*A37
350
1555
  3
*A38
350
2A17
  3
*A39
350
17BC
  3
*A4
350
34BB
  3
*A40
350
45E5
  3
*A41
350
46A5
  3
*A42
350
4781
  3
*A43
350
48BA
  3
*A44
350
4A53
  3
*A45
350
3695
  3
*A46
350
4B49
  3
*A47
350
4C3E
  3
*A48
350
4CEC
  3
*A49
350
4D76
  3
*A5
350
3C81
  3
*A50
350
4E16
  3
*A51
350
4EE5
  3
*A52
350
4F64
  3
*A53
350
5011
  3
*A54
350
519C
  3
*A55
350
52B0
  3
*A56
350
36C9
  3
*A57
350
5396
  3
*A58
350
5464
  3
*A59
350
556A
  3
*A6
350
213E
  3
*A60
350
57BF
  3
*A61
350
58EE
  3
*A62
350
59A8
  3
*A63
350
382B
  3
*A64
350
2573
  3
*A65
350
3878
  3
*A66
350
5BE4
  3
*A7
350
3E5C
  3
*A8
350
3181
  3
*A9
350
2B84
  0
DICTIONARY
  5
58
102
{ACAD_REACTORS
330
1A
102
}
330
1A
100
AcDbDictionary
281
     1
  3
Model
350
5A
  3
ﾚｲｱｳﾄ1
350
5B
  0
DICTIONARY
  5
143
102
{ACAD_REACTORS
330
1A
102
}
330
1A
100
AcDbDictionary
281
     1
  0
DICTIONARY
  5
19
102
{ACAD_REACTORS
330
1A
102
}
330
1A
100
AcDbDictionary
281
     1
  3
STANDARD
350
1D
  0
DICTIONARY
  5
59
102
{ACAD_REACTORS
330
1A
102
}
330
1A
100
AcDbDictionary
281
     1
  0
ACDBDICTIONARYWDFLT
  5
56
102
{ACAD_REACTORS
330
1A
102
}
330
1A
100
AcDbDictionary
281
     1
  3
Normal
350
57
100
AcDbDictionaryWithDefault
340
57
  0
DICTIONARY
  5
145
102
{ACAD_REACTORS
330
1A
102
}
330
1A
100
AcDbDictionary
281
     1
  3
Standard
350
146
  0
DICTIONARY
  5
5BEC
102
{ACAD_REACTORS
330
1A
102
}
330
1A
100
AcDbDictionary
281
     1
  0
DICTIONARY
  5
1D1
102
{ACAD_REACTORS
330
1A
102
}
330
1A
100
AcDbDictionary
281
     1
  3
CTABLESTYLE
350
1D2
  3
DIMASSOC
350
D03
  3
PROJECTNAME
350
D04
  0
DICTIONARY
  5
1A2A
102
{ACAD_REACTORS
330
1B4
102
}
330
1B4
100
AcDbDictionary
281
     1
  0
DICTIONARY
  5
1A29
102
{ACAD_REACTORS
330
1B4
102
}
330
1B4
100
AcDbDictionary
281
     1
1001
ACAD
1000
<All
  0
SORTENTSTABLE
  5
D14
102
{ACAD_REACTORS
330
D13
102
}
330
D13
100
AcDbSortentsTable
330
2
331
5B37
  5
5B3B
331
5B10
  5
5B16
331
5AF1
  5
5AF5
331
5ACA
  5
5ACE
331
5B36
  5
5B3A
331
5B0F
  5
5B15
331
5AF0
  5
5AF4
331
5AC9
  5
5ACD
331
23
  5
23
331
5B35
  5
5B39
331
5B0E
  5
5B14
331
5AEF
  5
5AF3
331
5AC8
  5
5ACC
331
5B34
  5
5B38
331
5B0D
  5
5B12
331
5AC7
  5
5ACB
331
21
  5
21
331
5B33
  5
5B37
331
5AED
  5
5AF2
331
5AC6
  5
5ACA
331
20
  5
20
331
5B32
  5
5B36
331
5AEC
  5
5AF1
331
5B31
  5
5B35
331
5B0A
  5
5B13
331
5AEB
  5
5AF0
331
5B57
  5
5B5B
331
5B30
  5
5B34
331
5AEA
  5
5AEF
331
5B56
  5
5B5A
331
5B2F
  5
5B33
331
5B08
  5
5B11
331
5AE9
  5
5AED
331
5B55
  5
5B59
331
5B2E
  5
5B32
331
5B07
  5
5B10
331
5AE8
  5
5AEC
331
5B54
  5
5B58
331
5B2D
  5
5B31
331
5B06
  5
5B0F
331
5AE7
  5
5AEA
331
5B53
  5
5B57
331
5B2C
  5
5B30
331
5B52
  5
5B56
331
5B2B
  5
5B2F
331
5B51
  5
5B55
331
5B2A
  5
5B2E
331
5B03
  5
5B0B
331
5AE4
  5
5AEB
331
5B50
  5
5B54
331
5B29
  5
5B2D
331
5B02
  5
5B0A
331
5AE3
  5
5AE9
331
5B4F
  5
5B53
331
5B28
  5
5B2C
331
5B01
  5
5B06
331
5AE2
  5
5AE8
331
5B4E
  5
5B52
331
5B27
  5
5B2B
331
5AE1
  5
5AE2
331
5B4D
  5
5B51
331
5B26
  5
5B2A
331
5AFF
  5
5B08
331
5AE0
  5
5AE3
331
5B4C
  5
5B50
331
5B25
  5
5B29
331
5AFE
  5
5B02
331
5B4B
  5
5B4F
331
5B24
  5
5B28
331
5AFD
  5
5AFF
331
5B4A
  5
5B4E
331
5B23
  5
5B27
331
5B49
  5
5B4D
331
5B22
  5
5B26
331
5B48
  5
5B4C
331
5B21
  5
5B25
331
5AFA
  5
5B04
331
5B47
  5
5B4B
331
5AF9
  5
5B01
331
5B46
  5
5B4A
331
5B1F
  5
5B24
331
5AF8
  5
5AFD
331
5B45
  5
5B49
331
5B1E
  5
5B0E
331
5A26
  5
5A26
331
5B44
  5
5B48
331
5A25
  5
5A25
331
5B43
  5
5B47
331
5B1C
  5
5B23
331
5A24
  5
5A24
331
5B42
  5
5B46
331
5B1B
  5
5B21
331
5A23
  5
5A23
331
5B41
  5
5B45
331
5B40
  5
5B44
331
5B3F
  5
5B43
331
5B18
  5
5B22
331
5A47
  5
5A48
331
5B65
  5
5B69
331
5B3E
  5
5B42
331
5A46
  5
5A47
331
5B64
  5
5B68
331
5B3D
  5
5B41
331
5A45
  5
5A46
331
5B63
  5
5B67
331
5B3C
  5
5B40
331
5A44
  5
5A45
331
5B62
  5
5B66
331
5B3B
  5
5B3F
331
5A43
  5
5A44
331
5B61
  5
5B65
331
5B3A
  5
5B3E
331
5A42
  5
5A43
331
5B60
  5
5B64
331
5B39
  5
5B3D
331
5A41
  5
5A42
331
5B5F
  5
5B63
331
5B38
  5
5B3C
331
5A67
  5
5A69
331
5A40
  5
5A41
331
5B5E
  5
5B62
331
5A66
  5
5A68
331
5A3F
  5
5A40
331
5B5D
  5
5B61
331
5A65
  5
5A67
331
5A3E
  5
5A3F
331
5B5C
  5
5B60
331
5A64
  5
5A66
331
5B5B
  5
5B5F
331
5A63
  5
5A65
331
5A3C
  5
5A3C
331
5B5A
  5
5B5E
331
5A62
  5
5A64
331
5B59
  5
5B5D
331
5A61
  5
5A63
331
5A3A
  5
5A3A
331
5B58
  5
5B5C
331
5A60
  5
5A62
331
5A39
  5
5A39
331
5A5F
  5
5A61
331
5A38
  5
5A38
331
5A5E
  5
5A60
331
5A37
  5
5A37
331
1F
  5
1F
331
5A5D
  5
5A5F
331
5A36
  5
5A36
331
5A5C
  5
5A5E
331
5A35
  5
5A35
331
5A5B
  5
5A5D
331
5A34
  5
5A34
331
5A33
  5
5A33
331
5A59
  5
5A5B
331
5A32
  5
5A32
331
5A7F
  5
5A9D
331
5A58
  5
5A59
331
5A31
  5
5A31
331
5A7E
  5
5A83
331
5A57
  5
5A58
331
5A30
  5
5A30
331
5A7D
  5
5A82
331
5A56
  5
5A57
331
5A2F
  5
5A2F
331
5A7C
  5
5A7F
331
5A55
  5
5A56
331
5A2E
  5
5A2E
331
5A7B
  5
5A7E
331
5A54
  5
5A55
331
5A7A
  5
5A7D
331
5A53
  5
5A54
331
5A2C
  5
5A2C
331
5A79
  5
5A7C
331
5A52
  5
5A53
331
5A2B
  5
5A2B
331
5A78
  5
5A7B
331
5A51
  5
5A52
331
5A2A
  5
5A2A
331
5ADE
  5
5AE7
331
5A90
  5
5AC9
331
5A77
  5
5A7A
331
5A50
  5
5A51
331
5A29
  5
5A29
331
5ADD
  5
5AE4
331
5A4F
  5
5A50
331
5A28
  5
5A28
331
5ADC
  5
5AE1
331
5A75
  5
5A79
331
5A4E
  5
5A4F
331
5ADB
  5
5AE0
331
5A74
  5
5A78
331
5ADA
  5
5ADF
331
5A73
  5
5A77
331
5AD9
  5
5ADE
331
5A72
  5
5A75
331
5A4B
  5
5A4E
331
5AD8
  5
5ADD
331
5A71
  5
5A74
331
5A4A
  5
5A4B
331
5A70
  5
5A73
331
5A49
  5
5A4A
331
5AD6
  5
5ADB
331
5A48
  5
5A49
331
5AD5
  5
5ADA
331
5A6E
  5
5A72
331
5AD4
  5
5AD9
331
5AD3
  5
5AD8
331
5A6C
  5
5A71
331
5AD2
  5
5AD6
331
5A6B
  5
5A6E
331
5A83
  5
5AC8
331
5A6A
  5
5A6C
331
5B16
  5
5B1E
331
5AD0
  5
5AD5
331
5A82
  5
5A9E
331
5A69
  5
5A6B
331
5B15
  5
5B1F
331
5AF6
  5
5AFE
331
5ACF
  5
5AD4
331
5A68
  5
5A6A
331
5B14
  5
5B1C
331
5AF5
  5
5AFB
331
5ACE
  5
5AD3
331
5B13
  5
5B1D
331
5AF4
  5
5AF9
331
5ACD
  5
5AD2
331
5B12
  5
5B1B
331
5AF3
  5
5AF8
331
5ACC
  5
5AD0
331
5B11
  5
5B18
331
5AF2
  5
5AF6
331
5ACB
  5
5ACF
  0
GROUP
  5
E0D
102
{ACAD_REACTORS
330
18
102
}
330
18
100
AcDbGroup
300

 70
     1
 71
     1
  0
GROUP
  5
2C6B
102
{ACAD_REACTORS
330
18
102
}
330
18
100
AcDbGroup
300

 70
     1
 71
     1
  0
GROUP
  5
2D78
102
{ACAD_REACTORS
330
18
102
}
330
18
100
AcDbGroup
300

 70
     1
 71
     1
  0
GROUP
  5
1A98
102
{ACAD_REACTORS
330
18
102
}
330
18
100
AcDbGroup
300

 70
     1
 71
     1
  0
GROUP
  5
22C8
102
{ACAD_REACTORS
330
18
102
}
330
18
100
AcDbGroup
300

 70
     1
 71
     1
  0
GROUP
  5
1EFE
102
{ACAD_REACTORS
330
18
102
}
330
18
100
AcDbGroup
300

 70
     1
 71
     1
  0
GROUP
  5
241A
102
{ACAD_REACTORS
330
18
102
}
330
18
100
AcDbGroup
300

 70
     1
 71
     1
  0
GROUP
  5
35A5
102
{ACAD_REACTORS
330
18
102
}
330
18
100
AcDbGroup
300

 70
     1
 71
     1
  0
GROUP
  5
401B
102
{ACAD_REACTORS
330
18
102
}
330
18
100
AcDbGroup
300

 70
     1
 71
     1
  0
GROUP
  5
265A
102
{ACAD_REACTORS
330
18
102
}
330
18
100
AcDbGroup
300

 70
     1
 71
     1
  0
GROUP
  5
26DD
102
{ACAD_REACTORS
330
18
102
}
330
18
100
AcDbGroup
300

 70
     1
 71
     1
  0
GROUP
  5
3988
102
{ACAD_REACTORS
330
18
102
}
330
18
100
AcDbGroup
300

 70
     1
 71
     1
  0
GROUP
  5
275E
102
{ACAD_REACTORS
330
18
102
}
330
18
100
AcDbGroup
300

 70
     1
 71
     1
  0
GROUP
  5
2905
102
{ACAD_REACTORS
330
18
102
}
330
18
100
AcDbGroup
300

 70
     1
 71
     1
  0
GROUP
  5
2EE1
102
{ACAD_REACTORS
330
18
102
}
330
18
100
AcDbGroup
300

 70
     1
 71
     1
  0
GROUP
  5
1CBC
102
{ACAD_REACTORS
330
18
102
}
330
18
100
AcDbGroup
300

 70
     1
 71
     1
  0
GROUP
  5
2F81
102
{ACAD_REACTORS
330
18
102
}
330
18
100
AcDbGroup
300

 70
     1
 71
     1
  0
GROUP
  5
31DF
102
{ACAD_REACTORS
330
18
102
}
330
18
100
AcDbGroup
300

 70
     1
 71
     1
  0
GROUP
  5
32E4
102
{ACAD_REACTORS
330
18
102
}
330
18
100
AcDbGroup
300

 70
     1
 71
     1
  0
GROUP
  5
3349
102
{ACAD_REACTORS
330
18
102
}
330
18
100
AcDbGroup
300

 70
     1
 71
     1
  0
GROUP
  5
24D6
102
{ACAD_REACTORS
330
18
102
}
330
18
100
AcDbGroup
300

 70
     1
 71
     1
  0
GROUP
  5
2037
102
{ACAD_REACTORS
330
18
102
}
330
18
100
AcDbGroup
300

 70
     1
 71
     1
  0
GROUP
  5
3A25
102
{ACAD_REACTORS
330
18
102
}
330
18
100
AcDbGroup
300

 70
     1
 71
     1
  0
GROUP
  5
3467
102
{ACAD_REACTORS
330
18
102
}
330
18
100
AcDbGroup
300

 70
     1
 71
     1
  0
GROUP
  5
422E
102
{ACAD_REACTORS
330
18
102
}
330
18
100
AcDbGroup
300

 70
     1
 71
     1
  0
GROUP
  5
4407
102
{ACAD_REACTORS
330
18
102
}
330
18
100
AcDbGroup
300

 70
     1
 71
     1
  0
GROUP
  5
4516
102
{ACAD_REACTORS
330
18
102
}
330
18
100
AcDbGroup
300

 70
     1
 71
     1
  0
GROUP
  5
307D
102
{ACAD_REACTORS
330
18
102
}
330
18
100
AcDbGroup
300

 70
     1
 71
     1
  0
GROUP
  5
FF8
102
{ACAD_REACTORS
330
18
102
}
330
18
100
AcDbGroup
300

 70
     1
 71
     1
  0
GROUP
  5
136A
102
{ACAD_REACTORS
330
18
102
}
330
18
100
AcDbGroup
300

 70
     1
 71
     1
  0
GROUP
  5
1555
102
{ACAD_REACTORS
330
18
102
}
330
18
100
AcDbGroup
300

 70
     1
 71
     1
  0
GROUP
  5
2A17
102
{ACAD_REACTORS
330
18
102
}
330
18
100
AcDbGroup
300

 70
     1
 71
     1
  0
GROUP
  5
17BC
102
{ACAD_REACTORS
330
18
102
}
330
18
100
AcDbGroup
300

 70
     1
 71
     1
  0
GROUP
  5
34BB
102
{ACAD_REACTORS
330
18
102
}
330
18
100
AcDbGroup
300

 70
     1
 71
     1
  0
GROUP
  5
45E5
102
{ACAD_REACTORS
330
18
102
}
330
18
100
AcDbGroup
300

 70
     1
 71
     1
  0
GROUP
  5
46A5
102
{ACAD_REACTORS
330
18
102
}
330
18
100
AcDbGroup
300

 70
     1
 71
     1
  0
GROUP
  5
4781
102
{ACAD_REACTORS
330
18
102
}
330
18
100
AcDbGroup
300

 70
     1
 71
     1
  0
GROUP
  5
48BA
102
{ACAD_REACTORS
330
18
102
}
330
18
100
AcDbGroup
300

 70
     1
 71
     1
  0
GROUP
  5
4A53
102
{ACAD_REACTORS
330
18
102
}
330
18
100
AcDbGroup
300

 70
     1
 71
     1
  0
GROUP
  5
3695
102
{ACAD_REACTORS
330
18
102
}
330
18
100
AcDbGroup
300

 70
     1
 71
     1
  0
GROUP
  5
4B49
102
{ACAD_REACTORS
330
18
102
}
330
18
100
AcDbGroup
300

 70
     1
 71
     1
  0
GROUP
  5
4C3E
102
{ACAD_REACTORS
330
18
102
}
330
18
100
AcDbGroup
300

 70
     1
 71
     1
  0
GROUP
  5
4CEC
102
{ACAD_REACTORS
330
18
102
}
330
18
100
AcDbGroup
300

 70
     1
 71
     1
  0
GROUP
  5
4D76
102
{ACAD_REACTORS
330
18
102
}
330
18
100
AcDbGroup
300

 70
     1
 71
     1
  0
GROUP
  5
3C81
102
{ACAD_REACTORS
330
18
102
}
330
18
100
AcDbGroup
300

 70
     1
 71
     1
  0
GROUP
  5
4E16
102
{ACAD_REACTORS
330
18
102
}
330
18
100
AcDbGroup
300

 70
     1
 71
     1
  0
GROUP
  5
4EE5
102
{ACAD_REACTORS
330
18
102
}
330
18
100
AcDbGroup
300

 70
     1
 71
     1
  0
GROUP
  5
4F64
102
{ACAD_REACTORS
330
18
102
}
330
18
100
AcDbGroup
300

 70
     1
 71
     1
  0
GROUP
  5
5011
102
{ACAD_REACTORS
330
18
102
}
330
18
100
AcDbGroup
300

 70
     1
 71
     1
  0
GROUP
  5
519C
102
{ACAD_REACTORS
330
18
102
}
330
18
100
AcDbGroup
300

 70
     1
 71
     1
  0
GROUP
  5
52B0
102
{ACAD_REACTORS
330
18
102
}
330
18
100
AcDbGroup
300

 70
     1
 71
     1
  0
GROUP
  5
36C9
102
{ACAD_REACTORS
330
18
102
}
330
18
100
AcDbGroup
300

 70
     1
 71
     1
  0
GROUP
  5
5396
102
{ACAD_REACTORS
330
18
102
}
330
18
100
AcDbGroup
300

 70
     1
 71
     1
  0
GROUP
  5
5464
102
{ACAD_REACTORS
330
18
102
}
330
18
100
AcDbGroup
300

 70
     1
 71
     1
  0
GROUP
  5
556A
102
{ACAD_REACTORS
330
18
102
}
330
18
100
AcDbGroup
300

 70
     1
 71
     1
  0
GROUP
  5
213E
102
{ACAD_REACTORS
330
18
102
}
330
18
100
AcDbGroup
300

 70
     1
 71
     1
  0
GROUP
  5
57BF
102
{ACAD_REACTORS
330
18
102
}
330
18
100
AcDbGroup
300

 70
     1
 71
     1
  0
GROUP
  5
58EE
102
{ACAD_REACTORS
330
18
102
}
330
18
100
AcDbGroup
300

 70
     1
 71
     1
  0
GROUP
  5
59A8
102
{ACAD_REACTORS
330
18
102
}
330
18
100
AcDbGroup
300

 70
     1
 71
     1
  0
GROUP
  5
382B
102
{ACAD_REACTORS
330
18
102
}
330
18
100
AcDbGroup
300

 70
     1
 71
     1
  0
GROUP
  5
2573
102
{ACAD_REACTORS
330
18
102
}
330
18
100
AcDbGroup
300

 70
     1
 71
     1
  0
GROUP
  5
3878
102
{ACAD_REACTORS
330
18
102
}
330
18
100
AcDbGroup
300

 70
     1
 71
     1
  0
GROUP
  5
5BE4
102
{ACAD_REACTORS
330
18
102
}
330
18
100
AcDbGroup
300

 70
     1
 71
     1
340
5B65
340
5B64
340
5B63
340
5B62
340
5B61
340
5B60
340
5B5F
340
5B5E
340
5B5D
340
5B5C
340
5B5B
340
5B5A
340
5B59
340
5B58
340
5B57
340
5B56
340
5B55
340
5B54
340
5B53
340
5B52
340
5B51
340
5B50
340
5B4F
340
5B4E
340
5B4D
340
5B4C
340
5B4B
340
5B4A
340
5B49
340
5B48
340
5B47
340
5B46
340
5B45
340
5B44
340
5B43
340
5B42
340
5B41
340
5B40
340
5B3F
340
5B3E
340
5B3D
340
5B3C
340
5B3B
340
5B3A
340
5B39
340
5B38
340
5B37
340
5B36
340
5B35
340
5B34
340
5B33
340
5B32
340
5B31
340
5B30
340
5B2F
340
5B2E
340
5B2D
340
5B2C
340
5B2B
340
5B2A
340
5B29
340
5B28
340
5B27
340
5B26
340
5B25
340
5B24
340
5B23
340
5B22
340
5B21
340
5B1F
340
5B1C
340
5B18
340
5B1B
340
5B15
340
5B16
340
5B13
340
5B14
340
5B12
340
5B11
340
5B10
340
5B0F
340
5B0E
340
5B0A
340
5B0D
340
5B08
340
5B07
340
5B06
340
5B1E
340
5B03
340
5B02
340
5AFF
340
5B01
340
5AFA
340
5AFE
340
5AF9
340
5AFD
340
5AF6
340
5AF8
340
5AF5
340
5AF4
340
5AF3
340
5AF2
340
5AF1
340
5AF0
340
5AEF
340
5AED
340
5AEC
340
5AEB
340
5AEA
340
5AE9
340
5AE8
340
5AE4
340
5AE7
340
5AE3
340
5AE2
340
5ADE
340
5ADD
340
5AE0
340
5AE1
340
5ADC
340
5ADB
340
5ADA
340
5AD9
340
5AD8
340
5AD6
340
5AD5
340
5AD4
340
5AD3
340
5AD2
340
5AD0
340
5ACF
340
5ACE
340
5ACD
340
5ACC
340
5ACB
340
5ACA
340
5AC9
340
5AC8
340
5AC7
340
5AC6
340
5A82
340
5A7F
340
5A7E
340
5A7D
340
5A7C
340
5A7B
340
5A7A
340
5A79
340
5A78
340
5A77
340
5A75
340
5A74
340
5A73
340
5A72
340
5A71
340
5A70
340
5A6E
340
5A6C
340
5A6B
340
5A6A
340
5A69
340
5A68
340
5A67
340
5A66
340
5A65
340
5A64
340
5A63
340
5A62
340
5A61
340
5A60
340
5A5F
340
5A5E
340
5A5D
340
5A5C
340
5A5B
340
5A59
340
5A58
340
5A57
340
5A56
340
5A55
340
5A54
340
5A53
340
5A52
340
5A51
340
5A50
340
5A4F
340
5A4E
340
5A4B
340
5A4A
340
5A49
340
5A48
340
5A47
340
5A46
340
5A45
340
5A44
340
5A43
340
5A42
340
5A41
340
5A40
340
5A3F
340
5A3E
340
5A3C
340
5A3A
340
5A39
340
5A38
340
5A37
340
5A36
340
5A35
340
5A34
340
5A33
340
5A32
340
5A31
340
5A30
340
5A2F
340
5A2E
340
5A2C
340
5A2B
340
5A2A
340
5A29
340
5A28
340
5A26
340
5A25
340
5A24
340
5A23
  0
GROUP
  5
3E5C
102
{ACAD_REACTORS
330
18
102
}
330
18
100
AcDbGroup
300

 70
     1
 71
     1
  0
GROUP
  5
3181
102
{ACAD_REACTORS
330
18
102
}
330
18
100
AcDbGroup
300

 70
     1
 71
     1
  0
GROUP
  5
2B84
102
{ACAD_REACTORS
330
18
102
}
330
18
100
AcDbGroup
300

 70
     1
 71
     1
  0
LAYOUT
  5
5A
102
{ACAD_XDICTIONARY
360
5BED
102
}
102
{ACAD_REACTORS
330
58
102
}
330
58
100
AcDbPlotSettings
  1

  2
なし
  4

  6

 40
0.0
 41
0.0
 42
0.0
 43
0.0
 44
0.0
 45
0.0
 46
0.0
 47
0.0
 48
0.0
 49
0.0
140
0.0
141
0.0
142
1.0
143
1.0
 70
  1712
 72
     0
 73
     0
 74
     0
  7
monochrome.ctb
 75
     0
147
1.0
148
0.0
149
0.0
100
AcDbLayout
  1
Model
 70
     1
 71
     0
 10
0.0
 20
0.0
 11
12.0
 21
9.0
 12
0.0
 22
0.0
 32
0.0
 14
0.0
 24
0.0
 34
0.0
 15
0.0
 25
0.0
 35
0.0
146
0.0
 13
0.0
 23
0.0
 33
0.0
 16
1.0
 26
0.0
 36
0.0
 17
0.0
 27
1.0
 37
0.0
 76
     0
330
2
  0
LAYOUT
  5
5B
102
{ACAD_XDICTIONARY
360
5BEF
102
}
102
{ACAD_REACTORS
330
58
102
}
330
58
100
AcDbPlotSettings
  1

  2
なし
  4

  6

 40
0.0
 41
0.0
 42
0.0
 43
0.0
 44
0.0
 45
0.0
 46
0.0
 47
0.0
 48
0.0
 49
0.0
140
0.0
141
0.0
142
1.0
143
1.0
 70
   688
 72
     0
 73
     0
 74
     5
  7
monochrome.ctb
 75
    16
147
1.0
148
0.0
149
0.0
100
AcDbLayout
  1
ﾚｲｱｳﾄ1
 70
     1
 71
     1
 10
0.0
 20
0.0
 11
12.0
 21
9.0
 12
0.0
 22
0.0
 32
0.0
 14
1.000000000000000E+20
 24
1.000000000000000E+20
 34
1.000000000000000E+20
 15
-1.000000000000000E+20
 25
-1.000000000000000E+20
 35
-1.000000000000000E+20
146
0.0
 13
0.0
 23
0.0
 33
0.0
 16
1.0
 26
0.0
 36
0.0
 17
0.0
 27
1.0
 37
0.0
 76
     0
330
7
  0
MLINESTYLE
  5
1D
102
{ACAD_REACTORS
330
19
102
}
330
19
100
AcDbMlineStyle
  2
STANDARD
 70
     0
  3

 62
   256
 51
90.0
 52
90.0
 71
     2
 49
0.5
 62
   256
  6
BYLAYER
 49
-0.5
 62
   256
  6
BYLAYER
  0
ACDBPLACEHOLDER
  5
57
102
{ACAD_REACTORS
330
56
102
}
330
56
  0
TABLESTYLE
  5
146
102
{ACAD_REACTORS
330
145
102
}
330
145
100
AcDbTableStyle
  3
Standard
 70
     0
 71
     0
 40
0.06
 41
0.06
280
     0
281
     0
  7
STANDARD
140
0.18
170
     2
 62
     0
 63
     7
283
     0
274
    -2
284
     1
 64
     0
275
    -2
285
     1
 65
     0
276
    -2
286
     1
 66
     0
277
    -2
287
     1
 67
     0
278
    -2
288
     1
 68
     0
279
    -2
289
     1
 69
     0
  7
STANDARD
140
0.25
170
     5
 62
     0
 63
     7
283
     0
274
    -2
284
     1
 64
     0
275
    -2
285
     1
 65
     0
276
    -2
286
     1
 66
     0
277
    -2
287
     1
 67
     0
278
    -2
288
     1
 68
     0
279
    -2
289
     1
 69
     0
  7
STANDARD
140
0.18
170
     5
 62
     0
 63
     7
283
     0
274
    -2
284
     1
 64
     0
275
    -2
285
     1
 65
     0
276
    -2
286
     1
 66
     0
277
    -2
287
     1
 67
     0
278
    -2
288
     1
 68
     0
279
    -2
289
     1
 69
     0
  0
DICTIONARYVAR
  5
1D2
102
{ACAD_REACTORS
330
1D1
102
}
330
1D1
100
DictionaryVariables
280
     0
  1
STANDARD
  0
DICTIONARYVAR
  5
D03
102
{ACAD_REACTORS
330
1D1
102
}
330
1D1
100
DictionaryVariables
280
     0
  1
1
  0
DICTIONARYVAR
  5
D04
102
{ACAD_REACTORS
330
1D1
102
}
330
1D1
100
DictionaryVariables
280
     0
  1

  0
DICTIONARY
  5
5BED
330
5A
100
AcDbDictionary
280
     1
281
     1
  3
ACAD_XREC_ROUNDTRIP
360
5BEE
  0
DICTIONARY
  5
5BEF
330
5B
100
AcDbDictionary
280
     1
281
     1
  3
ACAD_XREC_ROUNDTRIP
360
5BF0
  0
XRECORD
  5
5BEE
102
{ACAD_REACTORS
330
5BED
102
}
330
5BED
100
AcDbXrecord
280
     1
102
SHADEPLOT
 70
     0
102
SHADEPLOTRESLEVEL
 70
     2
102
SHADEPLOTCUSTOMDPI
 70
   300
  0
XRECORD
  5
5BF0
102
{ACAD_REACTORS
330
5BEF
102
}
330
5BEF
100
AcDbXrecord
280
     1
102
SHADEPLOT
 70
     0
102
SHADEPLOTRESLEVEL
 70
     2
102
SHADEPLOTCUSTOMDPI
 70
   300
  0
ENDSEC
  0
EOF
