  0
SECTION
  2
HEADER
  9
$ACADVER
  1
AC1015
  9
$ACADMAINTVER
 70
    20
  9
$DWGCODEPAGE
  3
ANSI_932
  9
$INSBASE
 10
922.019522
 20
-675.4306699999999
 30
0.0
  9
$EXTMIN
 10
-0.0018698798680816
 20
-0.0102356128587644
 30
-0.000000000000013
  9
$EXTMAX
 10
148.6873138481887
 20
197.1264678510902
 30
0.0000000000000023
  9
$LIMMIN
 10
0.0
 20
0.0
  9
$LIMMAX
 10
420.0
 20
297.0
  9
$ORTHOMODE
 70
     0
  9
$REGENMODE
 70
     1
  9
$FILLMODE
 70
     1
  9
$QTEXTMODE
 70
     0
  9
$MIRRTEXT
 70
     1
  9
$LTSCALE
 40
1.0
  9
$ATTMODE
 70
     1
  9
$TEXTSIZE
 40
30.0
  9
$TRACEWID
 40
0.05
  9
$TEXTSTYLE
  7
SUNPOU
  9
$CLAYER
  8
0
  9
$CELTYPE
  6
BYLAYER
  9
$CECOLOR
 62
   256
  9
$CELTSCALE
 40
1.0
  9
$DISPSILH
 70
     0
  9
$DIMSCALE
 40
1.0
  9
$DIMASZ
 40
2.0
  9
$DIMEXO
 40
10.0
  9
$DIMDLI
 40
0.38
  9
$DIMRND
 40
0.0
  9
$DIMDLE
 40
0.0
  9
$DIMEXE
 40
0.0
  9
$DIMTP
 40
0.0
  9
$DIMTM
 40
0.0
  9
$DIMTXT
 40
5.0
  9
$DIMCEN
 40
0.0
  9
$DIMTSZ
 40
0.0
  9
$DIMTOL
 70
     0
  9
$DIMLIM
 70
     0
  9
$DIMTIH
 70
     0
  9
$DIMTOH
 70
     0
  9
$DIMSE1
 70
     0
  9
$DIMSE2
 70
     0
  9
$DIMTAD
 70
     1
  9
$DIMZIN
 70
     0
  9
$DIMBLK
  1
Dot
  9
$DIMASO
 70
     1
  9
$DIMSHO
 70
     1
  9
$DIMPOST
  1

  9
$DIMAPOST
  1

  9
$DIMALT
 70
     0
  9
$DIMALTD
 70
     2
  9
$DIMALTF
 40
25.4
  9
$DIMLFAC
 40
1.0
  9
$DIMTOFL
 70
     0
  9
$DIMTVP
 40
0.0
  9
$DIMTIX
 70
     0
  9
$DIMSOXD
 70
     0
  9
$DIMSAH
 70
     0
  9
$DIMBLK1
  1

  9
$DIMBLK2
  1

  9
$DIMSTYLE
  2
STANDARD
  9
$DIMCLRD
 70
    60
  9
$DIMCLRE
 70
    70
  9
$DIMCLRT
 70
    60
  9
$DIMTFAC
 40
0.064286
  9
$DIMGAP
 40
3.0
  9
$DIMJUST
 70
     0
  9
$DIMSD1
 70
     0
  9
$DIMSD2
 70
     0
  9
$DIMTOLJ
 70
     1
  9
$DIMTZIN
 70
     0
  9
$DIMALTZ
 70
     0
  9
$DIMALTTZ
 70
     0
  9
$DIMUPT
 70
     0
  9
$DIMDEC
 70
     0
  9
$DIMTDEC
 70
     0
  9
$DIMALTU
 70
     2
  9
$DIMALTTD
 70
     2
  9
$DIMTXSTY
  7
SUNPOU
  9
$DIMAUNIT
 70
     0
  9
$DIMADEC
 70
     0
  9
$DIMALTRND
 40
0.0
  9
$DIMAZIN
 70
     0
  9
$DIMDSEP
 70
    46
  9
$DIMATFIT
 70
     3
  9
$DIMFRAC
 70
     0
  9
$DIMLDRBLK
  1

  9
$DIMLUNIT
 70
     2
  9
$DIMLWD
 70
    -2
  9
$DIMLWE
 70
    -2
  9
$DIMTMOVE
 70
     0
  9
$LUNITS
 70
     2
  9
$LUPREC
 70
     5
  9
$SKETCHINC
 40
0.1
  9
$FILLETRAD
 40
0.0
  9
$AUNITS
 70
     0
  9
$AUPREC
 70
     0
  9
$MENU
  1
acad
  9
$ELEVATION
 40
0.0
  9
$PELEVATION
 40
0.0
  9
$THICKNESS
 40
0.0
  9
$LIMCHECK
 70
     0
  9
$CHAMFERA
 40
0.0
  9
$CHAMFERB
 40
0.0
  9
$CHAMFERC
 40
0.0
  9
$CHAMFERD
 40
0.0
  9
$SKPOLY
 70
     0
  9
$TDCREATE
 40
2450623.654673033
  9
$TDUCREATE
 40
2450623.279673032
  9
$TDUPDATE
 40
2453930.549662997
  9
$TDUUPDATE
 40
2453930.174662998
  9
$TDINDWG
 40
1.1799515394
  9
$TDUSRTIMER
 40
1.1799513657
  9
$USRTIMER
 70
     1
  9
$ANGBASE
 50
0.0
  9
$ANGDIR
 70
     0
  9
$PDMODE
 70
     0
  9
$PDSIZE
 40
0.0
  9
$PLINEWID
 40
0.0
  9
$SPLFRAME
 70
     0
  9
$SPLINETYPE
 70
     6
  9
$SPLINESEGS
 70
     8
  9
$HANDSEED
  5
4829
  9
$SURFTAB1
 70
     6
  9
$SURFTAB2
 70
     6
  9
$SURFTYPE
 70
     6
  9
$SURFU
 70
     6
  9
$SURFV
 70
     6
  9
$UCSBASE
  2

  9
$UCSNAME
  2

  9
$UCSORG
 10
0.0
 20
0.0
 30
0.0
  9
$UCSXDIR
 10
1.0
 20
0.0
 30
0.0
  9
$UCSYDIR
 10
0.0
 20
1.0
 30
0.0
  9
$UCSORTHOREF
  2

  9
$UCSORTHOVIEW
 70
     0
  9
$UCSORGTOP
 10
0.0
 20
0.0
 30
0.0
  9
$UCSORGBOTTOM
 10
0.0
 20
0.0
 30
0.0
  9
$UCSORGLEFT
 10
0.0
 20
0.0
 30
0.0
  9
$UCSORGRIGHT
 10
0.0
 20
0.0
 30
0.0
  9
$UCSORGFRONT
 10
0.0
 20
0.0
 30
0.0
  9
$UCSORGBACK
 10
0.0
 20
0.0
 30
0.0
  9
$PUCSBASE
  2

  9
$PUCSNAME
  2

  9
$PUCSORG
 10
0.0
 20
0.0
 30
0.0
  9
$PUCSXDIR
 10
1.0
 20
0.0
 30
0.0
  9
$PUCSYDIR
 10
0.0
 20
1.0
 30
0.0
  9
$PUCSORTHOREF
  2

  9
$PUCSORTHOVIEW
 70
     0
  9
$PUCSORGTOP
 10
0.0
 20
0.0
 30
0.0
  9
$PUCSORGBOTTOM
 10
0.0
 20
0.0
 30
0.0
  9
$PUCSORGLEFT
 10
0.0
 20
0.0
 30
0.0
  9
$PUCSORGRIGHT
 10
0.0
 20
0.0
 30
0.0
  9
$PUCSORGFRONT
 10
0.0
 20
0.0
 30
0.0
  9
$PUCSORGBACK
 10
0.0
 20
0.0
 30
0.0
  9
$USERI1
 70
     0
  9
$USERI2
 70
     0
  9
$USERI3
 70
     0
  9
$USERI4
 70
     0
  9
$USERI5
 70
     0
  9
$USERR1
 40
0.0
  9
$USERR2
 40
0.0
  9
$USERR3
 40
0.0
  9
$USERR4
 40
0.0
  9
$USERR5
 40
0.0
  9
$WORLDVIEW
 70
     1
  9
$SHADEDGE
 70
     3
  9
$SHADEDIF
 70
    70
  9
$TILEMODE
 70
     1
  9
$MAXACTVP
 70
    16
  9
$PINSBASE
 10
0.0
 20
0.0
 30
0.0
  9
$PLIMCHECK
 70
     0
  9
$PEXTMIN
 10
1.000000000000000E+20
 20
1.000000000000000E+20
 30
1.000000000000000E+20
  9
$PEXTMAX
 10
-1.000000000000000E+20
 20
-1.000000000000000E+20
 30
-1.000000000000000E+20
  9
$PLIMMIN
 10
0.0
 20
0.0
  9
$PLIMMAX
 10
12.0
 20
9.0
  9
$UNITMODE
 70
     0
  9
$VISRETAIN
 70
     0
  9
$PLINEGEN
 70
     0
  9
$PSLTSCALE
 70
     1
  9
$TREEDEPTH
 70
  3020
  9
$CMLSTYLE
  2
STANDARD
  9
$CMLJUST
 70
     0
  9
$CMLSCALE
 40
1.0
  9
$PROXYGRAPHICS
 70
     1
  9
$MEASUREMENT
 70
     0
  9
$CELWEIGHT
370
    -1
  9
$ENDCAPS
280
     0
  9
$JOINSTYLE
280
     0
  9
$LWDISPLAY
290
     0
  9
$INSUNITS
 70
     0
  9
$HYPERLINKBASE
  1

  9
$STYLESHEET
  1

  9
$XEDIT
290
     1
  9
$CEPSNTYPE
380
     0
  9
$PSTYLEMODE
290
     1
  9
$FINGERPRINTGUID
  2
{FB88A696-E29C-4009-92AF-A3599A8169D5}
  9
$VERSIONGUID
  2
{817A2BA8-043E-4000-8FEB-A0CF993AA766}
  9
$EXTNAMES
290
     1
  9
$PSVPSCALE
 40
0.0
  9
$OLESTARTUP
290
     0
  0
ENDSEC
  0
SECTION
  2
CLASSES
  0
CLASS
  1
DICTIONARYVAR
  2
AcDbDictionaryVar
  3
ObjectDBX Classes
 90
        0
280
     0
281
     0
  0
CLASS
  1
ACDBDICTIONARYWDFLT
  2
AcDbDictionaryWithDefault
  3
ObjectDBX Classes
 90
        0
280
     0
281
     0
  0
CLASS
  1
ACDBPLACEHOLDER
  2
AcDbPlaceHolder
  3
ObjectDBX Classes
 90
        0
280
     0
281
     0
  0
CLASS
  1
LAYOUT
  2
AcDbLayout
  3
ObjectDBX Classes
 90
        0
280
     0
281
     0
  0
CLASS
  1
TABLESTYLE
  2
AcDbTableStyle
  3
ObjectDBX Classes
 90
     2047
280
     0
281
     0
  0
CLASS
  1
SORTENTSTABLE
  2
AcDbSortentsTable
  3
ObjectDBX Classes
 90
        0
280
     0
281
     0
  0
CLASS
  1
ARC_DIMENSION
  2
AcDbArcDimension
  3
ObjectDBX Classes
 90
    33793
280
     0
281
     1
  0
ENDSEC
  0
SECTION
  2
TABLES
  0
TABLE
  2
VPORT
  5
12
330
0
100
AcDbSymbolTable
 70
    12
  0
VPORT
  5
4822
330
12
100
AcDbSymbolTableRecord
100
AcDbViewportTableRecord
  2
*Active
 70
     0
 10
0.0
 20
0.0
 11
1.0
 21
1.0
 12
74.34272198416033
 22
98.55811611911573
 13
0.0
 23
0.0
 14
1.0
 24
1.0
 15
0.0
 25
0.0
 16
0.0
 26
0.0
 36
1.0
 17
0.0
 27
0.0
 37
0.0
 40
198.6550862890885
 41
1.5719794344473
 42
50.0
 43
0.0
 44
0.0
 50
0.0
 51
0.0
 71
     0
 72
 20000
 73
     1
 74
     1
 75
     0
 76
     0
 77
     0
 78
     0
281
     0
 65
     1
110
0.0
120
0.0
130
0.0
111
1.0
121
0.0
131
0.0
112
0.0
122
1.0
132
0.0
 79
     0
146
0.0
  0
ENDTAB
  0
TABLE
  2
LTYPE
  5
D
330
0
100
AcDbSymbolTable
 70
     2
  0
LTYPE
  5
E
330
D
100
AcDbSymbolTableRecord
100
AcDbLinetypeTableRecord
  2
BYBLOCK
 70
     0
  3

 72
    65
 73
     0
 40
0.0
  0
LTYPE
  5
F
330
D
100
AcDbSymbolTableRecord
100
AcDbLinetypeTableRecord
  2
BYLAYER
 70
     0
  3

 72
    65
 73
     0
 40
0.0
  0
LTYPE
  5
5
330
D
100
AcDbSymbolTableRecord
100
AcDbLinetypeTableRecord
  2
CONTINUOUS
 70
     0
  3
Solid line
 72
    65
 73
     0
 40
0.0
  0
ENDTAB
  0
TABLE
  2
LAYER
  5
A
102
{ACAD_XDICTIONARY
360
1B4
102
}
330
0
100
AcDbSymbolTable
 70
     6
  0
LAYER
  5
4
330
A
100
AcDbSymbolTableRecord
100
AcDbLayerTableRecord
  2
0
 70
     0
 62
     7
  6
CONTINUOUS
370
    -3
390
57
  0
LAYER
  5
25
330
A
100
AcDbSymbolTableRecord
100
AcDbLayerTableRecord
  2
KIJUN
 70
     0
 62
     7
  6
CONTINUOUS
370
    -3
390
57
  0
LAYER
  5
22
330
A
100
AcDbSymbolTableRecord
100
AcDbLayerTableRecord
  2
HOJO
 70
     0
 62
     3
  6
CONTINUOUS
370
    -3
390
57
  0
LAYER
  5
1B
330
A
100
AcDbSymbolTableRecord
100
AcDbLayerTableRecord
  2
WAKU
 70
     0
 62
     1
  6
CONTINUOUS
370
    -3
390
57
  0
LAYER
  5
31
330
A
100
AcDbSymbolTableRecord
100
AcDbLayerTableRecord
  2
DEFPOINTS
 70
     0
 62
     7
  6
CONTINUOUS
290
     0
370
    -3
390
57
  0
LAYER
  5
28
330
A
100
AcDbSymbolTableRecord
100
AcDbLayerTableRecord
  2
SUNPOU
 70
     0
 62
    70
  6
CONTINUOUS
370
    -3
390
57
  0
ENDTAB
  0
TABLE
  2
STYLE
  5
B
330
0
100
AcDbSymbolTable
 70
     2
  0
STYLE
  5
C
330
B
100
AcDbSymbolTableRecord
100
AcDbTextStyleTableRecord
  2
STANDARD
 70
     0
 40
0.0
 41
1.0
 50
0.0
 71
     0
 42
0.2
  3
txt
  4

  0
STYLE
  5
1C
330
B
100
AcDbSymbolTableRecord
100
AcDbTextStyleTableRecord
  2
SUNPOU
 70
     0
 40
0.0
 41
1.0
 50
0.0
 71
     0
 42
30.0
  3
txt
  4
bigfont
  0
ENDTAB
  0
TABLE
  2
VIEW
  5
10
330
0
100
AcDbSymbolTable
 70
     0
  0
ENDTAB
  0
TABLE
  2
UCS
  5
11
330
0
100
AcDbSymbolTable
 70
     0
  0
ENDTAB
  0
TABLE
  2
APPID
  5
14
330
0
100
AcDbSymbolTable
 70
    10
  0
APPID
  5
15
330
14
100
AcDbSymbolTableRecord
100
AcDbRegAppTableRecord
  2
ACAD
 70
     0
  0
APPID
  5
1D3
330
14
100
AcDbSymbolTableRecord
100
AcDbRegAppTableRecord
  2
ACAD_DSTYLE_DIMTEXT_FILL
 70
     0
  0
APPID
  5
1D4
330
14
100
AcDbSymbolTableRecord
100
AcDbRegAppTableRecord
  2
ACAD_DSTYLE_DIMEXT_LENGTH
 70
     0
  0
APPID
  5
1D5
330
14
100
AcDbSymbolTableRecord
100
AcDbRegAppTableRecord
  2
ACAD_DSTYLE_DIMEXT_ENABLED
 70
     0
  0
APPID
  5
1D6
330
14
100
AcDbSymbolTableRecord
100
AcDbRegAppTableRecord
  2
ACAD_DSTYLE_DIM_LINETYPE
 70
     0
  0
APPID
  5
1D7
330
14
100
AcDbSymbolTableRecord
100
AcDbRegAppTableRecord
  2
ACAD_DSTYLE_DIM_EXT1_LINETYPE
 70
     0
  0
APPID
  5
1D8
330
14
100
AcDbSymbolTableRecord
100
AcDbRegAppTableRecord
  2
ACAD_DSTYLE_DIM_EXT2_LINETYPE
 70
     0
  0
APPID
  5
294
330
14
100
AcDbSymbolTableRecord
100
AcDbRegAppTableRecord
  2
ACAD_DSTYLE_DIMJOGGED_JOGANGLE_SYMBOL
 70
     0
  0
APPID
  5
478
330
14
100
AcDbSymbolTableRecord
100
AcDbRegAppTableRecord
  2
ACAD_DSTYLE_DIMARC_LENGTH_SYMBOL
 70
     0
  0
APPID
  5
F55
330
14
100
AcDbSymbolTableRecord
100
AcDbRegAppTableRecord
  2
ACAD_EXEMPT_FROM_CAD_STANDARDS
 70
     0
  0
ENDTAB
  0
TABLE
  2
DIMSTYLE
  5
16
330
0
100
AcDbSymbolTable
 70
     2
100
AcDbDimStyleTable
 71
     1
340
1E
  0
DIMSTYLE
105
1E
102
{ACAD_REACTORS
330
3628
330
3635
102
}
330
16
100
AcDbSymbolTableRecord
100
AcDbDimStyleTableRecord
  2
STANDARD
 70
     0
340
C
  0
ENDTAB
  0
TABLE
  2
BLOCK_RECORD
  5
1
330
0
100
AcDbSymbolTable
 70
     5
  0
BLOCK_RECORD
  5
2
102
{ACAD_XDICTIONARY
360
D13
102
}
330
1
100
AcDbSymbolTableRecord
100
AcDbBlockTableRecord
  2
*MODEL_SPACE
340
5A
  0
BLOCK_RECORD
  5
7
330
1
100
AcDbSymbolTableRecord
100
AcDbBlockTableRecord
  2
*PAPER_SPACE
340
5B
  0
BLOCK_RECORD
  5
109
330
1
100
AcDbSymbolTableRecord
100
AcDbBlockTableRecord
  2
_Dot
340
0
102
{BLKREFS
331
472E
331
472F
331
480C
331
480D
331
4815
331
4816
102
}
  0
BLOCK_RECORD
  5
3629
330
1
100
AcDbSymbolTableRecord
100
AcDbBlockTableRecord
  2
*D1
340
0
  0
BLOCK_RECORD
  5
3636
330
1
100
AcDbSymbolTableRecord
100
AcDbBlockTableRecord
  2
*D2
340
0
  0
ENDTAB
  0
ENDSEC
  0
SECTION
  2
BLOCKS
  0
BLOCK
  5
3
330
2
100
AcDbEntity
  8
0
100
AcDbBlockBegin
  2
*MODEL_SPACE
 70
     0
 10
0.0
 20
0.0
 30
0.0
  3
*MODEL_SPACE
  1

  0
ENDBLK
  5
6
330
2
100
AcDbEntity
  8
0
100
AcDbBlockEnd
  0
BLOCK
  5
8
330
7
100
AcDbEntity
 67
     1
  8
0
100
AcDbBlockBegin
  2
*PAPER_SPACE
 70
     0
 10
0.0
 20
0.0
 30
0.0
  3
*PAPER_SPACE
  1

  0
ENDBLK
  5
9
330
7
100
AcDbEntity
 67
     1
  8
0
100
AcDbBlockEnd
  0
BLOCK
  5
10C
330
109
100
AcDbEntity
  8
0
100
AcDbBlockBegin
  2
_Dot
 70
     0
 10
0.0
 20
0.0
 30
0.0
  3
_Dot
  1

  0
LWPOLYLINE
  5
10A
330
109
100
AcDbEntity
  8
0
  6
ByBlock
 62
     0
100
AcDbPolyline
 90
        2
 70
     1
 43
0.5
 10
-0.25
 20
0.0
 42
1.0
 10
0.25
 20
0.0
 42
1.0
  0
LINE
  5
10B
330
109
100
AcDbEntity
  8
0
  6
ByBlock
 62
     0
370
    -2
100
AcDbLine
 10
-0.5
 20
0.0
 30
0.0
 11
-1.0
 21
0.0
 31
0.0
  0
ENDBLK
  5
10D
330
109
100
AcDbEntity
  8
0
100
AcDbBlockEnd
  0
BLOCK
  5
3633
330
3629
100
AcDbEntity
  8
0
100
AcDbBlockBegin
  2
*D1
 70
     1
 10
0.0
 20
0.0
 30
0.0
  3
*D1
  1

  0
LINE
  5
4812
330
3629
100
AcDbEntity
  8
SUNPOU
 62
    70
370
    -2
100
AcDbLine
 10
56.2753997930837
 20
156.5753132649506
 30
0.0
 11
56.2753997930837
 21
189.122857584407
 31
0.0
  0
LINE
  5
4813
330
3629
100
AcDbEntity
  8
SUNPOU
 62
    70
370
    -2
100
AcDbLine
 10
90.2753997930837
 20
157.716827203986
 30
0.0
 11
90.2753997930837
 21
189.122857584407
 31
0.0
  0
LINE
  5
4814
330
3629
100
AcDbEntity
  8
SUNPOU
 62
    60
370
    -2
100
AcDbLine
 10
58.27539979308369
 20
189.122857584407
 30
0.0
 11
88.27539979308369
 21
189.122857584407
 31
0.0
  0
INSERT
  5
4815
330
3629
100
AcDbEntity
  8
SUNPOU
 62
    60
370
    -2
100
AcDbBlockReference
  2
_Dot
 10
56.2753997930837
 20
189.122857584407
 30
0.0
 41
2.0
 42
2.0
 43
2.0
 50
180.0
  0
INSERT
  5
4816
330
3629
100
AcDbEntity
  8
SUNPOU
 62
    60
370
    -2
100
AcDbBlockReference
  2
_Dot
 10
90.2753997930837
 20
189.122857584407
 30
0.0
 41
2.0
 42
2.0
 43
2.0
  0
MTEXT
  5
4817
330
3629
100
AcDbEntity
  8
SUNPOU
 62
    60
100
AcDbMText
 10
73.27539979308369
 20
194.622857584407
 30
0.0
 40
5.0
 41
0.0
 71
     5
 72
     1
  1
\A1;34
  7
SUNPOU
 73
     1
 44
1.0
1001
ACAD
1000
MTEXTBEGIN
1070
    73
1070
     1
1070
    44
1040
1.0
1070
    74
1070
     0
1000
MTEXTEND
  0
POINT
  5
4818
330
3629
100
AcDbEntity
  8
DEFPOINTS
 62
     0
100
AcDbPoint
 10
56.2753997930837
 20
146.5753132649506
 30
0.0
  0
POINT
  5
4819
330
3629
100
AcDbEntity
  8
DEFPOINTS
 62
     0
100
AcDbPoint
 10
90.2753997930837
 20
147.716827203986
 30
0.0
  0
POINT
  5
481A
330
3629
100
AcDbEntity
  8
DEFPOINTS
 62
     0
100
AcDbPoint
 10
90.2753997930837
 20
189.122857584407
 30
0.0
  0
ENDBLK
  5
3634
330
3629
100
AcDbEntity
  8
0
100
AcDbBlockEnd
  0
BLOCK
  5
3640
330
3636
100
AcDbEntity
  8
0
100
AcDbBlockBegin
  2
*D2
 70
     1
 10
0.0
 20
0.0
 30
0.0
  3
*D2
  1

  0
LINE
  5
4809
330
3636
100
AcDbEntity
  8
SUNPOU
 62
    70
370
    -2
100
AcDbLine
 10
63.2753997930837
 20
157.9402395014239
 30
0.0
 11
22.30179108581071
 21
157.9402395014239
 31
0.0
  0
LINE
  5
480A
330
3636
100
AcDbEntity
  8
SUNPOU
 62
    70
370
    -2
100
AcDbLine
 10
63.27539979308369
 20
45.94023950142389
 30
0.0
 11
22.30179108581069
 21
45.9402395014239
 31
0.0
  0
LINE
  5
480B
330
3636
100
AcDbEntity
  8
SUNPOU
 62
    60
370
    -2
100
AcDbLine
 10
22.30179108581072
 20
155.9402395014239
 30
0.0
 11
22.30179108581069
 21
47.9402395014239
 31
0.0
  0
INSERT
  5
480C
330
3636
100
AcDbEntity
  8
SUNPOU
 62
    60
370
    -2
100
AcDbBlockReference
  2
_Dot
 10
22.30179108581072
 20
157.9402395014239
 30
0.0
 41
2.0
 42
2.0
 43
2.0
 50
90.0
  0
INSERT
  5
480D
330
3636
100
AcDbEntity
  8
SUNPOU
 62
    60
370
    -2
100
AcDbBlockReference
  2
_Dot
 10
22.30179108581069
 20
45.9402395014239
 30
0.0
 41
2.0
 42
2.0
 43
2.0
 50
270.0
  0
MTEXT
  5
480E
330
3636
100
AcDbEntity
  8
SUNPOU
 62
    60
100
AcDbMText
 10
16.80179108581069
 20
101.9402395014239
 30
0.0
 40
5.0
 41
0.0
 71
     5
 72
     1
  1
\A1;112
  7
SUNPOU
 11
0.0000000000000001
 21
1.0
 31
0.0
 73
     1
 44
1.0
1001
ACAD
1000
MTEXTBEGIN
1070
    73
1070
     1
1070
    44
1040
1.0
1070
    74
1070
     0
1000
MTEXTEND
  0
POINT
  5
480F
330
3636
100
AcDbEntity
  8
DEFPOINTS
 62
     0
100
AcDbPoint
 10
73.27539979308369
 20
157.9402395014239
 30
0.0
  0
POINT
  5
4810
330
3636
100
AcDbEntity
  8
DEFPOINTS
 62
     0
100
AcDbPoint
 10
73.27539979308369
 20
45.94023950142389
 30
0.0
  0
POINT
  5
4811
330
3636
100
AcDbEntity
  8
DEFPOINTS
 62
     0
100
AcDbPoint
 10
22.30179108581069
 20
45.9402395014239
 30
0.0
  0
ENDBLK
  5
3641
330
3636
100
AcDbEntity
  8
0
100
AcDbBlockEnd
  0
ENDSEC
  0
SECTION
  2
ENTITIES
  0
LINE
  5
1F
330
2
100
AcDbEntity
  8
WAKU
100
AcDbLine
 10
0.0
 20
14.0
 30
0.0
 11
148.6829221395387
 21
14.0
 31
0.0
  0
LINE
  5
20
330
2
100
AcDbEntity
  8
WAKU
100
AcDbLine
 10
0.0
 20
0.0
 30
0.0
 11
148.6829221395387
 21
0.0
 31
0.0
  0
TEXT
  5
21
330
2
100
AcDbEntity
  8
HOJO
100
AcDbText
 10
9.653966000000025
 20
2.366626000000024
 30
0.0
 40
9.0
  1
TK573
  7
SUNPOU
100
AcDbText
  0
TEXT
  5
23
330
2
100
AcDbEntity
  8
HOJO
100
AcDbText
 10
85.84696046283864
 20
5.044386000000031
 30
0.0
 40
6.0
  1
34×112×11
  7
SUNPOU
100
AcDbText
  0
DIMENSION
  5
3628
330
2
100
AcDbEntity
  8
SUNPOU
100
AcDbDimension
  2
*D1
 10
90.2753997930837
 20
189.122857584407
 30
0.0
 11
73.27539979308369
 21
194.622857584407
 31
0.0
 70
    32
 71
     5
 42
34.0
  3
STANDARD
100
AcDbAlignedDimension
 13
56.2753997930837
 23
146.5753132649506
 33
0.0
 14
90.2753997930837
 24
147.716827203986
 34
0.0
100
AcDbRotatedDimension
1001
ACAD
1000
DSTYLE
1002
{
1070
    41
1040
2.0
1070
    42
1040
10.0
1070
    44
1040
0.0
1070
    73
1070
     0
1070
    74
1070
     0
1070
    77
1070
     1
1070
   140
1040
5.0
1070
   141
1040
0.0
1070
   146
1040
0.064286
1070
   147
1040
3.0
1070
   176
1070
    60
1070
   177
1070
    70
1070
   178
1070
    60
1070
   271
1070
     0
1070
   272
1070
     0
1070
   340
1005
1C
1070
   342
1005
109
1002
}
  0
DIMENSION
  5
3635
330
2
100
AcDbEntity
  8
SUNPOU
100
AcDbDimension
  2
*D2
 10
22.30179108581069
 20
45.9402395014239
 30
0.0
 11
16.80179108581069
 21
101.9402395014239
 31
0.0
 70
    32
 71
     5
 42
112.0
  3
STANDARD
100
AcDbAlignedDimension
 13
73.27539979308369
 23
157.9402395014239
 33
0.0
 14
73.27539979308369
 24
45.94023950142389
 34
0.0
 50
90.0
100
AcDbRotatedDimension
1001
ACAD
1000
DSTYLE
1002
{
1070
    41
1040
2.0
1070
    42
1040
10.0
1070
    44
1040
0.0
1070
    73
1070
     0
1070
    74
1070
     0
1070
    77
1070
     1
1070
   140
1040
5.0
1070
   141
1040
0.0
1070
   146
1040
0.064286
1070
   147
1040
3.0
1070
   176
1070
    60
1070
   177
1070
    70
1070
   178
1070
    60
1070
   271
1070
     0
1070
   272
1070
     0
1070
   340
1005
1C
1070
   342
1005
109
1002
}
  0
LINE
  5
474A
102
{ACAD_REACTORS
330
47E3
102
}
330
2
100
AcDbEntity
  8
KIJUN
100
AcDbLine
 10
90.2753997930837
 20
147.716827203986
 30
0.0
 11
90.2753997930837
 21
84.51463516634623
 31
0.0
  0
LINE
  5
474B
102
{ACAD_REACTORS
330
47E3
102
}
330
2
100
AcDbEntity
  8
KIJUN
100
AcDbLine
 10
56.2753997930837
 20
146.5753132649506
 30
0.0
 11
56.2753997930837
 21
84.51463516634674
 31
0.0
  0
LINE
  5
474E
102
{ACAD_REACTORS
330
47E3
102
}
330
2
100
AcDbEntity
  8
KIJUN
100
AcDbLine
 10
73.27539979308369
 20
103.6113001499501
 30
0.0
 11
73.27539979308369
 21
65.54786655265968
 31
0.0
  0
ARC
  5
474F
102
{ACAD_REACTORS
330
47E3
102
}
330
2
100
AcDbEntity
  8
KIJUN
100
AcDbCircle
 10
85.5163644072644
 20
147.0598063465284
 30
0.0
 40
4.804174664874354
100
AcDbArc
 50
7.860427735414976
 51
94.26533240968181
  0
ARC
  5
4750
102
{ACAD_REACTORS
330
47E3
102
}
330
2
100
AcDbEntity
  8
KIJUN
100
AcDbCircle
 10
86.54812338174474
 20
141.4166740114263
 30
0.0
 40
10.52605789407517
100
AcDbArc
 50
97.5831565520272
 51
126.3994311083745
  0
ARC
  5
4751
102
{ACAD_REACTORS
330
47E3
102
}
330
2
100
AcDbEntity
  8
KIJUN
100
AcDbCircle
 10
75.74794594903306
 20
150.7159018139774
 30
0.0
 40
4.439189779913236
100
AcDbArc
 50
14.87378785340333
 51
78.47430033115607
  0
ARC
  5
4752
102
{ACAD_REACTORS
330
47E3
102
}
330
2
100
AcDbEntity
  8
KIJUN
100
AcDbCircle
 10
56.42900085665999
 20
147.6913423508612
 30
0.0
 40
23.97379503434898
100
AcDbArc
 50
5.25986729895579
 51
10.00255349267166
  0
ARC
  5
4753
102
{ACAD_REACTORS
330
47E3
102
}
330
2
100
AcDbEntity
  8
KIJUN
100
AcDbCircle
 10
73.27539979308369
 20
154.5398192592169
 30
0.0
 40
3.400420242206958
100
AcDbArc
 50
8.89448354727175
 51
171.1055164527282
  0
ARC
  5
4754
102
{ACAD_REACTORS
330
47E3
102
}
330
2
100
AcDbEntity
  8
KIJUN
100
AcDbCircle
 10
87.93572534041572
 20
138.0033865005528
 30
0.0
 40
2.551822996185387
100
AcDbArc
 50
23.52816829621849
 51
132.2614101074055
  0
ARC
  5
4755
102
{ACAD_REACTORS
330
47E3
102
}
330
2
100
AcDbEntity
  8
KIJUN
100
AcDbCircle
 10
79.04868570241649
 20
136.5748836039676
 30
0.0
 40
3.648926527508119
100
AcDbArc
 50
43.99826943489075
 51
136.0017305651121
  0
ARC
  5
4756
102
{ACAD_REACTORS
330
47E3
102
}
330
2
100
AcDbEntity
  8
KIJUN
100
AcDbCircle
 10
83.4758473227165
 20
142.235935578695
 30
0.0
 40
3.608653493964367
100
AcDbArc
 50
240.0377556506128
 51
319.4926458379526
  0
ARC
  5
4757
102
{ACAD_REACTORS
330
47E3
102
}
330
2
100
AcDbEntity
  8
KIJUN
100
AcDbCircle
 10
87.52098647966466
 20
133.4107262904995
 30
0.0
 40
3.029549121787489
100
AcDbArc
 50
230.6216703937657
 51
335.3926346486173
  0
ARC
  5
4758
102
{ACAD_REACTORS
330
47E3
102
}
330
2
100
AcDbEntity
  8
KIJUN
100
AcDbCircle
 10
79.60678357563302
 20
133.6650878228682
 30
0.0
 40
3.503194760172166
100
AcDbArc
 50
198.8966832444019
 51
315.2701127809352
  0
ARC
  5
4759
102
{ACAD_REACTORS
330
47E3
102
}
330
2
100
AcDbEntity
  8
KIJUN
100
AcDbCircle
 10
83.78249787956258
 20
129.3987157481789
 30
0.0
 40
2.467618021188233
100
AcDbArc
 50
42.59929826680497
 51
133.1277464967296
  0
ARC
  5
475A
102
{ACAD_REACTORS
330
47E3
102
}
330
2
100
AcDbEntity
  8
KIJUN
100
AcDbCircle
 10
73.27539979308369
 20
135.5359471851239
 30
0.0
 40
4.762676573012482
100
AcDbArc
 50
48.61961545412656
 51
131.3803845458734
  0
ARC
  5
475B
102
{ACAD_REACTORS
330
47E3
102
}
330
2
100
AcDbEntity
  8
KIJUN
100
AcDbCircle
 10
73.27539979308369
 20
133.8288682390189
 30
0.0
 40
3.284500260201594
100
AcDbArc
 50
203.2841425196839
 51
336.715857480316
  0
ARC
  5
475C
102
{ACAD_REACTORS
330
47E3
102
}
330
2
100
AcDbEntity
  8
KIJUN
100
AcDbCircle
 10
95.18820441313517
 20
135.2549173939709
 30
0.0
 40
8.851575494799378
100
AcDbArc
 50
157.1711314236809
 51
202.828868576319
  0
ARC
  5
475D
102
{ACAD_REACTORS
330
47E3
102
}
330
2
100
AcDbEntity
  8
KIJUN
100
AcDbCircle
 10
85.33178840151981
 20
136.1416954515592
 30
0.0
 40
8.287094032648925
100
AcDbArc
 50
169.2912608318476
 51
202.6321729033496
  0
ARC
  5
475E
102
{ACAD_REACTORS
330
47E3
102
}
330
2
100
AcDbEntity
  8
KIJUN
100
AcDbCircle
 10
86.48324570758223
 20
149.1513645780704
 30
0.0
 40
2.400571648462453
100
AcDbArc
 50
111.3582124563069
 51
292.4432274846755
  0
ARC
  5
4760
102
{ACAD_REACTORS
330
47E3
102
}
330
2
100
AcDbEntity
  8
KIJUN
100
AcDbCircle
 10
83.23148595631863
 20
146.4392183681519
 30
0.0
 40
4.197321232462559
100
AcDbArc
 50
288.0140399656129
 51
6.750767064423597
  0
ARC
  5
4761
102
{ACAD_REACTORS
330
47E3
102
}
330
2
100
AcDbEntity
  8
KIJUN
100
AcDbCircle
 10
82.26288664641083
 20
147.4556116108454
 30
0.0
 40
6.820682268097218
100
AcDbArc
 50
276.0928191594859
 51
329.9537131070496
  0
ARC
  5
4762
102
{ACAD_REACTORS
330
47E3
102
}
330
2
100
AcDbEntity
  8
KIJUN
100
AcDbCircle
 10
73.27539979308369
 20
212.075814395054
 30
0.0
 40
70.53181334432408
100
AcDbArc
 50
260.8185994234189
 51
279.1814005765811
  0
ARC
  5
4763
102
{ACAD_REACTORS
330
47E3
102
}
330
2
100
AcDbEntity
  8
KIJUN
100
AcDbCircle
 10
72.79988499382693
 20
188.5106684948049
 30
0.0
 40
44.61223885359404
100
AcDbArc
 50
258.2951372799911
 51
283.4807488334046
  0
ARC
  5
4764
102
{ACAD_REACTORS
330
47E3
102
}
330
2
100
AcDbEntity
  8
KIJUN
100
AcDbCircle
 10
87.10666368141096
 20
152.5417330603114
 30
0.0
 40
8.380520888317334
100
AcDbArc
 50
202.8922800945932
 51
242.2133596720269
  0
ARC
  5
4765
102
{ACAD_REACTORS
330
47E3
102
}
330
2
100
AcDbEntity
  8
KIJUN
100
AcDbCircle
 10
83.48615095363276
 20
150.745051404247
 30
0.0
 40
6.887183101748233
100
AcDbArc
 50
154.4474708584556
 51
225.6492103242415
  0
ARC
  5
4766
102
{ACAD_REACTORS
330
47E3
102
}
330
2
100
AcDbEntity
  8
KIJUN
100
AcDbCircle
 10
81.0109726836643
 20
149.5948662149346
 30
0.0
 40
6.789645094224182
100
AcDbArc
 50
147.240953833095
 51
216.7508125431929
  0
ARC
  5
4767
102
{ACAD_REACTORS
330
47E3
102
}
330
2
100
AcDbEntity
  8
KIJUN
100
AcDbCircle
 10
-14.66498871196114
 20
116.6135066457507
 30
0.0
 40
102.2072953790299
100
AcDbArc
 50
359.8661420618591
 51
6.995124687788121
  0
ARC
  5
4769
102
{ACAD_REACTORS
330
47E3
102
}
330
2
100
AcDbEntity
  8
KIJUN
100
AcDbCircle
 10
127.9884139038944
 20
125.8251826113489
 30
0.0
 40
42.1987931509914
100
AcDbArc
 50
176.0030016265362
 51
191.3393829693029
  0
ARC
  5
476A
102
{ACAD_REACTORS
330
47E3
102
}
330
2
100
AcDbEntity
  8
KIJUN
100
AcDbCircle
 10
98.90714825969041
 20
124.8823192641568
 30
0.0
 40
16.30365085119876
100
AcDbArc
 50
157.0164121340501
 51
222.3436353720671
  0
ARC
  5
476B
102
{ACAD_REACTORS
330
47E3
102
}
330
2
100
AcDbEntity
  8
KIJUN
100
AcDbCircle
 10
85.38440995034443
 20
113.9221459531761
 30
0.0
 40
3.266565925261881
100
AcDbArc
 50
307.505998518655
 51
48.66079194290097
  0
ARC
  5
476C
102
{ACAD_REACTORS
330
47E3
102
}
330
2
100
AcDbEntity
  8
KIJUN
100
AcDbCircle
 10
100.2293048307771
 20
124.3864758101214
 30
0.0
 40
18.32290136775018
100
AcDbArc
 50
196.1169167704078
 51
225.4413414930571
  0
ARC
  5
476D
102
{ACAD_REACTORS
330
47E3
102
}
330
2
100
AcDbEntity
  8
KIJUN
100
AcDbCircle
 10
85.71493747849592
 20
103.4497558850028
 30
0.0
 40
2.40527075591966
100
AcDbArc
 50
214.0769645904575
 51
3.961079079406659
  0
ARC
  5
476E
102
{ACAD_REACTORS
330
47E3
102
}
330
2
100
AcDbEntity
  8
KIJUN
100
AcDbCircle
 10
63.90256685466531
 20
105.1827709922561
 30
0.0
 40
24.26254208868037
100
AcDbArc
 50
356.2972927823337
 51
14.67858839025412
  0
ARC
  5
476F
102
{ACAD_REACTORS
330
47E3
102
}
330
2
100
AcDbEntity
  8
KIJUN
100
AcDbCircle
 10
23.19968852734559
 20
127.4885831534855
 30
0.0
 40
56.84420485624645
100
AcDbArc
 50
352.152974223225
 51
1.309100142361607
  0
ARC
  5
4770
102
{ACAD_REACTORS
330
47E3
102
}
330
2
100
AcDbEntity
  8
KIJUN
100
AcDbCircle
 10
131.2492063030159
 20
127.028254158391
 30
0.0
 40
49.75119920952666
100
AcDbArc
 50
194.4334433160855
 51
205.6402166782166
  0
ARC
  5
4771
102
{ACAD_REACTORS
330
47E3
102
}
330
2
100
AcDbEntity
  8
KIJUN
100
AcDbCircle
 10
139.6557407083681
 20
124.0197458746677
 30
0.0
 40
60.07404751403983
100
AcDbArc
 50
190.5069141320628
 51
201.3980049622858
  0
ARC
  5
4772
102
{ACAD_REACTORS
330
47E3
102
}
330
2
100
AcDbEntity
  8
KIJUN
100
AcDbCircle
 10
136.7171025391439
 20
119.2433866962209
 30
0.0
 40
55.69769264475695
100
AcDbArc
 50
197.9240695564114
 51
208.1637877112303
  0
ARC
  5
4773
102
{ACAD_REACTORS
330
47E3
102
}
330
2
100
AcDbEntity
  8
KIJUN
100
AcDbCircle
 10
85.15434770141235
 20
91.37358027902001
 30
0.0
 40
2.923785483269931
100
AcDbArc
 50
292.4965509550428
 51
32.7303129403516
  0
ARC
  5
4774
102
{ACAD_REACTORS
330
47E3
102
}
330
2
100
AcDbEntity
  8
KIJUN
100
AcDbCircle
 10
76.26604300739188
 20
81.16559319329708
 30
0.0
 40
12.50963763482173
100
AcDbArc
 50
339.7024072871926
 51
36.87511682956261
  0
ARC
  5
4775
102
{ACAD_REACTORS
330
47E3
102
}
330
2
100
AcDbEntity
  8
KIJUN
100
AcDbCircle
 10
94.81162720267121
 20
92.78566413250297
 30
0.0
 40
17.35289490522369
100
AcDbArc
 50
230.4645561276453
 51
246.8836074344696
  0
ARC
  5
4776
102
{ACAD_REACTORS
330
47E3
102
}
330
2
100
AcDbEntity
  8
KIJUN
100
AcDbCircle
 10
82.94548599193717
 20
74.12403775780496
 30
0.0
 40
4.809853309176316
100
AcDbArc
 50
235.5758148190933
 51
278.7637909426027
  0
ARC
  5
4777
102
{ACAD_REACTORS
330
47E3
102
}
330
2
100
AcDbEntity
  8
KIJUN
100
AcDbCircle
 10
62.41849027173606
 20
74.57168221445988
 30
0.0
 40
21.88685401276616
100
AcDbArc
 50
346.252302483505
 51
12.75139502301827
  0
ARC
  5
4778
102
{ACAD_REACTORS
330
47E3
102
}
330
2
100
AcDbEntity
  8
KIJUN
100
AcDbCircle
 10
72.05959853230473
 20
68.12148337709072
 30
0.0
 40
8.416532727808332
100
AcDbArc
 50
313.3908905547707
 51
13.99216572631825
  0
ARC
  5
4779
102
{ACAD_REACTORS
330
47E3
102
}
330
2
100
AcDbEntity
  8
KIJUN
100
AcDbCircle
 10
96.76674770514161
 20
42.74629736861101
 30
0.0
 40
27.0013767030493
100
AcDbArc
 50
134.4991429088649
 51
145.5779148346928
  0
ARC
  5
477A
102
{ACAD_REACTORS
330
47E3
102
}
330
2
100
AcDbEntity
  8
KIJUN
100
AcDbCircle
 10
87.50683073756295
 20
48.6810174545119
 30
0.0
 40
2.188552471374686
100
AcDbArc
 50
236.2303001842024
 51
346.5396116355513
  0
ARC
  5
477B
102
{ACAD_REACTORS
330
47E3
102
}
330
2
100
AcDbEntity
  8
KIJUN
100
AcDbCircle
 10
79.58316623833127
 20
48.96670772726764
 30
0.0
 40
2.91732620181558
100
AcDbArc
 50
209.3264795608627
 51
317.6956752058558
  0
ARC
  5
477C
102
{ACAD_REACTORS
330
47E3
102
}
330
2
100
AcDbEntity
  8
KIJUN
100
AcDbCircle
 10
83.92549777710343
 20
44.0359796445553
 30
0.0
 40
3.684718734025199
100
AcDbArc
 50
50.07463317760045
 51
126.364324161677
  0
ARC
  5
477E
102
{ACAD_REACTORS
330
47E3
102
}
330
2
100
AcDbEntity
  8
KIJUN
100
AcDbCircle
 10
73.27539979308369
 20
51.17383019600686
 30
0.0
 40
5.233590694582962
100
AcDbArc
 50
224.0065256458403
 51
315.9934743541596
  0
ARC
  5
477F
102
{ACAD_REACTORS
330
47E3
102
}
330
2
100
AcDbEntity
  8
KIJUN
100
AcDbCircle
 10
87.82500545906032
 20
53.09931147177053
 30
0.0
 40
2.115322246025922
100
AcDbArc
 50
25.26620895902295
 51
127.4530023526654
  0
ARC
  5
4780
102
{ACAD_REACTORS
330
47E3
102
}
330
2
100
AcDbEntity
  8
KIJUN
100
AcDbCircle
 10
79.55798760761172
 20
53.60254071219532
 30
0.0
 40
2.736155542665104
100
AcDbArc
 50
35.21343130488798
 51
155.0497625304855
  0
ARC
  5
4781
102
{ACAD_REACTORS
330
47E3
102
}
330
2
100
AcDbEntity
  8
KIJUN
100
AcDbCircle
 10
84.30672761076095
 20
56.64112789369221
 30
0.0
 40
2.90699908710301
100
AcDbArc
 50
210.1675335495799
 51
320.1547202958821
  0
ARC
  5
4782
102
{ACAD_REACTORS
330
47E3
102
}
330
2
100
AcDbEntity
  8
KIJUN
100
AcDbCircle
 10
73.27539979308369
 20
49.16770953203735
 30
0.0
 40
6.759496046057594
100
AcDbArc
 50
55.77555384940973
 51
124.2244461505902
  0
ARC
  5
4784
102
{ACAD_REACTORS
330
47E3
102
}
330
2
100
AcDbEntity
  8
KIJUN
100
AcDbCircle
 10
140.7539824769813
 20
119.4095083915596
 30
0.0
 40
62.284829399692
100
AcDbArc
 50
191.3839650451059
 51
207.1032630831314
  0
ARC
  5
4785
102
{ACAD_REACTORS
330
47E3
102
}
330
2
100
AcDbEntity
  8
KIJUN
100
AcDbCircle
 10
126.7708985193126
 20
114.1056728963463
 30
0.0
 40
47.59251684378078
100
AcDbArc
 50
173.2158790225542
 51
188.4458464871394
  0
ARC
  5
4786
102
{ACAD_REACTORS
330
47E3
102
}
330
2
100
AcDbEntity
  8
KIJUN
100
AcDbCircle
 10
112.3330526496679
 20
119.3238913448201
 30
0.0
 40
31.25008050005409
100
AcDbArc
 50
193.6509180357449
 51
207.8302017009575
  0
ARC
  5
4787
102
{ACAD_REACTORS
330
47E3
102
}
330
2
100
AcDbEntity
  8
KIJUN
100
AcDbCircle
 10
85.57400675887317
 20
105.0579969946408
 30
0.0
 40
0.9342173443217202
100
AcDbArc
 50
200.2464958145157
 51
28.23621060859638
  0
ARC
  5
4788
102
{ACAD_REACTORS
330
47E3
102
}
330
2
100
AcDbEntity
  8
KIJUN
100
AcDbCircle
 10
123.5245525950175
 20
95.89125299041331
 30
0.0
 40
45.40749522984671
100
AcDbArc
 50
170.595607195
 51
198.8825351073868
  0
ARC
  5
4789
102
{ACAD_REACTORS
330
47E3
102
}
330
2
100
AcDbEntity
  8
KIJUN
100
AcDbCircle
 10
105.8103641915185
 20
86.11793846859654
 30
0.0
 40
28.99630606713678
100
AcDbArc
 50
176.4714148759151
 51
207.7039856535132
  0
ARC
  5
478B
102
{ACAD_REACTORS
330
47E3
102
}
330
2
100
AcDbEntity
  8
KIJUN
100
AcDbCircle
 10
65.78559751272516
 20
72.76746139098595
 30
0.0
 40
17.01015099916322
100
AcDbArc
 50
353.2876719886025
 51
29.70303153184605
  0
ARC
  5
478C
102
{ACAD_REACTORS
330
47E3
102
}
330
2
100
AcDbEntity
  8
KIJUN
100
AcDbCircle
 10
83.29186537589498
 20
74.28352591645609
 30
0.0
 40
3.557448421136177
100
AcDbArc
 50
207.562273496034
 51
260.0822826879237
  0
ARC
  5
478D
102
{ACAD_REACTORS
330
47E3
102
}
330
2
100
AcDbEntity
  8
KIJUN
100
AcDbCircle
 10
71.79234421015246
 20
68.28711990680642
 30
0.0
 40
7.23010138555019
100
AcDbArc
 50
309.7316348350678
 51
17.87070878463601
  0
ARC
  5
478E
102
{ACAD_REACTORS
330
47E3
102
}
330
2
100
AcDbEntity
  8
KIJUN
100
AcDbCircle
 10
121.8601074392154
 20
10.3964841193582
 30
0.0
 40
69.30970353372726
100
AcDbArc
 50
130.9727093849488
 51
134.5056728489815
  0
ARC
  5
478F
102
{ACAD_REACTORS
330
47E3
102
}
330
2
100
AcDbEntity
  8
KIJUN
100
AcDbCircle
 10
67.51368367039782
 20
70.30976615841211
 30
0.0
 40
9.447974867237286
100
AcDbArc
 50
307.577652693497
 51
358.2866786752465
  0
ARC
  5
4790
102
{ACAD_REACTORS
330
47E3
102
}
330
2
100
AcDbEntity
  8
KIJUN
100
AcDbCircle
 10
90.10612940923056
 20
80.47541507560532
 30
0.0
 40
14.28596507749318
100
AcDbArc
 50
178.306286844257
 51
226.2455834661015
  0
ARC
  5
4791
102
{ACAD_REACTORS
330
47E3
102
}
330
2
100
AcDbEntity
  8
KIJUN
100
AcDbCircle
 10
114.1535853829198
 20
97.88021145091443
 30
0.0
 40
33.72700296164636
100
AcDbArc
 50
178.2444406801981
 51
205.9043967935927
  0
ARC
  5
4792
102
{ACAD_REACTORS
330
47E3
102
}
330
2
100
AcDbEntity
  8
KIJUN
100
AcDbCircle
 10
70.09890429424093
 20
79.5187495960048
 30
0.0
 40
17.17633933802581
100
AcDbArc
 50
359.522936685396
 51
32.64142580634362
  0
ARC
  5
4793
102
{ACAD_REACTORS
330
47E3
102
}
330
2
100
AcDbEntity
  8
KIJUN
100
AcDbCircle
 10
90.79667446215934
 20
86.07953518404219
 30
0.0
 40
7.572687735183155
100
AcDbArc
 50
202.7928808390496
 51
242.283569523588
  0
ARC
  5
479B
102
{ACAD_REACTORS
330
47E3
102
}
330
2
100
AcDbEntity
  8
KIJUN
100
AcDbCircle
 10
192.0777245661405
 20
108.8542967133473
 30
0.0
 40
117.5296810324394
100
AcDbArc
 50
169.3862600358652
 51
181.0937899592517
  0
ARC
  5
479C
102
{ACAD_REACTORS
330
47E3
102
}
330
2
100
AcDbEntity
  8
KIJUN
100
AcDbCircle
 10
76.49357354707342
 20
152.5807077834741
 30
0.0
 40
1.376671365696347
100
AcDbArc
 50
55.53670644423541
 51
150.0120641009183
  0
LINE
  5
479D
102
{ACAD_REACTORS
330
47E3
102
}
330
2
100
AcDbEntity
  8
KIJUN
100
AcDbLine
 10
89.63526603895251
 20
48.17158140576447
 30
0.0
 11
90.2753997930837
 21
84.51463516634623
 31
0.0
  0
ARC
  5
479F
102
{ACAD_REACTORS
330
47E3
102
}
330
2
100
AcDbEntity
  8
KIJUN
100
AcDbCircle
 10
61.24403210447479
 20
145.733837628663
 30
0.0
 40
5.039383721475121
100
AcDbArc
 50
43.31113145479206
 51
170.3877315278403
  0
ARC
  5
47A0
102
{ACAD_REACTORS
330
47E3
102
}
330
2
100
AcDbEntity
  8
KIJUN
100
AcDbCircle
 10
65.61653788272725
 20
150.9851125461708
 30
0.0
 40
1.928220001591516
100
AcDbArc
 50
248.5333342172357
 51
311.8863314012227
  0
ARC
  5
47A1
102
{ACAD_REACTORS
330
47E3
102
}
330
2
100
AcDbEntity
  8
KIJUN
100
AcDbCircle
 10
71.05491977200433
 20
150.2301529980697
 30
0.0
 40
4.967771161082529
100
AcDbArc
 50
103.2551454315049
 51
145.7353567649246
  0
ARC
  5
47A2
102
{ACAD_REACTORS
330
47E3
102
}
330
2
100
AcDbEntity
  8
KIJUN
100
AcDbCircle
 10
69.11327496093917
 20
151.2597996732933
 30
0.0
 40
2.793919446047737
100
AcDbArc
 50
140.7616229127278
 51
217.7423476280774
  0
ARC
  5
47A3
102
{ACAD_REACTORS
330
47E3
102
}
330
2
100
AcDbEntity
  8
KIJUN
100
AcDbCircle
 10
58.61507424575165
 20
138.0033865005528
 30
0.0
 40
2.551822996185387
100
AcDbArc
 50
47.73858989259432
 51
156.4718317037814
  0
ARC
  5
47A4
102
{ACAD_REACTORS
330
47E3
102
}
330
2
100
AcDbEntity
  8
KIJUN
100
AcDbCircle
 10
67.50211388375095
 20
136.5748836039676
 30
0.0
 40
3.648926527508119
100
AcDbArc
 50
43.99826943488782
 51
136.0017305651092
  0
ARC
  5
47A5
102
{ACAD_REACTORS
330
47E3
102
}
330
2
100
AcDbEntity
  8
KIJUN
100
AcDbCircle
 10
63.07495226345088
 20
142.2359355786951
 30
0.0
 40
3.608653493964367
100
AcDbArc
 50
220.5073541620474
 51
299.9622443493872
  0
ARC
  5
47A6
102
{ACAD_REACTORS
330
47E3
102
}
330
2
100
AcDbEntity
  8
KIJUN
100
AcDbCircle
 10
59.02981310650273
 20
133.4107262904995
 30
0.0
 40
3.029549121787489
100
AcDbArc
 50
204.6073653513826
 51
309.3783296062341
  0
ARC
  5
47A7
102
{ACAD_REACTORS
330
47E3
102
}
330
2
100
AcDbEntity
  8
KIJUN
100
AcDbCircle
 10
66.94401601053442
 20
133.6650878228682
 30
0.0
 40
3.503194760172166
100
AcDbArc
 50
224.7298872190647
 51
341.103316755598
  0
ARC
  5
47A8
102
{ACAD_REACTORS
330
47E3
102
}
330
2
100
AcDbEntity
  8
KIJUN
100
AcDbCircle
 10
62.7683017066048
 20
129.3987157481789
 30
0.0
 40
2.467618021188233
100
AcDbArc
 50
46.87225350327038
 51
137.400701733195
  0
ARC
  5
47A9
102
{ACAD_REACTORS
330
47E3
102
}
330
2
100
AcDbEntity
  8
KIJUN
100
AcDbCircle
 10
51.36259517303225
 20
135.2549173939709
 30
0.0
 40
8.851575494799378
100
AcDbArc
 50
337.1711314236809
 51
22.82886857631907
  0
ARC
  5
47AA
102
{ACAD_REACTORS
330
47E3
102
}
330
2
100
AcDbEntity
  8
KIJUN
100
AcDbCircle
 10
61.21901118464757
 20
136.1416954515593
 30
0.0
 40
8.287094032648925
100
AcDbArc
 50
337.3678270966504
 51
10.70873916815236
  0
ARC
  5
47AB
102
{ACAD_REACTORS
330
47E3
102
}
330
2
100
AcDbEntity
  8
KIJUN
100
AcDbCircle
 10
60.06755387858522
 20
147.6569588246274
 30
0.0
 40
2.400571648462453
100
AcDbArc
 50
247.5567725153243
 51
68.64178754369309
  0
ARC
  5
47AC
102
{ACAD_REACTORS
330
47E3
102
}
330
2
100
AcDbEntity
  8
KIJUN
100
AcDbCircle
 10
63.15534950180361
 20
146.408681576631
 30
0.0
 40
4.120180173816848
100
AcDbArc
 50
193.623509088742
 51
254.0234048726364
  0
ARC
  5
47AD
102
{ACAD_REACTORS
330
47E3
102
}
330
2
100
AcDbEntity
  8
KIJUN
100
AcDbCircle
 10
64.28791293975655
 20
147.4556116108455
 30
0.0
 40
6.820682268097218
100
AcDbArc
 50
210.0462868929504
 51
263.907180840514
  0
ARC
  5
47AE
102
{ACAD_REACTORS
330
47E3
102
}
330
2
100
AcDbEntity
  8
KIJUN
100
AcDbCircle
 10
63.1875054771526
 20
147.884719648682
 30
0.0
 40
3.10978626877068
100
AcDbArc
 50
280.4093800308823
 51
4.805743567202632
  0
ARC
  5
47AF
102
{ACAD_REACTORS
330
47E3
102
}
330
2
100
AcDbEntity
  8
KIJUN
100
AcDbCircle
 10
62.55379245484971
 20
147.6696930142738
 30
0.0
 40
6.5066115814028
100
AcDbArc
 50
335.1356265090341
 51
14.90077444862081
  0
ARC
  5
47B0
102
{ACAD_REACTORS
330
47E3
102
}
330
2
100
AcDbEntity
  8
KIJUN
100
AcDbCircle
 10
161.2157882981285
 20
116.6135066457507
 30
0.0
 40
102.2072953790299
100
AcDbArc
 50
173.0048753122118
 51
180.1338579381409
  0
ARC
  5
47B1
102
{ACAD_REACTORS
330
47E3
102
}
330
2
100
AcDbEntity
  8
KIJUN
100
AcDbCircle
 10
18.56238568227292
 20
125.8251826113489
 30
0.0
 40
42.1987931509914
100
AcDbArc
 50
348.660617030697
 51
3.99699837346375
  0
ARC
  5
47B2
102
{ACAD_REACTORS
330
47E3
102
}
330
2
100
AcDbEntity
  8
KIJUN
100
AcDbCircle
 10
47.64365132647697
 20
124.8823192641568
 30
0.0
 40
16.30365085119876
100
AcDbArc
 50
317.6563646279329
 51
22.98358786594984
  0
ARC
  5
47B3
102
{ACAD_REACTORS
330
47E3
102
}
330
2
100
AcDbEntity
  8
KIJUN
100
AcDbCircle
 10
61.16638963582293
 20
113.9221459531761
 30
0.0
 40
3.266565925261881
100
AcDbArc
 50
131.339208057099
 51
232.4940014813449
  0
ARC
  5
47B4
102
{ACAD_REACTORS
330
47E3
102
}
330
2
100
AcDbEntity
  8
KIJUN
100
AcDbCircle
 10
46.32149475539026
 20
124.3864758101214
 30
0.0
 40
18.32290136775018
100
AcDbArc
 50
314.5586585069427
 51
343.8830832295921
  0
ARC
  5
47B5
102
{ACAD_REACTORS
330
47E3
102
}
330
2
100
AcDbEntity
  8
KIJUN
100
AcDbCircle
 10
60.83586210767149
 20
103.4497558850028
 30
0.0
 40
2.40527075591966
100
AcDbArc
 50
176.0389209205933
 51
325.9230354095452
  0
ARC
  5
47B6
102
{ACAD_REACTORS
330
47E3
102
}
330
2
100
AcDbEntity
  8
KIJUN
100
AcDbCircle
 10
82.64823273150204
 20
105.1827709922561
 30
0.0
 40
24.26254208868037
100
AcDbArc
 50
165.3214116097458
 51
183.7027072176663
  0
ARC
  5
47B7
102
{ACAD_REACTORS
330
47E3
102
}
330
2
100
AcDbEntity
  8
KIJUN
100
AcDbCircle
 10
123.3511110588218
 20
127.4885831534855
 30
0.0
 40
56.84420485624645
100
AcDbArc
 50
178.6908998576384
 51
187.8470257767716
  0
ARC
  5
47B8
102
{ACAD_REACTORS
330
47E3
102
}
330
2
100
AcDbEntity
  8
KIJUN
100
AcDbCircle
 10
15.30159328315142
 20
127.028254158391
 30
0.0
 40
49.75119920952666
100
AcDbArc
 50
334.3597833217834
 51
345.5665566839144
  0
ARC
  5
47B9
102
{ACAD_REACTORS
330
47E3
102
}
330
2
100
AcDbEntity
  8
KIJUN
100
AcDbCircle
 10
6.895058877799186
 20
124.0197458746677
 30
0.0
 40
60.07404751403983
100
AcDbArc
 50
338.6019950377141
 51
349.493085867934
  0
ARC
  5
47BA
102
{ACAD_REACTORS
330
47E3
102
}
330
2
100
AcDbEntity
  8
KIJUN
100
AcDbCircle
 10
9.833697047023406
 20
119.2433866962209
 30
0.0
 40
55.69769264475695
100
AcDbArc
 50
331.8362122887696
 51
342.0759304435886
  0
ARC
  5
47BB
102
{ACAD_REACTORS
330
47E3
102
}
330
2
100
AcDbEntity
  8
KIJUN
100
AcDbCircle
 10
61.39645188475504
 20
91.37358027902001
 30
0.0
 40
2.923785483269931
100
AcDbArc
 50
147.2696870596484
 51
247.5034490449572
  0
ARC
  5
47BC
102
{ACAD_REACTORS
330
47E3
102
}
330
2
100
AcDbEntity
  8
KIJUN
100
AcDbCircle
 10
70.2847565787755
 20
81.16559319329708
 30
0.0
 40
12.50963763482173
100
AcDbArc
 50
143.1248831704374
 51
200.2975927128074
  0
ARC
  5
47BD
102
{ACAD_REACTORS
330
47E3
102
}
330
2
100
AcDbEntity
  8
KIJUN
100
AcDbCircle
 10
51.73917238349616
 20
92.78566413250297
 30
0.0
 40
17.35289490522369
100
AcDbArc
 50
293.1163925655304
 51
309.5354438723547
  0
ARC
  5
47BE
102
{ACAD_REACTORS
330
47E3
102
}
330
2
100
AcDbEntity
  8
KIJUN
100
AcDbCircle
 10
63.60531359423021
 20
74.12403775780496
 30
0.0
 40
4.809853309176316
100
AcDbArc
 50
261.2362090573973
 51
304.4241851809065
  0
ARC
  5
47BF
102
{ACAD_REACTORS
330
47E3
102
}
330
2
100
AcDbEntity
  8
KIJUN
100
AcDbCircle
 10
84.13230931443132
 20
74.57168221445988
 30
0.0
 40
21.88685401276616
100
AcDbArc
 50
167.2486049769817
 51
193.7476975164949
  0
ARC
  5
47C0
102
{ACAD_REACTORS
330
47E3
102
}
330
2
100
AcDbEntity
  8
KIJUN
100
AcDbCircle
 10
74.49120105386265
 20
68.12148337709072
 30
0.0
 40
8.416532727808332
100
AcDbArc
 50
166.0078342736817
 51
226.6091094452293
  0
ARC
  5
47C1
102
{ACAD_REACTORS
330
47E3
102
}
330
2
100
AcDbEntity
  8
KIJUN
100
AcDbCircle
 10
49.78405188102579
 20
42.74629736861101
 30
0.0
 40
27.0013767030493
100
AcDbArc
 50
34.42208516530716
 51
45.50085709113503
  0
ARC
  5
47C2
102
{ACAD_REACTORS
330
47E3
102
}
330
2
100
AcDbEntity
  8
KIJUN
100
AcDbCircle
 10
59.04396884860446
 20
48.6810174545119
 30
0.0
 40
2.188552471374686
100
AcDbArc
 50
193.4603883644487
 51
303.7696998157976
  0
ARC
  5
47C3
102
{ACAD_REACTORS
330
47E3
102
}
330
2
100
AcDbEntity
  8
KIJUN
100
AcDbCircle
 10
66.96763334783611
 20
48.96670772726764
 30
0.0
 40
2.91732620181558
100
AcDbArc
 50
222.3043247941443
 51
330.6735204391373
  0
ARC
  5
47C4
102
{ACAD_REACTORS
330
47E3
102
}
330
2
100
AcDbEntity
  8
KIJUN
100
AcDbCircle
 10
62.62530180906395
 20
44.0359796445553
 30
0.0
 40
3.684718734025199
100
AcDbArc
 50
53.63567583832296
 51
129.9253668223995
  0
ARC
  5
47C5
102
{ACAD_REACTORS
330
47E3
102
}
330
2
100
AcDbEntity
  8
KIJUN
100
AcDbCircle
 10
58.72579412710703
 20
53.09931147177053
 30
0.0
 40
2.115322246025922
100
AcDbArc
 50
52.54699764733455
 51
154.733791040977
  0
ARC
  5
47C6
102
{ACAD_REACTORS
330
47E3
102
}
330
2
100
AcDbEntity
  8
KIJUN
100
AcDbCircle
 10
66.99281197855566
 20
53.60254071219532
 30
0.0
 40
2.736155542665104
100
AcDbArc
 50
24.95023746951139
 51
144.7865686951092
  0
ARC
  5
47C7
102
{ACAD_REACTORS
330
47E3
102
}
330
2
100
AcDbEntity
  8
KIJUN
100
AcDbCircle
 10
62.24407197540646
 20
56.64112789369221
 30
0.0
 40
2.90699908710301
100
AcDbArc
 50
219.8452797041179
 51
329.8324664504201
  0
ARC
  5
47C8
102
{ACAD_REACTORS
330
47E3
102
}
330
2
100
AcDbEntity
  8
KIJUN
100
AcDbCircle
 10
5.796817109186093
 20
119.4095083915596
 30
0.0
 40
62.284829399692
100
AcDbArc
 50
332.8967369168686
 51
348.616034954894
  0
ARC
  5
47C9
102
{ACAD_REACTORS
330
47E3
102
}
330
2
100
AcDbEntity
  8
KIJUN
100
AcDbCircle
 10
19.77990106685482
 20
114.1056728963463
 30
0.0
 40
47.59251684378078
100
AcDbArc
 50
351.5541535128605
 51
6.784120977449085
  0
ARC
  5
47CA
102
{ACAD_REACTORS
330
47E3
102
}
330
2
100
AcDbEntity
  8
KIJUN
100
AcDbCircle
 10
34.21774693649948
 20
119.3238913448201
 30
0.0
 40
31.25008050005409
100
AcDbArc
 50
332.1697982990424
 51
346.349081964255
  0
ARC
  5
47CB
102
{ACAD_REACTORS
330
47E3
102
}
330
2
100
AcDbEntity
  8
KIJUN
100
AcDbCircle
 10
60.97679282729422
 20
105.0579969946408
 30
0.0
 40
0.9342173443217202
100
AcDbArc
 50
151.7637893914036
 51
339.7535041854843
  0
ARC
  5
47CC
102
{ACAD_REACTORS
330
47E3
102
}
330
2
100
AcDbEntity
  8
KIJUN
100
AcDbCircle
 10
23.02624699114989
 20
95.89125299041331
 30
0.0
 40
45.40749522984671
100
AcDbArc
 50
341.117464892613
 51
9.404392804999957
  0
ARC
  5
47CD
102
{ACAD_REACTORS
330
47E3
102
}
330
2
100
AcDbEntity
  8
KIJUN
100
AcDbCircle
 10
40.74043539464883
 20
86.11793846859654
 30
0.0
 40
28.99630606713678
100
AcDbArc
 50
332.2960143464868
 51
3.528585124084875
  0
ARC
  5
47CE
102
{ACAD_REACTORS
330
47E3
102
}
330
2
100
AcDbEntity
  8
KIJUN
100
AcDbCircle
 10
80.7652020734422
 20
72.76746139098595
 30
0.0
 40
17.01015099916322
100
AcDbArc
 50
150.2969684681539
 51
186.7123280113972
  0
ARC
  5
47CF
102
{ACAD_REACTORS
330
47E3
102
}
330
2
100
AcDbEntity
  8
KIJUN
100
AcDbCircle
 10
63.2589342102724
 20
74.28352591645609
 30
0.0
 40
3.557448421136177
100
AcDbArc
 50
279.9177173120763
 51
332.437726503966
  0
ARC
  5
47D0
102
{ACAD_REACTORS
330
47E3
102
}
330
2
100
AcDbEntity
  8
KIJUN
100
AcDbCircle
 10
74.75845537601492
 20
68.28711990680642
 30
0.0
 40
7.23010138555019
100
AcDbArc
 50
162.129291215364
 51
230.2683651649322
  0
ARC
  5
47D1
102
{ACAD_REACTORS
330
47E3
102
}
330
2
100
AcDbEntity
  8
KIJUN
100
AcDbCircle
 10
24.69069214695202
 20
10.3964841193582
 30
0.0
 40
69.30970353372726
100
AcDbArc
 50
45.49432715101847
 51
49.0272906150512
  0
ARC
  5
47D2
102
{ACAD_REACTORS
330
47E3
102
}
330
2
100
AcDbEntity
  8
KIJUN
100
AcDbCircle
 10
79.03711591576956
 20
70.30976615841211
 30
0.0
 40
9.447974867237286
100
AcDbArc
 50
181.7133213247535
 51
232.4223473065028
  0
ARC
  5
47D3
102
{ACAD_REACTORS
330
47E3
102
}
330
2
100
AcDbEntity
  8
KIJUN
100
AcDbCircle
 10
56.44467017693682
 20
80.47541507560532
 30
0.0
 40
14.28596507749318
100
AcDbArc
 50
313.7544165338984
 51
1.693713155742923
  0
ARC
  5
47D4
102
{ACAD_REACTORS
330
47E3
102
}
330
2
100
AcDbEntity
  8
KIJUN
100
AcDbCircle
 10
32.39721420324759
 20
97.88021145091443
 30
0.0
 40
33.72700296164636
100
AcDbArc
 50
334.0956032064072
 51
1.755559319801829
  0
ARC
  5
47D5
102
{ACAD_REACTORS
330
47E3
102
}
330
2
100
AcDbEntity
  8
KIJUN
100
AcDbCircle
 10
76.45189529192646
 20
79.5187495960048
 30
0.0
 40
17.17633933802581
100
AcDbArc
 50
147.3585741936564
 51
180.477063314604
  0
ARC
  5
47D6
102
{ACAD_REACTORS
330
47E3
102
}
330
2
100
AcDbEntity
  8
KIJUN
100
AcDbCircle
 10
55.75412512400806
 20
86.07953518404219
 30
0.0
 40
7.572687735183155
100
AcDbArc
 50
297.7164304764121
 51
337.2071191609503
  0
ARC
  5
47D7
102
{ACAD_REACTORS
330
47E3
102
}
330
2
100
AcDbEntity
  8
KIJUN
100
AcDbCircle
 10
-45.52692497997319
 20
108.8542967133474
 30
0.0
 40
117.5296810324394
100
AcDbArc
 50
358.9062100407483
 51
10.61373996413479
  0
ARC
  5
47D8
102
{ACAD_REACTORS
330
47E3
102
}
330
2
100
AcDbEntity
  8
KIJUN
100
AcDbCircle
 10
66.27381182525141
 20
149.6481401040417
 30
0.0
 40
4.313122180804526
100
AcDbArc
 50
30.11104398473731
 51
56.16383863475899
  0
LINE
  5
47D9
102
{ACAD_REACTORS
330
47E3
102
}
330
2
100
AcDbEntity
  8
KIJUN
100
AcDbLine
 10
56.91553354721486
 20
48.17158140576452
 30
0.0
 11
56.2753997930837
 21
84.51463516634674
 31
0.0
  0
ARC
  5
47DA
102
{ACAD_REACTORS
330
47E3
102
}
330
2
100
AcDbEntity
  8
KIJUN
100
AcDbCircle
 10
64.19234224583999
 20
147.5034496658127
 30
0.0
 40
7.235251851314405
100
AcDbArc
 50
341.2710547537883
 51
36.54724193279051
  0
ARC
  5
47DB
102
{ACAD_REACTORS
330
47E3
102
}
330
2
100
AcDbEntity
  8
KIJUN
100
AcDbCircle
 10
67.71753166955403
 20
151.3224348499218
 30
0.0
 40
7.654524749172749
100
AcDbArc
 50
20.64019509066279
 51
43.44046394865493
  0
ARC
  5
47DC
102
{ACAD_REACTORS
330
47E3
102
}
330
2
100
AcDbEntity
  8
KIJUN
100
AcDbCircle
 10
76.11023884232588
 20
153.0266385250289
 30
0.0
 40
4.550072232688702
100
AcDbArc
 50
128.5378618057201
 51
167.3814791549642
  0
ARC
  5
47DE
102
{ACAD_REACTORS
330
47E3
102
}
330
2
100
AcDbEntity
  8
KIJUN
100
AcDbCircle
 10
73.27539979308369
 20
59.20411190037618
 30
0.0
 40
1.705885687282117
100
AcDbArc
 50
224.4374028519528
 51
315.5625971480501
  0
ARC
  5
47DF
102
{ACAD_REACTORS
330
47E3
102
}
330
2
100
AcDbEntity
  8
KIJUN
100
AcDbCircle
 10
70.57399656710027
 20
50.95118505385073
 30
0.0
 40
8.168861894587834
100
AcDbArc
 50
336.7786729956591
 51
19.58641860539213
  0
ARC
  5
47E0
102
{ACAD_REACTORS
330
47E3
102
}
330
2
100
AcDbEntity
  8
KIJUN
100
AcDbCircle
 10
78.92151043832388
 20
50.61722451070693
 30
0.0
 40
8.258647225553321
100
AcDbArc
 50
342.6764445096985
 51
15.51283706077993
  0
ARC
  5
47E1
102
{ACAD_REACTORS
330
47E3
102
}
330
2
100
AcDbEntity
  8
KIJUN
100
AcDbCircle
 10
75.97680301906712
 20
50.95118505385073
 30
0.0
 40
8.168861894587834
100
AcDbArc
 50
160.4135813946078
 51
203.2213270043408
  0
ARC
  5
47E2
102
{ACAD_REACTORS
330
47E3
102
}
330
2
100
AcDbEntity
  8
KIJUN
100
AcDbCircle
 10
67.6292891478435
 20
50.61722451070693
 30
0.0
 40
8.258647225553321
100
AcDbArc
 50
164.48716293922
 51
197.3235554903014
  0
ENDSEC
  0
SECTION
  2
OBJECTS
  0
DICTIONARY
  5
1A
330
0
100
AcDbDictionary
281
     1
  3
ACAD_COLOR
350
144
  3
ACAD_GROUP
350
18
  3
ACAD_LAYOUT
350
58
  3
ACAD_MATERIAL
350
143
  3
ACAD_MLINESTYLE
350
19
  3
ACAD_PLOTSETTINGS
350
59
  3
ACAD_PLOTSTYLENAME
350
56
  3
ACAD_TABLESTYLE
350
145
  3
ACDBHEADERROUNDTRIPXREC
350
4824
  3
AcDbVariableDictionary
350
1D1
  3
DWGPROPS
350
4823
  0
DICTIONARY
  5
1B4
330
A
100
AcDbDictionary
280
     1
281
     1
  3
ACAD_LAYERFILTERS
360
3AC9
  3
ACLYDICTIONARY
360
3AC8
  0
DICTIONARY
  5
D13
330
2
100
AcDbDictionary
280
     1
281
     1
  3
ACAD_SORTENTS
360
D14
  0
DICTIONARY
  5
144
102
{ACAD_REACTORS
330
1A
102
}
330
1A
100
AcDbDictionary
281
     1
  0
DICTIONARY
  5
18
102
{ACAD_REACTORS
330
1A
102
}
330
1A
100
AcDbDictionary
281
     1
  3
*A1
350
E0D
  3
*A10
350
17BC
  3
*A11
350
307D
  3
*A12
350
31DF
  3
*A13
350
4165
  3
*A14
350
3467
  3
*A15
350
275E
  3
*A16
350
2F81
  3
*A17
350
3695
  3
*A18
350
2573
  3
*A19
350
34BB
  3
*A2
350
3CF5
  3
*A20
350
2B84
  3
*A21
350
1555
  3
*A22
350
2905
  3
*A23
350
32E4
  3
*A24
350
4463
  3
*A25
350
1EFE
  3
*A26
350
36C9
  3
*A27
350
1A98
  3
*A28
350
3181
  3
*A29
350
3ACB
  3
*A3
350
24D6
  3
*A30
350
265A
  3
*A31
350
46C4
  3
*A32
350
3959
  3
*A33
350
2C6B
  3
*A34
350
22C8
  3
*A35
350
35A5
  3
*A36
350
2A17
  3
*A37
350
395F
  3
*A38
350
3349
  3
*A39
350
26DD
  3
*A4
350
2EE1
  3
*A40
350
1CBC
  3
*A41
350
213E
  3
*A42
350
2037
  3
*A43
350
470F
  3
*A44
350
47E3
  3
*A5
350
FF8
  3
*A6
350
39BC
  3
*A7
350
2D78
  3
*A8
350
241A
  3
*A9
350
136A
  0
DICTIONARY
  5
58
102
{ACAD_REACTORS
330
1A
102
}
330
1A
100
AcDbDictionary
281
     1
  3
Model
350
5A
  3
ﾚｲｱｳﾄ1
350
5B
  0
DICTIONARY
  5
143
102
{ACAD_REACTORS
330
1A
102
}
330
1A
100
AcDbDictionary
281
     1
  0
DICTIONARY
  5
19
102
{ACAD_REACTORS
330
1A
102
}
330
1A
100
AcDbDictionary
281
     1
  3
STANDARD
350
1D
  0
DICTIONARY
  5
59
102
{ACAD_REACTORS
330
1A
102
}
330
1A
100
AcDbDictionary
281
     1
  0
ACDBDICTIONARYWDFLT
  5
56
102
{ACAD_REACTORS
330
1A
102
}
330
1A
100
AcDbDictionary
281
     1
  3
Normal
350
57
100
AcDbDictionaryWithDefault
340
57
  0
DICTIONARY
  5
145
102
{ACAD_REACTORS
330
1A
102
}
330
1A
100
AcDbDictionary
281
     1
  3
Standard
350
146
  0
DICTIONARY
  5
4824
102
{ACAD_REACTORS
330
1A
102
}
330
1A
100
AcDbDictionary
281
     1
  0
DICTIONARY
  5
1D1
102
{ACAD_REACTORS
330
1A
102
}
330
1A
100
AcDbDictionary
281
     1
  3
CTABLESTYLE
350
1D2
  3
DIMASSOC
350
D03
  3
PROJECTNAME
350
D04
  0
XRECORD
  5
4823
102
{ACAD_REACTORS
330
1A
102
}
330
1A
100
AcDbXrecord
280
     1
  1
DWGPROPS COOKIE
  2

  3

  4

  6

  7

  8

  9

300
=
301
=
302
=
303
=
304
=
305
=
306
=
307
=
308
=
309
=
 40
1.179951539351851
 41
2450623.654673033
 42
2453930.549662997
  1

 90
        0
  0
DICTIONARY
  5
3AC9
102
{ACAD_REACTORS
330
1B4
102
}
330
1B4
100
AcDbDictionary
281
     1
  0
DICTIONARY
  5
3AC8
102
{ACAD_REACTORS
330
1B4
102
}
330
1B4
100
AcDbDictionary
281
     1
1001
ACAD
1000
<All
  0
SORTENTSTABLE
  5
D14
102
{ACAD_REACTORS
330
D13
102
}
330
D13
100
AcDbSortentsTable
330
2
331
4755
  5
4755
331
4757
  5
4757
331
4759
  5
4759
331
475B
  5
475B
331
475D
  5
475D
331
20
  5
3E97
331
4761
  5
4761
331
4763
  5
4763
331
4765
  5
4765
331
4767
  5
4767
331
4769
  5
4769
331
476B
  5
476B
331
476D
  5
476D
331
476F
  5
476F
331
4771
  5
4771
331
3628
  5
41D9
331
474A
  5
474A
331
474E
  5
474E
331
4750
  5
4750
331
4752
  5
4752
331
4754
  5
4754
331
4756
  5
4756
331
4758
  5
4758
331
475A
  5
475A
331
1F
  5
3B6C
331
475C
  5
475C
331
475E
  5
475E
331
21
  5
3E98
331
23
  5
41D8
331
4760
  5
4760
331
4762
  5
4762
331
4764
  5
4764
331
4766
  5
4766
331
476A
  5
476A
331
476C
  5
476C
331
476E
  5
476E
331
4770
  5
4770
331
4772
  5
4772
331
3635
  5
44B4
331
474B
  5
474B
331
474F
  5
474F
331
4751
  5
4751
331
4753
  5
4753
  0
GROUP
  5
E0D
102
{ACAD_REACTORS
330
18
102
}
330
18
100
AcDbGroup
300

 70
     1
 71
     1
  0
GROUP
  5
17BC
102
{ACAD_REACTORS
330
18
102
}
330
18
100
AcDbGroup
300

 70
     1
 71
     1
  0
GROUP
  5
307D
102
{ACAD_REACTORS
330
18
102
}
330
18
100
AcDbGroup
300

 70
     1
 71
     1
  0
GROUP
  5
31DF
102
{ACAD_REACTORS
330
18
102
}
330
18
100
AcDbGroup
300

 70
     1
 71
     1
  0
GROUP
  5
4165
102
{ACAD_REACTORS
330
18
102
}
330
18
100
AcDbGroup
300

 70
     1
 71
     1
  0
GROUP
  5
3467
102
{ACAD_REACTORS
330
18
102
}
330
18
100
AcDbGroup
300

 70
     1
 71
     1
  0
GROUP
  5
275E
102
{ACAD_REACTORS
330
18
102
}
330
18
100
AcDbGroup
300

 70
     1
 71
     1
  0
GROUP
  5
2F81
102
{ACAD_REACTORS
330
18
102
}
330
18
100
AcDbGroup
300

 70
     1
 71
     1
  0
GROUP
  5
3695
102
{ACAD_REACTORS
330
18
102
}
330
18
100
AcDbGroup
300

 70
     1
 71
     1
  0
GROUP
  5
2573
102
{ACAD_REACTORS
330
18
102
}
330
18
100
AcDbGroup
300

 70
     1
 71
     1
  0
GROUP
  5
34BB
102
{ACAD_REACTORS
330
18
102
}
330
18
100
AcDbGroup
300

 70
     1
 71
     1
  0
GROUP
  5
3CF5
102
{ACAD_REACTORS
330
18
102
}
330
18
100
AcDbGroup
300

 70
     1
 71
     1
  0
GROUP
  5
2B84
102
{ACAD_REACTORS
330
18
102
}
330
18
100
AcDbGroup
300

 70
     1
 71
     1
  0
GROUP
  5
1555
102
{ACAD_REACTORS
330
18
102
}
330
18
100
AcDbGroup
300

 70
     1
 71
     1
  0
GROUP
  5
2905
102
{ACAD_REACTORS
330
18
102
}
330
18
100
AcDbGroup
300

 70
     1
 71
     1
  0
GROUP
  5
32E4
102
{ACAD_REACTORS
330
18
102
}
330
18
100
AcDbGroup
300

 70
     1
 71
     1
  0
GROUP
  5
4463
102
{ACAD_REACTORS
330
18
102
}
330
18
100
AcDbGroup
300

 70
     1
 71
     1
  0
GROUP
  5
1EFE
102
{ACAD_REACTORS
330
18
102
}
330
18
100
AcDbGroup
300

 70
     1
 71
     1
  0
GROUP
  5
36C9
102
{ACAD_REACTORS
330
18
102
}
330
18
100
AcDbGroup
300

 70
     1
 71
     1
  0
GROUP
  5
1A98
102
{ACAD_REACTORS
330
18
102
}
330
18
100
AcDbGroup
300

 70
     1
 71
     1
  0
GROUP
  5
3181
102
{ACAD_REACTORS
330
18
102
}
330
18
100
AcDbGroup
300

 70
     1
 71
     1
  0
GROUP
  5
3ACB
102
{ACAD_REACTORS
330
18
102
}
330
18
100
AcDbGroup
300

 70
     1
 71
     1
  0
GROUP
  5
24D6
102
{ACAD_REACTORS
330
18
102
}
330
18
100
AcDbGroup
300

 70
     1
 71
     1
  0
GROUP
  5
265A
102
{ACAD_REACTORS
330
18
102
}
330
18
100
AcDbGroup
300

 70
     1
 71
     1
  0
GROUP
  5
46C4
102
{ACAD_REACTORS
330
18
102
}
330
18
100
AcDbGroup
300

 70
     1
 71
     1
  0
GROUP
  5
3959
102
{ACAD_REACTORS
330
18
102
}
330
18
100
AcDbGroup
300

 70
     1
 71
     1
  0
GROUP
  5
2C6B
102
{ACAD_REACTORS
330
18
102
}
330
18
100
AcDbGroup
300

 70
     1
 71
     1
  0
GROUP
  5
22C8
102
{ACAD_REACTORS
330
18
102
}
330
18
100
AcDbGroup
300

 70
     1
 71
     1
  0
GROUP
  5
35A5
102
{ACAD_REACTORS
330
18
102
}
330
18
100
AcDbGroup
300

 70
     1
 71
     1
  0
GROUP
  5
2A17
102
{ACAD_REACTORS
330
18
102
}
330
18
100
AcDbGroup
300

 70
     1
 71
     1
  0
GROUP
  5
395F
102
{ACAD_REACTORS
330
18
102
}
330
18
100
AcDbGroup
300

 70
     1
 71
     1
  0
GROUP
  5
3349
102
{ACAD_REACTORS
330
18
102
}
330
18
100
AcDbGroup
300

 70
     1
 71
     1
  0
GROUP
  5
26DD
102
{ACAD_REACTORS
330
18
102
}
330
18
100
AcDbGroup
300

 70
     1
 71
     1
  0
GROUP
  5
2EE1
102
{ACAD_REACTORS
330
18
102
}
330
18
100
AcDbGroup
300

 70
     1
 71
     1
  0
GROUP
  5
1CBC
102
{ACAD_REACTORS
330
18
102
}
330
18
100
AcDbGroup
300

 70
     1
 71
     1
  0
GROUP
  5
213E
102
{ACAD_REACTORS
330
18
102
}
330
18
100
AcDbGroup
300

 70
     1
 71
     1
  0
GROUP
  5
2037
102
{ACAD_REACTORS
330
18
102
}
330
18
100
AcDbGroup
300

 70
     1
 71
     1
  0
GROUP
  5
470F
102
{ACAD_REACTORS
330
18
102
}
330
18
100
AcDbGroup
300

 70
     1
 71
     1
  0
GROUP
  5
47E3
102
{ACAD_REACTORS
330
18
102
}
330
18
100
AcDbGroup
300

 70
     1
 71
     1
340
47E2
340
47E1
340
47E0
340
47DF
340
47DE
340
47DC
340
47DB
340
47DA
340
47D9
340
47D8
340
47D7
340
47D6
340
47D5
340
47D4
340
47D3
340
47D2
340
47D1
340
47D0
340
47CF
340
47CE
340
47CD
340
47CC
340
47CB
340
47CA
340
47C9
340
47C8
340
47C7
340
47C6
340
47C5
340
47C4
340
47C3
340
47C2
340
47C1
340
47C0
340
47BF
340
47BE
340
47BD
340
47BC
340
47BB
340
47BA
340
47B9
340
47B8
340
47B7
340
47B6
340
47B5
340
47B4
340
47B3
340
47B2
340
47B1
340
47B0
340
47AF
340
47AE
340
47AD
340
47AC
340
47AB
340
47AA
340
47A9
340
47A8
340
47A7
340
47A6
340
47A5
340
47A4
340
47A3
340
47A2
340
47A1
340
47A0
340
479F
340
479D
340
479C
340
479B
340
4793
340
4792
340
4791
340
4790
340
478F
340
478E
340
478D
340
478C
340
478B
340
4789
340
4788
340
4787
340
4786
340
4785
340
4784
340
4782
340
4781
340
4780
340
477F
340
477E
340
477C
340
477B
340
477A
340
4779
340
4778
340
4777
340
4776
340
4775
340
4774
340
4773
340
4772
340
4771
340
4770
340
476F
340
476E
340
476D
340
476C
340
476B
340
476A
340
4769
340
4767
340
4766
340
4765
340
4764
340
4763
340
4762
340
4761
340
4760
340
475E
340
475D
340
475C
340
475B
340
475A
340
4759
340
4758
340
4757
340
4756
340
4755
340
4754
340
4753
340
4752
340
4751
340
4750
340
474F
340
474E
340
474B
340
474A
  0
GROUP
  5
FF8
102
{ACAD_REACTORS
330
18
102
}
330
18
100
AcDbGroup
300

 70
     1
 71
     1
  0
GROUP
  5
39BC
102
{ACAD_REACTORS
330
18
102
}
330
18
100
AcDbGroup
300

 70
     1
 71
     1
  0
GROUP
  5
2D78
102
{ACAD_REACTORS
330
18
102
}
330
18
100
AcDbGroup
300

 70
     1
 71
     1
  0
GROUP
  5
241A
102
{ACAD_REACTORS
330
18
102
}
330
18
100
AcDbGroup
300

 70
     1
 71
     1
  0
GROUP
  5
136A
102
{ACAD_REACTORS
330
18
102
}
330
18
100
AcDbGroup
300

 70
     1
 71
     1
  0
LAYOUT
  5
5A
102
{ACAD_XDICTIONARY
360
4825
102
}
102
{ACAD_REACTORS
330
58
102
}
330
58
100
AcDbPlotSettings
  1

  2
なし
  4

  6

 40
0.0
 41
0.0
 42
0.0
 43
0.0
 44
0.0
 45
0.0
 46
0.0
 47
0.0
 48
0.0
 49
0.0
140
0.0
141
0.0
142
1.0
143
1.0
 70
  1712
 72
     0
 73
     0
 74
     0
  7
monochrome.ctb
 75
     0
147
1.0
148
0.0
149
0.0
100
AcDbLayout
  1
Model
 70
     1
 71
     0
 10
0.0
 20
0.0
 11
12.0
 21
9.0
 12
0.0
 22
0.0
 32
0.0
 14
0.0
 24
0.0
 34
0.0
 15
0.0
 25
0.0
 35
0.0
146
0.0
 13
0.0
 23
0.0
 33
0.0
 16
1.0
 26
0.0
 36
0.0
 17
0.0
 27
1.0
 37
0.0
 76
     0
330
2
  0
LAYOUT
  5
5B
102
{ACAD_XDICTIONARY
360
4827
102
}
102
{ACAD_REACTORS
330
58
102
}
330
58
100
AcDbPlotSettings
  1

  2
なし
  4

  6

 40
0.0
 41
0.0
 42
0.0
 43
0.0
 44
0.0
 45
0.0
 46
0.0
 47
0.0
 48
0.0
 49
0.0
140
0.0
141
0.0
142
1.0
143
1.0
 70
   688
 72
     0
 73
     0
 74
     5
  7
monochrome.ctb
 75
    16
147
1.0
148
0.0
149
0.0
100
AcDbLayout
  1
ﾚｲｱｳﾄ1
 70
     1
 71
     1
 10
0.0
 20
0.0
 11
12.0
 21
9.0
 12
0.0
 22
0.0
 32
0.0
 14
1.000000000000000E+20
 24
1.000000000000000E+20
 34
1.000000000000000E+20
 15
-1.000000000000000E+20
 25
-1.000000000000000E+20
 35
-1.000000000000000E+20
146
0.0
 13
0.0
 23
0.0
 33
0.0
 16
1.0
 26
0.0
 36
0.0
 17
0.0
 27
1.0
 37
0.0
 76
     0
330
7
  0
MLINESTYLE
  5
1D
102
{ACAD_REACTORS
330
19
102
}
330
19
100
AcDbMlineStyle
  2
STANDARD
 70
     0
  3

 62
   256
 51
90.0
 52
90.0
 71
     2
 49
0.5
 62
   256
  6
BYLAYER
 49
-0.5
 62
   256
  6
BYLAYER
  0
ACDBPLACEHOLDER
  5
57
102
{ACAD_REACTORS
330
56
102
}
330
56
  0
TABLESTYLE
  5
146
102
{ACAD_REACTORS
330
145
102
}
330
145
100
AcDbTableStyle
  3
Standard
 70
     0
 71
     0
 40
0.06
 41
0.06
280
     0
281
     0
  7
STANDARD
140
0.18
170
     2
 62
     0
 63
     7
283
     0
274
    -2
284
     1
 64
     0
275
    -2
285
     1
 65
     0
276
    -2
286
     1
 66
     0
277
    -2
287
     1
 67
     0
278
    -2
288
     1
 68
     0
279
    -2
289
     1
 69
     0
  7
STANDARD
140
0.25
170
     5
 62
     0
 63
     7
283
     0
274
    -2
284
     1
 64
     0
275
    -2
285
     1
 65
     0
276
    -2
286
     1
 66
     0
277
    -2
287
     1
 67
     0
278
    -2
288
     1
 68
     0
279
    -2
289
     1
 69
     0
  7
STANDARD
140
0.18
170
     5
 62
     0
 63
     7
283
     0
274
    -2
284
     1
 64
     0
275
    -2
285
     1
 65
     0
276
    -2
286
     1
 66
     0
277
    -2
287
     1
 67
     0
278
    -2
288
     1
 68
     0
279
    -2
289
     1
 69
     0
  0
DICTIONARYVAR
  5
1D2
102
{ACAD_REACTORS
330
1D1
102
}
330
1D1
100
DictionaryVariables
280
     0
  1
STANDARD
  0
DICTIONARYVAR
  5
D03
102
{ACAD_REACTORS
330
1D1
102
}
330
1D1
100
DictionaryVariables
280
     0
  1
1
  0
DICTIONARYVAR
  5
D04
102
{ACAD_REACTORS
330
1D1
102
}
330
1D1
100
DictionaryVariables
280
     0
  1

  0
DICTIONARY
  5
4825
330
5A
100
AcDbDictionary
280
     1
281
     1
  3
ACAD_XREC_ROUNDTRIP
360
4826
  0
DICTIONARY
  5
4827
330
5B
100
AcDbDictionary
280
     1
281
     1
  3
ACAD_XREC_ROUNDTRIP
360
4828
  0
XRECORD
  5
4826
102
{ACAD_REACTORS
330
4825
102
}
330
4825
100
AcDbXrecord
280
     1
102
SHADEPLOT
 70
     0
102
SHADEPLOTRESLEVEL
 70
     2
102
SHADEPLOTCUSTOMDPI
 70
   300
  0
XRECORD
  5
4828
102
{ACAD_REACTORS
330
4827
102
}
330
4827
100
AcDbXrecord
280
     1
102
SHADEPLOT
 70
     0
102
SHADEPLOTRESLEVEL
 70
     2
102
SHADEPLOTCUSTOMDPI
 70
   300
  0
ENDSEC
  0
EOF
