  0
SECTION
  2
HEADER
  9
$ACADVER
  1
AC1015
  9
$ACADMAINTVER
 70
    20
  9
$DWGCODEPAGE
  3
ANSI_932
  9
$INSBASE
 10
922.019522
 20
-675.4306699999999
 30
0.0
  9
$EXTMIN
 10
-0.0126174269937565
 20
-0.0061283241379897
 30
-0.0000000000000053
  9
$EXTMAX
 10
148.6929651979848
 20
107.7006856721006
 30
0.0000000000000099
  9
$LIMMIN
 10
0.0
 20
0.0
  9
$LIMMAX
 10
420.0
 20
297.0
  9
$ORTHOMODE
 70
     1
  9
$REGENMODE
 70
     1
  9
$FILLMODE
 70
     1
  9
$QTEXTMODE
 70
     0
  9
$MIRRTEXT
 70
     1
  9
$LTSCALE
 40
1.0
  9
$ATTMODE
 70
     1
  9
$TEXTSIZE
 40
30.0
  9
$TRACEWID
 40
0.05
  9
$TEXTSTYLE
  7
SUNPOU
  9
$CLAYER
  8
0
  9
$CELTYPE
  6
BYLAYER
  9
$CECOLOR
 62
   256
  9
$CELTSCALE
 40
1.0
  9
$DISPSILH
 70
     0
  9
$DIMSCALE
 40
1.0
  9
$DIMASZ
 40
2.0
  9
$DIMEXO
 40
10.0
  9
$DIMDLI
 40
0.38
  9
$DIMRND
 40
0.0
  9
$DIMDLE
 40
0.0
  9
$DIMEXE
 40
0.0
  9
$DIMTP
 40
0.0
  9
$DIMTM
 40
0.0
  9
$DIMTXT
 40
5.0
  9
$DIMCEN
 40
0.0
  9
$DIMTSZ
 40
0.0
  9
$DIMTOL
 70
     0
  9
$DIMLIM
 70
     0
  9
$DIMTIH
 70
     0
  9
$DIMTOH
 70
     0
  9
$DIMSE1
 70
     0
  9
$DIMSE2
 70
     0
  9
$DIMTAD
 70
     1
  9
$DIMZIN
 70
     0
  9
$DIMBLK
  1
Dot
  9
$DIMASO
 70
     1
  9
$DIMSHO
 70
     1
  9
$DIMPOST
  1

  9
$DIMAPOST
  1

  9
$DIMALT
 70
     0
  9
$DIMALTD
 70
     2
  9
$DIMALTF
 40
25.4
  9
$DIMLFAC
 40
1.0
  9
$DIMTOFL
 70
     0
  9
$DIMTVP
 40
0.0
  9
$DIMTIX
 70
     0
  9
$DIMSOXD
 70
     0
  9
$DIMSAH
 70
     0
  9
$DIMBLK1
  1

  9
$DIMBLK2
  1

  9
$DIMSTYLE
  2
STANDARD
  9
$DIMCLRD
 70
    60
  9
$DIMCLRE
 70
    70
  9
$DIMCLRT
 70
    60
  9
$DIMTFAC
 40
0.064286
  9
$DIMGAP
 40
3.0
  9
$DIMJUST
 70
     0
  9
$DIMSD1
 70
     0
  9
$DIMSD2
 70
     0
  9
$DIMTOLJ
 70
     1
  9
$DIMTZIN
 70
     0
  9
$DIMALTZ
 70
     0
  9
$DIMALTTZ
 70
     0
  9
$DIMUPT
 70
     0
  9
$DIMDEC
 70
     0
  9
$DIMTDEC
 70
     0
  9
$DIMALTU
 70
     2
  9
$DIMALTTD
 70
     2
  9
$DIMTXSTY
  7
SUNPOU
  9
$DIMAUNIT
 70
     0
  9
$DIMADEC
 70
     0
  9
$DIMALTRND
 40
0.0
  9
$DIMAZIN
 70
     0
  9
$DIMDSEP
 70
    46
  9
$DIMATFIT
 70
     3
  9
$DIMFRAC
 70
     0
  9
$DIMLDRBLK
  1

  9
$DIMLUNIT
 70
     2
  9
$DIMLWD
 70
    -2
  9
$DIMLWE
 70
    -2
  9
$DIMTMOVE
 70
     0
  9
$LUNITS
 70
     2
  9
$LUPREC
 70
     5
  9
$SKETCHINC
 40
0.1
  9
$FILLETRAD
 40
3.5
  9
$AUNITS
 70
     0
  9
$AUPREC
 70
     0
  9
$MENU
  1
acad
  9
$ELEVATION
 40
0.0
  9
$PELEVATION
 40
0.0
  9
$THICKNESS
 40
0.0
  9
$LIMCHECK
 70
     0
  9
$CHAMFERA
 40
0.0
  9
$CHAMFERB
 40
0.0
  9
$CHAMFERC
 40
0.0
  9
$CHAMFERD
 40
0.0
  9
$SKPOLY
 70
     0
  9
$TDCREATE
 40
2450623.654673033
  9
$TDUCREATE
 40
2450623.279673032
  9
$TDUPDATE
 40
2453868.626743993
  9
$TDUUPDATE
 40
2453868.251743994
  9
$TDINDWG
 40
0.7901003241
  9
$TDUSRTIMER
 40
0.7901001505
  9
$USRTIMER
 70
     1
  9
$ANGBASE
 50
0.0
  9
$ANGDIR
 70
     0
  9
$PDMODE
 70
     0
  9
$PDSIZE
 40
0.0
  9
$PLINEWID
 40
0.0
  9
$SPLFRAME
 70
     0
  9
$SPLINETYPE
 70
     6
  9
$SPLINESEGS
 70
     8
  9
$HANDSEED
  5
4E23
  9
$SURFTAB1
 70
     6
  9
$SURFTAB2
 70
     6
  9
$SURFTYPE
 70
     6
  9
$SURFU
 70
     6
  9
$SURFV
 70
     6
  9
$UCSBASE
  2

  9
$UCSNAME
  2

  9
$UCSORG
 10
0.0
 20
0.0
 30
0.0
  9
$UCSXDIR
 10
1.0
 20
0.0
 30
0.0
  9
$UCSYDIR
 10
0.0
 20
1.0
 30
0.0
  9
$UCSORTHOREF
  2

  9
$UCSORTHOVIEW
 70
     0
  9
$UCSORGTOP
 10
0.0
 20
0.0
 30
0.0
  9
$UCSORGBOTTOM
 10
0.0
 20
0.0
 30
0.0
  9
$UCSORGLEFT
 10
0.0
 20
0.0
 30
0.0
  9
$UCSORGRIGHT
 10
0.0
 20
0.0
 30
0.0
  9
$UCSORGFRONT
 10
0.0
 20
0.0
 30
0.0
  9
$UCSORGBACK
 10
0.0
 20
0.0
 30
0.0
  9
$PUCSBASE
  2

  9
$PUCSNAME
  2

  9
$PUCSORG
 10
0.0
 20
0.0
 30
0.0
  9
$PUCSXDIR
 10
1.0
 20
0.0
 30
0.0
  9
$PUCSYDIR
 10
0.0
 20
1.0
 30
0.0
  9
$PUCSORTHOREF
  2

  9
$PUCSORTHOVIEW
 70
     0
  9
$PUCSORGTOP
 10
0.0
 20
0.0
 30
0.0
  9
$PUCSORGBOTTOM
 10
0.0
 20
0.0
 30
0.0
  9
$PUCSORGLEFT
 10
0.0
 20
0.0
 30
0.0
  9
$PUCSORGRIGHT
 10
0.0
 20
0.0
 30
0.0
  9
$PUCSORGFRONT
 10
0.0
 20
0.0
 30
0.0
  9
$PUCSORGBACK
 10
0.0
 20
0.0
 30
0.0
  9
$USERI1
 70
     0
  9
$USERI2
 70
     0
  9
$USERI3
 70
     0
  9
$USERI4
 70
     0
  9
$USERI5
 70
     0
  9
$USERR1
 40
0.0
  9
$USERR2
 40
0.0
  9
$USERR3
 40
0.0
  9
$USERR4
 40
0.0
  9
$USERR5
 40
0.0
  9
$WORLDVIEW
 70
     1
  9
$SHADEDGE
 70
     3
  9
$SHADEDIF
 70
    70
  9
$TILEMODE
 70
     1
  9
$MAXACTVP
 70
    16
  9
$PINSBASE
 10
0.0
 20
0.0
 30
0.0
  9
$PLIMCHECK
 70
     0
  9
$PEXTMIN
 10
1.000000000000000E+20
 20
1.000000000000000E+20
 30
1.000000000000000E+20
  9
$PEXTMAX
 10
-1.000000000000000E+20
 20
-1.000000000000000E+20
 30
-1.000000000000000E+20
  9
$PLIMMIN
 10
0.0
 20
0.0
  9
$PLIMMAX
 10
12.0
 20
9.0
  9
$UNITMODE
 70
     0
  9
$VISRETAIN
 70
     0
  9
$PLINEGEN
 70
     0
  9
$PSLTSCALE
 70
     1
  9
$TREEDEPTH
 70
  3020
  9
$CMLSTYLE
  2
STANDARD
  9
$CMLJUST
 70
     0
  9
$CMLSCALE
 40
1.0
  9
$PROXYGRAPHICS
 70
     1
  9
$MEASUREMENT
 70
     0
  9
$CELWEIGHT
370
    -1
  9
$ENDCAPS
280
     0
  9
$JOINSTYLE
280
     0
  9
$LWDISPLAY
290
     0
  9
$INSUNITS
 70
     0
  9
$HYPERLINKBASE
  1

  9
$STYLESHEET
  1

  9
$XEDIT
290
     1
  9
$CEPSNTYPE
380
     0
  9
$PSTYLEMODE
290
     1
  9
$FINGERPRINTGUID
  2
{FB88A696-E29C-4009-92AF-A3599A8169D5}
  9
$VERSIONGUID
  2
{40F6F50D-2E9E-4055-8E5C-68169851A951}
  9
$EXTNAMES
290
     1
  9
$PSVPSCALE
 40
0.0
  9
$OLESTARTUP
290
     0
  0
ENDSEC
  0
SECTION
  2
CLASSES
  0
CLASS
  1
DICTIONARYVAR
  2
AcDbDictionaryVar
  3
ObjectDBX Classes
 90
        0
280
     0
281
     0
  0
CLASS
  1
ACDBDICTIONARYWDFLT
  2
AcDbDictionaryWithDefault
  3
ObjectDBX Classes
 90
        0
280
     0
281
     0
  0
CLASS
  1
ACDBPLACEHOLDER
  2
AcDbPlaceHolder
  3
ObjectDBX Classes
 90
        0
280
     0
281
     0
  0
CLASS
  1
LAYOUT
  2
AcDbLayout
  3
ObjectDBX Classes
 90
        0
280
     0
281
     0
  0
CLASS
  1
TABLESTYLE
  2
AcDbTableStyle
  3
ObjectDBX Classes
 90
     2047
280
     0
281
     0
  0
CLASS
  1
SORTENTSTABLE
  2
AcDbSortentsTable
  3
ObjectDBX Classes
 90
        0
280
     0
281
     0
  0
ENDSEC
  0
SECTION
  2
TABLES
  0
TABLE
  2
VPORT
  5
12
330
0
100
AcDbSymbolTable
 70
    26
  0
VPORT
  5
4E1D
330
12
100
AcDbSymbolTableRecord
100
AcDbViewportTableRecord
  2
*Active
 70
     0
 10
0.0
 20
0.0
 11
1.0
 21
1.0
 12
74.34017388549555
 22
53.8472786739813
 13
0.0
 23
0.0
 14
1.0
 24
1.0
 15
0.0
 25
0.0
 16
0.0
 26
0.0
 36
1.0
 17
0.0
 27
0.0
 37
0.0
 40
108.5342671127269
 41
1.565384615384615
 42
50.0
 43
0.0
 44
0.0
 50
0.0
 51
0.0
 71
     0
 72
 20000
 73
     1
 74
     1
 75
     0
 76
     0
 77
     0
 78
     0
281
     0
 65
     1
110
0.0
120
0.0
130
0.0
111
1.0
121
0.0
131
0.0
112
0.0
122
1.0
132
0.0
 79
     0
146
0.0
  0
ENDTAB
  0
TABLE
  2
LTYPE
  5
D
330
0
100
AcDbSymbolTable
 70
     2
  0
LTYPE
  5
E
330
D
100
AcDbSymbolTableRecord
100
AcDbLinetypeTableRecord
  2
BYBLOCK
 70
     0
  3

 72
    65
 73
     0
 40
0.0
  0
LTYPE
  5
F
330
D
100
AcDbSymbolTableRecord
100
AcDbLinetypeTableRecord
  2
BYLAYER
 70
     0
  3

 72
    65
 73
     0
 40
0.0
  0
LTYPE
  5
5
330
D
100
AcDbSymbolTableRecord
100
AcDbLinetypeTableRecord
  2
CONTINUOUS
 70
     0
  3
Solid line
 72
    65
 73
     0
 40
0.0
  0
ENDTAB
  0
TABLE
  2
LAYER
  5
A
102
{ACAD_XDICTIONARY
360
1B4
102
}
330
0
100
AcDbSymbolTable
 70
     6
  0
LAYER
  5
4
330
A
100
AcDbSymbolTableRecord
100
AcDbLayerTableRecord
  2
0
 70
     0
 62
     7
  6
CONTINUOUS
370
    -3
390
57
  0
LAYER
  5
25
330
A
100
AcDbSymbolTableRecord
100
AcDbLayerTableRecord
  2
KIJUN
 70
     0
 62
     7
  6
CONTINUOUS
370
    -3
390
57
  0
LAYER
  5
22
330
A
100
AcDbSymbolTableRecord
100
AcDbLayerTableRecord
  2
HOJO
 70
     0
 62
     3
  6
CONTINUOUS
370
    -3
390
57
  0
LAYER
  5
1B
330
A
100
AcDbSymbolTableRecord
100
AcDbLayerTableRecord
  2
WAKU
 70
     0
 62
     1
  6
CONTINUOUS
370
    -3
390
57
  0
LAYER
  5
31
330
A
100
AcDbSymbolTableRecord
100
AcDbLayerTableRecord
  2
DEFPOINTS
 70
     0
 62
     7
  6
CONTINUOUS
290
     0
370
    -3
390
57
  0
LAYER
  5
28
330
A
100
AcDbSymbolTableRecord
100
AcDbLayerTableRecord
  2
SUNPOU
 70
     0
 62
    70
  6
CONTINUOUS
370
    -3
390
57
  0
ENDTAB
  0
TABLE
  2
STYLE
  5
B
330
0
100
AcDbSymbolTable
 70
     3
  0
STYLE
  5
C
330
B
100
AcDbSymbolTableRecord
100
AcDbTextStyleTableRecord
  2
STANDARD
 70
     0
 40
0.0
 41
1.0
 50
0.0
 71
     0
 42
0.2
  3
txt
  4

  0
STYLE
  5
1C
330
B
100
AcDbSymbolTableRecord
100
AcDbTextStyleTableRecord
  2
SUNPOU
 70
     0
 40
0.0
 41
1.0
 50
0.0
 71
     0
 42
30.0
  3
txt
  4
bigfont
  0
STYLE
  5
14A
330
B
100
AcDbSymbolTableRecord
100
AcDbTextStyleTableRecord
  2
LIFE
 70
     0
 40
0.0
 41
0.7
 50
0.0
 71
     0
 42
10.0
  3
romans
  4
extfont
  0
ENDTAB
  0
TABLE
  2
VIEW
  5
10
330
0
100
AcDbSymbolTable
 70
     0
  0
ENDTAB
  0
TABLE
  2
UCS
  5
11
330
0
100
AcDbSymbolTable
 70
     0
  0
ENDTAB
  0
TABLE
  2
APPID
  5
14
330
0
100
AcDbSymbolTable
 70
    10
  0
APPID
  5
15
330
14
100
AcDbSymbolTableRecord
100
AcDbRegAppTableRecord
  2
ACAD
 70
     0
  0
APPID
  5
1D3
330
14
100
AcDbSymbolTableRecord
100
AcDbRegAppTableRecord
  2
ACAD_DSTYLE_DIMTEXT_FILL
 70
     0
  0
APPID
  5
1D4
330
14
100
AcDbSymbolTableRecord
100
AcDbRegAppTableRecord
  2
ACAD_DSTYLE_DIMEXT_LENGTH
 70
     0
  0
APPID
  5
1D5
330
14
100
AcDbSymbolTableRecord
100
AcDbRegAppTableRecord
  2
ACAD_DSTYLE_DIMEXT_ENABLED
 70
     0
  0
APPID
  5
1D6
330
14
100
AcDbSymbolTableRecord
100
AcDbRegAppTableRecord
  2
ACAD_DSTYLE_DIM_LINETYPE
 70
     0
  0
APPID
  5
1D7
330
14
100
AcDbSymbolTableRecord
100
AcDbRegAppTableRecord
  2
ACAD_DSTYLE_DIM_EXT1_LINETYPE
 70
     0
  0
APPID
  5
1D8
330
14
100
AcDbSymbolTableRecord
100
AcDbRegAppTableRecord
  2
ACAD_DSTYLE_DIM_EXT2_LINETYPE
 70
     0
  0
APPID
  5
294
330
14
100
AcDbSymbolTableRecord
100
AcDbRegAppTableRecord
  2
ACAD_DSTYLE_DIMJOGGED_JOGANGLE_SYMBOL
 70
     0
  0
APPID
  5
478
330
14
100
AcDbSymbolTableRecord
100
AcDbRegAppTableRecord
  2
ACAD_DSTYLE_DIMARC_LENGTH_SYMBOL
 70
     0
  0
APPID
  5
F55
330
14
100
AcDbSymbolTableRecord
100
AcDbRegAppTableRecord
  2
ACAD_EXEMPT_FROM_CAD_STANDARDS
 70
     0
  0
ENDTAB
  0
TABLE
  2
DIMSTYLE
  5
16
330
0
100
AcDbSymbolTable
 70
     3
100
AcDbDimStyleTable
 71
     1
340
1E
  0
DIMSTYLE
105
1E
102
{ACAD_REACTORS
330
4DC8
330
4DD5
102
}
330
16
100
AcDbSymbolTableRecord
100
AcDbDimStyleTableRecord
  2
STANDARD
 70
     0
340
C
  0
DIMSTYLE
105
1005
330
16
100
AcDbSymbolTableRecord
100
AcDbDimStyleTableRecord
  2
1-100
 70
     0
 40
100.0
 41
0.7
 42
2.5
 43
5.0
 44
1.0
 77
     1
147
1.0
172
     1
176
     3
177
     3
271
     2
272
     2
279
     2
340
C
342
109
  0
ENDTAB
  0
TABLE
  2
BLOCK_RECORD
  5
1
330
0
100
AcDbSymbolTable
 70
    42
  0
BLOCK_RECORD
  5
2
102
{ACAD_XDICTIONARY
360
D13
102
}
330
1
100
AcDbSymbolTableRecord
100
AcDbBlockTableRecord
  2
*MODEL_SPACE
340
5A
  0
BLOCK_RECORD
  5
7
330
1
100
AcDbSymbolTableRecord
100
AcDbBlockTableRecord
  2
*PAPER_SPACE
340
5B
  0
BLOCK_RECORD
  5
109
330
1
100
AcDbSymbolTableRecord
100
AcDbBlockTableRecord
  2
_Dot
340
0
102
{BLKREFS
331
421F
331
4220
331
4228
331
4229
331
4321
331
4322
331
432A
331
432B
331
43AC
331
43AD
331
43B9
331
43BA
331
44FE
331
44FF
331
4510
331
4511
331
4599
331
459A
331
45CD
331
45CE
331
467E
331
467F
331
468B
331
468C
331
475A
331
475B
331
4767
331
4768
331
48C7
331
48C8
331
48D9
331
48DA
331
4A60
331
4A61
331
4A72
331
4A73
331
4B22
331
4B23
331
4B2F
331
4B30
331
4C2F
331
4C30
331
4C38
331
4C39
331
4CC5
331
4CC6
331
4CD2
331
4CD3
331
4D4F
331
4D50
331
4D5C
331
4D5D
331
4DCD
331
4DCE
331
4DDA
331
4DDB
102
}
  0
BLOCK_RECORD
  5
3995
330
1
100
AcDbSymbolTableRecord
100
AcDbBlockTableRecord
  2
151
340
0
310
2800000020000000200000000100080000000000000400000000000000000000000000000000000000000000000080000080000000808000800000008000800080800000C0C0C000C0DCC000F0CAA6000020400000206000002080000020A0000020C0000020E00000400000004020000040400000406000004080000040A0
310
000040C0000040E00000600000006020000060400000606000006080000060A0000060C0000060E00000800000008020000080400000806000008080000080A0000080C0000080E00000A0000000A0200000A0400000A0600000A0800000A0A00000A0C00000A0E00000C0000000C0200000C0400000C0600000C0800000C0
310
A00000C0C00000C0E00000E0000000E0200000E0400000E0600000E0800000E0A00000E0C00000E0E00040000000400020004000400040006000400080004000A0004000C0004000E00040200000402020004020400040206000402080004020A0004020C0004020E000404000004040200040404000404060004040800040
310
40A0004040C0004040E00040600000406020004060400040606000406080004060A0004060C0004060E00040800000408020004080400040806000408080004080A0004080C0004080E00040A0000040A0200040A0400040A0600040A0800040A0A00040A0C00040A0E00040C0000040C0200040C0400040C0600040C08000
310
40C0A00040C0C00040C0E00040E0000040E0200040E0400040E0600040E0800040E0A00040E0C00040E0E00080000000800020008000400080006000800080008000A0008000C0008000E00080200000802020008020400080206000802080008020A0008020C0008020E00080400000804020008040400080406000804080
310
008040A0008040C0008040E00080600000806020008060400080606000806080008060A0008060C0008060E00080800000808020008080400080806000808080008080A0008080C0008080E00080A0000080A0200080A0400080A0600080A0800080A0A00080A0C00080A0E00080C0000080C0200080C0400080C0600080C0
310
800080C0A00080C0C00080C0E00080E0000080E0200080E0400080E0600080E0800080E0A00080E0C00080E0E000C0000000C0002000C0004000C0006000C0008000C000A000C000C000C000E000C0200000C0202000C0204000C0206000C0208000C020A000C020C000C020E000C0400000C0402000C0404000C0406000C0
310
408000C040A000C040C000C040E000C0600000C0602000C0604000C0606000C0608000C060A000C060C000C060E000C0800000C0802000C0804000C0806000C0808000C080A000C080C000C080E000C0A00000C0A02000C0A04000C0A06000C0A08000C0A0A000C0A0C000C0A0E000C0C00000C0C02000C0C04000C0C06000
310
C0C08000C0C0A000F0FBFF00A4A0A000808080000000FF0000FF000000FFFF00FF000000FF00FF00FFFF0000FFFFFF0000000000000000000000000000000000000000000000000000000000000000000000000000000000000000000000000000000000000000000000000000000000000000000000000000000000000000
310
00000000000000000000000000000000000000000000000000000000000000000000000000000000000000000000000000000000000000000000000000000000000000000000000000000000000000000000000000000000000000000000000000000000000000000000000000000000000000000000000000000000000000
310
FFFFFFFF000000000000000000000000000000000000000000000000000000FF00000000FF0000000000000000000000000000000000000000000000000000FF00FF0000FF00000000000000000000000000000000000000000000000000FF0000FFFFFF00FF0000000000000000000000000000000000000000000000FFFF
310
FF00FFFF00FFFFFF000000000000000000000000000000000000000000FFFFFFFF00000000FFFFFFFF00000000000000000000000000000000000000FFFFFF00FFFFFFFFFFFF00FFFFFF0000000000000000000000000000000000FF00FFFF00FFFFFFFFFFFF00FFFF00FF000000000000000000000000000000FF00FFFF00
310
FF00FFFFFFFF00FF00FFFF00FF00000000000000000000000000FF00FF00FF00FF00FFFFFF00FFFF00FF00FF00FF0000000000000000000000FF00FF00FF00FF00FF00FFFF00FF00FF00FF00FF00FF000000000000000000FF00FF0000FF00FF00FF00FFFF00FF00FF00FF0000FF00FF00000000000000FF00FF0000FF0000
310
FF00FF00FFFF00FF00FF0000FF0000FF00FF0000000000FF0000FF00FF0000FF0000FF00FFFF0000FF00FF0000FF00FF0000FF000000FFFF00FF0000FF0000FF00FF00FF0000FF00FF00FF0000FF0000FF00FFFF00000000FFFF00FF0000FF0000FF00FF0000FF00FF0000FF0000FF00FFFF0000000000000000FFFFFF00FF
310
0000FF00FF0000FF00FF0000FF0000FFFF00000000000000000000FF0000FFFF0000FF00FF0000FF0000FF00FFFFFF00FF00000000000000000000000000FF00FFFFFF00FF0000FF0000FFFF00FF00000000000000000000000000000000000000FF00FFFF0000FFFFFFFF0000000000000000000000000000000000000000
310
0000000000FFFFFFFF00000000000000000000000000000000000000000000000000000000000000000000000000000000000000000000000000000000000000000000000000000000000000000000000000000000000000000000000000000000000000000000000000000000000000000000000000000000000000000000
310
0000000000000000000000000000000000000000000000000000000000000000000000000000000000000000000000000000000000000000
  0
BLOCK_RECORD
  5
4477
330
1
100
AcDbSymbolTableRecord
100
AcDbBlockTableRecord
  2
*D8
340
0
  0
BLOCK_RECORD
  5
4484
330
1
100
AcDbSymbolTableRecord
100
AcDbBlockTableRecord
  2
*D9
340
0
  0
BLOCK_RECORD
  5
4595
330
1
100
AcDbSymbolTableRecord
100
AcDbBlockTableRecord
  2
*D11
340
0
  0
BLOCK_RECORD
  5
45A2
330
1
100
AcDbSymbolTableRecord
100
AcDbBlockTableRecord
  2
*D12
340
0
  0
BLOCK_RECORD
  5
467A
330
1
100
AcDbSymbolTableRecord
100
AcDbBlockTableRecord
  2
*D15
340
0
  0
BLOCK_RECORD
  5
4687
330
1
100
AcDbSymbolTableRecord
100
AcDbBlockTableRecord
  2
*D16
340
0
  0
BLOCK_RECORD
  5
4756
330
1
100
AcDbSymbolTableRecord
100
AcDbBlockTableRecord
  2
*D18
340
0
  0
BLOCK_RECORD
  5
4763
330
1
100
AcDbSymbolTableRecord
100
AcDbBlockTableRecord
  2
*D19
340
0
  0
BLOCK_RECORD
  5
4864
330
1
100
AcDbSymbolTableRecord
100
AcDbBlockTableRecord
  2
*D21
340
0
  0
BLOCK_RECORD
  5
4871
330
1
100
AcDbSymbolTableRecord
100
AcDbBlockTableRecord
  2
*D22
340
0
  0
BLOCK_RECORD
  5
48EB
330
1
100
AcDbSymbolTableRecord
100
AcDbBlockTableRecord
  2
551
340
0
310
2800000020000000200000000100080000000000000400000000000000000000000000000000000000000000000080000080000000808000800000008000800080800000C0C0C000C0DCC000F0CAA6000020400000206000002080000020A0000020C0000020E00000400000004020000040400000406000004080000040A0
310
000040C0000040E00000600000006020000060400000606000006080000060A0000060C0000060E00000800000008020000080400000806000008080000080A0000080C0000080E00000A0000000A0200000A0400000A0600000A0800000A0A00000A0C00000A0E00000C0000000C0200000C0400000C0600000C0800000C0
310
A00000C0C00000C0E00000E0000000E0200000E0400000E0600000E0800000E0A00000E0C00000E0E00040000000400020004000400040006000400080004000A0004000C0004000E00040200000402020004020400040206000402080004020A0004020C0004020E000404000004040200040404000404060004040800040
310
40A0004040C0004040E00040600000406020004060400040606000406080004060A0004060C0004060E00040800000408020004080400040806000408080004080A0004080C0004080E00040A0000040A0200040A0400040A0600040A0800040A0A00040A0C00040A0E00040C0000040C0200040C0400040C0600040C08000
310
40C0A00040C0C00040C0E00040E0000040E0200040E0400040E0600040E0800040E0A00040E0C00040E0E00080000000800020008000400080006000800080008000A0008000C0008000E00080200000802020008020400080206000802080008020A0008020C0008020E00080400000804020008040400080406000804080
310
008040A0008040C0008040E00080600000806020008060400080606000806080008060A0008060C0008060E00080800000808020008080400080806000808080008080A0008080C0008080E00080A0000080A0200080A0400080A0600080A0800080A0A00080A0C00080A0E00080C0000080C0200080C0400080C0600080C0
310
800080C0A00080C0C00080C0E00080E0000080E0200080E0400080E0600080E0800080E0A00080E0C00080E0E000C0000000C0002000C0004000C0006000C0008000C000A000C000C000C000E000C0200000C0202000C0204000C0206000C0208000C020A000C020C000C020E000C0400000C0402000C0404000C0406000C0
310
408000C040A000C040C000C040E000C0600000C0602000C0604000C0606000C0608000C060A000C060C000C060E000C0800000C0802000C0804000C0806000C0808000C080A000C080C000C080E000C0A00000C0A02000C0A04000C0A06000C0A08000C0A0A000C0A0C000C0A0E000C0C00000C0C02000C0C04000C0C06000
310
C0C08000C0C0A000F0FBFF00A4A0A000808080000000FF0000FF000000FFFF00FF000000FF00FF00FFFF0000FFFFFF0000000000000000000000000000000000000000000000000000000000000000000000000000000000000000000000000000000000000000000000000000000000000000000000000000000000000000
310
00000000000000000000000000000000000000000000000000000000000000000000000000000000000000000000000000000000000000000000000000000000000000000000000000000000000000000000000000000000000000000000000000000000000000000000000000000000000000000000000000000000000000
310
0000000000000000000000000000000000000000000000000000FFFFFFFFFFFF00000000FFFFFFFFFFFF000000000000000000000000000000FF00FFFFFF00FFFFFFFFFFFF00FFFFFF00FF000000000000000000000000FFFFFFFFFFFFFFFFFFFFFFFFFFFFFFFFFFFFFFFFFFFF000000000000000000FFFFFFFFFFFFFFFF00
310
FF00FFFF00FF00FFFFFFFFFFFFFFFF00000000000000FFFFFFFFFFFFFFFFFF00FFFFFFFFFFFF00FFFFFFFFFFFFFFFFFF000000000000FFFFFFFFFFFFFFFF00000000000000000000FFFFFFFFFFFFFFFF0000000000FFFFFFFFFFFF00FF0000000000000000000000FFFFFFFFFFFFFFFFFF00000000FF0000FFFFFFFF00FFFF
310
0000000000000000FFFF00FFFFFFFF0000FF00000000FF0000FFFF00FFFF00FF0000000000000000FF00FFFF00FFFF0000FF00000000FFFFFFFFFFFF00FFFFFF00000000000000FFFFFFFF00FFFFFFFFFFFF0000000000FFFF00FF00FFFFFF00FF00FF0000FF00FF00FFFFFF00FF00FFFF00000000000000FF00FFFFFF00FF
310
FFFFFF00FFFF00FFFFFFFF00FFFFFF00FF0000000000000000FF00FFFFFFFFFFFFFFFFFFFFFFFFFFFFFFFFFF00FFFF00FF000000000000000000FFFFFFFFFF0000FFFFFFFFFFFFFFFF000000FFFFFFFF00000000000000000000000000FFFFFFFFFFFFFFFFFFFFFFFFFFFFFFFF000000000000000000000000000000000000
310
FFFFFFFFFFFFFFFFFFFFFFFF000000000000000000000000000000000000000000FFFFFFFFFFFFFFFFFFFF000000000000000000000000000000000000000000000000FFFFFFFFFFFF000000000000000000000000000000000000000000000000000000000000000000000000000000000000000000000000000000000000
310
00000000000000000000000000000000000000000000000000000000000000000000000000000000000000000000000000000000000000000000000000000000000000000000000000000000000000000000000000000000000000000000000000000000000000000000000000000000000000000000000000000000000000
310
0000000000000000000000000000000000000000000000000000000000000000000000000000000000000000000000000000000000000000
102
{BLKREFS
331
4954
102
}
  0
BLOCK_RECORD
  5
49C0
330
1
100
AcDbSymbolTableRecord
100
AcDbBlockTableRecord
  2
*D25
340
0
  0
BLOCK_RECORD
  5
49CD
330
1
100
AcDbSymbolTableRecord
100
AcDbBlockTableRecord
  2
*D26
340
0
  0
BLOCK_RECORD
  5
4B1E
330
1
100
AcDbSymbolTableRecord
100
AcDbBlockTableRecord
  2
*D28
340
0
  0
BLOCK_RECORD
  5
4B2B
330
1
100
AcDbSymbolTableRecord
100
AcDbBlockTableRecord
  2
*D29
340
0
  0
BLOCK_RECORD
  5
4BE4
330
1
100
AcDbSymbolTableRecord
100
AcDbBlockTableRecord
  2
*D31
340
0
  0
BLOCK_RECORD
  5
4BF1
330
1
100
AcDbSymbolTableRecord
100
AcDbBlockTableRecord
  2
*D32
340
0
  0
BLOCK_RECORD
  5
4CC1
330
1
100
AcDbSymbolTableRecord
100
AcDbBlockTableRecord
  2
*D34
340
0
  0
BLOCK_RECORD
  5
4CCE
330
1
100
AcDbSymbolTableRecord
100
AcDbBlockTableRecord
  2
*D35
340
0
  0
BLOCK_RECORD
  5
4D4B
330
1
100
AcDbSymbolTableRecord
100
AcDbBlockTableRecord
  2
*D37
340
0
  0
BLOCK_RECORD
  5
4D58
330
1
100
AcDbSymbolTableRecord
100
AcDbBlockTableRecord
  2
*D38
340
0
  0
BLOCK_RECORD
  5
4DC9
330
1
100
AcDbSymbolTableRecord
100
AcDbBlockTableRecord
  2
*D40
340
0
  0
BLOCK_RECORD
  5
4DD6
330
1
100
AcDbSymbolTableRecord
100
AcDbBlockTableRecord
  2
*D41
340
0
  0
ENDTAB
  0
ENDSEC
  0
SECTION
  2
BLOCKS
  0
BLOCK
  5
3
330
2
100
AcDbEntity
  8
0
100
AcDbBlockBegin
  2
*MODEL_SPACE
 70
     0
 10
0.0
 20
0.0
 30
0.0
  3
*MODEL_SPACE
  1

  0
ENDBLK
  5
6
330
2
100
AcDbEntity
  8
0
100
AcDbBlockEnd
  0
BLOCK
  5
8
330
7
100
AcDbEntity
 67
     1
  8
0
100
AcDbBlockBegin
  2
*PAPER_SPACE
 70
     0
 10
0.0
 20
0.0
 30
0.0
  3
*PAPER_SPACE
  1

  0
ENDBLK
  5
9
330
7
100
AcDbEntity
 67
     1
  8
0
100
AcDbBlockEnd
  0
BLOCK
  5
10C
330
109
100
AcDbEntity
  8
0
100
AcDbBlockBegin
  2
_Dot
 70
     0
 10
0.0
 20
0.0
 30
0.0
  3
_Dot
  1

  0
LWPOLYLINE
  5
10A
330
109
100
AcDbEntity
  8
0
  6
ByBlock
 62
     0
100
AcDbPolyline
 90
        2
 70
     1
 43
0.5
 10
-0.25
 20
0.0
 42
1.0
 10
0.25
 20
0.0
 42
1.0
  0
LINE
  5
10B
330
109
100
AcDbEntity
  8
0
  6
ByBlock
 62
     0
370
    -2
100
AcDbLine
 10
-0.5
 20
0.0
 30
0.0
 11
-1.0
 21
0.0
 31
0.0
  0
ENDBLK
  5
10D
330
109
100
AcDbEntity
  8
0
100
AcDbBlockEnd
  0
BLOCK
  5
3996
330
3995
100
AcDbEntity
  8
0
100
AcDbBlockBegin
  2
151
 70
     0
 10
0.0
 20
0.0
 30
0.0
  3
151
  1

  0
LINE
  5
3997
330
3995
100
AcDbEntity
  8
0
100
AcDbLine
 10
-829.5761699624728
 20
-702.8606314666555
 30
0.0
 11
-809.6440258797276
 21
-678.8293474427947
 31
0.0
  0
LINE
  5
3998
330
3995
100
AcDbEntity
  8
0
100
AcDbLine
 10
-830.8524556990175
 20
-700.2054208954755
 30
0.0
 11
-815.4007908813678
 21
-674.846928992168
 31
0.0
  0
LINE
  5
3999
330
3995
100
AcDbEntity
  8
0
100
AcDbLine
 10
-832.6672654888938
 20
-698.3537711988969
 30
0.0
 11
-820.8459069676813
 21
-672.1640823511236
 31
0.0
  0
LINE
  5
399A
330
3995
100
AcDbEntity
  8
0
100
AcDbLine
 10
-834.6678400401463
 20
-697.2418411620249
 30
0.0
 11
-827.4432717489689
 21
-669.8242580110011
 31
0.0
  0
LINE
  5
399B
330
3995
100
AcDbEntity
  8
0
100
AcDbLine
 10
-836.5886307950598
 20
-696.7407164839388
 30
0.0
 11
-834.259338046335
 21
-668.8008680042586
 31
0.0
  0
LINE
  5
399C
330
3995
100
AcDbEntity
  8
0
100
AcDbLine
 10
-845.9425061301971
 20
-702.8606314666555
 30
0.0
 11
-865.8746502129424
 21
-678.8293474427948
 31
0.0
  0
LINE
  5
399D
330
3995
100
AcDbEntity
  8
0
100
AcDbLine
 10
-844.6662203936524
 20
-700.2054208954755
 30
0.0
 11
-860.1178852113021
 21
-674.8469289921681
 31
0.0
  0
LINE
  5
399E
330
3995
100
AcDbEntity
  8
0
100
AcDbLine
 10
-840.8508360525235
 20
-697.2418411620249
 30
0.0
 11
-848.0754043437011
 21
-669.8242580110011
 31
0.0
  0
LINE
  5
399F
330
3995
100
AcDbEntity
  8
0
100
AcDbLine
 10
-842.8514106037761
 20
-698.3537711988969
 30
0.0
 11
-854.6727691249886
 21
-672.1640823511236
 31
0.0
  0
LINE
  5
39A0
330
3995
100
AcDbEntity
  8
0
100
AcDbLine
 10
-836.5886307950598
 20
-696.7407164839388
 30
0.0
 11
-834.2593380463346
 21
-668.8008680042586
 31
0.0
  0
LINE
  5
39A1
330
3995
100
AcDbEntity
  8
0
100
AcDbLine
 10
-838.9300452976101
 20
-696.7407164839388
 30
0.0
 11
-841.2593380463349
 21
-668.8008680042586
 31
0.0
  0
LINE
  5
39A2
330
3995
100
AcDbEntity
  8
0
100
AcDbLine
 10
-829.2593380463349
 20
-705.1597095669513
 30
0.0
 11
-806.759338046335
 21
-681.6597095669512
 31
0.0
  0
LINE
  5
39A3
330
3995
100
AcDbEntity
  8
0
100
AcDbLine
 10
-846.2593380463349
 20
-705.1597095669513
 30
0.0
 11
-868.7593380463349
 21
-681.6597095669512
 31
0.0
  0
CIRCLE
  5
39A4
330
3995
100
AcDbEntity
  8
0
100
AcDbCircle
 10
-837.7593380463348
 20
-705.1597095669513
 30
0.0
 40
3.0
  0
CIRCLE
  5
39A5
330
3995
100
AcDbEntity
  8
0
100
AcDbCircle
 10
-837.7593380463348
 20
-705.1597095669513
 30
0.0
 40
8.5
  0
ARC
  5
39A6
330
3995
100
AcDbEntity
  8
0
100
AcDbCircle
 10
-837.7593380463348
 20
-712.1212480284895
 30
0.0
 40
43.46153846153837
100
AcDbArc
 50
44.49804731442461
 51
135.5019526855755
  0
ENDBLK
  5
39A7
330
3995
100
AcDbEntity
  8
0
100
AcDbBlockEnd
  0
BLOCK
  5
4481
330
4477
100
AcDbEntity
  8
0
100
AcDbBlockBegin
  2
*D8
 70
     1
 10
0.0
 20
0.0
 30
0.0
  3
*D8
  1

  0
LINE
  5
44FB
330
4477
100
AcDbEntity
  8
SUNPOU
 62
    70
370
    -2
100
AcDbLine
 10
-10.20466088044258
 20
228.2551802663294
 30
0.0
 11
-10.20466088044258
 21
266.5193648783763
 31
0.0
  0
LINE
  5
44FC
330
4477
100
AcDbEntity
  8
SUNPOU
 62
    70
370
    -2
100
AcDbLine
 10
149.7953391195574
 20
229.2116205718603
 30
0.0
 11
149.7953391195574
 21
266.5193648783763
 31
0.0
  0
LINE
  5
44FD
330
4477
100
AcDbEntity
  8
SUNPOU
 62
    60
370
    -2
100
AcDbLine
 10
-8.204660880442579
 20
266.5193648783763
 30
0.0
 11
147.7953391195574
 21
266.5193648783763
 31
0.0
  0
INSERT
  5
44FE
330
4477
100
AcDbEntity
  8
SUNPOU
 62
    60
370
    -2
100
AcDbBlockReference
  2
_Dot
 10
-10.20466088044258
 20
266.5193648783763
 30
0.0
 41
2.0
 42
2.0
 43
2.0
 50
180.0
  0
INSERT
  5
44FF
330
4477
100
AcDbEntity
  8
SUNPOU
 62
    60
370
    -2
100
AcDbBlockReference
  2
_Dot
 10
149.7953391195574
 20
266.5193648783763
 30
0.0
 41
2.0
 42
2.0
 43
2.0
  0
MTEXT
  5
4500
330
4477
100
AcDbEntity
  8
SUNPOU
 62
    60
100
AcDbMText
 10
69.79533911955741
 20
272.0193648783763
 30
0.0
 40
5.0
 41
0.0
 71
     5
 72
     1
  1
\A1;160
  7
SUNPOU
 73
     1
 44
1.0
1001
ACAD
1000
MTEXTBEGIN
1070
    73
1070
     1
1070
    44
1040
1.0
1070
    74
1070
     0
1000
MTEXTEND
  0
POINT
  5
4501
330
4477
100
AcDbEntity
  8
DEFPOINTS
 62
     0
100
AcDbPoint
 10
-10.20466088044258
 20
218.2551802663294
 30
0.0
  0
POINT
  5
4502
330
4477
100
AcDbEntity
  8
DEFPOINTS
 62
     0
100
AcDbPoint
 10
149.7953391195574
 20
219.2116205718603
 30
0.0
  0
POINT
  5
4503
330
4477
100
AcDbEntity
  8
DEFPOINTS
 62
     0
100
AcDbPoint
 10
149.7953391195574
 20
266.5193648783763
 30
0.0
  0
ENDBLK
  5
4482
330
4477
100
AcDbEntity
  8
0
100
AcDbBlockEnd
  0
BLOCK
  5
448E
330
4484
100
AcDbEntity
  8
0
100
AcDbBlockBegin
  2
*D9
 70
     1
 10
0.0
 20
0.0
 30
0.0
  3
*D9
  1

  0
LINE
  5
450D
330
4484
100
AcDbEntity
  8
SUNPOU
 62
    70
370
    -2
100
AcDbLine
 10
-20.20466088044258
 20
218.2551802663294
 30
0.0
 11
-53.80667029185994
 21
218.2551802663294
 31
0.0
  0
LINE
  5
450E
330
4484
100
AcDbEntity
  8
SUNPOU
 62
    70
370
    -2
100
AcDbLine
 10
-11.63043807024542
 20
43.2551802663295
 30
0.0
 11
-53.80667029185999
 21
43.25518026632951
 31
0.0
  0
LINE
  5
450F
330
4484
100
AcDbEntity
  8
SUNPOU
 62
    60
370
    -2
100
AcDbLine
 10
-53.80667029185994
 20
216.2551802663294
 30
0.0
 11
-53.80667029185999
 21
45.25518026632951
 31
0.0
  0
INSERT
  5
4510
330
4484
100
AcDbEntity
  8
SUNPOU
 62
    60
370
    -2
100
AcDbBlockReference
  2
_Dot
 10
-53.80667029185994
 20
218.2551802663294
 30
0.0
 41
2.0
 42
2.0
 43
2.0
 50
90.0
  0
INSERT
  5
4511
330
4484
100
AcDbEntity
  8
SUNPOU
 62
    60
370
    -2
100
AcDbBlockReference
  2
_Dot
 10
-53.80667029185999
 20
43.25518026632951
 30
0.0
 41
2.0
 42
2.0
 43
2.0
 50
270.0
  0
MTEXT
  5
4512
330
4484
100
AcDbEntity
  8
SUNPOU
 62
    60
100
AcDbMText
 10
-59.30667029185999
 20
130.7551802663294
 30
0.0
 40
5.0
 41
0.0
 71
     5
 72
     1
  1
\A1;175
  7
SUNPOU
 11
0.0000000000000001
 21
1.0
 31
0.0
 73
     1
 44
1.0
1001
ACAD
1000
MTEXTBEGIN
1070
    73
1070
     1
1070
    44
1040
1.0
1070
    74
1070
     0
1000
MTEXTEND
  0
POINT
  5
4513
330
4484
100
AcDbEntity
  8
DEFPOINTS
 62
     0
100
AcDbPoint
 10
-10.20466088044258
 20
218.2551802663294
 30
0.0
  0
POINT
  5
4514
330
4484
100
AcDbEntity
  8
DEFPOINTS
 62
     0
100
AcDbPoint
 10
-1.630438070245418
 20
43.2551802663295
 30
0.0
  0
POINT
  5
4515
330
4484
100
AcDbEntity
  8
DEFPOINTS
 62
     0
100
AcDbPoint
 10
-53.80667029185999
 20
43.25518026632951
 30
0.0
  0
ENDBLK
  5
448F
330
4484
100
AcDbEntity
  8
0
100
AcDbBlockEnd
  0
BLOCK
  5
459F
330
4595
100
AcDbEntity
  8
0
100
AcDbBlockBegin
  2
*D11
 70
     1
 10
0.0
 20
0.0
 30
0.0
  3
*D11
  1

  0
LINE
  5
4596
330
4595
100
AcDbEntity
  8
SUNPOU
 62
    70
370
    -2
100
AcDbLine
 10
49.18622845646041
 20
159.708179764081
 30
0.0
 11
49.18622845646041
 21
177.4495650650504
 31
0.0
  0
LINE
  5
4597
330
4595
100
AcDbEntity
  8
SUNPOU
 62
    70
370
    -2
100
AcDbLine
 10
90.1862284564611
 20
159.708179764081
 30
0.0
 11
90.1862284564611
 21
177.4495650650504
 31
0.0
  0
LINE
  5
4598
330
4595
100
AcDbEntity
  8
SUNPOU
 62
    60
370
    -2
100
AcDbLine
 10
51.18622845646041
 20
177.4495650650504
 30
0.0
 11
88.18622845646109
 21
177.4495650650504
 31
0.0
  0
INSERT
  5
4599
330
4595
100
AcDbEntity
  8
SUNPOU
 62
    60
370
    -2
100
AcDbBlockReference
  2
_Dot
 10
49.18622845646041
 20
177.4495650650504
 30
0.0
 41
2.0
 42
2.0
 43
2.0
 50
180.0
  0
INSERT
  5
459A
330
4595
100
AcDbEntity
  8
SUNPOU
 62
    60
370
    -2
100
AcDbBlockReference
  2
_Dot
 10
90.1862284564611
 20
177.4495650650504
 30
0.0
 41
2.0
 42
2.0
 43
2.0
  0
MTEXT
  5
459B
330
4595
100
AcDbEntity
  8
SUNPOU
 62
    60
100
AcDbMText
 10
69.68622845646075
 20
182.9495650650505
 30
0.0
 40
5.0
 41
0.0
 71
     5
 72
     1
  1
\A1;41
  7
SUNPOU
 73
     1
 44
1.0
1001
ACAD
1000
MTEXTBEGIN
1070
    73
1070
     1
1070
    44
1040
1.0
1070
    74
1070
     0
1000
MTEXTEND
  0
POINT
  5
459C
330
4595
100
AcDbEntity
  8
DEFPOINTS
 62
     0
100
AcDbPoint
 10
49.18622845646041
 20
149.708179764081
 30
0.0
  0
POINT
  5
459D
330
4595
100
AcDbEntity
  8
DEFPOINTS
 62
     0
100
AcDbPoint
 10
90.1862284564611
 20
149.708179764081
 30
0.0
  0
POINT
  5
459E
330
4595
100
AcDbEntity
  8
DEFPOINTS
 62
     0
100
AcDbPoint
 10
90.1862284564611
 20
177.4495650650504
 30
0.0
  0
ENDBLK
  5
45A0
330
4595
100
AcDbEntity
  8
0
100
AcDbBlockEnd
  0
BLOCK
  5
45AC
330
45A2
100
AcDbEntity
  8
0
100
AcDbBlockBegin
  2
*D12
 70
     1
 10
0.0
 20
0.0
 30
0.0
  3
*D12
  1

  0
LINE
  5
45CA
330
45A2
100
AcDbEntity
  8
SUNPOU
 62
    70
370
    -2
100
AcDbLine
 10
39.18622845646041
 20
149.708179764081
 30
0.0
 11
18.03105131916938
 21
149.708179764081
 31
0.0
  0
LINE
  5
45CB
330
45A2
100
AcDbEntity
  8
SUNPOU
 62
    70
370
    -2
100
AcDbLine
 10
51.45696772482947
 20
37.70817976408102
 30
0.0
 11
18.03105131916936
 21
37.70817976408103
 31
0.0
  0
LINE
  5
45CC
330
45A2
100
AcDbEntity
  8
SUNPOU
 62
    60
370
    -2
100
AcDbLine
 10
18.03105131916938
 20
147.708179764081
 30
0.0
 11
18.03105131916935
 21
39.70817976408103
 31
0.0
  0
INSERT
  5
45CD
330
45A2
100
AcDbEntity
  8
SUNPOU
 62
    60
370
    -2
100
AcDbBlockReference
  2
_Dot
 10
18.03105131916938
 20
149.708179764081
 30
0.0
 41
2.0
 42
2.0
 43
2.0
 50
90.0
  0
INSERT
  5
45CE
330
45A2
100
AcDbEntity
  8
SUNPOU
 62
    60
370
    -2
100
AcDbBlockReference
  2
_Dot
 10
18.03105131916935
 20
37.70817976408103
 30
0.0
 41
2.0
 42
2.0
 43
2.0
 50
270.0
  0
MTEXT
  5
45CF
330
45A2
100
AcDbEntity
  8
SUNPOU
 62
    60
100
AcDbMText
 10
12.53105131916935
 20
93.70817976408103
 30
0.0
 40
5.0
 41
0.0
 71
     5
 72
     1
  1
\A1;112
  7
SUNPOU
 11
0.0000000000000001
 21
1.0
 31
0.0
 73
     1
 44
1.0
1001
ACAD
1000
MTEXTBEGIN
1070
    73
1070
     1
1070
    44
1040
1.0
1070
    74
1070
     0
1000
MTEXTEND
  0
POINT
  5
45D0
330
45A2
100
AcDbEntity
  8
DEFPOINTS
 62
     0
100
AcDbPoint
 10
49.18622845646041
 20
149.708179764081
 30
0.0
  0
POINT
  5
45D1
330
45A2
100
AcDbEntity
  8
DEFPOINTS
 62
     0
100
AcDbPoint
 10
61.45696772482947
 20
37.70817976408102
 30
0.0
  0
POINT
  5
45D2
330
45A2
100
AcDbEntity
  8
DEFPOINTS
 62
     0
100
AcDbPoint
 10
18.03105131916935
 20
37.70817976408103
 30
0.0
  0
ENDBLK
  5
45AD
330
45A2
100
AcDbEntity
  8
0
100
AcDbBlockEnd
  0
BLOCK
  5
4684
330
467A
100
AcDbEntity
  8
0
100
AcDbBlockBegin
  2
*D15
 70
     1
 10
0.0
 20
0.0
 30
0.0
  3
*D15
  1

  0
LINE
  5
467B
330
467A
100
AcDbEntity
  8
SUNPOU
 62
    70
370
    -2
100
AcDbLine
 10
9.064068554993582
 20
135.7289674701674
 30
0.0
 11
9.064068554993584
 21
159.3658185129761
 31
0.0
  0
LINE
  5
467C
330
467A
100
AcDbEntity
  8
SUNPOU
 62
    70
370
    -2
100
AcDbLine
 10
124.0640685549936
 20
135.7289674701674
 30
0.0
 11
124.0640685549936
 21
159.3658185129761
 31
0.0
  0
LINE
  5
467D
330
467A
100
AcDbEntity
  8
SUNPOU
 62
    60
370
    -2
100
AcDbLine
 10
11.06406855499358
 20
159.3658185129761
 30
0.0
 11
122.0640685549936
 21
159.3658185129761
 31
0.0
  0
INSERT
  5
467E
330
467A
100
AcDbEntity
  8
SUNPOU
 62
    60
370
    -2
100
AcDbBlockReference
  2
_Dot
 10
9.064068554993584
 20
159.3658185129761
 30
0.0
 41
2.0
 42
2.0
 43
2.0
 50
180.0
  0
INSERT
  5
467F
330
467A
100
AcDbEntity
  8
SUNPOU
 62
    60
370
    -2
100
AcDbBlockReference
  2
_Dot
 10
124.0640685549936
 20
159.3658185129761
 30
0.0
 41
2.0
 42
2.0
 43
2.0
  0
MTEXT
  5
4680
330
467A
100
AcDbEntity
  8
SUNPOU
 62
    60
100
AcDbMText
 10
66.56406855499358
 20
164.8658185129761
 30
0.0
 40
5.0
 41
0.0
 71
     5
 72
     1
  1
\A1;115
  7
SUNPOU
 73
     1
 44
1.0
1001
ACAD
1000
MTEXTBEGIN
1070
    73
1070
     1
1070
    44
1040
1.0
1070
    74
1070
     0
1000
MTEXTEND
  0
POINT
  5
4681
330
467A
100
AcDbEntity
  8
DEFPOINTS
 62
     0
100
AcDbPoint
 10
9.064068554993582
 20
125.7289674701674
 30
0.0
  0
POINT
  5
4682
330
467A
100
AcDbEntity
  8
DEFPOINTS
 62
     0
100
AcDbPoint
 10
124.0640685549936
 20
125.7289674701674
 30
0.0
  0
POINT
  5
4683
330
467A
100
AcDbEntity
  8
DEFPOINTS
 62
     0
100
AcDbPoint
 10
124.0640685549936
 20
159.3658185129761
 30
0.0
  0
ENDBLK
  5
4685
330
467A
100
AcDbEntity
  8
0
100
AcDbBlockEnd
  0
BLOCK
  5
4691
330
4687
100
AcDbEntity
  8
0
100
AcDbBlockBegin
  2
*D16
 70
     1
 10
0.0
 20
0.0
 30
0.0
  3
*D16
  1

  0
LINE
  5
4688
330
4687
100
AcDbEntity
  8
SUNPOU
 62
    70
370
    -2
100
AcDbLine
 10
-0.935931445006418
 20
125.7289674701674
 30
0.0
 11
-23.8087468797546
 21
125.7289674701674
 31
0.0
  0
LINE
  5
4689
330
4687
100
AcDbEntity
  8
SUNPOU
 62
    70
370
    -2
100
AcDbLine
 10
-0.9359314450064173
 20
40.72896747016739
 30
0.0
 11
-23.80874687975461
 21
40.7289674701674
 31
0.0
  0
LINE
  5
468A
330
4687
100
AcDbEntity
  8
SUNPOU
 62
    60
370
    -2
100
AcDbLine
 10
-23.8087468797546
 20
123.7289674701674
 30
0.0
 11
-23.80874687975461
 21
42.7289674701674
 31
0.0
  0
INSERT
  5
468B
330
4687
100
AcDbEntity
  8
SUNPOU
 62
    60
370
    -2
100
AcDbBlockReference
  2
_Dot
 10
-23.8087468797546
 20
125.7289674701674
 30
0.0
 41
2.0
 42
2.0
 43
2.0
 50
90.0
  0
INSERT
  5
468C
330
4687
100
AcDbEntity
  8
SUNPOU
 62
    60
370
    -2
100
AcDbBlockReference
  2
_Dot
 10
-23.80874687975461
 20
40.7289674701674
 30
0.0
 41
2.0
 42
2.0
 43
2.0
 50
270.0
  0
MTEXT
  5
468D
330
4687
100
AcDbEntity
  8
SUNPOU
 62
    60
100
AcDbMText
 10
-29.30874687975462
 20
83.2289674701674
 30
0.0
 40
5.0
 41
0.0
 71
     5
 72
     1
  1
\A1;85
  7
SUNPOU
 11
0.0000000000000001
 21
1.0
 31
0.0
 73
     1
 44
1.0
1001
ACAD
1000
MTEXTBEGIN
1070
    73
1070
     1
1070
    44
1040
1.0
1070
    74
1070
     0
1000
MTEXTEND
  0
POINT
  5
468E
330
4687
100
AcDbEntity
  8
DEFPOINTS
 62
     0
100
AcDbPoint
 10
9.064068554993582
 20
125.7289674701674
 30
0.0
  0
POINT
  5
468F
330
4687
100
AcDbEntity
  8
DEFPOINTS
 62
     0
100
AcDbPoint
 10
9.064068554993582
 20
40.72896747016739
 30
0.0
  0
POINT
  5
4690
330
4687
100
AcDbEntity
  8
DEFPOINTS
 62
     0
100
AcDbPoint
 10
-23.80874687975461
 20
40.7289674701674
 30
0.0
  0
ENDBLK
  5
4692
330
4687
100
AcDbEntity
  8
0
100
AcDbBlockEnd
  0
BLOCK
  5
4760
330
4756
100
AcDbEntity
  8
0
100
AcDbBlockBegin
  2
*D18
 70
     1
 10
0.0
 20
0.0
 30
0.0
  3
*D18
  1

  0
LINE
  5
4757
330
4756
100
AcDbEntity
  8
SUNPOU
 62
    70
370
    -2
100
AcDbLine
 10
36.98658687600005
 20
147.7276998860732
 30
0.0
 11
36.98658687600005
 21
168.2295053088633
 31
0.0
  0
LINE
  5
4758
330
4756
100
AcDbEntity
  8
SUNPOU
 62
    70
370
    -2
100
AcDbLine
 10
121.986586876
 20
147.7276998860732
 30
0.0
 11
121.986586876
 21
168.2295053088633
 31
0.0
  0
LINE
  5
4759
330
4756
100
AcDbEntity
  8
SUNPOU
 62
    60
370
    -2
100
AcDbLine
 10
38.98658687600005
 20
168.2295053088633
 30
0.0
 11
119.986586876
 21
168.2295053088633
 31
0.0
  0
INSERT
  5
475A
330
4756
100
AcDbEntity
  8
SUNPOU
 62
    60
370
    -2
100
AcDbBlockReference
  2
_Dot
 10
36.98658687600005
 20
168.2295053088633
 30
0.0
 41
2.0
 42
2.0
 43
2.0
 50
180.0
  0
INSERT
  5
475B
330
4756
100
AcDbEntity
  8
SUNPOU
 62
    60
370
    -2
100
AcDbBlockReference
  2
_Dot
 10
121.986586876
 20
168.2295053088633
 30
0.0
 41
2.0
 42
2.0
 43
2.0
  0
MTEXT
  5
475C
330
4756
100
AcDbEntity
  8
SUNPOU
 62
    60
100
AcDbMText
 10
79.48658687600005
 20
173.7295053088633
 30
0.0
 40
5.0
 41
0.0
 71
     5
 72
     1
  1
\A1;85
  7
SUNPOU
 73
     1
 44
1.0
1001
ACAD
1000
MTEXTBEGIN
1070
    73
1070
     1
1070
    44
1040
1.0
1070
    74
1070
     0
1000
MTEXTEND
  0
POINT
  5
475D
330
4756
100
AcDbEntity
  8
DEFPOINTS
 62
     0
100
AcDbPoint
 10
36.98658687600005
 20
137.7276998860732
 30
0.0
  0
POINT
  5
475E
330
4756
100
AcDbEntity
  8
DEFPOINTS
 62
     0
100
AcDbPoint
 10
121.986586876
 20
137.7276998860732
 30
0.0
  0
POINT
  5
475F
330
4756
100
AcDbEntity
  8
DEFPOINTS
 62
     0
100
AcDbPoint
 10
121.986586876
 20
168.2295053088633
 30
0.0
  0
ENDBLK
  5
4761
330
4756
100
AcDbEntity
  8
0
100
AcDbBlockEnd
  0
BLOCK
  5
476D
330
4763
100
AcDbEntity
  8
0
100
AcDbBlockBegin
  2
*D19
 70
     1
 10
0.0
 20
0.0
 30
0.0
  3
*D19
  1

  0
LINE
  5
4764
330
4763
100
AcDbEntity
  8
SUNPOU
 62
    70
370
    -2
100
AcDbLine
 10
26.98658687600005
 20
137.7276998860732
 30
0.0
 11
4.692271416478911
 21
137.7276998860732
 31
0.0
  0
LINE
  5
4765
330
4763
100
AcDbEntity
  8
SUNPOU
 62
    70
370
    -2
100
AcDbLine
 10
26.98658687600005
 20
35.7276998860732
 30
0.0
 11
4.692271416478889
 21
35.7276998860732
 31
0.0
  0
LINE
  5
4766
330
4763
100
AcDbEntity
  8
SUNPOU
 62
    60
370
    -2
100
AcDbLine
 10
4.692271416478908
 20
135.7276998860732
 30
0.0
 11
4.692271416478886
 21
37.72769988607321
 31
0.0
  0
INSERT
  5
4767
330
4763
100
AcDbEntity
  8
SUNPOU
 62
    60
370
    -2
100
AcDbBlockReference
  2
_Dot
 10
4.692271416478908
 20
137.7276998860732
 30
0.0
 41
2.0
 42
2.0
 43
2.0
 50
90.0
  0
INSERT
  5
4768
330
4763
100
AcDbEntity
  8
SUNPOU
 62
    60
370
    -2
100
AcDbBlockReference
  2
_Dot
 10
4.692271416478886
 20
35.7276998860732
 30
0.0
 41
2.0
 42
2.0
 43
2.0
 50
270.0
  0
MTEXT
  5
4769
330
4763
100
AcDbEntity
  8
SUNPOU
 62
    60
100
AcDbMText
 10
-0.8077285835211158
 20
86.72769988607319
 30
0.0
 40
5.0
 41
0.0
 71
     5
 72
     1
  1
\A1;102
  7
SUNPOU
 11
0.0000000000000001
 21
1.0
 31
0.0
 73
     1
 44
1.0
1001
ACAD
1000
MTEXTBEGIN
1070
    73
1070
     1
1070
    44
1040
1.0
1070
    74
1070
     0
1000
MTEXTEND
  0
POINT
  5
476A
330
4763
100
AcDbEntity
  8
DEFPOINTS
 62
     0
100
AcDbPoint
 10
36.98658687600005
 20
137.7276998860732
 30
0.0
  0
POINT
  5
476B
330
4763
100
AcDbEntity
  8
DEFPOINTS
 62
     0
100
AcDbPoint
 10
36.98658687600005
 20
35.7276998860732
 30
0.0
  0
POINT
  5
476C
330
4763
100
AcDbEntity
  8
DEFPOINTS
 62
     0
100
AcDbPoint
 10
4.692271416478886
 20
35.7276998860732
 30
0.0
  0
ENDBLK
  5
476E
330
4763
100
AcDbEntity
  8
0
100
AcDbBlockEnd
  0
BLOCK
  5
486E
330
4864
100
AcDbEntity
  8
0
100
AcDbBlockBegin
  2
*D21
 70
     1
 10
0.0
 20
0.0
 30
0.0
  3
*D21
  1

  0
LINE
  5
48D6
330
4864
100
AcDbEntity
  8
SUNPOU
 62
    70
370
    -2
100
AcDbLine
 10
2.205216540950687
 20
162.2682300590691
 30
0.0
 11
2.205216540950688
 21
184.2573203088313
 31
0.0
  0
LINE
  5
48D7
330
4864
100
AcDbEntity
  8
SUNPOU
 62
    70
370
    -2
100
AcDbLine
 10
138.2052165409507
 20
163.7083778807167
 30
0.0
 11
138.2052165409507
 21
184.2573203088313
 31
0.0
  0
LINE
  5
48D8
330
4864
100
AcDbEntity
  8
SUNPOU
 62
    60
370
    -2
100
AcDbLine
 10
4.205216540950688
 20
184.2573203088313
 30
0.0
 11
136.2052165409507
 21
184.2573203088313
 31
0.0
  0
INSERT
  5
48D9
330
4864
100
AcDbEntity
  8
SUNPOU
 62
    60
370
    -2
100
AcDbBlockReference
  2
_Dot
 10
2.205216540950688
 20
184.2573203088313
 30
0.0
 41
2.0
 42
2.0
 43
2.0
 50
180.0
  0
INSERT
  5
48DA
330
4864
100
AcDbEntity
  8
SUNPOU
 62
    60
370
    -2
100
AcDbBlockReference
  2
_Dot
 10
138.2052165409507
 20
184.2573203088313
 30
0.0
 41
2.0
 42
2.0
 43
2.0
  0
MTEXT
  5
48DB
330
4864
100
AcDbEntity
  8
SUNPOU
 62
    60
100
AcDbMText
 10
70.20521654095069
 20
189.7573203088313
 30
0.0
 40
5.0
 41
0.0
 71
     5
 72
     1
  1
\A1;136
  7
SUNPOU
 73
     1
 44
1.0
1001
ACAD
1000
MTEXTBEGIN
1070
    73
1070
     1
1070
    44
1040
1.0
1070
    74
1070
     0
1000
MTEXTEND
  0
POINT
  5
48DC
330
4864
100
AcDbEntity
  8
DEFPOINTS
 62
     0
100
AcDbPoint
 10
2.205216540950686
 20
152.2682300590691
 30
0.0
  0
POINT
  5
48DD
330
4864
100
AcDbEntity
  8
DEFPOINTS
 62
     0
100
AcDbPoint
 10
138.2052165409507
 20
153.7083778807167
 30
0.0
  0
POINT
  5
48DE
330
4864
100
AcDbEntity
  8
DEFPOINTS
 62
     0
100
AcDbPoint
 10
138.2052165409507
 20
184.2573203088313
 30
0.0
  0
ENDBLK
  5
486F
330
4864
100
AcDbEntity
  8
0
100
AcDbBlockEnd
  0
BLOCK
  5
487B
330
4871
100
AcDbEntity
  8
0
100
AcDbBlockBegin
  2
*D22
 70
     1
 10
0.0
 20
0.0
 30
0.0
  3
*D22
  1

  0
LINE
  5
48C4
330
4871
100
AcDbEntity
  8
SUNPOU
 62
    70
370
    -2
100
AcDbLine
 10
-7.794783459049313
 20
152.2682300590691
 30
0.0
 11
-22.66237274961348
 21
152.2682300590691
 31
0.0
  0
LINE
  5
48C5
330
4871
100
AcDbEntity
  8
SUNPOU
 62
    70
370
    -2
100
AcDbLine
 10
-4.843761683858701
 20
39.26823005906914
 30
0.0
 11
-22.66237274961351
 21
39.26823005906915
 31
0.0
  0
LINE
  5
48C6
330
4871
100
AcDbEntity
  8
SUNPOU
 62
    60
370
    -2
100
AcDbLine
 10
-22.66237274961349
 20
150.2682300590691
 30
0.0
 11
-22.66237274961351
 21
41.26823005906914
 31
0.0
  0
INSERT
  5
48C7
330
4871
100
AcDbEntity
  8
SUNPOU
 62
    60
370
    -2
100
AcDbBlockReference
  2
_Dot
 10
-22.66237274961348
 20
152.2682300590691
 30
0.0
 41
2.0
 42
2.0
 43
2.0
 50
90.0
  0
INSERT
  5
48C8
330
4871
100
AcDbEntity
  8
SUNPOU
 62
    60
370
    -2
100
AcDbBlockReference
  2
_Dot
 10
-22.66237274961351
 20
39.26823005906915
 30
0.0
 41
2.0
 42
2.0
 43
2.0
 50
270.0
  0
MTEXT
  5
48C9
330
4871
100
AcDbEntity
  8
SUNPOU
 62
    60
100
AcDbMText
 10
-28.16237274961351
 20
95.76823005906915
 30
0.0
 40
5.0
 41
0.0
 71
     5
 72
     1
  1
\A1;113
  7
SUNPOU
 11
0.0000000000000001
 21
1.0
 31
0.0
 73
     1
 44
1.0
1001
ACAD
1000
MTEXTBEGIN
1070
    73
1070
     1
1070
    44
1040
1.0
1070
    74
1070
     0
1000
MTEXTEND
  0
POINT
  5
48CA
330
4871
100
AcDbEntity
  8
DEFPOINTS
 62
     0
100
AcDbPoint
 10
2.205216540950686
 20
152.2682300590691
 30
0.0
  0
POINT
  5
48CB
330
4871
100
AcDbEntity
  8
DEFPOINTS
 62
     0
100
AcDbPoint
 10
5.156238316141298
 20
39.26823005906914
 30
0.0
  0
POINT
  5
48CC
330
4871
100
AcDbEntity
  8
DEFPOINTS
 62
     0
100
AcDbPoint
 10
-22.66237274961351
 20
39.26823005906915
 30
0.0
  0
ENDBLK
  5
487C
330
4871
100
AcDbEntity
  8
0
100
AcDbBlockEnd
  0
BLOCK
  5
48EC
330
48EB
100
AcDbEntity
  8
0
100
AcDbBlockBegin
  2
551
 70
     0
 10
0.0
 20
0.0
 30
0.0
  3
551
  1

  0
SPLINE
  5
48ED
330
48EB
100
AcDbEntity
  8
0
100
AcDbSpline
210
0.0
220
0.0
230
1.0
 70
     8
 71
     3
 72
    16
 73
    12
 74
    10
 42
0.0000000001
 43
0.0000000001
 44
0.0000000001
 40
0.0
 40
0.0
 40
0.0
 40
0.0
 40
1.62202840369536
 40
5.896044466744241
 40
11.24907019159249
 40
16.17706924081772
 40
22.26405533357649
 40
31.28113332054039
 40
36.65874125378098
 40
43.22460828364261
 40
50.60551866597041
 40
50.60551866597041
 40
50.60551866597041
 40
50.60551866597041
 10
1300.910556175196
 20
-750.3669458186395
 30
0.0
 10
1301.10220105593
 20
-749.858252393404
 30
0.0
 10
1301.798826796918
 20
-748.0091608187461
 30
0.0
 10
1305.087854790758
 20
-745.5189318882958
 30
0.0
 10
1309.82625674005
 20
-745.1698931044569
 30
0.0
 10
1315.977314194863
 20
-744.9531543293256
 30
0.0
 10
1317.806949855807
 20
-736.9547551626935
 30
0.0
 10
1314.427784001385
 20
-730.7995922226836
 30
0.0
 10
1309.662133482699
 20
-725.7033849749286
 30
0.0
 10
1305.683511139174
 20
-720.5821687862615
 30
0.0
 10
1301.908412841182
 20
-717.8257154361106
 30
0.0
 10
1299.910556175196
 20
-716.3669458186395
 30
0.0
 11
1300.910556175196
 21
-750.3669458186395
 31
0.0
 11
1301.563237377727
 21
-748.8820271709494
 31
0.0
 11
1304.835308201586
 21
-746.1323424925098
 31
0.0
 11
1310.104670728217
 21
-745.189632052434
 31
0.0
 11
1314.914604817077
 21
-744.1173873555531
 31
0.0
 11
1316.910556175196
 21
-738.3669458186395
 31
0.0
 11
1313.474987600185
 21
-730.0300060929737
 31
0.0
 11
1309.984300894607
 21
-725.9393125812139
 31
0.0
 11
1305.651037501899
 21
-721.0064190872044
 31
0.0
 11
1299.910556175196
 21
-716.3669458186395
 31
0.0
  0
SPLINE
  5
48EE
330
48EB
100
AcDbEntity
  8
0
100
AcDbSpline
210
0.0
220
0.0
230
1.0
 70
     8
 71
     3
 72
    14
 73
    10
 74
     8
 42
0.0000000001
 43
0.0000000001
 44
0.0000000001
 40
0.0
 40
0.0
 40
0.0
 40
0.0
 40
4.406034447477368
 40
11.29105272932532
 40
19.0409507608456
 40
27.20800459528707
 40
38.45269801617228
 40
49.74521124493327
 40
61.04490902379077
 40
61.04490902379077
 40
61.04490902379077
 40
61.04490902379077
 10
1254.628729997808
 20
-731.0142082110988
 30
0.0
 10
1256.071573194898
 20
-730.7364155583942
 30
0.0
 10
1259.769051917022
 20
-730.0245347215795
 30
0.0
 10
1266.222458740285
 20
-730.1746851501479
 30
0.0
 10
1273.422359411725
 20
-733.5913873014073
 30
0.0
 10
1278.412270113557
 20
-741.6340946943964
 30
0.0
 10
1279.649467726129
 20
-751.9083352853863
 30
0.0
 10
1278.971642776934
 20
-763.4493437493979
 30
0.0
 10
1275.019067149599
 20
-769.9902407227654
 30
0.0
 10
1273.042150856551
 20
-773.2617292449279
 30
0.0
 11
1254.628729997808
 21
-731.0142082110988
 31
0.0
 11
1258.976950680714
 21
-730.3027895965674
 31
0.0
 11
1265.854299579058
 21
-730.6276724551942
 31
0.0
 11
1272.79237702342
 21
-734.080787118075
 31
0.0
 11
1277.354074018711
 21
-740.8551275920851
 31
0.0
 11
1279.309086148969
 21
-751.9285668816755
 31
0.0
 11
1278.097341695585
 21
-763.1558786882228
 31
0.0
 11
1273.042150856551
 21
-773.2617292449279
 31
0.0
  0
SPLINE
  5
48EF
330
48EB
100
AcDbEntity
  8
0
100
AcDbSpline
210
0.0
220
0.0
230
1.0
 70
     8
 71
     3
 72
    11
 73
     7
 74
     5
 42
0.0000000001
 43
0.0000000001
 44
0.0000000001
 40
0.0
 40
0.0
 40
0.0
 40
0.0
 40
8.860955238207989
 40
25.60648161258758
 40
40.42530772484184
 40
57.41544445416693
 40
57.41544445416693
 40
57.41544445416693
 40
57.41544445416693
 10
1288.728159764637
 20
-746.2050708322853
 30
0.0
 10
1289.594690643482
 20
-743.3869030702164
 30
0.0
 10
1292.098800687988
 20
-735.2429322408148
 30
0.0
 10
1291.934751061844
 20
-720.9864378731562
 30
0.0
 10
1282.512806458473
 20
-707.1966652208525
 30
0.0
 10
1274.624135705421
 20
-700.1374746808876
 30
0.0
 10
1270.410556175196
 20
-696.3669458186394
 30
0.0
 11
1288.728159764637
 21
-746.2050708322853
 31
0.0
 11
1291.015451837587
 21
-737.6444153254596
 31
0.0
 11
1290.239084531778
 21
-720.916895863163
 31
0.0
 11
1282.561677432213
 21
-708.2419194303334
 31
0.0
 11
1270.410556175196
 21
-696.3669458186394
 31
0.0
  0
SPLINE
  5
48F0
330
48EB
100
AcDbEntity
  8
0
100
AcDbSpline
210
0.0
220
0.0
230
1.0
 70
     8
 71
     3
 72
    14
 73
    10
 74
     8
 42
0.0000000001
 43
0.0000000001
 44
0.0000000001
 40
0.0
 40
0.0
 40
0.0
 40
0.0
 40
1.85314002803905
 40
3.404260919247176
 40
12.86786565133425
 40
22.02240971860442
 40
35.22814057340921
 40
47.09800410006702
 40
50.72196088649714
 40
50.72196088649714
 40
50.72196088649714
 40
50.72196088649714
 10
1263.410556175197
 20
-712.3669458186395
 30
0.0
 10
1263.684296869571
 20
-711.7666216532459
 30
0.0
 10
1264.187164830852
 20
-710.663812332737
 30
0.0
 10
1268.735321425944
 20
-709.8069212968904
 30
0.0
 10
1274.831250180396
 20
-713.4749220604314
 30
0.0
 10
1284.070422171038
 20
-719.0080654514863
 30
0.0
 10
1288.169303664637
 20
-730.396882321171
 30
0.0
 10
1289.875671520813
 20
-739.9099046752094
 30
0.0
 10
1288.945681550494
 20
-745.0117621124543
 30
0.0
 10
1288.728159764637
 20
-746.2050708322854
 30
0.0
 11
1263.410556175197
 21
-712.3669458186395
 31
0.0
 11
1264.439316763027
 21
-710.8255893976754
 31
0.0
 11
1265.92746174517
 21
-710.3880959334207
 31
0.0
 11
1274.867337851808
 21
-713.492677986313
 31
0.0
 11
1282.254955148931
 21
-718.8990434707057
 31
0.0
 11
1287.909982614349
 21
-730.8326930287794
 31
0.0
 11
1289.279450403559
 21
-742.6232917462236
 31
0.0
 11
1288.728159764637
 21
-746.2050708322854
 31
0.0
  0
SPLINE
  5
48F1
330
48EB
100
AcDbEntity
  8
0
100
AcDbSpline
210
0.0
220
0.0
230
1.0
 70
     8
 71
     3
 72
    10
 73
     6
 74
     4
 42
0.0000000001
 43
0.0000000001
 44
0.0000000001
 40
0.0
 40
0.0
 40
0.0
 40
0.0
 40
14.13893464806867
 40
25.71569323764162
 40
35.31202210824419
 40
35.31202210824419
 40
35.31202210824419
 40
35.31202210824419
 10
1288.728159764637
 20
-746.2050708322854
 30
0.0
 10
1289.925089667093
 20
-741.6804098342112
 30
0.0
 10
1292.102048749562
 20
-733.4510207658706
 30
0.0
 10
1302.57032361393
 20
-724.1529451197732
 30
0.0
 10
1309.448937809094
 20
-727.4226810272717
 30
0.0
 10
1312.566548507814
 20
-728.9046312221779
 30
0.0
 11
1288.728159764637
 21
-746.2050708322854
 31
0.0
 11
1293.965414760336
 21
-733.0718826019895
 31
0.0
 11
1303.337345498578
 21
-726.2756885436333
 31
0.0
 11
1312.566548507814
 21
-728.9046312221779
 31
0.0
  0
SPLINE
  5
48F2
330
48EB
100
AcDbEntity
  8
0
100
AcDbSpline
210
0.0
220
0.0
230
1.0
 70
     8
 71
     3
 72
     9
 73
     5
 74
     3
 42
0.0000000001
 43
0.0000000001
 44
0.0000000001
 40
0.0
 40
0.0
 40
0.0
 40
0.0
 40
12.71524509913262
 40
20.06226249695377
 40
20.06226249695377
 40
20.06226249695377
 40
20.06226249695377
 10
1290.400929755317
 20
-740.4097430436136
 30
0.0
 10
1291.058566330802
 20
-736.0425878879325
 30
0.0
 10
1292.096193014528
 20
-729.1520393837457
 30
0.0
 10
1297.096030061967
 20
-724.4922249162339
 30
0.0
 10
1298.927024436574
 20
-722.7857504860132
 30
0.0
 11
1290.400929755317
 21
-740.4097430436136
 31
0.0
 11
1293.965414760336
 21
-728.2043383153789
 31
0.0
 11
1298.927024436574
 21
-722.7857504860132
 31
0.0
  0
SPLINE
  5
48F3
330
48EB
100
AcDbEntity
  8
0
100
AcDbSpline
210
0.0
220
0.0
230
1.0
 70
     8
 71
     3
 72
    14
 73
    10
 74
     8
 42
0.0000000001
 43
0.0000000001
 44
0.0000000001
 40
0.0
 40
0.0
 40
0.0
 40
0.0
 40
3.451791645250188
 40
7.268900934661987
 40
11.42928875326393
 40
15.21360740253082
 40
19.2586291858348
 40
21.80477144966888
 40
26.31413829794372
 40
26.31413829794372
 40
26.31413829794372
 40
26.31413829794372
 10
1265.289484403396
 20
-747.0767661988396
 30
0.0
 10
1264.737224479603
 20
-746.070739394765
 30
0.0
 10
1263.574256638898
 20
-743.9522137338967
 30
0.0
 10
1260.518073215283
 20
-741.2702182322497
 30
0.0
 10
1256.344393843461
 20
-741.4025654713768
 30
0.0
 10
1252.966618656978
 20
-739.2184379466996
 30
0.0
 10
1250.147316178669
 20
-736.6962255937944
 30
0.0
 10
1250.666796146951
 20
-732.4977507364756
 30
0.0
 10
1253.083896034754
 20
-731.5926698828762
 30
0.0
 10
1254.628729997808
 20
-731.0142082110989
 30
0.0
 11
1265.289484403396
 21
-747.0767661988396
 31
0.0
 11
1263.456647738894
 21
-744.1517746905653
 31
0.0
 11
1260.450143328646
 21
-741.7999127561679
 31
0.0
 11
1256.370265815681
 21
-740.9854029156033
 31
0.0
 11
1253.058347071764
 21
-739.1544846015096
 31
0.0
 11
1250.530750639902
 21
-735.9964064667829
 31
0.0
 11
1250.846699434626
 21
-733.4699431706326
 31
0.0
 11
1254.628729997808
 21
-731.0142082110989
 31
0.0
  0
SPLINE
  5
48F4
330
48EB
100
AcDbEntity
  8
0
100
AcDbSpline
210
0.0
220
0.0
230
1.0
 70
     8
 71
     3
 72
     9
 73
     5
 74
     3
 42
0.0000000001
 43
0.0000000001
 44
0.0000000001
 40
0.0
 40
0.0
 40
0.0
 40
0.0
 40
12.71524509913262
 40
20.06226249695377
 40
20.06226249695377
 40
20.06226249695377
 40
20.06226249695377
 10
1156.420182595075
 20
-740.4097430436136
 30
0.0
 10
1155.76254601959
 20
-736.0425878879325
 30
0.0
 10
1154.724919335865
 20
-729.1520393837457
 30
0.0
 10
1149.725082288425
 20
-724.4922249162339
 30
0.0
 10
1147.894087913819
 20
-722.7857504860132
 30
0.0
 11
1156.420182595075
 21
-740.4097430436136
 31
0.0
 11
1152.855697590057
 21
-728.2043383153789
 31
0.0
 11
1147.894087913819
 21
-722.7857504860132
 31
0.0
  0
SPLINE
  5
48F5
330
48EB
100
AcDbEntity
  8
0
100
AcDbSpline
210
0.0
220
0.0
230
1.0
 70
     8
 71
     3
 72
    10
 73
     6
 74
     4
 42
0.0000000001
 43
0.0000000001
 44
0.0000000001
 40
0.0
 40
0.0
 40
0.0
 40
0.0
 40
14.13893464806867
 40
25.71569323764162
 40
35.31202210824419
 40
35.31202210824419
 40
35.31202210824419
 40
35.31202210824419
 10
1158.092952585756
 20
-746.2050708322854
 30
0.0
 10
1156.896022683299
 20
-741.6804098342112
 30
0.0
 10
1154.71906360083
 20
-733.4510207658706
 30
0.0
 10
1144.250788736463
 20
-724.1529451197732
 30
0.0
 10
1137.372174541299
 20
-727.4226810272717
 30
0.0
 10
1134.254563842579
 20
-728.9046312221779
 30
0.0
 11
1158.092952585756
 21
-746.2050708322854
 31
0.0
 11
1152.855697590057
 21
-733.0718826019895
 31
0.0
 11
1143.483766851814
 21
-726.2756885436333
 31
0.0
 11
1134.254563842579
 21
-728.9046312221779
 31
0.0
  0
SPLINE
  5
48F6
330
48EB
100
AcDbEntity
  8
0
100
AcDbSpline
210
0.0
220
0.0
230
1.0
 70
     8
 71
     3
 72
    11
 73
     7
 74
     5
 42
0.0000000001
 43
0.0000000001
 44
0.0000000001
 40
0.0
 40
0.0
 40
0.0
 40
0.0
 40
8.860955238207989
 40
25.60648161258758
 40
40.42530772484184
 40
57.41544445416693
 40
57.41544445416693
 40
57.41544445416693
 40
57.41544445416693
 10
1158.092952585756
 20
-746.2050708322853
 30
0.0
 10
1157.22642170691
 20
-743.3869030702164
 30
0.0
 10
1154.722311662405
 20
-735.2429322408148
 30
0.0
 10
1154.886361288548
 20
-720.9864378731562
 30
0.0
 10
1164.30830589192
 20
-707.1966652208525
 30
0.0
 10
1172.196976644971
 20
-700.1374746808876
 30
0.0
 10
1176.410556175196
 20
-696.3669458186394
 30
0.0
 11
1158.092952585756
 21
-746.2050708322853
 31
0.0
 11
1155.805660512805
 21
-737.6444153254596
 31
0.0
 11
1156.582027818615
 21
-720.916895863163
 31
0.0
 11
1164.259434918179
 21
-708.2419194303334
 31
0.0
 11
1176.410556175196
 21
-696.3669458186394
 31
0.0
  0
SPLINE
  5
48F7
330
48EB
100
AcDbEntity
  8
0
100
AcDbSpline
210
0.0
220
0.0
230
1.0
 70
     8
 71
     3
 72
    14
 73
    10
 74
     8
 42
0.0000000001
 43
0.0000000001
 44
0.0000000001
 40
0.0
 40
0.0
 40
0.0
 40
0.0
 40
1.85314002803905
 40
3.404260919247176
 40
12.86786565133425
 40
22.02240971860442
 40
35.22814057340921
 40
47.09800410006702
 40
50.72196088649714
 40
50.72196088649714
 40
50.72196088649714
 40
50.72196088649714
 10
1183.410556175196
 20
-712.3669458186395
 30
0.0
 10
1183.136815480821
 20
-711.7666216532459
 30
0.0
 10
1182.633947519541
 20
-710.663812332737
 30
0.0
 10
1178.085790924448
 20
-709.8069212968904
 30
0.0
 10
1171.989862169997
 20
-713.4749220604314
 30
0.0
 10
1162.750690179354
 20
-719.0080654514863
 30
0.0
 10
1158.651808685755
 20
-730.396882321171
 30
0.0
 10
1156.94544082958
 20
-739.9099046752094
 30
0.0
 10
1157.875430799899
 20
-745.0117621124543
 30
0.0
 10
1158.092952585756
 20
-746.2050708322854
 30
0.0
 11
1183.410556175196
 21
-712.3669458186395
 31
0.0
 11
1182.381795587366
 21
-710.8255893976754
 31
0.0
 11
1180.893650605223
 21
-710.3880959334207
 31
0.0
 11
1171.953774498585
 21
-713.492677986313
 31
0.0
 11
1164.566157201461
 21
-718.8990434707057
 31
0.0
 11
1158.911129736043
 21
-730.8326930287794
 31
0.0
 11
1157.541661946833
 21
-742.6232917462236
 31
0.0
 11
1158.092952585756
 21
-746.2050708322854
 31
0.0
  0
SPLINE
  5
48F8
330
48EB
100
AcDbEntity
  8
0
100
AcDbSpline
210
0.0
220
0.0
230
1.0
 70
     8
 71
     3
 72
    14
 73
    10
 74
     8
 42
0.0000000001
 43
0.0000000001
 44
0.0000000001
 40
0.0
 40
0.0
 40
0.0
 40
0.0
 40
3.451791645250188
 40
7.268900934661987
 40
11.42928875326393
 40
15.21360740253082
 40
19.2586291858348
 40
21.80477144966888
 40
26.31413829794372
 40
26.31413829794372
 40
26.31413829794372
 40
26.31413829794372
 10
1181.531627946996
 20
-747.0767661988396
 30
0.0
 10
1182.08388787079
 20
-746.070739394765
 30
0.0
 10
1183.246855711495
 20
-743.9522137338967
 30
0.0
 10
1186.303039135109
 20
-741.2702182322497
 30
0.0
 10
1190.476718506931
 20
-741.4025654713768
 30
0.0
 10
1193.854493693416
 20
-739.2184379466996
 30
0.0
 10
1196.673796171724
 20
-736.6962255937944
 30
0.0
 10
1196.154316203442
 20
-732.4977507364756
 30
0.0
 10
1193.737216315639
 20
-731.5926698828762
 30
0.0
 10
1192.192382352584
 20
-731.0142082110989
 30
0.0
 11
1181.531627946996
 21
-747.0767661988396
 31
0.0
 11
1183.364464611498
 21
-744.1517746905653
 31
0.0
 11
1186.370969021747
 21
-741.7999127561679
 31
0.0
 11
1190.450846534712
 21
-740.9854029156033
 31
0.0
 11
1193.762765278628
 21
-739.1544846015096
 31
0.0
 11
1196.290361710491
 21
-735.9964064667829
 31
0.0
 11
1195.974412915767
 21
-733.4699431706326
 31
0.0
 11
1192.192382352584
 21
-731.0142082110989
 31
0.0
  0
SPLINE
  5
48F9
330
48EB
100
AcDbEntity
  8
0
100
AcDbSpline
210
0.0
220
0.0
230
1.0
 70
     8
 71
     3
 72
    14
 73
    10
 74
     8
 42
0.0000000001
 43
0.0000000001
 44
0.0000000001
 40
0.0
 40
0.0
 40
0.0
 40
0.0
 40
4.406034447477368
 40
11.29105272932532
 40
19.0409507608456
 40
27.20800459528707
 40
38.45269801617228
 40
49.74521124493327
 40
61.04490902379077
 40
61.04490902379077
 40
61.04490902379077
 40
61.04490902379077
 10
1192.192382352585
 20
-731.0142082110988
 30
0.0
 10
1190.749539155494
 20
-730.7364155583942
 30
0.0
 10
1187.05206043337
 20
-730.0245347215795
 30
0.0
 10
1180.598653610108
 20
-730.1746851501479
 30
0.0
 10
1173.398752938668
 20
-733.5913873014073
 30
0.0
 10
1168.408842236835
 20
-741.6340946943964
 30
0.0
 10
1167.171644624264
 20
-751.9083352853863
 30
0.0
 10
1167.84946957346
 20
-763.4493437493979
 30
0.0
 10
1171.802045200793
 20
-769.9902407227654
 30
0.0
 10
1173.778961493842
 20
-773.2617292449279
 30
0.0
 11
1192.192382352585
 21
-731.0142082110988
 31
0.0
 11
1187.844161669678
 21
-730.3027895965674
 31
0.0
 11
1180.966812771334
 21
-730.6276724551942
 31
0.0
 11
1174.028735326973
 21
-734.080787118075
 31
0.0
 11
1169.467038331681
 21
-740.8551275920851
 31
0.0
 11
1167.512026201423
 21
-751.9285668816755
 31
0.0
 11
1168.723770654807
 21
-763.1558786882228
 31
0.0
 11
1173.778961493842
 21
-773.2617292449279
 31
0.0
  0
SPLINE
  5
48FA
330
48EB
100
AcDbEntity
  8
0
100
AcDbSpline
210
0.0
220
0.0
230
1.0
 70
     8
 71
     3
 72
    16
 73
    12
 74
    10
 42
0.0000000001
 43
0.0000000001
 44
0.0000000001
 40
0.0
 40
0.0
 40
0.0
 40
0.0
 40
1.62202840369536
 40
5.896044466744241
 40
11.24907019159249
 40
16.17706924081772
 40
22.26405533357649
 40
31.28113332054039
 40
36.65874125378098
 40
43.22460828364261
 40
50.60551866597041
 40
50.60551866597041
 40
50.60551866597041
 40
50.60551866597041
 10
1145.910556175196
 20
-750.3669458186395
 30
0.0
 10
1145.718911294463
 20
-749.858252393404
 30
0.0
 10
1145.022285553474
 20
-748.0091608187461
 30
0.0
 10
1141.733257559635
 20
-745.5189318882958
 30
0.0
 10
1136.994855610343
 20
-745.1698931044569
 30
0.0
 10
1130.84379815553
 20
-744.9531543293256
 30
0.0
 10
1129.014162494586
 20
-736.9547551626935
 30
0.0
 10
1132.393328349007
 20
-730.7995922226836
 30
0.0
 10
1137.158978867694
 20
-725.7033849749286
 30
0.0
 10
1141.137601211218
 20
-720.5821687862615
 30
0.0
 10
1144.912699509211
 20
-717.8257154361106
 30
0.0
 10
1146.910556175196
 20
-716.3669458186395
 30
0.0
 11
1145.910556175196
 21
-750.3669458186395
 31
0.0
 11
1145.257874972666
 21
-748.8820271709494
 31
0.0
 11
1141.985804148806
 21
-746.1323424925098
 31
0.0
 11
1136.716441622175
 21
-745.189632052434
 31
0.0
 11
1131.906507533316
 21
-744.1173873555531
 31
0.0
 11
1129.910556175196
 21
-738.3669458186395
 31
0.0
 11
1133.346124750207
 21
-730.0300060929737
 31
0.0
 11
1136.836811455785
 21
-725.9393125812139
 31
0.0
 11
1141.170074848493
 21
-721.0064190872044
 31
0.0
 11
1146.910556175196
 21
-716.3669458186395
 31
0.0
  0
SPLINE
  5
48FB
330
48EB
100
AcDbEntity
  8
0
100
AcDbSpline
210
0.0
220
0.0
230
1.0
 70
     8
 71
     3
 72
    16
 73
    12
 74
    10
 42
0.0000000001
 43
0.0000000001
 44
0.0000000001
 40
0.0
 40
0.0
 40
0.0
 40
0.0
 40
3.401252532692471
 40
8.103136043517434
 40
13.53272080281765
 40
19.79197596682439
 40
23.81582475625316
 40
33.15772124713418
 40
41.29519944008999
 40
47.89646690977842
 40
57.03858537911523
 40
57.03858537911523
 40
57.03858537911523
 40
57.03858537911523
 10
1300.910556175196
 20
-750.3669458186395
 30
0.0
 10
1299.792476573714
 20
-750.0519993705473
 30
0.0
 10
1297.128766357781
 20
-749.3016716924974
 30
0.0
 10
1292.780106973933
 20
-751.0988298785646
 30
0.0
 10
1287.650125389119
 20
-753.1592854422302
 30
0.0
 10
1284.571364975349
 20
-757.7346509965137
 30
0.0
 10
1282.108358047403
 20
-763.7481789381589
 30
0.0
 10
1278.410592053892
 20
-769.9882836480776
 30
0.0
 10
1273.121505189044
 20
-776.0257531375795
 30
0.0
 10
1267.037272481467
 20
-781.3262466668645
 30
0.0
 10
1262.012988125951
 20
-783.0373673284951
 30
0.0
 10
1259.095407182458
 20
-784.031007950947
 30
0.0
 11
1300.910556175196
 21
-750.3669458186395
 31
0.0
 11
1297.566856047639
 21
-749.7438982697965
 31
0.0
 11
1293.032198784696
 21
-750.9867144496911
 31
0.0
 11
1288.204981943659
 21
-753.4723468094805
 31
0.0
 11
1284.401721601262
 21
-758.443612843007
 31
0.0
 11
1282.719510101289
 21
-762.0989546258704
 31
0.0
 11
1277.965433154776
 21
-770.1407070737491
 31
0.0
 11
1272.626241101453
 21
-776.2816825303498
 31
0.0
 11
1267.506466707011
 21
-780.448772924904
 31
0.0
 11
1259.095407182458
 21
-784.031007950947
 31
0.0
  0
SPLINE
  5
48FC
330
48EB
100
AcDbEntity
  8
0
100
AcDbSpline
210
0.0
220
0.0
230
1.0
 70
     8
 71
     3
 72
    12
 73
     8
 74
     6
 42
0.0000000001
 43
0.0000000001
 44
0.0000000001
 40
0.0
 40
0.0
 40
0.0
 40
0.0
 40
2.872421432938544
 40
7.517187186934562
 40
15.02385056108169
 40
22.87022220560027
 40
26.11764957205749
 40
26.11764957205749
 40
26.11764957205749
 40
26.11764957205749
 10
1298.695994230238
 20
-764.3695797428007
 30
0.0
 10
1297.767919145188
 20
-764.1259187777642
 30
0.0
 10
1295.339127165764
 20
-763.4882529174126
 30
0.0
 10
1290.113664010818
 20
-764.1549901239243
 30
0.0
 10
1285.048071100918
 20
-768.8415327273028
 30
0.0
 10
1280.331350252393
 20
-772.7781969313915
 30
0.0
 10
1277.313036105891
 20
-774.9228275941719
 30
0.0
 10
1276.42950144385
 20
-775.5506136481979
 30
0.0
 11
1298.695994230238
 21
-764.3695797428007
 31
0.0
 11
1295.884644547666
 21
-763.7804126606354
 31
0.0
 11
1291.2768473902
 21
-764.3652667151984
 31
0.0
 11
1285.133118521808
 21
-768.6785706233933
 31
0.0
 11
1279.062527523249
 21
-773.6498353429717
 31
0.0
 11
1276.42950144385
 21
-775.5506136481979
 31
0.0
  0
SPLINE
  5
48FD
330
48EB
100
AcDbEntity
  8
0
100
AcDbSpline
210
0.0
220
0.0
230
1.0
 70
     8
 71
     3
 72
    13
 73
     9
 74
     7
 42
0.0000000001
 43
0.0000000001
 44
0.0000000001
 40
0.0
 40
0.0
 40
0.0
 40
0.0
 40
14.09085912737186
 40
39.23820037086655
 40
60.38771355090162
 40
69.84856771465733
 40
76.74019725529918
 40
82.14779064755559
 40
82.14779064755559
 40
82.14779064755559
 40
82.14779064755559
 10
1224.624462613351
 20
-779.9738758808582
 30
0.0
 10
1228.834697597207
 20
-782.0468584968596
 30
0.0
 10
1240.558755187428
 20
-787.8194027056069
 30
0.0
 10
1261.272694415975
 20
-791.3680087800342
 30
0.0
 10
1279.435976937518
 20
-784.2246807577626
 30
0.0
 10
1288.803728869743
 20
-776.0671310278199
 30
0.0
 10
1294.070187877813
 20
-770.7666485075763
 30
0.0
 10
1298.126930229497
 20
-769.7944096197444
 30
0.0
 10
1299.910556175196
 20
-769.3669458186394
 30
0.0
 11
1224.624462613351
 21
-779.9738758808582
 31
0.0
 11
1237.478948205372
 21
-785.7457482903951
 31
0.0
 11
1262.408222863959
 21
-789.0502961586366
 31
0.0
 11
1282.133611439525
 21
-781.4206858608968
 31
0.0
 11
1289.402976728576
 21
-775.3655979340203
 31
0.0
 11
1294.768459379019
 21
-771.0405368184703
 31
0.0
 11
1299.910556175196
 21
-769.3669458186394
 31
0.0
  0
ARC
  5
48FE
330
48EB
100
AcDbEntity
  8
0
100
AcDbCircle
 10
1210.425268425989
 20
-766.3816580694319
 30
0.0
 40
14.02311176850707
100
AcDbArc
 50
175.367186999154
 51
265.8164855449673
  0
SPLINE
  5
48FF
330
48EB
100
AcDbEntity
  8
0
100
AcDbSpline
210
0.0
220
0.0
230
1.0
 70
     8
 71
     3
 72
    13
 73
     9
 74
     7
 42
0.0000000001
 43
0.0000000001
 44
0.0000000001
 40
0.0
 40
0.0
 40
0.0
 40
0.0
 40
14.09085912737186
 40
39.23820037086655
 40
60.38771355090162
 40
69.84856771465733
 40
76.74019725529918
 40
82.14779064755559
 40
82.14779064755559
 40
82.14779064755559
 40
82.14779064755559
 10
1222.196649737042
 20
-779.9738758808582
 30
0.0
 10
1217.986414753185
 20
-782.0468584968596
 30
0.0
 10
1206.262357162965
 20
-787.8194027056069
 30
0.0
 10
1185.548417934417
 20
-791.3680087800342
 30
0.0
 10
1167.385135412874
 20
-784.2246807577626
 30
0.0
 10
1158.01738348065
 20
-776.0671310278199
 30
0.0
 10
1152.750924472579
 20
-770.7666485075763
 30
0.0
 10
1148.694182120895
 20
-769.7944096197444
 30
0.0
 10
1146.910556175196
 20
-769.3669458186394
 30
0.0
 11
1222.196649737042
 21
-779.9738758808582
 31
0.0
 11
1209.342164145021
 21
-785.7457482903951
 31
0.0
 11
1184.412889486434
 21
-789.0502961586366
 31
0.0
 11
1164.687500910867
 21
-781.4206858608968
 31
0.0
 11
1157.418135621817
 21
-775.3655979340203
 31
0.0
 11
1152.052652971374
 21
-771.0405368184703
 31
0.0
 11
1146.910556175196
 21
-769.3669458186394
 31
0.0
  0
SPLINE
  5
4900
330
48EB
100
AcDbEntity
  8
0
100
AcDbSpline
210
0.0
220
0.0
230
1.0
 70
     8
 71
     3
 72
    12
 73
     8
 74
     6
 42
0.0000000001
 43
0.0000000001
 44
0.0000000001
 40
0.0
 40
0.0
 40
0.0
 40
0.0
 40
2.872421432938544
 40
7.517187186934562
 40
15.02385056108169
 40
22.87022220560027
 40
26.11764957205749
 40
26.11764957205749
 40
26.11764957205749
 40
26.11764957205749
 10
1148.125118120154
 20
-764.3695797428007
 30
0.0
 10
1149.053193205204
 20
-764.1259187777642
 30
0.0
 10
1151.481985184629
 20
-763.4882529174126
 30
0.0
 10
1156.707448339575
 20
-764.1549901239243
 30
0.0
 10
1161.773041249474
 20
-768.8415327273028
 30
0.0
 10
1166.489762097999
 20
-772.7781969313915
 30
0.0
 10
1169.508076244502
 20
-774.9228275941719
 30
0.0
 10
1170.391610906543
 20
-775.5506136481979
 30
0.0
 11
1148.125118120154
 21
-764.3695797428007
 31
0.0
 11
1150.936467802726
 21
-763.7804126606354
 31
0.0
 11
1155.544264960193
 21
-764.3652667151984
 31
0.0
 11
1161.687993828585
 21
-768.6785706233933
 31
0.0
 11
1167.758584827143
 21
-773.6498353429717
 31
0.0
 11
1170.391610906543
 21
-775.5506136481979
 31
0.0
  0
SPLINE
  5
4901
330
48EB
100
AcDbEntity
  8
0
100
AcDbSpline
210
0.0
220
0.0
230
1.0
 70
     8
 71
     3
 72
    16
 73
    12
 74
    10
 42
0.0000000001
 43
0.0000000001
 44
0.0000000001
 40
0.0
 40
0.0
 40
0.0
 40
0.0
 40
3.401252532692471
 40
8.103136043517434
 40
13.53272080281765
 40
19.79197596682439
 40
23.81582475625316
 40
33.15772124713418
 40
41.29519944008999
 40
47.89646690977842
 40
57.03858537911523
 40
57.03858537911523
 40
57.03858537911523
 40
57.03858537911523
 10
1145.910556175196
 20
-750.3669458186395
 30
0.0
 10
1147.028635776679
 20
-750.0519993705473
 30
0.0
 10
1149.692345992612
 20
-749.3016716924974
 30
0.0
 10
1154.041005376459
 20
-751.0988298785646
 30
0.0
 10
1159.170986961274
 20
-753.1592854422302
 30
0.0
 10
1162.249747375044
 20
-757.7346509965137
 30
0.0
 10
1164.71275430299
 20
-763.7481789381589
 30
0.0
 10
1168.4105202965
 20
-769.9882836480776
 30
0.0
 10
1173.699607161349
 20
-776.0257531375795
 30
0.0
 10
1179.783839868926
 20
-781.3262466668645
 30
0.0
 10
1184.808124224441
 20
-783.0373673284951
 30
0.0
 10
1187.725705167935
 20
-784.031007950947
 30
0.0
 11
1145.910556175196
 21
-750.3669458186395
 31
0.0
 11
1149.254256302754
 21
-749.7438982697965
 31
0.0
 11
1153.788913565696
 21
-750.9867144496911
 31
0.0
 11
1158.616130406734
 21
-753.4723468094805
 31
0.0
 11
1162.419390749131
 21
-758.443612843007
 31
0.0
 11
1164.101602249103
 21
-762.0989546258704
 31
0.0
 11
1168.855679195617
 21
-770.1407070737491
 31
0.0
 11
1174.194871248939
 21
-776.2816825303498
 31
0.0
 11
1179.314645643381
 21
-780.448772924904
 31
0.0
 11
1187.725705167935
 21
-784.031007950947
 31
0.0
  0
SPLINE
  5
4902
330
48EB
100
AcDbEntity
  8
0
100
AcDbSpline
210
0.0
220
0.0
230
1.0
 70
     8
 71
     3
 72
    12
 73
     8
 74
     6
 42
0.0000000001
 43
0.0000000001
 44
0.0000000001
 40
0.0
 40
0.0
 40
0.0
 40
0.0
 40
0.8821441139598096
 40
1.86857638558307
 40
3.402893040933033
 40
4.970248458776007
 40
7.088419765268145
 40
7.088419765268145
 40
7.088419765268145
 40
7.088419765268145
 10
1147.910556175196
 20
-763.3669458186396
 30
0.0
 10
1148.067557690392
 20
-763.6579744996347
 30
0.0
 10
1148.400121632215
 20
-764.2744376287642
 30
0.0
 10
1147.3586755725
 20
-765.1266692615031
 30
0.0
 10
1146.614311270099
 20
-766.1080774267555
 30
0.0
 10
1145.379624639095
 20
-767.7261607158153
 30
0.0
 10
1146.351813243578
 20
-768.7681097133731
 30
0.0
 10
1146.910556175196
 20
-769.3669458186396
 30
0.0
 11
1147.910556175196
 21
-763.3669458186396
 31
0.0
 11
1148.179986262454
 21
-764.2069372863787
 31
0.0
 11
1147.574207171493
 21
-764.9854488915937
 31
0.0
 11
1146.578995194017
 21
-766.1532162994165
 31
0.0
 11
1145.843405140885
 21
-767.5372359089504
 31
0.0
 11
1146.910556175196
 21
-769.3669458186396
 31
0.0
  0
SPLINE
  5
4903
330
48EB
100
AcDbEntity
  8
0
100
AcDbSpline
210
0.0
220
0.0
230
1.0
 70
     8
 71
     3
 72
     9
 73
     5
 74
     3
 42
0.0000000001
 43
0.0000000001
 44
0.0000000001
 40
0.0
 40
0.0
 40
0.0
 40
0.0
 40
7.211102550928104
 40
16.43064700822099
 40
16.43064700822099
 40
16.43064700822099
 40
16.43064700822099
 10
1145.910556175196
 20
-750.3669458186395
 30
0.0
 10
1143.941362695962
 20
-752.4053422776132
 30
0.0
 10
1139.454514433897
 20
-757.0498709670429
 30
0.0
 10
1144.871169398242
 20
-761.0963759278592
 30
0.0
 10
1147.910556175196
 20
-763.3669458186395
 30
0.0
 11
1145.910556175196
 21
-750.3669458186395
 31
0.0
 11
1141.910556175196
 21
-756.3669458186396
 31
0.0
 11
1147.910556175196
 21
-763.3669458186395
 31
0.0
  0
ARC
  5
4904
330
48EB
100
AcDbEntity
  8
0
100
AcDbCircle
 10
1209.497115916762
 20
-760.7458689929115
 30
0.0
 40
28.42280696280784
100
AcDbArc
 50
169.5537539392011
 51
225.5436698116933
  0
SPLINE
  5
4905
330
48EB
100
AcDbEntity
  8
0
100
AcDbSpline
210
0.0
220
0.0
230
1.0
 70
     8
 71
     3
 72
    10
 73
     6
 74
     4
 42
0.0000000001
 43
0.0000000001
 44
0.0000000001
 40
0.0
 40
0.0
 40
0.0
 40
0.0
 40
9.758536872530223
 40
20.94030028136811
 40
25.5857803283045
 40
25.5857803283045
 40
25.5857803283045
 40
25.5857803283045
 10
1174.687948546138
 20
-761.8530214874617
 30
0.0
 10
1175.167295516016
 20
-765.0994440894518
 30
0.0
 10
1176.195899457296
 20
-772.0657613779844
 30
0.0
 10
1181.579363186348
 20
-779.3093372259001
 30
0.0
 10
1185.990949050113
 20
-782.2025727807335
 30
0.0
 10
1187.285800813955
 20
-783.0517710683964
 30
0.0
 11
1174.687948546138
 21
-761.8530214874617
 31
0.0
 11
1176.859468316472
 21
-771.366882101302
 31
0.0
 11
1183.494407178507
 21
-780.3674053765501
 31
0.0
 11
1187.285800813955
 21
-783.0517710683964
 31
0.0
  0
SPLINE
  5
4906
330
48EB
100
AcDbEntity
  8
0
100
AcDbSpline
210
0.0
220
0.0
230
1.0
 70
     8
 71
     3
 72
    15
 73
    11
 74
     9
 42
0.0000000001
 43
0.0000000001
 44
0.0000000001
 40
0.0
 40
0.0
 40
0.0
 40
0.0
 40
4.966070664005837
 40
9.135539344709053
 40
12.18635855514697
 40
13.9870462373741
 40
16.51205041552578
 40
21.41101974720287
 40
26.93605685715126
 40
34.96126335498626
 40
34.96126335498626
 40
34.96126335498626
 40
34.96126335498626
 10
1190.711214247108
 20
-760.4048937065495
 30
0.0
 10
1190.221721256781
 20
-758.8590588857942
 30
0.0
 10
1189.321254313269
 20
-756.0153549232658
 30
0.0
 10
1187.130505308526
 20
-752.0730516706103
 30
0.0
 10
1183.884702568663
 20
-751.8045792204597
 30
0.0
 10
1182.066819134845
 20
-749.8383161587731
 30
0.0
 10
1183.500607300461
 20
-745.6634421289109
 30
0.0
 10
1176.691582541832
 20
-749.2886991242312
 30
0.0
 10
1174.558808484959
 20
-754.3657300003119
 30
0.0
 10
1174.639913596553
 20
-759.0680478252803
 30
0.0
 10
1174.687948546138
 20
-761.8530214874617
 30
0.0
 11
1190.711214247108
 21
-760.4048937065495
 31
0.0
 11
1189.023523234318
 21
-755.7343951373122
 31
0.0
 11
1186.495928827145
 21
-752.4184132929415
 31
0.0
 11
1183.652383600559
 21
-751.3130860114845
 31
0.0
 11
1182.546558769645
 21
-749.8919499967912
 31
0.0
 11
1182.546558769645
 21
-747.3669458186395
 31
0.0
 11
1177.965293147386
 21
-749.1024301346223
 31
0.0
 11
1175.121747920799
 21
-753.8395479936866
 31
0.0
 11
1174.687948546138
 21
-761.8530214874617
 31
0.0
  0
SPLINE
  5
4907
330
48EB
100
AcDbEntity
  8
0
100
AcDbSpline
210
0.0
220
0.0
230
1.0
 70
     8
 71
     3
 72
    11
 73
     7
 74
     5
 42
0.0000000001
 43
0.0000000001
 44
0.0000000001
 40
0.0
 40
0.0
 40
0.0
 40
0.0
 40
5.913766775261529
 40
9.48752533928979
 40
12.59903707993316
 40
15.90210259833547
 40
15.90210259833547
 40
15.90210259833547
 40
15.90210259833547
 10
1196.485277989011
 20
-767.9062335149267
 30
0.0
 10
1196.522299058237
 20
-765.9550887513585
 30
0.0
 10
1196.581692393436
 20
-762.8248443422599
 30
0.0
 10
1193.454968351652
 20
-758.6603277479253
 30
0.0
 10
1189.881420518642
 20
-760.6736150566375
 30
0.0
 10
1189.020297573692
 20
-762.6139098381612
 30
0.0
 10
1188.57687856232
 20
-763.6130280231279
 30
0.0
 11
1196.485277989011
 21
-767.9062335149267
 31
0.0
 11
1195.658462096353
 21
-762.0505514067659
 31
0.0
 11
1193.13086768918
 21
-759.5240881106156
 31
0.0
 11
1190.287322462594
 21
-760.7873204156649
 31
0.0
 11
1188.57687856232
 21
-763.6130280231279
 31
0.0
  0
ARC
  5
4908
330
48EB
100
AcDbEntity
  8
0
100
AcDbCircle
 10
1210.425268425989
 20
-766.3816580694319
 30
0.0
 40
22.02311176850707
100
AcDbArc
 50
172.7779662986084
 51
226.5388930279265
  0
ARC
  5
4909
330
48EB
100
AcDbEntity
  8
0
100
AcDbCircle
 10
1235.910556175196
 20
-766.8669458186395
 30
0.0
 40
7.5
100
AcDbArc
 50
180.0
 51
90.0
  0
ARC
  5
490A
330
48EB
100
AcDbEntity
  8
0
100
AcDbCircle
 10
1236.395843924404
 20
-766.3816580694319
 30
0.0
 40
14.02311176850707
100
AcDbArc
 50
274.1835144550328
 51
4.632813000845954
  0
SPLINE
  5
490B
330
48EB
100
AcDbEntity
  8
0
100
AcDbSpline
210
0.0
220
0.0
230
1.0
 70
     8
 71
     3
 72
     9
 73
     5
 74
     3
 42
0.0000000001
 43
0.0000000001
 44
0.0000000001
 40
0.0
 40
0.0
 40
0.0
 40
0.0
 40
5.736831317304442
 40
13.23683131730444
 40
13.23683131730444
 40
13.23683131730444
 40
13.23683131730444
 10
1224.624462613351
 20
-779.9738758808582
 30
0.0
 10
1224.132142799453
 20
-778.1142823755049
 30
0.0
 10
1222.996192660729
 20
-773.8235643488362
 30
0.0
 10
1223.260691120553
 20
-769.3829830172898
 30
0.0
 10
1223.410556175196
 20
-766.8669458186395
 30
0.0
 11
1224.624462613351
 21
-779.9738758808582
 31
0.0
 11
1223.410556175196
 21
-774.3669458186396
 31
0.0
 11
1223.410556175196
 21
-766.8669458186395
 31
0.0
  0
SPLINE
  5
490C
330
48EB
100
AcDbEntity
  8
0
100
AcDbSpline
210
0.0
220
0.0
230
1.0
 70
     8
 71
     3
 72
     9
 73
     5
 74
     3
 42
0.0000000001
 43
0.0000000001
 44
0.0000000001
 40
0.0
 40
0.0
 40
0.0
 40
0.0
 40
7.716103972453058
 40
15.39297707653732
 40
15.39297707653732
 40
15.39297707653732
 40
15.39297707653732
 10
1235.910556175196
 20
-759.3669458186395
 30
0.0
 10
1233.183989914381
 20
-759.5590062274692
 30
0.0
 10
1227.74472003152
 20
-759.9421505553555
 30
0.0
 10
1224.85282067526
 20
-764.5626059945064
 30
0.0
 10
1223.410556175196
 20
-766.8669458186395
 30
0.0
 11
1235.910556175196
 21
-759.3669458186395
 31
0.0
 11
1228.370950302312
 21
-761.0078613543323
 31
0.0
 11
1223.410556175196
 21
-766.8669458186395
 31
0.0
  0
ARC
  5
490D
330
48EB
100
AcDbEntity
  8
0
100
AcDbCircle
 10
1239.625324599024
 20
-769.1394580699587
 30
0.0
 40
11.44269822779912
100
AcDbArc
 50
168.5449361370406
 51
258.882106909915
  0
ARC
  5
490E
330
48EB
100
AcDbEntity
  8
0
100
AcDbCircle
 10
1207.195787751369
 20
-769.1394580699587
 30
0.0
 40
11.44269822779912
100
AcDbArc
 50
281.117893090085
 51
11.45506386295938
  0
SPLINE
  5
490F
330
48EB
100
AcDbEntity
  8
0
100
AcDbSpline
210
0.0
220
0.0
230
1.0
 70
     8
 71
     3
 72
     9
 73
     5
 74
     3
 42
0.0000000001
 43
0.0000000001
 44
0.0000000001
 40
0.0
 40
0.0
 40
0.0
 40
0.0
 40
5.736831317304442
 40
13.23683131730444
 40
13.23683131730444
 40
13.23683131730444
 40
13.23683131730444
 10
1222.196649737042
 20
-779.9738758808582
 30
0.0
 10
1222.688969550939
 20
-778.1142823755049
 30
0.0
 10
1223.824919689663
 20
-773.8235643488362
 30
0.0
 10
1223.56042122984
 20
-769.3829830172898
 30
0.0
 10
1223.410556175196
 20
-766.8669458186395
 30
0.0
 11
1222.196649737042
 21
-779.9738758808582
 31
0.0
 11
1223.410556175196
 21
-774.3669458186396
 31
0.0
 11
1223.410556175196
 21
-766.8669458186395
 31
0.0
  0
SPLINE
  5
4910
330
48EB
100
AcDbEntity
  8
0
100
AcDbSpline
210
0.0
220
0.0
230
1.0
 70
     8
 71
     3
 72
     9
 73
     5
 74
     3
 42
0.0000000001
 43
0.0000000001
 44
0.0000000001
 40
0.0
 40
0.0
 40
0.0
 40
0.0
 40
7.716103972453058
 40
15.39297707653732
 40
15.39297707653732
 40
15.39297707653732
 40
15.39297707653732
 10
1210.910556175196
 20
-759.3669458186395
 30
0.0
 10
1213.637122436012
 20
-759.5590062274692
 30
0.0
 10
1219.076392318873
 20
-759.9421505553555
 30
0.0
 10
1221.968291675132
 20
-764.5626059945064
 30
0.0
 10
1223.410556175196
 20
-766.8669458186395
 30
0.0
 11
1210.910556175196
 21
-759.3669458186395
 31
0.0
 11
1218.45016204808
 21
-761.0078613543323
 31
0.0
 11
1223.410556175196
 21
-766.8669458186395
 31
0.0
  0
ARC
  5
4911
330
48EB
100
AcDbEntity
  8
0
100
AcDbCircle
 10
1210.910556175196
 20
-766.8669458186395
 30
0.0
 40
7.5
100
AcDbArc
 50
90.0
 51
0.0
  0
SPLINE
  5
4912
330
48EB
100
AcDbEntity
  8
0
100
AcDbSpline
210
0.0
220
0.0
230
1.0
 70
     8
 71
     3
 72
    11
 73
     7
 74
     5
 42
0.0000000001
 43
0.0000000001
 44
0.0000000001
 40
0.0
 40
0.0
 40
0.0
 40
0.0
 40
5.913766775261529
 40
9.48752533928979
 40
12.59903707993316
 40
15.90210259833547
 40
15.90210259833547
 40
15.90210259833547
 40
15.90210259833547
 10
1250.335834361382
 20
-767.9062335149267
 30
0.0
 10
1250.298813292156
 20
-765.9550887513585
 30
0.0
 10
1250.239419956957
 20
-762.8248443422599
 30
0.0
 10
1253.36614399874
 20
-758.6603277479253
 30
0.0
 10
1256.93969183175
 20
-760.6736150566375
 30
0.0
 10
1257.800814776701
 20
-762.6139098381612
 30
0.0
 10
1258.244233788073
 20
-763.6130280231279
 30
0.0
 11
1250.335834361382
 21
-767.9062335149267
 31
0.0
 11
1251.16265025404
 21
-762.0505514067659
 31
0.0
 11
1253.690244661213
 21
-759.5240881106156
 31
0.0
 11
1256.533789887799
 21
-760.7873204156649
 31
0.0
 11
1258.244233788073
 21
-763.6130280231279
 31
0.0
  0
ARC
  5
4913
330
48EB
100
AcDbEntity
  8
0
100
AcDbCircle
 10
1236.395843924404
 20
-766.3816580694319
 30
0.0
 40
22.02311176850707
100
AcDbArc
 50
313.4611069720735
 51
7.22203370139158
  0
SPLINE
  5
4914
330
48EB
100
AcDbEntity
  8
0
100
AcDbSpline
210
0.0
220
0.0
230
1.0
 70
     8
 71
     3
 72
    15
 73
    11
 74
     9
 42
0.0000000001
 43
0.0000000001
 44
0.0000000001
 40
0.0
 40
0.0
 40
0.0
 40
0.0
 40
4.966070664005837
 40
9.135539344709053
 40
12.18635855514697
 40
13.9870462373741
 40
16.51205041552578
 40
21.41101974720287
 40
26.93605685715126
 40
34.96126335498626
 40
34.96126335498626
 40
34.96126335498626
 40
34.96126335498626
 10
1256.109898103285
 20
-760.4048937065495
 30
0.0
 10
1256.599391093611
 20
-758.8590588857942
 30
0.0
 10
1257.499858037124
 20
-756.0153549232658
 30
0.0
 10
1259.690607041867
 20
-752.0730516706103
 30
0.0
 10
1262.936409781729
 20
-751.8045792204597
 30
0.0
 10
1264.754293215547
 20
-749.8383161587731
 30
0.0
 10
1263.320505049931
 20
-745.6634421289109
 30
0.0
 10
1270.129529808561
 20
-749.2886991242312
 30
0.0
 10
1272.262303865433
 20
-754.3657300003119
 30
0.0
 10
1272.18119875384
 20
-759.0680478252803
 30
0.0
 10
1272.133163804255
 20
-761.8530214874617
 30
0.0
 11
1256.109898103285
 21
-760.4048937065495
 31
0.0
 11
1257.797589116075
 21
-755.7343951373122
 31
0.0
 11
1260.325183523247
 21
-752.4184132929415
 31
0.0
 11
1263.168728749834
 21
-751.3130860114845
 31
0.0
 11
1264.274553580748
 21
-749.8919499967912
 31
0.0
 11
1264.274553580748
 21
-747.3669458186395
 31
0.0
 11
1268.855819203007
 21
-749.1024301346223
 31
0.0
 11
1271.699364429593
 21
-753.8395479936866
 31
0.0
 11
1272.133163804255
 21
-761.8530214874617
 31
0.0
  0
SPLINE
  5
4915
330
48EB
100
AcDbEntity
  8
0
100
AcDbSpline
210
0.0
220
0.0
230
1.0
 70
     8
 71
     3
 72
    10
 73
     6
 74
     4
 42
0.0000000001
 43
0.0000000001
 44
0.0000000001
 40
0.0
 40
0.0
 40
0.0
 40
0.0
 40
9.758536872530223
 40
20.94030028136811
 40
25.5857803283045
 40
25.5857803283045
 40
25.5857803283045
 40
25.5857803283045
 10
1272.133163804255
 20
-761.8530214874617
 30
0.0
 10
1271.653816834377
 20
-765.0994440894518
 30
0.0
 10
1270.625212893097
 20
-772.0657613779844
 30
0.0
 10
1265.241749164045
 20
-779.3093372259001
 30
0.0
 10
1260.830163300279
 20
-782.2025727807335
 30
0.0
 10
1259.535311536437
 20
-783.0517710683964
 30
0.0
 11
1272.133163804255
 21
-761.8530214874617
 31
0.0
 11
1269.961644033921
 21
-771.366882101302
 31
0.0
 11
1263.326705171886
 21
-780.3674053765501
 31
0.0
 11
1259.535311536437
 21
-783.0517710683964
 31
0.0
  0
ARC
  5
4916
330
48EB
100
AcDbEntity
  8
0
100
AcDbCircle
 10
1237.323996433631
 20
-760.7458689929115
 30
0.0
 40
28.42280696280784
100
AcDbArc
 50
314.4563301883067
 51
10.4462460607988
  0
SPLINE
  5
4917
330
48EB
100
AcDbEntity
  8
0
100
AcDbSpline
210
0.0
220
0.0
230
1.0
 70
     8
 71
     3
 72
     9
 73
     5
 74
     3
 42
0.0000000001
 43
0.0000000001
 44
0.0000000001
 40
0.0
 40
0.0
 40
0.0
 40
0.0
 40
7.211102550928104
 40
16.43064700822099
 40
16.43064700822099
 40
16.43064700822099
 40
16.43064700822099
 10
1300.910556175196
 20
-750.3669458186395
 30
0.0
 10
1302.879749654431
 20
-752.4053422776132
 30
0.0
 10
1307.366597916496
 20
-757.0498709670429
 30
0.0
 10
1301.949942952151
 20
-761.0963759278592
 30
0.0
 10
1298.910556175196
 20
-763.3669458186395
 30
0.0
 11
1300.910556175196
 21
-750.3669458186395
 31
0.0
 11
1304.910556175196
 21
-756.3669458186396
 31
0.0
 11
1298.910556175196
 21
-763.3669458186395
 31
0.0
  0
SPLINE
  5
4918
330
48EB
100
AcDbEntity
  8
0
100
AcDbSpline
210
0.0
220
0.0
230
1.0
 70
     8
 71
     3
 72
    12
 73
     8
 74
     6
 42
0.0000000001
 43
0.0000000001
 44
0.0000000001
 40
0.0
 40
0.0
 40
0.0
 40
0.0
 40
0.8821441139598096
 40
1.86857638558307
 40
3.402893040933033
 40
4.970248458776007
 40
7.088419765268145
 40
7.088419765268145
 40
7.088419765268145
 40
7.088419765268145
 10
1298.910556175196
 20
-763.3669458186396
 30
0.0
 10
1298.753554660001
 20
-763.6579744996347
 30
0.0
 10
1298.420990718178
 20
-764.2744376287642
 30
0.0
 10
1299.462436777892
 20
-765.1266692615031
 30
0.0
 10
1300.206801080294
 20
-766.1080774267555
 30
0.0
 10
1301.441487711297
 20
-767.7261607158153
 30
0.0
 10
1300.469299106815
 20
-768.7681097133731
 30
0.0
 10
1299.910556175196
 20
-769.3669458186396
 30
0.0
 11
1298.910556175196
 21
-763.3669458186396
 31
0.0
 11
1298.641126087939
 21
-764.2069372863787
 31
0.0
 11
1299.246905178899
 21
-764.9854488915937
 31
0.0
 11
1300.242117156375
 21
-766.1532162994165
 31
0.0
 11
1300.977707209508
 21
-767.5372359089504
 31
0.0
 11
1299.910556175196
 21
-769.3669458186396
 31
0.0
  0
ARC
  5
4919
330
48EB
100
AcDbEntity
  8
0
100
AcDbCircle
 10
1263.671307053977
 20
-741.5198728469346
 30
0.0
 40
18.34772836988372
100
AcDbArc
 50
4.915938714886483
 51
101.9783739053006
  0
ARC
  5
491A
330
48EB
100
AcDbEntity
  8
0
100
AcDbCircle
 10
1263.3595564277
 20
-732.1200709889637
 30
0.0
 40
15.75320772433814
100
AcDbArc
 50
9.868397215774939
 51
89.81450918166693
  0
SPLINE
  5
491B
330
48EB
100
AcDbEntity
  8
0
100
AcDbSpline
210
0.0
220
0.0
230
1.0
 70
     8
 71
     3
 72
    13
 73
     9
 74
     7
 42
0.0000000001
 43
0.0000000001
 44
0.0000000001
 40
0.0
 40
0.0
 40
0.0
 40
0.0
 40
3.020313299452814
 40
19.37701653435088
 40
22.0908702466845
 40
27.56630779281259
 40
34.64197881193961
 40
41.17209875538875
 40
41.17209875538875
 40
41.17209875538875
 40
41.17209875538875
 10
1270.410556175196
 20
-696.3669458186394
 30
0.0
 10
1271.412707510536
 20
-696.1313079578555
 30
0.0
 10
1277.842074622322
 20
-694.6195579267069
 30
0.0
 10
1283.697017297349
 20
-701.6157529045589
 30
0.0
 10
1291.248347496103
 20
-704.8937352627902
 30
0.0
 10
1297.613269516545
 20
-701.2204865867288
 30
0.0
 10
1297.297812921137
 20
-710.69932062147
 30
0.0
 10
1299.063237823915
 20
-714.5289225722735
 30
0.0
 10
1299.910556175196
 20
-716.3669458186395
 30
0.0
 11
1270.410556175196
 21
-696.3669458186394
 31
0.0
 11
1273.385578741311
 21
-695.845857382805
 31
0.0
 11
1287.910556175196
 21
-703.3669458186396
 31
0.0
 11
1290.497092778346
 21
-704.1884264164098
 31
0.0
 11
1295.910556175196
 21
-703.3669458186396
 31
0.0
 11
1297.827087403613
 21
-710.1781152058606
 31
0.0
 11
1299.910556175196
 21
-716.3669458186395
 31
0.0
  0
SPLINE
  5
491C
330
48EB
100
AcDbEntity
  8
0
100
AcDbSpline
210
0.0
220
0.0
230
1.0
 70
     8
 71
     3
 72
    21
 73
    17
 74
    15
 42
0.0000000001
 43
0.0000000001
 44
0.0000000001
 40
0.0
 40
0.0
 40
0.0
 40
0.0
 40
2.828762158462481
 40
7.159486863899548
 40
10.26559979524044
 40
13.48099422580892
 40
17.97315110109192
 40
22.96666186531003
 40
29.31741504447589
 40
36.303798491914
 40
43.4882451713605
 40
61.67923859281853
 40
73.95101983725922
 40
83.34553716348516
 40
95.52103738090488
 40
100.126157649712
 40
100.126157649712
 40
100.126157649712
 40
100.126157649712
 10
1243.410556175196
 20
-710.3669458186395
 30
0.0
 10
1243.660230012651
 20
-709.4973179523556
 30
0.0
 10
1244.292144772318
 20
-707.2963236883041
 30
0.0
 10
1240.144258498983
 20
-702.1851047885995
 30
0.0
 10
1241.187298369324
 20
-707.7744770792455
 30
0.0
 10
1238.274583070454
 20
-710.1102956445076
 30
0.0
 10
1233.632986354653
 20
-711.1806239230065
 30
0.0
 10
1229.550149195549
 20
-706.3567763941237
 30
0.0
 10
1231.049443890724
 20
-699.7928126143992
 30
0.0
 10
1236.385866816428
 20
-694.7796294897393
 30
0.0
 10
1247.532296282132
 20
-693.9156130206161
 30
0.0
 10
1259.903437415167
 20
-696.0796114472672
 30
0.0
 10
1272.341041752309
 20
-701.500588713332
 30
0.0
 10
1280.490946647624
 20
-709.3494844809622
 30
0.0
 10
1286.19878829398
 20
-716.2978523702441
 30
0.0
 10
1287.69785445609
 20
-721.7160111037424
 30
0.0
 10
1288.109244486219
 20
-723.2029211154268
 30
0.0
 11
1243.410556175196
 21
-710.3669458186395
 31
0.0
 11
1243.609330318568
 21
-707.5451761276342
 31
0.0
 11
1240.915389421688
 21
-704.1543268360253
 31
0.0
 11
1240.616063330265
 21
-707.245983581726
 31
0.0
 11
1238.489586294473
 21
-709.6577996527355
 31
0.0
 11
1234.045187678357
 21
-710.3110946345127
 31
0.0
 11
1230.646529198495
 21
-706.652642736561
 31
0.0
 11
1231.536483627067
 21
-700.3645550258377
 31
0.0
 11
1236.625039329402
 21
-695.5774729773589
 31
0.0
 11
1243.709107032169
 21
-694.380702793726
 31
0.0
 11
1261.668713011363
 21
-697.2728982801372
 31
0.0
 11
1272.743802690303
 21
-702.5586341338139
 31
0.0
 11
1279.728093679469
 21
-708.8416775978857
 31
0.0
 11
1286.712386693324
 21
-718.8147642134226
 31
0.0
 11
1288.109244486219
 21
-723.2029211154268
 31
0.0
  0
SPLINE
  5
491D
330
48EB
100
AcDbEntity
  8
0
100
AcDbSpline
210
0.0
220
0.0
230
1.0
 70
     8
 71
     3
 72
    13
 73
     9
 74
     7
 42
0.0000000001
 43
0.0000000001
 44
0.0000000001
 40
0.0
 40
0.0
 40
0.0
 40
0.0
 40
7.638972965635153
 40
15.86399294472183
 40
25.15298632048799
 40
34.10302954578361
 40
45.16748875766801
 40
51.51287535146098
 40
51.51287535146098
 40
51.51287535146098
 40
51.51287535146098
 10
1220.357545721605
 20
-705.6073707657176
 30
0.0
 10
1220.059674329944
 20
-703.0176016459495
 30
0.0
 10
1219.441079438066
 20
-697.6393814023016
 30
0.0
 10
1212.950761841395
 20
-691.3121057953421
 30
0.0
 10
1203.93893211332
 20
-689.4536465796534
 30
0.0
 10
1194.354249113587
 20
-691.292587202383
 30
0.0
 10
1185.419477983217
 20
-692.5801132448267
 30
0.0
 10
1180.656158532875
 20
-695.9990801757647
 30
0.0
 10
1178.920065995382
 20
-697.2451949989711
 30
0.0
 11
1220.357545721605
 21
-705.6073707657176
 31
0.0
 11
1218.658217494019
 21
-698.159807973459
 31
0.0
 11
1212.90664269524
 21
-692.2801531374652
 31
0.0
 11
1203.887127439803
 21
-690.0589501994232
 31
0.0
 11
1194.998332232261
 21
-691.1042221702664
 31
0.0
 11
1184.279488749238
 21
-693.8480610937301
 31
0.0
 11
1178.920065995382
 21
-697.2451949989711
 31
0.0
  0
SPLINE
  5
491E
330
48EB
100
AcDbEntity
  8
0
100
AcDbSpline
210
0.0
220
0.0
230
1.0
 70
     8
 71
     3
 72
     9
 73
     5
 74
     3
 42
0.0000000001
 43
0.0000000001
 44
0.0000000001
 40
0.0
 40
0.0
 40
0.0
 40
0.0
 40
8.345313284558184
 40
24.95550741383873
 40
24.95550741383873
 40
24.95550741383873
 40
24.95550741383873
 10
1205.270269371859
 20
-704.32668736097
 30
0.0
 10
1202.470781023005
 20
-704.2475699681181
 30
0.0
 10
1194.099297549271
 20
-704.0109803259373
 30
0.0
 10
1186.211730216949
 20
-707.0310221839791
 30
0.0
 10
1180.961825960344
 20
-709.0411388571752
 30
0.0
 11
1205.270269371859
 21
-704.32668736097
 31
0.0
 11
1196.925919939107
 21
-704.4535193819335
 31
0.0
 11
1180.961825960344
 21
-709.0411388571752
 31
0.0
  0
SPLINE
  5
491F
330
48EB
100
AcDbEntity
  8
0
100
AcDbSpline
210
0.0
220
0.0
230
1.0
 70
     8
 71
     3
 72
    21
 73
    17
 74
    15
 42
0.0000000001
 43
0.0000000001
 44
0.0000000001
 40
0.0
 40
0.0
 40
0.0
 40
0.0
 40
2.828762158462481
 40
7.159486863899548
 40
10.26559979524044
 40
13.48099422580892
 40
17.97315110109192
 40
22.96666186531003
 40
29.31741504447589
 40
36.303798491914
 40
43.4882451713605
 40
61.67923859281853
 40
73.95101983725922
 40
83.34553716348516
 40
95.52103738090488
 40
100.126157649712
 40
100.126157649712
 40
100.126157649712
 40
100.126157649712
 10
1203.410556175196
 20
-710.3669458186395
 30
0.0
 10
1203.160882337741
 20
-709.4973179523556
 30
0.0
 10
1202.528967578074
 20
-707.2963236883041
 30
0.0
 10
1206.67685385141
 20
-702.1851047885995
 30
0.0
 10
1205.633813981069
 20
-707.7744770792455
 30
0.0
 10
1208.546529279938
 20
-710.1102956445076
 30
0.0
 10
1213.188125995739
 20
-711.1806239230065
 30
0.0
 10
1217.270963154844
 20
-706.3567763941237
 30
0.0
 10
1215.771668459669
 20
-699.7928126143992
 30
0.0
 10
1210.435245533965
 20
-694.7796294897393
 30
0.0
 10
1199.28881606826
 20
-693.9156130206161
 30
0.0
 10
1186.917674935225
 20
-696.0796114472672
 30
0.0
 10
1174.480070598084
 20
-701.500588713332
 30
0.0
 10
1166.330165702768
 20
-709.3494844809622
 30
0.0
 10
1160.622324056412
 20
-716.2978523702441
 30
0.0
 10
1159.123257894302
 20
-721.7160111037424
 30
0.0
 10
1158.711867864173
 20
-723.2029211154268
 30
0.0
 11
1203.410556175196
 21
-710.3669458186395
 31
0.0
 11
1203.211782031825
 21
-707.5451761276342
 31
0.0
 11
1205.905722928704
 21
-704.1543268360253
 31
0.0
 11
1206.205049020127
 21
-707.245983581726
 31
0.0
 11
1208.331526055919
 21
-709.6577996527355
 31
0.0
 11
1212.775924672036
 21
-710.3110946345127
 31
0.0
 11
1216.174583151897
 21
-706.652642736561
 31
0.0
 11
1215.284628723326
 21
-700.3645550258377
 31
0.0
 11
1210.19607302099
 21
-695.5774729773589
 31
0.0
 11
1203.112005318224
 21
-694.380702793726
 31
0.0
 11
1185.15239933903
 21
-697.2728982801372
 31
0.0
 11
1174.07730966009
 21
-702.5586341338139
 31
0.0
 11
1167.093018670924
 21
-708.8416775978857
 31
0.0
 11
1160.108725657069
 21
-718.8147642134226
 31
0.0
 11
1158.711867864173
 21
-723.2029211154268
 31
0.0
  0
ARC
  5
4920
330
48EB
100
AcDbEntity
  8
0
100
AcDbCircle
 10
1196.449334260826
 20
-687.4391803421575
 30
0.0
 40
3.019815134956675
100
AcDbArc
 50
4.8522688562462
 51
98.78430938920924
  0
SPLINE
  5
4921
330
48EB
100
AcDbEntity
  8
0
100
AcDbSpline
210
0.0
220
0.0
230
1.0
 70
     8
 71
     3
 72
    15
 73
    11
 74
     9
 42
0.0000000001
 43
0.0000000001
 44
0.0000000001
 40
0.0
 40
0.0
 40
0.0
 40
0.0
 40
6.45237421807232
 40
15.12162885850096
 40
16.48445006949479
 40
19.0834728806382
 40
20.88657571777278
 40
23.15815207744394
 40
26.92929722938336
 40
34.25899876814097
 40
34.25899876814097
 40
34.25899876814097
 40
34.25899876814097
 10
1183.410556175196
 20
-716.3669458186395
 30
0.0
 10
1185.483928349535
 20
-716.0113610256002
 30
0.0
 10
1190.343033455077
 20
-715.1780210663327
 30
0.0
 10
1196.612736032314
 20
-714.9894332983417
 30
0.0
 10
1199.762657570831
 20
-717.3084063674089
 30
0.0
 10
1201.952308588596
 20
-719.3898879191246
 30
0.0
 10
1199.081188375882
 20
-720.114610629955
 30
0.0
 10
1197.169350429646
 20
-721.8985549756835
 30
0.0
 10
1197.178110880677
 20
-726.8313977070247
 30
0.0
 10
1194.17517209976
 20
-729.3507334079431
 30
0.0
 10
1192.192382352585
 20
-731.0142082110989
 30
0.0
 11
1183.410556175196
 21
-716.3669458186395
 31
0.0
 11
1189.793128076178
 21
-715.4204211338883
 31
0.0
 11
1198.410556175196
 21
-716.3669458186395
 31
0.0
 11
1199.515526545633
 21
-717.164643840193
 31
0.0
 11
1201.011642731539
 21
-719.2898628715199
 31
0.0
 11
1199.431570758171
 21
-720.1585126284745
 31
0.0
 11
1197.743400596101
 21
-721.6784273174339
 31
0.0
 11
1196.828378483051
 21
-725.3368792153856
 31
0.0
 11
1192.192382352585
 21
-731.0142082110989
 31
0.0
  0
ARC
  5
4922
330
48EB
100
AcDbEntity
  8
0
100
AcDbCircle
 10
1196.983818566934
 20
-747.0995697360183
 30
0.0
 40
37.29059688636046
100
AcDbArc
 50
80.07598167702496
 51
111.3452045979744
  0
SPLINE
  5
4923
330
48EB
100
AcDbEntity
  8
0
100
AcDbSpline
210
0.0
220
0.0
230
1.0
 70
     8
 71
     3
 72
    11
 73
     7
 74
     5
 42
0.0000000001
 43
0.0000000001
 44
0.0000000001
 40
0.0
 40
0.0
 40
0.0
 40
0.0
 40
19.10798690240933
 40
26.59718395052343
 40
32.37983993076817
 40
39.83846971366917
 40
39.83846971366917
 40
39.83846971366917
 40
39.83846971366917
 10
1191.410556175196
 20
-689.3669458186395
 30
0.0
 10
1197.766441809958
 20
-687.4686802730921
 30
0.0
 10
1206.613457472029
 20
-684.8264072717694
 30
0.0
 10
1217.087514513919
 20
-689.1140269458032
 30
0.0
 10
1221.591822384184
 20
-694.6436685579418
 30
0.0
 10
1222.755226833845
 20
-698.9444027940658
 30
0.0
 10
1223.410556175196
 20
-701.3669458186395
 30
0.0
 11
1191.410556175196
 21
-689.3669458186395
 31
0.0
 11
1210.352534975068
 21
-686.8536605964941
 31
0.0
 11
1217.190746619477
 21
-689.9076635322735
 31
0.0
 11
1220.900840860487
 21
-694.3432368783792
 31
0.0
 11
1223.410556175196
 21
-701.3669458186395
 31
0.0
  0
ARC
  5
4924
330
48EB
100
AcDbEntity
  8
0
100
AcDbCircle
 10
1196.932027067729
 20
-687.5216716358409
 30
0.0
 40
5.821655917931289
100
AcDbArc
 50
53.3078417131454
 51
198.4796149353689
  0
SPLINE
  5
4925
330
48EB
100
AcDbEntity
  8
0
100
AcDbSpline
210
0.0
220
0.0
230
1.0
 70
     8
 71
     3
 72
    13
 73
     9
 74
     7
 42
0.0000000001
 43
0.0000000001
 44
0.0000000001
 40
0.0
 40
0.0
 40
0.0
 40
0.0
 40
3.020313299452814
 40
19.37701653435088
 40
22.0908702466845
 40
27.56630779281259
 40
34.64197881193961
 40
41.17209875538875
 40
41.17209875538875
 40
41.17209875538875
 40
41.17209875538875
 10
1176.410556175196
 20
-696.3669458186394
 30
0.0
 10
1175.408404839857
 20
-696.1313079578555
 30
0.0
 10
1168.979037728071
 20
-694.6195579267069
 30
0.0
 10
1163.124095053042
 20
-701.6157529045589
 30
0.0
 10
1155.572764854291
 20
-704.8937352627902
 30
0.0
 10
1149.207842833847
 20
-701.2204865867288
 30
0.0
 10
1149.523299429255
 20
-710.69932062147
 30
0.0
 10
1147.757874526478
 20
-714.5289225722735
 30
0.0
 10
1146.910556175196
 20
-716.3669458186395
 30
0.0
 11
1176.410556175196
 21
-696.3669458186394
 31
0.0
 11
1173.435533609082
 21
-695.845857382805
 31
0.0
 11
1158.910556175196
 21
-703.3669458186396
 31
0.0
 11
1156.324019572046
 21
-704.1884264164098
 31
0.0
 11
1150.910556175196
 21
-703.3669458186396
 31
0.0
 11
1148.99402494678
 21
-710.1781152058606
 31
0.0
 11
1146.910556175196
 21
-716.3669458186395
 31
0.0
  0
ARC
  5
4926
330
48EB
100
AcDbEntity
  8
0
100
AcDbCircle
 10
1197.029544141663
 20
-687.2893605858539
 30
0.0
 40
3.019815134956675
100
AcDbArc
 50
110.1726052830375
 51
204.1046458160006
  0
ARC
  5
4927
330
48EB
100
AcDbEntity
  8
0
100
AcDbCircle
 10
1183.461555922693
 20
-732.1200709889637
 30
0.0
 40
15.75320772433814
100
AcDbArc
 50
90.18549081833308
 51
170.131602784225
  0
ARC
  5
4928
330
48EB
100
AcDbEntity
  8
0
100
AcDbCircle
 10
1183.149805296416
 20
-741.5198728469346
 30
0.0
 40
18.34772836988372
100
AcDbArc
 50
78.02162609469938
 51
175.0840612851135
  0
SPLINE
  5
4929
330
48EB
100
AcDbEntity
  8
0
100
AcDbSpline
210
0.0
220
0.0
230
1.0
 70
     8
 71
     3
 72
     9
 73
     5
 74
     3
 42
0.0000000001
 43
0.0000000001
 44
0.0000000001
 40
0.0
 40
0.0
 40
0.0
 40
0.0
 40
4.608309629977775
 40
7.598463863135248
 40
7.598463863135248
 40
7.598463863135248
 40
7.598463863135248
 10
1157.777865748291
 20
-703.8883464982989
 30
0.0
 10
1157.948607340749
 20
-705.4159188541781
 30
0.0
 10
1158.230136561744
 20
-707.9346739458424
 30
0.0
 10
1158.725107243008
 20
-710.4196437607802
 30
0.0
 10
1158.919888544141
 20
-711.3975312845275
 30
0.0
 11
1157.777865748291
 21
-703.8883464982989
 31
0.0
 11
1158.368597905218
 21
-708.4586367696622
 31
0.0
 11
1158.919888544141
 21
-711.3975312845275
 31
0.0
  0
SPLINE
  5
492A
330
48EB
100
AcDbEntity
  8
0
100
AcDbSpline
210
0.0
220
0.0
230
1.0
 70
    24
 71
     3
 72
     8
 73
     4
 74
     2
 42
0.0000000001
 43
0.0000000001
 44
0.0000000001
 40
0.0
 40
0.0
 40
0.0
 40
0.0
 40
4.0
 40
4.0
 40
4.0
 40
4.0
 10
1183.410556175196
 20
-712.3669458186395
 30
0.0
 10
1183.410556175196
 20
-713.7002791519728
 30
0.0
 10
1183.410556175196
 20
-715.0336124853062
 30
0.0
 10
1183.410556175196
 20
-716.3669458186395
 30
0.0
 11
1183.410556175196
 21
-712.3669458186395
 31
0.0
 11
1183.410556175196
 21
-716.3669458186395
 31
0.0
  0
ARC
  5
492B
330
48EB
100
AcDbEntity
  8
0
100
AcDbCircle
 10
1193.380045590685
 20
-713.1587088518304
 30
0.0
 40
23.8731413262944
100
AcDbArc
 50
94.73217262575937
 51
135.3016143304396
  0
ARC
  5
492C
330
48EB
100
AcDbEntity
  8
0
100
AcDbCircle
 10
1238.882828221016
 20
-681.5887370951019
 30
0.0
 40
7.633242974602929
100
AcDbArc
 50
350.4623412947943
 51
108.8978712781002
  0
SPLINE
  5
492D
330
48EB
100
AcDbEntity
  8
0
100
AcDbSpline
210
0.0
220
0.0
230
1.0
 70
     8
 71
     3
 72
    10
 73
     6
 74
     4
 42
0.0000000001
 43
0.0000000001
 44
0.0000000001
 40
0.0
 40
0.0
 40
0.0
 40
0.0
 40
7.451046676793007
 40
19.53886068775988
 40
26.53970085008627
 40
26.53970085008627
 40
26.53970085008627
 40
26.53970085008627
 10
1223.410556175196
 20
-710.3669458186395
 30
0.0
 10
1224.54412665564
 20
-712.6840529985047
 30
0.0
 10
1227.516685633984
 20
-718.7601972437157
 30
0.0
 10
1240.020084013702
 20
-718.8756181945755
 30
0.0
 10
1242.500758791924
 20
-712.6501581542732
 30
0.0
 10
1243.410556175196
 20
-710.3669458186395
 30
0.0
 11
1223.410556175196
 21
-710.3669458186395
 31
0.0
 11
1227.71763722255
 21
-716.4470074491889
 31
0.0
 11
1239.805193285485
 21
-716.3680391700161
 31
0.0
 11
1243.410556175196
 21
-710.3669458186395
 31
0.0
  0
ARC
  5
492E
330
48EB
100
AcDbEntity
  8
0
100
AcDbCircle
 10
1240.485756868874
 20
-681.7773229084789
 30
0.0
 40
4.214908137351358
100
AcDbArc
 50
83.18141000814451
 51
155.5121378000469
  0
ARC
  5
492F
330
48EB
100
AcDbEntity
  8
0
100
AcDbCircle
 10
1273.82005944515
 20
-698.8978801944742
 30
0.0
 40
39.90942493897167
100
AcDbArc
 50
150.7514404768361
 51
162.6912828962524
  0
SPLINE
  5
4930
330
48EB
100
AcDbEntity
  8
0
100
AcDbSpline
210
0.0
220
0.0
230
1.0
 70
     8
 71
     3
 72
    11
 73
     7
 74
     5
 42
0.0000000001
 43
0.0000000001
 44
0.0000000001
 40
0.0
 40
0.0
 40
0.0
 40
0.0
 40
19.10798690240933
 40
26.59718395052343
 40
32.37983993076817
 40
39.83846971366917
 40
39.83846971366917
 40
39.83846971366917
 40
39.83846971366917
 10
1255.410556175196
 20
-689.3669458186395
 30
0.0
 10
1249.054670540434
 20
-687.4686802730921
 30
0.0
 10
1240.207654878363
 20
-684.8264072717694
 30
0.0
 10
1229.733597836474
 20
-689.1140269458032
 30
0.0
 10
1225.229289966208
 20
-694.6436685579418
 30
0.0
 10
1224.065885516547
 20
-698.9444027940658
 30
0.0
 10
1223.410556175196
 20
-701.3669458186395
 30
0.0
 11
1255.410556175196
 21
-689.3669458186395
 31
0.0
 11
1236.468577375325
 21
-686.8536605964941
 31
0.0
 11
1229.630365730915
 21
-689.9076635322735
 31
0.0
 11
1225.920271489905
 21
-694.3432368783792
 31
0.0
 11
1223.410556175196
 21
-701.3669458186395
 31
0.0
  0
SPLINE
  5
4931
330
48EB
100
AcDbEntity
  8
0
100
AcDbSpline
210
0.0
220
0.0
230
1.0
 70
     8
 71
     3
 72
    13
 73
     9
 74
     7
 42
0.0000000001
 43
0.0000000001
 44
0.0000000001
 40
0.0
 40
0.0
 40
0.0
 40
0.0
 40
7.638972965635153
 40
15.86399294472183
 40
25.15298632048799
 40
34.10302954578361
 40
45.16748875766801
 40
51.51287535146098
 40
51.51287535146098
 40
51.51287535146098
 40
51.51287535146098
 10
1226.463566628788
 20
-705.6073707657176
 30
0.0
 10
1226.761438020448
 20
-703.0176016459495
 30
0.0
 10
1227.380032912326
 20
-697.6393814023016
 30
0.0
 10
1233.870350508998
 20
-691.3121057953421
 30
0.0
 10
1242.882180237072
 20
-689.4536465796534
 30
0.0
 10
1252.466863236806
 20
-691.292587202383
 30
0.0
 10
1261.401634367175
 20
-692.5801132448267
 30
0.0
 10
1266.164953817517
 20
-695.9990801757647
 30
0.0
 10
1267.901046355011
 20
-697.2451949989711
 30
0.0
 11
1226.463566628788
 21
-705.6073707657176
 31
0.0
 11
1228.162894856374
 21
-698.159807973459
 31
0.0
 11
1233.914469655153
 21
-692.2801531374652
 31
0.0
 11
1242.93398491059
 21
-690.0589501994232
 31
0.0
 11
1251.822780118132
 21
-691.1042221702664
 31
0.0
 11
1262.541623601155
 21
-693.8480610937301
 31
0.0
 11
1267.901046355011
 21
-697.2451949989711
 31
0.0
  0
ARC
  5
4932
330
48EB
100
AcDbEntity
  8
0
100
AcDbCircle
 10
1223.683824650799
 20
-699.8494490910259
 30
0.0
 40
28.48381414630521
100
AcDbArc
 50
63.46107280984853
 51
90.54969360631753
  0
LINE
  5
4933
330
48EB
100
AcDbEntity
  8
0
100
AcDbLine
 10
1223.410556175196
 20
-701.3669458186395
 30
0.0
 11
1223.410556175196
 21
-710.3669458186395
 31
0.0
  0
LINE
  5
4934
330
48EB
100
AcDbEntity
  8
0
100
AcDbLine
 10
1227.410556175196
 20
-692.1169682421325
 30
0.0
 11
1228.880971342691
 21
-678.1340068612796
 31
0.0
  0
ARC
  5
4935
330
48EB
100
AcDbEntity
  8
0
100
AcDbCircle
 10
1224.144338989621
 20
-678.0289040487891
 30
0.0
 40
4.737798291331223
100
AcDbArc
 50
358.7288522568832
 51
98.90974631592779
  0
SPLINE
  5
4936
330
48EB
100
AcDbEntity
  8
0
100
AcDbSpline
210
0.0
220
0.0
230
1.0
 70
     8
 71
     3
 72
     9
 73
     5
 74
     3
 42
0.0000000001
 43
0.0000000001
 44
0.0000000001
 40
0.0
 40
0.0
 40
0.0
 40
0.0
 40
3.272260527997783
 40
8.499682073972172
 40
8.499682073972172
 40
8.499682073972172
 40
8.499682073972172
 10
1236.649983507802
 20
-680.0302415340701
 30
0.0
 10
1236.11327427879
 20
-680.9822240327848
 30
0.0
 10
1234.719174458884
 20
-683.4549943118716
 30
0.0
 10
1233.826998701279
 20
-686.1541378046766
 30
0.0
 10
1233.278298321958
 20
-687.8141482294395
 30
0.0
 11
1236.649983507802
 21
-680.0302415340701
 31
0.0
 11
1235.114248191788
 21
-682.9197407990359
 31
0.0
 11
1233.278298321958
 21
-687.8141482294395
 31
0.0
  0
ARC
  5
4937
330
48EB
100
AcDbEntity
  8
0
100
AcDbCircle
 10
3449.432526778208
 20
-737.1403618858391
 30
0.0
 40
2226.309401431982
100
AcDbArc
 50
178.4742743355779
 51
179.0793040846043
  0
ARC
  5
4938
330
48EB
100
AcDbEntity
  8
0
100
AcDbCircle
 10
1838.335284440608
 20
-712.6681404696499
 30
0.0
 40
612.8201165407642
100
AcDbArc
 50
177.0062451629337
 51
178.3105532193732
  0
ARC
  5
4939
330
48EB
100
AcDbEntity
  8
0
100
AcDbCircle
 10
608.4858279097842
 20
-712.6681404696499
 30
0.0
 40
612.8201165407642
100
AcDbArc
 50
1.689446780626806
 51
2.993754837066219
  0
ARC
  5
493A
330
48EB
100
AcDbEntity
  8
0
100
AcDbCircle
 10
1196.041033997049
 20
-686.0911994212365
 30
0.0
 40
11.3774072600373
100
AcDbArc
 50
358.0801317451896
 51
30.59120263601498
  0
ARC
  5
493B
330
48EB
100
AcDbEntity
  8
0
100
AcDbCircle
 10
1173.001052905242
 20
-698.8978801944742
 30
0.0
 40
39.90942493897167
100
AcDbArc
 50
17.30871710374755
 51
29.24855952316383
  0
SPLINE
  5
493C
330
48EB
100
AcDbEntity
  8
0
100
AcDbSpline
210
0.0
220
0.0
230
1.0
 70
     8
 71
     3
 72
     9
 73
     5
 74
     3
 42
0.0000000001
 43
0.0000000001
 44
0.0000000001
 40
0.0
 40
0.0
 40
0.0
 40
0.0
 40
3.272260527997783
 40
8.499682073972172
 40
8.499682073972172
 40
8.499682073972172
 40
8.499682073972172
 10
1210.17112884259
 20
-680.0302415340701
 30
0.0
 10
1210.707838071602
 20
-680.9822240327848
 30
0.0
 10
1212.101937891509
 20
-683.4549943118716
 30
0.0
 10
1212.994113649114
 20
-686.1541378046766
 30
0.0
 10
1213.542814028435
 20
-687.8141482294395
 30
0.0
 11
1210.17112884259
 21
-680.0302415340701
 31
0.0
 11
1211.706864158605
 21
-682.9197407990359
 31
0.0
 11
1213.542814028435
 21
-687.8141482294395
 31
0.0
  0
ARC
  5
493D
330
48EB
100
AcDbEntity
  8
0
100
AcDbCircle
 10
1206.335355481519
 20
-681.7773229084789
 30
0.0
 40
4.214908137351358
100
AcDbArc
 50
24.4878621999531
 51
96.8185899918555
  0
ARC
  5
493E
330
48EB
100
AcDbEntity
  8
0
100
AcDbCircle
 10
1208.943634915805
 20
-681.2078527824959
 30
0.0
 40
4.768308188355788
100
AcDbArc
 50
130.6887959643697
 51
193.0884945604159
  0
ARC
  5
493F
330
48EB
100
AcDbEntity
  8
0
100
AcDbCircle
 10
1222.676773360771
 20
-678.0289040487891
 30
0.0
 40
4.737798291331223
100
AcDbArc
 50
81.09025368407221
 51
181.2711477431169
  0
LINE
  5
4940
330
48EB
100
AcDbEntity
  8
0
100
AcDbLine
 10
1219.410556175197
 20
-692.1169682421325
 30
0.0
 11
1217.940141007702
 21
-678.1340068612796
 31
0.0
  0
LINE
  5
4941
330
48EB
100
AcDbEntity
  8
0
100
AcDbLine
 10
1205.569537591663
 20
-686.4397408130976
 30
0.0
 11
1204.29920040772
 21
-682.2876634507379
 31
0.0
  0
LINE
  5
4942
330
48EB
100
AcDbEntity
  8
0
100
AcDbLine
 10
1223.410556175197
 20
-701.3669458186395
 30
0.0
 11
1223.410556175196
 21
-710.3669458186395
 31
0.0
  0
SPLINE
  5
4943
330
48EB
100
AcDbEntity
  8
0
100
AcDbSpline
210
0.0
220
0.0
230
1.0
 70
     8
 71
     3
 72
    10
 73
     6
 74
     4
 42
0.0000000001
 43
0.0000000001
 44
0.0000000001
 40
0.0
 40
0.0
 40
0.0
 40
0.0
 40
7.451046676793007
 40
19.53886068775988
 40
26.53970085008627
 40
26.53970085008627
 40
26.53970085008627
 40
26.53970085008627
 10
1223.410556175196
 20
-710.3669458186395
 30
0.0
 10
1222.276985694752
 20
-712.6840529985047
 30
0.0
 10
1219.304426716409
 20
-718.7601972437157
 30
0.0
 10
1206.801028336691
 20
-718.8756181945755
 30
0.0
 10
1204.320353558469
 20
-712.6501581542732
 30
0.0
 10
1203.410556175196
 20
-710.3669458186395
 30
0.0
 11
1223.410556175196
 21
-710.3669458186395
 31
0.0
 11
1219.103475127843
 21
-716.4470074491889
 31
0.0
 11
1207.015919064908
 21
-716.3680391700161
 31
0.0
 11
1203.410556175196
 21
-710.3669458186395
 31
0.0
  0
ARC
  5
4944
330
48EB
100
AcDbEntity
  8
0
100
AcDbCircle
 10
1207.938284129376
 20
-681.5887370951019
 30
0.0
 40
7.633242974602929
100
AcDbArc
 50
71.10212872189975
 51
189.5376587052057
  0
ARC
  5
4945
330
48EB
100
AcDbEntity
  8
0
100
AcDbCircle
 10
1223.137287699593
 20
-699.8494490910259
 30
0.0
 40
28.48381414630521
100
AcDbArc
 50
89.45030639368246
 51
116.5389271901515
  0
LINE
  5
4946
330
48EB
100
AcDbEntity
  8
0
100
AcDbLine
 10
1241.25157475873
 20
-686.4397408130976
 30
0.0
 11
1242.521911942673
 21
-682.2876634507379
 31
0.0
  0
ARC
  5
4947
330
48EB
100
AcDbEntity
  8
0
100
AcDbCircle
 10
1237.877477434588
 20
-681.2078527824959
 30
0.0
 40
4.768308188355788
100
AcDbArc
 50
346.911505439584
 51
49.31120403563022
  0
ARC
  5
4948
330
48EB
100
AcDbEntity
  8
0
100
AcDbCircle
 10
1250.780078353344
 20
-686.0911994212365
 30
0.0
 40
11.3774072600373
100
AcDbArc
 50
149.408797363985
 51
181.9198682548105
  0
ARC
  5
4949
330
48EB
100
AcDbEntity
  8
0
100
AcDbCircle
 10
1253.441066759707
 20
-713.1587088518304
 30
0.0
 40
23.8731413262944
100
AcDbArc
 50
44.69838566956034
 51
85.26782737424063
  0
SPLINE
  5
494A
330
48EB
100
AcDbEntity
  8
0
100
AcDbSpline
210
0.0
220
0.0
230
1.0
 70
    24
 71
     3
 72
     8
 73
     4
 74
     2
 42
0.0000000001
 43
0.0000000001
 44
0.0000000001
 40
0.0
 40
0.0
 40
0.0
 40
0.0
 40
4.0
 40
4.0
 40
4.0
 40
4.0
 10
1263.410556175197
 20
-712.3669458186395
 30
0.0
 10
1263.410556175197
 20
-713.7002791519728
 30
0.0
 10
1263.410556175197
 20
-715.0336124853062
 30
0.0
 10
1263.410556175197
 20
-716.3669458186395
 30
0.0
 11
1263.410556175197
 21
-712.3669458186395
 31
0.0
 11
1263.410556175197
 21
-716.3669458186395
 31
0.0
  0
ARC
  5
494B
330
48EB
100
AcDbEntity
  8
0
100
AcDbCircle
 10
1249.79156820873
 20
-687.2893605858539
 30
0.0
 40
3.019815134956675
100
AcDbArc
 50
335.8953541839994
 51
69.82739471696243
  0
ARC
  5
494C
330
48EB
100
AcDbEntity
  8
0
100
AcDbCircle
 10
1249.889085282664
 20
-687.5216716358409
 30
0.0
 40
5.821655917931289
100
AcDbArc
 50
341.5203850646311
 51
126.6921582868546
  0
ARC
  5
494D
330
48EB
100
AcDbEntity
  8
0
100
AcDbCircle
 10
1249.837293783459
 20
-747.0995697360183
 30
0.0
 40
37.29059688636046
100
AcDbArc
 50
68.6547954020256
 51
99.92401832297503
  0
ARC
  5
494E
330
48EB
100
AcDbEntity
  8
0
100
AcDbCircle
 10
1250.371778089567
 20
-687.4391803421575
 30
0.0
 40
3.019815134956675
100
AcDbArc
 50
81.21569061079076
 51
175.1477311437538
  0
SPLINE
  5
494F
330
48EB
100
AcDbEntity
  8
0
100
AcDbSpline
210
0.0
220
0.0
230
1.0
 70
     8
 71
     3
 72
     9
 73
     5
 74
     3
 42
0.0000000001
 43
0.0000000001
 44
0.0000000001
 40
0.0
 40
0.0
 40
0.0
 40
0.0
 40
8.345313284558184
 40
24.95550741383873
 40
24.95550741383873
 40
24.95550741383873
 40
24.95550741383873
 10
1241.550842978533
 20
-704.32668736097
 30
0.0
 10
1244.350331327388
 20
-704.2475699681181
 30
0.0
 10
1252.721814801121
 20
-704.0109803259373
 30
0.0
 10
1260.609382133444
 20
-707.0310221839791
 30
0.0
 10
1265.859286390049
 20
-709.0411388571752
 30
0.0
 11
1241.550842978533
 21
-704.32668736097
 31
0.0
 11
1249.895192411286
 21
-704.4535193819335
 31
0.0
 11
1265.859286390049
 21
-709.0411388571752
 31
0.0
  0
SPLINE
  5
4950
330
48EB
100
AcDbEntity
  8
0
100
AcDbSpline
210
0.0
220
0.0
230
1.0
 70
     8
 71
     3
 72
    15
 73
    11
 74
     9
 42
0.0000000001
 43
0.0000000001
 44
0.0000000001
 40
0.0
 40
0.0
 40
0.0
 40
0.0
 40
6.45237421807232
 40
15.12162885850096
 40
16.48445006949479
 40
19.0834728806382
 40
20.88657571777278
 40
23.15815207744394
 40
26.92929722938336
 40
34.25899876814097
 40
34.25899876814097
 40
34.25899876814097
 40
34.25899876814097
 10
1263.410556175197
 20
-716.3669458186395
 30
0.0
 10
1261.337184000858
 20
-716.0113610256002
 30
0.0
 10
1256.478078895317
 20
-715.1780210663327
 30
0.0
 10
1250.208376318077
 20
-714.9894332983417
 30
0.0
 10
1247.058454779562
 20
-717.3084063674089
 30
0.0
 10
1244.868803761797
 20
-719.3898879191246
 30
0.0
 10
1247.739923974511
 20
-720.114610629955
 30
0.0
 10
1249.651761920747
 20
-721.8985549756835
 30
0.0
 10
1249.643001469717
 20
-726.8313977070247
 30
0.0
 10
1252.645940250633
 20
-729.3507334079431
 30
0.0
 10
1254.628729997808
 20
-731.0142082110989
 30
0.0
 11
1263.410556175197
 21
-716.3669458186395
 31
0.0
 11
1257.027984274215
 21
-715.4204211338883
 31
0.0
 11
1248.410556175197
 21
-716.3669458186395
 31
0.0
 11
1247.305585804759
 21
-717.164643840193
 31
0.0
 11
1245.809469618853
 21
-719.2898628715199
 31
0.0
 11
1247.389541592222
 21
-720.1585126284745
 31
0.0
 11
1249.077711754292
 21
-721.6784273174339
 31
0.0
 11
1249.992733867341
 21
-725.3368792153856
 31
0.0
 11
1254.628729997808
 21
-731.0142082110989
 31
0.0
  0
SPLINE
  5
4951
330
48EB
100
AcDbEntity
  8
0
100
AcDbSpline
210
0.0
220
0.0
230
1.0
 70
     8
 71
     3
 72
     9
 73
     5
 74
     3
 42
0.0000000001
 43
0.0000000001
 44
0.0000000001
 40
0.0
 40
0.0
 40
0.0
 40
0.0
 40
4.608309629977775
 40
7.598463863135248
 40
7.598463863135248
 40
7.598463863135248
 40
7.598463863135248
 10
1289.043246602102
 20
-703.8883464982989
 30
0.0
 10
1288.872505009644
 20
-705.4159188541781
 30
0.0
 10
1288.590975788649
 20
-707.9346739458424
 30
0.0
 10
1288.096005107385
 20
-710.4196437607802
 30
0.0
 10
1287.901223806252
 20
-711.3975312845275
 30
0.0
 11
1289.043246602102
 21
-703.8883464982989
 31
0.0
 11
1288.452514445175
 21
-708.4586367696622
 31
0.0
 11
1287.901223806252
 21
-711.3975312845275
 31
0.0
  0
ENDBLK
  5
4952
330
48EB
100
AcDbEntity
  8
0
100
AcDbBlockEnd
  0
BLOCK
  5
49CA
330
49C0
100
AcDbEntity
  8
0
100
AcDbBlockBegin
  2
*D25
 70
     1
 10
0.0
 20
0.0
 30
0.0
  3
*D25
  1

  0
LINE
  5
4A6F
330
49C0
100
AcDbEntity
  8
SUNPOU
 62
    70
370
    -2
100
AcDbLine
 10
-33.29627656489321
 20
149.9098128291724
 30
0.0
 11
-52.34092089240218
 21
149.9098128291724
 31
0.0
  0
LINE
  5
4A70
330
49C0
100
AcDbEntity
  8
SUNPOU
 62
    70
370
    -2
100
AcDbLine
 10
-30.65637796703777
 20
31.90981282917243
 30
0.0
 11
-52.3409208924022
 21
31.90981282917244
 31
0.0
  0
LINE
  5
4A71
330
49C0
100
AcDbEntity
  8
SUNPOU
 62
    60
370
    -2
100
AcDbLine
 10
-52.34092089240218
 20
147.9098128291724
 30
0.0
 11
-52.3409208924022
 21
33.90981282917244
 31
0.0
  0
INSERT
  5
4A72
330
49C0
100
AcDbEntity
  8
SUNPOU
 62
    60
370
    -2
100
AcDbBlockReference
  2
_Dot
 10
-52.34092089240218
 20
149.9098128291724
 30
0.0
 41
2.0
 42
2.0
 43
2.0
 50
90.0
  0
INSERT
  5
4A73
330
49C0
100
AcDbEntity
  8
SUNPOU
 62
    60
370
    -2
100
AcDbBlockReference
  2
_Dot
 10
-52.3409208924022
 20
31.90981282917244
 30
0.0
 41
2.0
 42
2.0
 43
2.0
 50
270.0
  0
MTEXT
  5
4A74
330
49C0
100
AcDbEntity
  8
SUNPOU
 62
    60
100
AcDbMText
 10
-57.84092089240221
 20
90.90981282917244
 30
0.0
 40
5.0
 41
0.0
 71
     5
 72
     1
  1
\A1;118
  7
SUNPOU
 11
0.0000000000000001
 21
1.0
 31
0.0
 73
     1
 44
1.0
1001
ACAD
1000
MTEXTBEGIN
1070
    73
1070
     1
1070
    44
1040
1.0
1070
    74
1070
     0
1000
MTEXTEND
  0
POINT
  5
4A75
330
49C0
100
AcDbEntity
  8
DEFPOINTS
 62
     0
100
AcDbPoint
 10
-23.29627656489322
 20
149.9098128291724
 30
0.0
  0
POINT
  5
4A76
330
49C0
100
AcDbEntity
  8
DEFPOINTS
 62
     0
100
AcDbPoint
 10
-20.65637796703777
 20
31.90981282917242
 30
0.0
  0
POINT
  5
4A77
330
49C0
100
AcDbEntity
  8
DEFPOINTS
 62
     0
100
AcDbPoint
 10
-52.3409208924022
 20
31.90981282917244
 30
0.0
  0
ENDBLK
  5
49CB
330
49C0
100
AcDbEntity
  8
0
100
AcDbBlockEnd
  0
BLOCK
  5
49D7
330
49CD
100
AcDbEntity
  8
0
100
AcDbBlockBegin
  2
*D26
 70
     1
 10
0.0
 20
0.0
 30
0.0
  3
*D26
  1

  0
LINE
  5
4A5D
330
49CD
100
AcDbEntity
  8
SUNPOU
 62
    70
370
    -2
100
AcDbLine
 10
-23.29627656489321
 20
159.9098128291724
 30
0.0
 11
-23.29627656489321
 21
173.0268399445122
 31
0.0
  0
LINE
  5
4A5E
330
49CD
100
AcDbEntity
  8
SUNPOU
 62
    70
370
    -2
100
AcDbLine
 10
163.7037234351068
 20
158.1203969188868
 30
0.0
 11
163.7037234351068
 21
173.0268399445122
 31
0.0
  0
LINE
  5
4A5F
330
49CD
100
AcDbEntity
  8
SUNPOU
 62
    60
370
    -2
100
AcDbLine
 10
-21.29627656489322
 20
173.0268399445122
 30
0.0
 11
161.7037234351068
 21
173.0268399445122
 31
0.0
  0
INSERT
  5
4A60
330
49CD
100
AcDbEntity
  8
SUNPOU
 62
    60
370
    -2
100
AcDbBlockReference
  2
_Dot
 10
-23.29627656489321
 20
173.0268399445122
 30
0.0
 41
2.0
 42
2.0
 43
2.0
 50
180.0
  0
INSERT
  5
4A61
330
49CD
100
AcDbEntity
  8
SUNPOU
 62
    60
370
    -2
100
AcDbBlockReference
  2
_Dot
 10
163.7037234351068
 20
173.0268399445122
 30
0.0
 41
2.0
 42
2.0
 43
2.0
  0
MTEXT
  5
4A62
330
49CD
100
AcDbEntity
  8
SUNPOU
 62
    60
100
AcDbMText
 10
70.20372343510681
 20
178.5268399445121
 30
0.0
 40
5.0
 41
0.0
 71
     5
 72
     1
  1
\A1;187
  7
SUNPOU
 73
     1
 44
1.0
1001
ACAD
1000
MTEXTBEGIN
1070
    73
1070
     1
1070
    44
1040
1.0
1070
    74
1070
     0
1000
MTEXTEND
  0
POINT
  5
4A63
330
49CD
100
AcDbEntity
  8
DEFPOINTS
 62
     0
100
AcDbPoint
 10
-23.29627656489321
 20
149.9098128291724
 30
0.0
  0
POINT
  5
4A64
330
49CD
100
AcDbEntity
  8
DEFPOINTS
 62
     0
100
AcDbPoint
 10
163.7037234351068
 20
148.1203969188868
 30
0.0
  0
POINT
  5
4A65
330
49CD
100
AcDbEntity
  8
DEFPOINTS
 62
     0
100
AcDbPoint
 10
163.7037234351068
 20
173.0268399445122
 30
0.0
  0
ENDBLK
  5
49D8
330
49CD
100
AcDbEntity
  8
0
100
AcDbBlockEnd
  0
BLOCK
  5
4B28
330
4B1E
100
AcDbEntity
  8
0
100
AcDbBlockBegin
  2
*D28
 70
     1
 10
0.0
 20
0.0
 30
0.0
  3
*D28
  1

  0
LINE
  5
4B1F
330
4B1E
100
AcDbEntity
  8
SUNPOU
 62
    70
370
    -2
100
AcDbLine
 10
30.90715373064131
 20
188.3415060583659
 30
0.0
 11
30.90715373064132
 21
208.8723454234377
 31
0.0
  0
LINE
  5
4B20
330
4B1E
100
AcDbEntity
  8
SUNPOU
 62
    70
370
    -2
100
AcDbLine
 10
110.9071537306413
 20
188.3415060583659
 30
0.0
 11
110.9071537306413
 21
208.8723454234377
 31
0.0
  0
LINE
  5
4B21
330
4B1E
100
AcDbEntity
  8
SUNPOU
 62
    60
370
    -2
100
AcDbLine
 10
32.90715373064131
 20
208.8723454234377
 30
0.0
 11
108.9071537306413
 21
208.8723454234377
 31
0.0
  0
INSERT
  5
4B22
330
4B1E
100
AcDbEntity
  8
SUNPOU
 62
    60
370
    -2
100
AcDbBlockReference
  2
_Dot
 10
30.90715373064132
 20
208.8723454234377
 30
0.0
 41
2.0
 42
2.0
 43
2.0
 50
180.0
  0
INSERT
  5
4B23
330
4B1E
100
AcDbEntity
  8
SUNPOU
 62
    60
370
    -2
100
AcDbBlockReference
  2
_Dot
 10
110.9071537306413
 20
208.8723454234377
 30
0.0
 41
2.0
 42
2.0
 43
2.0
  0
MTEXT
  5
4B24
330
4B1E
100
AcDbEntity
  8
SUNPOU
 62
    60
100
AcDbMText
 10
70.90715373064131
 20
214.3723454234378
 30
0.0
 40
5.0
 41
0.0
 71
     5
 72
     1
  1
\A1;80
  7
SUNPOU
 73
     1
 44
1.0
1001
ACAD
1000
MTEXTBEGIN
1070
    73
1070
     1
1070
    44
1040
1.0
1070
    74
1070
     0
1000
MTEXTEND
  0
POINT
  5
4B25
330
4B1E
100
AcDbEntity
  8
DEFPOINTS
 62
     0
100
AcDbPoint
 10
30.90715373064131
 20
178.3415060583659
 30
0.0
  0
POINT
  5
4B26
330
4B1E
100
AcDbEntity
  8
DEFPOINTS
 62
     0
100
AcDbPoint
 10
110.9071537306413
 20
178.3415060583659
 30
0.0
  0
POINT
  5
4B27
330
4B1E
100
AcDbEntity
  8
DEFPOINTS
 62
     0
100
AcDbPoint
 10
110.9071537306413
 20
208.8723454234377
 30
0.0
  0
ENDBLK
  5
4B29
330
4B1E
100
AcDbEntity
  8
0
100
AcDbBlockEnd
  0
BLOCK
  5
4B35
330
4B2B
100
AcDbEntity
  8
0
100
AcDbBlockBegin
  2
*D29
 70
     1
 10
0.0
 20
0.0
 30
0.0
  3
*D29
  1

  0
LINE
  5
4B2C
330
4B2B
100
AcDbEntity
  8
SUNPOU
 62
    70
370
    -2
100
AcDbLine
 10
20.90715373064131
 20
178.3415060583659
 30
0.0
 11
1.722700409405689
 21
178.3415060583659
 31
0.0
  0
LINE
  5
4B2D
330
4B2B
100
AcDbEntity
  8
SUNPOU
 62
    70
370
    -2
100
AcDbLine
 10
20.90715373064131
 20
28.3415060583659
 30
0.0
 11
1.722700409405656
 21
28.34150605836591
 31
0.0
  0
LINE
  5
4B2E
330
4B2B
100
AcDbEntity
  8
SUNPOU
 62
    60
370
    -2
100
AcDbLine
 10
1.72270040940569
 20
176.3415060583659
 30
0.0
 11
1.722700409405657
 21
30.34150605836591
 31
0.0
  0
INSERT
  5
4B2F
330
4B2B
100
AcDbEntity
  8
SUNPOU
 62
    60
370
    -2
100
AcDbBlockReference
  2
_Dot
 10
1.72270040940569
 20
178.3415060583659
 30
0.0
 41
2.0
 42
2.0
 43
2.0
 50
90.0
  0
INSERT
  5
4B30
330
4B2B
100
AcDbEntity
  8
SUNPOU
 62
    60
370
    -2
100
AcDbBlockReference
  2
_Dot
 10
1.722700409405657
 20
28.34150605836591
 30
0.0
 41
2.0
 42
2.0
 43
2.0
 50
270.0
  0
MTEXT
  5
4B31
330
4B2B
100
AcDbEntity
  8
SUNPOU
 62
    60
100
AcDbMText
 10
-3.777299590594342
 20
103.3415060583659
 30
0.0
 40
5.0
 41
0.0
 71
     5
 72
     1
  1
\A1;150
  7
SUNPOU
 11
0.0000000000000001
 21
1.0
 31
0.0
 73
     1
 44
1.0
1001
ACAD
1000
MTEXTBEGIN
1070
    73
1070
     1
1070
    44
1040
1.0
1070
    74
1070
     0
1000
MTEXTEND
  0
POINT
  5
4B32
330
4B2B
100
AcDbEntity
  8
DEFPOINTS
 62
     0
100
AcDbPoint
 10
30.90715373064131
 20
178.3415060583659
 30
0.0
  0
POINT
  5
4B33
330
4B2B
100
AcDbEntity
  8
DEFPOINTS
 62
     0
100
AcDbPoint
 10
30.90715373064131
 20
28.34150605836589
 30
0.0
  0
POINT
  5
4B34
330
4B2B
100
AcDbEntity
  8
DEFPOINTS
 62
     0
100
AcDbPoint
 10
1.722700409405657
 20
28.34150605836591
 30
0.0
  0
ENDBLK
  5
4B36
330
4B2B
100
AcDbEntity
  8
0
100
AcDbBlockEnd
  0
BLOCK
  5
4BEE
330
4BE4
100
AcDbEntity
  8
0
100
AcDbBlockBegin
  2
*D31
 70
     1
 10
0.0
 20
0.0
 30
0.0
  3
*D31
  1

  0
LINE
  5
4C2C
330
4BE4
100
AcDbEntity
  8
SUNPOU
 62
    70
370
    -2
100
AcDbLine
 10
35.18564455420528
 20
141.0665385074846
 30
0.0
 11
35.18564455420528
 21
156.4576172425568
 31
0.0
  0
LINE
  5
4C2D
330
4BE4
100
AcDbEntity
  8
SUNPOU
 62
    70
370
    -2
100
AcDbLine
 10
121.1856445542037
 20
141.066538507485
 30
0.0
 11
121.1856445542037
 21
156.4576172425568
 31
0.0
  0
LINE
  5
4C2E
330
4BE4
100
AcDbEntity
  8
SUNPOU
 62
    60
370
    -2
100
AcDbLine
 10
37.18564455420529
 20
156.4576172425568
 30
0.0
 11
119.1856445542037
 21
156.4576172425568
 31
0.0
  0
INSERT
  5
4C2F
330
4BE4
100
AcDbEntity
  8
SUNPOU
 62
    60
370
    -2
100
AcDbBlockReference
  2
_Dot
 10
35.18564455420528
 20
156.4576172425568
 30
0.0
 41
2.0
 42
2.0
 43
2.0
 50
180.0
  0
INSERT
  5
4C30
330
4BE4
100
AcDbEntity
  8
SUNPOU
 62
    60
370
    -2
100
AcDbBlockReference
  2
_Dot
 10
121.1856445542037
 20
156.4576172425568
 30
0.0
 41
2.0
 42
2.0
 43
2.0
  0
MTEXT
  5
4C31
330
4BE4
100
AcDbEntity
  8
SUNPOU
 62
    60
100
AcDbMText
 10
78.18564455420449
 20
161.9576172425568
 30
0.0
 40
5.0
 41
0.0
 71
     5
 72
     1
  1
\A1;86
  7
SUNPOU
 73
     1
 44
1.0
1001
ACAD
1000
MTEXTBEGIN
1070
    73
1070
     1
1070
    44
1040
1.0
1070
    74
1070
     0
1000
MTEXTEND
  0
POINT
  5
4C32
330
4BE4
100
AcDbEntity
  8
DEFPOINTS
 62
     0
100
AcDbPoint
 10
35.18564455420528
 20
131.0665385074846
 30
0.0
  0
POINT
  5
4C33
330
4BE4
100
AcDbEntity
  8
DEFPOINTS
 62
     0
100
AcDbPoint
 10
121.1856445542037
 20
131.066538507485
 30
0.0
  0
POINT
  5
4C34
330
4BE4
100
AcDbEntity
  8
DEFPOINTS
 62
     0
100
AcDbPoint
 10
121.1856445542037
 20
156.4576172425568
 30
0.0
  0
ENDBLK
  5
4BEF
330
4BE4
100
AcDbEntity
  8
0
100
AcDbBlockEnd
  0
BLOCK
  5
4BFB
330
4BF1
100
AcDbEntity
  8
0
100
AcDbBlockBegin
  2
*D32
 70
     1
 10
0.0
 20
0.0
 30
0.0
  3
*D32
  1

  0
LINE
  5
4C35
330
4BF1
100
AcDbEntity
  8
SUNPOU
 62
    70
370
    -2
100
AcDbLine
 10
30.18564455420529
 20
136.0665385074846
 30
0.0
 11
15.12327830728192
 21
136.0665385074846
 31
0.0
  0
LINE
  5
4C36
330
4BF1
100
AcDbEntity
  8
SUNPOU
 62
    70
370
    -2
100
AcDbLine
 10
26.65151793590394
 20
34.06653850748467
 30
0.0
 11
15.1232783072819
 21
34.06653850748468
 31
0.0
  0
LINE
  5
4C37
330
4BF1
100
AcDbEntity
  8
SUNPOU
 62
    60
370
    -2
100
AcDbLine
 10
15.12327830728192
 20
134.0665385074846
 30
0.0
 11
15.1232783072819
 21
36.06653850748467
 31
0.0
  0
INSERT
  5
4C38
330
4BF1
100
AcDbEntity
  8
SUNPOU
 62
    60
370
    -2
100
AcDbBlockReference
  2
_Dot
 10
15.12327830728192
 20
136.0665385074846
 30
0.0
 41
2.0
 42
2.0
 43
2.0
 50
90.0
  0
INSERT
  5
4C39
330
4BF1
100
AcDbEntity
  8
SUNPOU
 62
    60
370
    -2
100
AcDbBlockReference
  2
_Dot
 10
15.1232783072819
 20
34.06653850748468
 30
0.0
 41
2.0
 42
2.0
 43
2.0
 50
270.0
  0
MTEXT
  5
4C3A
330
4BF1
100
AcDbEntity
  8
SUNPOU
 62
    60
100
AcDbMText
 10
9.623278307281898
 20
85.06653850748467
 30
0.0
 40
5.0
 41
0.0
 71
     5
 72
     1
  1
\A1;102
  7
SUNPOU
 11
0.0000000000000001
 21
1.0
 31
0.0
 73
     1
 44
1.0
1001
ACAD
1000
MTEXTBEGIN
1070
    73
1070
     1
1070
    44
1040
1.0
1070
    74
1070
     0
1000
MTEXTEND
  0
POINT
  5
4C3B
330
4BF1
100
AcDbEntity
  8
DEFPOINTS
 62
     0
100
AcDbPoint
 10
40.18564455420528
 20
136.0665385074846
 30
0.0
  0
POINT
  5
4C3C
330
4BF1
100
AcDbEntity
  8
DEFPOINTS
 62
     0
100
AcDbPoint
 10
36.65151793590394
 20
34.06653850748467
 30
0.0
  0
POINT
  5
4C3D
330
4BF1
100
AcDbEntity
  8
DEFPOINTS
 62
     0
100
AcDbPoint
 10
15.1232783072819
 20
34.06653850748468
 30
0.0
  0
ENDBLK
  5
4BFC
330
4BF1
100
AcDbEntity
  8
0
100
AcDbBlockEnd
  0
BLOCK
  5
4CCB
330
4CC1
100
AcDbEntity
  8
0
100
AcDbBlockBegin
  2
*D34
 70
     1
 10
0.0
 20
0.0
 30
0.0
  3
*D34
  1

  0
LINE
  5
4CC2
330
4CC1
100
AcDbEntity
  8
SUNPOU
 62
    70
370
    -2
100
AcDbLine
 10
31.70905381291823
 20
166.48281067528
 30
0.0
 11
31.70905381291823
 21
184.4440522410596
 31
0.0
  0
LINE
  5
4CC3
330
4CC1
100
AcDbEntity
  8
SUNPOU
 62
    70
370
    -2
100
AcDbLine
 10
121.7090538129182
 20
166.48281067528
 30
0.0
 11
121.7090538129182
 21
184.4440522410596
 31
0.0
  0
LINE
  5
4CC4
330
4CC1
100
AcDbEntity
  8
SUNPOU
 62
    60
370
    -2
100
AcDbLine
 10
33.70905381291823
 20
184.4440522410596
 30
0.0
 11
119.7090538129182
 21
184.4440522410596
 31
0.0
  0
INSERT
  5
4CC5
330
4CC1
100
AcDbEntity
  8
SUNPOU
 62
    60
370
    -2
100
AcDbBlockReference
  2
_Dot
 10
31.70905381291823
 20
184.4440522410596
 30
0.0
 41
2.0
 42
2.0
 43
2.0
 50
180.0
  0
INSERT
  5
4CC6
330
4CC1
100
AcDbEntity
  8
SUNPOU
 62
    60
370
    -2
100
AcDbBlockReference
  2
_Dot
 10
121.7090538129182
 20
184.4440522410596
 30
0.0
 41
2.0
 42
2.0
 43
2.0
  0
MTEXT
  5
4CC7
330
4CC1
100
AcDbEntity
  8
SUNPOU
 62
    60
100
AcDbMText
 10
76.70905381291823
 20
189.9440522410596
 30
0.0
 40
5.0
 41
0.0
 71
     5
 72
     1
  1
\A1;90
  7
SUNPOU
 73
     1
 44
1.0
1001
ACAD
1000
MTEXTBEGIN
1070
    73
1070
     1
1070
    44
1040
1.0
1070
    74
1070
     0
1000
MTEXTEND
  0
POINT
  5
4CC8
330
4CC1
100
AcDbEntity
  8
DEFPOINTS
 62
     0
100
AcDbPoint
 10
31.70905381291823
 20
156.48281067528
 30
0.0
  0
POINT
  5
4CC9
330
4CC1
100
AcDbEntity
  8
DEFPOINTS
 62
     0
100
AcDbPoint
 10
121.7090538129182
 20
156.48281067528
 30
0.0
  0
POINT
  5
4CCA
330
4CC1
100
AcDbEntity
  8
DEFPOINTS
 62
     0
100
AcDbPoint
 10
121.7090538129182
 20
184.4440522410596
 30
0.0
  0
ENDBLK
  5
4CCC
330
4CC1
100
AcDbEntity
  8
0
100
AcDbBlockEnd
  0
BLOCK
  5
4CD8
330
4CCE
100
AcDbEntity
  8
0
100
AcDbBlockBegin
  2
*D35
 70
     1
 10
0.0
 20
0.0
 30
0.0
  3
*D35
  1

  0
LINE
  5
4CCF
330
4CCE
100
AcDbEntity
  8
SUNPOU
 62
    70
370
    -2
100
AcDbLine
 10
21.70905381291823
 20
156.48281067528
 30
0.0
 11
3.497202345588472
 21
156.48281067528
 31
0.0
  0
LINE
  5
4CD0
330
4CCE
100
AcDbEntity
  8
SUNPOU
 62
    70
370
    -2
100
AcDbLine
 10
21.70905381291823
 20
34.48281067528001
 30
0.0
 11
3.497202345588445
 21
34.48281067528002
 31
0.0
  0
LINE
  5
4CD1
330
4CCE
100
AcDbEntity
  8
SUNPOU
 62
    60
370
    -2
100
AcDbLine
 10
3.497202345588472
 20
154.48281067528
 30
0.0
 11
3.497202345588446
 21
36.48281067528002
 31
0.0
  0
INSERT
  5
4CD2
330
4CCE
100
AcDbEntity
  8
SUNPOU
 62
    60
370
    -2
100
AcDbBlockReference
  2
_Dot
 10
3.497202345588472
 20
156.48281067528
 30
0.0
 41
2.0
 42
2.0
 43
2.0
 50
90.0
  0
INSERT
  5
4CD3
330
4CCE
100
AcDbEntity
  8
SUNPOU
 62
    60
370
    -2
100
AcDbBlockReference
  2
_Dot
 10
3.497202345588445
 20
34.48281067528002
 30
0.0
 41
2.0
 42
2.0
 43
2.0
 50
270.0
  0
MTEXT
  5
4CD4
330
4CCE
100
AcDbEntity
  8
SUNPOU
 62
    60
100
AcDbMText
 10
-2.002797654411556
 20
95.48281067528
 30
0.0
 40
5.0
 41
0.0
 71
     5
 72
     1
  1
\A1;122
  7
SUNPOU
 11
0.0000000000000001
 21
1.0
 31
0.0
 73
     1
 44
1.0
1001
ACAD
1000
MTEXTBEGIN
1070
    73
1070
     1
1070
    44
1040
1.0
1070
    74
1070
     0
1000
MTEXTEND
  0
POINT
  5
4CD5
330
4CCE
100
AcDbEntity
  8
DEFPOINTS
 62
     0
100
AcDbPoint
 10
31.70905381291823
 20
156.48281067528
 30
0.0
  0
POINT
  5
4CD6
330
4CCE
100
AcDbEntity
  8
DEFPOINTS
 62
     0
100
AcDbPoint
 10
31.70905381291823
 20
34.48281067528001
 30
0.0
  0
POINT
  5
4CD7
330
4CCE
100
AcDbEntity
  8
DEFPOINTS
 62
     0
100
AcDbPoint
 10
3.497202345588445
 20
34.48281067528002
 30
0.0
  0
ENDBLK
  5
4CD9
330
4CCE
100
AcDbEntity
  8
0
100
AcDbBlockEnd
  0
BLOCK
  5
4D55
330
4D4B
100
AcDbEntity
  8
0
100
AcDbBlockBegin
  2
*D37
 70
     1
 10
0.0
 20
0.0
 30
0.0
  3
*D37
  1

  0
LINE
  5
4D4C
330
4D4B
100
AcDbEntity
  8
SUNPOU
 62
    70
370
    -2
100
AcDbLine
 10
36.7494492046767
 20
187.7563131664824
 30
0.0
 11
36.7494492046767
 21
206.9718424224825
 31
0.0
  0
LINE
  5
4D4D
330
4D4B
100
AcDbEntity
  8
SUNPOU
 62
    70
370
    -2
100
AcDbLine
 10
121.7494492046767
 20
187.7563131664821
 30
0.0
 11
121.7494492046767
 21
206.9718424224825
 31
0.0
  0
LINE
  5
4D4E
330
4D4B
100
AcDbEntity
  8
SUNPOU
 62
    60
370
    -2
100
AcDbLine
 10
38.74944920467669
 20
206.9718424224825
 30
0.0
 11
119.7494492046767
 21
206.9718424224825
 31
0.0
  0
INSERT
  5
4D4F
330
4D4B
100
AcDbEntity
  8
SUNPOU
 62
    60
370
    -2
100
AcDbBlockReference
  2
_Dot
 10
36.7494492046767
 20
206.9718424224825
 30
0.0
 41
2.0
 42
2.0
 43
2.0
 50
180.0
  0
INSERT
  5
4D50
330
4D4B
100
AcDbEntity
  8
SUNPOU
 62
    60
370
    -2
100
AcDbBlockReference
  2
_Dot
 10
121.7494492046767
 20
206.9718424224825
 30
0.0
 41
2.0
 42
2.0
 43
2.0
  0
MTEXT
  5
4D51
330
4D4B
100
AcDbEntity
  8
SUNPOU
 62
    60
100
AcDbMText
 10
79.2494492046767
 20
212.4718424224825
 30
0.0
 40
5.0
 41
0.0
 71
     5
 72
     1
  1
\A1;85
  7
SUNPOU
 73
     1
 44
1.0
1001
ACAD
1000
MTEXTBEGIN
1070
    73
1070
     1
1070
    44
1040
1.0
1070
    74
1070
     0
1000
MTEXTEND
  0
POINT
  5
4D52
330
4D4B
100
AcDbEntity
  8
DEFPOINTS
 62
     0
100
AcDbPoint
 10
36.7494492046767
 20
177.7563131664824
 30
0.0
  0
POINT
  5
4D53
330
4D4B
100
AcDbEntity
  8
DEFPOINTS
 62
     0
100
AcDbPoint
 10
121.7494492046767
 20
177.7563131664822
 30
0.0
  0
POINT
  5
4D54
330
4D4B
100
AcDbEntity
  8
DEFPOINTS
 62
     0
100
AcDbPoint
 10
121.7494492046767
 20
206.9718424224825
 30
0.0
  0
ENDBLK
  5
4D56
330
4D4B
100
AcDbEntity
  8
0
100
AcDbBlockEnd
  0
BLOCK
  5
4D62
330
4D58
100
AcDbEntity
  8
0
100
AcDbBlockBegin
  2
*D38
 70
     1
 10
0.0
 20
0.0
 30
0.0
  3
*D38
  1

  0
LINE
  5
4D59
330
4D58
100
AcDbEntity
  8
SUNPOU
 62
    70
370
    -2
100
AcDbLine
 10
26.74944920467669
 20
177.7563131664824
 30
0.0
 11
4.608015639593791
 21
177.7563131664824
 31
0.0
  0
LINE
  5
4D5A
330
4D58
100
AcDbEntity
  8
SUNPOU
 62
    70
370
    -2
100
AcDbLine
 10
26.7494492046767
 20
27.75631316648242
 30
0.0
 11
4.608015639593758
 21
27.75631316648242
 31
0.0
  0
LINE
  5
4D5B
330
4D58
100
AcDbEntity
  8
SUNPOU
 62
    60
370
    -2
100
AcDbLine
 10
4.608015639593788
 20
175.7563131664824
 30
0.0
 11
4.608015639593755
 21
29.75631316648243
 31
0.0
  0
INSERT
  5
4D5C
330
4D58
100
AcDbEntity
  8
SUNPOU
 62
    60
370
    -2
100
AcDbBlockReference
  2
_Dot
 10
4.608015639593788
 20
177.7563131664824
 30
0.0
 41
2.0
 42
2.0
 43
2.0
 50
90.0
  0
INSERT
  5
4D5D
330
4D58
100
AcDbEntity
  8
SUNPOU
 62
    60
370
    -2
100
AcDbBlockReference
  2
_Dot
 10
4.608015639593755
 20
27.75631316648242
 30
0.0
 41
2.0
 42
2.0
 43
2.0
 50
270.0
  0
MTEXT
  5
4D5E
330
4D58
100
AcDbEntity
  8
SUNPOU
 62
    60
100
AcDbMText
 10
-0.8919843604062441
 20
102.7563131664824
 30
0.0
 40
5.0
 41
0.0
 71
     5
 72
     1
  1
\A1;150
  7
SUNPOU
 11
0.0000000000000001
 21
1.0
 31
0.0
 73
     1
 44
1.0
1001
ACAD
1000
MTEXTBEGIN
1070
    73
1070
     1
1070
    44
1040
1.0
1070
    74
1070
     0
1000
MTEXTEND
  0
POINT
  5
4D5F
330
4D58
100
AcDbEntity
  8
DEFPOINTS
 62
     0
100
AcDbPoint
 10
36.7494492046767
 20
177.7563131664824
 30
0.0
  0
POINT
  5
4D60
330
4D58
100
AcDbEntity
  8
DEFPOINTS
 62
     0
100
AcDbPoint
 10
36.7494492046767
 20
27.75631316648242
 30
0.0
  0
POINT
  5
4D61
330
4D58
100
AcDbEntity
  8
DEFPOINTS
 62
     0
100
AcDbPoint
 10
4.608015639593755
 20
27.75631316648242
 30
0.0
  0
ENDBLK
  5
4D63
330
4D58
100
AcDbEntity
  8
0
100
AcDbBlockEnd
  0
BLOCK
  5
4DD3
330
4DC9
100
AcDbEntity
  8
0
100
AcDbBlockBegin
  2
*D40
 70
     1
 10
0.0
 20
0.0
 30
0.0
  3
*D40
  1

  0
LINE
  5
4DCA
330
4DC9
100
AcDbEntity
  8
SUNPOU
 62
    70
370
    -2
100
AcDbLine
 10
52.41742159393027
 20
83.05789676003042
 30
0.0
 11
52.41742159393027
 21
99.69205269840768
 31
0.0
  0
LINE
  5
4DCB
330
4DC9
100
AcDbEntity
  8
SUNPOU
 62
    70
370
    -2
100
AcDbLine
 10
87.41742159393004
 20
83.05789676003042
 30
0.0
 11
87.41742159393004
 21
99.69205269840768
 31
0.0
  0
LINE
  5
4DCC
330
4DC9
100
AcDbEntity
  8
SUNPOU
 62
    60
370
    -2
100
AcDbLine
 10
54.41742159393027
 20
99.69205269840768
 30
0.0
 11
85.41742159393004
 21
99.69205269840768
 31
0.0
  0
INSERT
  5
4DCD
330
4DC9
100
AcDbEntity
  8
SUNPOU
 62
    60
370
    -2
100
AcDbBlockReference
  2
_Dot
 10
52.41742159393027
 20
99.69205269840768
 30
0.0
 41
2.0
 42
2.0
 43
2.0
 50
180.0
  0
INSERT
  5
4DCE
330
4DC9
100
AcDbEntity
  8
SUNPOU
 62
    60
370
    -2
100
AcDbBlockReference
  2
_Dot
 10
87.41742159393004
 20
99.69205269840768
 30
0.0
 41
2.0
 42
2.0
 43
2.0
  0
MTEXT
  5
4DCF
330
4DC9
100
AcDbEntity
  8
SUNPOU
 62
    60
100
AcDbMText
 10
69.91742159393016
 20
105.1920526984077
 30
0.0
 40
5.0
 41
0.0
 71
     5
 72
     1
  1
\A1;35
  7
SUNPOU
 73
     1
 44
1.0
1001
ACAD
1000
MTEXTBEGIN
1070
    73
1070
     1
1070
    44
1040
1.0
1070
    74
1070
     0
1000
MTEXTEND
  0
POINT
  5
4DD0
330
4DC9
100
AcDbEntity
  8
DEFPOINTS
 62
     0
100
AcDbPoint
 10
52.41742159393027
 20
73.05789676003041
 30
0.0
  0
POINT
  5
4DD1
330
4DC9
100
AcDbEntity
  8
DEFPOINTS
 62
     0
100
AcDbPoint
 10
87.41742159393004
 20
73.05789676003041
 30
0.0
  0
POINT
  5
4DD2
330
4DC9
100
AcDbEntity
  8
DEFPOINTS
 62
     0
100
AcDbPoint
 10
87.41742159393004
 20
99.69205269840768
 30
0.0
  0
ENDBLK
  5
4DD4
330
4DC9
100
AcDbEntity
  8
0
100
AcDbBlockEnd
  0
BLOCK
  5
4DE0
330
4DD6
100
AcDbEntity
  8
0
100
AcDbBlockBegin
  2
*D41
 70
     1
 10
0.0
 20
0.0
 30
0.0
  3
*D41
  1

  0
LINE
  5
4DD7
330
4DD6
100
AcDbEntity
  8
SUNPOU
 62
    70
370
    -2
100
AcDbLine
 10
44.41742159393027
 20
75.05789676003042
 30
0.0
 11
32.14210515837386
 21
75.05789676003042
 31
0.0
  0
LINE
  5
4DD8
330
4DD6
100
AcDbEntity
  8
SUNPOU
 62
    70
370
    -2
100
AcDbLine
 10
59.91742159393016
 20
30.05789676003042
 30
0.0
 11
32.14210515837385
 21
30.05789676003043
 31
0.0
  0
LINE
  5
4DD9
330
4DD6
100
AcDbEntity
  8
SUNPOU
 62
    60
370
    -2
100
AcDbLine
 10
32.14210515837386
 20
73.05789676003041
 30
0.0
 11
32.14210515837385
 21
32.05789676003043
 31
0.0
  0
INSERT
  5
4DDA
330
4DD6
100
AcDbEntity
  8
SUNPOU
 62
    60
370
    -2
100
AcDbBlockReference
  2
_Dot
 10
32.14210515837386
 20
75.05789676003042
 30
0.0
 41
2.0
 42
2.0
 43
2.0
 50
90.0
  0
INSERT
  5
4DDB
330
4DD6
100
AcDbEntity
  8
SUNPOU
 62
    60
370
    -2
100
AcDbBlockReference
  2
_Dot
 10
32.14210515837385
 20
30.05789676003043
 30
0.0
 41
2.0
 42
2.0
 43
2.0
 50
270.0
  0
MTEXT
  5
4DDC
330
4DD6
100
AcDbEntity
  8
SUNPOU
 62
    60
100
AcDbMText
 10
26.64210515837385
 20
52.55789676003043
 30
0.0
 40
5.0
 41
0.0
 71
     5
 72
     1
  1
\A1;45
  7
SUNPOU
 11
0.0000000000000001
 21
1.0
 31
0.0
 73
     1
 44
1.0
1001
ACAD
1000
MTEXTBEGIN
1070
    73
1070
     1
1070
    44
1040
1.0
1070
    74
1070
     0
1000
MTEXTEND
  0
POINT
  5
4DDD
330
4DD6
100
AcDbEntity
  8
DEFPOINTS
 62
     0
100
AcDbPoint
 10
54.41742159393027
 20
75.05789676003042
 30
0.0
  0
POINT
  5
4DDE
330
4DD6
100
AcDbEntity
  8
DEFPOINTS
 62
     0
100
AcDbPoint
 10
69.91742159393016
 20
30.05789676003042
 30
0.0
  0
POINT
  5
4DDF
330
4DD6
100
AcDbEntity
  8
DEFPOINTS
 62
     0
100
AcDbPoint
 10
32.14210515837385
 20
30.05789676003043
 30
0.0
  0
ENDBLK
  5
4DE1
330
4DD6
100
AcDbEntity
  8
0
100
AcDbBlockEnd
  0
ENDSEC
  0
SECTION
  2
ENTITIES
  0
LINE
  5
1F
330
2
100
AcDbEntity
  8
WAKU
100
AcDbLine
 10
0.0
 20
14.0
 30
0.0
 11
148.6829221395387
 21
14.0
 31
0.0
  0
LINE
  5
20
330
2
100
AcDbEntity
  8
WAKU
100
AcDbLine
 10
0.0
 20
0.0
 30
0.0
 11
148.6829221395387
 21
0.0
 31
0.0
  0
TEXT
  5
21
330
2
100
AcDbEntity
  8
HOJO
100
AcDbText
 10
9.653966000000025
 20
2.366626000000024
 30
0.0
 40
9.0
  1
TK561
  7
SUNPOU
100
AcDbText
  0
TEXT
  5
23
330
2
100
AcDbEntity
  8
HOJO
100
AcDbText
 10
85.84696046283864
 20
5.044386000000031
 30
0.0
 40
6.0
  1
35×45×10
  7
SUNPOU
100
AcDbText
  0
LINE
  5
4DA8
102
{ACAD_REACTORS
330
4E16
102
}
330
2
100
AcDbEntity
  8
KIJUN
100
AcDbLine
 10
85.41742159393004
 20
75.05789676003042
 30
0.0
 11
54.41742159393027
 21
75.05789676003042
 31
0.0
  0
LINE
  5
4DA9
102
{ACAD_REACTORS
330
4E16
102
}
330
2
100
AcDbEntity
  8
KIJUN
100
AcDbLine
 10
52.41742159393027
 20
73.05789676003041
 30
0.0
 11
52.41742159393004
 21
68.05789676003041
 31
0.0
  0
LINE
  5
4DAA
102
{ACAD_REACTORS
330
4E16
102
}
330
2
100
AcDbEntity
  8
KIJUN
100
AcDbLine
 10
69.91742159393016
 20
66.05789676003041
 30
0.0
 11
69.91742159393016
 21
30.05789676003042
 31
0.0
  0
LINE
  5
4DAB
102
{ACAD_REACTORS
330
4E16
102
}
330
2
100
AcDbEntity
  8
KIJUN
100
AcDbLine
 10
85.41742159393027
 20
66.05789676003041
 30
0.0
 11
54.41742159393005
 21
66.05789676003041
 31
0.0
  0
ARC
  5
4DAC
102
{ACAD_REACTORS
330
4E16
102
}
330
2
100
AcDbEntity
  8
KIJUN
100
AcDbCircle
 10
54.41742159393005
 20
68.05789676003041
 30
0.0
 40
2.0
100
AcDbArc
 50
180.0
 51
270.0
  0
ARC
  5
4DAD
102
{ACAD_REACTORS
330
4E16
102
}
330
2
100
AcDbEntity
  8
KIJUN
100
AcDbCircle
 10
54.41742159393027
 20
73.05789676003041
 30
0.0
 40
2.0
100
AcDbArc
 50
90.0
 51
180.0
  0
SPLINE
  5
4DB1
102
{ACAD_REACTORS
330
4E16
102
}
330
2
100
AcDbEntity
  8
KIJUN
100
AcDbSpline
210
0.0
220
0.0
230
1.0
 70
     8
 71
     3
 72
    11
 73
     7
 74
     5
 42
0.0000000001
 43
0.0000000001
 44
0.0000000001
 40
0.0
 40
0.0
 40
0.0
 40
0.0
 40
6.857737650487138
 40
12.85488165868044
 40
17.13213491114335
 40
21.13580770062097
 40
21.13580770062097
 40
21.13580770062097
 40
21.13580770062097
 10
69.91742159393016
 20
66.05789676003041
 30
0.0
 10
68.66196421177957
 20
64.09181462426158
 30
0.0
 10
66.30859974997107
 20
60.40637862850596
 30
0.0
 10
61.34818431981802
 20
57.57025550603194
 30
0.0
 10
55.47851037103561
 20
57.57927227504578
 30
0.0
 10
55.13481179874623
 20
60.71398954613684
 30
0.0
 10
54.96863997029516
 20
62.22956669021574
 30
0.0
 11
69.91742159393016
 21
66.05789676003041
 31
0.0
 11
65.76154833902944
 21
60.602873096277
 31
0.0
 11
60.42469148627617
 21
57.86723876613905
 31
0.0
 11
56.18257560586073
 21
58.41436602997418
 31
0.0
 11
54.96863997029516
 21
62.22956669021574
 31
0.0
  0
SPLINE
  5
4DB2
102
{ACAD_REACTORS
330
4E16
102
}
330
2
100
AcDbEntity
  8
KIJUN
100
AcDbSpline
210
0.0
220
0.0
230
1.0
 70
     8
 71
     3
 72
    10
 73
     6
 74
     4
 42
0.0000000001
 43
0.0000000001
 44
0.0000000001
 13
0.5000389481966071
 23
-0.866002915864855
 33
0.0
 40
0.0
 40
0.0
 40
0.0
 40
0.0
 40
3.401163016839742
 40
7.97342191498831
 40
12.09656821049664
 40
12.09656821049664
 40
12.09656821049664
 40
12.09656821049664
 10
53.60754097087817
 20
50.25639789784555
 30
0.0
 10
54.75675354503696
 20
50.06495162845748
 30
0.0
 10
57.4508780778539
 20
49.61613989190627
 30
0.0
 10
61.10835981037121
 20
52.17550308067393
 30
0.0
 10
58.79399872918469
 20
58.92130311942752
 30
0.0
 10
59.48124330814028
 20
57.73108421461166
 30
0.0
 11
53.60754097087817
 21
50.25639789784555
 31
0.0
 11
57.00362979585884
 21
50.07068155510785
 31
0.0
 11
59.87732202627751
 21
53.62700611798596
 31
0.0
 11
59.48124330814028
 21
57.73108421461166
 31
0.0
  0
ARC
  5
4DB3
102
{ACAD_REACTORS
330
4E16
102
}
330
2
100
AcDbEntity
  8
KIJUN
100
AcDbCircle
 10
72.82992463910296
 20
63.04600586980019
 30
0.0
 40
14.36786990045397
100
AcDbArc
 50
201.7105085311083
 51
258.3045546470062
  0
SPLINE
  5
4DB4
102
{ACAD_REACTORS
330
4E16
102
}
330
2
100
AcDbEntity
  8
KIJUN
100
AcDbSpline
210
0.0
220
0.0
230
1.0
 70
     8
 71
     3
 72
     9
 73
     5
 74
     3
 42
0.0000000001
 43
0.0000000001
 44
0.0000000001
 40
0.0
 40
0.0
 40
0.0
 40
0.0
 40
6.951006280005201
 40
17.50652743921065
 40
17.50652743921065
 40
17.50652743921065
 40
17.50652743921065
 10
55.63520511969182
 20
47.061484256065
 30
0.0
 10
57.49877360072878
 20
45.15985188136911
 30
0.0
 10
62.19228291922374
 20
40.3704763570415
 30
0.0
 10
67.01161575253971
 20
45.7393051593115
 30
0.0
 10
69.91742159393016
 20
48.97642835346267
 30
0.0
 11
55.63520511969182
 21
47.061484256065
 31
0.0
 11
61.24574670244442
 21
42.95803309236442
 31
0.0
 11
69.91742159393016
 21
48.97642835346267
 31
0.0
  0
SPLINE
  5
4DB5
102
{ACAD_REACTORS
330
4E16
102
}
330
2
100
AcDbEntity
  8
KIJUN
100
AcDbSpline
210
0.0
220
0.0
230
1.0
 70
     8
 71
     3
 72
    12
 73
     8
 74
     6
 42
0.0000000001
 43
0.0000000001
 44
0.0000000001
 40
0.0
 40
0.0
 40
0.0
 40
0.0
 40
4.010805097005201
 40
7.986109329062544
 40
10.67722707769882
 40
14.51011168113188
 40
17.8449307460346
 40
17.8449307460346
 40
17.8449307460346
 40
17.8449307460346
 10
57.44517146066596
 20
38.3937943591211
 30
0.0
 10
58.87941609565913
 20
38.42134700474943
 30
0.0
 10
61.73521042688446
 20
38.47620841909665
 30
0.0
 10
62.89155911563182
 20
44.90410300077562
 30
0.0
 10
64.592600511256
 20
40.07797699897004
 30
0.0
 10
66.06115009415822
 20
37.02696349353271
 30
0.0
 10
68.6929569540031
 20
37.43411622081087
 30
0.0
 10
69.91742159393016
 20
37.62354657955359
 30
0.0
 11
57.44517146066596
 21
38.3937943591211
 31
0.0
 11
61.24574670244442
 21
39.67527216140388
 31
0.0
 11
63.15796890204137
 21
43.16044790973876
 31
0.0
 11
64.39312366286242
 21
40.76952602606161
 31
0.0
 11
66.58260252902744
 21
37.62354657955359
 31
0.0
 11
69.91742159393016
 21
37.62354657955359
 31
0.0
  0
SPLINE
  5
4DB6
102
{ACAD_REACTORS
330
4E16
102
}
330
2
100
AcDbEntity
  8
KIJUN
100
AcDbSpline
210
0.0
220
0.0
230
1.0
 70
     8
 71
     3
 72
     9
 73
     5
 74
     3
 42
0.0000000001
 43
0.0000000001
 44
0.0000000001
 40
0.0
 40
0.0
 40
0.0
 40
0.0
 40
3.471105980417854
 40
7.409723366163053
 40
7.409723366163053
 40
7.409723366163053
 40
7.409723366163053
 10
65.79361595357352
 20
31.58965384082137
 30
0.0
 10
66.67731883871195
 20
32.36424375539883
 30
0.0
 10
68.56374753138112
 20
34.01775045373018
 30
0.0
 10
69.44760804903009
 20
36.37209919873427
 30
0.0
 10
69.91742159393016
 20
37.62354657955359
 30
0.0
 11
65.79361595357352
 21
31.58965384082137
 31
0.0
 11
68.22471296136393
 21
34.06722201667549
 31
0.0
 11
69.91742159393016
 21
37.62354657955359
 31
0.0
  0
LINE
  5
4DB7
102
{ACAD_REACTORS
330
4E16
102
}
330
2
100
AcDbEntity
  8
KIJUN
100
AcDbLine
 10
61.38258958052927
 20
52.39597076887583
 30
0.0
 11
61.51943143244375
 21
44.18906844147454
 31
0.0
  0
LINE
  5
4DB8
102
{ACAD_REACTORS
330
4E16
102
}
330
2
100
AcDbEntity
  8
KIJUN
100
AcDbLine
 10
52.41742159393027
 20
68.05789676003041
 30
0.0
 11
52.41742159393016
 21
70.55789676003041
 31
0.0
  0
ARC
  5
4DB9
102
{ACAD_REACTORS
330
4E16
102
}
330
2
100
AcDbEntity
  8
KIJUN
100
AcDbCircle
 10
85.41742159393027
 20
68.05789676003041
 30
0.0
 40
2.0
100
AcDbArc
 50
270.0
 51
0.0
  0
LINE
  5
4DBA
102
{ACAD_REACTORS
330
4E16
102
}
330
2
100
AcDbEntity
  8
KIJUN
100
AcDbLine
 10
69.91742159393016
 20
66.05789676003041
 30
0.0
 11
69.91742159393016
 21
30.05789676003042
 31
0.0
  0
LINE
  5
4DBB
102
{ACAD_REACTORS
330
4E16
102
}
330
2
100
AcDbEntity
  8
KIJUN
100
AcDbLine
 10
78.45225360733104
 20
52.39597076887583
 30
0.0
 11
78.31541175541656
 21
44.18906844147454
 31
0.0
  0
SPLINE
  5
4DBC
102
{ACAD_REACTORS
330
4E16
102
}
330
2
100
AcDbEntity
  8
KIJUN
100
AcDbSpline
210
0.0
220
0.0
230
1.0
 70
     8
 71
     3
 72
     9
 73
     5
 74
     3
 42
0.0000000001
 43
0.0000000001
 44
0.0000000001
 40
0.0
 40
0.0
 40
0.0
 40
0.0
 40
3.471105980417854
 40
7.409723366163053
 40
7.409723366163053
 40
7.409723366163053
 40
7.409723366163053
 10
74.04122723428679
 20
31.58965384082137
 30
0.0
 10
73.15752434914836
 20
32.36424375539883
 30
0.0
 10
71.27109565647919
 20
34.01775045373018
 30
0.0
 10
70.38723513883022
 20
36.37209919873427
 30
0.0
 10
69.91742159393016
 20
37.62354657955359
 30
0.0
 11
74.04122723428679
 21
31.58965384082137
 31
0.0
 11
71.61013022649638
 21
34.06722201667549
 31
0.0
 11
69.91742159393016
 21
37.62354657955359
 31
0.0
  0
SPLINE
  5
4DBD
102
{ACAD_REACTORS
330
4E16
102
}
330
2
100
AcDbEntity
  8
KIJUN
100
AcDbSpline
210
0.0
220
0.0
230
1.0
 70
     8
 71
     3
 72
    12
 73
     8
 74
     6
 42
0.0000000001
 43
0.0000000001
 44
0.0000000001
 40
0.0
 40
0.0
 40
0.0
 40
0.0
 40
4.010805097005201
 40
7.986109329062544
 40
10.67722707769882
 40
14.51011168113188
 40
17.8449307460346
 40
17.8449307460346
 40
17.8449307460346
 40
17.8449307460346
 10
82.38967172719435
 20
38.3937943591211
 30
0.0
 10
80.95542709220115
 20
38.42134700474943
 30
0.0
 10
78.09963276097585
 20
38.47620841909665
 30
0.0
 10
76.94328407222849
 20
44.90410300077562
 30
0.0
 10
75.24224267660432
 20
40.07797699897004
 30
0.0
 10
73.77369309370209
 20
37.02696349353271
 30
0.0
 10
71.14188623385721
 20
37.43411622081087
 30
0.0
 10
69.91742159393016
 20
37.62354657955359
 30
0.0
 11
82.38967172719435
 21
38.3937943591211
 31
0.0
 11
78.58909648541589
 21
39.67527216140388
 31
0.0
 11
76.67687428581894
 21
43.16044790973876
 31
0.0
 11
75.44171952499789
 21
40.76952602606161
 31
0.0
 11
73.25224065883287
 21
37.62354657955359
 31
0.0
 11
69.91742159393016
 21
37.62354657955359
 31
0.0
  0
SPLINE
  5
4DBE
102
{ACAD_REACTORS
330
4E16
102
}
330
2
100
AcDbEntity
  8
KIJUN
100
AcDbSpline
210
0.0
220
0.0
230
1.0
 70
     8
 71
     3
 72
     9
 73
     5
 74
     3
 42
0.0000000001
 43
0.0000000001
 44
0.0000000001
 40
0.0
 40
0.0
 40
0.0
 40
0.0
 40
6.951006280005201
 40
17.50652743921065
 40
17.50652743921065
 40
17.50652743921065
 40
17.50652743921065
 10
84.1996380681685
 20
47.061484256065
 30
0.0
 10
82.33606958713153
 20
45.15985188136911
 30
0.0
 10
77.64256026863657
 20
40.3704763570415
 30
0.0
 10
72.82322743532057
 20
45.7393051593115
 30
0.0
 10
69.91742159393016
 20
48.97642835346267
 30
0.0
 11
84.1996380681685
 21
47.061484256065
 31
0.0
 11
78.58909648541589
 21
42.95803309236442
 31
0.0
 11
69.91742159393016
 21
48.97642835346267
 31
0.0
  0
ARC
  5
4DBF
102
{ACAD_REACTORS
330
4E16
102
}
330
2
100
AcDbEntity
  8
KIJUN
100
AcDbCircle
 10
67.00491854875735
 20
63.04600586980019
 30
0.0
 40
14.36786990045397
100
AcDbArc
 50
281.6954453529938
 51
338.2894914688918
  0
SPLINE
  5
4DC0
102
{ACAD_REACTORS
330
4E16
102
}
330
2
100
AcDbEntity
  8
KIJUN
100
AcDbSpline
210
0.0
220
0.0
230
1.0
 70
     8
 71
     3
 72
    10
 73
     6
 74
     4
 42
0.0000000001
 43
0.0000000001
 44
0.0000000001
 13
-0.5000389481966071
 23
-0.866002915864855
 33
0.0
 40
0.0
 40
0.0
 40
0.0
 40
0.0
 40
3.401163016839742
 40
7.97342191498831
 40
12.09656821049664
 40
12.09656821049664
 40
12.09656821049664
 40
12.09656821049664
 10
86.22730221698214
 20
50.25639789784555
 30
0.0
 10
85.07808964282338
 20
50.06495162845748
 30
0.0
 10
82.38396511000642
 20
49.61613989190627
 30
0.0
 10
78.7264833774891
 20
52.17550308067393
 30
0.0
 10
81.04084445867561
 20
58.92130311942752
 30
0.0
 10
80.35359987972004
 20
57.73108421461166
 30
0.0
 11
86.22730221698214
 21
50.25639789784555
 31
0.0
 11
82.83121339200148
 21
50.07068155510785
 31
0.0
 11
79.9575211615828
 21
53.62700611798596
 31
0.0
 11
80.35359987972004
 21
57.73108421461166
 31
0.0
  0
SPLINE
  5
4DC1
102
{ACAD_REACTORS
330
4E16
102
}
330
2
100
AcDbEntity
  8
KIJUN
100
AcDbSpline
210
0.0
220
0.0
230
1.0
 70
     8
 71
     3
 72
    11
 73
     7
 74
     5
 42
0.0000000001
 43
0.0000000001
 44
0.0000000001
 40
0.0
 40
0.0
 40
0.0
 40
0.0
 40
6.857737650487138
 40
12.85488165868044
 40
17.13213491114335
 40
21.13580770062097
 40
21.13580770062097
 40
21.13580770062097
 40
21.13580770062097
 10
69.91742159393016
 20
66.05789676003041
 30
0.0
 10
71.17287897608074
 20
64.09181462426158
 30
0.0
 10
73.52624343788924
 20
60.40637862850596
 30
0.0
 10
78.4866588680423
 20
57.57025550603194
 30
0.0
 10
84.3563328168247
 20
57.57927227504578
 30
0.0
 10
84.70003138911408
 20
60.71398954613684
 30
0.0
 10
84.86620321756516
 20
62.22956669021574
 30
0.0
 11
69.91742159393016
 21
66.05789676003041
 31
0.0
 11
74.07329484883087
 21
60.602873096277
 31
0.0
 11
79.41015170158414
 21
57.86723876613905
 31
0.0
 11
83.65226758199957
 21
58.41436602997418
 31
0.0
 11
84.86620321756516
 21
62.22956669021574
 31
0.0
  0
LINE
  5
4DC5
102
{ACAD_REACTORS
330
4E16
102
}
330
2
100
AcDbEntity
  8
KIJUN
100
AcDbLine
 10
87.41742159393004
 20
68.05789676003041
 30
0.0
 11
87.41742159393016
 21
70.55789676003041
 31
0.0
  0
LINE
  5
4DC6
102
{ACAD_REACTORS
330
4E16
102
}
330
2
100
AcDbEntity
  8
KIJUN
100
AcDbLine
 10
87.41742159393004
 20
73.05789676003041
 30
0.0
 11
87.41742159393027
 21
68.05789676003041
 31
0.0
  0
ARC
  5
4DC7
102
{ACAD_REACTORS
330
4E16
102
}
330
2
100
AcDbEntity
  8
KIJUN
100
AcDbCircle
 10
85.41742159393004
 20
73.05789676003041
 30
0.0
 40
2.0
100
AcDbArc
 50
0.0
 51
90.0
  0
DIMENSION
  5
4DC8
330
2
100
AcDbEntity
  8
SUNPOU
100
AcDbDimension
  2
*D40
 10
87.41742159393004
 20
99.69205269840768
 30
0.0
 11
69.91742159393016
 21
105.1920526984077
 31
0.0
 70
    32
 71
     5
 42
34.99999999999977
  3
STANDARD
100
AcDbAlignedDimension
 13
52.41742159393027
 23
73.05789676003041
 33
0.0
 14
87.41742159393004
 24
73.05789676003041
 34
0.0
100
AcDbRotatedDimension
1001
ACAD
1000
DSTYLE
1002
{
1070
    41
1040
2.0
1070
    42
1040
10.0
1070
    44
1040
0.0
1070
    73
1070
     0
1070
    74
1070
     0
1070
    77
1070
     1
1070
   140
1040
5.0
1070
   141
1040
0.0
1070
   146
1040
0.064286
1070
   147
1040
3.0
1070
   176
1070
    60
1070
   177
1070
    70
1070
   178
1070
    60
1070
   271
1070
     0
1070
   272
1070
     0
1070
   340
1005
1C
1070
   342
1005
109
1002
}
  0
DIMENSION
  5
4DD5
330
2
100
AcDbEntity
  8
SUNPOU
100
AcDbDimension
  2
*D41
 10
32.14210515837385
 20
30.05789676003043
 30
0.0
 11
26.64210515837385
 21
52.55789676003043
 31
0.0
 70
    32
 71
     5
 42
45.0
  3
STANDARD
100
AcDbAlignedDimension
 13
54.41742159393027
 23
75.05789676003042
 33
0.0
 14
69.91742159393016
 24
30.05789676003042
 34
0.0
 50
90.0
100
AcDbRotatedDimension
1001
ACAD
1000
DSTYLE
1002
{
1070
    41
1040
2.0
1070
    42
1040
10.0
1070
    44
1040
0.0
1070
    73
1070
     0
1070
    74
1070
     0
1070
    77
1070
     1
1070
   140
1040
5.0
1070
   141
1040
0.0
1070
   146
1040
0.064286
1070
   147
1040
3.0
1070
   176
1070
    60
1070
   177
1070
    70
1070
   178
1070
    60
1070
   271
1070
     0
1070
   272
1070
     0
1070
   340
1005
1C
1070
   342
1005
109
1002
}
  0
ARC
  5
4DF7
102
{ACAD_REACTORS
330
4E16
102
}
330
2
100
AcDbEntity
  8
KIJUN
100
AcDbCircle
 10
45.43248637792447
 20
71.02668667329973
 30
0.0
 40
12.97411057969139
100
AcDbArc
 50
317.3084035206107
 51
337.4817738036975
  0
ARC
  5
4DF8
102
{ACAD_REACTORS
330
4E16
102
}
330
2
100
AcDbEntity
  8
KIJUN
100
AcDbCircle
 10
100.0210450052522
 20
48.03336096353727
 30
0.0
 40
47.86805742726211
100
AcDbArc
 50
167.3467799586316
 51
173.9747715218934
  0
ARC
  5
4DF9
102
{ACAD_REACTORS
330
4E16
102
}
330
2
100
AcDbEntity
  8
KIJUN
100
AcDbCircle
 10
61.98027065357475
 20
56.88231844660721
 30
0.0
 40
8.81793788918261
100
AcDbArc
 50
142.6699333923475
 51
169.304452381307
  0
ARC
  5
4DFA
102
{ACAD_REACTORS
330
4E16
102
}
330
2
100
AcDbEntity
  8
KIJUN
100
AcDbCircle
 10
43.3957157023559
 20
47.57179887010696
 30
0.0
 40
10.55880898844964
100
AcDbArc
 50
14.72927123508547
 51
31.30377756783729
  0
ARC
  5
4DFB
102
{ACAD_REACTORS
330
4E16
102
}
330
2
100
AcDbEntity
  8
KIJUN
100
AcDbCircle
 10
41.52270865893769
 20
47.8290522573283
 30
0.0
 40
12.32619888149866
100
AcDbArc
 50
0.2173003771350115
 51
11.35724104249865
  0
ARC
  5
4DFC
102
{ACAD_REACTORS
330
4E16
102
}
330
2
100
AcDbEntity
  8
KIJUN
100
AcDbCircle
 10
91.66509718748477
 20
46.37538839234259
 30
0.0
 40
37.846032036224
100
AcDbArc
 50
177.7279039163241
 51
185.0067643901324
  0
ARC
  5
4DFD
102
{ACAD_REACTORS
330
4E16
102
}
330
2
100
AcDbEntity
  8
KIJUN
100
AcDbCircle
 10
58.56960812332741
 20
43.38300639602886
 30
0.0
 40
4.616595840613676
100
AcDbArc
 50
183.8573211650115
 51
235.0465378134408
  0
ARC
  5
4DFE
102
{ACAD_REACTORS
330
4E16
102
}
330
2
100
AcDbEntity
  8
KIJUN
100
AcDbCircle
 10
53.5141896413494
 20
35.10846235438362
 30
0.0
 40
5.09676371410378
100
AcDbArc
 50
21.31933972542508
 51
61.77396497683411
  0
ARC
  5
4DFF
102
{ACAD_REACTORS
330
4E16
102
}
330
2
100
AcDbEntity
  8
KIJUN
100
AcDbCircle
 10
64.19602457390961
 20
37.11572002893396
 30
0.0
 40
5.63972728466827
100
AcDbArc
 50
225.015129132942
 51
263.180613898409
  0
ARC
  5
4E00
102
{ACAD_REACTORS
330
4E16
102
}
330
2
100
AcDbEntity
  8
KIJUN
100
AcDbCircle
 10
69.43188688583131
 20
40.22111050970835
 30
0.0
 40
11.63562315405915
100
AcDbArc
 50
196.268746442031
 51
217.568393958954
  0
ARC
  5
4E01
102
{ACAD_REACTORS
330
4E16
102
}
330
2
100
AcDbEntity
  8
KIJUN
100
AcDbCircle
 10
69.86490540770588
 20
33.89331307176342
 30
0.0
 40
3.835775832100101
100
AcDbArc
 50
252.2302718351567
 51
270.7844696796728
  0
ARC
  5
4E03
102
{ACAD_REACTORS
330
4E16
102
}
330
2
100
AcDbEntity
  8
KIJUN
100
AcDbCircle
 10
69.45065314050207
 20
31.97203568974465
 30
0.0
 40
1.889501565650344
100
AcDbArc
 50
223.0056769598151
 51
246.4021006906436
  0
ARC
  5
4E04
102
{ACAD_REACTORS
330
4E16
102
}
330
2
100
AcDbEntity
  8
KIJUN
100
AcDbCircle
 10
64.88135561997288
 20
27.93484615055396
 30
0.0
 40
4.20881741654149
100
AcDbArc
 50
40.76921320485122
 51
58.08460840872953
  0
ARC
  5
4E05
102
{ACAD_REACTORS
330
4E16
102
}
330
2
100
AcDbEntity
  8
KIJUN
100
AcDbCircle
 10
64.37356270357212
 20
38.60353624742998
 30
0.0
 40
7.138098658115121
100
AcDbArc
 50
263.1836727441187
 51
279.0921428099344
  0
ARC
  5
4E06
102
{ACAD_REACTORS
330
4E16
102
}
330
2
100
AcDbEntity
  8
KIJUN
100
AcDbCircle
 10
66.20329911320562
 20
28.14448715371226
 30
0.0
 40
3.482083591106204
100
AcDbArc
 50
74.96784902064693
 51
101.6266246531356
  0
ARC
  5
4E07
102
{ACAD_REACTORS
330
4E16
102
}
330
2
100
AcDbEntity
  8
KIJUN
100
AcDbCircle
 10
94.40235680993584
 20
71.02668667329973
 30
0.0
 40
12.97411057969138
100
AcDbArc
 50
202.5182261963024
 51
222.6915964793894
  0
ARC
  5
4E08
102
{ACAD_REACTORS
330
4E16
102
}
330
2
100
AcDbEntity
  8
KIJUN
100
AcDbCircle
 10
39.81379818260811
 20
48.03336096353727
 30
0.0
 40
47.86805742726211
100
AcDbArc
 50
6.025228478106567
 51
12.65322004136851
  0
ARC
  5
4E09
102
{ACAD_REACTORS
330
4E16
102
}
330
2
100
AcDbEntity
  8
KIJUN
100
AcDbCircle
 10
77.85457253428558
 20
56.88231844660721
 30
0.0
 40
8.817937889182609
100
AcDbArc
 50
10.69554761869305
 51
37.33006660765265
  0
ARC
  5
4E0A
102
{ACAD_REACTORS
330
4E16
102
}
330
2
100
AcDbEntity
  8
KIJUN
100
AcDbCircle
 10
96.43912748550443
 20
47.57179887010696
 30
0.0
 40
10.55880898844964
100
AcDbArc
 50
148.6962224321624
 51
165.2707287649145
  0
ARC
  5
4E0B
102
{ACAD_REACTORS
330
4E16
102
}
330
2
100
AcDbEntity
  8
KIJUN
100
AcDbCircle
 10
98.31213452892264
 20
47.8290522573283
 30
0.0
 40
12.32619888149866
100
AcDbArc
 50
168.6427589575013
 51
179.782699622865
  0
ARC
  5
4E0C
102
{ACAD_REACTORS
330
4E16
102
}
330
2
100
AcDbEntity
  8
KIJUN
100
AcDbCircle
 10
48.16974600037555
 20
46.37538839234259
 30
0.0
 40
37.84603203622399
100
AcDbArc
 50
354.9932356098677
 51
2.272096083675821
  0
ARC
  5
4E0D
102
{ACAD_REACTORS
330
4E16
102
}
330
2
100
AcDbEntity
  8
KIJUN
100
AcDbCircle
 10
81.26523506453292
 20
43.38300639602886
 30
0.0
 40
4.616595840613675
100
AcDbArc
 50
304.9534621865595
 51
356.1426788349884
  0
ARC
  5
4E0E
102
{ACAD_REACTORS
330
4E16
102
}
330
2
100
AcDbEntity
  8
KIJUN
100
AcDbCircle
 10
86.32065354651093
 20
35.10846235438362
 30
0.0
 40
5.096763714103779
100
AcDbArc
 50
118.2260350231653
 51
158.6806602745747
  0
ARC
  5
4E0F
102
{ACAD_REACTORS
330
4E16
102
}
330
2
100
AcDbEntity
  8
KIJUN
100
AcDbCircle
 10
75.63881861395072
 20
37.11572002893396
 30
0.0
 40
5.639727284668269
100
AcDbArc
 50
276.8193861015909
 51
314.9848708670575
  0
ARC
  5
4E10
102
{ACAD_REACTORS
330
4E16
102
}
330
2
100
AcDbEntity
  8
KIJUN
100
AcDbCircle
 10
70.40295630202901
 20
40.22111050970835
 30
0.0
 40
11.63562315405915
100
AcDbArc
 50
322.4316060410462
 51
343.7312535579692
  0
ARC
  5
4E11
102
{ACAD_REACTORS
330
4E16
102
}
330
2
100
AcDbEntity
  8
KIJUN
100
AcDbCircle
 10
69.96993778015445
 20
33.89331307176342
 30
0.0
 40
3.8357758321001
100
AcDbArc
 50
269.2155303203274
 51
287.7697281648439
  0
ARC
  5
4E12
102
{ACAD_REACTORS
330
4E16
102
}
330
2
100
AcDbEntity
  8
KIJUN
100
AcDbCircle
 10
70.38419004735826
 20
31.97203568974465
 30
0.0
 40
1.889501565650344
100
AcDbArc
 50
293.5978993093564
 51
316.994323040185
  0
ARC
  5
4E13
102
{ACAD_REACTORS
330
4E16
102
}
330
2
100
AcDbEntity
  8
KIJUN
100
AcDbCircle
 10
74.95348756788745
 20
27.93484615055396
 30
0.0
 40
4.208817416541489
100
AcDbArc
 50
121.9153915912708
 51
139.2307867951485
  0
ARC
  5
4E14
102
{ACAD_REACTORS
330
4E16
102
}
330
2
100
AcDbEntity
  8
KIJUN
100
AcDbCircle
 10
75.46128048428821
 20
38.60353624742998
 30
0.0
 40
7.13809865811512
100
AcDbArc
 50
260.9078571900659
 51
276.816327255882
  0
ARC
  5
4E15
102
{ACAD_REACTORS
330
4E16
102
}
330
2
100
AcDbEntity
  8
KIJUN
100
AcDbCircle
 10
73.63154407465471
 20
28.14448715371226
 30
0.0
 40
3.482083591106203
100
AcDbArc
 50
78.37337534686445
 51
105.0321509793526
  0
ENDSEC
  0
SECTION
  2
OBJECTS
  0
DICTIONARY
  5
1A
330
0
100
AcDbDictionary
281
     1
  3
ACAD_COLOR
350
144
  3
ACAD_GROUP
350
18
  3
ACAD_LAYOUT
350
58
  3
ACAD_MATERIAL
350
143
  3
ACAD_MLINESTYLE
350
19
  3
ACAD_PLOTSETTINGS
350
59
  3
ACAD_PLOTSTYLENAME
350
56
  3
ACAD_TABLESTYLE
350
145
  3
ACDBHEADERROUNDTRIPXREC
350
4E1E
  3
AcDbVariableDictionary
350
1D1
  0
DICTIONARY
  5
1B4
330
A
100
AcDbDictionary
280
     1
281
     1
  3
ACAD_LAYERFILTERS
360
1A2A
  3
ACLYDICTIONARY
360
1A29
  0
DICTIONARY
  5
D13
330
2
100
AcDbDictionary
280
     1
281
     1
  3
ACAD_SORTENTS
360
D14
  0
DICTIONARY
  5
144
102
{ACAD_REACTORS
330
1A
102
}
330
1A
100
AcDbDictionary
281
     1
  0
DICTIONARY
  5
18
102
{ACAD_REACTORS
330
1A
102
}
330
1A
100
AcDbDictionary
281
     1
  3
*A1
350
E0D
  3
*A10
350
3988
  3
*A11
350
3A25
  3
*A12
350
34BB
  3
*A13
350
3C81
  3
*A14
350
213E
  3
*A15
350
3E5C
  3
*A16
350
3181
  3
*A17
350
2B84
  3
*A18
350
2C6B
  3
*A19
350
2D78
  3
*A2
350
1A98
  3
*A20
350
22C8
  3
*A21
350
1EFE
  3
*A22
350
241A
  3
*A23
350
35A5
  3
*A24
350
401B
  3
*A25
350
265A
  3
*A26
350
26DD
  3
*A27
350
275E
  3
*A28
350
2905
  3
*A29
350
2EE1
  3
*A3
350
1CBC
  3
*A30
350
2F81
  3
*A31
350
31DF
  3
*A32
350
32E4
  3
*A33
350
3349
  3
*A34
350
24D6
  3
*A35
350
2037
  3
*A36
350
3467
  3
*A37
350
422E
  3
*A38
350
4407
  3
*A39
350
4516
  3
*A4
350
307D
  3
*A40
350
FF8
  3
*A41
350
136A
  3
*A42
350
1555
  3
*A43
350
2A17
  3
*A44
350
17BC
  3
*A45
350
45E5
  3
*A46
350
46A5
  3
*A47
350
4781
  3
*A48
350
48BA
  3
*A49
350
4A53
  3
*A5
350
3695
  3
*A50
350
4B49
  3
*A51
350
4C3E
  3
*A52
350
4CEC
  3
*A53
350
4D76
  3
*A54
350
4E16
  3
*A6
350
36C9
  3
*A7
350
382B
  3
*A8
350
2573
  3
*A9
350
3878
  0
DICTIONARY
  5
58
102
{ACAD_REACTORS
330
1A
102
}
330
1A
100
AcDbDictionary
281
     1
  3
Model
350
5A
  3
ﾚｲｱｳﾄ1
350
5B
  0
DICTIONARY
  5
143
102
{ACAD_REACTORS
330
1A
102
}
330
1A
100
AcDbDictionary
281
     1
  0
DICTIONARY
  5
19
102
{ACAD_REACTORS
330
1A
102
}
330
1A
100
AcDbDictionary
281
     1
  3
STANDARD
350
1D
  0
DICTIONARY
  5
59
102
{ACAD_REACTORS
330
1A
102
}
330
1A
100
AcDbDictionary
281
     1
  0
ACDBDICTIONARYWDFLT
  5
56
102
{ACAD_REACTORS
330
1A
102
}
330
1A
100
AcDbDictionary
281
     1
  3
Normal
350
57
100
AcDbDictionaryWithDefault
340
57
  0
DICTIONARY
  5
145
102
{ACAD_REACTORS
330
1A
102
}
330
1A
100
AcDbDictionary
281
     1
  3
Standard
350
146
  0
DICTIONARY
  5
4E1E
102
{ACAD_REACTORS
330
1A
102
}
330
1A
100
AcDbDictionary
281
     1
  0
DICTIONARY
  5
1D1
102
{ACAD_REACTORS
330
1A
102
}
330
1A
100
AcDbDictionary
281
     1
  3
CTABLESTYLE
350
1D2
  3
DIMASSOC
350
D03
  3
PROJECTNAME
350
D04
  0
DICTIONARY
  5
1A2A
102
{ACAD_REACTORS
330
1B4
102
}
330
1B4
100
AcDbDictionary
281
     1
  0
DICTIONARY
  5
1A29
102
{ACAD_REACTORS
330
1B4
102
}
330
1B4
100
AcDbDictionary
281
     1
1001
ACAD
1000
<All
  0
SORTENTSTABLE
  5
D14
102
{ACAD_REACTORS
330
D13
102
}
330
D13
100
AcDbSortentsTable
330
2
331
20
  5
20
331
21
  5
21
331
23
  5
23
331
1F
  5
1F
  0
GROUP
  5
E0D
102
{ACAD_REACTORS
330
18
102
}
330
18
100
AcDbGroup
300

 70
     1
 71
     1
  0
GROUP
  5
3988
102
{ACAD_REACTORS
330
18
102
}
330
18
100
AcDbGroup
300

 70
     1
 71
     1
  0
GROUP
  5
3A25
102
{ACAD_REACTORS
330
18
102
}
330
18
100
AcDbGroup
300

 70
     1
 71
     1
  0
GROUP
  5
34BB
102
{ACAD_REACTORS
330
18
102
}
330
18
100
AcDbGroup
300

 70
     1
 71
     1
  0
GROUP
  5
3C81
102
{ACAD_REACTORS
330
18
102
}
330
18
100
AcDbGroup
300

 70
     1
 71
     1
  0
GROUP
  5
213E
102
{ACAD_REACTORS
330
18
102
}
330
18
100
AcDbGroup
300

 70
     1
 71
     1
  0
GROUP
  5
3E5C
102
{ACAD_REACTORS
330
18
102
}
330
18
100
AcDbGroup
300

 70
     1
 71
     1
  0
GROUP
  5
3181
102
{ACAD_REACTORS
330
18
102
}
330
18
100
AcDbGroup
300

 70
     1
 71
     1
  0
GROUP
  5
2B84
102
{ACAD_REACTORS
330
18
102
}
330
18
100
AcDbGroup
300

 70
     1
 71
     1
  0
GROUP
  5
2C6B
102
{ACAD_REACTORS
330
18
102
}
330
18
100
AcDbGroup
300

 70
     1
 71
     1
  0
GROUP
  5
2D78
102
{ACAD_REACTORS
330
18
102
}
330
18
100
AcDbGroup
300

 70
     1
 71
     1
  0
GROUP
  5
1A98
102
{ACAD_REACTORS
330
18
102
}
330
18
100
AcDbGroup
300

 70
     1
 71
     1
  0
GROUP
  5
22C8
102
{ACAD_REACTORS
330
18
102
}
330
18
100
AcDbGroup
300

 70
     1
 71
     1
  0
GROUP
  5
1EFE
102
{ACAD_REACTORS
330
18
102
}
330
18
100
AcDbGroup
300

 70
     1
 71
     1
  0
GROUP
  5
241A
102
{ACAD_REACTORS
330
18
102
}
330
18
100
AcDbGroup
300

 70
     1
 71
     1
  0
GROUP
  5
35A5
102
{ACAD_REACTORS
330
18
102
}
330
18
100
AcDbGroup
300

 70
     1
 71
     1
  0
GROUP
  5
401B
102
{ACAD_REACTORS
330
18
102
}
330
18
100
AcDbGroup
300

 70
     1
 71
     1
  0
GROUP
  5
265A
102
{ACAD_REACTORS
330
18
102
}
330
18
100
AcDbGroup
300

 70
     1
 71
     1
  0
GROUP
  5
26DD
102
{ACAD_REACTORS
330
18
102
}
330
18
100
AcDbGroup
300

 70
     1
 71
     1
  0
GROUP
  5
275E
102
{ACAD_REACTORS
330
18
102
}
330
18
100
AcDbGroup
300

 70
     1
 71
     1
  0
GROUP
  5
2905
102
{ACAD_REACTORS
330
18
102
}
330
18
100
AcDbGroup
300

 70
     1
 71
     1
  0
GROUP
  5
2EE1
102
{ACAD_REACTORS
330
18
102
}
330
18
100
AcDbGroup
300

 70
     1
 71
     1
  0
GROUP
  5
1CBC
102
{ACAD_REACTORS
330
18
102
}
330
18
100
AcDbGroup
300

 70
     1
 71
     1
  0
GROUP
  5
2F81
102
{ACAD_REACTORS
330
18
102
}
330
18
100
AcDbGroup
300

 70
     1
 71
     1
  0
GROUP
  5
31DF
102
{ACAD_REACTORS
330
18
102
}
330
18
100
AcDbGroup
300

 70
     1
 71
     1
  0
GROUP
  5
32E4
102
{ACAD_REACTORS
330
18
102
}
330
18
100
AcDbGroup
300

 70
     1
 71
     1
  0
GROUP
  5
3349
102
{ACAD_REACTORS
330
18
102
}
330
18
100
AcDbGroup
300

 70
     1
 71
     1
  0
GROUP
  5
24D6
102
{ACAD_REACTORS
330
18
102
}
330
18
100
AcDbGroup
300

 70
     1
 71
     1
  0
GROUP
  5
2037
102
{ACAD_REACTORS
330
18
102
}
330
18
100
AcDbGroup
300

 70
     1
 71
     1
  0
GROUP
  5
3467
102
{ACAD_REACTORS
330
18
102
}
330
18
100
AcDbGroup
300

 70
     1
 71
     1
  0
GROUP
  5
422E
102
{ACAD_REACTORS
330
18
102
}
330
18
100
AcDbGroup
300

 70
     1
 71
     1
  0
GROUP
  5
4407
102
{ACAD_REACTORS
330
18
102
}
330
18
100
AcDbGroup
300

 70
     1
 71
     1
  0
GROUP
  5
4516
102
{ACAD_REACTORS
330
18
102
}
330
18
100
AcDbGroup
300

 70
     1
 71
     1
  0
GROUP
  5
307D
102
{ACAD_REACTORS
330
18
102
}
330
18
100
AcDbGroup
300

 70
     1
 71
     1
  0
GROUP
  5
FF8
102
{ACAD_REACTORS
330
18
102
}
330
18
100
AcDbGroup
300

 70
     1
 71
     1
  0
GROUP
  5
136A
102
{ACAD_REACTORS
330
18
102
}
330
18
100
AcDbGroup
300

 70
     1
 71
     1
  0
GROUP
  5
1555
102
{ACAD_REACTORS
330
18
102
}
330
18
100
AcDbGroup
300

 70
     1
 71
     1
  0
GROUP
  5
2A17
102
{ACAD_REACTORS
330
18
102
}
330
18
100
AcDbGroup
300

 70
     1
 71
     1
  0
GROUP
  5
17BC
102
{ACAD_REACTORS
330
18
102
}
330
18
100
AcDbGroup
300

 70
     1
 71
     1
  0
GROUP
  5
45E5
102
{ACAD_REACTORS
330
18
102
}
330
18
100
AcDbGroup
300

 70
     1
 71
     1
  0
GROUP
  5
46A5
102
{ACAD_REACTORS
330
18
102
}
330
18
100
AcDbGroup
300

 70
     1
 71
     1
  0
GROUP
  5
4781
102
{ACAD_REACTORS
330
18
102
}
330
18
100
AcDbGroup
300

 70
     1
 71
     1
  0
GROUP
  5
48BA
102
{ACAD_REACTORS
330
18
102
}
330
18
100
AcDbGroup
300

 70
     1
 71
     1
  0
GROUP
  5
4A53
102
{ACAD_REACTORS
330
18
102
}
330
18
100
AcDbGroup
300

 70
     1
 71
     1
  0
GROUP
  5
3695
102
{ACAD_REACTORS
330
18
102
}
330
18
100
AcDbGroup
300

 70
     1
 71
     1
  0
GROUP
  5
4B49
102
{ACAD_REACTORS
330
18
102
}
330
18
100
AcDbGroup
300

 70
     1
 71
     1
  0
GROUP
  5
4C3E
102
{ACAD_REACTORS
330
18
102
}
330
18
100
AcDbGroup
300

 70
     1
 71
     1
  0
GROUP
  5
4CEC
102
{ACAD_REACTORS
330
18
102
}
330
18
100
AcDbGroup
300

 70
     1
 71
     1
  0
GROUP
  5
4D76
102
{ACAD_REACTORS
330
18
102
}
330
18
100
AcDbGroup
300

 70
     1
 71
     1
  0
GROUP
  5
4E16
102
{ACAD_REACTORS
330
18
102
}
330
18
100
AcDbGroup
300

 70
     1
 71
     1
340
4E15
340
4E14
340
4E13
340
4E12
340
4E11
340
4E10
340
4E0F
340
4E0E
340
4E0D
340
4E0C
340
4E0B
340
4E0A
340
4E09
340
4E08
340
4E07
340
4E06
340
4E05
340
4E04
340
4E03
340
4E01
340
4E00
340
4DFF
340
4DFE
340
4DFD
340
4DFC
340
4DFB
340
4DFA
340
4DF9
340
4DF8
340
4DF7
340
4DC7
340
4DC6
340
4DC5
340
4DC1
340
4DC0
340
4DBF
340
4DBE
340
4DBD
340
4DBC
340
4DBB
340
4DBA
340
4DB9
340
4DB8
340
4DB7
340
4DB6
340
4DB5
340
4DB4
340
4DB3
340
4DB2
340
4DB1
340
4DAD
340
4DAC
340
4DAB
340
4DAA
340
4DA9
340
4DA8
  0
GROUP
  5
36C9
102
{ACAD_REACTORS
330
18
102
}
330
18
100
AcDbGroup
300

 70
     1
 71
     1
  0
GROUP
  5
382B
102
{ACAD_REACTORS
330
18
102
}
330
18
100
AcDbGroup
300

 70
     1
 71
     1
  0
GROUP
  5
2573
102
{ACAD_REACTORS
330
18
102
}
330
18
100
AcDbGroup
300

 70
     1
 71
     1
  0
GROUP
  5
3878
102
{ACAD_REACTORS
330
18
102
}
330
18
100
AcDbGroup
300

 70
     1
 71
     1
  0
LAYOUT
  5
5A
102
{ACAD_XDICTIONARY
360
4E1F
102
}
102
{ACAD_REACTORS
330
58
102
}
330
58
100
AcDbPlotSettings
  1

  2
なし
  4

  6

 40
0.0
 41
0.0
 42
0.0
 43
0.0
 44
0.0
 45
0.0
 46
0.0
 47
0.0
 48
0.0
 49
0.0
140
0.0
141
0.0
142
1.0
143
1.0
 70
  1712
 72
     0
 73
     0
 74
     0
  7
monochrome.ctb
 75
     0
147
1.0
148
0.0
149
0.0
100
AcDbLayout
  1
Model
 70
     1
 71
     0
 10
0.0
 20
0.0
 11
12.0
 21
9.0
 12
0.0
 22
0.0
 32
0.0
 14
0.0
 24
0.0
 34
0.0
 15
0.0
 25
0.0
 35
0.0
146
0.0
 13
0.0
 23
0.0
 33
0.0
 16
1.0
 26
0.0
 36
0.0
 17
0.0
 27
1.0
 37
0.0
 76
     0
330
2
  0
LAYOUT
  5
5B
102
{ACAD_XDICTIONARY
360
4E21
102
}
102
{ACAD_REACTORS
330
58
102
}
330
58
100
AcDbPlotSettings
  1

  2
なし
  4

  6

 40
0.0
 41
0.0
 42
0.0
 43
0.0
 44
0.0
 45
0.0
 46
0.0
 47
0.0
 48
0.0
 49
0.0
140
0.0
141
0.0
142
1.0
143
1.0
 70
   688
 72
     0
 73
     0
 74
     5
  7
monochrome.ctb
 75
    16
147
1.0
148
0.0
149
0.0
100
AcDbLayout
  1
ﾚｲｱｳﾄ1
 70
     1
 71
     1
 10
0.0
 20
0.0
 11
12.0
 21
9.0
 12
0.0
 22
0.0
 32
0.0
 14
1.000000000000000E+20
 24
1.000000000000000E+20
 34
1.000000000000000E+20
 15
-1.000000000000000E+20
 25
-1.000000000000000E+20
 35
-1.000000000000000E+20
146
0.0
 13
0.0
 23
0.0
 33
0.0
 16
1.0
 26
0.0
 36
0.0
 17
0.0
 27
1.0
 37
0.0
 76
     0
330
7
  0
MLINESTYLE
  5
1D
102
{ACAD_REACTORS
330
19
102
}
330
19
100
AcDbMlineStyle
  2
STANDARD
 70
     0
  3

 62
   256
 51
90.0
 52
90.0
 71
     2
 49
0.5
 62
   256
  6
BYLAYER
 49
-0.5
 62
   256
  6
BYLAYER
  0
ACDBPLACEHOLDER
  5
57
102
{ACAD_REACTORS
330
56
102
}
330
56
  0
TABLESTYLE
  5
146
102
{ACAD_REACTORS
330
145
102
}
330
145
100
AcDbTableStyle
  3
Standard
 70
     0
 71
     0
 40
0.06
 41
0.06
280
     0
281
     0
  7
STANDARD
140
0.18
170
     2
 62
     0
 63
     7
283
     0
274
    -2
284
     1
 64
     0
275
    -2
285
     1
 65
     0
276
    -2
286
     1
 66
     0
277
    -2
287
     1
 67
     0
278
    -2
288
     1
 68
     0
279
    -2
289
     1
 69
     0
  7
STANDARD
140
0.25
170
     5
 62
     0
 63
     7
283
     0
274
    -2
284
     1
 64
     0
275
    -2
285
     1
 65
     0
276
    -2
286
     1
 66
     0
277
    -2
287
     1
 67
     0
278
    -2
288
     1
 68
     0
279
    -2
289
     1
 69
     0
  7
STANDARD
140
0.18
170
     5
 62
     0
 63
     7
283
     0
274
    -2
284
     1
 64
     0
275
    -2
285
     1
 65
     0
276
    -2
286
     1
 66
     0
277
    -2
287
     1
 67
     0
278
    -2
288
     1
 68
     0
279
    -2
289
     1
 69
     0
  0
DICTIONARYVAR
  5
1D2
102
{ACAD_REACTORS
330
1D1
102
}
330
1D1
100
DictionaryVariables
280
     0
  1
STANDARD
  0
DICTIONARYVAR
  5
D03
102
{ACAD_REACTORS
330
1D1
102
}
330
1D1
100
DictionaryVariables
280
     0
  1
1
  0
DICTIONARYVAR
  5
D04
102
{ACAD_REACTORS
330
1D1
102
}
330
1D1
100
DictionaryVariables
280
     0
  1

  0
DICTIONARY
  5
4E1F
330
5A
100
AcDbDictionary
280
     1
281
     1
  3
ACAD_XREC_ROUNDTRIP
360
4E20
  0
DICTIONARY
  5
4E21
330
5B
100
AcDbDictionary
280
     1
281
     1
  3
ACAD_XREC_ROUNDTRIP
360
4E22
  0
XRECORD
  5
4E20
102
{ACAD_REACTORS
330
4E1F
102
}
330
4E1F
100
AcDbXrecord
280
     1
102
SHADEPLOT
 70
     0
102
SHADEPLOTRESLEVEL
 70
     2
102
SHADEPLOTCUSTOMDPI
 70
   300
  0
XRECORD
  5
4E22
102
{ACAD_REACTORS
330
4E21
102
}
330
4E21
100
AcDbXrecord
280
     1
102
SHADEPLOT
 70
     0
102
SHADEPLOTRESLEVEL
 70
     2
102
SHADEPLOTCUSTOMDPI
 70
   300
  0
ENDSEC
  0
EOF
