  0
SECTION
  2
HEADER
  9
$ACADVER
  1
AC1015
  9
$ACADMAINTVER
 70
    20
  9
$DWGCODEPAGE
  3
ANSI_932
  9
$INSBASE
 10
922.019522
 20
-675.4306699999999
 30
0.0
  9
$EXTMIN
 10
-32.74664813873824
 20
-0.0052629759335332
 30
-0.0015258207003583
  9
$EXTMAX
 10
202.5179468462561
 20
265.591137413982
 30
0.0000000349246037
  9
$LIMMIN
 10
0.0
 20
0.0
  9
$LIMMAX
 10
420.0
 20
297.0
  9
$ORTHOMODE
 70
     1
  9
$REGENMODE
 70
     1
  9
$FILLMODE
 70
     1
  9
$QTEXTMODE
 70
     0
  9
$MIRRTEXT
 70
     1
  9
$LTSCALE
 40
1.0
  9
$ATTMODE
 70
     1
  9
$TEXTSIZE
 40
30.0
  9
$TRACEWID
 40
0.05
  9
$TEXTSTYLE
  7
SUNPOU
  9
$CLAYER
  8
0
  9
$CELTYPE
  6
BYLAYER
  9
$CECOLOR
 62
   256
  9
$CELTSCALE
 40
1.0
  9
$DISPSILH
 70
     0
  9
$DIMSCALE
 40
1.0
  9
$DIMASZ
 40
2.0
  9
$DIMEXO
 40
10.0
  9
$DIMDLI
 40
0.38
  9
$DIMRND
 40
0.0
  9
$DIMDLE
 40
0.0
  9
$DIMEXE
 40
0.0
  9
$DIMTP
 40
0.0
  9
$DIMTM
 40
0.0
  9
$DIMTXT
 40
5.0
  9
$DIMCEN
 40
0.0
  9
$DIMTSZ
 40
0.0
  9
$DIMTOL
 70
     0
  9
$DIMLIM
 70
     0
  9
$DIMTIH
 70
     0
  9
$DIMTOH
 70
     0
  9
$DIMSE1
 70
     0
  9
$DIMSE2
 70
     0
  9
$DIMTAD
 70
     1
  9
$DIMZIN
 70
     0
  9
$DIMBLK
  1
Dot
  9
$DIMASO
 70
     1
  9
$DIMSHO
 70
     1
  9
$DIMPOST
  1

  9
$DIMAPOST
  1

  9
$DIMALT
 70
     0
  9
$DIMALTD
 70
     2
  9
$DIMALTF
 40
25.4
  9
$DIMLFAC
 40
1.0
  9
$DIMTOFL
 70
     0
  9
$DIMTVP
 40
0.0
  9
$DIMTIX
 70
     0
  9
$DIMSOXD
 70
     0
  9
$DIMSAH
 70
     0
  9
$DIMBLK1
  1

  9
$DIMBLK2
  1

  9
$DIMSTYLE
  2
STANDARD
  9
$DIMCLRD
 70
    60
  9
$DIMCLRE
 70
    70
  9
$DIMCLRT
 70
    60
  9
$DIMTFAC
 40
0.064286
  9
$DIMGAP
 40
3.0
  9
$DIMJUST
 70
     0
  9
$DIMSD1
 70
     0
  9
$DIMSD2
 70
     0
  9
$DIMTOLJ
 70
     1
  9
$DIMTZIN
 70
     0
  9
$DIMALTZ
 70
     0
  9
$DIMALTTZ
 70
     0
  9
$DIMUPT
 70
     0
  9
$DIMDEC
 70
     0
  9
$DIMTDEC
 70
     0
  9
$DIMALTU
 70
     2
  9
$DIMALTTD
 70
     2
  9
$DIMTXSTY
  7
SUNPOU
  9
$DIMAUNIT
 70
     0
  9
$DIMADEC
 70
     0
  9
$DIMALTRND
 40
0.0
  9
$DIMAZIN
 70
     0
  9
$DIMDSEP
 70
    46
  9
$DIMATFIT
 70
     3
  9
$DIMFRAC
 70
     0
  9
$DIMLDRBLK
  1

  9
$DIMLUNIT
 70
     2
  9
$DIMLWD
 70
    -2
  9
$DIMLWE
 70
    -2
  9
$DIMTMOVE
 70
     0
  9
$LUNITS
 70
     2
  9
$LUPREC
 70
     5
  9
$SKETCHINC
 40
0.1
  9
$FILLETRAD
 40
0.0
  9
$AUNITS
 70
     0
  9
$AUPREC
 70
     0
  9
$MENU
  1
acad
  9
$ELEVATION
 40
0.0
  9
$PELEVATION
 40
0.0
  9
$THICKNESS
 40
0.0
  9
$LIMCHECK
 70
     0
  9
$CHAMFERA
 40
0.0
  9
$CHAMFERB
 40
0.0
  9
$CHAMFERC
 40
0.0
  9
$CHAMFERD
 40
0.0
  9
$SKPOLY
 70
     0
  9
$TDCREATE
 40
2450623.654673033
  9
$TDUCREATE
 40
2450623.279673032
  9
$TDUPDATE
 40
2453867.744394977
  9
$TDUUPDATE
 40
2453867.369394977
  9
$TDINDWG
 40
0.5790788542
  9
$TDUSRTIMER
 40
0.5790786806
  9
$USRTIMER
 70
     1
  9
$ANGBASE
 50
0.0
  9
$ANGDIR
 70
     0
  9
$PDMODE
 70
     0
  9
$PDSIZE
 40
0.0
  9
$PLINEWID
 40
0.0
  9
$SPLFRAME
 70
     0
  9
$SPLINETYPE
 70
     6
  9
$SPLINESEGS
 70
     8
  9
$HANDSEED
  5
3C8E
  9
$SURFTAB1
 70
     6
  9
$SURFTAB2
 70
     6
  9
$SURFTYPE
 70
     6
  9
$SURFU
 70
     6
  9
$SURFV
 70
     6
  9
$UCSBASE
  2

  9
$UCSNAME
  2

  9
$UCSORG
 10
0.0
 20
0.0
 30
0.0
  9
$UCSXDIR
 10
1.0
 20
0.0
 30
0.0
  9
$UCSYDIR
 10
0.0
 20
1.0
 30
0.0
  9
$UCSORTHOREF
  2

  9
$UCSORTHOVIEW
 70
     0
  9
$UCSORGTOP
 10
0.0
 20
0.0
 30
0.0
  9
$UCSORGBOTTOM
 10
0.0
 20
0.0
 30
0.0
  9
$UCSORGLEFT
 10
0.0
 20
0.0
 30
0.0
  9
$UCSORGRIGHT
 10
0.0
 20
0.0
 30
0.0
  9
$UCSORGFRONT
 10
0.0
 20
0.0
 30
0.0
  9
$UCSORGBACK
 10
0.0
 20
0.0
 30
0.0
  9
$PUCSBASE
  2

  9
$PUCSNAME
  2

  9
$PUCSORG
 10
0.0
 20
0.0
 30
0.0
  9
$PUCSXDIR
 10
1.0
 20
0.0
 30
0.0
  9
$PUCSYDIR
 10
0.0
 20
1.0
 30
0.0
  9
$PUCSORTHOREF
  2

  9
$PUCSORTHOVIEW
 70
     0
  9
$PUCSORGTOP
 10
0.0
 20
0.0
 30
0.0
  9
$PUCSORGBOTTOM
 10
0.0
 20
0.0
 30
0.0
  9
$PUCSORGLEFT
 10
0.0
 20
0.0
 30
0.0
  9
$PUCSORGRIGHT
 10
0.0
 20
0.0
 30
0.0
  9
$PUCSORGFRONT
 10
0.0
 20
0.0
 30
0.0
  9
$PUCSORGBACK
 10
0.0
 20
0.0
 30
0.0
  9
$USERI1
 70
     0
  9
$USERI2
 70
     0
  9
$USERI3
 70
     0
  9
$USERI4
 70
     0
  9
$USERI5
 70
     0
  9
$USERR1
 40
0.0
  9
$USERR2
 40
0.0
  9
$USERR3
 40
0.0
  9
$USERR4
 40
0.0
  9
$USERR5
 40
0.0
  9
$WORLDVIEW
 70
     1
  9
$SHADEDGE
 70
     3
  9
$SHADEDIF
 70
    70
  9
$TILEMODE
 70
     1
  9
$MAXACTVP
 70
    16
  9
$PINSBASE
 10
0.0
 20
0.0
 30
0.0
  9
$PLIMCHECK
 70
     0
  9
$PEXTMIN
 10
1.000000000000000E+20
 20
1.000000000000000E+20
 30
1.000000000000000E+20
  9
$PEXTMAX
 10
-1.000000000000000E+20
 20
-1.000000000000000E+20
 30
-1.000000000000000E+20
  9
$PLIMMIN
 10
0.0
 20
0.0
  9
$PLIMMAX
 10
12.0
 20
9.0
  9
$UNITMODE
 70
     0
  9
$VISRETAIN
 70
     0
  9
$PLINEGEN
 70
     0
  9
$PSLTSCALE
 70
     1
  9
$TREEDEPTH
 70
  3020
  9
$CMLSTYLE
  2
STANDARD
  9
$CMLJUST
 70
     0
  9
$CMLSCALE
 40
1.0
  9
$PROXYGRAPHICS
 70
     1
  9
$MEASUREMENT
 70
     0
  9
$CELWEIGHT
370
    -1
  9
$ENDCAPS
280
     0
  9
$JOINSTYLE
280
     0
  9
$LWDISPLAY
290
     0
  9
$INSUNITS
 70
     0
  9
$HYPERLINKBASE
  1

  9
$STYLESHEET
  1

  9
$XEDIT
290
     1
  9
$CEPSNTYPE
380
     0
  9
$PSTYLEMODE
290
     1
  9
$FINGERPRINTGUID
  2
{FB88A696-E29C-4009-92AF-A3599A8169D5}
  9
$VERSIONGUID
  2
{0FF275AD-2FF9-4195-8031-2604DE471FF6}
  9
$EXTNAMES
290
     1
  9
$PSVPSCALE
 40
0.0
  9
$OLESTARTUP
290
     0
  0
ENDSEC
  0
SECTION
  2
CLASSES
  0
CLASS
  1
DICTIONARYVAR
  2
AcDbDictionaryVar
  3
ObjectDBX Classes
 90
        0
280
     0
281
     0
  0
CLASS
  1
ACDBDICTIONARYWDFLT
  2
AcDbDictionaryWithDefault
  3
ObjectDBX Classes
 90
        0
280
     0
281
     0
  0
CLASS
  1
ACDBPLACEHOLDER
  2
AcDbPlaceHolder
  3
ObjectDBX Classes
 90
        0
280
     0
281
     0
  0
CLASS
  1
LAYOUT
  2
AcDbLayout
  3
ObjectDBX Classes
 90
        0
280
     0
281
     0
  0
CLASS
  1
TABLESTYLE
  2
AcDbTableStyle
  3
ObjectDBX Classes
 90
     2047
280
     0
281
     0
  0
CLASS
  1
SORTENTSTABLE
  2
AcDbSortentsTable
  3
ObjectDBX Classes
 90
        0
280
     0
281
     0
  0
ENDSEC
  0
SECTION
  2
TABLES
  0
TABLE
  2
VPORT
  5
12
330
0
100
AcDbSymbolTable
 70
    20
  0
VPORT
  5
3C88
330
12
100
AcDbSymbolTableRecord
100
AcDbViewportTableRecord
  2
*Active
 70
     0
 10
0.0
 20
0.0
 11
1.0
 21
1.0
 12
84.88564935375894
 22
132.7929372190242
 13
0.0
 23
0.0
 14
1.0
 24
1.0
 15
0.0
 25
0.0
 16
0.0
 26
0.0
 36
1.0
 17
0.0
 27
0.0
 37
0.0
 40
267.6368336835641
 41
1.565384615384615
 42
50.0
 43
0.0
 44
0.0
 50
0.0
 51
0.0
 71
     0
 72
 20000
 73
     1
 74
     1
 75
     0
 76
     0
 77
     0
 78
     0
281
     0
 65
     1
110
0.0
120
0.0
130
0.0
111
1.0
121
0.0
131
0.0
112
0.0
122
1.0
132
0.0
 79
     0
146
0.0
  0
ENDTAB
  0
TABLE
  2
LTYPE
  5
D
330
0
100
AcDbSymbolTable
 70
     2
  0
LTYPE
  5
E
330
D
100
AcDbSymbolTableRecord
100
AcDbLinetypeTableRecord
  2
BYBLOCK
 70
     0
  3

 72
    65
 73
     0
 40
0.0
  0
LTYPE
  5
F
330
D
100
AcDbSymbolTableRecord
100
AcDbLinetypeTableRecord
  2
BYLAYER
 70
     0
  3

 72
    65
 73
     0
 40
0.0
  0
LTYPE
  5
5
330
D
100
AcDbSymbolTableRecord
100
AcDbLinetypeTableRecord
  2
CONTINUOUS
 70
     0
  3
Solid line
 72
    65
 73
     0
 40
0.0
  0
ENDTAB
  0
TABLE
  2
LAYER
  5
A
102
{ACAD_XDICTIONARY
360
1B4
102
}
330
0
100
AcDbSymbolTable
 70
     6
  0
LAYER
  5
4
330
A
100
AcDbSymbolTableRecord
100
AcDbLayerTableRecord
  2
0
 70
     0
 62
     7
  6
CONTINUOUS
370
    -3
390
57
  0
LAYER
  5
25
330
A
100
AcDbSymbolTableRecord
100
AcDbLayerTableRecord
  2
KIJUN
 70
     0
 62
     7
  6
CONTINUOUS
370
    -3
390
57
  0
LAYER
  5
22
330
A
100
AcDbSymbolTableRecord
100
AcDbLayerTableRecord
  2
HOJO
 70
     0
 62
     3
  6
CONTINUOUS
370
    -3
390
57
  0
LAYER
  5
1B
330
A
100
AcDbSymbolTableRecord
100
AcDbLayerTableRecord
  2
WAKU
 70
     0
 62
     1
  6
CONTINUOUS
370
    -3
390
57
  0
LAYER
  5
31
330
A
100
AcDbSymbolTableRecord
100
AcDbLayerTableRecord
  2
DEFPOINTS
 70
     0
 62
     7
  6
CONTINUOUS
290
     0
370
    -3
390
57
  0
LAYER
  5
28
330
A
100
AcDbSymbolTableRecord
100
AcDbLayerTableRecord
  2
SUNPOU
 70
     0
 62
    70
  6
CONTINUOUS
370
    -3
390
57
  0
ENDTAB
  0
TABLE
  2
STYLE
  5
B
330
0
100
AcDbSymbolTable
 70
     3
  0
STYLE
  5
C
330
B
100
AcDbSymbolTableRecord
100
AcDbTextStyleTableRecord
  2
STANDARD
 70
     0
 40
0.0
 41
1.0
 50
0.0
 71
     0
 42
0.2
  3
txt
  4

  0
STYLE
  5
1C
330
B
100
AcDbSymbolTableRecord
100
AcDbTextStyleTableRecord
  2
SUNPOU
 70
     0
 40
0.0
 41
1.0
 50
0.0
 71
     0
 42
30.0
  3
txt
  4
bigfont
  0
STYLE
  5
14A
330
B
100
AcDbSymbolTableRecord
100
AcDbTextStyleTableRecord
  2
LIFE
 70
     0
 40
0.0
 41
0.7
 50
0.0
 71
     0
 42
10.0
  3
romans
  4
extfont
  0
ENDTAB
  0
TABLE
  2
VIEW
  5
10
330
0
100
AcDbSymbolTable
 70
     0
  0
ENDTAB
  0
TABLE
  2
UCS
  5
11
330
0
100
AcDbSymbolTable
 70
     0
  0
ENDTAB
  0
TABLE
  2
APPID
  5
14
330
0
100
AcDbSymbolTable
 70
    10
  0
APPID
  5
15
330
14
100
AcDbSymbolTableRecord
100
AcDbRegAppTableRecord
  2
ACAD
 70
     0
  0
APPID
  5
1D3
330
14
100
AcDbSymbolTableRecord
100
AcDbRegAppTableRecord
  2
ACAD_DSTYLE_DIMTEXT_FILL
 70
     0
  0
APPID
  5
1D4
330
14
100
AcDbSymbolTableRecord
100
AcDbRegAppTableRecord
  2
ACAD_DSTYLE_DIMEXT_LENGTH
 70
     0
  0
APPID
  5
1D5
330
14
100
AcDbSymbolTableRecord
100
AcDbRegAppTableRecord
  2
ACAD_DSTYLE_DIMEXT_ENABLED
 70
     0
  0
APPID
  5
1D6
330
14
100
AcDbSymbolTableRecord
100
AcDbRegAppTableRecord
  2
ACAD_DSTYLE_DIM_LINETYPE
 70
     0
  0
APPID
  5
1D7
330
14
100
AcDbSymbolTableRecord
100
AcDbRegAppTableRecord
  2
ACAD_DSTYLE_DIM_EXT1_LINETYPE
 70
     0
  0
APPID
  5
1D8
330
14
100
AcDbSymbolTableRecord
100
AcDbRegAppTableRecord
  2
ACAD_DSTYLE_DIM_EXT2_LINETYPE
 70
     0
  0
APPID
  5
294
330
14
100
AcDbSymbolTableRecord
100
AcDbRegAppTableRecord
  2
ACAD_DSTYLE_DIMJOGGED_JOGANGLE_SYMBOL
 70
     0
  0
APPID
  5
478
330
14
100
AcDbSymbolTableRecord
100
AcDbRegAppTableRecord
  2
ACAD_DSTYLE_DIMARC_LENGTH_SYMBOL
 70
     0
  0
APPID
  5
F55
330
14
100
AcDbSymbolTableRecord
100
AcDbRegAppTableRecord
  2
ACAD_EXEMPT_FROM_CAD_STANDARDS
 70
     0
  0
ENDTAB
  0
TABLE
  2
DIMSTYLE
  5
16
330
0
100
AcDbSymbolTable
 70
     3
100
AcDbDimStyleTable
 71
     1
340
1E
  0
DIMSTYLE
105
1E
102
{ACAD_REACTORS
330
3C07
330
3C6B
102
}
330
16
100
AcDbSymbolTableRecord
100
AcDbDimStyleTableRecord
  2
STANDARD
 70
     0
340
C
  0
DIMSTYLE
105
1005
330
16
100
AcDbSymbolTableRecord
100
AcDbDimStyleTableRecord
  2
1-100
 70
     0
 40
100.0
 41
0.7
 42
2.5
 43
5.0
 44
1.0
 77
     1
147
1.0
172
     1
176
     3
177
     3
271
     2
272
     2
279
     2
340
C
342
109
  0
ENDTAB
  0
TABLE
  2
BLOCK_RECORD
  5
1
330
0
100
AcDbSymbolTable
 70
    35
  0
BLOCK_RECORD
  5
2
102
{ACAD_XDICTIONARY
360
D13
102
}
330
1
100
AcDbSymbolTableRecord
100
AcDbBlockTableRecord
  2
*MODEL_SPACE
340
5A
  0
BLOCK_RECORD
  5
7
330
1
100
AcDbSymbolTableRecord
100
AcDbBlockTableRecord
  2
*PAPER_SPACE
340
5B
  0
BLOCK_RECORD
  5
109
330
1
100
AcDbSymbolTableRecord
100
AcDbBlockTableRecord
  2
_Dot
340
0
102
{BLKREFS
331
2D85
331
2D86
331
2D97
331
2D98
331
2EBA
331
2EBB
331
2EC7
331
2EC8
331
2FA0
331
2FA1
331
2FB2
331
2FB3
331
308A
331
308B
331
309C
331
309D
331
31E3
331
31E4
331
31EC
331
31ED
331
334D
331
334E
331
3356
331
3357
331
34D1
331
34D2
331
34DA
331
34DB
331
35B2
331
35B3
331
35C4
331
35C5
331
36D6
331
36D7
331
36E8
331
36E9
331
387C
331
387D
331
3885
331
3886
331
3961
331
3962
331
396E
331
396F
331
3A04
331
3A05
331
3A1F
331
3A20
331
3C5C
331
3C5D
331
3C65
331
3C66
331
3C7B
331
3C7C
102
}
  0
BLOCK_RECORD
  5
3579
330
1
100
AcDbSymbolTableRecord
100
AcDbBlockTableRecord
  2
*D15
340
0
  0
BLOCK_RECORD
  5
3587
330
1
100
AcDbSymbolTableRecord
100
AcDbBlockTableRecord
  2
*D16
340
0
  0
BLOCK_RECORD
  5
3629
330
1
100
AcDbSymbolTableRecord
100
AcDbBlockTableRecord
  2
*D18
340
0
  0
BLOCK_RECORD
  5
3636
330
1
100
AcDbSymbolTableRecord
100
AcDbBlockTableRecord
  2
*D19
340
0
  0
BLOCK_RECORD
  5
377A
330
1
100
AcDbSymbolTableRecord
100
AcDbBlockTableRecord
  2
*D22
340
0
  0
BLOCK_RECORD
  5
3787
330
1
100
AcDbSymbolTableRecord
100
AcDbBlockTableRecord
  2
*D23
340
0
  0
BLOCK_RECORD
  5
395D
330
1
100
AcDbSymbolTableRecord
100
AcDbBlockTableRecord
  2
*D25
340
0
  0
BLOCK_RECORD
  5
396A
330
1
100
AcDbSymbolTableRecord
100
AcDbBlockTableRecord
  2
*D26
340
0
  0
BLOCK_RECORD
  5
3995
330
1
100
AcDbSymbolTableRecord
100
AcDbBlockTableRecord
  2
151
340
0
310
2800000020000000200000000100080000000000000400000000000000000000000000000000000000000000000080000080000000808000800000008000800080800000C0C0C000C0DCC000F0CAA6000020400000206000002080000020A0000020C0000020E00000400000004020000040400000406000004080000040A0
310
000040C0000040E00000600000006020000060400000606000006080000060A0000060C0000060E00000800000008020000080400000806000008080000080A0000080C0000080E00000A0000000A0200000A0400000A0600000A0800000A0A00000A0C00000A0E00000C0000000C0200000C0400000C0600000C0800000C0
310
A00000C0C00000C0E00000E0000000E0200000E0400000E0600000E0800000E0A00000E0C00000E0E00040000000400020004000400040006000400080004000A0004000C0004000E00040200000402020004020400040206000402080004020A0004020C0004020E000404000004040200040404000404060004040800040
310
40A0004040C0004040E00040600000406020004060400040606000406080004060A0004060C0004060E00040800000408020004080400040806000408080004080A0004080C0004080E00040A0000040A0200040A0400040A0600040A0800040A0A00040A0C00040A0E00040C0000040C0200040C0400040C0600040C08000
310
40C0A00040C0C00040C0E00040E0000040E0200040E0400040E0600040E0800040E0A00040E0C00040E0E00080000000800020008000400080006000800080008000A0008000C0008000E00080200000802020008020400080206000802080008020A0008020C0008020E00080400000804020008040400080406000804080
310
008040A0008040C0008040E00080600000806020008060400080606000806080008060A0008060C0008060E00080800000808020008080400080806000808080008080A0008080C0008080E00080A0000080A0200080A0400080A0600080A0800080A0A00080A0C00080A0E00080C0000080C0200080C0400080C0600080C0
310
800080C0A00080C0C00080C0E00080E0000080E0200080E0400080E0600080E0800080E0A00080E0C00080E0E000C0000000C0002000C0004000C0006000C0008000C000A000C000C000C000E000C0200000C0202000C0204000C0206000C0208000C020A000C020C000C020E000C0400000C0402000C0404000C0406000C0
310
408000C040A000C040C000C040E000C0600000C0602000C0604000C0606000C0608000C060A000C060C000C060E000C0800000C0802000C0804000C0806000C0808000C080A000C080C000C080E000C0A00000C0A02000C0A04000C0A06000C0A08000C0A0A000C0A0C000C0A0E000C0C00000C0C02000C0C04000C0C06000
310
C0C08000C0C0A000F0FBFF00A4A0A000808080000000FF0000FF000000FFFF00FF000000FF00FF00FFFF0000FFFFFF0000000000000000000000000000000000000000000000000000000000000000000000000000000000000000000000000000000000000000000000000000000000000000000000000000000000000000
310
00000000000000000000000000000000000000000000000000000000000000000000000000000000000000000000000000000000000000000000000000000000000000000000000000000000000000000000000000000000000000000000000000000000000000000000000000000000000000000000000000000000000000
310
FFFFFFFF000000000000000000000000000000000000000000000000000000FF00000000FF0000000000000000000000000000000000000000000000000000FF00FF0000FF00000000000000000000000000000000000000000000000000FF0000FFFFFF00FF0000000000000000000000000000000000000000000000FFFF
310
FF00FFFF00FFFFFF000000000000000000000000000000000000000000FFFFFFFF00000000FFFFFFFF00000000000000000000000000000000000000FFFFFF00FFFFFFFFFFFF00FFFFFF0000000000000000000000000000000000FF00FFFF00FFFFFFFFFFFF00FFFF00FF000000000000000000000000000000FF00FFFF00
310
FF00FFFFFFFF00FF00FFFF00FF00000000000000000000000000FF00FF00FF00FF00FFFFFF00FFFF00FF00FF00FF0000000000000000000000FF00FF00FF00FF00FF00FFFF00FF00FF00FF00FF00FF000000000000000000FF00FF0000FF00FF00FF00FFFF00FF00FF00FF0000FF00FF00000000000000FF00FF0000FF0000
310
FF00FF00FFFF00FF00FF0000FF0000FF00FF0000000000FF0000FF00FF0000FF0000FF00FFFF0000FF00FF0000FF00FF0000FF000000FFFF00FF0000FF0000FF00FF00FF0000FF00FF00FF0000FF0000FF00FFFF00000000FFFF00FF0000FF0000FF00FF0000FF00FF0000FF0000FF00FFFF0000000000000000FFFFFF00FF
310
0000FF00FF0000FF00FF0000FF0000FFFF00000000000000000000FF0000FFFF0000FF00FF0000FF0000FF00FFFFFF00FF00000000000000000000000000FF00FFFFFF00FF0000FF0000FFFF00FF00000000000000000000000000000000000000FF00FFFF0000FFFFFFFF0000000000000000000000000000000000000000
310
0000000000FFFFFFFF00000000000000000000000000000000000000000000000000000000000000000000000000000000000000000000000000000000000000000000000000000000000000000000000000000000000000000000000000000000000000000000000000000000000000000000000000000000000000000000
310
0000000000000000000000000000000000000000000000000000000000000000000000000000000000000000000000000000000000000000
102
{BLKREFS
331
39A9
102
}
  0
BLOCK_RECORD
  5
39C0
330
1
100
AcDbSymbolTableRecord
100
AcDbBlockTableRecord
  2
*D29
340
0
  0
BLOCK_RECORD
  5
39CD
330
1
100
AcDbSymbolTableRecord
100
AcDbBlockTableRecord
  2
*D30
340
0
  0
BLOCK_RECORD
  5
3C08
330
1
100
AcDbSymbolTableRecord
100
AcDbBlockTableRecord
  2
*D32
340
0
  0
BLOCK_RECORD
  5
3C15
330
1
100
AcDbSymbolTableRecord
100
AcDbBlockTableRecord
  2
*D33
340
0
  0
BLOCK_RECORD
  5
3C6C
330
1
100
AcDbSymbolTableRecord
100
AcDbBlockTableRecord
  2
*D34
340
0
  0
ENDTAB
  0
ENDSEC
  0
SECTION
  2
BLOCKS
  0
BLOCK
  5
3
330
2
100
AcDbEntity
  8
0
100
AcDbBlockBegin
  2
*MODEL_SPACE
 70
     0
 10
0.0
 20
0.0
 30
0.0
  3
*MODEL_SPACE
  1

  0
ENDBLK
  5
6
330
2
100
AcDbEntity
  8
0
100
AcDbBlockEnd
  0
BLOCK
  5
8
330
7
100
AcDbEntity
 67
     1
  8
0
100
AcDbBlockBegin
  2
*PAPER_SPACE
 70
     0
 10
0.0
 20
0.0
 30
0.0
  3
*PAPER_SPACE
  1

  0
ENDBLK
  5
9
330
7
100
AcDbEntity
 67
     1
  8
0
100
AcDbBlockEnd
  0
BLOCK
  5
10C
330
109
100
AcDbEntity
  8
0
100
AcDbBlockBegin
  2
_Dot
 70
     0
 10
0.0
 20
0.0
 30
0.0
  3
_Dot
  1

  0
LWPOLYLINE
  5
10A
330
109
100
AcDbEntity
  8
0
  6
ByBlock
 62
     0
100
AcDbPolyline
 90
        2
 70
     1
 43
0.5
 10
-0.25
 20
0.0
 42
1.0
 10
0.25
 20
0.0
 42
1.0
  0
LINE
  5
10B
330
109
100
AcDbEntity
  8
0
  6
ByBlock
 62
     0
370
    -2
100
AcDbLine
 10
-0.5
 20
0.0
 30
0.0
 11
-1.0
 21
0.0
 31
0.0
  0
ENDBLK
  5
10D
330
109
100
AcDbEntity
  8
0
100
AcDbBlockEnd
  0
BLOCK
  5
3583
330
3579
100
AcDbEntity
  8
0
100
AcDbBlockBegin
  2
*D15
 70
     1
 10
0.0
 20
0.0
 30
0.0
  3
*D15
  1

  0
LINE
  5
35AF
330
3579
100
AcDbEntity
  8
SUNPOU
 62
    70
370
    -2
100
AcDbLine
 10
-0.6389176541695314
 20
126.8800304967673
 30
0.0
 11
-0.6389176541695305
 21
141.4469254406451
 31
0.0
  0
LINE
  5
35B0
330
3579
100
AcDbEntity
  8
SUNPOU
 62
    70
370
    -2
100
AcDbLine
 10
151.3610823458304
 20
126.5763703404513
 30
0.0
 11
151.3610823458304
 21
141.4469254406451
 31
0.0
  0
LINE
  5
35B1
330
3579
100
AcDbEntity
  8
SUNPOU
 62
    60
370
    -2
100
AcDbLine
 10
1.361082345830469
 20
141.4469254406451
 30
0.0
 11
149.3610823458304
 21
141.4469254406451
 31
0.0
  0
INSERT
  5
35B2
330
3579
100
AcDbEntity
  8
SUNPOU
 62
    60
370
    -2
100
AcDbBlockReference
  2
_Dot
 10
-0.6389176541695305
 20
141.4469254406451
 30
0.0
 41
2.0
 42
2.0
 43
2.0
 50
180.0
  0
INSERT
  5
35B3
330
3579
100
AcDbEntity
  8
SUNPOU
 62
    60
370
    -2
100
AcDbBlockReference
  2
_Dot
 10
151.3610823458304
 20
141.4469254406451
 30
0.0
 41
2.0
 42
2.0
 43
2.0
  0
MTEXT
  5
35B4
330
3579
100
AcDbEntity
  8
SUNPOU
 62
    60
100
AcDbMText
 10
75.36108234583045
 20
146.9469254406451
 30
0.0
 40
5.0
 41
0.0
 71
     5
 72
     1
  1
\A1;152
  7
SUNPOU
 73
     1
 44
1.0
1001
ACAD
1000
MTEXTBEGIN
1070
    73
1070
     1
1070
    44
1040
1.0
1070
    74
1070
     0
1000
MTEXTEND
  0
POINT
  5
35B5
330
3579
100
AcDbEntity
  8
DEFPOINTS
 62
     0
100
AcDbPoint
 10
-0.6389176541695321
 20
116.8800304967673
 30
0.0
  0
POINT
  5
35B6
330
3579
100
AcDbEntity
  8
DEFPOINTS
 62
     0
100
AcDbPoint
 10
151.3610823458304
 20
116.5763703404514
 30
0.0
  0
POINT
  5
35B7
330
3579
100
AcDbEntity
  8
DEFPOINTS
 62
     0
100
AcDbPoint
 10
151.3610823458304
 20
141.4469254406451
 30
0.0
  0
ENDBLK
  5
3584
330
3579
100
AcDbEntity
  8
0
100
AcDbBlockEnd
  0
BLOCK
  5
3591
330
3587
100
AcDbEntity
  8
0
100
AcDbBlockBegin
  2
*D16
 70
     1
 10
0.0
 20
0.0
 30
0.0
  3
*D16
  1

  0
LINE
  5
35C1
330
3587
100
AcDbEntity
  8
SUNPOU
 62
    70
370
    -2
100
AcDbLine
 10
-10.63891765416953
 20
116.8800304967673
 30
0.0
 11
-28.92678899111841
 21
116.8800304967673
 31
0.0
  0
LINE
  5
35C2
330
3587
100
AcDbEntity
  8
SUNPOU
 62
    70
370
    -2
100
AcDbLine
 10
-9.113164155751292
 20
35.88003049676734
 30
0.0
 11
-28.92678899111843
 21
35.88003049676735
 31
0.0
  0
LINE
  5
35C3
330
3587
100
AcDbEntity
  8
SUNPOU
 62
    60
370
    -2
100
AcDbLine
 10
-28.92678899111841
 20
114.8800304967673
 30
0.0
 11
-28.92678899111843
 21
37.88003049676735
 31
0.0
  0
INSERT
  5
35C4
330
3587
100
AcDbEntity
  8
SUNPOU
 62
    60
370
    -2
100
AcDbBlockReference
  2
_Dot
 10
-28.92678899111841
 20
116.8800304967673
 30
0.0
 41
2.0
 42
2.0
 43
2.0
 50
90.0
  0
INSERT
  5
35C5
330
3587
100
AcDbEntity
  8
SUNPOU
 62
    60
370
    -2
100
AcDbBlockReference
  2
_Dot
 10
-28.92678899111843
 20
35.88003049676735
 30
0.0
 41
2.0
 42
2.0
 43
2.0
 50
270.0
  0
MTEXT
  5
35C6
330
3587
100
AcDbEntity
  8
SUNPOU
 62
    60
100
AcDbMText
 10
-34.42678899111843
 20
76.38003049676735
 30
0.0
 40
5.0
 41
0.0
 71
     5
 72
     1
  1
\A1;81
  7
SUNPOU
 11
0.0000000000000001
 21
1.0
 31
0.0
 73
     1
 44
1.0
1001
ACAD
1000
MTEXTBEGIN
1070
    73
1070
     1
1070
    44
1040
1.0
1070
    74
1070
     0
1000
MTEXTEND
  0
POINT
  5
35C7
330
3587
100
AcDbEntity
  8
DEFPOINTS
 62
     0
100
AcDbPoint
 10
-0.6389176541695321
 20
116.8800304967673
 30
0.0
  0
POINT
  5
35C8
330
3587
100
AcDbEntity
  8
DEFPOINTS
 62
     0
100
AcDbPoint
 10
0.8868358442487078
 20
35.88003049676734
 30
0.0
  0
POINT
  5
35C9
330
3587
100
AcDbEntity
  8
DEFPOINTS
 62
     0
100
AcDbPoint
 10
-28.92678899111843
 20
35.88003049676735
 30
0.0
  0
ENDBLK
  5
3592
330
3587
100
AcDbEntity
  8
0
100
AcDbBlockEnd
  0
BLOCK
  5
3633
330
3629
100
AcDbEntity
  8
0
100
AcDbBlockBegin
  2
*D18
 70
     1
 10
0.0
 20
0.0
 30
0.0
  3
*D18
  1

  0
LINE
  5
36D3
330
3629
100
AcDbEntity
  8
SUNPOU
 62
    70
370
    -2
100
AcDbLine
 10
-74.66909355334668
 20
155.8784465113387
 30
0.0
 11
-74.66909355334668
 21
170.5486106057478
 31
0.0
  0
LINE
  5
36D4
330
3629
100
AcDbEntity
  8
SUNPOU
 62
    70
370
    -2
100
AcDbLine
 10
85.3309064466533
 20
152.6973164560472
 30
0.0
 11
85.3309064466533
 21
170.5486106057478
 31
0.0
  0
LINE
  5
36D5
330
3629
100
AcDbEntity
  8
SUNPOU
 62
    60
370
    -2
100
AcDbLine
 10
-72.66909355334668
 20
170.5486106057478
 30
0.0
 11
83.33090644665331
 21
170.5486106057478
 31
0.0
  0
INSERT
  5
36D6
330
3629
100
AcDbEntity
  8
SUNPOU
 62
    60
370
    -2
100
AcDbBlockReference
  2
_Dot
 10
-74.66909355334668
 20
170.5486106057478
 30
0.0
 41
2.0
 42
2.0
 43
2.0
 50
180.0
  0
INSERT
  5
36D7
330
3629
100
AcDbEntity
  8
SUNPOU
 62
    60
370
    -2
100
AcDbBlockReference
  2
_Dot
 10
85.3309064466533
 20
170.5486106057478
 30
0.0
 41
2.0
 42
2.0
 43
2.0
  0
MTEXT
  5
36D8
330
3629
100
AcDbEntity
  8
SUNPOU
 62
    60
100
AcDbMText
 10
5.330906446653308
 20
176.0486106057478
 30
0.0
 40
5.0
 41
0.0
 71
     5
 72
     1
  1
\A1;160
  7
SUNPOU
 73
     1
 44
1.0
1001
ACAD
1000
MTEXTBEGIN
1070
    73
1070
     1
1070
    44
1040
1.0
1070
    74
1070
     0
1000
MTEXTEND
  0
POINT
  5
36D9
330
3629
100
AcDbEntity
  8
DEFPOINTS
 62
     0
100
AcDbPoint
 10
-74.66909355334668
 20
145.8784465113387
 30
0.0
  0
POINT
  5
36DA
330
3629
100
AcDbEntity
  8
DEFPOINTS
 62
     0
100
AcDbPoint
 10
85.3309064466533
 20
142.6973164560472
 30
0.0
  0
POINT
  5
36DB
330
3629
100
AcDbEntity
  8
DEFPOINTS
 62
     0
100
AcDbPoint
 10
85.3309064466533
 20
170.5486106057478
 30
0.0
  0
ENDBLK
  5
3634
330
3629
100
AcDbEntity
  8
0
100
AcDbBlockEnd
  0
BLOCK
  5
3640
330
3636
100
AcDbEntity
  8
0
100
AcDbBlockBegin
  2
*D19
 70
     1
 10
0.0
 20
0.0
 30
0.0
  3
*D19
  1

  0
LINE
  5
36E5
330
3636
100
AcDbEntity
  8
SUNPOU
 62
    70
370
    -2
100
AcDbLine
 10
-84.66909355334669
 20
145.8784465113387
 30
0.0
 11
-102.6422475936551
 21
145.8784465113387
 31
0.0
  0
LINE
  5
36E6
330
3636
100
AcDbEntity
  8
SUNPOU
 62
    70
370
    -2
100
AcDbLine
 10
-83.23195019797594
 20
45.87844651133827
 30
0.0
 11
-102.6422475936551
 21
45.87844651133827
 31
0.0
  0
LINE
  5
36E7
330
3636
100
AcDbEntity
  8
SUNPOU
 62
    60
370
    -2
100
AcDbLine
 10
-102.6422475936551
 20
143.8784465113387
 30
0.0
 11
-102.6422475936551
 21
47.87844651133827
 31
0.0
  0
INSERT
  5
36E8
330
3636
100
AcDbEntity
  8
SUNPOU
 62
    60
370
    -2
100
AcDbBlockReference
  2
_Dot
 10
-102.6422475936551
 20
145.8784465113387
 30
0.0
 41
2.0
 42
2.0
 43
2.0
 50
90.0
  0
INSERT
  5
36E9
330
3636
100
AcDbEntity
  8
SUNPOU
 62
    60
370
    -2
100
AcDbBlockReference
  2
_Dot
 10
-102.6422475936551
 20
45.87844651133827
 30
0.0
 41
2.0
 42
2.0
 43
2.0
 50
270.0
  0
MTEXT
  5
36EA
330
3636
100
AcDbEntity
  8
SUNPOU
 62
    60
100
AcDbMText
 10
-108.1422475936552
 20
95.87844651133847
 30
0.0
 40
5.0
 41
0.0
 71
     5
 72
     1
  1
\A1;100
  7
SUNPOU
 11
0.0000000000000001
 21
1.0
 31
0.0
 73
     1
 44
1.0
1001
ACAD
1000
MTEXTBEGIN
1070
    73
1070
     1
1070
    44
1040
1.0
1070
    74
1070
     0
1000
MTEXTEND
  0
POINT
  5
36EB
330
3636
100
AcDbEntity
  8
DEFPOINTS
 62
     0
100
AcDbPoint
 10
-74.66909355334668
 20
145.8784465113387
 30
0.0
  0
POINT
  5
36EC
330
3636
100
AcDbEntity
  8
DEFPOINTS
 62
     0
100
AcDbPoint
 10
-73.23195019797594
 20
45.87844651133827
 30
0.0
  0
POINT
  5
36ED
330
3636
100
AcDbEntity
  8
DEFPOINTS
 62
     0
100
AcDbPoint
 10
-102.6422475936551
 20
45.87844651133827
 30
0.0
  0
ENDBLK
  5
3641
330
3636
100
AcDbEntity
  8
0
100
AcDbBlockEnd
  0
BLOCK
  5
3784
330
377A
100
AcDbEntity
  8
0
100
AcDbBlockBegin
  2
*D22
 70
     1
 10
0.0
 20
0.0
 30
0.0
  3
*D22
  1

  0
LINE
  5
3879
330
377A
100
AcDbEntity
  8
SUNPOU
 62
    70
370
    -2
100
AcDbLine
 10
-41.04326834304809
 20
112.0793319913222
 30
0.0
 11
-41.04326834304809
 21
123.1707719400042
 31
0.0
  0
LINE
  5
387A
330
377A
100
AcDbEntity
  8
SUNPOU
 62
    70
370
    -2
100
AcDbLine
 10
68.9567316569519
 20
113.1737222109773
 30
0.0
 11
68.9567316569519
 21
123.1707719400042
 31
0.0
  0
LINE
  5
387B
330
377A
100
AcDbEntity
  8
SUNPOU
 62
    60
370
    -2
100
AcDbLine
 10
-39.04326834304809
 20
123.1707719400042
 30
0.0
 11
66.9567316569519
 21
123.1707719400042
 31
0.0
  0
INSERT
  5
387C
330
377A
100
AcDbEntity
  8
SUNPOU
 62
    60
370
    -2
100
AcDbBlockReference
  2
_Dot
 10
-41.04326834304809
 20
123.1707719400042
 30
0.0
 41
2.0
 42
2.0
 43
2.0
 50
180.0
  0
INSERT
  5
387D
330
377A
100
AcDbEntity
  8
SUNPOU
 62
    60
370
    -2
100
AcDbBlockReference
  2
_Dot
 10
68.9567316569519
 20
123.1707719400042
 30
0.0
 41
2.0
 42
2.0
 43
2.0
  0
MTEXT
  5
387E
330
377A
100
AcDbEntity
  8
SUNPOU
 62
    60
100
AcDbMText
 10
13.9567316569519
 20
128.6707719400042
 30
0.0
 40
5.0
 41
0.0
 71
     5
 72
     1
  1
\A1;110
  7
SUNPOU
 73
     1
 44
1.0
1001
ACAD
1000
MTEXTBEGIN
1070
    73
1070
     1
1070
    44
1040
1.0
1070
    74
1070
     0
1000
MTEXTEND
  0
POINT
  5
387F
330
377A
100
AcDbEntity
  8
DEFPOINTS
 62
     0
100
AcDbPoint
 10
-41.04326834304809
 20
102.0793319913222
 30
0.0
  0
POINT
  5
3880
330
377A
100
AcDbEntity
  8
DEFPOINTS
 62
     0
100
AcDbPoint
 10
68.9567316569519
 20
103.1737222109773
 30
0.0
  0
POINT
  5
3881
330
377A
100
AcDbEntity
  8
DEFPOINTS
 62
     0
100
AcDbPoint
 10
68.9567316569519
 20
123.1707719400042
 30
0.0
  0
ENDBLK
  5
3785
330
377A
100
AcDbEntity
  8
0
100
AcDbBlockEnd
  0
BLOCK
  5
3791
330
3787
100
AcDbEntity
  8
0
100
AcDbBlockBegin
  2
*D23
 70
     1
 10
0.0
 20
0.0
 30
0.0
  3
*D23
  1

  0
LINE
  5
3882
330
3787
100
AcDbEntity
  8
SUNPOU
 62
    70
370
    -2
100
AcDbLine
 10
-51.00564132730005
 20
42.07933199132219
 30
0.0
 11
-64.746881373394
 21
42.07933199132219
 31
0.0
  0
LINE
  5
3883
330
3787
100
AcDbEntity
  8
SUNPOU
 62
    70
370
    -2
100
AcDbLine
 10
-51.04326834304809
 20
102.0793319913222
 30
0.0
 11
-64.74688137339398
 21
102.0793319913222
 31
0.0
  0
LINE
  5
3884
330
3787
100
AcDbEntity
  8
SUNPOU
 62
    60
370
    -2
100
AcDbLine
 10
-64.746881373394
 20
44.07933199132219
 30
0.0
 11
-64.74688137339398
 21
100.0793319913222
 31
0.0
  0
INSERT
  5
3885
330
3787
100
AcDbEntity
  8
SUNPOU
 62
    60
370
    -2
100
AcDbBlockReference
  2
_Dot
 10
-64.746881373394
 20
42.07933199132219
 30
0.0
 41
2.0
 42
2.0
 43
2.0
 50
270.0
  0
INSERT
  5
3886
330
3787
100
AcDbEntity
  8
SUNPOU
 62
    60
370
    -2
100
AcDbBlockReference
  2
_Dot
 10
-64.74688137339398
 20
102.0793319913222
 30
0.0
 41
2.0
 42
2.0
 43
2.0
 50
90.0
  0
MTEXT
  5
3887
330
3787
100
AcDbEntity
  8
SUNPOU
 62
    60
100
AcDbMText
 10
-70.24688137339402
 20
72.07933199132219
 30
0.0
 40
5.0
 41
0.0
 71
     5
 72
     1
  1
\A1;60
  7
SUNPOU
 11
0.0000000000000001
 21
1.0
 31
0.0
 73
     1
 44
1.0
1001
ACAD
1000
MTEXTBEGIN
1070
    73
1070
     1
1070
    44
1040
1.0
1070
    74
1070
     0
1000
MTEXTEND
  0
POINT
  5
3888
330
3787
100
AcDbEntity
  8
DEFPOINTS
 62
     0
100
AcDbPoint
 10
-41.00564132730005
 20
42.07933199132219
 30
0.0
  0
POINT
  5
3889
330
3787
100
AcDbEntity
  8
DEFPOINTS
 62
     0
100
AcDbPoint
 10
-41.04326834304809
 20
102.0793319913222
 30
0.0
  0
POINT
  5
388A
330
3787
100
AcDbEntity
  8
DEFPOINTS
 62
     0
100
AcDbPoint
 10
-64.74688137339398
 20
102.0793319913222
 30
0.0
  0
ENDBLK
  5
3792
330
3787
100
AcDbEntity
  8
0
100
AcDbBlockEnd
  0
BLOCK
  5
3967
330
395D
100
AcDbEntity
  8
0
100
AcDbBlockBegin
  2
*D25
 70
     1
 10
0.0
 20
0.0
 30
0.0
  3
*D25
  1

  0
LINE
  5
395E
330
395D
100
AcDbEntity
  8
SUNPOU
 62
    70
370
    -2
100
AcDbLine
 10
27.74035032908364
 20
127.2604753857738
 30
0.0
 11
27.74035032908364
 21
140.5411174157011
 31
0.0
  0
LINE
  5
395F
330
395D
100
AcDbEntity
  8
SUNPOU
 62
    70
370
    -2
100
AcDbLine
 10
110.7403503290836
 20
122.2233476583072
 30
0.0
 11
110.7403503290836
 21
140.5411174157011
 31
0.0
  0
LINE
  5
3960
330
395D
100
AcDbEntity
  8
SUNPOU
 62
    60
370
    -2
100
AcDbLine
 10
29.74035032908364
 20
140.5411174157011
 30
0.0
 11
108.7403503290836
 21
140.5411174157011
 31
0.0
  0
INSERT
  5
3961
330
395D
100
AcDbEntity
  8
SUNPOU
 62
    60
370
    -2
100
AcDbBlockReference
  2
_Dot
 10
27.74035032908364
 20
140.5411174157011
 30
0.0
 41
2.0
 42
2.0
 43
2.0
 50
180.0
  0
INSERT
  5
3962
330
395D
100
AcDbEntity
  8
SUNPOU
 62
    60
370
    -2
100
AcDbBlockReference
  2
_Dot
 10
110.7403503290836
 20
140.5411174157011
 30
0.0
 41
2.0
 42
2.0
 43
2.0
  0
MTEXT
  5
3963
330
395D
100
AcDbEntity
  8
SUNPOU
 62
    60
100
AcDbMText
 10
69.24035032908363
 20
146.0411174157011
 30
0.0
 40
5.0
 41
0.0
 71
     5
 72
     1
  1
\A1;83
  7
SUNPOU
 73
     1
 44
1.0
1001
ACAD
1000
MTEXTBEGIN
1070
    73
1070
     1
1070
    44
1040
1.0
1070
    74
1070
     0
1000
MTEXTEND
  0
POINT
  5
3964
330
395D
100
AcDbEntity
  8
DEFPOINTS
 62
     0
100
AcDbPoint
 10
27.74035032908364
 20
117.2604753857738
 30
0.0
  0
POINT
  5
3965
330
395D
100
AcDbEntity
  8
DEFPOINTS
 62
     0
100
AcDbPoint
 10
110.7403503290836
 20
112.2233476583072
 30
0.0
  0
POINT
  5
3966
330
395D
100
AcDbEntity
  8
DEFPOINTS
 62
     0
100
AcDbPoint
 10
110.7403503290836
 20
140.5411174157011
 30
0.0
  0
ENDBLK
  5
3968
330
395D
100
AcDbEntity
  8
0
100
AcDbBlockEnd
  0
BLOCK
  5
3974
330
396A
100
AcDbEntity
  8
0
100
AcDbBlockBegin
  2
*D26
 70
     1
 10
0.0
 20
0.0
 30
0.0
  3
*D26
  1

  0
LINE
  5
396B
330
396A
100
AcDbEntity
  8
SUNPOU
 62
    70
370
    -2
100
AcDbLine
 10
20.95910676827544
 20
122.5760159643869
 30
0.0
 11
3.789962582177404
 21
122.5760159643869
 31
0.0
  0
LINE
  5
396C
330
396A
100
AcDbEntity
  8
SUNPOU
 62
    70
370
    -2
100
AcDbLine
 10
27.73974082146561
 20
39.57601596438696
 30
0.0
 11
3.789962582177382
 21
39.57601596438697
 31
0.0
  0
LINE
  5
396D
330
396A
100
AcDbEntity
  8
SUNPOU
 62
    60
370
    -2
100
AcDbLine
 10
3.789962582177402
 20
120.5760159643869
 30
0.0
 11
3.789962582177385
 21
41.57601596438697
 31
0.0
  0
INSERT
  5
396E
330
396A
100
AcDbEntity
  8
SUNPOU
 62
    60
370
    -2
100
AcDbBlockReference
  2
_Dot
 10
3.789962582177403
 20
122.5760159643869
 30
0.0
 41
2.0
 42
2.0
 43
2.0
 50
90.0
  0
INSERT
  5
396F
330
396A
100
AcDbEntity
  8
SUNPOU
 62
    60
370
    -2
100
AcDbBlockReference
  2
_Dot
 10
3.789962582177385
 20
39.57601596438697
 30
0.0
 41
2.0
 42
2.0
 43
2.0
 50
270.0
  0
MTEXT
  5
3970
330
396A
100
AcDbEntity
  8
SUNPOU
 62
    60
100
AcDbMText
 10
-1.710037417822618
 20
81.07601596438696
 30
0.0
 40
5.0
 41
0.0
 71
     5
 72
     1
  1
\A1;83
  7
SUNPOU
 11
0.0000000000000001
 21
1.0
 31
0.0
 73
     1
 44
1.0
1001
ACAD
1000
MTEXTBEGIN
1070
    73
1070
     1
1070
    44
1040
1.0
1070
    74
1070
     0
1000
MTEXTEND
  0
POINT
  5
3971
330
396A
100
AcDbEntity
  8
DEFPOINTS
 62
     0
100
AcDbPoint
 10
30.95910676827544
 20
122.5760159643869
 30
0.0
  0
POINT
  5
3972
330
396A
100
AcDbEntity
  8
DEFPOINTS
 62
     0
100
AcDbPoint
 10
37.73974082146561
 20
39.57601596438696
 30
0.0
  0
POINT
  5
3973
330
396A
100
AcDbEntity
  8
DEFPOINTS
 62
     0
100
AcDbPoint
 10
3.789962582177385
 20
39.57601596438697
 30
0.0
  0
ENDBLK
  5
3975
330
396A
100
AcDbEntity
  8
0
100
AcDbBlockEnd
  0
BLOCK
  5
3996
330
3995
100
AcDbEntity
  8
0
100
AcDbBlockBegin
  2
151
 70
     0
 10
0.0
 20
0.0
 30
0.0
  3
151
  1

  0
LINE
  5
3997
330
3995
100
AcDbEntity
  8
0
100
AcDbLine
 10
-829.5761699624728
 20
-702.8606314666555
 30
0.0
 11
-809.6440258797276
 21
-678.8293474427947
 31
0.0
  0
LINE
  5
3998
330
3995
100
AcDbEntity
  8
0
100
AcDbLine
 10
-830.8524556990175
 20
-700.2054208954755
 30
0.0
 11
-815.4007908813678
 21
-674.846928992168
 31
0.0
  0
LINE
  5
3999
330
3995
100
AcDbEntity
  8
0
100
AcDbLine
 10
-832.6672654888938
 20
-698.3537711988969
 30
0.0
 11
-820.8459069676813
 21
-672.1640823511236
 31
0.0
  0
LINE
  5
399A
330
3995
100
AcDbEntity
  8
0
100
AcDbLine
 10
-834.6678400401463
 20
-697.2418411620249
 30
0.0
 11
-827.4432717489689
 21
-669.8242580110011
 31
0.0
  0
LINE
  5
399B
330
3995
100
AcDbEntity
  8
0
100
AcDbLine
 10
-836.5886307950598
 20
-696.7407164839388
 30
0.0
 11
-834.259338046335
 21
-668.8008680042586
 31
0.0
  0
LINE
  5
399C
330
3995
100
AcDbEntity
  8
0
100
AcDbLine
 10
-845.9425061301971
 20
-702.8606314666555
 30
0.0
 11
-865.8746502129424
 21
-678.8293474427948
 31
0.0
  0
LINE
  5
399D
330
3995
100
AcDbEntity
  8
0
100
AcDbLine
 10
-844.6662203936524
 20
-700.2054208954755
 30
0.0
 11
-860.1178852113021
 21
-674.8469289921681
 31
0.0
  0
LINE
  5
399E
330
3995
100
AcDbEntity
  8
0
100
AcDbLine
 10
-840.8508360525235
 20
-697.2418411620249
 30
0.0
 11
-848.0754043437011
 21
-669.8242580110011
 31
0.0
  0
LINE
  5
399F
330
3995
100
AcDbEntity
  8
0
100
AcDbLine
 10
-842.8514106037761
 20
-698.3537711988969
 30
0.0
 11
-854.6727691249886
 21
-672.1640823511236
 31
0.0
  0
LINE
  5
39A0
330
3995
100
AcDbEntity
  8
0
100
AcDbLine
 10
-836.5886307950598
 20
-696.7407164839388
 30
0.0
 11
-834.2593380463346
 21
-668.8008680042586
 31
0.0
  0
LINE
  5
39A1
330
3995
100
AcDbEntity
  8
0
100
AcDbLine
 10
-838.9300452976101
 20
-696.7407164839388
 30
0.0
 11
-841.2593380463349
 21
-668.8008680042586
 31
0.0
  0
LINE
  5
39A2
330
3995
100
AcDbEntity
  8
0
100
AcDbLine
 10
-829.2593380463349
 20
-705.1597095669513
 30
0.0
 11
-806.759338046335
 21
-681.6597095669512
 31
0.0
  0
LINE
  5
39A3
330
3995
100
AcDbEntity
  8
0
100
AcDbLine
 10
-846.2593380463349
 20
-705.1597095669513
 30
0.0
 11
-868.7593380463349
 21
-681.6597095669512
 31
0.0
  0
CIRCLE
  5
39A4
330
3995
100
AcDbEntity
  8
0
100
AcDbCircle
 10
-837.7593380463348
 20
-705.1597095669513
 30
0.0
 40
3.0
  0
CIRCLE
  5
39A5
330
3995
100
AcDbEntity
  8
0
100
AcDbCircle
 10
-837.7593380463348
 20
-705.1597095669513
 30
0.0
 40
8.5
  0
ARC
  5
39A6
330
3995
100
AcDbEntity
  8
0
100
AcDbCircle
 10
-837.7593380463348
 20
-712.1212480284895
 30
0.0
 40
43.46153846153837
100
AcDbArc
 50
44.49804731442461
 51
135.5019526855755
  0
ENDBLK
  5
39A7
330
3995
100
AcDbEntity
  8
0
100
AcDbBlockEnd
  0
BLOCK
  5
39CA
330
39C0
100
AcDbEntity
  8
0
100
AcDbBlockBegin
  2
*D29
 70
     1
 10
0.0
 20
0.0
 30
0.0
  3
*D29
  1

  0
LINE
  5
3A01
330
39C0
100
AcDbEntity
  8
SUNPOU
 62
    70
370
    -2
100
AcDbLine
 10
44.30893083591172
 20
69.04521190035064
 30
0.0
 11
44.30893083591172
 21
91.9385010708611
 31
0.0
  0
LINE
  5
3A02
330
39C0
100
AcDbEntity
  8
SUNPOU
 62
    70
370
    -2
100
AcDbLine
 10
106.3089308359117
 20
69.04521190035064
 30
0.0
 11
106.3089308359117
 21
91.9385010708611
 31
0.0
  0
LINE
  5
3A03
330
39C0
100
AcDbEntity
  8
SUNPOU
 62
    60
370
    -2
100
AcDbLine
 10
46.30893083591172
 20
91.9385010708611
 30
0.0
 11
104.3089308359117
 21
91.9385010708611
 31
0.0
  0
INSERT
  5
3A04
330
39C0
100
AcDbEntity
  8
SUNPOU
 62
    60
370
    -2
100
AcDbBlockReference
  2
_Dot
 10
44.30893083591172
 20
91.9385010708611
 30
0.0
 41
2.0
 42
2.0
 43
2.0
 50
180.0
  0
INSERT
  5
3A05
330
39C0
100
AcDbEntity
  8
SUNPOU
 62
    60
370
    -2
100
AcDbBlockReference
  2
_Dot
 10
106.3089308359117
 20
91.9385010708611
 30
0.0
 41
2.0
 42
2.0
 43
2.0
  0
MTEXT
  5
3A06
330
39C0
100
AcDbEntity
  8
SUNPOU
 62
    60
100
AcDbMText
 10
75.30893083591172
 20
97.4385010708611
 30
0.0
 40
5.0
 41
0.0
 71
     5
 72
     1
  1
\A1;62
  7
SUNPOU
 73
     1
 44
1.0
1001
ACAD
1000
MTEXTBEGIN
1070
    73
1070
     1
1070
    44
1040
1.0
1070
    74
1070
     0
1000
MTEXTEND
  0
POINT
  5
3A07
330
39C0
100
AcDbEntity
  8
DEFPOINTS
 62
     0
100
AcDbPoint
 10
44.30893083591172
 20
59.04521190035064
 30
0.0
  0
POINT
  5
3A08
330
39C0
100
AcDbEntity
  8
DEFPOINTS
 62
     0
100
AcDbPoint
 10
106.3089308359117
 20
59.04521190035064
 30
0.0
  0
POINT
  5
3A09
330
39C0
100
AcDbEntity
  8
DEFPOINTS
 62
     0
100
AcDbPoint
 10
106.3089308359117
 20
91.9385010708611
 30
0.0
  0
ENDBLK
  5
39CB
330
39C0
100
AcDbEntity
  8
0
100
AcDbBlockEnd
  0
BLOCK
  5
39D7
330
39CD
100
AcDbEntity
  8
0
100
AcDbBlockBegin
  2
*D30
 70
     1
 10
0.0
 20
0.0
 30
0.0
  3
*D30
  1

  0
LINE
  5
3A1C
330
39CD
100
AcDbEntity
  8
SUNPOU
 62
    70
370
    -2
100
AcDbLine
 10
34.30893083591172
 20
71.46743340035005
 30
0.0
 11
22.40482951838022
 21
71.46743340035006
 31
0.0
  0
LINE
  5
3A1D
330
39CD
100
AcDbEntity
  8
SUNPOU
 62
    70
370
    -2
100
AcDbLine
 10
36.57794017656926
 20
28.46743340035005
 30
0.0
 11
22.40482951838021
 21
28.46743340035006
 31
0.0
  0
LINE
  5
3A1E
330
39CD
100
AcDbEntity
  8
SUNPOU
 62
    60
370
    -2
100
AcDbLine
 10
22.40482951838022
 20
69.46743340035006
 30
0.0
 11
22.40482951838021
 21
30.46743340035006
 31
0.0
  0
INSERT
  5
3A1F
330
39CD
100
AcDbEntity
  8
SUNPOU
 62
    60
370
    -2
100
AcDbBlockReference
  2
_Dot
 10
22.40482951838022
 20
71.46743340035006
 30
0.0
 41
2.0
 42
2.0
 43
2.0
 50
90.0
  0
INSERT
  5
3A20
330
39CD
100
AcDbEntity
  8
SUNPOU
 62
    60
370
    -2
100
AcDbBlockReference
  2
_Dot
 10
22.40482951838021
 20
28.46743340035006
 30
0.0
 41
2.0
 42
2.0
 43
2.0
 50
270.0
  0
MTEXT
  5
3A21
330
39CD
100
AcDbEntity
  8
SUNPOU
 62
    60
100
AcDbMText
 10
16.90482951838021
 20
49.96743340035006
 30
0.0
 40
5.0
 41
0.0
 71
     5
 72
     1
  1
\A1;43
  7
SUNPOU
 11
0.0000000000000001
 21
1.0
 31
0.0
 73
     1
 44
1.0
1001
ACAD
1000
MTEXTBEGIN
1070
    73
1070
     1
1070
    44
1040
1.0
1070
    74
1070
     0
1000
MTEXTEND
  0
POINT
  5
3A22
330
39CD
100
AcDbEntity
  8
DEFPOINTS
 62
     0
100
AcDbPoint
 10
44.30893083591172
 20
71.46743340035005
 30
0.0
  0
POINT
  5
3A23
330
39CD
100
AcDbEntity
  8
DEFPOINTS
 62
     0
100
AcDbPoint
 10
46.57794017656925
 20
28.46743340035004
 30
0.0
  0
POINT
  5
3A24
330
39CD
100
AcDbEntity
  8
DEFPOINTS
 62
     0
100
AcDbPoint
 10
22.40482951838021
 20
28.46743340035006
 30
0.0
  0
ENDBLK
  5
39D8
330
39CD
100
AcDbEntity
  8
0
100
AcDbBlockEnd
  0
BLOCK
  5
3C12
330
3C08
100
AcDbEntity
  8
0
100
AcDbBlockBegin
  2
*D32
 70
     1
 10
0.0
 20
0.0
 30
0.0
  3
*D32
  1

  0
LINE
  5
3C62
330
3C08
100
AcDbEntity
  8
SUNPOU
 62
    70
370
    -2
100
AcDbLine
 10
-31.73966098701803
 20
225.3228927067861
 30
0.0
 11
-31.73966098701802
 21
257.5879811493461
 31
0.0
  0
LINE
  5
3C63
330
3C08
100
AcDbEntity
  8
SUNPOU
 62
    70
370
    -2
100
AcDbLine
 10
168.2603390129819
 20
242.8569007741653
 30
0.0
 11
168.2603390129819
 21
257.5879811493461
 31
0.0
  0
LINE
  5
3C64
330
3C08
100
AcDbEntity
  8
SUNPOU
 62
    60
370
    -2
100
AcDbLine
 10
-29.73966098701803
 20
257.5879811493461
 30
0.0
 11
166.2603390129819
 21
257.5879811493461
 31
0.0
  0
INSERT
  5
3C65
330
3C08
100
AcDbEntity
  8
SUNPOU
 62
    60
370
    -2
100
AcDbBlockReference
  2
_Dot
 10
-31.73966098701802
 20
257.5879811493461
 30
0.0
 41
2.0
 42
2.0
 43
2.0
 50
180.0
  0
INSERT
  5
3C66
330
3C08
100
AcDbEntity
  8
SUNPOU
 62
    60
370
    -2
100
AcDbBlockReference
  2
_Dot
 10
168.2603390129819
 20
257.5879811493461
 30
0.0
 41
2.0
 42
2.0
 43
2.0
  0
MTEXT
  5
3C67
330
3C08
100
AcDbEntity
  8
SUNPOU
 62
    60
100
AcDbMText
 10
68.26033901298195
 20
263.0879811493461
 30
0.0
 40
5.0
 41
0.0
 71
     5
 72
     1
  1
\A1;200
  7
SUNPOU
 73
     1
 44
1.0
1001
ACAD
1000
MTEXTBEGIN
1070
    73
1070
     1
1070
    44
1040
1.0
1070
    74
1070
     0
1000
MTEXTEND
  0
POINT
  5
3C68
330
3C08
100
AcDbEntity
  8
DEFPOINTS
 62
     0
100
AcDbPoint
 10
-31.73966098701803
 20
215.3228927067861
 30
0.0
  0
POINT
  5
3C69
330
3C08
100
AcDbEntity
  8
DEFPOINTS
 62
     0
100
AcDbPoint
 10
168.2603390129819
 20
232.8569007741653
 30
0.0
  0
POINT
  5
3C6A
330
3C08
100
AcDbEntity
  8
DEFPOINTS
 62
     0
100
AcDbPoint
 10
168.2603390129819
 20
257.5879811493461
 30
0.0
  0
ENDBLK
  5
3C13
330
3C08
100
AcDbEntity
  8
0
100
AcDbBlockEnd
  0
BLOCK
  5
3C1F
330
3C15
100
AcDbEntity
  8
0
100
AcDbBlockBegin
  2
*D33
 70
     1
 10
0.0
 20
0.0
 30
0.0
  3
*D33
  1

  0
LINE
  5
3C59
330
3C15
100
AcDbEntity
  8
SUNPOU
 62
    70
370
    -2
100
AcDbLine
 10
-36.73966098701761
 20
233.8491103585734
 30
0.0
 11
-62.71222342120914
 21
233.8491103585734
 31
0.0
  0
LINE
  5
3C5A
330
3C15
100
AcDbEntity
  8
SUNPOU
 62
    70
370
    -2
100
AcDbLine
 10
-38.38918794705273
 20
33.84911035857346
 30
0.0
 11
-62.71222342120918
 21
33.84911035857346
 31
0.0
  0
LINE
  5
3C5B
330
3C15
100
AcDbEntity
  8
SUNPOU
 62
    60
370
    -2
100
AcDbLine
 10
-62.71222342120914
 20
231.8491103585734
 30
0.0
 11
-62.71222342120918
 21
35.84911035857346
 31
0.0
  0
INSERT
  5
3C5C
330
3C15
100
AcDbEntity
  8
SUNPOU
 62
    60
370
    -2
100
AcDbBlockReference
  2
_Dot
 10
-62.71222342120914
 20
233.8491103585734
 30
0.0
 41
2.0
 42
2.0
 43
2.0
 50
90.0
  0
INSERT
  5
3C5D
330
3C15
100
AcDbEntity
  8
SUNPOU
 62
    60
370
    -2
100
AcDbBlockReference
  2
_Dot
 10
-62.71222342120918
 20
33.84911035857346
 30
0.0
 41
2.0
 42
2.0
 43
2.0
 50
270.0
  0
MTEXT
  5
3C5E
330
3C15
100
AcDbEntity
  8
SUNPOU
 62
    60
100
AcDbMText
 10
-68.21222342120917
 20
133.8491103585734
 30
0.0
 40
5.0
 41
0.0
 71
     5
 72
     1
  1
\A1;200
  7
SUNPOU
 11
0.0000000000000001
 21
1.0
 31
0.0
 73
     1
 44
1.0
1001
ACAD
1000
MTEXTBEGIN
1070
    73
1070
     1
1070
    44
1040
1.0
1070
    74
1070
     0
1000
MTEXTEND
  0
POINT
  5
3C5F
330
3C15
100
AcDbEntity
  8
DEFPOINTS
 62
     0
100
AcDbPoint
 10
-26.7396609870176
 20
233.8491103585734
 30
0.0
  0
POINT
  5
3C60
330
3C15
100
AcDbEntity
  8
DEFPOINTS
 62
     0
100
AcDbPoint
 10
-28.38918794705273
 20
33.84911035857346
 30
0.0
  0
POINT
  5
3C61
330
3C15
100
AcDbEntity
  8
DEFPOINTS
 62
     0
100
AcDbPoint
 10
-62.71222342120918
 20
33.84911035857346
 30
0.0
  0
ENDBLK
  5
3C20
330
3C15
100
AcDbEntity
  8
0
100
AcDbBlockEnd
  0
BLOCK
  5
3C76
330
3C6C
100
AcDbEntity
  8
0
100
AcDbBlockBegin
  2
*D34
 70
     1
 10
0.0
 20
0.0
 30
0.0
  3
*D34
  1

  0
LINE
  5
3C78
330
3C6C
100
AcDbEntity
  8
SUNPOU
 62
    70
370
    -2
100
AcDbLine
 10
178.2094791379611
 20
233.8491103585734
 30
0.0
 11
201.4862600483119
 21
233.8491103585734
 31
0.0
  0
LINE
  5
3C79
330
3C6C
100
AcDbEntity
  8
SUNPOU
 62
    70
370
    -2
100
AcDbLine
 10
159.7341213611947
 20
33.84911035857346
 30
0.0
 11
201.4862600483118
 21
33.84911035857345
 31
0.0
  0
LINE
  5
3C7A
330
3C6C
100
AcDbEntity
  8
SUNPOU
 62
    60
370
    -2
100
AcDbLine
 10
201.4862600483119
 20
231.8491103585734
 30
0.0
 11
201.4862600483118
 21
35.84911035857345
 31
0.0
  0
INSERT
  5
3C7B
330
3C6C
100
AcDbEntity
  8
SUNPOU
 62
    60
370
    -2
100
AcDbBlockReference
  2
_Dot
 10
201.4862600483119
 20
233.8491103585734
 30
0.0
 41
2.0
 42
2.0
 43
2.0
 50
90.0
  0
INSERT
  5
3C7C
330
3C6C
100
AcDbEntity
  8
SUNPOU
 62
    60
370
    -2
100
AcDbBlockReference
  2
_Dot
 10
201.4862600483118
 20
33.84911035857345
 30
0.0
 41
2.0
 42
2.0
 43
2.0
 50
270.0
  0
MTEXT
  5
3C7D
330
3C6C
100
AcDbEntity
  8
SUNPOU
 62
    60
100
AcDbMText
 10
195.9862600483118
 20
133.8491103585734
 30
0.0
 40
5.0
 41
0.0
 71
     5
 72
     1
  1
\A1;200
  7
SUNPOU
 11
0.0000000000000001
 21
1.0
 31
0.0
 73
     1
 44
1.0
1001
ACAD
1000
MTEXTBEGIN
1070
    73
1070
     1
1070
    44
1040
1.0
1070
    74
1070
     0
1000
MTEXTEND
  0
POINT
  5
3C7E
330
3C6C
100
AcDbEntity
  8
DEFPOINTS
 62
     0
100
AcDbPoint
 10
168.2094791379611
 20
233.8491103585734
 30
0.0
  0
POINT
  5
3C7F
330
3C6C
100
AcDbEntity
  8
DEFPOINTS
 62
     0
100
AcDbPoint
 10
149.7341213611947
 20
33.84911035857346
 30
0.0
  0
POINT
  5
3C80
330
3C6C
100
AcDbEntity
  8
DEFPOINTS
 62
     0
100
AcDbPoint
 10
201.4862600483118
 20
33.84911035857345
 30
0.0
  0
ENDBLK
  5
3C77
330
3C6C
100
AcDbEntity
  8
0
100
AcDbBlockEnd
  0
ENDSEC
  0
SECTION
  2
ENTITIES
  0
LINE
  5
1F
330
2
100
AcDbEntity
  8
WAKU
100
AcDbLine
 10
0.0
 20
14.0
 30
0.0
 11
148.6829221395387
 21
14.0
 31
0.0
  0
LINE
  5
20
330
2
100
AcDbEntity
  8
WAKU
100
AcDbLine
 10
0.0
 20
0.0
 30
0.0
 11
148.6829221395387
 21
0.0
 31
0.0
  0
TEXT
  5
21
330
2
100
AcDbEntity
  8
HOJO
100
AcDbText
 10
9.653966000000025
 20
2.366626000000024
 30
0.0
 40
9.0
  1
TE238
  7
SUNPOU
100
AcDbText
  0
TEXT
  5
23
330
2
100
AcDbEntity
  8
HOJO
100
AcDbText
 10
85.84696046283864
 20
5.044386000000031
 30
0.0
 40
6.0
  1
200×200×15
  7
SUNPOU
100
AcDbText
  0
ARC
  5
3B1D
102
{ACAD_REACTORS
330
3C81
102
}
330
2
100
AcDbEntity
  8
KIJUN
100
AcDbCircle
 10
170.3172136256015
 20
64.07660880905021
 30
0.0
 40
25.31121117688437
100
AcDbArc
 50
246.6018522884935
 51
265.3388113629405
  0
LINE
  5
3B1E
102
{ACAD_REACTORS
330
3C81
102
}
330
2
100
AcDbEntity
  8
KIJUN
100
AcDbLine
 10
168.2603390129819
 20
67.84911035857366
 30
0.0
 11
168.2603390129822
 21
38.84911035857366
 31
0.0
  0
LINE
  5
3B1F
102
{ACAD_REACTORS
330
3C81
102
}
330
2
100
AcDbEntity
  8
KIJUN
100
AcDbLine
 10
168.2603390129819
 20
67.84911035857366
 30
0.0
 11
163.2605042444755
 21
67.88975869965978
 31
0.0
  0
ARC
  5
3B20
102
{ACAD_REACTORS
330
3C81
102
}
330
2
100
AcDbEntity
  8
KIJUN
100
AcDbCircle
 10
149.7341213611947
 20
45.27296389786843
 30
0.0
 40
11.42385353929498
100
AcDbArc
 50
156.4085272655006
 51
337.2041353715468
  0
ARC
  5
3B21
102
{ACAD_REACTORS
330
3C81
102
}
330
2
100
AcDbEntity
  8
KIJUN
100
AcDbCircle
 10
115.5263557260738
 20
23.08448640314148
 30
0.0
 40
35.77215478747284
100
AcDbArc
 50
48.42436941257165
 51
126.4759421094622
  0
ARC
  5
3B22
102
{ACAD_REACTORS
330
3C81
102
}
330
2
100
AcDbEntity
  8
KIJUN
100
AcDbCircle
 10
85.66574441838758
 20
45.51127252073572
 30
0.0
 40
10.67872860897584
100
AcDbArc
 50
273.191895775904
 51
36.40585693314194
  0
ARC
  5
3B23
102
{ACAD_REACTORS
330
3C81
102
}
330
2
100
AcDbEntity
  8
KIJUN
100
AcDbCircle
 10
85.44481884581193
 20
52.22512464567424
 30
0.0
 40
17.39514143801621
100
AcDbArc
 50
201.5023846767248
 51
272.6871294772993
  0
ARC
  5
3B24
102
{ACAD_REACTORS
330
3C81
102
}
330
2
100
AcDbEntity
  8
KIJUN
100
AcDbCircle
 10
66.26033901298171
 20
47.13543348259579
 30
0.0
 40
3.264142640785493
100
AcDbArc
 50
203.2084134090387
 51
336.7915865909613
  0
ARC
  5
3B25
102
{ACAD_REACTORS
330
3C81
102
}
330
2
100
AcDbEntity
  8
KIJUN
100
AcDbCircle
 10
51.48095068738382
 20
50.5181928469706
 30
0.0
 40
12.67100314137335
100
AcDbArc
 50
269.0023870715362
 51
338.3777479804202
  0
ARC
  5
3B26
102
{ACAD_REACTORS
330
3C81
102
}
330
2
100
AcDbEntity
  8
KIJUN
100
AcDbCircle
 10
48.51386910200642
 20
38.71881522503648
 30
0.0
 40
2.88088242152355
100
AcDbArc
 50
264.9511927494133
 51
342.4289423025522
  0
ARC
  5
3B27
102
{ACAD_REACTORS
330
3C81
102
}
330
2
100
AcDbEntity
  8
KIJUN
100
AcDbCircle
 10
49.9808617813286
 20
42.56963312691985
 30
0.0
 40
6.937263500564543
100
AcDbArc
 50
194.3598881381375
 51
255.6401118618627
  0
ARC
  5
3B28
102
{ACAD_REACTORS
330
3C81
102
}
330
2
100
AcDbEntity
  8
KIJUN
100
AcDbCircle
 10
39.25303113975122
 20
45.78333949949686
 30
0.0
 40
6.356503253046835
100
AcDbArc
 50
218.2380231724887
 51
309.0815933356915
  0
SPLINE
  5
3B29
102
{ACAD_REACTORS
330
3C81
102
}
330
2
100
AcDbEntity
  8
KIJUN
100
AcDbSpline
210
0.0
220
0.0
230
1.0
 70
     8
 71
     3
 72
    11
 73
     7
 74
     5
 42
0.0000000001
 43
0.0000000001
 44
0.0000000001
 40
0.0
 40
0.0
 40
0.0
 40
0.0
 40
5.936609921819568
 40
11.4869382833469
 40
15.36885681082158
 40
19.99010247685564
 40
19.99010247685564
 40
19.99010247685564
 40
19.99010247685564
 10
34.26033901298217
 20
41.84911035857365
 30
0.0
 10
32.51758674158589
 20
40.86061055024437
 30
0.0
 10
29.14547908278322
 20
38.9479303437102
 30
0.0
 10
23.94923940797403
 20
38.51101304006409
 30
0.0
 10
19.17132692124122
 20
39.1055327102935
 30
0.0
 10
16.63743985899165
 20
37.64362090230266
 30
0.0
 10
15.26033901298194
 20
36.84911035857366
 30
0.0
 11
34.26033901298217
 21
41.84911035857365
 31
0.0
 11
28.89542273139284
 21
39.30725854240021
 31
0.0
 11
23.37901149730612
 21
38.69459875327041
 31
0.0
 11
19.49709296983144
 21
38.69459875326996
 31
0.0
 11
15.26033901298194
 21
36.84911035857366
 31
0.0
  0
ARC
  5
3B2A
102
{ACAD_REACTORS
330
3C81
102
}
330
2
100
AcDbEntity
  8
KIJUN
100
AcDbCircle
 10
13.1593848230658
 20
54.94529359890922
 30
0.0
 40
12.12954790387544
100
AcDbArc
 50
246.1781919639057
 51
265.7493211002404
  0
ARC
  5
3B2B
102
{ACAD_REACTORS
330
3C81
102
}
330
2
100
AcDbEntity
  8
KIJUN
100
AcDbCircle
 10
17.71115062726096
 20
41.82451616571259
 30
0.0
 40
5.546272668594488
100
AcDbArc
 50
169.3542803729512
 51
243.7758219812033
  0
SPLINE
  5
3B2C
102
{ACAD_REACTORS
330
3C81
102
}
330
2
100
AcDbEntity
  8
KIJUN
100
AcDbSpline
210
0.0
220
0.0
230
1.0
 70
     8
 71
     3
 72
    13
 73
     9
 74
     7
 42
0.0000000001
 43
0.0000000001
 44
0.0000000001
 40
0.0
 40
0.0
 40
0.0
 40
0.0
 40
6.194862035701502
 40
12.67936279449837
 40
16.37632254343829
 40
18.92909416384136
 40
21.33087372016591
 40
23.50140501097204
 40
23.50140501097204
 40
23.50140501097204
 40
23.50140501097204
 10
8.260339012981944
 20
43.84911035857342
 30
0.0
 10
6.713296519146865
 20
42.43768743456249
 30
0.0
 10
3.546880071969383
 20
39.54885097511103
 30
0.0
 10
-1.980364224814167
 20
38.26772599978706
 30
0.0
 10
-5.718595277855428
 20
36.65316136875581
 30
0.0
 10
-8.972237769420729
 20
36.096834145069
 30
0.0
 10
-10.34462880005884
 20
38.65934017321907
 30
0.0
 10
-9.934401059716293
 20
40.14421995631342
 30
0.0
 10
-9.739660987017828
 20
40.84911035857342
 30
0.0
 11
8.260339012981944
 21
43.84911035857342
 31
0.0
 11
3.353516520002699
 21
40.06765446649049
 31
0.0
 11
-2.739660987018055
 21
37.84911035857343
 31
0.0
 11
-6.234943771209714
 21
36.64473930120974
 31
0.0
 11
-8.787715391612778
 21
36.64473930120951
 31
0.0
 11
-10.03297055258565
 21
38.69848821995518
 31
0.0
 11
-9.739660987017828
 21
40.84911035857342
 31
0.0
  0
SPLINE
  5
3B2D
102
{ACAD_REACTORS
330
3C81
102
}
330
2
100
AcDbEntity
  8
KIJUN
100
AcDbSpline
210
0.0
220
0.0
230
1.0
 70
     8
 71
     3
 72
    13
 73
     9
 74
     7
 42
0.0000000001
 43
0.0000000001
 44
0.0000000001
 40
0.0
 40
0.0
 40
0.0
 40
0.0
 40
7.061059652714166
 40
11.90392032140282
 40
13.83937814554076
 40
14.88018339050075
 40
15.57623969364542
 40
16.3104440236285
 40
16.3104440236285
 40
16.3104440236285
 40
16.3104440236285
 10
-9.739660987017828
 20
40.84911035857342
 30
0.0
 10
-12.07043987968871
 20
40.26626339404911
 30
0.0
 10
-15.99979433776875
 20
39.28366812272861
 30
0.0
 10
-20.6517753889141
 20
41.33675867162398
 30
0.0
 10
-23.10497290869989
 20
40.20111175349604
 30
0.0
 10
-24.33093489517867
 20
40.08718897590114
 30
0.0
 10
-25.035567986139
 20
39.48236440396124
 30
0.0
 10
-25.50082684612539
 20
39.72470711228893
 30
0.0
 10
-25.7396609870176
 20
39.84911035857343
 30
0.0
 11
-9.739660987017828
 21
40.84911035857342
 31
0.0
 11
-16.75734508563016
 21
40.06765446649026
 31
0.0
 11
-21.55157557875839
 21
40.75223713870085
 31
0.0
 11
-23.41095661135671
 21
40.21492981078657
 31
0.0
 11
-24.41566064188294
 21
39.94318476670926
 31
0.0
 11
-25.03828822236926
 21
39.63201074278507
 31
0.0
 11
-25.7396609870176
 21
39.84911035857343
 31
0.0
  0
SPLINE
  5
3B2E
102
{ACAD_REACTORS
330
3C81
102
}
330
2
100
AcDbEntity
  8
KIJUN
100
AcDbSpline
210
0.0
220
0.0
230
1.0
 70
     8
 71
     3
 72
    15
 73
    11
 74
     9
 42
0.0000000001
 43
0.0000000001
 44
0.0000000001
 40
0.0
 40
0.0
 40
0.0
 40
0.0
 40
16.68268752549953
 40
27.84425220483384
 40
31.00225738411554
 40
32.90714999175881
 40
35.48643309588524
 40
38.32843062947312
 40
40.79115292691403
 40
44.56831149898664
 40
44.56831149898664
 40
44.56831149898664
 40
44.56831149898664
 10
125.2603390129821
 20
83.84911035857365
 30
0.0
 10
130.7112447751277
 20
82.41741304755999
 30
0.0
 10
139.8090831512269
 20
80.02783757011284
 30
0.0
 10
148.0041883128182
 20
73.44470811296744
 30
0.0
 10
152.9500616905843
 20
71.22524715066808
 30
0.0
 10
155.4839083935211
 20
70.67569286509201
 30
0.0
 10
157.9132690267603
 20
71.27984685402271
 30
0.0
 10
160.0603840145676
 20
73.54991404833015
 30
0.0
 10
163.1103000562877
 20
71.33340107127607
 30
0.0
 10
163.20386624876
 20
69.18826444868409
 30
0.0
 10
163.2605042444755
 20
67.88975869965978
 30
0.0
 11
125.2603390129821
 21
83.84911035857365
 31
0.0
 11
140.9893358289508
 21
78.28936915625994
 31
0.0
 11
150.4722051171196
 21
72.40245857816652
 31
0.0
 11
153.3846950922044
 21
71.18163964916814
 31
0.0
 11
155.2603390129822
 21
70.84911035857342
 31
0.0
 11
157.7534297073095
 21
71.51032146033347
 31
0.0
 11
160.2603390129822
 21
72.84911035857366
 31
0.0
 11
162.3570424453181
 21
71.55727606922258
 31
0.0
 11
163.2605042444755
 21
67.88975869965978
 31
0.0
  0
SPLINE
  5
3B2F
102
{ACAD_REACTORS
330
3C81
102
}
330
2
100
AcDbEntity
  8
KIJUN
100
AcDbSpline
210
0.0
220
0.0
230
1.0
 70
     8
 71
     3
 72
    13
 73
     9
 74
     0
 42
0.0000000001
 43
0.0000000001
 40
0.0
 40
0.0
 40
0.0
 40
0.0
 40
5.33757963662565
 40
8.554059635405957
 40
10.92034777076818
 40
13.6859080374023
 40
15.11699769846578
 40
19.87676139132237
 40
19.87676139132237
 40
19.87676139132237
 40
19.87676139132237
 10
125.2603390129821
 20
83.84911035857365
 30
0.0
 10
125.8244028620487
 20
85.50352346053662
 30
0.0
 10
126.7283773470354
 20
88.15490279334861
 30
0.0
 10
127.4845051133091
 20
91.99207566273484
 30
0.0
 10
125.2681603904619
 20
94.36085871576144
 30
0.0
 10
122.8411687285642
 20
93.82632018360258
 30
0.0
 10
120.3352660136646
 20
92.24062802784331
 30
0.0
 10
118.4861326083099
 20
91.50304765020157
 30
0.0
 10
117.0089911178469
 20
91.10588185132773
 30
0.0
  0
ARC
  5
3B30
102
{ACAD_REACTORS
330
3C81
102
}
330
2
100
AcDbEntity
  8
KIJUN
100
AcDbCircle
 10
107.8177411400539
 20
109.6278114221084
 30
0.0
 40
20.67706340801933
100
AcDbArc
 50
173.8329184578122
 51
296.392266805525
  0
ARC
  5
3B31
102
{ACAD_REACTORS
330
3C81
102
}
330
2
100
AcDbEntity
  8
KIJUN
100
AcDbCircle
 10
86.91418516682336
 20
120.1952642047243
 30
0.0
 40
8.353329067440975
100
AcDbArc
 50
272.3749615157879
 51
66.385727931909
  0
SPLINE
  5
3B32
102
{ACAD_REACTORS
330
3C81
102
}
330
2
100
AcDbEntity
  8
KIJUN
100
AcDbSpline
210
0.0
220
0.0
230
1.0
 70
     8
 71
     3
 72
    11
 73
     7
 74
     5
 42
0.0000000001
 43
0.0000000001
 44
0.0000000001
 40
0.0
 40
0.0
 40
0.0
 40
0.0
 40
4.312498160920208
 40
9.037542836371839
 40
10.70197243170204
 40
12.8435364577787
 40
12.8435364577787
 40
12.8435364577787
 40
12.8435364577787
 10
90.26033901298218
 20
127.8491103585739
 30
0.0
 10
91.06858991493254
 20
128.9722831722738
 30
0.0
 10
92.76241142542199
 20
131.3260748813223
 30
0.0
 10
95.08328350902798
 20
134.9183418171924
 30
0.0
 10
93.30363807287
 20
137.5461300371717
 30
0.0
 10
91.99607896214002
 20
137.7400148616684
 30
0.0
 10
91.2603390129824
 20
137.8491103585734
 30
0.0
 11
90.26033901298218
 21
127.8491103585739
 31
0.0
 11
92.74568090300489
 21
131.3734139887452
 31
0.0
 11
94.26033901298216
 21
135.8491103585734
 31
0.0
 11
93.30494832131751
 21
137.2120316710825
 31
0.0
 11
91.2603390129824
 21
137.8491103585734
 31
0.0
  0
ARC
  5
3B33
102
{ACAD_REACTORS
330
3C81
102
}
330
2
100
AcDbEntity
  8
KIJUN
100
AcDbCircle
 10
85.28811674053292
 20
141.8491103585735
 30
0.0
 40
7.188006599296921
100
AcDbArc
 50
326.1871123500771
 51
33.81288764992292
  0
SPLINE
  5
3B34
102
{ACAD_REACTORS
330
3C81
102
}
330
2
100
AcDbEntity
  8
KIJUN
100
AcDbSpline
210
0.0
220
0.0
230
1.0
 70
     8
 71
     3
 72
    12
 73
     8
 74
     6
 42
0.0000000001
 43
0.0000000001
 44
0.0000000001
 40
0.0
 40
0.0
 40
0.0
 40
0.0
 40
2.908894759807099
 40
4.95688901046731
 40
7.414365652400394
 40
11.30271188554364
 40
14.90094815980664
 40
14.90094815980664
 40
14.90094815980664
 40
14.90094815980664
 10
91.2603390129824
 20
145.8491103585734
 30
0.0
 10
92.08900772804316
 20
146.3743349438435
 30
0.0
 10
93.50109691867272
 20
147.269341532162
 30
0.0
 10
94.83813688014265
 20
149.4570054102763
 30
0.0
 10
94.53518257466113
 20
152.6021146078388
 30
0.0
 10
90.76482504616285
 20
154.0620598814404
 30
0.0
 10
88.39792809004405
 20
153.242845164527
 30
0.0
 10
87.26033901298194
 20
152.8491103585736
 30
0.0
 11
91.2603390129824
 21
145.8491103585734
 31
0.0
 11
93.56788465381749
 21
147.6202404608234
 31
0.0
 11
94.56281921620449
 21
149.4103202543815
 31
0.0
 11
94.26033901298216
 21
151.8491103585736
 31
0.0
 11
90.7820670450816
 21
153.587172654959
 31
0.0
 11
87.26033901298194
 21
152.8491103585736
 31
0.0
  0
ARC
  5
3B35
102
{ACAD_REACTORS
330
3C81
102
}
330
2
100
AcDbEntity
  8
KIJUN
100
AcDbCircle
 10
83.03868025157759
 20
142.4517525452347
 30
0.0
 40
11.22174015901055
100
AcDbArc
 50
67.90127935475773
 51
133.7440196806393
  0
SPLINE
  5
3B36
102
{ACAD_REACTORS
330
3C81
102
}
330
2
100
AcDbEntity
  8
KIJUN
100
AcDbSpline
210
0.0
220
0.0
230
1.0
 70
     8
 71
     3
 72
     9
 73
     5
 74
     3
 42
0.0000000001
 43
0.0000000001
 44
0.0000000001
 40
0.0
 40
0.0
 40
0.0
 40
0.0
 40
4.68256226194338
 40
16.14387349089575
 40
16.14387349089575
 40
16.14387349089575
 40
16.14387349089575
 10
75.27954655814267
 20
150.5587431412419
 30
0.0
 10
74.79450002023884
 20
152.2560465362429
 30
0.0
 10
73.12222541777231
 20
158.1077682543422
 30
0.0
 10
66.80128973924235
 20
154.5850027627202
 30
0.0
 10
62.31375388790673
 20
152.0840223314215
 30
0.0
 11
75.27954655814267
 21
150.5587431412419
 31
0.0
 11
73.43331442058559
 21
154.8619763711781
 31
0.0
 11
62.31375388790673
 21
152.0840223314215
 31
0.0
  0
LINE
  5
3B37
102
{ACAD_REACTORS
330
3C81
102
}
330
2
100
AcDbEntity
  8
KIJUN
100
AcDbLine
 10
160.2656704775887
 20
40.84680270601798
 30
0.0
 11
159.8466538803035
 21
50.75813894412661
 31
0.0
  0
LINE
  5
3B38
102
{ACAD_REACTORS
330
3C81
102
}
330
2
100
AcDbEntity
  8
KIJUN
100
AcDbLine
 10
159.8466538803035
 20
50.75813894412661
 30
0.0
 11
159.1484069610259
 21
64.6171111738943
 31
0.0
  0
LINE
  5
3B39
102
{ACAD_REACTORS
330
3C81
102
}
330
2
100
AcDbEntity
  8
KIJUN
100
AcDbLine
 10
159.1484069610259
 20
64.6171111738943
 30
0.0
 11
163.2605042444755
 21
67.88975869965978
 31
0.0
  0
ARC
  5
3B3A
102
{ACAD_REACTORS
330
3C81
102
}
330
2
100
AcDbEntity
  8
KIJUN
100
AcDbCircle
 10
143.8474811900918
 20
45.63923632412502
 30
0.0
 40
6.219855223192126
100
AcDbArc
 50
357.6712596186016
 51
137.4546923530069
  0
SPLINE
  5
3B3B
102
{ACAD_REACTORS
330
3C81
102
}
330
2
100
AcDbEntity
  8
KIJUN
100
AcDbSpline
210
0.0
220
0.0
230
1.0
 70
     8
 71
     3
 72
    11
 73
     7
 74
     5
 42
0.0000000001
 43
0.0000000001
 44
0.0000000001
 40
0.0
 40
0.0
 40
0.0
 40
0.0
 40
1.621156143905932
 40
4.838531235283841
 40
10.5555804030819
 40
13.32679499931816
 40
13.32679499931816
 40
13.32679499931816
 40
13.32679499931816
 10
159.1484069610259
 20
64.6171111738943
 30
0.0
 10
158.6089942516465
 20
64.52661514089962
 30
0.0
 10
156.9990535603366
 20
64.25651908386034
 30
0.0
 10
153.5960986648208
 20
65.71387535285953
 30
0.0
 10
150.578595951822
 20
68.1304590409198
 30
0.0
 10
148.103043867379
 20
69.51569211611425
 30
0.0
 10
147.2948354680101
 20
69.96793750149371
 30
0.0
 11
159.1484069610259
 21
64.6171111738943
 31
0.0
 11
157.5357900523987
 21
64.45093672058172
 31
0.0
 11
154.4768036812864
 21
65.44798479362956
 31
0.0
 11
149.6888244090731
 21
68.5720695677476
 31
0.0
 11
147.2948354680101
 21
69.96793750149371
 31
0.0
  0
SPLINE
  5
3B3C
102
{ACAD_REACTORS
330
3C81
102
}
330
2
100
AcDbEntity
  8
KIJUN
100
AcDbSpline
210
0.0
220
0.0
230
1.0
 70
     8
 71
     3
 72
     9
 73
     5
 74
     3
 42
0.0000000001
 43
0.0000000001
 44
0.0000000001
 40
0.0
 40
0.0
 40
0.0
 40
0.0
 40
4.229064612592108
 40
6.856045963584346
 40
6.856045963584346
 40
6.856045963584346
 40
6.856045963584346
 10
155.0049548926864
 20
65.17425504552832
 30
0.0
 10
156.0428603931592
 20
64.20672192639226
 30
0.0
 10
157.7254849139364
 20
62.6381832201413
 30
0.0
 10
158.9248269108147
 20
60.68286413291019
 30
0.0
 10
159.3843700754895
 20
59.9336587155781
 30
0.0
 11
155.0049548926864
 21
65.17425504552832
 31
0.0
 11
157.9347880934018
 21
62.12449031469012
 31
0.0
 11
159.3843700754895
 21
59.9336587155781
 31
0.0
  0
LINE
  5
3B3D
102
{ACAD_REACTORS
330
3C81
102
}
330
2
100
AcDbEntity
  8
KIJUN
100
AcDbLine
 10
125.2603390129819
 20
83.84911035857342
 30
0.0
 11
105.2603390129856
 21
83.84911035857252
 31
0.0
  0
LINE
  5
3B3E
102
{ACAD_REACTORS
330
3C81
102
}
330
2
100
AcDbEntity
  8
KIJUN
100
AcDbLine
 10
78.27105075139832
 20
106.8491103585695
 30
0.0
 11
82.15333642793609
 21
92.36022296423337
 31
0.0
  0
LINE
  5
3B3F
102
{ACAD_REACTORS
330
3C81
102
}
330
2
100
AcDbEntity
  8
KIJUN
100
AcDbLine
 10
82.15333642793609
 20
92.36022296423337
 30
0.0
 11
91.45878647369807
 21
84.78337669115765
 31
0.0
  0
LINE
  5
3B40
102
{ACAD_REACTORS
330
3C81
102
}
330
2
100
AcDbEntity
  8
KIJUN
100
AcDbLine
 10
105.2603390129856
 20
83.84911035857252
 30
0.0
 11
91.45878647369807
 21
84.78337669115765
 31
0.0
  0
LINE
  5
3B41
102
{ACAD_REACTORS
330
3C81
102
}
330
2
100
AcDbEntity
  8
KIJUN
100
AcDbLine
 10
69.26033901298217
 20
45.84911035857388
 30
0.0
 11
69.26033901298217
 21
60.84911035860503
 31
0.0
  0
SPLINE
  5
3B42
102
{ACAD_REACTORS
330
3C81
102
}
330
2
100
AcDbEntity
  8
KIJUN
100
AcDbSpline
210
0.0
220
0.0
230
1.0
 70
     8
 71
     3
 72
     9
 73
     5
 74
     3
 42
0.0000000001
 43
0.0000000001
 44
0.0000000001
 40
0.0
 40
0.0
 40
0.0
 40
0.0
 40
14.57218867743328
 40
34.28432586227436
 40
34.28432586227436
 40
34.28432586227436
 40
34.28432586227436
 10
69.26033901298217
 20
60.84911035857388
 30
0.0
 10
70.59529281072542
 20
65.76196102510016
 30
0.0
 10
73.73606953452588
 20
77.32053859311631
 30
0.0
 10
84.98886959621229
 20
82.05896697846059
 30
0.0
 10
91.45878647369807
 20
84.78337669115765
 30
0.0
 11
69.26033901298217
 21
60.84911035857388
 31
0.0
 11
74.73070618187637
 21
74.35554459889798
 31
0.0
 11
91.45878647369807
 21
84.78337669115765
 31
0.0
  0
LINE
  5
3B43
102
{ACAD_REACTORS
330
3C81
102
}
330
2
100
AcDbEntity
  8
KIJUN
100
AcDbLine
 10
80.53931415416935
 20
79.48640239817499
 30
0.0
 11
82.15333642793609
 21
92.36022296423337
 31
0.0
  0
SPLINE
  5
3B44
102
{ACAD_REACTORS
330
3C81
102
}
330
2
100
AcDbEntity
  8
KIJUN
100
AcDbSpline
210
0.0
220
0.0
230
1.0
 70
     8
 71
     3
 72
    11
 73
     7
 74
     5
 42
0.0000000001
 43
0.0000000001
 44
0.0000000001
 40
0.0
 40
0.0
 40
0.0
 40
0.0
 40
8.198391160009569
 40
15.63803183815262
 40
23.02234998074919
 40
29.49697284835701
 40
29.49697284835701
 40
29.49697284835701
 40
29.49697284835701
 10
78.27105075139832
 20
106.8491103585695
 30
0.0
 10
77.17923625934577
 20
109.5217355728034
 30
0.0
 10
75.09665329217074
 20
114.6196379997463
 30
0.0
 10
78.73586988970294
 20
121.7329091139247
 30
0.0
 10
83.01995181921824
 20
128.2704374049339
 30
0.0
 10
87.95485155506378
 20
127.9832695126453
 30
0.0
 10
90.26033901298218
 20
127.8491103585739
 30
0.0
 11
78.27105075139832
 21
106.8491103585695
 31
0.0
 11
76.24741404291274
 21
114.7938263437129
 31
0.0
 11
78.90542844958407
 21
121.7424386392586
 31
0.0
 11
83.81253122108399
 21
127.260454298988
 31
0.0
 11
90.26033901298218
 21
127.8491103585739
 31
0.0
  0
ARC
  5
3B45
102
{ACAD_REACTORS
330
3C81
102
}
330
2
100
AcDbEntity
  8
KIJUN
100
AcDbCircle
 10
54.60649285914803
 20
152.5029565123938
 30
0.0
 40
8.353329067440975
100
AcDbArc
 50
23.61427206810605
 51
177.6250384842185
  0
ARC
  5
3B46
102
{ACAD_REACTORS
330
3C81
102
}
330
2
100
AcDbEntity
  8
KIJUN
100
AcDbCircle
 10
44.03904007652829
 20
173.4065124856227
 30
0.0
 40
20.67706340801933
100
AcDbArc
 50
153.6077331944813
 51
276.1670815422005
  0
SPLINE
  5
3B47
102
{ACAD_REACTORS
330
3C81
102
}
330
2
100
AcDbEntity
  8
KIJUN
100
AcDbSpline
210
0.0
220
0.0
230
1.0
 70
     8
 71
     3
 72
    13
 73
     9
 74
     0
 42
0.0000000001
 43
0.0000000001
 40
0.0
 40
0.0
 40
0.0
 40
0.0
 40
5.33757963662565
 40
8.554059635405957
 40
10.92034777076818
 40
13.6859080374023
 40
15.11699769846578
 40
19.87676139132237
 40
19.87676139132237
 40
19.87676139132237
 40
19.87676139132237
 10
18.26033901299036
 20
190.8491103585457
 30
0.0
 10
19.9147521149531
 20
191.4131742076129
 30
0.0
 10
22.56613144776509
 20
192.3171486925999
 30
0.0
 10
26.40330431715109
 20
193.0732764588743
 30
0.0
 10
28.77208737017816
 20
190.8569317360275
 30
0.0
 10
28.23754883801928
 20
188.4299400741297
 30
0.0
 10
26.65185668226115
 20
185.9240373592297
 30
0.0
 10
25.91427630461965
 20
184.074903953875
 30
0.0
 10
25.51711050574579
 20
182.597762463412
 30
0.0
  0
LINE
  5
3B48
102
{ACAD_REACTORS
330
3C81
102
}
330
2
100
AcDbEntity
  8
KIJUN
100
AcDbLine
 10
26.77145161865804
 20
147.7421077735012
 30
0.0
 11
19.1946053455805
 21
157.0475578192618
 31
0.0
  0
LINE
  5
3B49
102
{ACAD_REACTORS
330
3C81
102
}
330
2
100
AcDbEntity
  8
KIJUN
100
AcDbLine
 10
41.26033901299467
 20
143.8598220969661
 30
0.0
 11
26.77145161865804
 21
147.7421077735012
 31
0.0
  0
SPLINE
  5
3B4A
102
{ACAD_REACTORS
330
3C81
102
}
330
2
100
AcDbEntity
  8
KIJUN
100
AcDbSpline
210
0.0
220
0.0
230
1.0
 70
     8
 71
     3
 72
    11
 73
     7
 74
     5
 42
0.0000000001
 43
0.0000000001
 44
0.0000000001
 40
0.0
 40
0.0
 40
0.0
 40
0.0
 40
8.19839116000956
 40
15.63803183815281
 40
23.02234998074945
 40
29.49697284835691
 40
29.49697284835691
 40
29.49697284835691
 40
29.49697284835691
 10
41.26033901299467
 20
143.8598220969661
 30
0.0
 10
43.93296422722881
 20
142.7680076049143
 30
0.0
 10
49.03086665417214
 20
140.6854246377405
 30
0.0
 10
56.14413776835011
 20
144.3246412352736
 30
0.0
 10
62.68166605935852
 20
148.6087231647903
 30
0.0
 10
62.39449816706872
 20
153.5436229006356
 30
0.0
 10
62.26033901299672
 20
155.8491103585538
 30
0.0
 11
41.26033901299467
 21
143.8598220969661
 31
0.0
 11
49.20505499813851
 21
141.8361853884824
 31
0.0
 11
56.15366729368395
 21
144.4941997951548
 31
0.0
 11
61.67168295341241
 21
149.4013025666559
 31
0.0
 11
62.26033901299672
 21
155.8491103585538
 31
0.0
  0
SPLINE
  5
3B4B
102
{ACAD_REACTORS
330
3C81
102
}
330
2
100
AcDbEntity
  8
KIJUN
100
AcDbSpline
210
0.0
220
0.0
230
1.0
 70
     8
 71
     3
 72
    14
 73
    10
 74
     8
 42
0.0000000001
 43
0.0000000001
 44
0.0000000001
 40
0.0
 40
0.0
 40
0.0
 40
0.0
 40
6.20791406870162
 40
16.22683827136714
 40
24.59487851935368
 40
32.47784006275967
 40
33.04685431282343
 40
36.43281064277515
 40
40.2558289684677
 40
40.2558289684677
 40
40.2558289684677
 40
40.2558289684677
 10
77.67477542548033
 20
119.4881163493606
 30
0.0
 10
75.75090882281597
 20
120.2797194410682
 30
0.0
 10
70.72212268440711
 20
122.3488871521704
 30
0.0
 10
61.51795600657095
 20
120.099237191738
 30
0.0
 10
55.80837817552833
 20
127.8214461148201
 30
0.0
 10
56.45003191095963
 20
136.0183700025585
 30
0.0
 10
52.416664499087
 20
136.2491092030024
 30
0.0
 10
50.04094822947002
 20
138.543583997281
 30
0.0
 10
50.95598823777954
 20
140.9722282185606
 30
0.0
 10
51.44124652867538
 20
142.2601716235593
 30
0.0
 11
77.67477542548033
 21
119.4881163493606
 31
0.0
 11
71.75040460127809
 21
121.3428474408465
 31
0.0
 11
61.75663471501355
 21
122.0523582858298
 31
0.0
 11
56.80383732638086
 21
128.7972745654492
 31
0.0
 11
53.94354295929668
 21
136.1430079412562
 31
0.0
 11
53.37932822160758
 21
136.2167571551506
 31
0.0
 11
50.86206150647365
 21
138.4812810682986
 31
0.0
 11
51.44124652867538
 21
142.2601716235593
 31
0.0
  0
SPLINE
  5
3B4C
102
{ACAD_REACTORS
330
3C81
102
}
330
2
100
AcDbEntity
  8
KIJUN
100
AcDbSpline
210
0.0
220
0.0
230
1.0
 70
     8
 71
     3
 72
    12
 73
     8
 74
     0
 42
0.0000000001
 43
0.0000000001
 40
0.0
 40
0.0
 40
0.0
 40
0.0
 40
4.914452128768203
 40
11.66838123808553
 40
17.05404312944311
 40
21.2193266132773
 40
24.83098215265219
 40
24.83098215265219
 40
24.83098215265219
 40
24.83098215265219
 10
55.28029781212478
 20
135.5356643128998
 30
0.0
 10
56.9221477441996
 20
135.8446627669241
 30
0.0
 10
60.82039121899777
 20
136.5783176421905
 30
0.0
 10
66.27155602773462
 20
133.5514371937138
 30
0.0
 10
69.35044635675137
 20
129.0832287759777
 30
0.0
 10
71.44130162889121
 20
125.1274398635167
 30
0.0
 10
71.70989874276608
 20
122.5569320207571
 30
0.0
 10
71.75040460127809
 20
121.3428474408472
 30
0.0
  0
ARC
  5
3B4D
102
{ACAD_REACTORS
330
3C81
102
}
330
2
100
AcDbEntity
  8
KIJUN
100
AcDbCircle
 10
70.72197008411137
 20
122.9668474558075
 30
0.0
 40
6.836280787618543
100
AcDbArc
 50
105.1809403008194
 51
175.5770307984429
  0
SPLINE
  5
3B4E
102
{ACAD_REACTORS
330
3C81
102
}
330
2
100
AcDbEntity
  8
KIJUN
100
AcDbSpline
210
0.0
220
0.0
230
1.0
 70
     8
 71
     3
 72
     9
 73
     5
 74
     3
 42
0.0000000001
 43
0.0000000001
 44
0.0000000001
 40
0.0
 40
0.0
 40
0.0
 40
0.0
 40
6.669842881655634
 40
16.63148361461745
 40
16.63148361461745
 40
16.63148361461745
 40
16.63148361461745
 10
91.2603390129824
 20
137.8491103585734
 30
0.0
 10
89.88019122230003
 20
136.1060754781627
 30
0.0
 10
86.43874503327271
 20
131.7597577960792
 30
0.0
 10
82.99408730809512
 20
127.4159848358944
 30
0.0
 10
80.93086531892266
 20
124.8142262280885
 30
0.0
 11
91.2603390129824
 21
137.8491103585734
 31
0.0
 11
87.11937912700648
 21
132.6204149870002
 31
0.0
 11
80.93086531892266
 21
124.8142262280885
 31
0.0
  0
SPLINE
  5
3B4F
102
{ACAD_REACTORS
330
3C81
102
}
330
2
100
AcDbEntity
  8
KIJUN
100
AcDbSpline
210
0.0
220
0.0
230
1.0
 70
     8
 71
     3
 72
    12
 73
     8
 74
     6
 42
0.0000000001
 43
0.0000000001
 44
0.0000000001
 40
0.0
 40
0.0
 40
0.0
 40
0.0
 40
3.810804303323331
 40
6.736891265787928
 40
10.21529446625586
 40
12.98529385890987
 40
19.55540386348696
 40
19.55540386348696
 40
19.55540386348696
 40
19.55540386348696
 10
94.21853850010336
 20
151.9175213914448
 30
0.0
 10
93.04200812896704
 20
151.568310989162
 30
0.0
 10
90.96209099065299
 20
150.9509629644919
 30
0.0
 10
87.5931426989265
 20
148.7253945649493
 30
0.0
 10
89.23982212383998
 20
145.4128051601811
 30
0.0
 10
90.33774973371071
 20
141.4209005430304
 30
0.0
 10
90.02522410293806
 20
138.245392164949
 30
0.0
 10
89.80538430384161
 20
136.0116453770756
 30
0.0
 11
94.21853850010336
 21
151.9175213914448
 31
0.0
 11
90.64355183315058
 21
150.5977866569858
 31
0.0
 11
88.4561346748784
 21
148.6542869560335
 31
0.0
 11
89.18527349595468
 21
145.2531628176603
 31
0.0
 11
89.9144130120743
 21
142.5808506724691
 31
0.0
 11
89.80538430384161
 21
136.0116453770756
 31
0.0
  0
SPLINE
  5
3B50
102
{ACAD_REACTORS
330
3C81
102
}
330
2
100
AcDbEntity
  8
KIJUN
100
AcDbSpline
210
0.0
220
0.0
230
1.0
 70
     8
 71
     3
 72
    10
 73
     6
 74
     4
 42
0.0000000001
 43
0.0000000001
 44
0.0000000001
 40
0.0
 40
0.0
 40
0.0
 40
0.0
 40
6.556527076017604
 40
13.77354796839009
 40
20.05168273500105
 40
20.05168273500105
 40
20.05168273500105
 40
20.05168273500105
 10
75.27954655814244
 20
150.5587431412419
 30
0.0
 10
74.63434592548799
 20
148.4626634406509
 30
0.0
 10
73.27894820348245
 20
144.059348397957
 30
0.0
 10
69.24177926293754
 20
138.4994320543237
 30
0.0
 10
65.53386595534698
 20
135.9228496692955
 30
0.0
 10
63.80889293271514
 20
134.7241875820068
 30
0.0
 11
75.27954655814244
 21
150.5587431412419
 31
0.0
 11
73.02268691234337
 21
144.4028815575384
 31
0.0
 11
68.76937399503606
 21
138.5723824546822
 31
0.0
 11
63.80889293271514
 21
134.7241875820068
 31
0.0
  0
SPLINE
  5
3B51
102
{ACAD_REACTORS
330
3C81
102
}
330
2
100
AcDbEntity
  8
KIJUN
100
AcDbSpline
210
0.0
220
0.0
230
1.0
 70
     8
 71
     3
 72
    10
 73
     6
 74
     4
 42
0.0000000001
 43
0.0000000001
 44
0.0000000001
 40
0.0
 40
0.0
 40
0.0
 40
0.0
 40
8.045087466619561
 40
12.97904885940845
 40
17.10537050366514
 40
17.10537050366514
 40
17.10537050366514
 40
17.10537050366514
 10
65.66351615244127
 20
153.8964508805541
 30
0.0
 10
65.42675563038852
 20
151.079893436598
 30
0.0
 10
65.04479255087551
 20
146.5359730836975
 30
0.0
 10
60.12392035111168
 20
142.7999050694934
 30
0.0
 10
57.1299389796199
 20
142.3155606674663
 30
0.0
 10
55.7663910545524
 20
142.0949758599954
 30
0.0
 11
65.66351615244127
 21
153.8964508805541
 31
0.0
 11
63.66539946732825
 21
146.103443626725
 31
0.0
 11
59.77665700312434
 21
143.0667254849429
 31
0.0
 11
55.7663910545524
 21
142.0949758599954
 31
0.0
  0
SPLINE
  5
3B52
102
{ACAD_REACTORS
330
3C81
102
}
330
2
100
AcDbEntity
  8
KIJUN
100
AcDbSpline
210
0.0
220
0.0
230
1.0
 70
     8
 71
     3
 72
     9
 73
     5
 74
     3
 42
0.0000000001
 43
0.0000000001
 44
0.0000000001
 40
0.0
 40
0.0
 40
0.0
 40
0.0
 40
2.676269091906663
 40
5.280791948692681
 40
5.280791948692681
 40
5.280791948692681
 40
5.280791948692681
 10
55.7663910545524
 20
142.0949758599954
 30
0.0
 10
54.84047500341728
 20
142.1650175151856
 30
0.0
 10
53.01346514002705
 20
142.3032231275884
 30
0.0
 10
51.59230074603556
 20
141.1503731701001
 30
0.0
 10
50.89137270657409
 20
140.5817796534654
 30
0.0
 11
55.7663910545524
 21
142.0949758599954
 31
0.0
 11
53.09287995880902
 21
141.9735070441127
 31
0.0
 11
50.89137270657409
 21
140.5817796534654
 31
0.0
  0
ARC
  5
3B53
102
{ACAD_REACTORS
330
3C81
102
}
330
2
100
AcDbEntity
  8
KIJUN
100
AcDbCircle
 10
40.44448781122503
 20
161.8478072655728
 30
0.0
 40
43.12130899725791
100
AcDbArc
 50
313.2392954786653
 51
342.8607350859751
  0
ARC
  5
3B54
102
{ACAD_REACTORS
330
3C81
102
}
330
2
100
AcDbEntity
  8
KIJUN
100
AcDbCircle
 10
67.75879440328356
 20
147.8055138358049
 30
0.0
 40
21.78882011047008
100
AcDbArc
 50
282.6666040577634
 51
338.0632968985537
  0
ARC
  5
3B55
102
{ACAD_REACTORS
330
3C81
102
}
330
2
100
AcDbEntity
  8
KIJUN
100
AcDbCircle
 10
62.73217416040677
 20
149.3267238351143
 30
0.0
 40
22.61554130379886
100
AcDbArc
 50
293.6585434826015
 51
348.9967740455566
  0
SPLINE
  5
3B56
102
{ACAD_REACTORS
330
3C81
102
}
330
2
100
AcDbEntity
  8
KIJUN
100
AcDbSpline
210
0.0
220
0.0
230
1.0
 70
     8
 71
     3
 72
    11
 73
     7
 74
     0
 42
0.0000000001
 43
0.0000000001
 40
0.0
 40
0.0
 40
0.0
 40
0.0
 40
4.789165631479916
 40
9.304648877748356
 40
14.03892271824898
 40
15.3169602545782
 40
15.3169602545782
 40
15.3169602545782
 40
15.3169602545782
 10
18.6709812378873
 20
84.25975258347902
 30
0.0
 10
20.36364716226637
 20
84.55962470294414
 30
0.0
 10
23.65224966750282
 20
85.14223240427511
 30
0.0
 10
26.96863373909867
 20
81.06411456214667
 30
0.0
 10
27.35486447023425
 20
79.52773387916889
 30
0.0
 10
26.72634570134744
 20
77.49520134039156
 30
0.0
 10
25.05502566708071
 20
75.98119471724524
 30
0.0
  0
SPLINE
  5
3B57
102
{ACAD_REACTORS
330
3C81
102
}
330
2
100
AcDbEntity
  8
KIJUN
100
AcDbSpline
210
0.0
220
0.0
230
1.0
 70
     8
 71
     3
 72
    10
 73
     6
 74
     0
 42
0.0000000001
 43
0.0000000001
 40
0.0
 40
0.0
 40
0.0
 40
0.0
 40
3.862388385493702
 40
8.345652591473944
 40
12.38420834559641
 40
12.38420834559641
 40
12.38420834559641
 40
12.38420834559641
 10
-23.2234608413022
 20
42.36531050428905
 30
0.0
 10
-22.02927489811202
 20
42.86746268174127
 30
0.0
 10
-19.44893858369107
 20
43.95248759451445
 30
0.0
 10
-15.29173465655492
 20
44.26877405651069
 30
0.0
 10
-12.51029558137668
 20
44.84536715111701
 30
0.0
 10
-11.19791225189294
 20
45.14472820945323
 30
0.0
  0
SPLINE
  5
3B58
102
{ACAD_REACTORS
330
3C81
102
}
330
2
100
AcDbEntity
  8
KIJUN
100
AcDbSpline
210
0.0
220
0.0
230
1.0
 70
     8
 71
     3
 72
    10
 73
     6
 74
     4
 42
0.0000000001
 43
0.0000000001
 44
0.0000000001
 40
0.0
 40
0.0
 40
0.0
 40
0.0
 40
3.883820335902892
 40
11.09413778573068
 40
21.33468403398274
 40
21.33468403398274
 40
21.33468403398274
 40
21.33468403398274
 10
-21.67783508928971
 20
41.60164966255504
 30
0.0
 10
-20.41171655407703
 20
41.88865607170848
 30
0.0
 10
-16.79504732948186
 20
42.70849024866604
 30
0.0
 10
-9.481067136944119
 20
41.67149699936296
 30
0.0
 10
-4.25117062181809
 20
44.63625800005852
 30
0.0
 10
-1.182153634274186
 20
46.37604421740073
 30
0.0
 11
-21.67783508928971
 21
41.60164966255504
 31
0.0
 11
-17.85660636699993
 21
42.29610733118605
 31
0.0
 11
-10.64837941165535
 21
42.46972152281526
 31
0.0
 11
-1.182153634274186
 21
46.37604421740073
 31
0.0
  0
SPLINE
  5
3B59
102
{ACAD_REACTORS
330
3C81
102
}
330
2
100
AcDbEntity
  8
KIJUN
100
AcDbSpline
210
0.0
220
0.0
230
1.0
 70
     8
 71
     3
 72
    11
 73
     7
 74
     5
 42
0.0000000001
 43
0.0000000001
 44
0.0000000001
 40
0.0
 40
0.0
 40
0.0
 40
0.0
 40
4.427416977295488
 40
6.951710140489744
 40
9.438555806709306
 40
10.52483606447143
 40
10.52483606447143
 40
10.52483606447143
 40
10.52483606447143
 10
-1.182153634274186
 20
46.37604421740073
 30
0.0
 10
-2.241401133811109
 20
45.3465310719644
 30
0.0
 10
-3.904578923836538
 20
43.73004068725502
 30
0.0
 10
-6.572470255134476
 20
41.99418377444211
 30
0.0
 10
-9.049994403543308
 20
42.35359501926893
 30
0.0
 10
-9.578874147484071
 20
41.19986148892623
 30
0.0
 10
-9.739660987017828
 20
40.84911035857342
 30
0.0
 11
-1.182153634274186
 21
46.37604421740073
 31
0.0
 11
-4.482305491465126
 21
43.42460070441873
 31
0.0
 11
-6.740304313501951
 21
42.29610733118628
 31
0.0
 11
-9.171995887266916
 21
41.77526430524133
 31
0.0
 11
-9.739660987017828
 21
40.84911035857342
 31
0.0
  0
ELLIPSE
  5
3B5A
102
{ACAD_REACTORS
330
3C81
102
}
330
2
100
AcDbEntity
  8
KIJUN
100
AcDbEllipse
 10
32.45956347198205
 20
98.0483348156595
 30
0.0
 11
-19.4454364816731
 21
19.44543648167311
 31
0.0
210
0.0
220
0.0
230
1.0
 40
0.8181818182220826
 41
1.95737211675537
 42
4.055295408141351
  0
SPLINE
  5
3B5B
102
{ACAD_REACTORS
330
3C81
102
}
330
2
100
AcDbEntity
  8
KIJUN
100
AcDbSpline
210
0.0
220
0.0
230
1.0
 70
     8
 71
     3
 72
    18
 73
    14
 74
     0
 42
0.0000000001
 43
0.0000000001
 40
2.776977998178755
 40
2.776977998178755
 40
2.776977998178755
 40
2.776977998178755
 40
2.964032758319999
 40
2.964032758319999
 40
3.219467197786193
 40
3.219467197786193
 40
3.474901637252387
 40
3.474901637252387
 40
3.730336076718581
 40
3.730336076718581
 40
3.985770516184775
 40
3.985770516184775
 40
4.055297468883839
 40
4.055297468883839
 40
4.055297468883839
 40
4.055297468883839
 10
47.00464256100793
 20
68.56986114106669
 30
0.0
 10
48.76810895461301
 20
69.21188728333826
 30
0.0
 10
50.45454115438667
 20
70.04036474779994
 30
0.0
 10
54.168003754099
 20
72.41790349854866
 30
0.0
 10
56.09192024296351
 20
74.11953665721151
 30
0.0
 10
59.32822418875673
 20
78.03823357720469
 30
0.0
 10
60.63952206333226
 20
80.2531359725747
 30
0.0
 10
62.56186433217942
 20
84.9959363618573
 30
0.0
 10
63.1739263522494
 20
87.52226712687642
 30
0.0
 10
63.6973968710787
 20
92.69250982285464
 30
0.0
 10
63.60995854681312
 20
95.33636488194614
 30
0.0
 10
63.08342533454982
 20
98.67058019068876
 30
0.0
 10
62.94661817892881
 20
99.38227131747366
 30
0.0
 10
62.78636046816894
 20
100.0908605662985
 30
0.0
  0
SPLINE
  5
3B5C
102
{ACAD_REACTORS
330
3C81
102
}
330
2
100
AcDbEntity
  8
KIJUN
100
AcDbSpline
210
0.0
220
0.0
230
1.0
 70
     8
 71
     3
 72
    10
 73
     6
 74
     0
 42
0.0000000001
 43
0.0000000001
 40
0.0
 40
0.0
 40
0.0
 40
0.0
 40
5.999888852774693
 40
15.44839251724818
 40
20.93761825673844
 40
20.93761825673881
 40
20.93761825673881
 40
20.93761825673881
 10
62.78636046816917
 20
100.0908605662985
 30
0.0
 10
60.74512430012908
 20
99.23897604943958
 30
0.0
 10
55.48939068271341
 20
97.04556101814004
 30
0.0
 10
50.80593682207347
 20
105.1469214964641
 30
0.0
 10
51.20710569335677
 20
110.3260917336654
 30
0.0
 10
50.33113992737765
 20
111.8191828216004
 30
0.0
  0
ARC
  5
3B5D
102
{ACAD_REACTORS
330
3C81
102
}
330
2
100
AcDbEntity
  8
KIJUN
100
AcDbCircle
 10
58.46559484072042
 20
105.717729287007
 30
0.0
 40
7.0944109838257
100
AcDbArc
 50
307.5199740216206
 51
78.98846686811102
  0
SPLINE
  5
3B5E
102
{ACAD_REACTORS
330
3C81
102
}
330
2
100
AcDbEntity
  8
KIJUN
100
AcDbSpline
210
0.0
220
0.0
230
1.0
 70
     8
 71
     3
 72
    11
 73
     7
 74
     0
 42
0.0000000001
 43
0.0000000001
 40
0.0
 40
0.0
 40
0.0
 40
0.0
 40
2.109503522317044
 40
8.594927690037248
 40
14.667018128423
 40
17.65912610327059
 40
17.65912610327059
 40
17.65912610327059
 40
17.65912610327059
 10
59.82067405071063
 20
112.6815233349439
 30
0.0
 10
60.12744127336361
 20
113.3545564933267
 30
0.0
 10
61.37732877934979
 20
116.0967521180789
 30
0.0
 10
67.76583187013364
 20
115.0704864666072
 30
0.0
 10
71.89172172361179
 20
111.9772275473777
 30
0.0
 10
73.25143311938234
 20
109.3061664049321
 30
0.0
 10
73.63432240026861
 20
108.3770210519695
 30
0.0
  0
ARC
  5
3B5F
102
{ACAD_REACTORS
330
3C81
102
}
330
2
100
AcDbEntity
  8
KIJUN
100
AcDbCircle
 10
6.306332103952968
 20
65.51934558268297
 30
0.0
 40
5.313179957778427
100
AcDbArc
 50
166.9488964094375
 51
241.3047823050896
  0
ARC
  5
3B60
102
{ACAD_REACTORS
330
3C81
102
}
330
2
100
AcDbEntity
  8
KIJUN
100
AcDbCircle
 10
-3.011634772204729
 20
67.03897095329878
 30
0.0
 40
10.7697670125905
100
AcDbArc
 50
242.034595945376
 51
319.1431567134123
  0
SPLINE
  5
3B61
102
{ACAD_REACTORS
330
3C81
102
}
330
2
100
AcDbEntity
  8
KIJUN
100
AcDbSpline
210
0.0
220
0.0
230
1.0
 70
     8
 71
     3
 72
     9
 73
     5
 74
     3
 42
0.0000000001
 43
0.0000000001
 44
0.0000000001
 40
0.0
 40
0.0
 40
0.0
 40
0.0
 40
6.885300531750625
 40
22.46000195726487
 40
22.46000195726487
 40
22.46000195726487
 40
22.46000195726487
 10
-12.30463214447366
 20
53.28413920111782
 30
0.0
 10
-10.0106408556368
 20
52.52516724764848
 30
0.0
 10
-2.52759075497201
 20
50.04938402194574
 30
0.0
 10
3.313110731524574
 20
56.21250395388151
 30
0.0
 10
7.363296565917039
 20
60.48626817581592
 30
0.0
 11
-12.30463214447366
 21
53.28413920111782
 31
0.0
 11
-5.577002924767498
 21
51.81909022764242
 31
0.0
 11
7.363296565917039
 21
60.48626817581592
 31
0.0
  0
SPLINE
  5
3B62
102
{ACAD_REACTORS
330
3C81
102
}
330
2
100
AcDbEntity
  8
KIJUN
100
AcDbSpline
210
0.0
220
0.0
230
1.0
 70
     8
 71
     3
 72
    13
 73
     9
 74
     7
 42
0.0000000001
 43
0.0000000001
 44
0.0000000001
 40
0.0
 40
0.0
 40
0.0
 40
0.0
 40
12.39254974266646
 40
22.75320464059906
 40
27.22954204004886
 40
33.80443334534633
 40
40.27233377839166
 40
45.27233377839153
 40
45.27233377839153
 40
45.27233377839153
 40
45.27233377839153
 10
8.260339012981944
 20
43.84911035857342
 30
0.0
 10
11.55678327374639
 20
46.68083156736277
 30
0.0
 10
17.60918349879992
 20
51.87998214465512
 30
0.0
 10
17.81833422723173
 20
61.50727252870407
 30
0.0
 10
16.85793268846879
 20
68.79688132993933
 30
0.0
 10
11.15108129230816
 20
72.4819506041782
 30
0.0
 10
4.665346629709262
 20
71.03636917667326
 30
0.0
 10
2.203681645963854
 20
68.0299608646913
 30
0.0
 10
1.130396698070512
 20
66.71916804366245
 30
0.0
 11
8.260339012981944
 21
43.84911035857342
 31
0.0
 11
16.40610490736014
 21
53.1883708816795
 31
0.0
 11
17.48345205298903
 21
63.49285985696886
 31
0.0
 11
16.44275230200207
 21
67.84654112022284
 31
0.0
 11
11.00448589693712
 21
71.54173450948113
 31
0.0
 11
4.665930604003165
 21
70.2547019495951
 31
0.0
 11
1.130396698070512
 21
66.71916804366245
 31
0.0
  0
SPLINE
  5
3B63
102
{ACAD_REACTORS
330
3C81
102
}
330
2
100
AcDbEntity
  8
KIJUN
100
AcDbSpline
210
0.0
220
0.0
230
1.0
 70
     8
 71
     3
 72
    12
 73
     8
 74
     6
 42
0.0000000001
 43
0.0000000001
 44
0.0000000001
 40
0.0
 40
0.0
 40
0.0
 40
0.0
 40
2.947420551965103
 40
8.99278145005338
 40
12.37039634837801
 40
16.72676297746117
 40
31.3917610965941
 40
31.3917610965941
 40
31.3917610965941
 40
31.3917610965941
 10
3.755207243392192
 20
60.85869721474458
 30
0.0
 10
4.733614898960922
 20
60.18356967043186
 30
0.0
 10
7.718803493687346
 20
58.12370941300523
 30
0.0
 10
9.291221110832395
 20
67.23198810716076
 30
0.0
 10
12.44334213577846
 20
61.30436370273779
 30
0.0
 10
14.05182139808434
 20
54.68114390726824
 30
0.0
 10
10.78159898453086
 20
48.56472041845209
 30
0.0
 10
8.260339012981944
 20
43.84911035857342
 30
0.0
 11
3.755207243392192
 21
60.85869721474458
 31
0.0
 11
6.492546378239353
 21
59.76587409503102
 31
0.0
 11
10.02454785000498
 21
64.67213071200288
 31
0.0
 11
11.9879361785778
 21
61.92378781625487
 31
0.0
 11
13.06837717156884
 21
57.70352983034289
 31
0.0
 11
8.260339012981944
 21
43.84911035857342
 31
0.0
  0
SPLINE
  5
3B64
102
{ACAD_REACTORS
330
3C81
102
}
330
2
100
AcDbEntity
  8
KIJUN
100
AcDbSpline
210
0.0
220
0.0
230
1.0
 70
     8
 71
     3
 72
    10
 73
     6
 74
     4
 42
0.0000000001
 43
0.0000000001
 44
0.0000000001
 40
0.0
 40
0.0
 40
0.0
 40
0.0
 40
8.375930264411206
 40
19.48524085526529
 40
32.02370396037164
 40
32.02370396037164
 40
32.02370396037164
 40
32.02370396037164
 10
-18.66859317515229
 20
46.92017817043896
 30
0.0
 10
-15.94649606779458
 20
45.98637680353252
 30
0.0
 10
-9.613979428579881
 20
43.81403964565783
 30
0.0
 10
0.9687362627319089
 20
49.38564632269228
 30
0.0
 10
4.834233220854969
 20
56.30946548869731
 30
0.0
 10
6.883787297931007
 20
59.98059547647338
 30
0.0
 11
-18.66859317515229
 21
46.92017817043896
 31
0.0
 11
-10.48259048065722
 21
45.14660333976533
 31
0.0
 11
-0.3751344719013332
 21
49.75703876769697
 31
0.0
 11
6.883787297931007
 21
59.98059547647338
 31
0.0
  0
LINE
  5
3B65
102
{ACAD_REACTORS
330
3C81
102
}
330
2
100
AcDbEntity
  8
KIJUN
100
AcDbLine
 10
18.67098123800758
 20
84.2597525835986
 30
0.0
 11
13.01412698851516
 21
78.60289833410641
 31
0.0
  0
SPLINE
  5
3B66
102
{ACAD_REACTORS
330
3C81
102
}
330
2
100
AcDbEntity
  8
KIJUN
100
AcDbSpline
210
0.0
220
0.0
230
1.0
 70
     8
 71
     3
 72
    11
 73
     7
 74
     5
 42
0.0000000001
 43
0.0000000001
 44
0.0000000001
 40
0.0
 40
0.0
 40
0.0
 40
0.0
 40
4.908950163247892
 40
11.87935801347416
 40
24.05297916670093
 40
43.23286437883834
 40
43.23286437883834
 40
43.23286437883834
 40
43.23286437883834
 10
13.01412698851516
 20
78.60289833410641
 30
0.0
 10
12.42212973612936
 20
76.94855496397306
 30
0.0
 10
10.98953273061582
 20
72.94514557551251
 30
0.0
 10
17.91386215394638
 20
66.57465923424283
 30
0.0
 10
30.47531979764946
 20
63.50359470468942
 30
0.0
 10
40.73095889682394
 20
66.64696608750986
 30
0.0
 10
47.00464256100793
 20
68.56986114106646
 30
0.0
 11
13.01412698851516
 21
78.60289833410641
 31
0.0
 11
12.06674187624946
 21
73.78623422350987
 31
0.0
 11
16.51721538854724
 21
68.42154680346087
 31
0.0
 11
28.17568711830598
 21
64.9176790963825
 31
0.0
 11
47.00464256100793
 21
68.56986114106646
 31
0.0
  0
ELLIPSE
  5
3B67
102
{ACAD_REACTORS
330
3C81
102
}
330
2
100
AcDbEntity
  8
KIJUN
100
AcDbEllipse
 10
32.45956347198205
 20
98.0483348156595
 30
0.0
 11
-19.4454364816731
 21
19.44543648167311
 31
0.0
210
0.0
220
0.0
230
1.0
 40
0.8181818182220826
 41
4.606750689032431
 42
4.712388980384689
  0
SPLINE
  5
3B68
102
{ACAD_REACTORS
330
3C81
102
}
330
2
100
AcDbEntity
  8
KIJUN
100
AcDbSpline
210
0.0
220
0.0
230
1.0
 70
     8
 71
     3
 72
     8
 73
     4
 74
     0
 42
0.0000000001
 43
0.0000000001
 40
7.853981844473644
 40
7.853981844473644
 40
7.853981844473644
 40
7.853981844473644
 40
7.868758038269795
 40
7.868758038269795
 40
7.868758038269795
 40
7.868758038269795
 10
12.30733939697836
 20
77.89611074256985
 30
0.0
 10
12.42022135123341
 20
77.78324566518771
 30
0.0
 10
12.53378407931234
 20
77.67106134115832
 30
0.0
 10
12.64801691819355
 20
77.55956802922722
 30
0.0
  0
ARC
  5
3B69
102
{ACAD_REACTORS
330
3C81
102
}
330
2
100
AcDbEntity
  8
KIJUN
100
AcDbCircle
 10
8.341243474135694
 20
56.93015974709081
 30
0.0
 40
14.61626702426019
100
AcDbArc
 50
285.553167129235
 51
18.20499464541646
  0
ARC
  5
3B6A
102
{ACAD_REACTORS
330
3C81
102
}
330
2
100
AcDbEntity
  8
KIJUN
100
AcDbCircle
 10
17.35075525356376
 20
55.23489046877219
 30
0.0
 40
21.56648168050055
100
AcDbArc
 50
321.6345428098856
 51
15.71194808509588
  0
ARC
  5
3B6B
102
{ACAD_REACTORS
330
3C81
102
}
330
2
100
AcDbEntity
  8
KIJUN
100
AcDbCircle
 10
21.71216708612894
 20
54.95951775416338
 30
0.0
 40
25.75708272026826
100
AcDbArc
 50
326.7819843168249
 51
14.21007908252637
  0
ARC
  5
3B6C
102
{ACAD_REACTORS
330
3C81
102
}
330
2
100
AcDbEntity
  8
KIJUN
100
AcDbCircle
 10
32.49686087271732
 20
52.66437337851235
 30
0.0
 40
31.50935412409282
100
AcDbArc
 50
347.5085850116346
 51
30.15051456917763
  0
ARC
  5
3B6D
102
{ACAD_REACTORS
330
3C81
102
}
330
2
100
AcDbEntity
  8
KIJUN
100
AcDbCircle
 10
56.53123854719513
 20
61.63839342640724
 30
0.0
 40
12.75354720966916
100
AcDbArc
 50
356.4518494222197
 51
56.64733925126578
  0
ARC
  5
3B6E
102
{ACAD_REACTORS
330
3C81
102
}
330
2
100
AcDbEntity
  8
KIJUN
100
AcDbCircle
 10
65.2395014826194
 20
79.73421132307047
 30
0.0
 40
9.984605415319316
100
AcDbArc
 50
274.6663551854793
 51
20.0545704008208
  0
ARC
  5
3B6F
102
{ACAD_REACTORS
330
3C81
102
}
330
2
100
AcDbEntity
  8
KIJUN
100
AcDbCircle
 10
70.08954817430719
 20
90.16336149534074
 30
0.0
 40
8.341894184172057
100
AcDbArc
 50
302.8840725307968
 51
50.92813676225982
  0
ARC
  5
3B70
102
{ACAD_REACTORS
330
3C81
102
}
330
2
100
AcDbEntity
  8
KIJUN
100
AcDbCircle
 10
65.81325986320587
 20
101.2418306445614
 30
0.0
 40
10.58678238931012
100
AcDbArc
 50
334.2331027557254
 51
42.37433797925478
  0
ARC
  5
3B71
102
{ACAD_REACTORS
330
3C81
102
}
330
2
100
AcDbEntity
  8
KIJUN
100
AcDbCircle
 10
70.32461915633518
 20
90.69633329440742
 30
0.0
 40
4.804654908616647
100
AcDbArc
 50
42.1837228246183
 51
139.4525078924696
  0
ARC
  5
3B72
102
{ACAD_REACTORS
330
3C81
102
}
330
2
100
AcDbEntity
  8
KIJUN
100
AcDbCircle
 10
71.24511792849137
 20
77.29568709971798
 30
0.0
 40
13.42661095833742
100
AcDbArc
 50
76.83267528393109
 51
106.6143734562583
  0
ARC
  5
3B73
102
{ACAD_REACTORS
330
3C81
102
}
330
2
100
AcDbEntity
  8
KIJUN
100
AcDbCircle
 10
81.26834918242764
 20
130.4908825195675
 30
0.0
 40
44.6927866101254
100
AcDbArc
 50
251.2251086910874
 51
259.8129483593476
  0
ARC
  5
3B74
102
{ACAD_REACTORS
330
3C81
102
}
330
2
100
AcDbEntity
  8
KIJUN
100
AcDbCircle
 10
79.48076382469946
 20
110.2771321417688
 30
0.0
 40
27.55145173589435
100
AcDbArc
 50
240.0712364522167
 51
259.8356707328796
  0
ARC
  5
3B75
102
{ACAD_REACTORS
330
3C81
102
}
330
2
100
AcDbEntity
  8
KIJUN
100
AcDbCircle
 10
66.97654187561955
 20
74.55902255624167
 30
0.0
 40
8.088369617953194
100
AcDbArc
 50
43.50974948958686
 51
92.86975983820418
  0
ARC
  5
3B76
102
{ACAD_REACTORS
330
3C81
102
}
330
2
100
AcDbEntity
  8
KIJUN
100
AcDbCircle
 10
61.95432451085537
 20
66.71926371880139
 30
0.0
 40
14.39225438634998
100
AcDbArc
 50
47.97570950274422
 51
73.90218761039244
  0
ARC
  5
3B77
102
{ACAD_REACTORS
330
3C81
102
}
330
2
100
AcDbEntity
  8
KIJUN
100
AcDbCircle
 10
59.05657264623267
 20
63.84365454357626
 30
0.0
 40
15.24005033509689
100
AcDbArc
 50
41.0776794133186
 51
66.59854090609186
  0
ARC
  5
3B78
102
{ACAD_REACTORS
330
3C81
102
}
330
2
100
AcDbEntity
  8
KIJUN
100
AcDbCircle
 10
60.10714572034647
 20
65.96967480692867
 30
0.0
 40
10.01861437888099
100
AcDbArc
 50
34.63265254453193
 51
67.38027789938837
  0
ARC
  5
3B79
102
{ACAD_REACTORS
330
3C81
102
}
330
2
100
AcDbEntity
  8
KIJUN
100
AcDbCircle
 10
71.14025457813011
 20
94.27477363236759
 30
0.0
 40
9.603075075872466
100
AcDbArc
 50
74.70289455358994
 51
112.9010668459408
  0
ARC
  5
3B7A
102
{ACAD_REACTORS
330
3C81
102
}
330
2
100
AcDbEntity
  8
KIJUN
100
AcDbCircle
 10
71.13976112529496
 20
92.35916975323723
 30
0.0
 40
8.372055431610746
100
AcDbArc
 50
69.34785702021343
 51
112.5697843093363
  0
ARC
  5
3B7B
102
{ACAD_REACTORS
330
3C81
102
}
330
2
100
AcDbEntity
  8
KIJUN
100
AcDbCircle
 10
44.44235583641523
 20
55.11245864959974
 30
0.0
 40
22.70316008255207
100
AcDbArc
 50
348.4141183633145
 51
43.80913595268451
  0
ARC
  5
3B7C
102
{ACAD_REACTORS
330
3C81
102
}
330
2
100
AcDbEntity
  8
KIJUN
100
AcDbCircle
 10
6.291337478822129
 20
55.25954618174799
 30
0.0
 40
44.92892049893236
100
AcDbArc
 50
346.411813120024
 51
7.887662029906846
  0
ARC
  5
3B7D
102
{ACAD_REACTORS
330
3C81
102
}
330
2
100
AcDbEntity
  8
KIJUN
100
AcDbCircle
 10
30.61979117528733
 20
53.99926276903264
 30
0.0
 40
25.20406761743332
100
AcDbArc
 50
339.6283114350002
 51
20.39609453701164
  0
ARC
  5
3B7E
102
{ACAD_REACTORS
330
3C81
102
}
330
2
100
AcDbEntity
  8
KIJUN
100
AcDbCircle
 10
37.23949901742265
 20
54.77638228012077
 30
0.0
 40
22.87591508070422
100
AcDbArc
 50
327.5671118679183
 51
22.17137083276325
  0
ARC
  5
3B7F
102
{ACAD_REACTORS
330
3C81
102
}
330
2
100
AcDbEntity
  8
KIJUN
100
AcDbCircle
 10
28.20680240103559
 20
52.95672693695919
 30
0.0
 40
16.86654985791812
100
AcDbArc
 50
323.0813246975323
 51
21.93998492250225
  0
ARC
  5
3B80
102
{ACAD_REACTORS
330
3C81
102
}
330
2
100
AcDbEntity
  8
KIJUN
100
AcDbCircle
 10
20.46132423124356
 20
54.18556606887981
 30
0.0
 40
21.06718973874528
100
AcDbArc
 50
327.559180988074
 51
12.3025342999366
  0
ARC
  5
3B81
102
{ACAD_REACTORS
330
3C81
102
}
330
2
100
AcDbEntity
  8
KIJUN
100
AcDbCircle
 10
14.59130313399589
 20
56.50009332210609
 30
0.0
 40
21.23800409406968
100
AcDbArc
 50
320.5418764408194
 51
7.149751086240255
  0
ARC
  5
3B82
102
{ACAD_REACTORS
330
3C81
102
}
330
2
100
AcDbEntity
  8
KIJUN
100
AcDbCircle
 10
14.436423854797
 20
56.79035698675605
 30
0.0
 40
18.10632118428093
100
AcDbArc
 50
310.9790762372588
 51
7.469464046913395
  0
ARC
  5
3B83
102
{ACAD_REACTORS
330
3C81
102
}
330
2
100
AcDbEntity
  8
KIJUN
100
AcDbCircle
 10
14.07726798860983
 20
56.20336293778715
 30
0.0
 40
14.89284064752738
100
AcDbArc
 50
307.2576817004733
 51
9.561066323228835
  0
SPLINE
  5
3B84
102
{ACAD_REACTORS
330
3C81
102
}
330
2
100
AcDbEntity
  8
KIJUN
100
AcDbSpline
210
0.0
220
0.0
230
1.0
 70
     8
 71
     3
 72
     9
 73
     5
 74
     3
 42
0.0000000001
 43
0.0000000001
 44
0.0000000001
 40
0.0
 40
0.0
 40
0.0
 40
0.0
 40
4.918317787249655
 40
10.56192560988123
 40
10.56192560988123
 40
10.56192560988123
 40
10.56192560988123
 10
-1.182153634274413
 20
46.37604421740073
 30
0.0
 10
0.1220976086997041
 20
47.39316945623527
 30
0.0
 10
2.9229342363368
 20
49.5774124379216
 30
0.0
 10
4.74067168293277
 20
52.63535782169938
 30
0.0
 10
5.711952645516134
 20
54.26932544526633
 30
0.0
 11
-1.182153634274413
 21
46.37604421740073
 31
0.0
 11
2.517421154644466
 21
49.61687686312192
 31
0.0
 11
5.711952645516134
 21
54.26932544526633
 31
0.0
  0
ARC
  5
3B85
102
{ACAD_REACTORS
330
3C81
102
}
330
2
100
AcDbEntity
  8
KIJUN
100
AcDbCircle
 10
83.76806807257787
 20
47.41468405004801
 30
0.0
 40
5.014723297909848
100
AcDbArc
 50
294.0895420039534
 51
60.19320791202272
  0
ARC
  5
3B86
102
{ACAD_REACTORS
330
3C81
102
}
330
2
100
AcDbEntity
  8
KIJUN
100
AcDbCircle
 10
85.44481884581193
 20
52.22512464567424
 30
0.0
 40
9.39514143801621
100
AcDbArc
 50
201.5023846767248
 51
272.6871294772993
  0
SPLINE
  5
3B87
102
{ACAD_REACTORS
330
3C81
102
}
330
2
100
AcDbEntity
  8
KIJUN
100
AcDbSpline
210
0.0
220
0.0
230
1.0
 70
     8
 71
     3
 72
     9
 73
     5
 74
     3
 42
0.0000000001
 43
0.0000000001
 44
0.0000000001
 40
0.0
 40
0.0
 40
0.0
 40
0.0
 40
7.318804654957874
 40
22.16451375187616
 40
22.16451375187616
 40
22.16451375187616
 40
22.16451375187616
 10
76.70355751879322
 20
48.78142996508907
 30
0.0
 10
75.77580087562836
 20
51.09787821410463
 30
0.0
 10
72.9661515072861
 20
58.11308786805188
 30
0.0
 10
75.57937164793179
 20
65.43551357033201
 30
0.0
 10
77.32969680500639
 20
70.34004714489086
 30
0.0
 11
76.70355751879322
 21
48.78142996508907
 31
0.0
 11
74.51156739845089
 21
55.76427185716673
 31
0.0
 11
77.32969680500639
 21
70.34004714489086
 31
0.0
  0
LINE
  5
3B88
102
{ACAD_REACTORS
330
3C81
102
}
330
2
100
AcDbEntity
  8
KIJUN
100
AcDbLine
 10
94.26033901298216
 20
51.84911035857388
 30
0.0
 11
86.26077081368464
 21
51.76599222105645
 31
0.0
  0
SPLINE
  5
3B89
102
{ACAD_REACTORS
330
3C81
102
}
330
2
100
AcDbEntity
  8
KIJUN
100
AcDbSpline
210
0.0
220
0.0
230
1.0
 70
     8
 71
     3
 72
    11
 73
     7
 74
     5
 42
0.0000000001
 43
0.0000000001
 44
0.0000000001
 40
0.0
 40
0.0
 40
0.0
 40
0.0
 40
5.014723297909958
 40
8.08071750785713
 40
10.3131865375484
 40
13.52381494428982
 40
13.52381494428982
 40
13.52381494428982
 40
13.52381494428982
 10
86.26077081368441
 20
51.765992221056
 30
0.0
 10
85.72927259355964
 20
49.89107298107923
 30
0.0
 10
84.87281716868166
 20
46.86983096467267
 30
0.0
 10
80.80311130344091
 20
47.23408325837246
 30
0.0
 10
78.55305793163956
 20
48.91889994747347
 30
0.0
 10
76.99029678402877
 20
49.85226883314293
 30
0.0
 10
76.06849713005101
 20
50.40281945129667
 30
0.0
 11
86.26077081368441
 21
51.765992221056
 31
0.0
 11
83.76806807257787
 21
47.41468405004801
 31
0.0
 11
80.70515701298416
 21
47.55214799604144
 31
0.0
 11
78.79094572684869
 21
48.70093567031474
 31
0.0
 11
76.06849713005101
 21
50.40281945129667
 31
0.0
  0
SPLINE
  5
3B8A
102
{ACAD_REACTORS
330
3C81
102
}
330
2
100
AcDbEntity
  8
KIJUN
100
AcDbSpline
210
0.0
220
0.0
230
1.0
 70
     8
 71
     3
 72
    15
 73
    11
 74
     9
 42
0.0000000001
 43
0.0000000001
 44
0.0000000001
 40
0.0
 40
0.0
 40
0.0
 40
0.0
 40
13.08923334788002
 40
22.00256653821082
 40
26.43887986615593
 40
30.17331687720976
 40
35.62825642322092
 40
40.9258126833539
 40
44.84173069233065
 40
47.11134106795313
 40
47.11134106795313
 40
47.11134106795313
 40
47.11134106795313
 10
107.1321836147916
 20
80.31788071154645
 30
0.0
 10
102.6836470432641
 20
79.95908724803115
 30
0.0
 10
95.20580481130854
 20
79.35596735210928
 30
0.0
 10
87.63316697209194
 20
75.36342802563622
 30
0.0
 10
86.23650072554324
 20
66.00469856879255
 30
0.0
 10
91.06485062346383
 20
71.451697193482
 30
0.0
 10
96.26018755885212
 20
67.78728810260729
 30
0.0
 10
99.34355159144672
 20
73.00531145031865
 30
0.0
 10
102.4516031046398
 20
75.23175329751435
 30
0.0
 10
104.5074068256611
 20
75.59242161871376
 30
0.0
 10
105.2617277446453
 20
75.72475898959877
 30
0.0
 11
107.1321836147916
 21
80.31788071154645
 31
0.0
 11
94.20271031369509
 21
78.2790698347151
 31
0.0
 11
87.56889378906896
 21
72.32592051024406
 31
0.0
 11
87.22957541376956
 21
67.90260286577316
 31
0.0
 11
90.46165367052424
 21
69.77334868809705
 31
0.0
 11
95.90589811616871
 21
69.43192832153139
 31
0.0
 11
99.81813555548171
 21
73.00383265223675
 31
0.0
 11
103.0501416065323
 21
75.21483937746419
 31
0.0
 11
105.2617277446453
 21
75.72475898959877
 31
0.0
  0
SPLINE
  5
3B8B
102
{ACAD_REACTORS
330
3C81
102
}
330
2
100
AcDbEntity
  8
KIJUN
100
AcDbSpline
210
0.0
220
0.0
230
1.0
 70
     8
 71
     3
 72
    17
 73
    13
 74
    11
 42
0.0000000001
 43
0.0000000001
 44
0.0000000001
 40
0.0
 40
0.0
 40
0.0
 40
0.0
 40
3.637091200204171
 40
6.718139230528462
 40
13.21743083156376
 40
22.16772049661718
 40
30.92622028992149
 40
43.31365822013373
 40
56.05666044043633
 40
62.62511900169415
 40
68.49935820642136
 40
74.30674425665819
 40
74.30674425665819
 40
74.30674425665819
 40
74.30674425665819
 10
98.83742790657368
 20
71.86016829540429
 30
0.0
 10
98.9708825254943
 20
70.38853553826225
 30
0.0
 10
99.21738904994311
 20
67.67025512832043
 30
0.0
 10
104.7465352004625
 20
68.79990178414292
 30
0.0
 10
107.5407687933985
 20
74.91178813776743
 30
0.0
 10
116.8846870497181
 20
74.6519641203252
 30
0.0
 10
126.5187030635185
 20
73.54063508004299
 30
0.0
 10
137.1852314869815
 20
69.15065433235111
 30
0.0
 10
146.3012391141772
 20
63.57049541073044
 30
0.0
 10
151.6874767877982
 20
56.9849400646633
 30
0.0
 10
153.1441540204128
 20
50.56442418274866
 30
0.0
 10
151.0855907843821
 20
47.10588036414391
 30
0.0
 10
150.0621996757369
 20
45.38650496149924
 30
0.0
 11
98.83742790657368
 21
71.86016829540429
 31
0.0
 11
99.98924414592
 21
68.41027673922738
 31
0.0
 11
103.0515183251981
 21
68.74988506670437
 31
0.0
 11
107.8142265506727
 21
73.17226018357136
 31
0.0
 11
116.6607158073756
 21
74.53141908502587
 31
0.0
 11
125.3376185605515
 21
73.33865873975949
 31
0.0
 11
136.9074256065911
 21
68.91280476653881
 31
0.0
 11
147.4570309515335
 21
61.76508256624313
 31
0.0
 11
151.3711521441695
 21
56.49020786059193
 31
0.0
 11
152.3931665222461
 21
50.70555810063595
 31
0.0
 11
150.0621996757369
 21
45.38650496149924
 31
0.0
  0
ARC
  5
3B8C
102
{ACAD_REACTORS
330
3C81
102
}
330
2
100
AcDbEntity
  8
KIJUN
100
AcDbCircle
 10
115.6371305139513
 20
61.08639968387322
 30
0.0
 40
13.62463271917486
100
AcDbArc
 50
41.4535140698194
 51
95.68817746899311
  0
ARC
  5
3B8D
102
{ACAD_REACTORS
330
3C81
102
}
330
2
100
AcDbEntity
  8
KIJUN
100
AcDbCircle
 10
130.3104023536378
 20
58.28918799560622
 30
0.0
 40
12.63113456207541
100
AcDbArc
 50
25.90700445815765
 51
110.6850440831852
  0
ARC
  5
3B8E
102
{ACAD_REACTORS
330
3C81
102
}
330
2
100
AcDbEntity
  8
KIJUN
100
AcDbCircle
 10
140.3044345129059
 20
52.0311946740276
 30
0.0
 40
11.85584158519387
100
AcDbArc
 50
31.8044221990568
 51
83.37542185519028
  0
ARC
  5
3B8F
102
{ACAD_REACTORS
330
3C81
102
}
330
2
100
AcDbEntity
  8
KIJUN
100
AcDbCircle
 10
128.5611772861597
 20
66.18882993568994
 30
0.0
 40
14.85529807135641
100
AcDbArc
 50
310.6649452622571
 51
333.8475604542954
  0
ARC
  5
3B90
102
{ACAD_REACTORS
330
3C81
102
}
330
2
100
AcDbEntity
  8
KIJUN
100
AcDbCircle
 10
131.4621130811155
 20
65.54997295999263
 30
0.0
 40
16.4048817019125
100
AcDbArc
 50
314.1408327358429
 51
332.4604167539894
  0
ARC
  5
3B91
102
{ACAD_REACTORS
330
3C81
102
}
330
2
100
AcDbEntity
  8
KIJUN
100
AcDbCircle
 10
144.0858412143915
 20
56.36805506321937
 30
0.0
 40
5.189743810776738
100
AcDbArc
 50
298.2538560092966
 51
350.678692469998
  0
ARC
  5
3B92
102
{ACAD_REACTORS
330
3C81
102
}
330
2
100
AcDbEntity
  8
KIJUN
100
AcDbCircle
 10
128.4591894390347
 20
64.92439376938378
 30
0.0
 40
10.98104032681046
100
AcDbArc
 50
312.3756127421384
 51
340.2540566791076
  0
ARC
  5
3B93
102
{ACAD_REACTORS
330
3C81
102
}
330
2
100
AcDbEntity
  8
KIJUN
100
AcDbCircle
 10
127.6764968787985
 20
64.50975406980379
 30
0.0
 40
8.576387308329984
100
AcDbArc
 50
310.3606031729673
 51
347.2812474845396
  0
ARC
  5
3B94
102
{ACAD_REACTORS
330
3C81
102
}
330
2
100
AcDbEntity
  8
KIJUN
100
AcDbCircle
 10
114.7097876951751
 20
71.66517868596591
 30
0.0
 40
19.86260970124377
100
AcDbArc
 50
323.133825704901
 51
337.3893618774141
  0
ARC
  5
3B95
102
{ACAD_REACTORS
330
3C81
102
}
330
2
100
AcDbEntity
  8
KIJUN
100
AcDbCircle
 10
292.126406040746
 20
27.65330236851983
 30
0.0
 40
166.7728655860559
100
AcDbArc
 50
166.7332849989532
 51
168.389817967452
  0
ARC
  5
3B96
102
{ACAD_REACTORS
330
3C81
102
}
330
2
100
AcDbEntity
  8
KIJUN
100
AcDbCircle
 10
134.5440940744146
 20
64.41593720185645
 30
0.0
 40
8.532423457257726
100
AcDbArc
 50
161.7521577973823
 51
193.8108522192395
  0
ARC
  5
3B97
102
{ACAD_REACTORS
330
3C81
102
}
330
2
100
AcDbEntity
  8
KIJUN
100
AcDbCircle
 10
116.9734874065308
 20
69.35590931328843
 30
0.0
 40
8.532423457257726
100
AcDbArc
 50
181.0342698201905
 51
213.0929642420468
  0
ARC
  5
3B98
102
{ACAD_REACTORS
330
3C81
102
}
330
2
100
AcDbEntity
  8
KIJUN
100
AcDbCircle
 10
277.8558236506323
 20
86.6922944377416
 30
0.0
 40
166.7728655860559
100
AcDbArc
 50
186.0153970217621
 51
187.6719299902624
  0
ARC
  5
3B99
102
{ACAD_REACTORS
330
3C81
102
}
330
2
100
AcDbEntity
  8
KIJUN
100
AcDbCircle
 10
95.85796194357124
 20
69.64881896418503
 30
0.0
 40
19.86260970124377
100
AcDbArc
 50
342.4159377277194
 51
356.6714739002301
  0
ARC
  5
3B9A
102
{ACAD_REACTORS
330
3C81
102
}
330
2
100
AcDbEntity
  8
KIJUN
100
AcDbCircle
 10
110.4601541211694
 20
67.17664742912919
 30
0.0
 40
8.576387308329984
100
AcDbArc
 50
329.6427151957826
 51
6.563359507353621
  0
ARC
  5
3B9B
102
{ACAD_REACTORS
330
3C81
102
}
330
2
100
AcDbEntity
  8
KIJUN
100
AcDbCircle
 10
111.0620186280517
 20
67.82648805549254
 30
0.0
 40
10.98104032681046
100
AcDbArc
 50
331.6577247649517
 51
359.5361687019131
  0
SPLINE
  5
3B9C
102
{ACAD_REACTORS
330
3C81
102
}
330
2
100
AcDbEntity
  8
KIJUN
100
AcDbSpline
210
0.0
220
0.0
230
1.0
 70
     8
 71
     3
 72
    13
 73
     9
 74
     7
 42
0.0000000001
 43
0.0000000001
 44
0.0000000001
 40
0.0
 40
0.0
 40
0.0
 40
0.0
 40
3.568658021555657
 40
9.094371760358354
 40
17.36180701162738
 40
28.32169027939216
 40
35.74199343240926
 40
53.35105020183587
 40
53.35105020183587
 40
53.35105020183587
 40
53.35105020183587
 10
86.26077081368464
 20
51.76599222105645
 30
0.0
 10
85.05349394579525
 20
51.43701772206767
 30
0.0
 10
81.97686833808825
 20
50.59865877161339
 30
0.0
 10
77.10437230160557
 20
55.74556038872936
 30
0.0
 10
78.77036489249303
 20
64.44616696053559
 30
0.0
 10
82.68261102810971
 20
72.45705596738709
 30
0.0
 10
92.23531166855446
 20
80.4996152265936
 30
0.0
 10
100.9799883847519
 20
80.39293446918373
 30
0.0
 10
107.1321836147916
 20
80.31788071154645
 30
0.0
 11
86.26077081368464
 21
51.76599222105645
 31
0.0
 11
82.71967810795933
 21
51.32329308589513
 31
0.0
 11
78.64406674120153
 21
55.05463390527191
 31
0.0
 11
78.87179617133449
 21
63.31893211749641
 31
0.0
 11
83.97746921201326
 21
73.01692902638004
 31
0.0
 11
89.71555518617799
 21
77.72174233147191
 31
0.0
 11
107.1321836147916
 21
80.31788071154645
 31
0.0
  0
SPLINE
  5
3B9D
102
{ACAD_REACTORS
330
3C81
102
}
330
2
100
AcDbEntity
  8
KIJUN
100
AcDbSpline
210
0.0
220
0.0
230
1.0
 70
     8
 71
     3
 72
    13
 73
     9
 74
     7
 42
0.0000000001
 43
0.0000000001
 44
0.0000000001
 40
0.0
 40
0.0
 40
0.0
 40
0.0
 40
3.568658021555854
 40
9.094371760358551
 40
17.36180701162758
 40
28.32169027939236
 40
35.74199343240932
 40
53.35105020183596
 40
53.35105020183596
 40
53.35105020183596
 40
53.35105020183596
 10
-13.82277912453503
 20
151.8495421592761
 30
0.0
 10
-14.15175362352374
 20
150.6422652913866
 30
0.0
 10
-14.9901125739778
 20
147.5656396836795
 30
0.0
 10
-9.843210956861952
 20
142.6931436471968
 30
0.0
 10
-1.142604385055648
 20
144.3591362380843
 30
0.0
 10
6.868284621795879
 20
148.2713823737009
 30
0.0
 10
14.91084388100199
 20
157.8240830141458
 30
0.0
 10
14.80416312359233
 20
166.5687597303432
 30
0.0
 10
14.72910936595519
 20
172.7209549603829
 30
0.0
 11
-13.82277912453503
 21
151.8495421592761
 31
0.0
 11
-14.26547825969612
 21
148.3084494535506
 31
0.0
 11
-10.53413744031934
 21
144.2328380867928
 31
0.0
 11
-2.269839228094838
 21
144.4605675169257
 31
0.0
 11
7.428157680788785
 21
149.5662405576045
 31
0.0
 11
12.13297098588043
 21
155.3043265317692
 31
0.0
 11
14.72910936595519
 21
172.7209549603829
 31
0.0
  0
SPLINE
  5
3B9E
102
{ACAD_REACTORS
330
3C81
102
}
330
2
100
AcDbEntity
  8
KIJUN
100
AcDbSpline
210
0.0
220
0.0
230
1.0
 70
     8
 71
     3
 72
    17
 73
    13
 74
    11
 42
0.0000000001
 43
0.0000000001
 44
0.0000000001
 40
0.0
 40
0.0
 40
0.0
 40
0.0
 40
3.637091200203883
 40
6.718139230528375
 40
13.21743083156367
 40
22.16772049661735
 40
30.92622028992166
 40
43.31365822013378
 40
56.05666044043625
 40
62.62511900169407
 40
68.49935820642153
 40
74.30674425665845
 40
74.30674425665845
 40
74.30674425665845
 40
74.30674425665845
 10
6.271396949813038
 20
164.4261992521649
 30
0.0
 10
4.799764192671148
 20
164.5596538710855
 30
0.0
 10
2.081483782729435
 20
164.8061603955343
 30
0.0
 10
3.211130438551464
 20
170.3353065460538
 30
0.0
 10
9.323016792176275
 20
173.1295401389898
 30
0.0
 10
9.063192774734204
 20
182.4734583953095
 30
0.0
 10
7.951863734452047
 20
192.1074744091099
 30
0.0
 10
3.561882986759655
 20
202.7740028325726
 30
0.0
 10
-2.018275934860554
 20
211.8900104597685
 30
0.0
 10
-8.603831280927806
 20
217.2762481333895
 30
0.0
 10
-15.02434716284256
 20
218.7329253660044
 30
0.0
 10
-18.48289098144735
 20
216.6743621299734
 30
0.0
 10
-20.20226638409202
 20
215.6509710213282
 30
0.0
 11
6.271396949813038
 21
164.4261992521649
 31
0.0
 11
2.821505393636357
 21
165.578015491511
 31
0.0
 11
3.16111372111311
 21
168.6402896707893
 31
0.0
 11
7.583488837980098
 21
173.402997896264
 31
0.0
 11
8.942647739434846
 21
182.249487152967
 31
0.0
 11
7.749887394168467
 21
190.926389906143
 31
0.0
 11
3.324033420947557
 21
202.4961969521824
 31
0.0
 11
-3.823688779347889
 21
213.0458022971247
 31
0.0
 11
-9.09856348499909
 21
216.9599234897608
 31
0.0
 11
-14.8832132449553
 21
217.9819378678376
 31
0.0
 11
-20.20226638409202
 21
215.6509710213282
 31
0.0
  0
SPLINE
  5
3B9F
102
{ACAD_REACTORS
330
3C81
102
}
330
2
100
AcDbEntity
  8
KIJUN
100
AcDbSpline
210
0.0
220
0.0
230
1.0
 70
     8
 71
     3
 72
    11
 73
     7
 74
     5
 42
0.0000000001
 43
0.0000000001
 44
0.0000000001
 40
0.0
 40
0.0
 40
0.0
 40
0.0
 40
5.014723297909648
 40
8.080717507857038
 40
10.31318653754831
 40
13.52381494428965
 40
13.52381494428965
 40
13.52381494428965
 40
13.52381494428965
 10
-13.82277912453526
 20
151.8495421592757
 30
0.0
 10
-15.69769836451184
 20
151.3180439391509
 30
0.0
 10
-18.7189403809183
 20
150.461588514273
 30
0.0
 10
-18.35468808721887
 20
146.3918826490322
 30
0.0
 10
-16.66987139811783
 20
144.1418292772308
 30
0.0
 10
-15.7365025124482
 20
142.5790681296201
 30
0.0
 10
-15.18595189429436
 20
141.6572684756425
 30
0.0
 11
-13.82277912453526
 21
151.8495421592757
 31
0.0
 11
-18.17408729554301
 21
149.3568394181693
 31
0.0
 11
-18.03662334954981
 21
146.2939283585754
 31
0.0
 11
-16.8878356752765
 21
144.3797170724399
 31
0.0
 11
-15.18595189429436
 21
141.6572684756425
 31
0.0
  0
ARC
  5
3BA0
102
{ACAD_REACTORS
330
3C81
102
}
330
2
100
AcDbEntity
  8
KIJUN
100
AcDbCircle
 10
-13.36364669991701
 20
151.0335901914032
 30
0.0
 40
9.39514143801621
100
AcDbArc
 50
177.3128705227006
 51
248.4976153232702
  0
LINE
  5
3BA1
102
{ACAD_REACTORS
330
3C81
102
}
330
2
100
AcDbEntity
  8
KIJUN
100
AcDbLine
 10
18.26033901298217
 20
190.8491103585732
 30
0.0
 11
18.26033901298126
 21
170.8491103585768
 31
0.0
  0
SPLINE
  5
3BA2
102
{ACAD_REACTORS
330
3C81
102
}
330
2
100
AcDbEntity
  8
KIJUN
100
AcDbSpline
210
0.0
220
0.0
230
1.0
 70
     8
 71
     3
 72
    13
 73
     9
 74
     0
 42
0.0000000001
 43
0.0000000001
 40
0.0
 40
0.0
 40
0.0
 40
0.0
 40
5.33757963662565
 40
8.554059635405957
 40
10.92034777076818
 40
13.6859080374023
 40
15.11699769846578
 40
19.87676139132237
 40
19.87676139132237
 40
19.87676139132237
 40
19.87676139132237
 10
18.2603390129824
 20
190.8491103585734
 30
0.0
 10
19.91475211494514
 20
191.4131742076402
 30
0.0
 10
22.56613144775759
 20
192.3171486926267
 30
0.0
 10
26.40330431714358
 20
193.0732764589006
 30
0.0
 10
28.7720873701702
 20
190.8569317360532
 30
0.0
 10
28.23754883801132
 20
188.4299400741554
 30
0.0
 10
26.65185668225206
 20
185.9240373592559
 30
0.0
 10
25.91427630461033
 20
184.0749039539012
 30
0.0
 10
25.51711050573647
 20
182.5977624634381
 30
0.0
  0
ARC
  5
3BA3
102
{ACAD_REACTORS
330
3C81
102
}
330
2
100
AcDbEntity
  8
KIJUN
100
AcDbCircle
 10
-13.36364669991701
 20
151.0335901914032
 30
0.0
 40
17.39514143801621
100
AcDbArc
 50
177.3128705227006
 51
248.4976153232702
  0
SPLINE
  5
3BA4
102
{ACAD_REACTORS
330
3C81
102
}
330
2
100
AcDbEntity
  8
KIJUN
100
AcDbSpline
210
0.0
220
0.0
230
1.0
 70
     8
 71
     3
 72
     9
 73
     5
 74
     3
 42
0.0000000001
 43
0.0000000001
 44
0.0000000001
 40
0.0
 40
0.0
 40
0.0
 40
0.0
 40
7.318804654957589
 40
22.16451375187587
 40
22.16451375187587
 40
22.16451375187587
 40
22.16451375187587
 10
-16.80734138050195
 20
142.2923288643842
 30
0.0
 10
-14.49089313148647
 20
141.3645722212194
 30
0.0
 10
-7.475683477539234
 20
138.5549228528774
 30
0.0
 10
-0.1532577752592488
 20
141.1681429935231
 30
0.0
 10
4.751275799299605
 20
142.9184681505976
 30
0.0
 11
-16.80734138050195
 21
142.2923288643842
 31
0.0
 11
-9.824499488424521
 21
140.1003387440421
 31
0.0
 11
4.751275799299605
 21
142.9184681505976
 31
0.0
  0
LINE
  5
3BA5
102
{ACAD_REACTORS
330
3C81
102
}
330
2
100
AcDbEntity
  8
KIJUN
100
AcDbLine
 10
-19.73966098701737
 20
134.8491103585734
 30
0.0
 11
-4.739660986986223
 21
134.8491103585734
 31
0.0
  0
ARC
  5
3BA6
102
{ACAD_REACTORS
330
3C81
102
}
330
2
100
AcDbEntity
  8
KIJUN
100
AcDbCircle
 10
-18.45333786299545
 20
131.8491103585732
 30
0.0
 40
3.264142640785493
100
AcDbArc
 50
113.2084134090476
 51
246.7915865909524
  0
SPLINE
  5
3BA7
102
{ACAD_REACTORS
330
3C81
102
}
330
2
100
AcDbEntity
  8
KIJUN
100
AcDbSpline
210
0.0
220
0.0
230
1.0
 70
     8
 71
     3
 72
    15
 73
    11
 74
     9
 42
0.0000000001
 43
0.0000000001
 44
0.0000000001
 40
0.0
 40
0.0
 40
0.0
 40
0.0
 40
13.08923334788002
 40
22.0025665382105
 40
26.43887986615585
 40
30.17331687720969
 40
35.62825642322085
 40
40.92581268335367
 40
44.84173069233055
 40
47.11134106795302
 40
47.11134106795302
 40
47.11134106795302
 40
47.11134106795302
 10
14.72910936595519
 20
172.7209549603829
 30
0.0
 10
14.37031590243992
 20
168.2724183888554
 30
0.0
 10
13.76719600651808
 20
160.7945761568999
 30
0.0
 10
9.774656680044984
 20
153.2219383176834
 30
0.0
 10
0.4159272232012654
 20
151.8252720711344
 30
0.0
 10
5.862925847890721
 20
156.653621969055
 30
0.0
 10
2.198516757016136
 20
161.8489589044432
 30
0.0
 10
7.416540104727118
 20
164.9323229370382
 30
0.0
 10
9.642981951923104
 20
168.0403744502309
 30
0.0
 10
10.0036502731225
 20
170.0961781712524
 30
0.0
 10
10.13598764400751
 20
170.8504990902366
 30
0.0
 11
14.72910936595519
 21
172.7209549603829
 31
0.0
 11
12.69029848912385
 21
159.7914816592863
 31
0.0
 11
6.737149164653033
 21
153.1576651346604
 31
0.0
 11
2.313831520181906
 21
152.8183467593608
 31
0.0
 11
4.184577342505804
 21
156.0504250161155
 31
0.0
 11
3.843156975940132
 21
161.4946694617599
 31
0.0
 11
7.41506130664527
 21
165.406906901073
 31
0.0
 11
9.626068031872932
 21
168.6389129521235
 31
0.0
 11
10.13598764400751
 21
170.8504990902366
 31
0.0
  0
LINE
  5
3BA8
102
{ACAD_REACTORS
330
3C81
102
}
330
2
100
AcDbEntity
  8
KIJUN
100
AcDbLine
 10
18.26033901298126
 20
170.8491103585768
 30
0.0
 11
19.1946053455664
 21
157.0475578192895
 31
0.0
  0
ARC
  5
3BA9
102
{ACAD_REACTORS
330
3C81
102
}
330
2
100
AcDbEntity
  8
KIJUN
100
AcDbCircle
 10
-42.50428494244977
 20
181.1151270716651
 30
0.0
 40
35.77215478747284
100
AcDbArc
 50
323.5240578905396
 51
41.57563058742848
  0
LINE
  5
3BAA
102
{ACAD_REACTORS
330
3C81
102
}
330
2
100
AcDbEntity
  8
KIJUN
100
AcDbLine
 10
-13.73966098701737
 20
159.8491103585734
 30
0.0
 11
-13.82277912453503
 21
151.8495421592761
 31
0.0
  0
ARC
  5
3BAB
102
{ACAD_REACTORS
330
3C81
102
}
330
2
100
AcDbEntity
  8
KIJUN
100
AcDbCircle
 10
-18.17408729554347
 20
149.3568394181691
 30
0.0
 40
5.014723297909848
100
AcDbArc
 50
29.80679208797358
 51
155.9104579960529
  0
ARC
  5
3BAC
102
{ACAD_REACTORS
330
3C81
102
}
330
2
100
AcDbEntity
  8
KIJUN
100
AcDbCircle
 10
-20.07749882485553
 20
151.2545157639788
 30
0.0
 40
10.67872860897584
100
AcDbArc
 50
53.5941430668614
 51
176.8081042240956
  0
ARC
  5
3BAD
102
{ACAD_REACTORS
330
3C81
102
}
330
2
100
AcDbEntity
  8
KIJUN
100
AcDbCircle
 10
-13.55757667156365
 20
205.8932058584974
 30
0.0
 40
11.85584158519387
100
AcDbArc
 50
6.624578144816744
 51
58.19557780093982
  0
SPLINE
  5
3BAE
102
{ACAD_REACTORS
330
3C81
102
}
330
2
100
AcDbEntity
  8
KIJUN
100
AcDbSpline
210
0.0
220
0.0
230
1.0
 70
     8
 71
     3
 72
     9
 73
     5
 74
     3
 42
0.0000000001
 43
0.0000000001
 44
0.0000000001
 40
0.0
 40
0.0
 40
0.0
 40
0.0
 40
4.229064612592114
 40
6.856045963584413
 40
6.856045963584413
 40
6.856045963584413
 40
6.856045963584413
 10
-0.4145163000627008
 20
220.5937262382777
 30
0.0
 10
-1.382049419198892
 20
221.6316317387503
 30
0.0
 10
-2.95058812545011
 20
223.3142562595272
 30
0.0
 10
-4.905907212680915
 20
224.513598256406
 30
0.0
 10
-5.655112630012922
 20
224.973141421081
 30
0.0
 11
-0.4145163000627008
 21
220.5937262382777
 31
0.0
 11
-3.464281030901133
 21
223.5235594389929
 31
0.0
 11
-5.655112630012922
 21
224.973141421081
 31
0.0
  0
SPLINE
  5
3BAF
102
{ACAD_REACTORS
330
3C81
102
}
330
2
100
AcDbEntity
  8
KIJUN
100
AcDbSpline
210
0.0
220
0.0
230
1.0
 70
     8
 71
     3
 72
    11
 73
     7
 74
     5
 42
0.0000000001
 43
0.0000000001
 44
0.0000000001
 40
0.0
 40
0.0
 40
0.0
 40
0.0
 40
1.621156143906158
 40
4.838531235284214
 40
10.5555804030822
 40
13.32679499931858
 40
13.32679499931858
 40
13.32679499931858
 40
13.32679499931858
 10
-0.9716601716969535
 20
224.7371783066174
 30
0.0
 10
-1.062156204691632
 20
224.1977655972379
 30
0.0
 10
-1.3322522617309
 20
222.5878249059279
 30
0.0
 10
0.1251040072677654
 20
219.1848700104119
 30
0.0
 10
2.541687695328562
 20
216.1673672974132
 30
0.0
 10
3.926920770523167
 20
213.6918152129703
 30
0.0
 10
4.37916615590268
 20
212.8836068136013
 30
0.0
 11
-0.9716601716969535
 21
224.7371783066174
 31
0.0
 11
-1.137834625009531
 21
223.12456139799
 31
0.0
 11
-0.1407865519619236
 21
220.0655750268775
 31
0.0
 11
2.983298222156349
 21
215.2775957546644
 31
0.0
 11
4.37916615590268
 21
212.8836068136013
 31
0.0
  0
ARC
  5
3BB0
102
{ACAD_REACTORS
330
3C81
102
}
330
2
100
AcDbEntity
  8
KIJUN
100
AcDbCircle
 10
-19.94953502146623
 20
209.4362525356833
 30
0.0
 40
6.219855223192112
100
AcDbArc
 50
312.5453076469927
 51
92.32874038139831
  0
SPLINE
  5
3BB1
102
{ACAD_REACTORS
330
3C81
102
}
330
2
100
AcDbEntity
  8
KIJUN
100
AcDbSpline
210
0.0
220
0.0
230
1.0
 70
     8
 71
     3
 72
    15
 73
    11
 74
     9
 42
0.0000000001
 43
0.0000000001
 44
0.0000000001
 40
0.0
 40
0.0
 40
0.0
 40
0.0
 40
16.68268752549953
 40
27.84425220483384
 40
31.00225738411554
 40
32.90714999175881
 40
35.4864330958853
 40
38.32843062947307
 40
40.79115292691386
 40
44.56831149898668
 40
44.56831149898668
 40
44.56831149898668
 40
44.56831149898668
 10
18.2603390129824
 20
190.8491103585734
 30
0.0
 10
16.82864170196876
 20
196.300016120719
 30
0.0
 10
14.43906622452161
 20
205.3978544968183
 30
0.0
 10
7.855936767376164
 20
213.5929596584094
 30
0.0
 10
5.636475805076855
 20
218.5388330361757
 30
0.0
 10
5.086921519500663
 20
221.0726797391124
 30
0.0
 10
5.691075508431822
 20
223.5020403723515
 30
0.0
 10
7.961142702738754
 20
225.6491553601589
 30
0.0
 10
5.744629725685058
 20
228.6990714018791
 30
0.0
 10
3.599493103092981
 20
228.7926375943513
 30
0.0
 10
2.300987354068524
 20
228.8492755900668
 30
0.0
 11
18.2603390129824
 21
190.8491103585734
 31
0.0
 11
12.70059781066868
 21
206.5781071745421
 31
0.0
 11
6.813687232575261
 21
216.0609764627109
 31
0.0
 11
5.592868303576892
 21
218.9734664377957
 31
0.0
 11
5.260339012982171
 21
220.8491103585734
 31
0.0
 11
5.921550114742444
 21
223.3422010529007
 31
0.0
 11
7.260339012982399
 21
225.8491103585734
 31
0.0
 11
5.968504723631554
 21
227.9458137909094
 31
0.0
 11
2.300987354068524
 21
228.8492755900668
 31
0.0
  0
ARC
  5
3BB2
102
{ACAD_REACTORS
330
3C81
102
}
330
2
100
AcDbEntity
  8
KIJUN
100
AcDbCircle
 10
-20.31580744772305
 20
215.3228927067861
 30
0.0
 40
11.42385353929498
100
AcDbArc
 50
112.8574384814658
 51
293.5914727345002
  0
ARC
  5
3BB3
102
{ACAD_REACTORS
330
3C81
102
}
330
2
100
AcDbEntity
  8
KIJUN
100
AcDbCircle
 10
2.237716709901292
 20
176.6507899736431
 30
0.0
 40
10.98104032681046
100
AcDbArc
 50
90.4638312980869
 51
118.3422752350484
  0
ARC
  5
3BB4
102
{ACAD_REACTORS
330
3C81
102
}
330
2
100
AcDbEntity
  8
KIJUN
100
AcDbCircle
 10
3.767137967697067
 20
182.562258752122
 30
0.0
 40
8.532423457257726
100
AcDbArc
 50
236.9070357579464
 51
268.965730179803
  0
ARC
  5
3BB5
102
{ACAD_REACTORS
330
3C81
102
}
330
2
100
AcDbEntity
  8
KIJUN
100
AcDbCircle
 10
21.10352309215057
 20
343.4445949962236
 30
0.0
 40
166.7728655860559
100
AcDbArc
 50
262.3280700097443
 51
263.9846029782378
  0
ARC
  5
3BB6
102
{ACAD_REACTORS
330
3C81
102
}
330
2
100
AcDbEntity
  8
KIJUN
100
AcDbCircle
 10
4.060047618593557
 20
161.4467332891627
 30
0.0
 40
19.86260970124377
100
AcDbArc
 50
93.32852609976992
 51
107.5840622722822
  0
ARC
  5
3BB7
102
{ACAD_REACTORS
330
3C81
102
}
330
2
100
AcDbEntity
  8
KIJUN
100
AcDbCircle
 10
1.587876083537935
 20
176.0489254667607
 30
0.0
 40
8.576387308329984
100
AcDbArc
 50
83.43664049264694
 51
120.3572848042209
  0
ARC
  5
3BB8
102
{ACAD_REACTORS
330
3C81
102
}
330
2
100
AcDbEntity
  8
KIJUN
100
AcDbCircle
 10
-1.172834143734803
 20
200.1328654200059
 30
0.0
 40
8.532423457257726
100
AcDbArc
 50
256.1891477807546
 51
288.2478422026162
  0
ARC
  5
3BB9
102
{ACAD_REACTORS
330
3C81
102
}
330
2
100
AcDbEntity
  8
KIJUN
100
AcDbCircle
 10
-37.93546897707154
 20
357.7151773863375
 30
0.0
 40
166.7728655860559
100
AcDbArc
 50
281.6101820325481
 51
283.2667150010403
  0
ARC
  5
3BBA
102
{ACAD_REACTORS
330
3C81
102
}
330
2
100
AcDbEntity
  8
KIJUN
100
AcDbCircle
 10
6.076407340374657
 20
180.2985590407663
 30
0.0
 40
19.86260970124377
100
AcDbArc
 50
112.6106381225837
 51
126.8661742950886
  0
ARC
  5
3BBB
102
{ACAD_REACTORS
330
3C81
102
}
330
2
100
AcDbEntity
  8
KIJUN
100
AcDbCircle
 10
-1.079017275787578
 20
193.2652682243899
 30
0.0
 40
8.576387308329984
100
AcDbArc
 50
102.7187525154539
 51
139.639396827028
  0
ARC
  5
3BBC
102
{ACAD_REACTORS
330
3C81
102
}
330
2
100
AcDbEntity
  8
KIJUN
100
AcDbCircle
 10
-0.6643775762075848
 20
194.047960784626
 30
0.0
 40
10.98104032681046
100
AcDbArc
 50
109.7459433208977
 51
137.6243872578605
  0
ARC
  5
3BBD
102
{ACAD_REACTORS
330
3C81
102
}
330
2
100
AcDbEntity
  8
KIJUN
100
AcDbCircle
 10
-0.0387983855986249
 20
197.0508844267067
 30
0.0
 40
16.4048817019125
100
AcDbArc
 50
117.5395832460008
 51
135.8591672641587
  0
ARC
  5
3BBE
102
{ACAD_REACTORS
330
3C81
102
}
330
2
100
AcDbEntity
  8
KIJUN
100
AcDbCircle
 10
0.6000585900986835
 20
194.1499486317512
 30
0.0
 40
14.85529807135641
100
AcDbArc
 50
116.1524395457107
 51
139.335054737739
  0
ARC
  5
3BBF
102
{ACAD_REACTORS
330
3C81
102
}
330
2
100
AcDbEntity
  8
KIJUN
100
AcDbCircle
 10
-7.299583349985027
 20
195.8991736992293
 30
0.0
 40
12.63113456207541
100
AcDbArc
 50
339.3149559168202
 51
64.09299554183331
  0
ARC
  5
3BC0
102
{ACAD_REACTORS
330
3C81
102
}
330
2
100
AcDbEntity
  8
KIJUN
100
AcDbCircle
 10
-4.502371661718029
 20
181.2259018595428
 30
0.0
 40
13.62463271917486
100
AcDbArc
 50
354.3118225310132
 51
48.54648593017658
  0
ARC
  5
3BC1
102
{ACAD_REACTORS
330
3C81
102
}
330
2
100
AcDbEntity
  8
KIJUN
100
AcDbCircle
 10
-9.220716282371881
 20
209.6746125599828
 30
0.0
 40
5.189743810776738
100
AcDbArc
 50
99.32130753000182
 51
151.7461439907017
  0
LINE
  5
3BC2
102
{ACAD_REACTORS
330
3C81
102
}
330
2
100
AcDbEntity
  8
KIJUN
100
AcDbLine
 10
-0.9716601716969535
 20
224.7371783066174
 30
0.0
 11
2.300987354068524
 21
228.8492755900668
 31
0.0
  0
LINE
  5
3BC3
102
{ACAD_REACTORS
330
3C81
102
}
330
2
100
AcDbEntity
  8
KIJUN
100
AcDbLine
 10
-14.83063240146464
 20
225.4354252258948
 30
0.0
 11
-0.9716601716969535
 21
224.7371783066174
 31
0.0
  0
LINE
  5
3BC4
102
{ACAD_REACTORS
330
3C81
102
}
330
2
100
AcDbEntity
  8
KIJUN
100
AcDbLine
 10
-24.75328398418444
 20
225.8496790955954
 30
0.0
 11
-14.83063240146464
 21
225.4354252258948
 31
0.0
  0
LINE
  5
3BC5
102
{ACAD_REACTORS
330
3C81
102
}
330
2
100
AcDbEntity
  8
KIJUN
100
AcDbLine
 10
2.260339012982399
 20
233.8491103585734
 30
0.0
 11
2.300987354068524
 21
228.8492755900668
 31
0.0
  0
LINE
  5
3BC6
102
{ACAD_REACTORS
330
3C81
102
}
330
2
100
AcDbEntity
  8
KIJUN
100
AcDbLine
 10
2.260339012982399
 20
233.8491103585734
 30
0.0
 11
-26.7396609870176
 21
233.8491103585734
 31
0.0
  0
ARC
  5
3BC7
102
{ACAD_REACTORS
330
3C81
102
}
330
2
100
AcDbEntity
  8
KIJUN
100
AcDbCircle
 10
-1.047888339220858
 20
235.982418180635
 30
0.0
 40
25.78018975976994
100
AcDbArc
 50
184.7466470456595
 51
203.1440153335796
  0
SPLINE
  5
3BC8
102
{ACAD_REACTORS
330
3C81
102
}
330
2
100
AcDbEntity
  8
KIJUN
100
AcDbSpline
210
0.0
220
0.0
230
1.0
 70
     8
 71
     3
 72
     9
 73
     5
 74
     3
 42
0.0000000001
 43
0.0000000001
 44
0.0000000001
 40
0.0
 40
0.0
 40
0.0
 40
0.0
 40
4.918317787249784
 40
10.5619256098813
 40
10.5619256098813
 40
10.5619256098813
 40
10.5619256098813
 10
-19.21272712819075
 20
64.40661771131684
 30
0.0
 10
-18.19560188935603
 20
65.71086895429084
 30
0.0
 10
-16.01135890766932
 20
68.51170558192762
 30
0.0
 10
-12.95341352389172
 20
70.32944302852389
 30
0.0
 10
-11.31944590032492
 20
71.30072399110739
 30
0.0
 11
-19.21272712819075
 21
64.40661771131684
 31
0.0
 11
-15.97189448246911
 21
68.10619250023549
 31
0.0
 11
-11.31944590032492
 21
71.30072399110739
 31
0.0
  0
SPLINE
  5
3BC9
102
{ACAD_REACTORS
330
3C81
102
}
330
2
100
AcDbEntity
  8
KIJUN
100
AcDbSpline
210
0.0
220
0.0
230
1.0
 70
     8
 71
     3
 72
    10
 73
     6
 74
     4
 42
0.0000000001
 43
0.0000000001
 44
0.0000000001
 40
0.0
 40
0.0
 40
0.0
 40
0.0
 40
8.375930264411428
 40
19.48524085526542
 40
32.02370396037195
 40
32.02370396037195
 40
32.02370396037195
 40
32.02370396037195
 10
-18.66859317515229
 20
46.92017817043896
 30
0.0
 10
-19.60239454205873
 20
49.64227527779674
 30
0.0
 10
-21.77473169993337
 20
55.97479191701149
 30
0.0
 10
-16.20312502289926
 20
66.55750760832351
 30
0.0
 10
-9.279305856894069
 20
70.42300456644648
 30
0.0
 10
-5.608175869117872
 20
72.47255864352249
 30
0.0
 11
-18.66859317515229
 21
46.92017817043896
 31
0.0
 11
-20.44216800582592
 21
55.10618086493426
 31
0.0
 11
-15.83173257789451
 21
65.21363687369015
 31
0.0
 11
-5.608175869117872
 21
72.47255864352249
 31
0.0
  0
SPLINE
  5
3BCA
102
{ACAD_REACTORS
330
3C81
102
}
330
2
100
AcDbEntity
  8
KIJUN
100
AcDbSpline
210
0.0
220
0.0
230
1.0
 70
     8
 71
     3
 72
     9
 73
     5
 74
     3
 42
0.0000000001
 43
0.0000000001
 44
0.0000000001
 40
0.0
 40
0.0
 40
0.0
 40
0.0
 40
6.885300531750084
 40
22.46000195726433
 40
22.46000195726433
 40
22.46000195726433
 40
22.46000195726433
 10
-12.30463214447366
 20
53.28413920111782
 30
0.0
 10
-13.0636040979428
 20
55.5781304899545
 30
0.0
 10
-15.539387323645
 20
63.06118059061923
 30
0.0
 10
-9.376267391709461
 20
68.90188207711563
 30
0.0
 10
-5.102503169775104
 20
72.95206791150807
 30
0.0
 11
-12.30463214447366
 21
53.28413920111782
 31
0.0
 11
-13.76968111794861
 21
60.01176842082353
 31
0.0
 11
-5.102503169775104
 21
72.95206791150807
 31
0.0
  0
SPLINE
  5
3BCB
102
{ACAD_REACTORS
330
3C81
102
}
330
2
100
AcDbEntity
  8
KIJUN
100
AcDbSpline
210
0.0
220
0.0
230
1.0
 70
     8
 71
     3
 72
    13
 73
     9
 74
     7
 42
0.0000000001
 43
0.0000000001
 44
0.0000000001
 40
0.0
 40
0.0
 40
0.0
 40
0.0
 40
6.194862035701502
 40
12.67936279449829
 40
16.3763225434385
 40
18.92909416384157
 40
21.33087372016612
 40
23.50140501097225
 40
23.50140501097225
 40
23.50140501097225
 40
23.50140501097225
 10
-21.73966098701783
 20
73.84911035857342
 30
0.0
 10
-23.15108391102879
 20
72.30206786473835
 30
0.0
 10
-26.0399203704803
 20
69.13565141756092
 30
0.0
 10
-27.32104534580387
 20
63.60840712077714
 30
0.0
 10
-28.93560997683545
 20
59.87017606773594
 30
0.0
 10
-29.49193720052225
 20
56.61653357617051
 30
0.0
 10
-26.9294311723722
 20
55.24414254553241
 30
0.0
 10
-25.44455138927782
 20
55.65437028587496
 30
0.0
 10
-24.73966098701783
 20
55.84911035857342
 30
0.0
 11
-21.73966098701783
 21
73.84911035857342
 31
0.0
 11
-25.52111687910076
 21
68.94228786559418
 31
0.0
 11
-27.7396609870176
 21
62.84911035857343
 31
0.0
 11
-28.94403204438152
 21
59.35382757438154
 31
0.0
 11
-28.94403204438174
 21
56.80105595397847
 31
0.0
 11
-26.89028312563607
 21
55.5558007930056
 31
0.0
 11
-24.73966098701783
 21
55.84911035857342
 31
0.0
  0
SPLINE
  5
3BCC
102
{ACAD_REACTORS
330
3C81
102
}
330
2
100
AcDbEntity
  8
KIJUN
100
AcDbSpline
210
0.0
220
0.0
230
1.0
 70
     8
 71
     3
 72
    11
 73
     7
 74
     5
 42
0.0000000001
 43
0.0000000001
 44
0.0000000001
 40
0.0
 40
0.0
 40
0.0
 40
0.0
 40
4.427416977294997
 40
6.951710140489355
 40
9.438555806709267
 40
10.52483606447147
 40
10.52483606447147
 40
10.52483606447147
 40
10.52483606447147
 10
-19.21272712819075
 20
64.40661771131684
 30
0.0
 10
-20.24224027362692
 20
63.34737021178
 30
0.0
 10
-21.85873065833613
 20
61.68419242175466
 30
0.0
 10
-23.5945875711497
 20
59.01630109045709
 30
0.0
 10
-23.23517632632183
 20
56.53877694204758
 30
0.0
 10
-24.38890985666493
 20
56.00989719810709
 30
0.0
 10
-24.73966098701783
 20
55.84911035857342
 30
0.0
 11
-19.21272712819075
 21
64.40661771131684
 31
0.0
 11
-22.16417064117252
 21
61.10646585412635
 31
0.0
 11
-23.2926640144052
 21
58.84846703208953
 31
0.0
 11
-23.81350704034969
 21
56.41677545832411
 31
0.0
 11
-24.73966098701783
 21
55.84911035857342
 31
0.0
  0
SPLINE
  5
3BCD
102
{ACAD_REACTORS
330
3C81
102
}
330
2
100
AcDbEntity
  8
KIJUN
100
AcDbSpline
210
0.0
220
0.0
230
1.0
 70
     8
 71
     3
 72
    10
 73
     6
 74
     4
 42
0.0000000001
 43
0.0000000001
 44
0.0000000001
 40
0.0
 40
0.0
 40
0.0
 40
0.0
 40
3.883820335902668
 40
11.09413778573068
 40
21.33468403398231
 40
21.33468403398231
 40
21.33468403398231
 40
21.33468403398231
 10
-23.98712168303621
 20
43.91093625630176
 30
0.0
 10
-23.70011527388277
 20
45.17705479151436
 30
0.0
 10
-22.88028109692513
 20
48.79372401610952
 30
0.0
 10
-23.91727434622871
 20
56.10770420864716
 30
0.0
 10
-20.95251334553299
 20
61.33760072377308
 30
0.0
 10
-19.21272712819075
 20
64.40661771131684
 30
0.0
 11
-23.98712168303621
 21
43.91093625630176
 31
0.0
 11
-23.2926640144052
 21
47.73216497859133
 31
0.0
 11
-23.11904982277622
 21
54.94039193393613
 31
0.0
 11
-19.21272712819075
 21
64.40661771131684
 31
0.0
  0
SPLINE
  5
3BCE
102
{ACAD_REACTORS
330
3C81
102
}
330
2
100
AcDbEntity
  8
KIJUN
100
AcDbSpline
210
0.0
220
0.0
230
1.0
 70
     8
 71
     3
 72
    10
 73
     6
 74
     0
 42
0.0000000001
 43
0.0000000001
 40
0.0
 40
0.0
 40
0.0
 40
0.0
 40
3.862388385493702
 40
8.345652591473944
 40
12.38420834559641
 40
12.38420834559641
 40
12.38420834559641
 40
12.38420834559641
 10
-23.2234608413022
 20
42.36531050428905
 30
0.0
 10
-22.72130866384998
 20
43.55949644747946
 30
0.0
 10
-21.63628375107657
 20
46.1398327619004
 30
0.0
 10
-21.31999728908079
 20
50.29703668903633
 30
0.0
 10
-20.74340419447401
 20
53.07847576421457
 30
0.0
 10
-20.44404313613779
 20
54.39085909369831
 30
0.0
  0
SPLINE
  5
3BCF
102
{ACAD_REACTORS
330
3C81
102
}
330
2
100
AcDbEntity
  8
KIJUN
100
AcDbSpline
210
0.0
220
0.0
230
1.0
 70
     8
 71
     3
 72
    13
 73
     9
 74
     7
 42
0.0000000001
 43
0.0000000001
 44
0.0000000001
 40
0.0
 40
0.0
 40
0.0
 40
0.0
 40
7.061059652714192
 40
11.90392032140262
 40
13.8393781455405
 40
14.88018339050048
 40
15.57623969364546
 40
16.3104440236289
 40
16.3104440236289
 40
16.3104440236289
 40
16.3104440236289
 10
-24.73966098701783
 20
55.84911035857342
 30
0.0
 10
-25.32250795154221
 20
53.51833146590255
 30
0.0
 10
-26.30510322286284
 20
49.58897700782256
 30
0.0
 10
-24.2520126739677
 20
44.9369959566774
 30
0.0
 10
-25.38765959209522
 20
42.48379843689157
 30
0.0
 10
-25.50158236969006
 20
41.2578364504127
 30
0.0
 10
-26.10640694163044
 20
40.55320335945223
 30
0.0
 10
-25.86406423330231
 20
40.0879444994657
 30
0.0
 10
-25.7396609870176
 20
39.84911035857343
 30
0.0
 11
-24.73966098701783
 21
55.84911035857342
 31
0.0
 11
-25.52111687910122
 21
48.83142625996109
 31
0.0
 11
-24.83653420689063
 21
44.03719576683309
 31
0.0
 11
-25.37384153480469
 21
42.17781473423477
 31
0.0
 11
-25.64558657888199
 21
41.17311070370854
 31
0.0
 11
-25.95676060280641
 21
40.55048312322199
 31
0.0
 11
-25.7396609870176
 21
39.84911035857343
 31
0.0
  0
ARC
  5
3BD0
102
{ACAD_REACTORS
330
3C81
102
}
330
2
100
AcDbEntity
  8
KIJUN
100
AcDbCircle
 10
14.14543997747921
 20
130.8282728282106
 30
0.0
 40
9.984605415319316
100
AcDbArc
 50
69.94542959917765
 51
175.3336448145207
  0
SPLINE
  5
3BD1
102
{ACAD_REACTORS
330
3C81
102
}
330
2
100
AcDbEntity
  8
KIJUN
100
AcDbSpline
210
0.0
220
0.0
230
1.0
 70
     8
 71
     3
 72
    18
 73
    14
 74
     0
 42
0.0000000001
 43
0.0000000001
 40
2.776977998178755
 40
2.776977998178755
 40
2.776977998178755
 40
2.776977998178755
 40
2.964032758319999
 40
2.964032758319999
 40
3.219467197786193
 40
3.219467197786193
 40
3.474901637252387
 40
3.474901637252387
 40
3.730336076718581
 40
3.730336076718581
 40
3.985770516184775
 40
3.985770516184775
 40
4.055297468883839
 40
4.055297468883839
 40
4.055297468883839
 40
4.055297468883839
 10
2.98108979547544
 20
112.5934139065994
 30
0.0
 10
3.623115937747002
 20
114.3568803002045
 30
0.0
 10
4.451593402208686
 20
116.0433124999779
 30
0.0
 10
6.829132152957413
 20
119.7567750996902
 30
0.0
 10
8.530765311620257
 20
121.6806915885547
 30
0.0
 10
12.44946223161366
 20
124.9169955343482
 30
0.0
 10
14.66436462698345
 20
126.2282934089235
 30
0.0
 10
19.40716501626605
 20
128.1506356777706
 30
0.0
 10
21.93349578128516
 20
128.7626976978406
 30
0.0
 10
27.10373847726339
 20
129.2861682166699
 30
0.0
 10
29.74759353635489
 20
129.1987298924041
 30
0.0
 10
33.08180884509727
 20
128.672196680141
 30
0.0
 10
33.7934999718824
 20
128.5353895245201
 30
0.0
 10
34.50208922070749
 20
128.3751318137602
 30
0.0
  0
ELLIPSE
  5
3BD2
102
{ACAD_REACTORS
330
3C81
102
}
330
2
100
AcDbEntity
  8
KIJUN
100
AcDbEllipse
 10
32.45956347006802
 20
98.04833481757331
 30
0.0
 11
19.4454364816731
 21
-19.44543648167311
 31
0.0
210
0.0
220
0.0
230
-1.0
 40
0.8181818182220826
 41
1.95737211675537
 42
4.055295408141351
  0
SPLINE
  5
3BD3
102
{ACAD_REACTORS
330
3C81
102
}
330
2
100
AcDbEntity
  8
KIJUN
100
AcDbSpline
210
0.0
220
0.0
230
1.0
 70
     8
 71
     3
 72
     9
 73
     5
 74
     3
 42
0.0000000001
 43
0.0000000001
 44
0.0000000001
 40
0.0
 40
0.0
 40
0.0
 40
0.0
 40
14.57218867743349
 40
34.28432586227464
 40
34.28432586227464
 40
34.28432586227464
 40
34.28432586227464
 10
-4.739660987017373
 20
134.8491103585734
 30
0.0
 10
0.1731896795090222
 20
136.1840641563166
 30
0.0
 10
11.73176724752534
 20
139.324840880117
 30
0.0
 10
16.47019563286943
 20
150.5776409418036
 30
0.0
 10
19.1946053455664
 20
157.0475578192895
 30
0.0
 11
-4.739660987017373
 21
134.8491103585734
 31
0.0
 11
8.766773253306951
 21
140.3194775274676
 31
0.0
 11
19.1946053455664
 21
157.0475578192895
 31
0.0
  0
ARC
  5
3BD4
102
{ACAD_REACTORS
330
3C81
102
}
330
2
100
AcDbEntity
  8
KIJUN
100
AcDbCircle
 10
-9.38540840780422
 20
79.66603933420109
 30
0.0
 40
14.89284064752738
100
AcDbArc
 50
80.43893367676414
 51
142.7423182995224
  0
ARC
  5
3BD5
102
{ACAD_REACTORS
330
3C81
102
}
330
2
100
AcDbEntity
  8
KIJUN
100
AcDbCircle
 10
-8.798414358835202
 20
80.02519520038848
 30
0.0
 40
18.10632118428093
100
AcDbArc
 50
82.53053595308719
 51
139.0209237627509
  0
ARC
  5
3BD6
102
{ACAD_REACTORS
330
3C81
102
}
330
2
100
AcDbEntity
  8
KIJUN
100
AcDbCircle
 10
-8.658611598500442
 20
73.93001481972695
 30
0.0
 40
14.61626702426019
100
AcDbArc
 50
71.79500535458443
 51
164.4468328707594
  0
SPLINE
  5
3BD7
102
{ACAD_REACTORS
330
3C81
102
}
330
2
100
AcDbEntity
  8
KIJUN
100
AcDbSpline
210
0.0
220
0.0
230
1.0
 70
     8
 71
     3
 72
    11
 73
     7
 74
     5
 42
0.0000000001
 43
0.0000000001
 44
0.0000000001
 40
0.0
 40
0.0
 40
0.0
 40
0.0
 40
4.908950163247626
 40
11.87935801347389
 40
24.05297916670051
 40
43.2328643788377
 40
43.2328643788377
 40
43.2328643788377
 40
43.2328643788377
 10
13.01412698851516
 20
78.60289833410641
 30
0.0
 10
11.35978361838187
 20
78.01090108172072
 30
0.0
 10
7.356374229921385
 20
76.5783040762074
 30
0.0
 10
0.985887888651888
 20
83.50263349953781
 30
0.0
 10
-2.085176640902005
 20
96.06409114324065
 30
0.0
 10
1.058194741918555
 20
106.319730242415
 30
0.0
 10
2.981089795475213
 20
112.5934139065989
 30
0.0
 11
13.01412698851516
 21
78.60289833410641
 31
0.0
 11
8.197462877918837
 21
77.65551322184094
 31
0.0
 11
2.832775457869843
 21
82.10598673413873
 31
0.0
 11
-0.6710922492087548
 21
93.76445846389723
 31
0.0
 11
2.981089795475213
 21
112.5934139065989
 31
0.0
  0
ARC
  5
3BD8
102
{ACAD_REACTORS
330
3C81
102
}
330
2
100
AcDbEntity
  8
KIJUN
100
AcDbCircle
 10
-23.76425517987866
 20
83.29992197285244
 30
0.0
 40
5.546272668594488
100
AcDbArc
 50
206.224178018793
 51
280.6457196270562
  0
SPLINE
  5
3BD9
102
{ACAD_REACTORS
330
3C81
102
}
330
2
100
AcDbEntity
  8
KIJUN
100
AcDbSpline
210
0.0
220
0.0
230
1.0
 70
     8
 71
     3
 72
     8
 73
     4
 74
     0
 42
0.0000000001
 43
0.0000000001
 40
7.853981844473644
 40
7.853981844473644
 40
7.853981844473644
 40
7.853981844473644
 40
7.868758038269795
 40
7.868758038269795
 40
7.868758038269795
 40
7.868758038269795
 10
12.30733939697836
 20
77.89611074256985
 30
0.0
 10
12.19447431959645
 20
78.00899269682443
 30
0.0
 10
12.08228999556684
 20
78.12255542490359
 30
0.0
 10
11.97079668363574
 20
78.23678826378458
 30
0.0
  0
LINE
  5
3BDA
102
{ACAD_REACTORS
330
3C81
102
}
330
2
100
AcDbEntity
  8
KIJUN
100
AcDbLine
 10
18.67098123800758
 20
84.2597525835986
 30
0.0
 11
13.01412698851516
 21
78.60289833410641
 31
0.0
  0
SPLINE
  5
3BDB
102
{ACAD_REACTORS
330
3C81
102
}
330
2
100
AcDbEntity
  8
KIJUN
100
AcDbSpline
210
0.0
220
0.0
230
1.0
 70
     8
 71
     3
 72
    12
 73
     8
 74
     6
 42
0.0000000001
 43
0.0000000001
 44
0.0000000001
 40
0.0
 40
0.0
 40
0.0
 40
0.0
 40
2.947420551965315
 40
8.992781450053591
 40
12.37039634837846
 40
16.72676297746151
 40
31.39176109659445
 40
31.39176109659445
 40
31.39176109659445
 40
31.39176109659445
 10
-4.730074130846446
 20
69.34397858898321
 30
0.0
 10
-5.40520167515919
 20
70.322386244552
 30
0.0
 10
-7.465061932585825
 20
73.30757483927854
 30
0.0
 10
1.643216761569988
 20
74.87999245642399
 30
0.0
 10
-4.28440764285375
 20
78.03211348136918
 30
0.0
 10
-10.90762743832275
 20
79.64059274367667
 30
0.0
 10
-17.02405092713903
 20
76.37037033012271
 30
0.0
 10
-21.73966098701783
 20
73.84911035857342
 30
0.0
 11
-4.730074130846446
 21
69.34397858898321
 31
0.0
 11
-5.822897250560004
 21
72.08131772383061
 31
0.0
 11
-0.9166406335881447
 21
75.61331919559624
 31
0.0
 11
-3.664983529336609
 21
77.57670752416882
 31
0.0
 11
-7.885241515248367
 21
78.65714851716032
 31
0.0
 11
-21.73966098701783
 21
73.84911035857342
 31
0.0
  0
SPLINE
  5
3BDC
102
{ACAD_REACTORS
330
3C81
102
}
330
2
100
AcDbEntity
  8
KIJUN
100
AcDbSpline
210
0.0
220
0.0
230
1.0
 70
     8
 71
     3
 72
    13
 73
     9
 74
     7
 42
0.0000000001
 43
0.0000000001
 44
0.0000000001
 40
0.0
 40
0.0
 40
0.0
 40
0.0
 40
12.39254974266629
 40
22.75320464059909
 40
27.22954204004862
 40
33.80443334534628
 40
40.27233377839129
 40
45.27233377839149
 40
45.27233377839149
 40
45.27233377839149
 40
45.27233377839149
 10
-21.73966098701783
 20
73.84911035857342
 30
0.0
 10
-18.90793977822855
 20
77.14555461933793
 30
0.0
 10
-13.70878920093628
 20
83.19795484439163
 30
0.0
 10
-4.081498816887375
 20
83.40710557282287
 30
0.0
 10
3.208109984348027
 20
82.44670403406031
 30
0.0
 10
6.893179258586485
 20
76.73985263789955
 30
0.0
 10
5.447597831082219
 20
70.25411797530054
 30
0.0
 10
2.441189519100191
 20
67.79245299155516
 30
0.0
 10
1.130396698071194
 20
66.71916804366176
 30
0.0
 11
-21.73966098701783
 21
73.84911035857342
 31
0.0
 11
-12.40040046391198
 21
81.99487625295162
 31
0.0
 11
-2.095911488622391
 21
83.07222339858029
 31
0.0
 11
2.257769774631356
 21
82.03152364759356
 31
0.0
 11
5.952963163889648
 21
76.59325724252838
 31
0.0
 11
4.665930604004074
 21
70.25470194959464
 31
0.0
 11
1.130396698071194
 21
66.71916804366176
 31
0.0
  0
ARC
  5
3BDD
102
{ACAD_REACTORS
330
3C81
102
}
330
2
100
AcDbEntity
  8
KIJUN
100
AcDbCircle
 10
1.450199607707531
 20
62.57713657338675
 30
0.0
 40
10.7697670125905
100
AcDbArc
 50
130.8568432865936
 51
207.9654040546167
  0
ARC
  5
3BDE
102
{ACAD_REACTORS
330
3C81
102
}
330
2
100
AcDbEntity
  8
KIJUN
100
AcDbCircle
 10
-0.0694257629085087
 20
71.89510344954422
 30
0.0
 40
5.313179957778427
100
AcDbArc
 50
208.6952176949197
 51
283.0511035905545
  0
SPLINE
  5
3BDF
102
{ACAD_REACTORS
330
3C81
102
}
330
2
100
AcDbEntity
  8
KIJUN
100
AcDbSpline
210
0.0
220
0.0
230
1.0
 70
     8
 71
     3
 72
    11
 73
     7
 74
     0
 42
0.0000000001
 43
0.0000000001
 40
0.0
 40
0.0
 40
0.0
 40
0.0
 40
4.789165631479916
 40
9.304648877748356
 40
14.03892271824898
 40
15.3169602545782
 40
15.3169602545782
 40
15.3169602545782
 40
15.3169602545782
 10
18.67098123788753
 20
84.25975258347856
 30
0.0
 10
18.97085335735289
 20
85.95241850785763
 30
0.0
 10
19.55346105868364
 20
89.24102101309385
 30
0.0
 10
15.47534321655541
 20
92.55740508468992
 30
0.0
 10
13.93896253357764
 20
92.94363581582549
 30
0.0
 10
11.9064299948003
 20
92.3151170469387
 30
0.0
 10
10.39242337165422
 20
90.64379701267174
 30
0.0
  0
ARC
  5
3BE0
102
{ACAD_REACTORS
330
3C81
102
}
330
2
100
AcDbEntity
  8
KIJUN
100
AcDbCircle
 10
-10.64347774668215
 20
78.74815616865706
 30
0.0
 40
12.12954790387544
100
AcDbArc
 50
184.2506788997591
 51
203.821808036094
  0
ARC
  5
3BE1
102
{ACAD_REACTORS
330
3C81
102
}
330
2
100
AcDbEntity
  8
KIJUN
100
AcDbCircle
 10
-9.088678023485158
 20
80.18007447958714
 30
0.0
 40
21.23800409406968
100
AcDbArc
 50
82.85024891375357
 51
129.458123559185
  0
ARC
  5
3BE2
102
{ACAD_REACTORS
330
3C81
102
}
330
2
100
AcDbEntity
  8
KIJUN
100
AcDbCircle
 10
-11.40320527671167
 20
86.05009557683482
 30
0.0
 40
21.06718973874528
100
AcDbArc
 50
77.69746570005732
 51
122.4408190119317
  0
ARC
  5
3BE3
102
{ACAD_REACTORS
330
3C81
102
}
330
2
100
AcDbEntity
  8
KIJUN
100
AcDbCircle
 10
-12.63204440863217
 20
93.79557374662695
 30
0.0
 40
16.86654985791812
100
AcDbArc
 50
68.06001507750082
 51
126.9186753024634
  0
ARC
  5
3BE4
102
{ACAD_REACTORS
330
3C81
102
}
330
2
100
AcDbEntity
  8
KIJUN
100
AcDbCircle
 10
-10.81238906547071
 20
102.8282703630139
 30
0.0
 40
22.87591508070422
100
AcDbArc
 50
67.82862916723944
 51
122.432888132081
  0
ARC
  5
3BE5
102
{ACAD_REACTORS
330
3C81
102
}
330
2
100
AcDbEntity
  8
KIJUN
100
AcDbCircle
 10
-11.58950857655861
 20
96.20856252087859
 30
0.0
 40
25.20406761743332
100
AcDbArc
 50
69.60390546299648
 51
110.3716885649994
  0
ARC
  5
3BE6
102
{ACAD_REACTORS
330
3C81
102
}
330
2
100
AcDbEntity
  8
KIJUN
100
AcDbCircle
 10
-10.32922516384326
 20
71.88010882441361
 30
0.0
 40
44.92892049893236
100
AcDbArc
 50
82.11233797009279
 51
103.5881868799748
  0
ARC
  5
3BE7
102
{ACAD_REACTORS
330
3C81
102
}
330
2
100
AcDbEntity
  8
KIJUN
100
AcDbCircle
 10
-10.47631269599139
 20
110.0311271820066
 30
0.0
 40
22.70316008255207
100
AcDbArc
 50
46.1908640473162
 51
101.5858816366922
  0
ARC
  5
3BE8
102
{ACAD_REACTORS
330
3C81
102
}
330
2
100
AcDbEntity
  8
KIJUN
100
AcDbCircle
 10
0.3809034613374251
 20
125.6959170659377
 30
0.0
 40
10.01861437888099
100
AcDbArc
 50
22.61972210061488
 51
55.36734745547262
  0
ARC
  5
3BE9
102
{ACAD_REACTORS
330
3C81
102
}
330
2
100
AcDbEntity
  8
KIJUN
100
AcDbCircle
 10
-3.950377919184234
 20
122.1200098927867
 30
0.0
 40
12.75354720966916
100
AcDbArc
 50
33.35266074873187
 51
93.54815057778022
  0
ARC
  5
3BEA
102
{ACAD_REACTORS
330
3C81
102
}
330
2
100
AcDbEntity
  8
KIJUN
100
AcDbCircle
 10
-12.92439796707879
 20
98.08563221830869
 30
0.0
 40
31.50935412409282
100
AcDbArc
 50
59.84948543082768
 51
102.4914149883602
  0
ARC
  5
3BEB
102
{ACAD_REACTORS
330
3C81
102
}
330
2
100
AcDbEntity
  8
KIJUN
100
AcDbCircle
 10
-10.62925359142798
 20
87.30093843172019
 30
0.0
 40
25.75708272026826
100
AcDbArc
 50
75.78992091746592
 51
123.2180156831659
  0
ARC
  5
3BEC
102
{ACAD_REACTORS
330
3C81
102
}
330
2
100
AcDbEntity
  8
KIJUN
100
AcDbCircle
 10
-10.35388087681906
 20
82.93952659915523
 30
0.0
 40
21.56648168050055
100
AcDbArc
 50
74.28805191491263
 51
128.3654571901096
  0
SPLINE
  5
3BED
102
{ACAD_REACTORS
330
3C81
102
}
330
2
100
AcDbEntity
  8
KIJUN
100
AcDbSpline
210
0.0
220
0.0
230
1.0
 70
     8
 71
     3
 72
    11
 73
     7
 74
     5
 42
0.0000000001
 43
0.0000000001
 44
0.0000000001
 40
0.0
 40
0.0
 40
0.0
 40
0.0
 40
5.936609921819266
 40
11.48693828334665
 40
15.36885681082133
 40
19.99010247685548
 40
19.99010247685548
 40
19.99010247685548
 40
19.99010247685548
 10
-23.7396609870176
 20
99.84911035857344
 30
0.0
 10
-24.7281607953467
 20
98.10635808717719
 30
0.0
 10
-26.64084100188058
 20
94.73425042837455
 30
0.0
 10
-27.07775830552774
 20
89.53801075356555
 30
0.0
 10
-26.48323863529729
 20
84.76009826683265
 30
0.0
 10
-27.94515044328842
 20
82.22621120458315
 30
0.0
 10
-28.7396609870176
 20
80.84911035857343
 30
0.0
 11
-23.7396609870176
 21
99.84911035857344
 31
0.0
 11
-26.28151280319082
 21
94.48419407698432
 31
0.0
 11
-26.89417259232107
 21
88.9677828428976
 31
0.0
 11
-26.89417259232107
 21
85.08586431542292
 31
0.0
 11
-28.7396609870176
 21
80.84911035857343
 31
0.0
  0
ARC
  5
3BEE
102
{ACAD_REACTORS
330
3C81
102
}
330
2
100
AcDbEntity
  8
KIJUN
100
AcDbCircle
 10
-19.80543184609439
 20
104.8418024853424
 30
0.0
 40
6.356503253046835
100
AcDbArc
 50
140.9184066643091
 51
231.7619768275074
  0
ARC
  5
3BEF
102
{ACAD_REACTORS
330
3C81
102
}
330
2
100
AcDbEntity
  8
KIJUN
100
AcDbCircle
 10
-23.0191382186714
 20
115.5696331269199
 30
0.0
 40
6.937263500564543
100
AcDbArc
 50
194.3598881381439
 51
255.6401118618627
  0
ARC
  5
3BF0
102
{ACAD_REACTORS
330
3C81
102
}
330
2
100
AcDbEntity
  8
KIJUN
100
AcDbCircle
 10
-26.86995612055478
 20
114.1026404475977
 30
0.0
 40
2.88088242152355
100
AcDbArc
 50
107.571057697444
 51
185.0488072505861
  0
ARC
  5
3BF1
102
{ACAD_REACTORS
330
3C81
102
}
330
2
100
AcDbEntity
  8
KIJUN
100
AcDbCircle
 10
-15.07057849862064
 20
117.0697220329752
 30
0.0
 40
12.67100314137335
100
AcDbArc
 50
111.6222520195736
 51
180.9976129284638
  0
SPLINE
  5
3BF2
102
{ACAD_REACTORS
330
3C81
102
}
330
2
100
AcDbEntity
  8
KIJUN
100
AcDbSpline
210
0.0
220
0.0
230
1.0
 70
     8
 71
     3
 72
    10
 73
     6
 74
     0
 42
0.0000000001
 43
0.0000000001
 40
0.0
 40
0.0
 40
0.0
 40
0.0
 40
5.999888852774693
 40
15.44839251724818
 40
20.93761825673844
 40
20.93761825673881
 40
20.93761825673881
 40
20.93761825673881
 10
34.50208922070726
 20
128.3751318137604
 30
0.0
 10
33.65020470384832
 20
126.3338956457203
 30
0.0
 10
31.45678967254878
 20
121.0781620283046
 30
0.0
 10
39.55815015087285
 20
116.3947081676647
 30
0.0
 10
44.73732038807418
 20
116.795877038948
 30
0.0
 10
46.23041147600917
 20
115.9199112729689
 30
0.0
  0
ARC
  5
3BF3
102
{ACAD_REACTORS
330
3C81
102
}
330
2
100
AcDbEntity
  8
KIJUN
100
AcDbCircle
 10
8.970251210650417
 20
132.5653132212109
 30
0.0
 40
8.088369617953194
100
AcDbArc
 50
357.1302401617954
 51
46.49025051040688
  0
ARC
  5
3BF4
102
{ACAD_REACTORS
330
3C81
102
}
330
2
100
AcDbEntity
  8
KIJUN
100
AcDbCircle
 10
44.68836079617756
 20
145.0695351702907
 30
0.0
 40
27.55145173589435
100
AcDbArc
 50
190.1643292671127
 51
209.9287635477832
  0
ARC
  5
3BF5
102
{ACAD_REACTORS
330
3C81
102
}
330
2
100
AcDbEntity
  8
KIJUN
100
AcDbCircle
 10
-1.745116802015104
 20
124.6453439918239
 30
0.0
 40
15.24005033509689
100
AcDbArc
 50
23.40145909390807
 51
48.92232058667665
  0
ARC
  5
3BF6
102
{ACAD_REACTORS
330
3C81
102
}
330
2
100
AcDbEntity
  8
KIJUN
100
AcDbCircle
 10
1.130492373210131
 20
127.5430958564467
 30
0.0
 40
14.39225438634998
100
AcDbArc
 50
16.09781238960709
 51
42.0242904972504
  0
ARC
  5
3BF7
102
{ACAD_REACTORS
330
3C81
102
}
330
2
100
AcDbEntity
  8
KIJUN
100
AcDbCircle
 10
25.10756194881617
 20
135.9133905019264
 30
0.0
 40
4.804654908616647
100
AcDbArc
 50
310.5474921075291
 51
47.81627717537239
  0
ARC
  5
3BF8
102
{ACAD_REACTORS
330
3C81
102
}
330
2
100
AcDbEntity
  8
KIJUN
100
AcDbCircle
 10
26.77039840764598
 20
136.7285324708862
 30
0.0
 40
8.372055431610746
100
AcDbArc
 50
337.4302156906641
 51
20.65214297977998
  0
ARC
  5
3BF9
102
{ACAD_REACTORS
330
3C81
102
}
330
2
100
AcDbEntity
  8
KIJUN
100
AcDbCircle
 10
28.68600228677621
 20
136.7290259237215
 30
0.0
 40
9.603075075872466
100
AcDbArc
 50
337.0989331540533
 51
15.29710544640964
  0
ELLIPSE
  5
3BFA
102
{ACAD_REACTORS
330
3C81
102
}
330
2
100
AcDbEntity
  8
KIJUN
100
AcDbEllipse
 10
32.45956347006802
 20
98.04833481757331
 30
0.0
 11
19.4454364816731
 21
-19.44543648167311
 31
0.0
210
0.0
220
0.0
230
-1.0
 40
0.8181818182220826
 41
4.606750689032431
 42
4.712388980384689
  0
ARC
  5
3BFB
102
{ACAD_REACTORS
330
3C81
102
}
330
2
100
AcDbEntity
  8
KIJUN
100
AcDbCircle
 10
40.1289579414157
 20
124.0543661863117
 30
0.0
 40
7.0944109838257
100
AcDbArc
 50
11.01153313188815
 51
142.4800259783713
  0
ARC
  5
3BFC
102
{ACAD_REACTORS
330
3C81
102
}
330
2
100
AcDbEntity
  8
KIJUN
100
AcDbCircle
 10
64.90211117397632
 20
146.8571205280189
 30
0.0
 40
44.6927866101254
100
AcDbArc
 50
190.1870516406523
 51
198.7748913089109
  0
ARC
  5
3BFD
102
{ACAD_REACTORS
330
3C81
102
}
330
2
100
AcDbEntity
  8
KIJUN
100
AcDbCircle
 10
11.70691575412672
 20
136.8338892740828
 30
0.0
 40
13.42661095833742
100
AcDbArc
 50
343.3856265437478
 51
13.16732471607669
  0
ARC
  5
3BFE
102
{ACAD_REACTORS
330
3C81
102
}
330
2
100
AcDbEntity
  8
KIJUN
100
AcDbCircle
 10
24.5745901497495
 20
135.6783195198984
 30
0.0
 40
8.341894184172057
100
AcDbArc
 50
39.0718632377351
 51
147.1159274691996
  0
LINE
  5
3BFF
102
{ACAD_REACTORS
330
3C81
102
}
330
2
100
AcDbEntity
  8
KIJUN
100
AcDbLine
 10
13.8976310525835
 20
146.1280854997608
 30
0.0
 11
26.77145161864212
 21
147.7421077735273
 31
0.0
  0
LINE
  5
3C00
102
{ACAD_REACTORS
330
3C81
102
}
330
2
100
AcDbEntity
  8
KIJUN
100
AcDbLine
 10
26.77145161864212
 20
147.7421077735273
 30
0.0
 11
19.1946053455664
 21
157.0475578192895
 31
0.0
  0
SPLINE
  5
3C01
102
{ACAD_REACTORS
330
3C81
102
}
330
2
100
AcDbEntity
  8
KIJUN
100
AcDbSpline
210
0.0
220
0.0
230
1.0
 70
     8
 71
     3
 72
    11
 73
     7
 74
     0
 42
0.0000000001
 43
0.0000000001
 40
0.0
 40
0.0
 40
0.0
 40
0.0
 40
2.109503522317044
 40
8.594927690037248
 40
14.667018128423
 40
17.65912610327059
 40
17.65912610327059
 40
17.65912610327059
 40
17.65912610327059
 10
47.09275198935268
 20
125.4094453963016
 30
0.0
 10
47.76578514773553
 20
125.7162126189548
 30
0.0
 10
50.50798077248771
 20
126.966100124941
 30
0.0
 10
49.48171512101601
 20
133.3546032157246
 30
0.0
 10
46.38845620178642
 20
137.480493069203
 30
0.0
 10
43.71739505934089
 20
138.8402044649736
 30
0.0
 10
42.78824970637822
 20
139.2230937458599
 30
0.0
  0
ARC
  5
3C02
102
{ACAD_REACTORS
330
3C81
102
}
330
2
100
AcDbEntity
  8
KIJUN
100
AcDbCircle
 10
35.65305930088414
 20
131.4020312068833
 30
0.0
 40
10.58678238931012
100
AcDbArc
 50
47.62566202074989
 51
115.7668972442683
  0
DIMENSION
  5
3C07
330
2
100
AcDbEntity
  8
SUNPOU
100
AcDbDimension
  2
*D32
 10
168.2603390129819
 20
257.5879811493461
 30
0.0
 11
68.26033901298195
 21
263.0879811493461
 31
0.0
 70
    32
 71
     5
 42
200.0
  3
STANDARD
100
AcDbAlignedDimension
 13
-31.73966098701803
 23
215.3228927067861
 33
0.0
 14
168.2603390129819
 24
232.8569007741653
 34
0.0
100
AcDbRotatedDimension
1001
ACAD
1000
DSTYLE
1002
{
1070
    41
1040
2.0
1070
    42
1040
10.0
1070
    44
1040
0.0
1070
    73
1070
     0
1070
    74
1070
     0
1070
    77
1070
     1
1070
   140
1040
5.0
1070
   141
1040
0.0
1070
   146
1040
0.064286
1070
   147
1040
3.0
1070
   176
1070
    60
1070
   177
1070
    70
1070
   178
1070
    60
1070
   271
1070
     0
1070
   272
1070
     0
1070
   340
1005
1C
1070
   342
1005
109
1002
}
  0
DIMENSION
  5
3C6B
330
2
100
AcDbEntity
  8
SUNPOU
100
AcDbDimension
  2
*D34
 10
201.4862600483118
 20
33.84911035857345
 30
0.0
 11
195.9862600483118
 21
133.8491103585734
 31
0.0
 70
    32
 71
     5
 42
200.0
  3
STANDARD
100
AcDbAlignedDimension
 13
168.2094791379611
 23
233.8491103585734
 33
0.0
 14
149.7341213611947
 24
33.84911035857346
 34
0.0
 50
90.0
100
AcDbRotatedDimension
1001
ACAD
1000
DSTYLE
1002
{
1070
    41
1040
2.0
1070
    42
1040
10.0
1070
    44
1040
0.0
1070
    73
1070
     0
1070
    74
1070
     0
1070
    77
1070
     1
1070
   140
1040
5.0
1070
   141
1040
0.0
1070
   146
1040
0.064286
1070
   147
1040
3.0
1070
   176
1070
    60
1070
   177
1070
    70
1070
   178
1070
    60
1070
   271
1070
     0
1070
   272
1070
     0
1070
   340
1005
1C
1070
   342
1005
109
1002
}
  0
ENDSEC
  0
SECTION
  2
OBJECTS
  0
DICTIONARY
  5
1A
330
0
100
AcDbDictionary
281
     1
  3
ACAD_COLOR
350
144
  3
ACAD_GROUP
350
18
  3
ACAD_LAYOUT
350
58
  3
ACAD_MATERIAL
350
143
  3
ACAD_MLINESTYLE
350
19
  3
ACAD_PLOTSETTINGS
350
59
  3
ACAD_PLOTSTYLENAME
350
56
  3
ACAD_TABLESTYLE
350
145
  3
ACDBHEADERROUNDTRIPXREC
350
3C89
  3
AcDbVariableDictionary
350
1D1
  0
DICTIONARY
  5
1B4
330
A
100
AcDbDictionary
280
     1
281
     1
  3
ACAD_LAYERFILTERS
360
1A2A
  3
ACLYDICTIONARY
360
1A29
  0
DICTIONARY
  5
D13
330
2
100
AcDbDictionary
280
     1
281
     1
  3
ACAD_SORTENTS
360
D14
  0
DICTIONARY
  5
144
102
{ACAD_REACTORS
330
1A
102
}
330
1A
100
AcDbDictionary
281
     1
  0
DICTIONARY
  5
18
102
{ACAD_REACTORS
330
1A
102
}
330
1A
100
AcDbDictionary
281
     1
  3
*A1
350
E0D
  3
*A10
350
24D6
  3
*A11
350
2573
  3
*A12
350
1EFE
  3
*A13
350
265A
  3
*A14
350
26DD
  3
*A15
350
275E
  3
*A16
350
2EE1
  3
*A17
350
2F81
  3
*A18
350
307D
  3
*A19
350
3181
  3
*A2
350
2905
  3
*A20
350
31DF
  3
*A21
350
32E4
  3
*A22
350
3349
  3
*A23
350
2037
  3
*A24
350
3467
  3
*A25
350
34BB
  3
*A26
350
35A5
  3
*A27
350
FF8
  3
*A28
350
136A
  3
*A29
350
1555
  3
*A3
350
2A17
  3
*A30
350
17BC
  3
*A31
350
1A98
  3
*A32
350
1CBC
  3
*A33
350
3695
  3
*A34
350
36C9
  3
*A35
350
382B
  3
*A36
350
3878
  3
*A37
350
3988
  3
*A38
350
3A25
  3
*A39
350
3C81
  3
*A4
350
213E
  3
*A5
350
2B84
  3
*A6
350
2C6B
  3
*A7
350
2D78
  3
*A8
350
22C8
  3
*A9
350
241A
  0
DICTIONARY
  5
58
102
{ACAD_REACTORS
330
1A
102
}
330
1A
100
AcDbDictionary
281
     1
  3
Model
350
5A
  3
ﾚｲｱｳﾄ1
350
5B
  0
DICTIONARY
  5
143
102
{ACAD_REACTORS
330
1A
102
}
330
1A
100
AcDbDictionary
281
     1
  0
DICTIONARY
  5
19
102
{ACAD_REACTORS
330
1A
102
}
330
1A
100
AcDbDictionary
281
     1
  3
STANDARD
350
1D
  0
DICTIONARY
  5
59
102
{ACAD_REACTORS
330
1A
102
}
330
1A
100
AcDbDictionary
281
     1
  0
ACDBDICTIONARYWDFLT
  5
56
102
{ACAD_REACTORS
330
1A
102
}
330
1A
100
AcDbDictionary
281
     1
  3
Normal
350
57
100
AcDbDictionaryWithDefault
340
57
  0
DICTIONARY
  5
145
102
{ACAD_REACTORS
330
1A
102
}
330
1A
100
AcDbDictionary
281
     1
  3
Standard
350
146
  0
DICTIONARY
  5
3C89
102
{ACAD_REACTORS
330
1A
102
}
330
1A
100
AcDbDictionary
281
     1
  0
DICTIONARY
  5
1D1
102
{ACAD_REACTORS
330
1A
102
}
330
1A
100
AcDbDictionary
281
     1
  3
CTABLESTYLE
350
1D2
  3
DIMASSOC
350
D03
  3
PROJECTNAME
350
D04
  0
DICTIONARY
  5
1A2A
102
{ACAD_REACTORS
330
1B4
102
}
330
1B4
100
AcDbDictionary
281
     1
  0
DICTIONARY
  5
1A29
102
{ACAD_REACTORS
330
1B4
102
}
330
1B4
100
AcDbDictionary
281
     1
1001
ACAD
1000
<All
  0
SORTENTSTABLE
  5
D14
102
{ACAD_REACTORS
330
D13
102
}
330
D13
100
AcDbSortentsTable
330
2
331
23
  5
23
331
21
  5
21
331
1F
  5
1F
331
20
  5
20
  0
GROUP
  5
E0D
102
{ACAD_REACTORS
330
18
102
}
330
18
100
AcDbGroup
300

 70
     1
 71
     1
  0
GROUP
  5
24D6
102
{ACAD_REACTORS
330
18
102
}
330
18
100
AcDbGroup
300

 70
     1
 71
     1
  0
GROUP
  5
2573
102
{ACAD_REACTORS
330
18
102
}
330
18
100
AcDbGroup
300

 70
     1
 71
     1
  0
GROUP
  5
1EFE
102
{ACAD_REACTORS
330
18
102
}
330
18
100
AcDbGroup
300

 70
     1
 71
     1
  0
GROUP
  5
265A
102
{ACAD_REACTORS
330
18
102
}
330
18
100
AcDbGroup
300

 70
     1
 71
     1
  0
GROUP
  5
26DD
102
{ACAD_REACTORS
330
18
102
}
330
18
100
AcDbGroup
300

 70
     1
 71
     1
  0
GROUP
  5
275E
102
{ACAD_REACTORS
330
18
102
}
330
18
100
AcDbGroup
300

 70
     1
 71
     1
  0
GROUP
  5
2EE1
102
{ACAD_REACTORS
330
18
102
}
330
18
100
AcDbGroup
300

 70
     1
 71
     1
  0
GROUP
  5
2F81
102
{ACAD_REACTORS
330
18
102
}
330
18
100
AcDbGroup
300

 70
     1
 71
     1
  0
GROUP
  5
307D
102
{ACAD_REACTORS
330
18
102
}
330
18
100
AcDbGroup
300

 70
     1
 71
     1
  0
GROUP
  5
3181
102
{ACAD_REACTORS
330
18
102
}
330
18
100
AcDbGroup
300

 70
     1
 71
     1
  0
GROUP
  5
2905
102
{ACAD_REACTORS
330
18
102
}
330
18
100
AcDbGroup
300

 70
     1
 71
     1
  0
GROUP
  5
31DF
102
{ACAD_REACTORS
330
18
102
}
330
18
100
AcDbGroup
300

 70
     1
 71
     1
  0
GROUP
  5
32E4
102
{ACAD_REACTORS
330
18
102
}
330
18
100
AcDbGroup
300

 70
     1
 71
     1
  0
GROUP
  5
3349
102
{ACAD_REACTORS
330
18
102
}
330
18
100
AcDbGroup
300

 70
     1
 71
     1
  0
GROUP
  5
2037
102
{ACAD_REACTORS
330
18
102
}
330
18
100
AcDbGroup
300

 70
     1
 71
     1
  0
GROUP
  5
3467
102
{ACAD_REACTORS
330
18
102
}
330
18
100
AcDbGroup
300

 70
     1
 71
     1
  0
GROUP
  5
34BB
102
{ACAD_REACTORS
330
18
102
}
330
18
100
AcDbGroup
300

 70
     1
 71
     1
  0
GROUP
  5
35A5
102
{ACAD_REACTORS
330
18
102
}
330
18
100
AcDbGroup
300

 70
     1
 71
     1
  0
GROUP
  5
FF8
102
{ACAD_REACTORS
330
18
102
}
330
18
100
AcDbGroup
300

 70
     1
 71
     1
  0
GROUP
  5
136A
102
{ACAD_REACTORS
330
18
102
}
330
18
100
AcDbGroup
300

 70
     1
 71
     1
  0
GROUP
  5
1555
102
{ACAD_REACTORS
330
18
102
}
330
18
100
AcDbGroup
300

 70
     1
 71
     1
  0
GROUP
  5
2A17
102
{ACAD_REACTORS
330
18
102
}
330
18
100
AcDbGroup
300

 70
     1
 71
     1
  0
GROUP
  5
17BC
102
{ACAD_REACTORS
330
18
102
}
330
18
100
AcDbGroup
300

 70
     1
 71
     1
  0
GROUP
  5
1A98
102
{ACAD_REACTORS
330
18
102
}
330
18
100
AcDbGroup
300

 70
     1
 71
     1
  0
GROUP
  5
1CBC
102
{ACAD_REACTORS
330
18
102
}
330
18
100
AcDbGroup
300

 70
     1
 71
     1
  0
GROUP
  5
3695
102
{ACAD_REACTORS
330
18
102
}
330
18
100
AcDbGroup
300

 70
     1
 71
     1
  0
GROUP
  5
36C9
102
{ACAD_REACTORS
330
18
102
}
330
18
100
AcDbGroup
300

 70
     1
 71
     1
  0
GROUP
  5
382B
102
{ACAD_REACTORS
330
18
102
}
330
18
100
AcDbGroup
300

 70
     1
 71
     1
  0
GROUP
  5
3878
102
{ACAD_REACTORS
330
18
102
}
330
18
100
AcDbGroup
300

 70
     1
 71
     1
  0
GROUP
  5
3988
102
{ACAD_REACTORS
330
18
102
}
330
18
100
AcDbGroup
300

 70
     1
 71
     1
  0
GROUP
  5
3A25
102
{ACAD_REACTORS
330
18
102
}
330
18
100
AcDbGroup
300

 70
     1
 71
     1
  0
GROUP
  5
3C81
102
{ACAD_REACTORS
330
18
102
}
330
18
100
AcDbGroup
300

 70
     1
 71
     1
340
3C02
340
3C01
340
3C00
340
3BFF
340
3BFE
340
3BFD
340
3BFC
340
3BFB
340
3BFA
340
3BF9
340
3BF8
340
3BF7
340
3BF6
340
3BF5
340
3BF4
340
3BF3
340
3BF2
340
3BF1
340
3BF0
340
3BEF
340
3BEE
340
3BED
340
3BEC
340
3BEB
340
3BEA
340
3BE9
340
3BE8
340
3BE7
340
3BE6
340
3BE5
340
3BE4
340
3BE3
340
3BE2
340
3BE1
340
3BE0
340
3BDF
340
3BDE
340
3BDD
340
3BDC
340
3BDB
340
3BDA
340
3BD9
340
3BD8
340
3BD7
340
3BD6
340
3BD5
340
3BD4
340
3BD3
340
3BD2
340
3BD1
340
3BD0
340
3BCF
340
3BCE
340
3BCD
340
3BCC
340
3BCB
340
3BCA
340
3BC9
340
3BC8
340
3BC7
340
3BC6
340
3BC5
340
3BC4
340
3BC3
340
3BC2
340
3BC1
340
3BC0
340
3BBF
340
3BBE
340
3BBD
340
3BBC
340
3BBB
340
3BBA
340
3BB9
340
3BB8
340
3BB7
340
3BB6
340
3BB5
340
3BB4
340
3BB3
340
3BB2
340
3BB1
340
3BB0
340
3BAF
340
3BAE
340
3BAD
340
3BAC
340
3BAB
340
3BAA
340
3BA9
340
3BA8
340
3BA7
340
3BA6
340
3BA5
340
3BA4
340
3BA3
340
3BA2
340
3BA1
340
3BA0
340
3B9F
340
3B9E
340
3B9D
340
3B9C
340
3B9B
340
3B9A
340
3B99
340
3B98
340
3B97
340
3B96
340
3B95
340
3B94
340
3B93
340
3B92
340
3B91
340
3B90
340
3B8F
340
3B8E
340
3B8D
340
3B8C
340
3B8B
340
3B8A
340
3B89
340
3B88
340
3B87
340
3B86
340
3B85
340
3B84
340
3B83
340
3B82
340
3B81
340
3B80
340
3B7F
340
3B7E
340
3B7D
340
3B7C
340
3B7B
340
3B7A
340
3B79
340
3B78
340
3B77
340
3B76
340
3B75
340
3B74
340
3B73
340
3B72
340
3B71
340
3B70
340
3B6F
340
3B6E
340
3B6D
340
3B6C
340
3B6B
340
3B6A
340
3B69
340
3B68
340
3B67
340
3B66
340
3B65
340
3B64
340
3B63
340
3B62
340
3B61
340
3B60
340
3B5F
340
3B5E
340
3B5D
340
3B5C
340
3B5B
340
3B5A
340
3B59
340
3B58
340
3B57
340
3B56
340
3B55
340
3B54
340
3B53
340
3B52
340
3B51
340
3B50
340
3B4F
340
3B4E
340
3B4D
340
3B4C
340
3B4B
340
3B4A
340
3B49
340
3B48
340
3B47
340
3B46
340
3B45
340
3B44
340
3B43
340
3B42
340
3B41
340
3B40
340
3B3F
340
3B3E
340
3B3D
340
3B3C
340
3B3B
340
3B3A
340
3B39
340
3B38
340
3B37
340
3B36
340
3B35
340
3B34
340
3B33
340
3B32
340
3B31
340
3B30
340
3B2F
340
3B2E
340
3B2D
340
3B2C
340
3B2B
340
3B2A
340
3B29
340
3B28
340
3B27
340
3B26
340
3B25
340
3B24
340
3B23
340
3B22
340
3B21
340
3B20
340
3B1F
340
3B1E
340
3B1D
  0
GROUP
  5
213E
102
{ACAD_REACTORS
330
18
102
}
330
18
100
AcDbGroup
300

 70
     1
 71
     1
  0
GROUP
  5
2B84
102
{ACAD_REACTORS
330
18
102
}
330
18
100
AcDbGroup
300

 70
     1
 71
     1
  0
GROUP
  5
2C6B
102
{ACAD_REACTORS
330
18
102
}
330
18
100
AcDbGroup
300

 70
     1
 71
     1
  0
GROUP
  5
2D78
102
{ACAD_REACTORS
330
18
102
}
330
18
100
AcDbGroup
300

 70
     1
 71
     1
  0
GROUP
  5
22C8
102
{ACAD_REACTORS
330
18
102
}
330
18
100
AcDbGroup
300

 70
     1
 71
     1
  0
GROUP
  5
241A
102
{ACAD_REACTORS
330
18
102
}
330
18
100
AcDbGroup
300

 70
     1
 71
     1
  0
LAYOUT
  5
5A
102
{ACAD_XDICTIONARY
360
3C8A
102
}
102
{ACAD_REACTORS
330
58
102
}
330
58
100
AcDbPlotSettings
  1

  2
なし
  4

  6

 40
0.0
 41
0.0
 42
0.0
 43
0.0
 44
0.0
 45
0.0
 46
0.0
 47
0.0
 48
0.0
 49
0.0
140
0.0
141
0.0
142
1.0
143
1.0
 70
  1712
 72
     0
 73
     0
 74
     0
  7
monochrome.ctb
 75
     0
147
1.0
148
0.0
149
0.0
100
AcDbLayout
  1
Model
 70
     1
 71
     0
 10
0.0
 20
0.0
 11
12.0
 21
9.0
 12
0.0
 22
0.0
 32
0.0
 14
0.0
 24
0.0
 34
0.0
 15
0.0
 25
0.0
 35
0.0
146
0.0
 13
0.0
 23
0.0
 33
0.0
 16
1.0
 26
0.0
 36
0.0
 17
0.0
 27
1.0
 37
0.0
 76
     0
330
2
  0
LAYOUT
  5
5B
102
{ACAD_XDICTIONARY
360
3C8C
102
}
102
{ACAD_REACTORS
330
58
102
}
330
58
100
AcDbPlotSettings
  1

  2
なし
  4

  6

 40
0.0
 41
0.0
 42
0.0
 43
0.0
 44
0.0
 45
0.0
 46
0.0
 47
0.0
 48
0.0
 49
0.0
140
0.0
141
0.0
142
1.0
143
1.0
 70
   688
 72
     0
 73
     0
 74
     5
  7
monochrome.ctb
 75
    16
147
1.0
148
0.0
149
0.0
100
AcDbLayout
  1
ﾚｲｱｳﾄ1
 70
     1
 71
     1
 10
0.0
 20
0.0
 11
12.0
 21
9.0
 12
0.0
 22
0.0
 32
0.0
 14
1.000000000000000E+20
 24
1.000000000000000E+20
 34
1.000000000000000E+20
 15
-1.000000000000000E+20
 25
-1.000000000000000E+20
 35
-1.000000000000000E+20
146
0.0
 13
0.0
 23
0.0
 33
0.0
 16
1.0
 26
0.0
 36
0.0
 17
0.0
 27
1.0
 37
0.0
 76
     0
330
7
  0
MLINESTYLE
  5
1D
102
{ACAD_REACTORS
330
19
102
}
330
19
100
AcDbMlineStyle
  2
STANDARD
 70
     0
  3

 62
   256
 51
90.0
 52
90.0
 71
     2
 49
0.5
 62
   256
  6
BYLAYER
 49
-0.5
 62
   256
  6
BYLAYER
  0
ACDBPLACEHOLDER
  5
57
102
{ACAD_REACTORS
330
56
102
}
330
56
  0
TABLESTYLE
  5
146
102
{ACAD_REACTORS
330
145
102
}
330
145
100
AcDbTableStyle
  3
Standard
 70
     0
 71
     0
 40
0.06
 41
0.06
280
     0
281
     0
  7
STANDARD
140
0.18
170
     2
 62
     0
 63
     7
283
     0
274
    -2
284
     1
 64
     0
275
    -2
285
     1
 65
     0
276
    -2
286
     1
 66
     0
277
    -2
287
     1
 67
     0
278
    -2
288
     1
 68
     0
279
    -2
289
     1
 69
     0
  7
STANDARD
140
0.25
170
     5
 62
     0
 63
     7
283
     0
274
    -2
284
     1
 64
     0
275
    -2
285
     1
 65
     0
276
    -2
286
     1
 66
     0
277
    -2
287
     1
 67
     0
278
    -2
288
     1
 68
     0
279
    -2
289
     1
 69
     0
  7
STANDARD
140
0.18
170
     5
 62
     0
 63
     7
283
     0
274
    -2
284
     1
 64
     0
275
    -2
285
     1
 65
     0
276
    -2
286
     1
 66
     0
277
    -2
287
     1
 67
     0
278
    -2
288
     1
 68
     0
279
    -2
289
     1
 69
     0
  0
DICTIONARYVAR
  5
1D2
102
{ACAD_REACTORS
330
1D1
102
}
330
1D1
100
DictionaryVariables
280
     0
  1
STANDARD
  0
DICTIONARYVAR
  5
D03
102
{ACAD_REACTORS
330
1D1
102
}
330
1D1
100
DictionaryVariables
280
     0
  1
1
  0
DICTIONARYVAR
  5
D04
102
{ACAD_REACTORS
330
1D1
102
}
330
1D1
100
DictionaryVariables
280
     0
  1

  0
DICTIONARY
  5
3C8A
330
5A
100
AcDbDictionary
280
     1
281
     1
  3
ACAD_XREC_ROUNDTRIP
360
3C8B
  0
DICTIONARY
  5
3C8C
330
5B
100
AcDbDictionary
280
     1
281
     1
  3
ACAD_XREC_ROUNDTRIP
360
3C8D
  0
XRECORD
  5
3C8B
102
{ACAD_REACTORS
330
3C8A
102
}
330
3C8A
100
AcDbXrecord
280
     1
102
SHADEPLOT
 70
     0
102
SHADEPLOTRESLEVEL
 70
     2
102
SHADEPLOTCUSTOMDPI
 70
   300
  0
XRECORD
  5
3C8D
102
{ACAD_REACTORS
330
3C8C
102
}
330
3C8C
100
AcDbXrecord
280
     1
102
SHADEPLOT
 70
     0
102
SHADEPLOTRESLEVEL
 70
     2
102
SHADEPLOTCUSTOMDPI
 70
   300
  0
ENDSEC
  0
EOF
