  0
SECTION
  2
HEADER
  9
$ACADVER
  1
AC1015
  9
$ACADMAINTVER
 70
    20
  9
$DWGCODEPAGE
  3
ANSI_932
  9
$INSBASE
 10
922.019522
 20
-675.4306699999999
 30
0.0
  9
$EXTMIN
 10
-110.6655919609408
 20
-0.0166269513355246
 30
-0.000000000000013
  9
$EXTMAX
 10
269.9650212700023
 20
178.5658779043375
 30
0.0000000000000023
  9
$LIMMIN
 10
0.0
 20
0.0
  9
$LIMMAX
 10
420.0
 20
297.0
  9
$ORTHOMODE
 70
     1
  9
$REGENMODE
 70
     1
  9
$FILLMODE
 70
     1
  9
$QTEXTMODE
 70
     0
  9
$MIRRTEXT
 70
     1
  9
$LTSCALE
 40
1.0
  9
$ATTMODE
 70
     1
  9
$TEXTSIZE
 40
30.0
  9
$TRACEWID
 40
0.05
  9
$TEXTSTYLE
  7
SUNPOU
  9
$CLAYER
  8
0
  9
$CELTYPE
  6
BYLAYER
  9
$CECOLOR
 62
   256
  9
$CELTSCALE
 40
1.0
  9
$DISPSILH
 70
     0
  9
$DIMSCALE
 40
1.0
  9
$DIMASZ
 40
2.0
  9
$DIMEXO
 40
10.0
  9
$DIMDLI
 40
0.38
  9
$DIMRND
 40
0.0
  9
$DIMDLE
 40
0.0
  9
$DIMEXE
 40
0.0
  9
$DIMTP
 40
0.0
  9
$DIMTM
 40
0.0
  9
$DIMTXT
 40
5.0
  9
$DIMCEN
 40
0.0
  9
$DIMTSZ
 40
0.0
  9
$DIMTOL
 70
     0
  9
$DIMLIM
 70
     0
  9
$DIMTIH
 70
     0
  9
$DIMTOH
 70
     0
  9
$DIMSE1
 70
     0
  9
$DIMSE2
 70
     0
  9
$DIMTAD
 70
     1
  9
$DIMZIN
 70
     0
  9
$DIMBLK
  1
Dot
  9
$DIMASO
 70
     1
  9
$DIMSHO
 70
     1
  9
$DIMPOST
  1

  9
$DIMAPOST
  1

  9
$DIMALT
 70
     0
  9
$DIMALTD
 70
     2
  9
$DIMALTF
 40
25.4
  9
$DIMLFAC
 40
1.0
  9
$DIMTOFL
 70
     0
  9
$DIMTVP
 40
0.0
  9
$DIMTIX
 70
     0
  9
$DIMSOXD
 70
     0
  9
$DIMSAH
 70
     0
  9
$DIMBLK1
  1

  9
$DIMBLK2
  1

  9
$DIMSTYLE
  2
STANDARD
  9
$DIMCLRD
 70
    60
  9
$DIMCLRE
 70
    70
  9
$DIMCLRT
 70
    60
  9
$DIMTFAC
 40
0.064286
  9
$DIMGAP
 40
3.0
  9
$DIMJUST
 70
     0
  9
$DIMSD1
 70
     0
  9
$DIMSD2
 70
     0
  9
$DIMTOLJ
 70
     1
  9
$DIMTZIN
 70
     0
  9
$DIMALTZ
 70
     0
  9
$DIMALTTZ
 70
     0
  9
$DIMUPT
 70
     0
  9
$DIMDEC
 70
     0
  9
$DIMTDEC
 70
     0
  9
$DIMALTU
 70
     2
  9
$DIMALTTD
 70
     2
  9
$DIMTXSTY
  7
SUNPOU
  9
$DIMAUNIT
 70
     0
  9
$DIMADEC
 70
     0
  9
$DIMALTRND
 40
0.0
  9
$DIMAZIN
 70
     0
  9
$DIMDSEP
 70
    46
  9
$DIMATFIT
 70
     3
  9
$DIMFRAC
 70
     0
  9
$DIMLDRBLK
  1

  9
$DIMLUNIT
 70
     2
  9
$DIMLWD
 70
    -2
  9
$DIMLWE
 70
    -2
  9
$DIMTMOVE
 70
     0
  9
$LUNITS
 70
     2
  9
$LUPREC
 70
     5
  9
$SKETCHINC
 40
0.1
  9
$FILLETRAD
 40
0.0
  9
$AUNITS
 70
     0
  9
$AUPREC
 70
     0
  9
$MENU
  1
acad
  9
$ELEVATION
 40
0.0
  9
$PELEVATION
 40
0.0
  9
$THICKNESS
 40
0.0
  9
$LIMCHECK
 70
     0
  9
$CHAMFERA
 40
0.0
  9
$CHAMFERB
 40
0.0
  9
$CHAMFERC
 40
0.0
  9
$CHAMFERD
 40
0.0
  9
$SKPOLY
 70
     0
  9
$TDCREATE
 40
2450623.654673033
  9
$TDUCREATE
 40
2450623.279673032
  9
$TDUPDATE
 40
2453867.691907419
  9
$TDUUPDATE
 40
2453867.316907419
  9
$TDINDWG
 40
0.5265912963
  9
$TDUSRTIMER
 40
0.5265911227
  9
$USRTIMER
 70
     1
  9
$ANGBASE
 50
0.0
  9
$ANGDIR
 70
     0
  9
$PDMODE
 70
     0
  9
$PDSIZE
 40
0.0
  9
$PLINEWID
 40
0.0
  9
$SPLFRAME
 70
     0
  9
$SPLINETYPE
 70
     6
  9
$SPLINESEGS
 70
     8
  9
$HANDSEED
  5
36FA
  9
$SURFTAB1
 70
     6
  9
$SURFTAB2
 70
     6
  9
$SURFTYPE
 70
     6
  9
$SURFU
 70
     6
  9
$SURFV
 70
     6
  9
$UCSBASE
  2

  9
$UCSNAME
  2

  9
$UCSORG
 10
0.0
 20
0.0
 30
0.0
  9
$UCSXDIR
 10
1.0
 20
0.0
 30
0.0
  9
$UCSYDIR
 10
0.0
 20
1.0
 30
0.0
  9
$UCSORTHOREF
  2

  9
$UCSORTHOVIEW
 70
     0
  9
$UCSORGTOP
 10
0.0
 20
0.0
 30
0.0
  9
$UCSORGBOTTOM
 10
0.0
 20
0.0
 30
0.0
  9
$UCSORGLEFT
 10
0.0
 20
0.0
 30
0.0
  9
$UCSORGRIGHT
 10
0.0
 20
0.0
 30
0.0
  9
$UCSORGFRONT
 10
0.0
 20
0.0
 30
0.0
  9
$UCSORGBACK
 10
0.0
 20
0.0
 30
0.0
  9
$PUCSBASE
  2

  9
$PUCSNAME
  2

  9
$PUCSORG
 10
0.0
 20
0.0
 30
0.0
  9
$PUCSXDIR
 10
1.0
 20
0.0
 30
0.0
  9
$PUCSYDIR
 10
0.0
 20
1.0
 30
0.0
  9
$PUCSORTHOREF
  2

  9
$PUCSORTHOVIEW
 70
     0
  9
$PUCSORGTOP
 10
0.0
 20
0.0
 30
0.0
  9
$PUCSORGBOTTOM
 10
0.0
 20
0.0
 30
0.0
  9
$PUCSORGLEFT
 10
0.0
 20
0.0
 30
0.0
  9
$PUCSORGRIGHT
 10
0.0
 20
0.0
 30
0.0
  9
$PUCSORGFRONT
 10
0.0
 20
0.0
 30
0.0
  9
$PUCSORGBACK
 10
0.0
 20
0.0
 30
0.0
  9
$USERI1
 70
     0
  9
$USERI2
 70
     0
  9
$USERI3
 70
     0
  9
$USERI4
 70
     0
  9
$USERI5
 70
     0
  9
$USERR1
 40
0.0
  9
$USERR2
 40
0.0
  9
$USERR3
 40
0.0
  9
$USERR4
 40
0.0
  9
$USERR5
 40
0.0
  9
$WORLDVIEW
 70
     1
  9
$SHADEDGE
 70
     3
  9
$SHADEDIF
 70
    70
  9
$TILEMODE
 70
     1
  9
$MAXACTVP
 70
    16
  9
$PINSBASE
 10
0.0
 20
0.0
 30
0.0
  9
$PLIMCHECK
 70
     0
  9
$PEXTMIN
 10
1.000000000000000E+20
 20
1.000000000000000E+20
 30
1.000000000000000E+20
  9
$PEXTMAX
 10
-1.000000000000000E+20
 20
-1.000000000000000E+20
 30
-1.000000000000000E+20
  9
$PLIMMIN
 10
0.0
 20
0.0
  9
$PLIMMAX
 10
12.0
 20
9.0
  9
$UNITMODE
 70
     0
  9
$VISRETAIN
 70
     0
  9
$PLINEGEN
 70
     0
  9
$PSLTSCALE
 70
     1
  9
$TREEDEPTH
 70
  3020
  9
$CMLSTYLE
  2
STANDARD
  9
$CMLJUST
 70
     0
  9
$CMLSCALE
 40
1.0
  9
$PROXYGRAPHICS
 70
     1
  9
$MEASUREMENT
 70
     0
  9
$CELWEIGHT
370
    -1
  9
$ENDCAPS
280
     0
  9
$JOINSTYLE
280
     0
  9
$LWDISPLAY
290
     0
  9
$INSUNITS
 70
     0
  9
$HYPERLINKBASE
  1

  9
$STYLESHEET
  1

  9
$XEDIT
290
     1
  9
$CEPSNTYPE
380
     0
  9
$PSTYLEMODE
290
     1
  9
$FINGERPRINTGUID
  2
{FB88A696-E29C-4009-92AF-A3599A8169D5}
  9
$VERSIONGUID
  2
{CCF46DAA-783F-4D4E-AD49-F148D6FA8CEA}
  9
$EXTNAMES
290
     1
  9
$PSVPSCALE
 40
0.0
  9
$OLESTARTUP
290
     0
  0
ENDSEC
  0
SECTION
  2
CLASSES
  0
CLASS
  1
DICTIONARYVAR
  2
AcDbDictionaryVar
  3
ObjectDBX Classes
 90
        0
280
     0
281
     0
  0
CLASS
  1
ACDBDICTIONARYWDFLT
  2
AcDbDictionaryWithDefault
  3
ObjectDBX Classes
 90
        0
280
     0
281
     0
  0
CLASS
  1
ACDBPLACEHOLDER
  2
AcDbPlaceHolder
  3
ObjectDBX Classes
 90
        0
280
     0
281
     0
  0
CLASS
  1
LAYOUT
  2
AcDbLayout
  3
ObjectDBX Classes
 90
        0
280
     0
281
     0
  0
CLASS
  1
TABLESTYLE
  2
AcDbTableStyle
  3
ObjectDBX Classes
 90
     2047
280
     0
281
     0
  0
CLASS
  1
SORTENTSTABLE
  2
AcDbSortentsTable
  3
ObjectDBX Classes
 90
        0
280
     0
281
     0
  0
ENDSEC
  0
SECTION
  2
TABLES
  0
TABLE
  2
VPORT
  5
12
330
0
100
AcDbSymbolTable
 70
     7
  0
VPORT
  5
36F4
330
12
100
AcDbSymbolTableRecord
100
AcDbViewportTableRecord
  2
*Active
 70
     0
 10
0.0
 20
0.0
 11
1.0
 21
1.0
 12
79.64971465453072
 22
89.27462547650099
 13
0.0
 23
0.0
 14
1.0
 24
1.0
 15
0.0
 25
0.0
 16
0.0
 26
0.0
 36
1.0
 17
0.0
 27
0.0
 37
0.0
 40
244.3480249331121
 41
1.565384615384615
 42
50.0
 43
0.0
 44
0.0
 50
0.0
 51
0.0
 71
     0
 72
 20000
 73
     1
 74
     1
 75
     0
 76
     0
 77
     0
 78
     0
281
     0
 65
     1
110
0.0
120
0.0
130
0.0
111
1.0
121
0.0
131
0.0
112
0.0
122
1.0
132
0.0
 79
     0
146
0.0
  0
ENDTAB
  0
TABLE
  2
LTYPE
  5
D
330
0
100
AcDbSymbolTable
 70
     2
  0
LTYPE
  5
E
330
D
100
AcDbSymbolTableRecord
100
AcDbLinetypeTableRecord
  2
BYBLOCK
 70
     0
  3

 72
    65
 73
     0
 40
0.0
  0
LTYPE
  5
F
330
D
100
AcDbSymbolTableRecord
100
AcDbLinetypeTableRecord
  2
BYLAYER
 70
     0
  3

 72
    65
 73
     0
 40
0.0
  0
LTYPE
  5
5
330
D
100
AcDbSymbolTableRecord
100
AcDbLinetypeTableRecord
  2
CONTINUOUS
 70
     0
  3
Solid line
 72
    65
 73
     0
 40
0.0
  0
ENDTAB
  0
TABLE
  2
LAYER
  5
A
102
{ACAD_XDICTIONARY
360
1B4
102
}
330
0
100
AcDbSymbolTable
 70
     6
  0
LAYER
  5
4
330
A
100
AcDbSymbolTableRecord
100
AcDbLayerTableRecord
  2
0
 70
     0
 62
     7
  6
CONTINUOUS
370
    -3
390
57
  0
LAYER
  5
25
330
A
100
AcDbSymbolTableRecord
100
AcDbLayerTableRecord
  2
KIJUN
 70
     0
 62
     7
  6
CONTINUOUS
370
    -3
390
57
  0
LAYER
  5
22
330
A
100
AcDbSymbolTableRecord
100
AcDbLayerTableRecord
  2
HOJO
 70
     0
 62
     3
  6
CONTINUOUS
370
    -3
390
57
  0
LAYER
  5
1B
330
A
100
AcDbSymbolTableRecord
100
AcDbLayerTableRecord
  2
WAKU
 70
     0
 62
     1
  6
CONTINUOUS
370
    -3
390
57
  0
LAYER
  5
31
330
A
100
AcDbSymbolTableRecord
100
AcDbLayerTableRecord
  2
DEFPOINTS
 70
     0
 62
     7
  6
CONTINUOUS
290
     0
370
    -3
390
57
  0
LAYER
  5
28
330
A
100
AcDbSymbolTableRecord
100
AcDbLayerTableRecord
  2
SUNPOU
 70
     0
 62
    70
  6
CONTINUOUS
370
    -3
390
57
  0
ENDTAB
  0
TABLE
  2
STYLE
  5
B
330
0
100
AcDbSymbolTable
 70
     3
  0
STYLE
  5
C
330
B
100
AcDbSymbolTableRecord
100
AcDbTextStyleTableRecord
  2
STANDARD
 70
     0
 40
0.0
 41
1.0
 50
0.0
 71
     0
 42
0.2
  3
txt
  4

  0
STYLE
  5
1C
330
B
100
AcDbSymbolTableRecord
100
AcDbTextStyleTableRecord
  2
SUNPOU
 70
     0
 40
0.0
 41
1.0
 50
0.0
 71
     0
 42
30.0
  3
txt
  4
bigfont
  0
STYLE
  5
14A
330
B
100
AcDbSymbolTableRecord
100
AcDbTextStyleTableRecord
  2
LIFE
 70
     0
 40
0.0
 41
0.7
 50
0.0
 71
     0
 42
10.0
  3
romans
  4
extfont
  0
ENDTAB
  0
TABLE
  2
VIEW
  5
10
330
0
100
AcDbSymbolTable
 70
     0
  0
ENDTAB
  0
TABLE
  2
UCS
  5
11
330
0
100
AcDbSymbolTable
 70
     0
  0
ENDTAB
  0
TABLE
  2
APPID
  5
14
330
0
100
AcDbSymbolTable
 70
    10
  0
APPID
  5
15
330
14
100
AcDbSymbolTableRecord
100
AcDbRegAppTableRecord
  2
ACAD
 70
     0
  0
APPID
  5
1D3
330
14
100
AcDbSymbolTableRecord
100
AcDbRegAppTableRecord
  2
ACAD_DSTYLE_DIMTEXT_FILL
 70
     0
  0
APPID
  5
1D4
330
14
100
AcDbSymbolTableRecord
100
AcDbRegAppTableRecord
  2
ACAD_DSTYLE_DIMEXT_LENGTH
 70
     0
  0
APPID
  5
1D5
330
14
100
AcDbSymbolTableRecord
100
AcDbRegAppTableRecord
  2
ACAD_DSTYLE_DIMEXT_ENABLED
 70
     0
  0
APPID
  5
1D6
330
14
100
AcDbSymbolTableRecord
100
AcDbRegAppTableRecord
  2
ACAD_DSTYLE_DIM_LINETYPE
 70
     0
  0
APPID
  5
1D7
330
14
100
AcDbSymbolTableRecord
100
AcDbRegAppTableRecord
  2
ACAD_DSTYLE_DIM_EXT1_LINETYPE
 70
     0
  0
APPID
  5
1D8
330
14
100
AcDbSymbolTableRecord
100
AcDbRegAppTableRecord
  2
ACAD_DSTYLE_DIM_EXT2_LINETYPE
 70
     0
  0
APPID
  5
294
330
14
100
AcDbSymbolTableRecord
100
AcDbRegAppTableRecord
  2
ACAD_DSTYLE_DIMJOGGED_JOGANGLE_SYMBOL
 70
     0
  0
APPID
  5
478
330
14
100
AcDbSymbolTableRecord
100
AcDbRegAppTableRecord
  2
ACAD_DSTYLE_DIMARC_LENGTH_SYMBOL
 70
     0
  0
APPID
  5
F55
330
14
100
AcDbSymbolTableRecord
100
AcDbRegAppTableRecord
  2
ACAD_EXEMPT_FROM_CAD_STANDARDS
 70
     0
  0
ENDTAB
  0
TABLE
  2
DIMSTYLE
  5
16
330
0
100
AcDbSymbolTable
 70
     3
100
AcDbDimStyleTable
 71
     1
340
1E
  0
DIMSTYLE
105
1E
102
{ACAD_REACTORS
330
3628
330
3635
102
}
330
16
100
AcDbSymbolTableRecord
100
AcDbDimStyleTableRecord
  2
STANDARD
 70
     0
340
C
  0
DIMSTYLE
105
1005
330
16
100
AcDbSymbolTableRecord
100
AcDbDimStyleTableRecord
  2
1-100
 70
     0
 40
100.0
 41
0.7
 42
2.5
 43
5.0
 44
1.0
 77
     1
147
1.0
172
     1
176
     3
177
     3
271
     2
272
     2
279
     2
340
C
342
109
  0
ENDTAB
  0
TABLE
  2
BLOCK_RECORD
  5
1
330
0
100
AcDbSymbolTable
 70
    21
  0
BLOCK_RECORD
  5
2
102
{ACAD_XDICTIONARY
360
D13
102
}
330
1
100
AcDbSymbolTableRecord
100
AcDbBlockTableRecord
  2
*MODEL_SPACE
340
5A
  0
BLOCK_RECORD
  5
7
330
1
100
AcDbSymbolTableRecord
100
AcDbBlockTableRecord
  2
*PAPER_SPACE
340
5B
  0
BLOCK_RECORD
  5
109
330
1
100
AcDbSymbolTableRecord
100
AcDbBlockTableRecord
  2
_Dot
340
0
102
{BLKREFS
331
2D85
331
2D86
331
2D97
331
2D98
331
2EBA
331
2EBB
331
2EC7
331
2EC8
331
2FA0
331
2FA1
331
2FB2
331
2FB3
331
308A
331
308B
331
309C
331
309D
331
31E3
331
31E4
331
31EC
331
31ED
331
334D
331
334E
331
3356
331
3357
331
34D1
331
34D2
331
34DA
331
34DB
331
35B2
331
35B3
331
35C4
331
35C5
331
36D6
331
36D7
331
36E8
331
36E9
102
}
  0
BLOCK_RECORD
  5
3579
330
1
100
AcDbSymbolTableRecord
100
AcDbBlockTableRecord
  2
*D15
340
0
  0
BLOCK_RECORD
  5
3587
330
1
100
AcDbSymbolTableRecord
100
AcDbBlockTableRecord
  2
*D16
340
0
  0
BLOCK_RECORD
  5
3629
330
1
100
AcDbSymbolTableRecord
100
AcDbBlockTableRecord
  2
*D18
340
0
  0
BLOCK_RECORD
  5
3636
330
1
100
AcDbSymbolTableRecord
100
AcDbBlockTableRecord
  2
*D19
340
0
  0
ENDTAB
  0
ENDSEC
  0
SECTION
  2
BLOCKS
  0
BLOCK
  5
3
330
2
100
AcDbEntity
  8
0
100
AcDbBlockBegin
  2
*MODEL_SPACE
 70
     0
 10
0.0
 20
0.0
 30
0.0
  3
*MODEL_SPACE
  1

  0
ENDBLK
  5
6
330
2
100
AcDbEntity
  8
0
100
AcDbBlockEnd
  0
BLOCK
  5
8
330
7
100
AcDbEntity
 67
     1
  8
0
100
AcDbBlockBegin
  2
*PAPER_SPACE
 70
     0
 10
0.0
 20
0.0
 30
0.0
  3
*PAPER_SPACE
  1

  0
ENDBLK
  5
9
330
7
100
AcDbEntity
 67
     1
  8
0
100
AcDbBlockEnd
  0
BLOCK
  5
10C
330
109
100
AcDbEntity
  8
0
100
AcDbBlockBegin
  2
_Dot
 70
     0
 10
0.0
 20
0.0
 30
0.0
  3
_Dot
  1

  0
LWPOLYLINE
  5
10A
330
109
100
AcDbEntity
  8
0
  6
ByBlock
 62
     0
100
AcDbPolyline
 90
        2
 70
     1
 43
0.5
 10
-0.25
 20
0.0
 42
1.0
 10
0.25
 20
0.0
 42
1.0
  0
LINE
  5
10B
330
109
100
AcDbEntity
  8
0
  6
ByBlock
 62
     0
370
    -2
100
AcDbLine
 10
-0.5
 20
0.0
 30
0.0
 11
-1.0
 21
0.0
 31
0.0
  0
ENDBLK
  5
10D
330
109
100
AcDbEntity
  8
0
100
AcDbBlockEnd
  0
BLOCK
  5
3583
330
3579
100
AcDbEntity
  8
0
100
AcDbBlockBegin
  2
*D15
 70
     1
 10
0.0
 20
0.0
 30
0.0
  3
*D15
  1

  0
LINE
  5
35AF
330
3579
100
AcDbEntity
  8
SUNPOU
 62
    70
370
    -2
100
AcDbLine
 10
-0.6389176541695314
 20
126.8800304967673
 30
0.0
 11
-0.6389176541695305
 21
141.4469254406451
 31
0.0
  0
LINE
  5
35B0
330
3579
100
AcDbEntity
  8
SUNPOU
 62
    70
370
    -2
100
AcDbLine
 10
151.3610823458304
 20
126.5763703404513
 30
0.0
 11
151.3610823458304
 21
141.4469254406451
 31
0.0
  0
LINE
  5
35B1
330
3579
100
AcDbEntity
  8
SUNPOU
 62
    60
370
    -2
100
AcDbLine
 10
1.361082345830469
 20
141.4469254406451
 30
0.0
 11
149.3610823458304
 21
141.4469254406451
 31
0.0
  0
INSERT
  5
35B2
330
3579
100
AcDbEntity
  8
SUNPOU
 62
    60
370
    -2
100
AcDbBlockReference
  2
_Dot
 10
-0.6389176541695305
 20
141.4469254406451
 30
0.0
 41
2.0
 42
2.0
 43
2.0
 50
180.0
  0
INSERT
  5
35B3
330
3579
100
AcDbEntity
  8
SUNPOU
 62
    60
370
    -2
100
AcDbBlockReference
  2
_Dot
 10
151.3610823458304
 20
141.4469254406451
 30
0.0
 41
2.0
 42
2.0
 43
2.0
  0
MTEXT
  5
35B4
330
3579
100
AcDbEntity
  8
SUNPOU
 62
    60
100
AcDbMText
 10
75.36108234583045
 20
146.9469254406451
 30
0.0
 40
5.0
 41
0.0
 71
     5
 72
     1
  1
\A1;152
  7
SUNPOU
 73
     1
 44
1.0
1001
ACAD
1000
MTEXTBEGIN
1070
    73
1070
     1
1070
    44
1040
1.0
1070
    74
1070
     0
1000
MTEXTEND
  0
POINT
  5
35B5
330
3579
100
AcDbEntity
  8
DEFPOINTS
 62
     0
100
AcDbPoint
 10
-0.6389176541695321
 20
116.8800304967673
 30
0.0
  0
POINT
  5
35B6
330
3579
100
AcDbEntity
  8
DEFPOINTS
 62
     0
100
AcDbPoint
 10
151.3610823458304
 20
116.5763703404514
 30
0.0
  0
POINT
  5
35B7
330
3579
100
AcDbEntity
  8
DEFPOINTS
 62
     0
100
AcDbPoint
 10
151.3610823458304
 20
141.4469254406451
 30
0.0
  0
ENDBLK
  5
3584
330
3579
100
AcDbEntity
  8
0
100
AcDbBlockEnd
  0
BLOCK
  5
3591
330
3587
100
AcDbEntity
  8
0
100
AcDbBlockBegin
  2
*D16
 70
     1
 10
0.0
 20
0.0
 30
0.0
  3
*D16
  1

  0
LINE
  5
35C1
330
3587
100
AcDbEntity
  8
SUNPOU
 62
    70
370
    -2
100
AcDbLine
 10
-10.63891765416953
 20
116.8800304967673
 30
0.0
 11
-28.92678899111841
 21
116.8800304967673
 31
0.0
  0
LINE
  5
35C2
330
3587
100
AcDbEntity
  8
SUNPOU
 62
    70
370
    -2
100
AcDbLine
 10
-9.113164155751292
 20
35.88003049676734
 30
0.0
 11
-28.92678899111843
 21
35.88003049676735
 31
0.0
  0
LINE
  5
35C3
330
3587
100
AcDbEntity
  8
SUNPOU
 62
    60
370
    -2
100
AcDbLine
 10
-28.92678899111841
 20
114.8800304967673
 30
0.0
 11
-28.92678899111843
 21
37.88003049676735
 31
0.0
  0
INSERT
  5
35C4
330
3587
100
AcDbEntity
  8
SUNPOU
 62
    60
370
    -2
100
AcDbBlockReference
  2
_Dot
 10
-28.92678899111841
 20
116.8800304967673
 30
0.0
 41
2.0
 42
2.0
 43
2.0
 50
90.0
  0
INSERT
  5
35C5
330
3587
100
AcDbEntity
  8
SUNPOU
 62
    60
370
    -2
100
AcDbBlockReference
  2
_Dot
 10
-28.92678899111843
 20
35.88003049676735
 30
0.0
 41
2.0
 42
2.0
 43
2.0
 50
270.0
  0
MTEXT
  5
35C6
330
3587
100
AcDbEntity
  8
SUNPOU
 62
    60
100
AcDbMText
 10
-34.42678899111843
 20
76.38003049676735
 30
0.0
 40
5.0
 41
0.0
 71
     5
 72
     1
  1
\A1;81
  7
SUNPOU
 11
0.0000000000000001
 21
1.0
 31
0.0
 73
     1
 44
1.0
1001
ACAD
1000
MTEXTBEGIN
1070
    73
1070
     1
1070
    44
1040
1.0
1070
    74
1070
     0
1000
MTEXTEND
  0
POINT
  5
35C7
330
3587
100
AcDbEntity
  8
DEFPOINTS
 62
     0
100
AcDbPoint
 10
-0.6389176541695321
 20
116.8800304967673
 30
0.0
  0
POINT
  5
35C8
330
3587
100
AcDbEntity
  8
DEFPOINTS
 62
     0
100
AcDbPoint
 10
0.8868358442487078
 20
35.88003049676734
 30
0.0
  0
POINT
  5
35C9
330
3587
100
AcDbEntity
  8
DEFPOINTS
 62
     0
100
AcDbPoint
 10
-28.92678899111843
 20
35.88003049676735
 30
0.0
  0
ENDBLK
  5
3592
330
3587
100
AcDbEntity
  8
0
100
AcDbBlockEnd
  0
BLOCK
  5
3633
330
3629
100
AcDbEntity
  8
0
100
AcDbBlockBegin
  2
*D18
 70
     1
 10
0.0
 20
0.0
 30
0.0
  3
*D18
  1

  0
LINE
  5
36D3
330
3629
100
AcDbEntity
  8
SUNPOU
 62
    70
370
    -2
100
AcDbLine
 10
-74.66909355334668
 20
155.8784465113387
 30
0.0
 11
-74.66909355334668
 21
170.5486106057478
 31
0.0
  0
LINE
  5
36D4
330
3629
100
AcDbEntity
  8
SUNPOU
 62
    70
370
    -2
100
AcDbLine
 10
85.3309064466533
 20
152.6973164560472
 30
0.0
 11
85.3309064466533
 21
170.5486106057478
 31
0.0
  0
LINE
  5
36D5
330
3629
100
AcDbEntity
  8
SUNPOU
 62
    60
370
    -2
100
AcDbLine
 10
-72.66909355334668
 20
170.5486106057478
 30
0.0
 11
83.33090644665331
 21
170.5486106057478
 31
0.0
  0
INSERT
  5
36D6
330
3629
100
AcDbEntity
  8
SUNPOU
 62
    60
370
    -2
100
AcDbBlockReference
  2
_Dot
 10
-74.66909355334668
 20
170.5486106057478
 30
0.0
 41
2.0
 42
2.0
 43
2.0
 50
180.0
  0
INSERT
  5
36D7
330
3629
100
AcDbEntity
  8
SUNPOU
 62
    60
370
    -2
100
AcDbBlockReference
  2
_Dot
 10
85.3309064466533
 20
170.5486106057478
 30
0.0
 41
2.0
 42
2.0
 43
2.0
  0
MTEXT
  5
36D8
330
3629
100
AcDbEntity
  8
SUNPOU
 62
    60
100
AcDbMText
 10
5.330906446653308
 20
176.0486106057478
 30
0.0
 40
5.0
 41
0.0
 71
     5
 72
     1
  1
\A1;160
  7
SUNPOU
 73
     1
 44
1.0
1001
ACAD
1000
MTEXTBEGIN
1070
    73
1070
     1
1070
    44
1040
1.0
1070
    74
1070
     0
1000
MTEXTEND
  0
POINT
  5
36D9
330
3629
100
AcDbEntity
  8
DEFPOINTS
 62
     0
100
AcDbPoint
 10
-74.66909355334668
 20
145.8784465113387
 30
0.0
  0
POINT
  5
36DA
330
3629
100
AcDbEntity
  8
DEFPOINTS
 62
     0
100
AcDbPoint
 10
85.3309064466533
 20
142.6973164560472
 30
0.0
  0
POINT
  5
36DB
330
3629
100
AcDbEntity
  8
DEFPOINTS
 62
     0
100
AcDbPoint
 10
85.3309064466533
 20
170.5486106057478
 30
0.0
  0
ENDBLK
  5
3634
330
3629
100
AcDbEntity
  8
0
100
AcDbBlockEnd
  0
BLOCK
  5
3640
330
3636
100
AcDbEntity
  8
0
100
AcDbBlockBegin
  2
*D19
 70
     1
 10
0.0
 20
0.0
 30
0.0
  3
*D19
  1

  0
LINE
  5
36E5
330
3636
100
AcDbEntity
  8
SUNPOU
 62
    70
370
    -2
100
AcDbLine
 10
-84.66909355334669
 20
145.8784465113387
 30
0.0
 11
-102.6422475936551
 21
145.8784465113387
 31
0.0
  0
LINE
  5
36E6
330
3636
100
AcDbEntity
  8
SUNPOU
 62
    70
370
    -2
100
AcDbLine
 10
-83.23195019797594
 20
45.87844651133827
 30
0.0
 11
-102.6422475936551
 21
45.87844651133827
 31
0.0
  0
LINE
  5
36E7
330
3636
100
AcDbEntity
  8
SUNPOU
 62
    60
370
    -2
100
AcDbLine
 10
-102.6422475936551
 20
143.8784465113387
 30
0.0
 11
-102.6422475936551
 21
47.87844651133827
 31
0.0
  0
INSERT
  5
36E8
330
3636
100
AcDbEntity
  8
SUNPOU
 62
    60
370
    -2
100
AcDbBlockReference
  2
_Dot
 10
-102.6422475936551
 20
145.8784465113387
 30
0.0
 41
2.0
 42
2.0
 43
2.0
 50
90.0
  0
INSERT
  5
36E9
330
3636
100
AcDbEntity
  8
SUNPOU
 62
    60
370
    -2
100
AcDbBlockReference
  2
_Dot
 10
-102.6422475936551
 20
45.87844651133827
 30
0.0
 41
2.0
 42
2.0
 43
2.0
 50
270.0
  0
MTEXT
  5
36EA
330
3636
100
AcDbEntity
  8
SUNPOU
 62
    60
100
AcDbMText
 10
-108.1422475936552
 20
95.87844651133847
 30
0.0
 40
5.0
 41
0.0
 71
     5
 72
     1
  1
\A1;100
  7
SUNPOU
 11
0.0000000000000001
 21
1.0
 31
0.0
 73
     1
 44
1.0
1001
ACAD
1000
MTEXTBEGIN
1070
    73
1070
     1
1070
    44
1040
1.0
1070
    74
1070
     0
1000
MTEXTEND
  0
POINT
  5
36EB
330
3636
100
AcDbEntity
  8
DEFPOINTS
 62
     0
100
AcDbPoint
 10
-74.66909355334668
 20
145.8784465113387
 30
0.0
  0
POINT
  5
36EC
330
3636
100
AcDbEntity
  8
DEFPOINTS
 62
     0
100
AcDbPoint
 10
-73.23195019797594
 20
45.87844651133827
 30
0.0
  0
POINT
  5
36ED
330
3636
100
AcDbEntity
  8
DEFPOINTS
 62
     0
100
AcDbPoint
 10
-102.6422475936551
 20
45.87844651133827
 30
0.0
  0
ENDBLK
  5
3641
330
3636
100
AcDbEntity
  8
0
100
AcDbBlockEnd
  0
ENDSEC
  0
SECTION
  2
ENTITIES
  0
LINE
  5
1F
330
2
100
AcDbEntity
  8
WAKU
100
AcDbLine
 10
0.0
 20
14.0
 30
0.0
 11
148.6829221395387
 21
14.0
 31
0.0
  0
LINE
  5
20
330
2
100
AcDbEntity
  8
WAKU
100
AcDbLine
 10
0.0
 20
0.0
 30
0.0
 11
148.6829221395387
 21
0.0
 31
0.0
  0
TEXT
  5
21
330
2
100
AcDbEntity
  8
HOJO
100
AcDbText
 10
9.653966000000025
 20
2.366626000000024
 30
0.0
 40
9.0
  1
TE230
  7
SUNPOU
100
AcDbText
  0
TEXT
  5
23
330
2
100
AcDbEntity
  8
HOJO
100
AcDbText
 10
85.84696046283864
 20
5.044386000000031
 30
0.0
 40
6.0
  1
160×100×7
  7
SUNPOU
100
AcDbText
  0
SPLINE
  5
3602
102
{ACAD_REACTORS
330
3695
102
}
330
2
100
AcDbEntity
  8
KIJUN
100
AcDbSpline
210
0.0
220
0.0
230
1.0
 70
     8
 71
     3
 72
    14
 73
    10
 74
     0
 42
0.0000000001
 43
0.0000000001
 40
0.0
 40
0.0
 40
0.0
 40
0.0
 40
19.19014353636566
 40
42.41598478201583
 40
59.02348340356397
 40
65.14760447335298
 40
68.84837241786254
 40
74.50183613813385
 40
79.35065383228449
 40
79.35065383228449
 40
79.35065383228449
 40
79.35065383228449
 10
36.06168307507733
 20
104.6039006071202
 30
0.0
 10
37.80326892700646
 20
98.50936899820915
 30
0.0
 10
41.65269709058452
 20
85.03862244088322
 30
0.0
 10
49.34050376800428
 20
65.67061483724109
 30
0.0
 10
63.41179542530108
 20
58.10275599592802
 30
0.0
 10
73.00986560488332
 20
56.98863150532094
 30
0.0
 10
76.93603920888017
 20
61.08321416568713
 30
0.0
 10
75.88224545458229
 20
67.20314492710127
 30
0.0
 10
72.06636633998119
 20
67.66514489382036
 30
0.0
 10
70.30460606718839
 20
67.87844651133827
 30
0.0
  0
SPLINE
  5
3603
102
{ACAD_REACTORS
330
3695
102
}
330
2
100
AcDbEntity
  8
KIJUN
100
AcDbSpline
210
0.0
220
0.0
230
1.0
 70
     8
 71
     3
 72
     9
 73
     5
 74
     0
 42
0.0000000001
 43
0.0000000001
 40
0.0
 40
0.0
 40
0.0
 40
0.0
 40
7.986885835912484
 40
19.89580800984865
 40
19.89580800984865
 40
19.89580800984865
 40
19.89580800984865
 10
37.09705916718804
 20
84.87844651133839
 30
0.0
 10
37.48208994431025
 20
87.53242861024563
 30
0.0
 10
38.4412245277872
 20
94.14365598800651
 30
0.0
 10
36.95267550941731
 20
100.6871800951232
 30
0.0
 10
36.06168307507733
 20
104.6039006071202
 30
0.0
  0
ELLIPSE
  5
3604
102
{ACAD_REACTORS
330
3695
102
}
330
2
100
AcDbEntity
  8
KIJUN
100
AcDbEllipse
 10
-18.00845134353517
 20
90.77656900970584
 30
0.0
 11
52.29141830485666
 21
0.000000000003591
 31
0.0
210
0.0
220
0.0
230
1.0
 40
0.9937500080742218
 41
-0.0257259574728235
 42
0.8908795272933605
  0
SPLINE
  5
3605
102
{ACAD_REACTORS
330
3695
102
}
330
2
100
AcDbEntity
  8
KIJUN
100
AcDbSpline
210
0.0
220
0.0
230
1.0
 70
     8
 71
     3
 72
    11
 73
     7
 74
     0
 42
0.0000000001
 43
0.0000000001
 40
0.0
 40
0.0
 40
0.0
 40
0.0
 40
8.201297080304346
 40
21.72869425928773
 40
38.69360707727297
 40
47.17027810240836
 40
47.17027810240836
 40
47.17027810240836
 40
47.17027810240836
 10
-55.35629666258592
 20
98.45113551645518
 30
0.0
 10
-57.96187995305444
 20
97.26902778121411
 30
0.0
 10
-64.86516880252975
 20
94.13712592360724
 30
0.0
 10
-67.59863909801765
 20
79.63463128385019
 30
0.0
 10
-63.34632754154881
 20
66.96517425202245
 30
0.0
 10
-57.64333391896343
 20
60.59128021054807
 30
0.0
 10
-55.7432006137733
 20
58.46761514033033
 30
0.0
  0
SPLINE
  5
3606
102
{ACAD_REACTORS
330
3695
102
}
330
2
100
AcDbEntity
  8
KIJUN
100
AcDbSpline
210
0.0
220
0.0
230
1.0
 70
     8
 71
     3
 72
    15
 73
    11
 74
     0
 42
0.0000000001
 43
0.0000000001
 40
0.0
 40
0.0
 40
0.0
 40
0.0
 40
3.676376933157931
 40
7.000577023667309
 40
15.67310467948406
 40
28.60252159965075
 40
34.16329016602607
 40
43.59440883515891
 40
55.5675554571362
 40
65.51716772124345
 40
65.51716772124345
 40
65.51716772124345
 40
65.51716772124345
 10
-33.58727215505769
 20
106.0895115126609
 30
0.0
 10
-33.07714249920719
 20
104.8473324119951
 30
0.0
 10
-32.10575082398759
 20
102.4819681880575
 30
0.0
 10
-36.46229191483371
 20
98.17358511082961
 30
0.0
 10
-45.10382640831244
 20
99.90957864634783
 30
0.0
 10
-55.46490626468539
 20
100.2979953842502
 30
0.0
 10
-61.0415616639284
 20
92.09505160912778
 30
0.0
 10
-62.52261071929479
 20
83.15534933391115
 30
0.0
 10
-60.56337578208149
 20
72.16555134635524
 30
0.0
 10
-54.99148367087105
 20
67.1532652656337
 30
0.0
 10
-52.46268853281162
 20
64.87844651133826
 30
0.0
  0
SPLINE
  5
3607
102
{ACAD_REACTORS
330
3695
102
}
330
2
100
AcDbEntity
  8
KIJUN
100
AcDbSpline
210
0.0
220
0.0
230
1.0
 70
     8
 71
     3
 72
    10
 73
     6
 74
     0
 42
0.0000000001
 43
0.0000000001
 40
0.0
 40
0.0
 40
0.0
 40
0.0
 40
10.20628181936186
 40
17.14245439297235
 40
21.30515447798452
 40
21.30515447798452
 40
21.30515447798452
 40
21.30515447798452
 10
26.0278768671883
 20
96.87844651133827
 30
0.0
 10
26.67161432746116
 20
93.86017547625744
 30
0.0
 10
27.75283472183082
 20
88.79069234025889
 30
0.0
 10
33.27493327762772
 20
80.14743253909836
 30
0.0
 10
36.05454775419912
 20
83.58802955397397
 30
0.0
 10
37.09705916718804
 20
84.87844651133839
 30
0.0
  0
LINE
  5
360A
102
{ACAD_REACTORS
330
3695
102
}
330
2
100
AcDbEntity
  8
KIJUN
100
AcDbLine
 10
-53.05885198954729
 20
60.88618641496641
 30
0.0
 11
-52.4626885328114
 21
64.87844651133826
 31
0.0
  0
LINE
  5
360B
102
{ACAD_REACTORS
330
3695
102
}
330
2
100
AcDbEntity
  8
KIJUN
100
AcDbLine
 10
-55.7432006137733
 20
58.46761514033033
 30
0.0
 11
-53.05885198954729
 21
60.88618641496641
 31
0.0
  0
ELLIPSE
  5
360C
102
{ACAD_REACTORS
330
3695
102
}
330
2
100
AcDbEntity
  8
KIJUN
100
AcDbEllipse
 10
-50.44467481327592
 20
56.87844651133826
 30
0.0
 11
-5.534591149999869
 21
0.0000000000445231
 31
0.0
210
0.0
220
0.0
230
1.0
 40
0.9937500080742662
 41
-0.2931191657756873
 42
3.141592653597887
  0
SPLINE
  5
360F
102
{ACAD_REACTORS
330
3695
102
}
330
2
100
AcDbEntity
  8
KIJUN
100
AcDbSpline
210
0.0
220
0.0
230
1.0
 70
     8
 71
     3
 72
    12
 73
     8
 74
     0
 42
0.0000000001
 43
0.0000000001
 40
0.0
 40
0.0
 40
0.0
 40
0.0
 40
22.91127923741214
 40
36.37530667186926
 40
40.60031278529568
 40
43.19045259202177
 40
46.21136357096495
 40
46.21136357096495
 40
46.21136357096495
 40
46.21136357096495
 10
43.78457298317243
 20
88.90467549722615
 30
0.0
 10
46.53318668565271
 20
81.23735599910975
 30
0.0
 10
50.8970489263504
 20
69.06426451848375
 30
0.0
 10
63.3918594820027
 20
63.47510709760268
 30
0.0
 10
71.08156377680121
 20
62.15162011774845
 30
0.0
 10
72.9637091312552
 20
65.94539091146208
 30
0.0
 10
71.23520722824924
 20
67.20193877835521
 30
0.0
 10
70.30460606718861
 20
67.87844651133815
 30
0.0
  0
SPLINE
  5
3611
102
{ACAD_REACTORS
330
3695
102
}
330
2
100
AcDbEntity
  8
KIJUN
100
AcDbSpline
210
0.0
220
0.0
230
1.0
 70
     8
 71
     3
 72
    14
 73
    10
 74
     0
 42
0.0000000001
 43
0.0000000001
 40
0.0
 40
0.0
 40
0.0
 40
0.0
 40
9.588993514227047
 40
15.89300574763357
 40
19.80597776637174
 40
24.02125924794356
 40
28.11435559554832
 40
32.13040908934012
 40
34.12537905467392
 40
34.12537905467392
 40
34.12537905467392
 40
34.12537905467392
 10
62.72514746726756
 20
58.45049570555346
 30
0.0
 10
65.68047082827025
 20
57.07977450526522
 30
0.0
 10
70.57868784060293
 20
54.80791146956068
 30
0.0
 10
78.08729114795392
 20
57.01430560817397
 30
0.0
 10
79.44039486316978
 20
61.92029193518084
 30
0.0
 10
79.84553303480971
 20
66.10064060035671
 30
0.0
 10
76.42289765950977
 20
69.69888916731832
 30
0.0
 10
72.84426435154228
 20
68.63508649456008
 30
0.0
 10
70.9374497045585
 20
68.06698951419497
 30
0.0
 10
70.30460606718839
 20
67.87844651133838
 30
0.0
  0
SPLINE
  5
3613
102
{ACAD_REACTORS
330
3695
102
}
330
2
100
AcDbEntity
  8
KIJUN
100
AcDbSpline
210
0.0
220
0.0
230
1.0
 70
     8
 71
     3
 72
    11
 73
     7
 74
     0
 42
0.0000000001
 43
0.0000000001
 40
0.0
 40
0.0
 40
0.0
 40
0.0
 40
18.84356645009667
 40
31.12266496441896
 40
35.4376230323697
 40
42.24181027269778
 40
42.24181027269778
 40
42.24181027269778
 40
42.24181027269778
 10
-2.373150406004697
 20
137.7863499398855
 30
0.0
 10
3.369802060829897
 20
135.3037679178883
 30
0.0
 10
12.85505454767849
 20
131.2034523687101
 30
0.0
 10
22.02197752401366
 20
121.9616497034857
 30
0.0
 10
21.46106448602631
 20
113.2619131622701
 30
0.0
 10
17.57138169070231
 20
111.8294880850766
 30
0.0
 10
15.19115107844823
 20
110.9529379400122
 30
0.0
  0
ELLIPSE
  5
3614
102
{ACAD_REACTORS
330
3695
102
}
330
2
100
AcDbEntity
  8
KIJUN
100
AcDbEllipse
 10
-10.67540864224906
 20
120.1306715935684
 30
0.0
 11
19.61080922944019
 21
0.0000000000063631
 31
0.0
210
0.0
220
0.0
230
1.0
 40
0.9937500080742292
 41
0.0383799902283504
 42
1.133655231173337
  0
ELLIPSE
  5
3615
102
{ACAD_REACTORS
330
3695
102
}
330
2
100
AcDbEntity
  8
KIJUN
100
AcDbEllipse
 10
-13.8178238915907
 20
122.0999348838726
 30
0.0
 11
17.59300318995472
 21
0.0000000000066381
 31
0.0
210
0.0
220
0.0
230
1.0
 40
0.9937500080742292
 41
-0.1126655942978159
 42
1.532786181783452
  0
ELLIPSE
  5
3616
102
{ACAD_REACTORS
330
3695
102
}
330
2
100
AcDbEntity
  8
KIJUN
100
AcDbEllipse
 10
-19.75010633486704
 20
113.4036637743194
 30
0.0
 11
-24.37370258176686
 21
0.000000000012709
 31
0.0
210
0.0
220
0.0
230
1.0
 40
0.993750008074222
 41
3.423181899113485
 42
4.687593964324051
  0
SPLINE
  5
3617
102
{ACAD_REACTORS
330
3695
102
}
330
2
100
AcDbEntity
  8
KIJUN
100
AcDbSpline
210
0.0
220
0.0
230
1.0
 70
     8
 71
     3
 72
    12
 73
     8
 74
     0
 42
0.0000000001
 43
0.0000000001
 40
0.0
 40
0.0
 40
0.0
 40
0.0
 40
7.647257930688488
 40
11.73713388160378
 40
18.96194712803347
 40
21.7886862021518
 40
23.11098008594694
 40
23.11098008594694
 40
23.11098008594694
 40
23.11098008594694
 10
-4.160802132811568
 20
117.8784465113382
 30
0.0
 10
-2.616374451386036
 20
115.974270823283
 30
0.0
 10
-0.2459621242951471
 20
113.0517114971341
 30
0.0
 10
6.055430760152376
 20
108.9083387889161
 30
0.0
 10
9.297430524500668
 20
115.5364091877143
 30
0.0
 10
8.006453309686094
 20
119.2278207537047
 30
0.0
 10
8.699943827277593
 20
120.4795282220643
 30
0.0
 10
8.920958767188494
 20
120.8784465113382
 30
0.0
  0
SPLINE
  5
3618
102
{ACAD_REACTORS
330
3695
102
}
330
2
100
AcDbEntity
  8
KIJUN
100
AcDbSpline
210
0.0
220
0.0
230
1.0
 70
     8
 71
     3
 72
    14
 73
    10
 74
     0
 42
0.0000000001
 43
0.0000000001
 40
0.0
 40
0.0
 40
0.0
 40
0.0
 40
8.668656550632009
 40
15.00455468240823
 40
21.94862890481425
 40
28.57146481469121
 40
36.97705940351967
 40
47.21838047333392
 40
51.65056716696132
 40
51.65056716696132
 40
51.65056716696132
 40
51.65056716696132
 10
-35.57940779942078
 20
126.913568946457
 30
0.0
 10
-32.82196106928473
 20
126.3862267081094
 30
0.0
 10
-28.04910382150979
 20
125.4734514233333
 30
0.0
 10
-21.50759070313234
 20
117.7801428388315
 30
0.0
 10
-30.76019263998273
 20
114.3293096585699
 30
0.0
 10
-37.0902572166151
 20
118.0761937777146
 30
0.0
 10
-45.84347336815016
 20
116.5788951814461
 30
0.0
 10
-53.7192220769607
 20
114.4724931634247
 30
0.0
 10
-56.68487045206029
 20
110.463020084855
 30
0.0
 10
-57.58065539169433
 20
109.2519440753701
 30
0.0
  0
ELLIPSE
  5
3619
102
{ACAD_REACTORS
330
3695
102
}
330
2
100
AcDbEntity
  8
KIJUN
100
AcDbEllipse
 10
-38.43563579262127
 20
97.54632141200984
 30
0.0
 11
23.71087181624199
 21
0.0000000000012176
 31
0.0
210
0.0
220
0.0
230
1.0
 40
0.993750008074212
 41
1.141893978034115
 42
2.84093660697718
  0
ELLIPSE
  5
361A
102
{ACAD_REACTORS
330
3695
102
}
330
2
100
AcDbEntity
  8
KIJUN
100
AcDbEllipse
 10
-28.56856402565881
 20
106.4843089547665
 30
0.0
 11
29.20281417799459
 21
0.0000000000023491
 31
0.0
210
0.0
220
0.0
230
1.0
 40
0.9937500080742177
 41
0.7723453845653388
 42
2.265079456787434
  0
ELLIPSE
  5
361B
102
{ACAD_REACTORS
330
3695
102
}
330
2
100
AcDbEntity
  8
KIJUN
100
AcDbEllipse
 10
-37.47516621045543
 20
116.1806067466438
 30
0.0
 11
-16.01677759557956
 21
0.0000000000106525
 31
0.0
210
0.0
220
0.0
230
1.0
 40
0.9937500080742294
 41
4.178033253473968
 42
5.369090837311023
  0
ELLIPSE
  5
361C
102
{ACAD_REACTORS
330
3695
102
}
330
2
100
AcDbEntity
  8
KIJUN
100
AcDbEllipse
 10
-40.49205448749512
 20
106.542114273637
 30
0.0
 11
21.2133051853202
 21
0.0000000000055123
 31
0.0
210
0.0
220
0.0
230
1.0
 40
0.9937500080742157
 41
1.304612686473147
 42
2.50030683133219
  0
ELLIPSE
  5
361D
102
{ACAD_REACTORS
330
3695
102
}
330
2
100
AcDbEntity
  8
KIJUN
100
AcDbEllipse
 10
-39.74600600604367
 20
91.10120273433182
 30
0.0
 11
22.93270878484192
 21
0.0000000000006379
 31
0.0
210
0.0
220
0.0
230
1.0
 40
0.9937500080742163
 41
1.147420725051946
 42
2.384431393927842
  0
ELLIPSE
  5
361E
102
{ACAD_REACTORS
330
3695
102
}
330
2
100
AcDbEntity
  8
KIJUN
100
AcDbEllipse
 10
-43.63747505288756
 20
87.21035799486509
 30
0.0
 11
21.49247332215354
 21
0.0000000000022157
 31
0.0
210
0.0
220
0.0
230
1.0
 40
0.9937500080742236
 41
1.08420565185503
 42
2.469388799926118
  0
ELLIPSE
  5
361F
102
{ACAD_REACTORS
330
3695
102
}
330
2
100
AcDbEntity
  8
KIJUN
100
AcDbEllipse
 10
-20.78392105381272
 20
116.5164115716373
 30
0.0
 11
16.67952727966023
 21
0.0000000000523921
 31
0.0
210
0.0
220
0.0
230
1.0
 40
0.9937500080742051
 41
0.0822654222245767
 42
0.6642970467867571
  0
ELLIPSE
  5
3620
102
{ACAD_REACTORS
330
3695
102
}
330
2
100
AcDbEntity
  8
KIJUN
100
AcDbEllipse
 10
-34.91186471534638
 20
133.5329753492548
 30
0.0
 11
6.694403544370786
 21
0.0000000000052446
 31
0.0
210
0.0
220
0.0
230
1.0
 40
0.9937500080742227
 41
4.612506394335938
 42
5.701609406889465
  0
SPLINE
  5
3621
102
{ACAD_REACTORS
330
3695
102
}
330
2
100
AcDbEntity
  8
KIJUN
100
AcDbSpline
210
0.0
220
0.0
230
1.0
 70
     8
 71
     3
 72
     9
 73
     5
 74
     0
 42
0.0000000001
 43
0.0000000001
 40
0.0
 40
0.0
 40
0.0
 40
0.0
 40
4.530935381826265
 40
8.182068071791702
 40
8.182068071791702
 40
8.182068071791702
 40
8.182068071791702
 10
-30.32432393281169
 20
111.8784465113382
 30
0.0
 10
-29.85078574213958
 20
110.0960510990454
 30
0.0
 10
-28.99565950789361
 20
106.8773601742695
 30
0.0
 10
-32.17053061798356
 20
106.3326021236511
 30
0.0
 10
-33.58727215505769
 20
106.0895115126611
 30
0.0
  0
SPLINE
  5
3622
102
{ACAD_REACTORS
330
3695
102
}
330
2
100
AcDbEntity
  8
KIJUN
100
AcDbSpline
210
0.0
220
0.0
230
1.0
 70
     8
 71
     3
 72
    11
 73
     7
 74
     0
 42
0.0000000001
 43
0.0000000001
 40
0.0
 40
0.0
 40
0.0
 40
0.0
 40
7.130308704913855
 40
14.28090774297906
 40
20.31991740975344
 40
27.13962894227287
 40
27.13962894227287
 40
27.13962894227287
 40
27.13962894227287
 10
-29.31803463281176
 20
129.8784465113382
 30
0.0
 10
-27.72568655426562
 20
128.255349429384
 30
0.0
 10
-24.53645913852211
 20
125.0045365060512
 30
0.0
 10
-18.35617740110251
 20
119.3440708712322
 30
0.0
 10
-23.84946697740383
 20
112.9650723492034
 30
0.0
 10
-28.08041267971566
 20
112.2550250152779
 30
0.0
 10
-30.32432393281169
 20
111.8784465113382
 30
0.0
  0
SPLINE
  5
3623
102
{ACAD_REACTORS
330
3695
102
}
330
2
100
AcDbEntity
  8
KIJUN
100
AcDbSpline
210
0.0
220
0.0
230
1.0
 70
     8
 71
     3
 72
    12
 73
     8
 74
     0
 42
0.0000000001
 43
0.0000000001
 40
0.0
 40
0.0
 40
0.0
 40
0.0
 40
6.96848895816169
 40
15.34747645410311
 40
24.20235824171773
 40
27.83090967297715
 40
30.22416444453508
 40
30.22416444453508
 40
30.22416444453508
 40
30.22416444453508
 10
-29.31803463281176
 20
129.8784465113382
 30
0.0
 10
-26.99440463992346
 20
129.6665201759077
 30
0.0
 10
-21.87681647726572
 20
129.1997712921031
 30
0.0
 10
-14.04764038925054
 20
125.658802936727
 30
0.0
 10
-9.661392449828554
 20
121.4220319682723
 30
0.0
 10
-6.445366877919695
 20
115.3623323964418
 30
0.0
 10
-4.810535449517601
 20
117.1628602393437
 30
0.0
 10
-4.160802132811568
 20
117.8784465113382
 30
0.0
  0
SPLINE
  5
3624
102
{ACAD_REACTORS
330
3695
102
}
330
2
100
AcDbEntity
  8
KIJUN
100
AcDbSpline
210
0.0
220
0.0
230
1.0
 70
     8
 71
     3
 72
    12
 73
     8
 74
     0
 42
0.0000000001
 43
0.0000000001
 40
0.0
 40
0.0
 40
0.0
 40
0.0
 40
4.393668931497888
 40
8.512371714878288
 40
10.83245288611347
 40
16.03369545447021
 40
21.41430369779119
 40
21.41430369779119
 40
21.41430369779119
 40
21.41430369779119
 10
23.27527827319272
 20
98.26178473595774
 30
0.0
 10
24.41143155842838
 20
99.16754516843917
 30
0.0
 10
26.61263498085145
 20
100.922381412617
 30
0.0
 10
27.0246734434495
 20
105.9834253549895
 30
0.0
 10
21.86207557703983
 20
106.3433333369049
 30
0.0
 10
25.68031054563744
 20
112.3679162666023
 30
0.0
 10
22.93735159642119
 20
115.056414090261
 30
0.0
 10
21.54262511653564
 20
116.4234484408271
 30
0.0
  0
ELLIPSE
  5
3625
102
{ACAD_REACTORS
330
3695
102
}
330
2
100
AcDbEntity
  8
KIJUN
100
AcDbEllipse
 10
7.241521155889358
 20
116.7121402689015
 30
0.0
 11
-9.751531573587863
 21
0.0000000000058663
 31
0.0
210
0.0
220
0.0
230
1.0
 40
0.9937500080742355
 41
3.120715142375982
 42
4.644858706225365
  0
SPLINE
  5
3626
102
{ACAD_REACTORS
330
3695
102
}
330
2
100
AcDbEntity
  8
KIJUN
100
AcDbSpline
210
0.0
220
0.0
230
1.0
 70
     8
 71
     3
 72
    11
 73
     7
 74
     0
 42
0.0000000001
 43
0.0000000001
 40
0.0
 40
0.0
 40
0.0
 40
0.0
 40
4.087950994303275
 40
9.590669267500569
 40
14.14013246390094
 40
18.53767862050936
 40
18.53767862050936
 40
18.53767862050936
 40
18.53767862050936
 10
17.86209896026844
 20
108.9156266624169
 30
0.0
 10
16.41784262566898
 20
109.7523491099459
 30
0.0
 10
13.02949847429909
 20
111.7153687924534
 30
0.0
 10
19.28739195582693
 20
117.3928955930326
 30
0.0
 10
12.54827422106177
 20
118.8909106965823
 30
0.0
 10
10.11629922805946
 20
120.2234767390591
 30
0.0
 10
8.920958767188267
 20
120.8784465113382
 30
0.0
  0
SPLINE
  5
3627
102
{ACAD_REACTORS
330
3695
102
}
330
2
100
AcDbEntity
  8
KIJUN
100
AcDbSpline
210
0.0
220
0.0
230
1.0
 70
     8
 71
     3
 72
    11
 73
     7
 74
     0
 42
0.0000000001
 43
0.0000000001
 40
0.0
 40
0.0
 40
0.0
 40
0.0
 40
2.805102366513283
 40
6.476584598212423
 40
9.189575281647671
 40
15.75888127284731
 40
15.75888127284731
 40
15.75888127284731
 40
15.75888127284731
 10
26.0278768671883
 20
96.87844651133827
 30
0.0
 10
24.98564464146352
 20
97.08810575764477
 30
0.0
 10
22.57927785019388
 20
97.57217930223674
 30
0.0
 10
23.21568325215662
 20
101.9181324739664
 30
0.0
 10
17.89071566662232
 20
102.5388934046008
 30
0.0
 10
17.87395844883008
 20
106.2729467468307
 30
0.0
 10
17.86209896026844
 20
108.9156266624169
 30
0.0
  0
DIMENSION
  5
3628
330
2
100
AcDbEntity
  8
SUNPOU
100
AcDbDimension
  2
*D18
 10
85.3309064466533
 20
170.5486106057478
 30
0.0
 11
5.330906446653308
 21
176.0486106057478
 31
0.0
 70
    32
 71
     5
 42
160.0
  3
STANDARD
100
AcDbAlignedDimension
 13
-74.66909355334668
 23
145.8784465113387
 33
0.0
 14
85.3309064466533
 24
142.6973164560472
 34
0.0
100
AcDbRotatedDimension
1001
ACAD
1000
DSTYLE
1002
{
1070
    41
1040
2.0
1070
    42
1040
10.0
1070
    44
1040
0.0
1070
    73
1070
     0
1070
    74
1070
     0
1070
    77
1070
     1
1070
   140
1040
5.0
1070
   141
1040
0.0
1070
   146
1040
0.064286
1070
   147
1040
3.0
1070
   176
1070
    60
1070
   177
1070
    70
1070
   178
1070
    60
1070
   271
1070
     0
1070
   272
1070
     0
1070
   340
1005
1C
1070
   342
1005
109
1002
}
  0
DIMENSION
  5
3635
330
2
100
AcDbEntity
  8
SUNPOU
100
AcDbDimension
  2
*D19
 10
-102.6422475936551
 20
45.87844651133827
 30
0.0
 11
-108.1422475936552
 21
95.87844651133847
 31
0.0
 70
    32
 71
     5
 42
100.0000000000004
  3
STANDARD
100
AcDbAlignedDimension
 13
-74.66909355334668
 23
145.8784465113387
 33
0.0
 14
-73.23195019797594
 24
45.87844651133827
 34
0.0
 50
90.0
100
AcDbRotatedDimension
1001
ACAD
1000
DSTYLE
1002
{
1070
    41
1040
2.0
1070
    42
1040
10.0
1070
    44
1040
0.0
1070
    73
1070
     0
1070
    74
1070
     0
1070
    77
1070
     1
1070
   140
1040
5.0
1070
   141
1040
0.0
1070
   146
1040
0.064286
1070
   147
1040
3.0
1070
   176
1070
    60
1070
   177
1070
    70
1070
   178
1070
    60
1070
   271
1070
     0
1070
   272
1070
     0
1070
   340
1005
1C
1070
   342
1005
109
1002
}
  0
ARC
  5
365D
102
{ACAD_REACTORS
330
3695
102
}
330
2
100
AcDbEntity
  8
KIJUN
100
AcDbCircle
 10
-14.28234614491262
 20
85.56406648663637
 30
0.0
 40
60.38697973725466
100
AcDbArc
 50
115.4848227891351
 51
188.334251609797
  0
ARC
  5
365E
102
{ACAD_REACTORS
330
3695
102
}
330
2
100
AcDbEntity
  8
KIJUN
100
AcDbCircle
 10
-47.88662238142141
 20
69.63193231461993
 30
0.0
 40
24.56450622216573
100
AcDbArc
 50
203.868621009462
 51
242.9908570485807
  0
ARC
  5
365F
102
{ACAD_REACTORS
330
3695
102
}
330
2
100
AcDbEntity
  8
KIJUN
100
AcDbCircle
 10
-51.94947938564884
 20
60.27683498611187
 30
0.0
 40
14.3983884747736
100
AcDbArc
 50
240.4881932093964
 51
299.9795474945571
  0
ARC
  5
3661
102
{ACAD_REACTORS
330
3695
102
}
330
2
100
AcDbEntity
  8
KIJUN
100
AcDbCircle
 10
-13.25589356662736
 20
80.92523859940614
 30
0.0
 40
60.91479537907194
100
AcDbArc
 50
183.8726501071115
 51
200.3999129721415
  0
ARC
  5
3664
102
{ACAD_REACTORS
330
3695
102
}
330
2
100
AcDbEntity
  8
KIJUN
100
AcDbCircle
 10
-50.31398037779561
 20
57.2089505005841
 30
0.0
 40
10.92435060097185
100
AcDbArc
 50
300.589622194248
 51
34.46653784685673
  0
ARC
  5
3665
102
{ACAD_REACTORS
330
3695
102
}
330
2
100
AcDbEntity
  8
KIJUN
100
AcDbCircle
 10
-44.23300804051796
 20
37.70105369627516
 30
0.0
 40
28.39609693654186
100
AcDbArc
 50
95.32563966980289
 51
106.8470190909748
  0
ARC
  5
3666
102
{ACAD_REACTORS
330
3695
102
}
330
2
100
AcDbEntity
  8
KIJUN
100
AcDbCircle
 10
-46.23369655707351
 20
60.06358470847825
 30
0.0
 40
5.944990021365272
100
AcDbArc
 50
34.03873000745043
 51
96.13091391718342
  0
ARC
  5
3667
102
{ACAD_REACTORS
330
3695
102
}
330
2
100
AcDbEntity
  8
KIJUN
100
AcDbCircle
 10
-16.24862875514367
 20
93.27977585617501
 30
0.0
 40
52.59867065516368
100
AcDbArc
 50
77.71207643133379
 51
117.1679168053118
  0
ARC
  5
366B
102
{ACAD_REACTORS
330
3695
102
}
330
2
100
AcDbEntity
  8
KIJUN
100
AcDbCircle
 10
-14.92705097434263
 20
89.68197878149775
 30
0.0
 40
55.87065908831772
100
AcDbArc
 50
33.58873021038884
 51
79.8220224095338
  0
ARC
  5
366C
102
{ACAD_REACTORS
330
3695
102
}
330
2
100
AcDbEntity
  8
KIJUN
100
AcDbCircle
 10
-56.88507170717514
 20
58.39945136935319
 30
0.0
 40
108.1667853784694
100
AcDbArc
 50
17.26987015767842
 51
35.09692755799384
  0
ARC
  5
366E
102
{ACAD_REACTORS
330
3695
102
}
330
2
100
AcDbEntity
  8
KIJUN
100
AcDbCircle
 10
85.07358161956075
 20
101.9201424568353
 30
0.0
 40
40.31630474155621
100
AcDbArc
 50
196.4384543183372
 51
221.7329668591156
  0
ARC
  5
366F
102
{ACAD_REACTORS
330
3695
102
}
330
2
100
AcDbEntity
  8
KIJUN
100
AcDbCircle
 10
70.34686857669166
 20
87.85292011689419
 30
0.0
 40
19.97451831556295
100
AcDbArc
 50
219.7396915882381
 51
269.8787722840365
  0
ARC
  5
3670
102
{ACAD_REACTORS
330
3695
102
}
330
2
100
AcDbEntity
  8
KIJUN
100
AcDbCircle
 10
82.14390879185407
 20
62.14250908034351
 30
0.0
 40
13.15560972431774
100
AcDbArc
 50
132.8974807926689
 51
154.1506142353394
  0
ARC
  5
3671
102
{ACAD_REACTORS
330
3695
102
}
330
2
100
AcDbEntity
  8
KIJUN
100
AcDbCircle
 10
76.23322316285623
 20
68.42921247525014
 30
0.0
 40
4.527089093537658
100
AcDbArc
 50
55.16814505461755
 51
132.2555447403223
  0
ARC
  5
3672
102
{ACAD_REACTORS
330
3695
102
}
330
2
100
AcDbEntity
  8
KIJUN
100
AcDbCircle
 10
73.65708802980572
 20
61.67460815112988
 30
0.0
 40
11.67381841684758
100
AcDbArc
 50
317.5723520126606
 51
63.75725165558326
  0
ARC
  5
3674
102
{ACAD_REACTORS
330
3695
102
}
330
2
100
AcDbEntity
  8
KIJUN
100
AcDbCircle
 10
68.55549426826228
 20
70.24654985665901
 30
0.0
 40
21.41783771924229
100
AcDbArc
 50
272.4676682699597
 51
309.8300287581022
  0
ARC
  5
3675
102
{ACAD_REACTORS
330
3695
102
}
330
2
100
AcDbEntity
  8
KIJUN
100
AcDbCircle
 10
79.27565037439804
 20
106.9937379692296
 30
0.0
 40
58.96491264735271
100
AcDbArc
 50
248.5841742012449
 51
260.4349899283355
  0
ARC
  5
3676
102
{ACAD_REACTORS
330
3695
102
}
330
2
100
AcDbEntity
  8
KIJUN
100
AcDbCircle
 10
69.51126622318331
 20
78.08207736669483
 30
0.0
 40
28.5218721274897
100
AcDbArc
 50
216.2606912211204
 51
245.6370640279185
  0
ARC
  5
3678
102
{ACAD_REACTORS
330
3695
102
}
330
2
100
AcDbEntity
  8
KIJUN
100
AcDbCircle
 10
106.1419097162791
 20
98.64341299825678
 30
0.0
 40
70.40359145478508
100
AcDbArc
 50
191.2748169130968
 51
212.1177907733696
  0
SPLINE
  5
3696
102
{ACAD_REACTORS
330
36C9
102
}
330
2
100
AcDbEntity
  8
KIJUN
100
AcDbSpline
210
0.0
220
0.0
230
1.0
 70
     8
 71
     3
 72
    14
 73
    10
 74
     0
 42
0.0000000001
 43
0.0000000001
 40
0.0
 40
0.0
 40
0.0
 40
0.0
 40
19.19014353636566
 40
42.41598478201583
 40
59.02348340356397
 40
65.14760447335298
 40
68.84837241786254
 40
74.50183613813385
 40
79.35065383228449
 40
79.35065383228449
 40
79.35065383228449
 40
79.35065383228449
 10
159.2019762262002
 20
104.6039006071202
 30
0.0
 10
157.4603903742711
 20
98.50936899820915
 30
0.0
 10
153.610962210693
 20
85.03862244088322
 30
0.0
 10
145.9231555332733
 20
65.67061483724109
 30
0.0
 10
131.8518638759765
 20
58.10275599592802
 30
0.0
 10
122.2537936963942
 20
56.98863150532094
 30
0.0
 10
118.3276200923974
 20
61.08321416568713
 30
0.0
 10
119.3814138466953
 20
67.20314492710127
 30
0.0
 10
123.1972929612964
 20
67.66514489382036
 30
0.0
 10
124.9590532340892
 20
67.87844651133827
 30
0.0
  0
SPLINE
  5
3697
102
{ACAD_REACTORS
330
36C9
102
}
330
2
100
AcDbEntity
  8
KIJUN
100
AcDbSpline
210
0.0
220
0.0
230
1.0
 70
     8
 71
     3
 72
     9
 73
     5
 74
     0
 42
0.0000000001
 43
0.0000000001
 40
0.0
 40
0.0
 40
0.0
 40
0.0
 40
7.986885835912484
 40
19.89580800984865
 40
19.89580800984865
 40
19.89580800984865
 40
19.89580800984865
 10
158.1666001340895
 20
84.87844651133839
 30
0.0
 10
157.7815693569673
 20
87.53242861024563
 30
0.0
 10
156.8224347734903
 20
94.14365598800651
 30
0.0
 10
158.3109837918602
 20
100.6871800951232
 30
0.0
 10
159.2019762262002
 20
104.6039006071202
 30
0.0
  0
ELLIPSE
  5
3698
102
{ACAD_REACTORS
330
36C9
102
}
330
2
100
AcDbEntity
  8
KIJUN
100
AcDbEllipse
 10
213.2721106448127
 20
90.77656900970584
 30
0.0
 11
-52.29141830485665
 21
0.000000000003591
 31
0.0
210
0.0
220
0.0
230
-1.0
 40
0.9937500080742218
 41
-0.0257259574728235
 42
0.8908795272933605
  0
SPLINE
  5
3699
102
{ACAD_REACTORS
330
36C9
102
}
330
2
100
AcDbEntity
  8
KIJUN
100
AcDbSpline
210
0.0
220
0.0
230
1.0
 70
     8
 71
     3
 72
    11
 73
     7
 74
     0
 42
0.0000000001
 43
0.0000000001
 40
0.0
 40
0.0
 40
0.0
 40
0.0
 40
8.201297080304346
 40
21.72869425928773
 40
38.69360707727297
 40
47.17027810240836
 40
47.17027810240836
 40
47.17027810240836
 40
47.17027810240836
 10
250.6199559638635
 20
98.45113551645518
 30
0.0
 10
253.225539254332
 20
97.26902778121411
 30
0.0
 10
260.1288281038073
 20
94.13712592360724
 30
0.0
 10
262.8622983992952
 20
79.63463128385019
 30
0.0
 10
258.6099868428263
 20
66.96517425202245
 30
0.0
 10
252.906993220241
 20
60.59128021054807
 30
0.0
 10
251.0068599150508
 20
58.46761514033033
 30
0.0
  0
SPLINE
  5
369A
102
{ACAD_REACTORS
330
36C9
102
}
330
2
100
AcDbEntity
  8
KIJUN
100
AcDbSpline
210
0.0
220
0.0
230
1.0
 70
     8
 71
     3
 72
    15
 73
    11
 74
     0
 42
0.0000000001
 43
0.0000000001
 40
0.0
 40
0.0
 40
0.0
 40
0.0
 40
3.676376933157931
 40
7.000577023667309
 40
15.67310467948406
 40
28.60252159965075
 40
34.16329016602607
 40
43.59440883515891
 40
55.5675554571362
 40
65.51716772124345
 40
65.51716772124345
 40
65.51716772124345
 40
65.51716772124345
 10
228.8509314563353
 20
106.0895115126609
 30
0.0
 10
228.3408018004847
 20
104.8473324119951
 30
0.0
 10
227.3694101252651
 20
102.4819681880575
 30
0.0
 10
231.7259512161113
 20
98.17358511082961
 30
0.0
 10
240.36748570959
 20
99.90957864634783
 30
0.0
 10
250.7285655659629
 20
100.2979953842502
 30
0.0
 10
256.305220965206
 20
92.09505160912778
 30
0.0
 10
257.7862700205723
 20
83.15534933391115
 30
0.0
 10
255.827035083359
 20
72.16555134635524
 30
0.0
 10
250.2551429721486
 20
67.1532652656337
 30
0.0
 10
247.7263478340892
 20
64.87844651133826
 30
0.0
  0
SPLINE
  5
369B
102
{ACAD_REACTORS
330
36C9
102
}
330
2
100
AcDbEntity
  8
KIJUN
100
AcDbSpline
210
0.0
220
0.0
230
1.0
 70
     8
 71
     3
 72
    10
 73
     6
 74
     0
 42
0.0000000001
 43
0.0000000001
 40
0.0
 40
0.0
 40
0.0
 40
0.0
 40
10.20628181936186
 40
17.14245439297235
 40
21.30515447798452
 40
21.30515447798452
 40
21.30515447798452
 40
21.30515447798452
 10
169.2357824340892
 20
96.87844651133827
 30
0.0
 10
168.5920449738164
 20
93.86017547625744
 30
0.0
 10
167.5108245794467
 20
88.79069234025889
 30
0.0
 10
161.9887260236498
 20
80.14743253909836
 30
0.0
 10
159.2091115470784
 20
83.58802955397397
 30
0.0
 10
158.1666001340895
 20
84.87844651133839
 30
0.0
  0
LINE
  5
369C
102
{ACAD_REACTORS
330
36C9
102
}
330
2
100
AcDbEntity
  8
KIJUN
100
AcDbLine
 10
248.3225112908248
 20
60.88618641496641
 30
0.0
 11
247.7263478340889
 21
64.87844651133826
 31
0.0
  0
LINE
  5
369D
102
{ACAD_REACTORS
330
36C9
102
}
330
2
100
AcDbEntity
  8
KIJUN
100
AcDbLine
 10
251.0068599150508
 20
58.46761514033033
 30
0.0
 11
248.3225112908248
 21
60.88618641496641
 31
0.0
  0
ELLIPSE
  5
369E
102
{ACAD_REACTORS
330
36C9
102
}
330
2
100
AcDbEntity
  8
KIJUN
100
AcDbEllipse
 10
245.7083341145534
 20
56.87844651133826
 30
0.0
 11
5.534591149999868
 21
0.0000000000445231
 31
0.0
210
0.0
220
0.0
230
-1.0
 40
0.9937500080742662
 41
-0.2931191657756873
 42
3.141592653597887
  0
SPLINE
  5
369F
102
{ACAD_REACTORS
330
36C9
102
}
330
2
100
AcDbEntity
  8
KIJUN
100
AcDbSpline
210
0.0
220
0.0
230
1.0
 70
     8
 71
     3
 72
    12
 73
     8
 74
     0
 42
0.0000000001
 43
0.0000000001
 40
0.0
 40
0.0
 40
0.0
 40
0.0
 40
22.91127923741214
 40
36.37530667186926
 40
40.60031278529568
 40
43.19045259202177
 40
46.21136357096495
 40
46.21136357096495
 40
46.21136357096495
 40
46.21136357096495
 10
151.4790863181051
 20
88.90467549722615
 30
0.0
 10
148.7304726156248
 20
81.23735599910975
 30
0.0
 10
144.3666103749271
 20
69.06426451848375
 30
0.0
 10
131.8717998192749
 20
63.47510709760268
 30
0.0
 10
124.1820955244763
 20
62.15162011774845
 30
0.0
 10
122.2999501700223
 20
65.94539091146208
 30
0.0
 10
124.0284520730283
 20
67.20193877835521
 30
0.0
 10
124.9590532340889
 20
67.87844651133815
 30
0.0
  0
SPLINE
  5
36A0
102
{ACAD_REACTORS
330
36C9
102
}
330
2
100
AcDbEntity
  8
KIJUN
100
AcDbSpline
210
0.0
220
0.0
230
1.0
 70
     8
 71
     3
 72
    14
 73
    10
 74
     0
 42
0.0000000001
 43
0.0000000001
 40
0.0
 40
0.0
 40
0.0
 40
0.0
 40
9.588993514227047
 40
15.89300574763357
 40
19.80597776637174
 40
24.02125924794356
 40
28.11435559554832
 40
32.13040908934012
 40
34.12537905467392
 40
34.12537905467392
 40
34.12537905467392
 40
34.12537905467392
 10
132.53851183401
 20
58.45049570555346
 30
0.0
 10
129.5831884730073
 20
57.07977450526522
 30
0.0
 10
124.6849714606746
 20
54.80791146956068
 30
0.0
 10
117.1763681533236
 20
57.01430560817397
 30
0.0
 10
115.8232644381078
 20
61.92029193518084
 30
0.0
 10
115.4181262664678
 20
66.10064060035671
 30
0.0
 10
118.8407616417678
 20
69.69888916731832
 30
0.0
 10
122.4193949497353
 20
68.63508649456008
 30
0.0
 10
124.326209596719
 20
68.06698951419497
 30
0.0
 10
124.9590532340892
 20
67.87844651133838
 30
0.0
  0
SPLINE
  5
36A1
102
{ACAD_REACTORS
330
36C9
102
}
330
2
100
AcDbEntity
  8
KIJUN
100
AcDbSpline
210
0.0
220
0.0
230
1.0
 70
     8
 71
     3
 72
    11
 73
     7
 74
     0
 42
0.0000000001
 43
0.0000000001
 40
0.0
 40
0.0
 40
0.0
 40
0.0
 40
18.84356645009667
 40
31.12266496441896
 40
35.4376230323697
 40
42.24181027269778
 40
42.24181027269778
 40
42.24181027269778
 40
42.24181027269778
 10
197.6368097072822
 20
137.7863499398855
 30
0.0
 10
191.8938572404476
 20
135.3037679178883
 30
0.0
 10
182.408604753599
 20
131.2034523687101
 30
0.0
 10
173.2416817772639
 20
121.9616497034857
 30
0.0
 10
173.8025948152512
 20
113.2619131622701
 30
0.0
 10
177.6922776105752
 20
111.8294880850766
 30
0.0
 10
180.0725082228293
 20
110.9529379400122
 30
0.0
  0
ELLIPSE
  5
36A2
102
{ACAD_REACTORS
330
36C9
102
}
330
2
100
AcDbEntity
  8
KIJUN
100
AcDbEllipse
 10
205.9390679435266
 20
120.1306715935684
 30
0.0
 11
-19.61080922944018
 21
0.0000000000063631
 31
0.0
210
0.0
220
0.0
230
-1.0
 40
0.9937500080742292
 41
0.0383799902283504
 42
1.133655231173337
  0
ELLIPSE
  5
36A3
102
{ACAD_REACTORS
330
36C9
102
}
330
2
100
AcDbEntity
  8
KIJUN
100
AcDbEllipse
 10
209.0814831928683
 20
122.0999348838726
 30
0.0
 11
-17.59300318995472
 21
0.0000000000066381
 31
0.0
210
0.0
220
0.0
230
-1.0
 40
0.9937500080742292
 41
-0.1126655942978159
 42
1.532786181783452
  0
ELLIPSE
  5
36A4
102
{ACAD_REACTORS
330
36C9
102
}
330
2
100
AcDbEntity
  8
KIJUN
100
AcDbEllipse
 10
215.0137656361446
 20
113.4036637743194
 30
0.0
 11
24.37370258176685
 21
0.000000000012709
 31
0.0
210
0.0
220
0.0
230
-1.0
 40
0.993750008074222
 41
3.423181899113485
 42
4.687593964324051
  0
SPLINE
  5
36A5
102
{ACAD_REACTORS
330
36C9
102
}
330
2
100
AcDbEntity
  8
KIJUN
100
AcDbSpline
210
0.0
220
0.0
230
1.0
 70
     8
 71
     3
 72
    12
 73
     8
 74
     0
 42
0.0000000001
 43
0.0000000001
 40
0.0
 40
0.0
 40
0.0
 40
0.0
 40
7.647257930688488
 40
11.73713388160378
 40
18.96194712803347
 40
21.7886862021518
 40
23.11098008594694
 40
23.11098008594694
 40
23.11098008594694
 40
23.11098008594694
 10
199.4244614340891
 20
117.8784465113382
 30
0.0
 10
197.8800337526635
 20
115.974270823283
 30
0.0
 10
195.5096214255727
 20
113.0517114971341
 30
0.0
 10
189.2082285411252
 20
108.9083387889161
 30
0.0
 10
185.9662287767769
 20
115.5364091877143
 30
0.0
 10
187.2572059915914
 20
119.2278207537047
 30
0.0
 10
186.5637154739999
 20
120.4795282220643
 30
0.0
 10
186.342700534089
 20
120.8784465113382
 30
0.0
  0
SPLINE
  5
36A6
102
{ACAD_REACTORS
330
36C9
102
}
330
2
100
AcDbEntity
  8
KIJUN
100
AcDbSpline
210
0.0
220
0.0
230
1.0
 70
     8
 71
     3
 72
    14
 73
    10
 74
     0
 42
0.0000000001
 43
0.0000000001
 40
0.0
 40
0.0
 40
0.0
 40
0.0
 40
8.668656550632009
 40
15.00455468240823
 40
21.94862890481425
 40
28.57146481469121
 40
36.97705940351967
 40
47.21838047333392
 40
51.65056716696132
 40
51.65056716696132
 40
51.65056716696132
 40
51.65056716696132
 10
230.8430671006983
 20
126.913568946457
 30
0.0
 10
228.0856203705623
 20
126.3862267081094
 30
0.0
 10
223.3127631227874
 20
125.4734514233333
 30
0.0
 10
216.7712500044099
 20
117.7801428388315
 30
0.0
 10
226.0238519412603
 20
114.3293096585699
 30
0.0
 10
232.3539165178927
 20
118.0761937777146
 30
0.0
 10
241.1071326694277
 20
116.5788951814461
 30
0.0
 10
248.9828813782382
 20
114.4724931634247
 30
0.0
 10
251.9485297533378
 20
110.463020084855
 30
0.0
 10
252.8443146929719
 20
109.2519440753701
 30
0.0
  0
ELLIPSE
  5
36A7
102
{ACAD_REACTORS
330
36C9
102
}
330
2
100
AcDbEntity
  8
KIJUN
100
AcDbEllipse
 10
233.6992950938988
 20
97.54632141200984
 30
0.0
 11
-23.71087181624199
 21
0.0000000000012176
 31
0.0
210
0.0
220
0.0
230
-1.0
 40
0.993750008074212
 41
1.141893978034115
 42
2.84093660697718
  0
ELLIPSE
  5
36A8
102
{ACAD_REACTORS
330
36C9
102
}
330
2
100
AcDbEntity
  8
KIJUN
100
AcDbEllipse
 10
223.8322233269364
 20
106.4843089547665
 30
0.0
 11
-29.20281417799458
 21
0.0000000000023491
 31
0.0
210
0.0
220
0.0
230
-1.0
 40
0.9937500080742177
 41
0.7723453845653388
 42
2.265079456787434
  0
ELLIPSE
  5
36A9
102
{ACAD_REACTORS
330
36C9
102
}
330
2
100
AcDbEntity
  8
KIJUN
100
AcDbEllipse
 10
232.738825511733
 20
116.1806067466438
 30
0.0
 11
16.01677759557956
 21
0.0000000000106525
 31
0.0
210
0.0
220
0.0
230
-1.0
 40
0.9937500080742294
 41
4.178033253473968
 42
5.369090837311023
  0
ELLIPSE
  5
36AA
102
{ACAD_REACTORS
330
36C9
102
}
330
2
100
AcDbEntity
  8
KIJUN
100
AcDbEllipse
 10
235.7557137887727
 20
106.542114273637
 30
0.0
 11
-21.2133051853202
 21
0.0000000000055123
 31
0.0
210
0.0
220
0.0
230
-1.0
 40
0.9937500080742157
 41
1.304612686473147
 42
2.50030683133219
  0
ELLIPSE
  5
36AB
102
{ACAD_REACTORS
330
36C9
102
}
330
2
100
AcDbEntity
  8
KIJUN
100
AcDbEllipse
 10
235.0096653073212
 20
91.10120273433182
 30
0.0
 11
-22.93270878484191
 21
0.0000000000006379
 31
0.0
210
0.0
220
0.0
230
-1.0
 40
0.9937500080742163
 41
1.147420725051946
 42
2.384431393927842
  0
ELLIPSE
  5
36AC
102
{ACAD_REACTORS
330
36C9
102
}
330
2
100
AcDbEntity
  8
KIJUN
100
AcDbEllipse
 10
238.9011343541651
 20
87.21035799486509
 30
0.0
 11
-21.49247332215353
 21
0.0000000000022157
 31
0.0
210
0.0
220
0.0
230
-1.0
 40
0.9937500080742236
 41
1.08420565185503
 42
2.469388799926118
  0
ELLIPSE
  5
36AD
102
{ACAD_REACTORS
330
36C9
102
}
330
2
100
AcDbEntity
  8
KIJUN
100
AcDbEllipse
 10
216.0475803550903
 20
116.5164115716373
 30
0.0
 11
-16.67952727966023
 21
0.0000000000523921
 31
0.0
210
0.0
220
0.0
230
-1.0
 40
0.9937500080742051
 41
0.0822654222245767
 42
0.6642970467867571
  0
ELLIPSE
  5
36AE
102
{ACAD_REACTORS
330
36C9
102
}
330
2
100
AcDbEntity
  8
KIJUN
100
AcDbEllipse
 10
230.1755240166239
 20
133.5329753492548
 30
0.0
 11
-6.694403544370784
 21
0.0000000000052446
 31
0.0
210
0.0
220
0.0
230
-1.0
 40
0.9937500080742227
 41
4.612506394335938
 42
5.701609406889465
  0
SPLINE
  5
36AF
102
{ACAD_REACTORS
330
36C9
102
}
330
2
100
AcDbEntity
  8
KIJUN
100
AcDbSpline
210
0.0
220
0.0
230
1.0
 70
     8
 71
     3
 72
     9
 73
     5
 74
     0
 42
0.0000000001
 43
0.0000000001
 40
0.0
 40
0.0
 40
0.0
 40
0.0
 40
4.530935381826265
 40
8.182068071791702
 40
8.182068071791702
 40
8.182068071791702
 40
8.182068071791702
 10
225.5879832340892
 20
111.8784465113382
 30
0.0
 10
225.1144450434171
 20
110.0960510990454
 30
0.0
 10
224.2593188091712
 20
106.8773601742695
 30
0.0
 10
227.4341899192611
 20
106.3326021236511
 30
0.0
 10
228.8509314563353
 20
106.0895115126611
 30
0.0
  0
SPLINE
  5
36B0
102
{ACAD_REACTORS
330
36C9
102
}
330
2
100
AcDbEntity
  8
KIJUN
100
AcDbSpline
210
0.0
220
0.0
230
1.0
 70
     8
 71
     3
 72
    11
 73
     7
 74
     0
 42
0.0000000001
 43
0.0000000001
 40
0.0
 40
0.0
 40
0.0
 40
0.0
 40
7.130308704913855
 40
14.28090774297906
 40
20.31991740975344
 40
27.13962894227287
 40
27.13962894227287
 40
27.13962894227287
 40
27.13962894227287
 10
224.5816939340893
 20
129.8784465113382
 30
0.0
 10
222.9893458555432
 20
128.255349429384
 30
0.0
 10
219.8001184397996
 20
125.0045365060512
 30
0.0
 10
213.6198367023801
 20
119.3440708712322
 30
0.0
 10
219.1131262786814
 20
112.9650723492034
 30
0.0
 10
223.3440719809932
 20
112.2550250152779
 30
0.0
 10
225.5879832340892
 20
111.8784465113382
 30
0.0
  0
SPLINE
  5
36B1
102
{ACAD_REACTORS
330
36C9
102
}
330
2
100
AcDbEntity
  8
KIJUN
100
AcDbSpline
210
0.0
220
0.0
230
1.0
 70
     8
 71
     3
 72
    12
 73
     8
 74
     0
 42
0.0000000001
 43
0.0000000001
 40
0.0
 40
0.0
 40
0.0
 40
0.0
 40
6.96848895816169
 40
15.34747645410311
 40
24.20235824171773
 40
27.83090967297715
 40
30.22416444453508
 40
30.22416444453508
 40
30.22416444453508
 40
30.22416444453508
 10
224.5816939340893
 20
129.8784465113382
 30
0.0
 10
222.258063941201
 20
129.6665201759077
 30
0.0
 10
217.1404757785433
 20
129.1997712921031
 30
0.0
 10
209.3112996905281
 20
125.658802936727
 30
0.0
 10
204.9250517511061
 20
121.4220319682723
 30
0.0
 10
201.7090261791973
 20
115.3623323964418
 30
0.0
 10
200.0741947507952
 20
117.1628602393437
 30
0.0
 10
199.4244614340891
 20
117.8784465113382
 30
0.0
  0
SPLINE
  5
36B2
102
{ACAD_REACTORS
330
36C9
102
}
330
2
100
AcDbEntity
  8
KIJUN
100
AcDbSpline
210
0.0
220
0.0
230
1.0
 70
     8
 71
     3
 72
    12
 73
     8
 74
     0
 42
0.0000000001
 43
0.0000000001
 40
0.0
 40
0.0
 40
0.0
 40
0.0
 40
4.393668931497888
 40
8.512371714878288
 40
10.83245288611347
 40
16.03369545447021
 40
21.41430369779119
 40
21.41430369779119
 40
21.41430369779119
 40
21.41430369779119
 10
171.9883810280848
 20
98.26178473595774
 30
0.0
 10
170.8522277428492
 20
99.16754516843917
 30
0.0
 10
168.6510243204261
 20
100.922381412617
 30
0.0
 10
168.238985857828
 20
105.9834253549895
 30
0.0
 10
173.4015837242377
 20
106.3433333369049
 30
0.0
 10
169.5833487556401
 20
112.3679162666023
 30
0.0
 10
172.3263077048564
 20
115.056414090261
 30
0.0
 10
173.7210341847419
 20
116.4234484408271
 30
0.0
  0
ELLIPSE
  5
36B3
102
{ACAD_REACTORS
330
36C9
102
}
330
2
100
AcDbEntity
  8
KIJUN
100
AcDbEllipse
 10
188.0221381453882
 20
116.7121402689015
 30
0.0
 11
9.751531573587861
 21
0.0000000000058663
 31
0.0
210
0.0
220
0.0
230
-1.0
 40
0.9937500080742355
 41
3.120715142375982
 42
4.644858706225365
  0
SPLINE
  5
36B4
102
{ACAD_REACTORS
330
36C9
102
}
330
2
100
AcDbEntity
  8
KIJUN
100
AcDbSpline
210
0.0
220
0.0
230
1.0
 70
     8
 71
     3
 72
    11
 73
     7
 74
     0
 42
0.0000000001
 43
0.0000000001
 40
0.0
 40
0.0
 40
0.0
 40
0.0
 40
4.087950994303275
 40
9.590669267500569
 40
14.14013246390094
 40
18.53767862050936
 40
18.53767862050936
 40
18.53767862050936
 40
18.53767862050936
 10
177.4015603410091
 20
108.9156266624169
 30
0.0
 10
178.8458166756085
 20
109.7523491099459
 30
0.0
 10
182.2341608269784
 20
111.7153687924534
 30
0.0
 10
175.9762673454506
 20
117.3928955930326
 30
0.0
 10
182.7153850802158
 20
118.8909106965823
 30
0.0
 10
185.1473600732181
 20
120.2234767390591
 30
0.0
 10
186.3427005340893
 20
120.8784465113382
 30
0.0
  0
SPLINE
  5
36B5
102
{ACAD_REACTORS
330
36C9
102
}
330
2
100
AcDbEntity
  8
KIJUN
100
AcDbSpline
210
0.0
220
0.0
230
1.0
 70
     8
 71
     3
 72
    11
 73
     7
 74
     0
 42
0.0000000001
 43
0.0000000001
 40
0.0
 40
0.0
 40
0.0
 40
0.0
 40
2.805102366513283
 40
6.476584598212423
 40
9.189575281647671
 40
15.75888127284731
 40
15.75888127284731
 40
15.75888127284731
 40
15.75888127284731
 10
169.2357824340892
 20
96.87844651133827
 30
0.0
 10
170.278014659814
 20
97.08810575764477
 30
0.0
 10
172.6843814510837
 20
97.57217930223674
 30
0.0
 10
172.0479760491209
 20
101.9181324739664
 30
0.0
 10
177.3729436346552
 20
102.5388934046008
 30
0.0
 10
177.3897008524475
 20
106.2729467468307
 30
0.0
 10
177.4015603410091
 20
108.9156266624169
 30
0.0
  0
ARC
  5
36B6
102
{ACAD_REACTORS
330
36C9
102
}
330
2
100
AcDbEntity
  8
KIJUN
100
AcDbCircle
 10
209.5460054461902
 20
85.56406648663637
 30
0.0
 40
60.38697973725465
100
AcDbArc
 50
351.6657483902029
 51
64.51517721086495
  0
ARC
  5
36B7
102
{ACAD_REACTORS
330
36C9
102
}
330
2
100
AcDbEntity
  8
KIJUN
100
AcDbCircle
 10
243.150281682699
 20
69.63193231461993
 30
0.0
 40
24.56450622216572
100
AcDbArc
 50
297.0091429514194
 51
336.1313789905377
  0
ARC
  5
36B8
102
{ACAD_REACTORS
330
36C9
102
}
330
2
100
AcDbEntity
  8
KIJUN
100
AcDbCircle
 10
247.2131386869264
 20
60.27683498611187
 30
0.0
 40
14.3983884747736
100
AcDbArc
 50
240.0204525054425
 51
299.5118067906041
  0
ARC
  5
36B9
102
{ACAD_REACTORS
330
36C9
102
}
330
2
100
AcDbEntity
  8
KIJUN
100
AcDbCircle
 10
208.5195528679049
 20
80.92523859940614
 30
0.0
 40
60.91479537907193
100
AcDbArc
 50
339.6000870278582
 51
356.1273498928884
  0
ARC
  5
36BA
102
{ACAD_REACTORS
330
36C9
102
}
330
2
100
AcDbEntity
  8
KIJUN
100
AcDbCircle
 10
245.5776396790732
 20
57.2089505005841
 30
0.0
 40
10.92435060097185
100
AcDbArc
 50
145.5334621531429
 51
239.4103778057523
  0
ARC
  5
36BB
102
{ACAD_REACTORS
330
36C9
102
}
330
2
100
AcDbEntity
  8
KIJUN
100
AcDbCircle
 10
239.4966673417955
 20
37.70105369627516
 30
0.0
 40
28.39609693654185
100
AcDbArc
 50
73.15298090902543
 51
84.67436033019668
  0
ARC
  5
36BC
102
{ACAD_REACTORS
330
36C9
102
}
330
2
100
AcDbEntity
  8
KIJUN
100
AcDbCircle
 10
241.4973558583511
 20
60.06358470847825
 30
0.0
 40
5.944990021365271
100
AcDbArc
 50
83.86908608281602
 51
145.9612699925492
  0
ARC
  5
36BD
102
{ACAD_REACTORS
330
36C9
102
}
330
2
100
AcDbEntity
  8
KIJUN
100
AcDbCircle
 10
211.5122880564212
 20
93.27977585617501
 30
0.0
 40
52.59867065516367
100
AcDbArc
 50
62.83208319468886
 51
102.2879235686662
  0
ARC
  5
36BE
102
{ACAD_REACTORS
330
36C9
102
}
330
2
100
AcDbEntity
  8
KIJUN
100
AcDbCircle
 10
210.1907102756202
 20
89.68197878149775
 30
0.0
 40
55.87065908831771
100
AcDbArc
 50
100.1779775904668
 51
146.4112697896114
  0
ARC
  5
36BF
102
{ACAD_REACTORS
330
36C9
102
}
330
2
100
AcDbEntity
  8
KIJUN
100
AcDbCircle
 10
252.1487310084527
 20
58.39945136935319
 30
0.0
 40
108.1667853784693
100
AcDbArc
 50
144.903072442006
 51
162.7301298423217
  0
ARC
  5
36C0
102
{ACAD_REACTORS
330
36C9
102
}
330
2
100
AcDbEntity
  8
KIJUN
100
AcDbCircle
 10
110.1900776817168
 20
101.9201424568353
 30
0.0
 40
40.3163047415562
100
AcDbArc
 50
318.2670331408849
 51
343.561545681663
  0
ARC
  5
36C1
102
{ACAD_REACTORS
330
36C9
102
}
330
2
100
AcDbEntity
  8
KIJUN
100
AcDbCircle
 10
124.9167907245859
 20
87.85292011689419
 30
0.0
 40
19.97451831556294
100
AcDbArc
 50
270.1212277159628
 51
320.2603084117616
  0
ARC
  5
36C2
102
{ACAD_REACTORS
330
36C9
102
}
330
2
100
AcDbEntity
  8
KIJUN
100
AcDbCircle
 10
113.1197505094235
 20
62.14250908034351
 30
0.0
 40
13.15560972431773
100
AcDbArc
 50
25.84938576466028
 51
47.10251920733064
  0
ARC
  5
36C3
102
{ACAD_REACTORS
330
36C9
102
}
330
2
100
AcDbEntity
  8
KIJUN
100
AcDbCircle
 10
119.0304361384213
 20
68.42921247525014
 30
0.0
 40
4.527089093537657
100
AcDbArc
 50
47.74445525967783
 51
124.8318549453829
  0
ARC
  5
36C4
102
{ACAD_REACTORS
330
36C9
102
}
330
2
100
AcDbEntity
  8
KIJUN
100
AcDbCircle
 10
121.6065712714718
 20
61.67460815112988
 30
0.0
 40
11.67381841684757
100
AcDbArc
 50
116.2427483444161
 51
222.4276479873398
  0
ARC
  5
36C5
102
{ACAD_REACTORS
330
36C9
102
}
330
2
100
AcDbEntity
  8
KIJUN
100
AcDbCircle
 10
126.7081650330153
 20
70.24654985665901
 30
0.0
 40
21.41783771924229
100
AcDbArc
 50
230.1699712418976
 51
267.532331730041
  0
ARC
  5
36C6
102
{ACAD_REACTORS
330
36C9
102
}
330
2
100
AcDbEntity
  8
KIJUN
100
AcDbCircle
 10
115.9880089268795
 20
106.9937379692296
 30
0.0
 40
58.96491264735269
100
AcDbArc
 50
279.5650100716644
 51
291.4158257987556
  0
ARC
  5
36C7
102
{ACAD_REACTORS
330
36C9
102
}
330
2
100
AcDbEntity
  8
KIJUN
100
AcDbCircle
 10
125.7523930780942
 20
78.08207736669483
 30
0.0
 40
28.52187212748969
100
AcDbArc
 50
294.362935972082
 51
323.7393087788792
  0
ARC
  5
36C8
102
{ACAD_REACTORS
330
36C9
102
}
330
2
100
AcDbEntity
  8
KIJUN
100
AcDbCircle
 10
89.12174958499843
 20
98.64341299825678
 30
0.0
 40
70.40359145478507
100
AcDbArc
 50
327.8822092266302
 51
348.7251830869033
  0
ENDSEC
  0
SECTION
  2
OBJECTS
  0
DICTIONARY
  5
1A
330
0
100
AcDbDictionary
281
     1
  3
ACAD_COLOR
350
144
  3
ACAD_GROUP
350
18
  3
ACAD_LAYOUT
350
58
  3
ACAD_MATERIAL
350
143
  3
ACAD_MLINESTYLE
350
19
  3
ACAD_PLOTSETTINGS
350
59
  3
ACAD_PLOTSTYLENAME
350
56
  3
ACAD_TABLESTYLE
350
145
  3
ACDBHEADERROUNDTRIPXREC
350
36F5
  3
AcDbVariableDictionary
350
1D1
  0
DICTIONARY
  5
1B4
330
A
100
AcDbDictionary
280
     1
281
     1
  3
ACAD_LAYERFILTERS
360
1A2A
  3
ACLYDICTIONARY
360
1A29
  0
DICTIONARY
  5
D13
330
2
100
AcDbDictionary
280
     1
281
     1
  3
ACAD_SORTENTS
360
D14
  0
DICTIONARY
  5
144
102
{ACAD_REACTORS
330
1A
102
}
330
1A
100
AcDbDictionary
281
     1
  0
DICTIONARY
  5
18
102
{ACAD_REACTORS
330
1A
102
}
330
1A
100
AcDbDictionary
281
     1
  3
*A1
350
E0D
  3
*A10
350
24D6
  3
*A11
350
2573
  3
*A12
350
1EFE
  3
*A13
350
265A
  3
*A14
350
26DD
  3
*A15
350
275E
  3
*A16
350
2EE1
  3
*A17
350
2F81
  3
*A18
350
307D
  3
*A19
350
3181
  3
*A2
350
2905
  3
*A20
350
31DF
  3
*A21
350
32E4
  3
*A22
350
3349
  3
*A23
350
2037
  3
*A24
350
3467
  3
*A25
350
34BB
  3
*A26
350
35A5
  3
*A27
350
FF8
  3
*A28
350
136A
  3
*A29
350
1555
  3
*A3
350
2A17
  3
*A30
350
17BC
  3
*A31
350
1A98
  3
*A32
350
1CBC
  3
*A33
350
3695
  3
*A34
350
36C9
  3
*A4
350
213E
  3
*A5
350
2B84
  3
*A6
350
2C6B
  3
*A7
350
2D78
  3
*A8
350
22C8
  3
*A9
350
241A
  0
DICTIONARY
  5
58
102
{ACAD_REACTORS
330
1A
102
}
330
1A
100
AcDbDictionary
281
     1
  3
Model
350
5A
  3
ﾚｲｱｳﾄ1
350
5B
  0
DICTIONARY
  5
143
102
{ACAD_REACTORS
330
1A
102
}
330
1A
100
AcDbDictionary
281
     1
  0
DICTIONARY
  5
19
102
{ACAD_REACTORS
330
1A
102
}
330
1A
100
AcDbDictionary
281
     1
  3
STANDARD
350
1D
  0
DICTIONARY
  5
59
102
{ACAD_REACTORS
330
1A
102
}
330
1A
100
AcDbDictionary
281
     1
  0
ACDBDICTIONARYWDFLT
  5
56
102
{ACAD_REACTORS
330
1A
102
}
330
1A
100
AcDbDictionary
281
     1
  3
Normal
350
57
100
AcDbDictionaryWithDefault
340
57
  0
DICTIONARY
  5
145
102
{ACAD_REACTORS
330
1A
102
}
330
1A
100
AcDbDictionary
281
     1
  3
Standard
350
146
  0
DICTIONARY
  5
36F5
102
{ACAD_REACTORS
330
1A
102
}
330
1A
100
AcDbDictionary
281
     1
  0
DICTIONARY
  5
1D1
102
{ACAD_REACTORS
330
1A
102
}
330
1A
100
AcDbDictionary
281
     1
  3
CTABLESTYLE
350
1D2
  3
DIMASSOC
350
D03
  3
PROJECTNAME
350
D04
  0
DICTIONARY
  5
1A2A
102
{ACAD_REACTORS
330
1B4
102
}
330
1B4
100
AcDbDictionary
281
     1
  0
DICTIONARY
  5
1A29
102
{ACAD_REACTORS
330
1B4
102
}
330
1B4
100
AcDbDictionary
281
     1
1001
ACAD
1000
<All
  0
SORTENTSTABLE
  5
D14
102
{ACAD_REACTORS
330
D13
102
}
330
D13
100
AcDbSortentsTable
330
2
331
23
  5
23
331
21
  5
21
331
1F
  5
1F
331
20
  5
20
  0
GROUP
  5
E0D
102
{ACAD_REACTORS
330
18
102
}
330
18
100
AcDbGroup
300

 70
     1
 71
     1
  0
GROUP
  5
24D6
102
{ACAD_REACTORS
330
18
102
}
330
18
100
AcDbGroup
300

 70
     1
 71
     1
  0
GROUP
  5
2573
102
{ACAD_REACTORS
330
18
102
}
330
18
100
AcDbGroup
300

 70
     1
 71
     1
  0
GROUP
  5
1EFE
102
{ACAD_REACTORS
330
18
102
}
330
18
100
AcDbGroup
300

 70
     1
 71
     1
  0
GROUP
  5
265A
102
{ACAD_REACTORS
330
18
102
}
330
18
100
AcDbGroup
300

 70
     1
 71
     1
  0
GROUP
  5
26DD
102
{ACAD_REACTORS
330
18
102
}
330
18
100
AcDbGroup
300

 70
     1
 71
     1
  0
GROUP
  5
275E
102
{ACAD_REACTORS
330
18
102
}
330
18
100
AcDbGroup
300

 70
     1
 71
     1
  0
GROUP
  5
2EE1
102
{ACAD_REACTORS
330
18
102
}
330
18
100
AcDbGroup
300

 70
     1
 71
     1
  0
GROUP
  5
2F81
102
{ACAD_REACTORS
330
18
102
}
330
18
100
AcDbGroup
300

 70
     1
 71
     1
  0
GROUP
  5
307D
102
{ACAD_REACTORS
330
18
102
}
330
18
100
AcDbGroup
300

 70
     1
 71
     1
  0
GROUP
  5
3181
102
{ACAD_REACTORS
330
18
102
}
330
18
100
AcDbGroup
300

 70
     1
 71
     1
  0
GROUP
  5
2905
102
{ACAD_REACTORS
330
18
102
}
330
18
100
AcDbGroup
300

 70
     1
 71
     1
  0
GROUP
  5
31DF
102
{ACAD_REACTORS
330
18
102
}
330
18
100
AcDbGroup
300

 70
     1
 71
     1
  0
GROUP
  5
32E4
102
{ACAD_REACTORS
330
18
102
}
330
18
100
AcDbGroup
300

 70
     1
 71
     1
  0
GROUP
  5
3349
102
{ACAD_REACTORS
330
18
102
}
330
18
100
AcDbGroup
300

 70
     1
 71
     1
  0
GROUP
  5
2037
102
{ACAD_REACTORS
330
18
102
}
330
18
100
AcDbGroup
300

 70
     1
 71
     1
  0
GROUP
  5
3467
102
{ACAD_REACTORS
330
18
102
}
330
18
100
AcDbGroup
300

 70
     1
 71
     1
  0
GROUP
  5
34BB
102
{ACAD_REACTORS
330
18
102
}
330
18
100
AcDbGroup
300

 70
     1
 71
     1
  0
GROUP
  5
35A5
102
{ACAD_REACTORS
330
18
102
}
330
18
100
AcDbGroup
300

 70
     1
 71
     1
  0
GROUP
  5
FF8
102
{ACAD_REACTORS
330
18
102
}
330
18
100
AcDbGroup
300

 70
     1
 71
     1
  0
GROUP
  5
136A
102
{ACAD_REACTORS
330
18
102
}
330
18
100
AcDbGroup
300

 70
     1
 71
     1
  0
GROUP
  5
1555
102
{ACAD_REACTORS
330
18
102
}
330
18
100
AcDbGroup
300

 70
     1
 71
     1
  0
GROUP
  5
2A17
102
{ACAD_REACTORS
330
18
102
}
330
18
100
AcDbGroup
300

 70
     1
 71
     1
  0
GROUP
  5
17BC
102
{ACAD_REACTORS
330
18
102
}
330
18
100
AcDbGroup
300

 70
     1
 71
     1
  0
GROUP
  5
1A98
102
{ACAD_REACTORS
330
18
102
}
330
18
100
AcDbGroup
300

 70
     1
 71
     1
  0
GROUP
  5
1CBC
102
{ACAD_REACTORS
330
18
102
}
330
18
100
AcDbGroup
300

 70
     1
 71
     1
  0
GROUP
  5
3695
102
{ACAD_REACTORS
330
18
102
}
330
18
100
AcDbGroup
300

 70
     1
 71
     1
340
3678
340
3676
340
3675
340
3674
340
3672
340
3671
340
3670
340
366F
340
366E
340
366C
340
366B
340
3667
340
3666
340
3665
340
3664
340
3661
340
365F
340
365E
340
365D
340
3627
340
3626
340
3625
340
3624
340
3623
340
3622
340
3621
340
3620
340
361F
340
361E
340
361D
340
361C
340
361B
340
361A
340
3619
340
3618
340
3617
340
3616
340
3615
340
3614
340
3613
340
3611
340
360F
340
360C
340
360B
340
360A
340
3607
340
3606
340
3605
340
3604
340
3603
340
3602
  0
GROUP
  5
36C9
102
{ACAD_REACTORS
330
18
102
}
330
18
100
AcDbGroup
300

 70
     1
 71
     1
340
36C8
340
36C7
340
36C6
340
36C5
340
36C4
340
36C3
340
36C2
340
36C1
340
36C0
340
36BF
340
36BE
340
36BD
340
36BC
340
36BB
340
36BA
340
36B9
340
36B8
340
36B7
340
36B6
340
36B5
340
36B4
340
36B3
340
36B2
340
36B1
340
36B0
340
36AF
340
36AE
340
36AD
340
36AC
340
36AB
340
36AA
340
36A9
340
36A8
340
36A7
340
36A6
340
36A5
340
36A4
340
36A3
340
36A2
340
36A1
340
36A0
340
369F
340
369E
340
369D
340
369C
340
369B
340
369A
340
3699
340
3698
340
3697
340
3696
  0
GROUP
  5
213E
102
{ACAD_REACTORS
330
18
102
}
330
18
100
AcDbGroup
300

 70
     1
 71
     1
  0
GROUP
  5
2B84
102
{ACAD_REACTORS
330
18
102
}
330
18
100
AcDbGroup
300

 70
     1
 71
     1
  0
GROUP
  5
2C6B
102
{ACAD_REACTORS
330
18
102
}
330
18
100
AcDbGroup
300

 70
     1
 71
     1
  0
GROUP
  5
2D78
102
{ACAD_REACTORS
330
18
102
}
330
18
100
AcDbGroup
300

 70
     1
 71
     1
  0
GROUP
  5
22C8
102
{ACAD_REACTORS
330
18
102
}
330
18
100
AcDbGroup
300

 70
     1
 71
     1
  0
GROUP
  5
241A
102
{ACAD_REACTORS
330
18
102
}
330
18
100
AcDbGroup
300

 70
     1
 71
     1
  0
LAYOUT
  5
5A
102
{ACAD_XDICTIONARY
360
36F6
102
}
102
{ACAD_REACTORS
330
58
102
}
330
58
100
AcDbPlotSettings
  1

  2
なし
  4

  6

 40
0.0
 41
0.0
 42
0.0
 43
0.0
 44
0.0
 45
0.0
 46
0.0
 47
0.0
 48
0.0
 49
0.0
140
0.0
141
0.0
142
1.0
143
1.0
 70
  1712
 72
     0
 73
     0
 74
     0
  7
monochrome.ctb
 75
     0
147
1.0
148
0.0
149
0.0
100
AcDbLayout
  1
Model
 70
     1
 71
     0
 10
0.0
 20
0.0
 11
12.0
 21
9.0
 12
0.0
 22
0.0
 32
0.0
 14
0.0
 24
0.0
 34
0.0
 15
0.0
 25
0.0
 35
0.0
146
0.0
 13
0.0
 23
0.0
 33
0.0
 16
1.0
 26
0.0
 36
0.0
 17
0.0
 27
1.0
 37
0.0
 76
     0
330
2
  0
LAYOUT
  5
5B
102
{ACAD_XDICTIONARY
360
36F8
102
}
102
{ACAD_REACTORS
330
58
102
}
330
58
100
AcDbPlotSettings
  1

  2
なし
  4

  6

 40
0.0
 41
0.0
 42
0.0
 43
0.0
 44
0.0
 45
0.0
 46
0.0
 47
0.0
 48
0.0
 49
0.0
140
0.0
141
0.0
142
1.0
143
1.0
 70
   688
 72
     0
 73
     0
 74
     5
  7
monochrome.ctb
 75
    16
147
1.0
148
0.0
149
0.0
100
AcDbLayout
  1
ﾚｲｱｳﾄ1
 70
     1
 71
     1
 10
0.0
 20
0.0
 11
12.0
 21
9.0
 12
0.0
 22
0.0
 32
0.0
 14
1.000000000000000E+20
 24
1.000000000000000E+20
 34
1.000000000000000E+20
 15
-1.000000000000000E+20
 25
-1.000000000000000E+20
 35
-1.000000000000000E+20
146
0.0
 13
0.0
 23
0.0
 33
0.0
 16
1.0
 26
0.0
 36
0.0
 17
0.0
 27
1.0
 37
0.0
 76
     0
330
7
  0
MLINESTYLE
  5
1D
102
{ACAD_REACTORS
330
19
102
}
330
19
100
AcDbMlineStyle
  2
STANDARD
 70
     0
  3

 62
   256
 51
90.0
 52
90.0
 71
     2
 49
0.5
 62
   256
  6
BYLAYER
 49
-0.5
 62
   256
  6
BYLAYER
  0
ACDBPLACEHOLDER
  5
57
102
{ACAD_REACTORS
330
56
102
}
330
56
  0
TABLESTYLE
  5
146
102
{ACAD_REACTORS
330
145
102
}
330
145
100
AcDbTableStyle
  3
Standard
 70
     0
 71
     0
 40
0.06
 41
0.06
280
     0
281
     0
  7
STANDARD
140
0.18
170
     2
 62
     0
 63
     7
283
     0
274
    -2
284
     1
 64
     0
275
    -2
285
     1
 65
     0
276
    -2
286
     1
 66
     0
277
    -2
287
     1
 67
     0
278
    -2
288
     1
 68
     0
279
    -2
289
     1
 69
     0
  7
STANDARD
140
0.25
170
     5
 62
     0
 63
     7
283
     0
274
    -2
284
     1
 64
     0
275
    -2
285
     1
 65
     0
276
    -2
286
     1
 66
     0
277
    -2
287
     1
 67
     0
278
    -2
288
     1
 68
     0
279
    -2
289
     1
 69
     0
  7
STANDARD
140
0.18
170
     5
 62
     0
 63
     7
283
     0
274
    -2
284
     1
 64
     0
275
    -2
285
     1
 65
     0
276
    -2
286
     1
 66
     0
277
    -2
287
     1
 67
     0
278
    -2
288
     1
 68
     0
279
    -2
289
     1
 69
     0
  0
DICTIONARYVAR
  5
1D2
102
{ACAD_REACTORS
330
1D1
102
}
330
1D1
100
DictionaryVariables
280
     0
  1
STANDARD
  0
DICTIONARYVAR
  5
D03
102
{ACAD_REACTORS
330
1D1
102
}
330
1D1
100
DictionaryVariables
280
     0
  1
1
  0
DICTIONARYVAR
  5
D04
102
{ACAD_REACTORS
330
1D1
102
}
330
1D1
100
DictionaryVariables
280
     0
  1

  0
DICTIONARY
  5
36F6
330
5A
100
AcDbDictionary
280
     1
281
     1
  3
ACAD_XREC_ROUNDTRIP
360
36F7
  0
DICTIONARY
  5
36F8
330
5B
100
AcDbDictionary
280
     1
281
     1
  3
ACAD_XREC_ROUNDTRIP
360
36F9
  0
XRECORD
  5
36F7
102
{ACAD_REACTORS
330
36F6
102
}
330
36F6
100
AcDbXrecord
280
     1
102
SHADEPLOT
 70
     0
102
SHADEPLOTRESLEVEL
 70
     2
102
SHADEPLOTCUSTOMDPI
 70
   300
  0
XRECORD
  5
36F9
102
{ACAD_REACTORS
330
36F8
102
}
330
36F8
100
AcDbXrecord
280
     1
102
SHADEPLOT
 70
     0
102
SHADEPLOTRESLEVEL
 70
     2
102
SHADEPLOTCUSTOMDPI
 70
   300
  0
ENDSEC
  0
EOF
