  0
SECTION
  2
HEADER
  9
$ACADVER
  1
AC1015
  9
$ACADMAINTVER
 70
    20
  9
$DWGCODEPAGE
  3
ANSI_932
  9
$INSBASE
 10
922.019522
 20
-675.4306699999999
 30
0.0
  9
$EXTMIN
 10
-4.229865287726852
 20
-0.0166269513355246
 30
-0.000000000000013
  9
$EXTMAX
 10
148.7126605201046
 20
148.5415384306791
 30
0.0000000000000023
  9
$LIMMIN
 10
0.0
 20
0.0
  9
$LIMMAX
 10
420.0
 20
297.0
  9
$ORTHOMODE
 70
     0
  9
$REGENMODE
 70
     1
  9
$FILLMODE
 70
     1
  9
$QTEXTMODE
 70
     0
  9
$MIRRTEXT
 70
     1
  9
$LTSCALE
 40
1.0
  9
$ATTMODE
 70
     1
  9
$TEXTSIZE
 40
30.0
  9
$TRACEWID
 40
0.05
  9
$TEXTSTYLE
  7
SUNPOU
  9
$CLAYER
  8
0
  9
$CELTYPE
  6
BYLAYER
  9
$CECOLOR
 62
   256
  9
$CELTSCALE
 40
1.0
  9
$DISPSILH
 70
     0
  9
$DIMSCALE
 40
1.0
  9
$DIMASZ
 40
2.0
  9
$DIMEXO
 40
10.0
  9
$DIMDLI
 40
0.38
  9
$DIMRND
 40
0.0
  9
$DIMDLE
 40
0.0
  9
$DIMEXE
 40
0.0
  9
$DIMTP
 40
0.0
  9
$DIMTM
 40
0.0
  9
$DIMTXT
 40
5.0
  9
$DIMCEN
 40
0.0
  9
$DIMTSZ
 40
0.0
  9
$DIMTOL
 70
     0
  9
$DIMLIM
 70
     0
  9
$DIMTIH
 70
     0
  9
$DIMTOH
 70
     0
  9
$DIMSE1
 70
     0
  9
$DIMSE2
 70
     0
  9
$DIMTAD
 70
     1
  9
$DIMZIN
 70
     0
  9
$DIMBLK
  1
Dot
  9
$DIMASO
 70
     1
  9
$DIMSHO
 70
     1
  9
$DIMPOST
  1

  9
$DIMAPOST
  1

  9
$DIMALT
 70
     0
  9
$DIMALTD
 70
     2
  9
$DIMALTF
 40
25.4
  9
$DIMLFAC
 40
1.0
  9
$DIMTOFL
 70
     0
  9
$DIMTVP
 40
0.0
  9
$DIMTIX
 70
     0
  9
$DIMSOXD
 70
     0
  9
$DIMSAH
 70
     0
  9
$DIMBLK1
  1

  9
$DIMBLK2
  1

  9
$DIMSTYLE
  2
STANDARD
  9
$DIMCLRD
 70
    60
  9
$DIMCLRE
 70
    70
  9
$DIMCLRT
 70
    60
  9
$DIMTFAC
 40
0.064286
  9
$DIMGAP
 40
3.0
  9
$DIMJUST
 70
     0
  9
$DIMSD1
 70
     0
  9
$DIMSD2
 70
     0
  9
$DIMTOLJ
 70
     1
  9
$DIMTZIN
 70
     0
  9
$DIMALTZ
 70
     0
  9
$DIMALTTZ
 70
     0
  9
$DIMUPT
 70
     0
  9
$DIMDEC
 70
     0
  9
$DIMTDEC
 70
     0
  9
$DIMALTU
 70
     2
  9
$DIMALTTD
 70
     2
  9
$DIMTXSTY
  7
SUNPOU
  9
$DIMAUNIT
 70
     0
  9
$DIMADEC
 70
     0
  9
$DIMALTRND
 40
0.0
  9
$DIMAZIN
 70
     0
  9
$DIMDSEP
 70
    46
  9
$DIMATFIT
 70
     3
  9
$DIMFRAC
 70
     0
  9
$DIMLDRBLK
  1

  9
$DIMLUNIT
 70
     2
  9
$DIMLWD
 70
    -2
  9
$DIMLWE
 70
    -2
  9
$DIMTMOVE
 70
     0
  9
$LUNITS
 70
     2
  9
$LUPREC
 70
     5
  9
$SKETCHINC
 40
0.1
  9
$FILLETRAD
 40
0.0
  9
$AUNITS
 70
     0
  9
$AUPREC
 70
     0
  9
$MENU
  1
acad
  9
$ELEVATION
 40
0.0
  9
$PELEVATION
 40
0.0
  9
$THICKNESS
 40
0.0
  9
$LIMCHECK
 70
     0
  9
$CHAMFERA
 40
0.0
  9
$CHAMFERB
 40
0.0
  9
$CHAMFERC
 40
0.0
  9
$CHAMFERD
 40
0.0
  9
$SKPOLY
 70
     0
  9
$TDCREATE
 40
2450623.654673033
  9
$TDUCREATE
 40
2450623.279673032
  9
$TDUPDATE
 40
2453867.735497211
  9
$TDUUPDATE
 40
2453867.360497210
  9
$TDINDWG
 40
0.5701809144
  9
$TDUSRTIMER
 40
0.5701807407
  9
$USRTIMER
 70
     1
  9
$ANGBASE
 50
0.0
  9
$ANGDIR
 70
     0
  9
$PDMODE
 70
     0
  9
$PDSIZE
 40
0.0
  9
$PLINEWID
 40
0.0
  9
$SPLFRAME
 70
     0
  9
$SPLINETYPE
 70
     6
  9
$SPLINESEGS
 70
     8
  9
$HANDSEED
  5
3995
  9
$SURFTAB1
 70
     6
  9
$SURFTAB2
 70
     6
  9
$SURFTYPE
 70
     6
  9
$SURFU
 70
     6
  9
$SURFV
 70
     6
  9
$UCSBASE
  2

  9
$UCSNAME
  2

  9
$UCSORG
 10
0.0
 20
0.0
 30
0.0
  9
$UCSXDIR
 10
1.0
 20
0.0
 30
0.0
  9
$UCSYDIR
 10
0.0
 20
1.0
 30
0.0
  9
$UCSORTHOREF
  2

  9
$UCSORTHOVIEW
 70
     0
  9
$UCSORGTOP
 10
0.0
 20
0.0
 30
0.0
  9
$UCSORGBOTTOM
 10
0.0
 20
0.0
 30
0.0
  9
$UCSORGLEFT
 10
0.0
 20
0.0
 30
0.0
  9
$UCSORGRIGHT
 10
0.0
 20
0.0
 30
0.0
  9
$UCSORGFRONT
 10
0.0
 20
0.0
 30
0.0
  9
$UCSORGBACK
 10
0.0
 20
0.0
 30
0.0
  9
$PUCSBASE
  2

  9
$PUCSNAME
  2

  9
$PUCSORG
 10
0.0
 20
0.0
 30
0.0
  9
$PUCSXDIR
 10
1.0
 20
0.0
 30
0.0
  9
$PUCSYDIR
 10
0.0
 20
1.0
 30
0.0
  9
$PUCSORTHOREF
  2

  9
$PUCSORTHOVIEW
 70
     0
  9
$PUCSORGTOP
 10
0.0
 20
0.0
 30
0.0
  9
$PUCSORGBOTTOM
 10
0.0
 20
0.0
 30
0.0
  9
$PUCSORGLEFT
 10
0.0
 20
0.0
 30
0.0
  9
$PUCSORGRIGHT
 10
0.0
 20
0.0
 30
0.0
  9
$PUCSORGFRONT
 10
0.0
 20
0.0
 30
0.0
  9
$PUCSORGBACK
 10
0.0
 20
0.0
 30
0.0
  9
$USERI1
 70
     0
  9
$USERI2
 70
     0
  9
$USERI3
 70
     0
  9
$USERI4
 70
     0
  9
$USERI5
 70
     0
  9
$USERR1
 40
0.0
  9
$USERR2
 40
0.0
  9
$USERR3
 40
0.0
  9
$USERR4
 40
0.0
  9
$USERR5
 40
0.0
  9
$WORLDVIEW
 70
     1
  9
$SHADEDGE
 70
     3
  9
$SHADEDIF
 70
    70
  9
$TILEMODE
 70
     1
  9
$MAXACTVP
 70
    16
  9
$PINSBASE
 10
0.0
 20
0.0
 30
0.0
  9
$PLIMCHECK
 70
     0
  9
$PEXTMIN
 10
1.000000000000000E+20
 20
1.000000000000000E+20
 30
1.000000000000000E+20
  9
$PEXTMAX
 10
-1.000000000000000E+20
 20
-1.000000000000000E+20
 30
-1.000000000000000E+20
  9
$PLIMMIN
 10
0.0
 20
0.0
  9
$PLIMMAX
 10
12.0
 20
9.0
  9
$UNITMODE
 70
     0
  9
$VISRETAIN
 70
     0
  9
$PLINEGEN
 70
     0
  9
$PSLTSCALE
 70
     1
  9
$TREEDEPTH
 70
  3020
  9
$CMLSTYLE
  2
STANDARD
  9
$CMLJUST
 70
     0
  9
$CMLSCALE
 40
1.0
  9
$PROXYGRAPHICS
 70
     1
  9
$MEASUREMENT
 70
     0
  9
$CELWEIGHT
370
    -1
  9
$ENDCAPS
280
     0
  9
$JOINSTYLE
280
     0
  9
$LWDISPLAY
290
     0
  9
$INSUNITS
 70
     0
  9
$HYPERLINKBASE
  1

  9
$STYLESHEET
  1

  9
$XEDIT
290
     1
  9
$CEPSNTYPE
380
     0
  9
$PSTYLEMODE
290
     1
  9
$FINGERPRINTGUID
  2
{FB88A696-E29C-4009-92AF-A3599A8169D5}
  9
$VERSIONGUID
  2
{3445F94E-D1D3-4B1D-B25A-43858CF0CC0B}
  9
$EXTNAMES
290
     1
  9
$PSVPSCALE
 40
0.0
  9
$OLESTARTUP
290
     0
  0
ENDSEC
  0
SECTION
  2
CLASSES
  0
CLASS
  1
DICTIONARYVAR
  2
AcDbDictionaryVar
  3
ObjectDBX Classes
 90
        0
280
     0
281
     0
  0
CLASS
  1
ACDBDICTIONARYWDFLT
  2
AcDbDictionaryWithDefault
  3
ObjectDBX Classes
 90
        0
280
     0
281
     0
  0
CLASS
  1
ACDBPLACEHOLDER
  2
AcDbPlaceHolder
  3
ObjectDBX Classes
 90
        0
280
     0
281
     0
  0
CLASS
  1
LAYOUT
  2
AcDbLayout
  3
ObjectDBX Classes
 90
        0
280
     0
281
     0
  0
CLASS
  1
TABLESTYLE
  2
AcDbTableStyle
  3
ObjectDBX Classes
 90
     2047
280
     0
281
     0
  0
CLASS
  1
SORTENTSTABLE
  2
AcDbSortentsTable
  3
ObjectDBX Classes
 90
        0
280
     0
281
     0
  0
ENDSEC
  0
SECTION
  2
TABLES
  0
TABLE
  2
VPORT
  5
12
330
0
100
AcDbSymbolTable
 70
    16
  0
VPORT
  5
398F
330
12
100
AcDbSymbolTableRecord
100
AcDbViewportTableRecord
  2
*Active
 70
     0
 10
0.0
 20
0.0
 11
1.0
 21
1.0
 12
72.24139761618889
 22
74.26245573967181
 13
0.0
 23
0.0
 14
1.0
 24
1.0
 15
0.0
 25
0.0
 16
0.0
 26
0.0
 36
1.0
 17
0.0
 27
0.0
 37
0.0
 40
149.699457305564
 41
1.565384615384615
 42
50.0
 43
0.0
 44
0.0
 50
0.0
 51
0.0
 71
     0
 72
 20000
 73
     1
 74
     1
 75
     0
 76
     0
 77
     0
 78
     0
281
     0
 65
     1
110
0.0
120
0.0
130
0.0
111
1.0
121
0.0
131
0.0
112
0.0
122
1.0
132
0.0
 79
     0
146
0.0
  0
ENDTAB
  0
TABLE
  2
LTYPE
  5
D
330
0
100
AcDbSymbolTable
 70
     2
  0
LTYPE
  5
E
330
D
100
AcDbSymbolTableRecord
100
AcDbLinetypeTableRecord
  2
BYBLOCK
 70
     0
  3

 72
    65
 73
     0
 40
0.0
  0
LTYPE
  5
F
330
D
100
AcDbSymbolTableRecord
100
AcDbLinetypeTableRecord
  2
BYLAYER
 70
     0
  3

 72
    65
 73
     0
 40
0.0
  0
LTYPE
  5
5
330
D
100
AcDbSymbolTableRecord
100
AcDbLinetypeTableRecord
  2
CONTINUOUS
 70
     0
  3
Solid line
 72
    65
 73
     0
 40
0.0
  0
ENDTAB
  0
TABLE
  2
LAYER
  5
A
102
{ACAD_XDICTIONARY
360
1B4
102
}
330
0
100
AcDbSymbolTable
 70
     6
  0
LAYER
  5
4
330
A
100
AcDbSymbolTableRecord
100
AcDbLayerTableRecord
  2
0
 70
     0
 62
     7
  6
CONTINUOUS
370
    -3
390
57
  0
LAYER
  5
25
330
A
100
AcDbSymbolTableRecord
100
AcDbLayerTableRecord
  2
KIJUN
 70
     0
 62
     7
  6
CONTINUOUS
370
    -3
390
57
  0
LAYER
  5
22
330
A
100
AcDbSymbolTableRecord
100
AcDbLayerTableRecord
  2
HOJO
 70
     0
 62
     3
  6
CONTINUOUS
370
    -3
390
57
  0
LAYER
  5
1B
330
A
100
AcDbSymbolTableRecord
100
AcDbLayerTableRecord
  2
WAKU
 70
     0
 62
     1
  6
CONTINUOUS
370
    -3
390
57
  0
LAYER
  5
31
330
A
100
AcDbSymbolTableRecord
100
AcDbLayerTableRecord
  2
DEFPOINTS
 70
     0
 62
     7
  6
CONTINUOUS
290
     0
370
    -3
390
57
  0
LAYER
  5
28
330
A
100
AcDbSymbolTableRecord
100
AcDbLayerTableRecord
  2
SUNPOU
 70
     0
 62
    70
  6
CONTINUOUS
370
    -3
390
57
  0
ENDTAB
  0
TABLE
  2
STYLE
  5
B
330
0
100
AcDbSymbolTable
 70
     3
  0
STYLE
  5
C
330
B
100
AcDbSymbolTableRecord
100
AcDbTextStyleTableRecord
  2
STANDARD
 70
     0
 40
0.0
 41
1.0
 50
0.0
 71
     0
 42
0.2
  3
txt
  4

  0
STYLE
  5
1C
330
B
100
AcDbSymbolTableRecord
100
AcDbTextStyleTableRecord
  2
SUNPOU
 70
     0
 40
0.0
 41
1.0
 50
0.0
 71
     0
 42
30.0
  3
txt
  4
bigfont
  0
STYLE
  5
14A
330
B
100
AcDbSymbolTableRecord
100
AcDbTextStyleTableRecord
  2
LIFE
 70
     0
 40
0.0
 41
0.7
 50
0.0
 71
     0
 42
10.0
  3
romans
  4
extfont
  0
ENDTAB
  0
TABLE
  2
VIEW
  5
10
330
0
100
AcDbSymbolTable
 70
     0
  0
ENDTAB
  0
TABLE
  2
UCS
  5
11
330
0
100
AcDbSymbolTable
 70
     0
  0
ENDTAB
  0
TABLE
  2
APPID
  5
14
330
0
100
AcDbSymbolTable
 70
    10
  0
APPID
  5
15
330
14
100
AcDbSymbolTableRecord
100
AcDbRegAppTableRecord
  2
ACAD
 70
     0
  0
APPID
  5
1D3
330
14
100
AcDbSymbolTableRecord
100
AcDbRegAppTableRecord
  2
ACAD_DSTYLE_DIMTEXT_FILL
 70
     0
  0
APPID
  5
1D4
330
14
100
AcDbSymbolTableRecord
100
AcDbRegAppTableRecord
  2
ACAD_DSTYLE_DIMEXT_LENGTH
 70
     0
  0
APPID
  5
1D5
330
14
100
AcDbSymbolTableRecord
100
AcDbRegAppTableRecord
  2
ACAD_DSTYLE_DIMEXT_ENABLED
 70
     0
  0
APPID
  5
1D6
330
14
100
AcDbSymbolTableRecord
100
AcDbRegAppTableRecord
  2
ACAD_DSTYLE_DIM_LINETYPE
 70
     0
  0
APPID
  5
1D7
330
14
100
AcDbSymbolTableRecord
100
AcDbRegAppTableRecord
  2
ACAD_DSTYLE_DIM_EXT1_LINETYPE
 70
     0
  0
APPID
  5
1D8
330
14
100
AcDbSymbolTableRecord
100
AcDbRegAppTableRecord
  2
ACAD_DSTYLE_DIM_EXT2_LINETYPE
 70
     0
  0
APPID
  5
294
330
14
100
AcDbSymbolTableRecord
100
AcDbRegAppTableRecord
  2
ACAD_DSTYLE_DIMJOGGED_JOGANGLE_SYMBOL
 70
     0
  0
APPID
  5
478
330
14
100
AcDbSymbolTableRecord
100
AcDbRegAppTableRecord
  2
ACAD_DSTYLE_DIMARC_LENGTH_SYMBOL
 70
     0
  0
APPID
  5
F55
330
14
100
AcDbSymbolTableRecord
100
AcDbRegAppTableRecord
  2
ACAD_EXEMPT_FROM_CAD_STANDARDS
 70
     0
  0
ENDTAB
  0
TABLE
  2
DIMSTYLE
  5
16
330
0
100
AcDbSymbolTable
 70
     3
100
AcDbDimStyleTable
 71
     1
340
1E
  0
DIMSTYLE
105
1E
102
{ACAD_REACTORS
330
395C
330
3969
102
}
330
16
100
AcDbSymbolTableRecord
100
AcDbDimStyleTableRecord
  2
STANDARD
 70
     0
340
C
  0
DIMSTYLE
105
1005
330
16
100
AcDbSymbolTableRecord
100
AcDbDimStyleTableRecord
  2
1-100
 70
     0
 40
100.0
 41
0.7
 42
2.5
 43
5.0
 44
1.0
 77
     1
147
1.0
172
     1
176
     3
177
     3
271
     2
272
     2
279
     2
340
C
342
109
  0
ENDTAB
  0
TABLE
  2
BLOCK_RECORD
  5
1
330
0
100
AcDbSymbolTable
 70
    27
  0
BLOCK_RECORD
  5
2
102
{ACAD_XDICTIONARY
360
D13
102
}
330
1
100
AcDbSymbolTableRecord
100
AcDbBlockTableRecord
  2
*MODEL_SPACE
340
5A
  0
BLOCK_RECORD
  5
7
330
1
100
AcDbSymbolTableRecord
100
AcDbBlockTableRecord
  2
*PAPER_SPACE
340
5B
  0
BLOCK_RECORD
  5
109
330
1
100
AcDbSymbolTableRecord
100
AcDbBlockTableRecord
  2
_Dot
340
0
102
{BLKREFS
331
2D85
331
2D86
331
2D97
331
2D98
331
2EBA
331
2EBB
331
2EC7
331
2EC8
331
2FA0
331
2FA1
331
2FB2
331
2FB3
331
308A
331
308B
331
309C
331
309D
331
31E3
331
31E4
331
31EC
331
31ED
331
334D
331
334E
331
3356
331
3357
331
34D1
331
34D2
331
34DA
331
34DB
331
35B2
331
35B3
331
35C4
331
35C5
331
36D6
331
36D7
331
36E8
331
36E9
331
387C
331
387D
331
3885
331
3886
331
3961
331
3962
331
396E
331
396F
102
}
  0
BLOCK_RECORD
  5
3579
330
1
100
AcDbSymbolTableRecord
100
AcDbBlockTableRecord
  2
*D15
340
0
  0
BLOCK_RECORD
  5
3587
330
1
100
AcDbSymbolTableRecord
100
AcDbBlockTableRecord
  2
*D16
340
0
  0
BLOCK_RECORD
  5
3629
330
1
100
AcDbSymbolTableRecord
100
AcDbBlockTableRecord
  2
*D18
340
0
  0
BLOCK_RECORD
  5
3636
330
1
100
AcDbSymbolTableRecord
100
AcDbBlockTableRecord
  2
*D19
340
0
  0
BLOCK_RECORD
  5
377A
330
1
100
AcDbSymbolTableRecord
100
AcDbBlockTableRecord
  2
*D22
340
0
  0
BLOCK_RECORD
  5
3787
330
1
100
AcDbSymbolTableRecord
100
AcDbBlockTableRecord
  2
*D23
340
0
  0
BLOCK_RECORD
  5
395D
330
1
100
AcDbSymbolTableRecord
100
AcDbBlockTableRecord
  2
*D25
340
0
  0
BLOCK_RECORD
  5
396A
330
1
100
AcDbSymbolTableRecord
100
AcDbBlockTableRecord
  2
*D26
340
0
  0
ENDTAB
  0
ENDSEC
  0
SECTION
  2
BLOCKS
  0
BLOCK
  5
3
330
2
100
AcDbEntity
  8
0
100
AcDbBlockBegin
  2
*MODEL_SPACE
 70
     0
 10
0.0
 20
0.0
 30
0.0
  3
*MODEL_SPACE
  1

  0
ENDBLK
  5
6
330
2
100
AcDbEntity
  8
0
100
AcDbBlockEnd
  0
BLOCK
  5
8
330
7
100
AcDbEntity
 67
     1
  8
0
100
AcDbBlockBegin
  2
*PAPER_SPACE
 70
     0
 10
0.0
 20
0.0
 30
0.0
  3
*PAPER_SPACE
  1

  0
ENDBLK
  5
9
330
7
100
AcDbEntity
 67
     1
  8
0
100
AcDbBlockEnd
  0
BLOCK
  5
10C
330
109
100
AcDbEntity
  8
0
100
AcDbBlockBegin
  2
_Dot
 70
     0
 10
0.0
 20
0.0
 30
0.0
  3
_Dot
  1

  0
LWPOLYLINE
  5
10A
330
109
100
AcDbEntity
  8
0
  6
ByBlock
 62
     0
100
AcDbPolyline
 90
        2
 70
     1
 43
0.5
 10
-0.25
 20
0.0
 42
1.0
 10
0.25
 20
0.0
 42
1.0
  0
LINE
  5
10B
330
109
100
AcDbEntity
  8
0
  6
ByBlock
 62
     0
370
    -2
100
AcDbLine
 10
-0.5
 20
0.0
 30
0.0
 11
-1.0
 21
0.0
 31
0.0
  0
ENDBLK
  5
10D
330
109
100
AcDbEntity
  8
0
100
AcDbBlockEnd
  0
BLOCK
  5
3583
330
3579
100
AcDbEntity
  8
0
100
AcDbBlockBegin
  2
*D15
 70
     1
 10
0.0
 20
0.0
 30
0.0
  3
*D15
  1

  0
LINE
  5
35AF
330
3579
100
AcDbEntity
  8
SUNPOU
 62
    70
370
    -2
100
AcDbLine
 10
-0.6389176541695314
 20
126.8800304967673
 30
0.0
 11
-0.6389176541695305
 21
141.4469254406451
 31
0.0
  0
LINE
  5
35B0
330
3579
100
AcDbEntity
  8
SUNPOU
 62
    70
370
    -2
100
AcDbLine
 10
151.3610823458304
 20
126.5763703404513
 30
0.0
 11
151.3610823458304
 21
141.4469254406451
 31
0.0
  0
LINE
  5
35B1
330
3579
100
AcDbEntity
  8
SUNPOU
 62
    60
370
    -2
100
AcDbLine
 10
1.361082345830469
 20
141.4469254406451
 30
0.0
 11
149.3610823458304
 21
141.4469254406451
 31
0.0
  0
INSERT
  5
35B2
330
3579
100
AcDbEntity
  8
SUNPOU
 62
    60
370
    -2
100
AcDbBlockReference
  2
_Dot
 10
-0.6389176541695305
 20
141.4469254406451
 30
0.0
 41
2.0
 42
2.0
 43
2.0
 50
180.0
  0
INSERT
  5
35B3
330
3579
100
AcDbEntity
  8
SUNPOU
 62
    60
370
    -2
100
AcDbBlockReference
  2
_Dot
 10
151.3610823458304
 20
141.4469254406451
 30
0.0
 41
2.0
 42
2.0
 43
2.0
  0
MTEXT
  5
35B4
330
3579
100
AcDbEntity
  8
SUNPOU
 62
    60
100
AcDbMText
 10
75.36108234583045
 20
146.9469254406451
 30
0.0
 40
5.0
 41
0.0
 71
     5
 72
     1
  1
\A1;152
  7
SUNPOU
 73
     1
 44
1.0
1001
ACAD
1000
MTEXTBEGIN
1070
    73
1070
     1
1070
    44
1040
1.0
1070
    74
1070
     0
1000
MTEXTEND
  0
POINT
  5
35B5
330
3579
100
AcDbEntity
  8
DEFPOINTS
 62
     0
100
AcDbPoint
 10
-0.6389176541695321
 20
116.8800304967673
 30
0.0
  0
POINT
  5
35B6
330
3579
100
AcDbEntity
  8
DEFPOINTS
 62
     0
100
AcDbPoint
 10
151.3610823458304
 20
116.5763703404514
 30
0.0
  0
POINT
  5
35B7
330
3579
100
AcDbEntity
  8
DEFPOINTS
 62
     0
100
AcDbPoint
 10
151.3610823458304
 20
141.4469254406451
 30
0.0
  0
ENDBLK
  5
3584
330
3579
100
AcDbEntity
  8
0
100
AcDbBlockEnd
  0
BLOCK
  5
3591
330
3587
100
AcDbEntity
  8
0
100
AcDbBlockBegin
  2
*D16
 70
     1
 10
0.0
 20
0.0
 30
0.0
  3
*D16
  1

  0
LINE
  5
35C1
330
3587
100
AcDbEntity
  8
SUNPOU
 62
    70
370
    -2
100
AcDbLine
 10
-10.63891765416953
 20
116.8800304967673
 30
0.0
 11
-28.92678899111841
 21
116.8800304967673
 31
0.0
  0
LINE
  5
35C2
330
3587
100
AcDbEntity
  8
SUNPOU
 62
    70
370
    -2
100
AcDbLine
 10
-9.113164155751292
 20
35.88003049676734
 30
0.0
 11
-28.92678899111843
 21
35.88003049676735
 31
0.0
  0
LINE
  5
35C3
330
3587
100
AcDbEntity
  8
SUNPOU
 62
    60
370
    -2
100
AcDbLine
 10
-28.92678899111841
 20
114.8800304967673
 30
0.0
 11
-28.92678899111843
 21
37.88003049676735
 31
0.0
  0
INSERT
  5
35C4
330
3587
100
AcDbEntity
  8
SUNPOU
 62
    60
370
    -2
100
AcDbBlockReference
  2
_Dot
 10
-28.92678899111841
 20
116.8800304967673
 30
0.0
 41
2.0
 42
2.0
 43
2.0
 50
90.0
  0
INSERT
  5
35C5
330
3587
100
AcDbEntity
  8
SUNPOU
 62
    60
370
    -2
100
AcDbBlockReference
  2
_Dot
 10
-28.92678899111843
 20
35.88003049676735
 30
0.0
 41
2.0
 42
2.0
 43
2.0
 50
270.0
  0
MTEXT
  5
35C6
330
3587
100
AcDbEntity
  8
SUNPOU
 62
    60
100
AcDbMText
 10
-34.42678899111843
 20
76.38003049676735
 30
0.0
 40
5.0
 41
0.0
 71
     5
 72
     1
  1
\A1;81
  7
SUNPOU
 11
0.0000000000000001
 21
1.0
 31
0.0
 73
     1
 44
1.0
1001
ACAD
1000
MTEXTBEGIN
1070
    73
1070
     1
1070
    44
1040
1.0
1070
    74
1070
     0
1000
MTEXTEND
  0
POINT
  5
35C7
330
3587
100
AcDbEntity
  8
DEFPOINTS
 62
     0
100
AcDbPoint
 10
-0.6389176541695321
 20
116.8800304967673
 30
0.0
  0
POINT
  5
35C8
330
3587
100
AcDbEntity
  8
DEFPOINTS
 62
     0
100
AcDbPoint
 10
0.8868358442487078
 20
35.88003049676734
 30
0.0
  0
POINT
  5
35C9
330
3587
100
AcDbEntity
  8
DEFPOINTS
 62
     0
100
AcDbPoint
 10
-28.92678899111843
 20
35.88003049676735
 30
0.0
  0
ENDBLK
  5
3592
330
3587
100
AcDbEntity
  8
0
100
AcDbBlockEnd
  0
BLOCK
  5
3633
330
3629
100
AcDbEntity
  8
0
100
AcDbBlockBegin
  2
*D18
 70
     1
 10
0.0
 20
0.0
 30
0.0
  3
*D18
  1

  0
LINE
  5
36D3
330
3629
100
AcDbEntity
  8
SUNPOU
 62
    70
370
    -2
100
AcDbLine
 10
-74.66909355334668
 20
155.8784465113387
 30
0.0
 11
-74.66909355334668
 21
170.5486106057478
 31
0.0
  0
LINE
  5
36D4
330
3629
100
AcDbEntity
  8
SUNPOU
 62
    70
370
    -2
100
AcDbLine
 10
85.3309064466533
 20
152.6973164560472
 30
0.0
 11
85.3309064466533
 21
170.5486106057478
 31
0.0
  0
LINE
  5
36D5
330
3629
100
AcDbEntity
  8
SUNPOU
 62
    60
370
    -2
100
AcDbLine
 10
-72.66909355334668
 20
170.5486106057478
 30
0.0
 11
83.33090644665331
 21
170.5486106057478
 31
0.0
  0
INSERT
  5
36D6
330
3629
100
AcDbEntity
  8
SUNPOU
 62
    60
370
    -2
100
AcDbBlockReference
  2
_Dot
 10
-74.66909355334668
 20
170.5486106057478
 30
0.0
 41
2.0
 42
2.0
 43
2.0
 50
180.0
  0
INSERT
  5
36D7
330
3629
100
AcDbEntity
  8
SUNPOU
 62
    60
370
    -2
100
AcDbBlockReference
  2
_Dot
 10
85.3309064466533
 20
170.5486106057478
 30
0.0
 41
2.0
 42
2.0
 43
2.0
  0
MTEXT
  5
36D8
330
3629
100
AcDbEntity
  8
SUNPOU
 62
    60
100
AcDbMText
 10
5.330906446653308
 20
176.0486106057478
 30
0.0
 40
5.0
 41
0.0
 71
     5
 72
     1
  1
\A1;160
  7
SUNPOU
 73
     1
 44
1.0
1001
ACAD
1000
MTEXTBEGIN
1070
    73
1070
     1
1070
    44
1040
1.0
1070
    74
1070
     0
1000
MTEXTEND
  0
POINT
  5
36D9
330
3629
100
AcDbEntity
  8
DEFPOINTS
 62
     0
100
AcDbPoint
 10
-74.66909355334668
 20
145.8784465113387
 30
0.0
  0
POINT
  5
36DA
330
3629
100
AcDbEntity
  8
DEFPOINTS
 62
     0
100
AcDbPoint
 10
85.3309064466533
 20
142.6973164560472
 30
0.0
  0
POINT
  5
36DB
330
3629
100
AcDbEntity
  8
DEFPOINTS
 62
     0
100
AcDbPoint
 10
85.3309064466533
 20
170.5486106057478
 30
0.0
  0
ENDBLK
  5
3634
330
3629
100
AcDbEntity
  8
0
100
AcDbBlockEnd
  0
BLOCK
  5
3640
330
3636
100
AcDbEntity
  8
0
100
AcDbBlockBegin
  2
*D19
 70
     1
 10
0.0
 20
0.0
 30
0.0
  3
*D19
  1

  0
LINE
  5
36E5
330
3636
100
AcDbEntity
  8
SUNPOU
 62
    70
370
    -2
100
AcDbLine
 10
-84.66909355334669
 20
145.8784465113387
 30
0.0
 11
-102.6422475936551
 21
145.8784465113387
 31
0.0
  0
LINE
  5
36E6
330
3636
100
AcDbEntity
  8
SUNPOU
 62
    70
370
    -2
100
AcDbLine
 10
-83.23195019797594
 20
45.87844651133827
 30
0.0
 11
-102.6422475936551
 21
45.87844651133827
 31
0.0
  0
LINE
  5
36E7
330
3636
100
AcDbEntity
  8
SUNPOU
 62
    60
370
    -2
100
AcDbLine
 10
-102.6422475936551
 20
143.8784465113387
 30
0.0
 11
-102.6422475936551
 21
47.87844651133827
 31
0.0
  0
INSERT
  5
36E8
330
3636
100
AcDbEntity
  8
SUNPOU
 62
    60
370
    -2
100
AcDbBlockReference
  2
_Dot
 10
-102.6422475936551
 20
145.8784465113387
 30
0.0
 41
2.0
 42
2.0
 43
2.0
 50
90.0
  0
INSERT
  5
36E9
330
3636
100
AcDbEntity
  8
SUNPOU
 62
    60
370
    -2
100
AcDbBlockReference
  2
_Dot
 10
-102.6422475936551
 20
45.87844651133827
 30
0.0
 41
2.0
 42
2.0
 43
2.0
 50
270.0
  0
MTEXT
  5
36EA
330
3636
100
AcDbEntity
  8
SUNPOU
 62
    60
100
AcDbMText
 10
-108.1422475936552
 20
95.87844651133847
 30
0.0
 40
5.0
 41
0.0
 71
     5
 72
     1
  1
\A1;100
  7
SUNPOU
 11
0.0000000000000001
 21
1.0
 31
0.0
 73
     1
 44
1.0
1001
ACAD
1000
MTEXTBEGIN
1070
    73
1070
     1
1070
    44
1040
1.0
1070
    74
1070
     0
1000
MTEXTEND
  0
POINT
  5
36EB
330
3636
100
AcDbEntity
  8
DEFPOINTS
 62
     0
100
AcDbPoint
 10
-74.66909355334668
 20
145.8784465113387
 30
0.0
  0
POINT
  5
36EC
330
3636
100
AcDbEntity
  8
DEFPOINTS
 62
     0
100
AcDbPoint
 10
-73.23195019797594
 20
45.87844651133827
 30
0.0
  0
POINT
  5
36ED
330
3636
100
AcDbEntity
  8
DEFPOINTS
 62
     0
100
AcDbPoint
 10
-102.6422475936551
 20
45.87844651133827
 30
0.0
  0
ENDBLK
  5
3641
330
3636
100
AcDbEntity
  8
0
100
AcDbBlockEnd
  0
BLOCK
  5
3784
330
377A
100
AcDbEntity
  8
0
100
AcDbBlockBegin
  2
*D22
 70
     1
 10
0.0
 20
0.0
 30
0.0
  3
*D22
  1

  0
LINE
  5
3879
330
377A
100
AcDbEntity
  8
SUNPOU
 62
    70
370
    -2
100
AcDbLine
 10
-41.04326834304809
 20
112.0793319913222
 30
0.0
 11
-41.04326834304809
 21
123.1707719400042
 31
0.0
  0
LINE
  5
387A
330
377A
100
AcDbEntity
  8
SUNPOU
 62
    70
370
    -2
100
AcDbLine
 10
68.9567316569519
 20
113.1737222109773
 30
0.0
 11
68.9567316569519
 21
123.1707719400042
 31
0.0
  0
LINE
  5
387B
330
377A
100
AcDbEntity
  8
SUNPOU
 62
    60
370
    -2
100
AcDbLine
 10
-39.04326834304809
 20
123.1707719400042
 30
0.0
 11
66.9567316569519
 21
123.1707719400042
 31
0.0
  0
INSERT
  5
387C
330
377A
100
AcDbEntity
  8
SUNPOU
 62
    60
370
    -2
100
AcDbBlockReference
  2
_Dot
 10
-41.04326834304809
 20
123.1707719400042
 30
0.0
 41
2.0
 42
2.0
 43
2.0
 50
180.0
  0
INSERT
  5
387D
330
377A
100
AcDbEntity
  8
SUNPOU
 62
    60
370
    -2
100
AcDbBlockReference
  2
_Dot
 10
68.9567316569519
 20
123.1707719400042
 30
0.0
 41
2.0
 42
2.0
 43
2.0
  0
MTEXT
  5
387E
330
377A
100
AcDbEntity
  8
SUNPOU
 62
    60
100
AcDbMText
 10
13.9567316569519
 20
128.6707719400042
 30
0.0
 40
5.0
 41
0.0
 71
     5
 72
     1
  1
\A1;110
  7
SUNPOU
 73
     1
 44
1.0
1001
ACAD
1000
MTEXTBEGIN
1070
    73
1070
     1
1070
    44
1040
1.0
1070
    74
1070
     0
1000
MTEXTEND
  0
POINT
  5
387F
330
377A
100
AcDbEntity
  8
DEFPOINTS
 62
     0
100
AcDbPoint
 10
-41.04326834304809
 20
102.0793319913222
 30
0.0
  0
POINT
  5
3880
330
377A
100
AcDbEntity
  8
DEFPOINTS
 62
     0
100
AcDbPoint
 10
68.9567316569519
 20
103.1737222109773
 30
0.0
  0
POINT
  5
3881
330
377A
100
AcDbEntity
  8
DEFPOINTS
 62
     0
100
AcDbPoint
 10
68.9567316569519
 20
123.1707719400042
 30
0.0
  0
ENDBLK
  5
3785
330
377A
100
AcDbEntity
  8
0
100
AcDbBlockEnd
  0
BLOCK
  5
3791
330
3787
100
AcDbEntity
  8
0
100
AcDbBlockBegin
  2
*D23
 70
     1
 10
0.0
 20
0.0
 30
0.0
  3
*D23
  1

  0
LINE
  5
3882
330
3787
100
AcDbEntity
  8
SUNPOU
 62
    70
370
    -2
100
AcDbLine
 10
-51.00564132730005
 20
42.07933199132219
 30
0.0
 11
-64.746881373394
 21
42.07933199132219
 31
0.0
  0
LINE
  5
3883
330
3787
100
AcDbEntity
  8
SUNPOU
 62
    70
370
    -2
100
AcDbLine
 10
-51.04326834304809
 20
102.0793319913222
 30
0.0
 11
-64.74688137339398
 21
102.0793319913222
 31
0.0
  0
LINE
  5
3884
330
3787
100
AcDbEntity
  8
SUNPOU
 62
    60
370
    -2
100
AcDbLine
 10
-64.746881373394
 20
44.07933199132219
 30
0.0
 11
-64.74688137339398
 21
100.0793319913222
 31
0.0
  0
INSERT
  5
3885
330
3787
100
AcDbEntity
  8
SUNPOU
 62
    60
370
    -2
100
AcDbBlockReference
  2
_Dot
 10
-64.746881373394
 20
42.07933199132219
 30
0.0
 41
2.0
 42
2.0
 43
2.0
 50
270.0
  0
INSERT
  5
3886
330
3787
100
AcDbEntity
  8
SUNPOU
 62
    60
370
    -2
100
AcDbBlockReference
  2
_Dot
 10
-64.74688137339398
 20
102.0793319913222
 30
0.0
 41
2.0
 42
2.0
 43
2.0
 50
90.0
  0
MTEXT
  5
3887
330
3787
100
AcDbEntity
  8
SUNPOU
 62
    60
100
AcDbMText
 10
-70.24688137339402
 20
72.07933199132219
 30
0.0
 40
5.0
 41
0.0
 71
     5
 72
     1
  1
\A1;60
  7
SUNPOU
 11
0.0000000000000001
 21
1.0
 31
0.0
 73
     1
 44
1.0
1001
ACAD
1000
MTEXTBEGIN
1070
    73
1070
     1
1070
    44
1040
1.0
1070
    74
1070
     0
1000
MTEXTEND
  0
POINT
  5
3888
330
3787
100
AcDbEntity
  8
DEFPOINTS
 62
     0
100
AcDbPoint
 10
-41.00564132730005
 20
42.07933199132219
 30
0.0
  0
POINT
  5
3889
330
3787
100
AcDbEntity
  8
DEFPOINTS
 62
     0
100
AcDbPoint
 10
-41.04326834304809
 20
102.0793319913222
 30
0.0
  0
POINT
  5
388A
330
3787
100
AcDbEntity
  8
DEFPOINTS
 62
     0
100
AcDbPoint
 10
-64.74688137339398
 20
102.0793319913222
 30
0.0
  0
ENDBLK
  5
3792
330
3787
100
AcDbEntity
  8
0
100
AcDbBlockEnd
  0
BLOCK
  5
3967
330
395D
100
AcDbEntity
  8
0
100
AcDbBlockBegin
  2
*D25
 70
     1
 10
0.0
 20
0.0
 30
0.0
  3
*D25
  1

  0
LINE
  5
395E
330
395D
100
AcDbEntity
  8
SUNPOU
 62
    70
370
    -2
100
AcDbLine
 10
27.74035032908364
 20
127.2604753857738
 30
0.0
 11
27.74035032908364
 21
140.5411174157011
 31
0.0
  0
LINE
  5
395F
330
395D
100
AcDbEntity
  8
SUNPOU
 62
    70
370
    -2
100
AcDbLine
 10
110.7403503290836
 20
122.2233476583072
 30
0.0
 11
110.7403503290836
 21
140.5411174157011
 31
0.0
  0
LINE
  5
3960
330
395D
100
AcDbEntity
  8
SUNPOU
 62
    60
370
    -2
100
AcDbLine
 10
29.74035032908364
 20
140.5411174157011
 30
0.0
 11
108.7403503290836
 21
140.5411174157011
 31
0.0
  0
INSERT
  5
3961
330
395D
100
AcDbEntity
  8
SUNPOU
 62
    60
370
    -2
100
AcDbBlockReference
  2
_Dot
 10
27.74035032908364
 20
140.5411174157011
 30
0.0
 41
2.0
 42
2.0
 43
2.0
 50
180.0
  0
INSERT
  5
3962
330
395D
100
AcDbEntity
  8
SUNPOU
 62
    60
370
    -2
100
AcDbBlockReference
  2
_Dot
 10
110.7403503290836
 20
140.5411174157011
 30
0.0
 41
2.0
 42
2.0
 43
2.0
  0
MTEXT
  5
3963
330
395D
100
AcDbEntity
  8
SUNPOU
 62
    60
100
AcDbMText
 10
69.24035032908363
 20
146.0411174157011
 30
0.0
 40
5.0
 41
0.0
 71
     5
 72
     1
  1
\A1;83
  7
SUNPOU
 73
     1
 44
1.0
1001
ACAD
1000
MTEXTBEGIN
1070
    73
1070
     1
1070
    44
1040
1.0
1070
    74
1070
     0
1000
MTEXTEND
  0
POINT
  5
3964
330
395D
100
AcDbEntity
  8
DEFPOINTS
 62
     0
100
AcDbPoint
 10
27.74035032908364
 20
117.2604753857738
 30
0.0
  0
POINT
  5
3965
330
395D
100
AcDbEntity
  8
DEFPOINTS
 62
     0
100
AcDbPoint
 10
110.7403503290836
 20
112.2233476583072
 30
0.0
  0
POINT
  5
3966
330
395D
100
AcDbEntity
  8
DEFPOINTS
 62
     0
100
AcDbPoint
 10
110.7403503290836
 20
140.5411174157011
 30
0.0
  0
ENDBLK
  5
3968
330
395D
100
AcDbEntity
  8
0
100
AcDbBlockEnd
  0
BLOCK
  5
3974
330
396A
100
AcDbEntity
  8
0
100
AcDbBlockBegin
  2
*D26
 70
     1
 10
0.0
 20
0.0
 30
0.0
  3
*D26
  1

  0
LINE
  5
396B
330
396A
100
AcDbEntity
  8
SUNPOU
 62
    70
370
    -2
100
AcDbLine
 10
20.95910676827544
 20
122.5760159643869
 30
0.0
 11
3.789962582177404
 21
122.5760159643869
 31
0.0
  0
LINE
  5
396C
330
396A
100
AcDbEntity
  8
SUNPOU
 62
    70
370
    -2
100
AcDbLine
 10
27.73974082146561
 20
39.57601596438696
 30
0.0
 11
3.789962582177382
 21
39.57601596438697
 31
0.0
  0
LINE
  5
396D
330
396A
100
AcDbEntity
  8
SUNPOU
 62
    60
370
    -2
100
AcDbLine
 10
3.789962582177402
 20
120.5760159643869
 30
0.0
 11
3.789962582177385
 21
41.57601596438697
 31
0.0
  0
INSERT
  5
396E
330
396A
100
AcDbEntity
  8
SUNPOU
 62
    60
370
    -2
100
AcDbBlockReference
  2
_Dot
 10
3.789962582177403
 20
122.5760159643869
 30
0.0
 41
2.0
 42
2.0
 43
2.0
 50
90.0
  0
INSERT
  5
396F
330
396A
100
AcDbEntity
  8
SUNPOU
 62
    60
370
    -2
100
AcDbBlockReference
  2
_Dot
 10
3.789962582177385
 20
39.57601596438697
 30
0.0
 41
2.0
 42
2.0
 43
2.0
 50
270.0
  0
MTEXT
  5
3970
330
396A
100
AcDbEntity
  8
SUNPOU
 62
    60
100
AcDbMText
 10
-1.710037417822618
 20
81.07601596438696
 30
0.0
 40
5.0
 41
0.0
 71
     5
 72
     1
  1
\A1;83
  7
SUNPOU
 11
0.0000000000000001
 21
1.0
 31
0.0
 73
     1
 44
1.0
1001
ACAD
1000
MTEXTBEGIN
1070
    73
1070
     1
1070
    44
1040
1.0
1070
    74
1070
     0
1000
MTEXTEND
  0
POINT
  5
3971
330
396A
100
AcDbEntity
  8
DEFPOINTS
 62
     0
100
AcDbPoint
 10
30.95910676827544
 20
122.5760159643869
 30
0.0
  0
POINT
  5
3972
330
396A
100
AcDbEntity
  8
DEFPOINTS
 62
     0
100
AcDbPoint
 10
37.73974082146561
 20
39.57601596438696
 30
0.0
  0
POINT
  5
3973
330
396A
100
AcDbEntity
  8
DEFPOINTS
 62
     0
100
AcDbPoint
 10
3.789962582177385
 20
39.57601596438697
 30
0.0
  0
ENDBLK
  5
3975
330
396A
100
AcDbEntity
  8
0
100
AcDbBlockEnd
  0
ENDSEC
  0
SECTION
  2
ENTITIES
  0
LINE
  5
1F
330
2
100
AcDbEntity
  8
WAKU
100
AcDbLine
 10
0.0
 20
14.0
 30
0.0
 11
148.6829221395387
 21
14.0
 31
0.0
  0
LINE
  5
20
330
2
100
AcDbEntity
  8
WAKU
100
AcDbLine
 10
0.0
 20
0.0
 30
0.0
 11
148.6829221395387
 21
0.0
 31
0.0
  0
TEXT
  5
21
330
2
100
AcDbEntity
  8
HOJO
100
AcDbText
 10
9.653966000000025
 20
2.366626000000024
 30
0.0
 40
9.0
  1
TE142
  7
SUNPOU
100
AcDbText
  0
TEXT
  5
23
330
2
100
AcDbEntity
  8
HOJO
100
AcDbText
 10
85.84696046283864
 20
5.044386000000031
 30
0.0
 40
6.0
  1
83×83×7
  7
SUNPOU
100
AcDbText
  0
ARC
  5
38DD
102
{ACAD_REACTORS
330
3988
102
}
330
2
100
AcDbEntity
  8
KIJUN
100
AcDbCircle
 10
36.33567220925443
 20
117.1070732094623
 30
0.0
 40
2.650587583416832
100
AcDbArc
 50
24.90672424651031
 51
127.0207888176349
  0
ARC
  5
38DE
102
{ACAD_REACTORS
330
3988
102
}
330
2
100
AcDbEntity
  8
KIJUN
100
AcDbCircle
 10
41.7397408214656
 20
116.3776568537045
 30
0.0
 40
3.522296771453999
100
AcDbArc
 50
31.60108746214422
 51
148.3989125378558
  0
ARC
  5
38DF
102
{ACAD_REACTORS
330
3988
102
}
330
2
100
AcDbEntity
  8
KIJUN
100
AcDbCircle
 10
49.61528071253747
 20
115.7211880940192
 30
0.0
 40
5.480117855903388
100
AcDbArc
 50
55.239683793771
 51
152.832803142084
  0
ARC
  5
38E3
102
{ACAD_REACTORS
330
3988
102
}
330
2
100
AcDbEntity
  8
KIJUN
100
AcDbCircle
 10
106.5739205831057
 20
112.2233476583072
 30
0.0
 40
4.166429745977895
100
AcDbArc
 50
286.2490304171295
 51
73.75096958287049
  0
ARC
  5
38E5
102
{ACAD_REACTORS
330
3988
102
}
330
2
100
AcDbEntity
  8
KIJUN
100
AcDbCircle
 10
83.99859516638116
 20
129.7570710373329
 30
0.0
 40
25.54447741643297
100
AcDbArc
 50
271.6626090029381
 51
302.5428489351617
  0
ARC
  5
38E7
102
{ACAD_REACTORS
330
3988
102
}
330
2
100
AcDbEntity
  8
KIJUN
100
AcDbCircle
 10
68.38955665115349
 20
104.5435686626819
 30
0.0
 40
5.359758590449844
100
AcDbArc
 50
263.0363421238719
 51
356.5748000606544
  0
ARC
  5
38E8
102
{ACAD_REACTORS
330
3988
102
}
330
2
100
AcDbEntity
  8
KIJUN
100
AcDbCircle
 10
62.40459500284464
 20
100.7260663862385
 30
0.0
 40
5.542737995000655
100
AcDbArc
 50
263.110754326624
 51
344.2693807253401
  0
ARC
  5
38E9
102
{ACAD_REACTORS
330
3988
102
}
330
2
100
AcDbEntity
  8
KIJUN
100
AcDbCircle
 10
56.95589896627121
 20
93.00718951350189
 30
0.0
 40
5.272238596487925
100
AcDbArc
 50
314.9999999999957
 51
24.85635886102244
  0
SPLINE
  5
38EB
102
{ACAD_REACTORS
330
3988
102
}
330
2
100
AcDbEntity
  8
KIJUN
100
AcDbSpline
210
0.0
220
0.0
230
1.0
 70
     8
 71
     3
 72
    18
 73
    14
 74
    12
 42
0.0000000001
 43
0.0000000001
 44
0.0000000001
 40
0.0
 40
0.0
 40
0.0
 40
0.0
 40
4.619675220917379
 40
14.14063077092831
 40
21.72801653777031
 40
26.78993032250926
 40
32.4699339288272
 40
36.31751847891447
 40
40.63541158046692
 40
44.94012384755856
 40
48.33205570912168
 40
51.00086293295452
 40
52.21613600553823
 40
52.21613600553823
 40
52.21613600553823
 40
52.21613600553823
 10
52.73974082146537
 20
120.223347658307
 30
0.0
 10
51.47965903695894
 20
119.2615936454947
 30
0.0
 10
47.62260190549682
 20
116.3177052253611
 30
0.0
 10
46.89513395387797
 20
108.6074248028766
 30
0.0
 10
47.8951837982953
 20
100.3347135059422
 30
0.0
 10
54.36769431293697
 20
98.16634015151798
 30
0.0
 10
59.28997626416924
 20
99.10420659899665
 30
0.0
 10
63.06813199414932
 20
102.141583278609
 30
0.0
 10
63.79150938658404
 20
106.8171784309296
 30
0.0
 10
60.36853300482357
 20
110.1389718152799
 30
0.0
 10
56.22851869952893
 20
109.0313581805154
 30
0.0
 10
55.90998276166238
 20
106.115614680698
 30
0.0
 10
56.61022714621868
 20
105.0215815083261
 30
0.0
 10
56.82932358085327
 20
104.6792742042976
 30
0.0
 11
52.73974082146537
 21
120.223347658307
 31
0.0
 11
49.32062821555337
 21
117.116730827275
 31
0.0
 11
47.24679749880488
 21
107.8243780173804
 31
0.0
 11
49.41091814630408
 21
100.5521703334687
 31
0.0
 11
54.11189082422311
 21
98.67498439553163
 31
0.0
 11
59.68977920517
 21
99.74717942325867
 31
0.0
 11
62.55023482948672
 21
102.3204459254665
 31
0.0
 11
63.05081486639029
 21
106.6092243602994
 31
0.0
 11
59.83280207285656
 21
109.4684097972906
 31
0.0
 11
56.61479014403198
 21
108.3962153282554
 31
0.0
 11
56.25723297481499
 21
105.7514686733328
 31
0.0
 11
56.82932358085327
 21
104.6792742042976
 31
0.0
  0
SPLINE
  5
38EC
102
{ACAD_REACTORS
330
3988
102
}
330
2
100
AcDbEntity
  8
KIJUN
100
AcDbSpline
210
0.0
220
0.0
230
1.0
 70
     8
 71
     3
 72
    17
 73
    13
 74
    11
 42
0.0000000001
 43
0.0000000001
 44
0.0000000001
 40
0.0
 40
0.0
 40
0.0
 40
0.0
 40
2.949823084141273
 40
5.888453522450403
 40
8.451628579939317
 40
11.53899255072337
 40
14.12231797883793
 40
16.11428112973072
 40
17.74751131390935
 40
19.38074235232491
 40
21.58817462881363
 40
22.24746366121432
 40
22.24746366121432
 40
22.24746366121432
 40
22.24746366121432
 10
56.10041795953975
 20
106.7531247292946
 30
0.0
 10
55.91028315507236
 20
107.7114593589001
 30
0.0
 10
55.53073498314114
 20
109.624492366108
 30
0.0
 10
56.2822130040123
 20
112.6832111037753
 30
0.0
 10
59.07450808971475
 20
113.8844216067704
 30
0.0
 10
61.74461973273139
 20
114.6540644349654
 30
0.0
 10
64.22293807638737
 20
114.3254909719509
 30
0.0
 10
66.51545572632682
 20
113.8779963549687
 30
0.0
 10
66.97946089447203
 20
112.0125958084856
 30
0.0
 10
67.4925113606796
 20
110.2656912941799
 30
0.0
 10
69.13787201340665
 20
109.4235229007135
 30
0.0
 10
70.06113352790947
 20
109.6924746145378
 30
0.0
 10
70.2734653610255
 20
109.7543281733822
 30
0.0
 11
56.10041795953975
 21
106.7531247292946
 31
0.0
 11
55.75665293791144
 21
109.6828485793593
 31
0.0
 11
56.68630071316647
 21
112.4705544223277
 31
0.0
 11
58.90315429760176
 21
113.7571882321235
 31
0.0
 11
61.90663278960528
 21
114.4719841723524
 31
0.0
 11
64.48104267854842
 21
114.2575453902838
 31
0.0
 11
66.34033909376717
 21
113.5427488913629
 31
0.0
 11
66.98394113364838
 21
112.0416768581904
 31
0.0
 11
67.62754403823874
 21
110.5406042663259
 31
0.0
 11
69.62986245643515
 21
109.6113689853364
 31
0.0
 11
70.2734653610255
 21
109.7543281733822
 31
0.0
  0
ARC
  5
38ED
102
{ACAD_REACTORS
330
3988
102
}
330
2
100
AcDbEntity
  8
KIJUN
100
AcDbCircle
 10
64.7248811041361
 20
110.1854407003356
 30
0.0
 40
5.565307293105727
100
AcDbArc
 50
254.3739669803354
 51
355.5571727119331
  0
SPLINE
  5
38EE
102
{ACAD_REACTORS
330
3988
102
}
330
2
100
AcDbEntity
  8
KIJUN
100
AcDbSpline
210
0.0
220
0.0
230
1.0
 70
     8
 71
     3
 72
    15
 73
    11
 74
     9
 42
0.0000000001
 43
0.0000000001
 44
0.0000000001
 40
0.0
 40
0.0
 40
0.0
 40
0.0
 40
2.061341394027873
 40
5.916664832693946
 40
9.474398966959908
 40
14.59088247103008
 40
20.09772421006541
 40
23.6189932023651
 40
26.73346382822578
 40
29.24443286346998
 40
29.24443286346998
 40
29.24443286346998
 40
29.24443286346998
 10
56.20398941543271
 20
105.9243270826826
 30
0.0
 10
55.55617924172179
 20
106.2383763496782
 30
0.0
 10
53.6967707593804
 20
107.1397914472209
 30
0.0
 10
53.47506639756142
 20
110.8474326020294
 30
0.0
 10
54.97053479157307
 20
114.8922473592496
 30
0.0
 10
59.85619027792023
 20
116.8028928515541
 30
0.0
 10
64.54603537380797
 20
116.7090307398171
 30
0.0
 10
68.54235558867322
 20
115.3075500021837
 30
0.0
 10
70.26984100366684
 20
112.4909308077046
 30
0.0
 10
70.27234685168804
 20
110.5988684039675
 30
0.0
 10
70.2734653610255
 20
109.7543281733822
 30
0.0
 11
56.20398941543271
 21
105.9243270826826
 31
0.0
 11
54.46944799344009
 21
107.0381019244367
 31
0.0
 11
53.75433451971526
 21
110.8265226424174
 31
0.0
 11
55.11305089803022
 21
114.114586202238
 31
0.0
 11
59.68977920517
 21
116.4019343283543
 31
0.0
 11
65.19615701698239
 21
116.3304547343314
 31
0.0
 11
68.41416894580698
 21
114.9008622951817
 31
0.0
 11
70.05893105949531
 21
112.256115640259
 31
0.0
 11
70.2734653610255
 21
109.7543281733822
 31
0.0
  0
SPLINE
  5
38EF
102
{ACAD_REACTORS
330
3988
102
}
330
2
100
AcDbEntity
  8
KIJUN
100
AcDbSpline
210
0.0
220
0.0
230
1.0
 70
     8
 71
     3
 72
    20
 73
    16
 74
     0
 42
0.0000000001
 43
0.0000000001
 40
0.0
 40
0.0
 40
0.0
 40
0.0
 40
2.302488909262619
 40
5.789613645120237
 40
9.140476789306392
 40
13.78231166546171
 40
17.69301007249245
 40
21.2827909579658
 40
25.10760089554747
 40
29.97090112591266
 40
34.65181569174334
 40
39.07377039828995
 40
43.07994722000349
 40
47.39013510305229
 40
50.84017662933277
 40
50.84017662933277
 40
50.84017662933277
 40
50.84017662933277
 10
59.33222290066215
 20
103.6070797352623
 30
0.0
 10
58.75395836558027
 20
103.0359596862008
 30
0.0
 10
57.29991086535983
 20
101.5998770124705
 30
0.0
 10
53.76149859795828
 20
102.8787508100113
 30
0.0
 10
51.91996050384023
 20
106.2949563376007
 30
0.0
 10
51.07423653791943
 20
110.3042820600811
 30
0.0
 10
52.34992409105962
 20
114.3461699896188
 30
0.0
 10
55.19508381528885
 20
117.0304986271028
 30
0.0
 10
59.12752224614632
 20
118.4185257658664
 30
0.0
 10
63.70109879460006
 20
118.4715561472537
 30
0.0
 10
68.08966391414242
 20
116.9300277768097
 30
0.0
 10
71.97518574098899
 20
114.3198577017037
 30
0.0
 10
72.79827655845611
 20
109.9336107195804
 30
0.0
 10
72.67272065348334
 20
105.8939456911771
 30
0.0
 10
71.10115615538461
 20
103.7250997966628
 30
0.0
 10
70.65056654631622
 20
102.668076416696
 30
0.0
  0
SPLINE
  5
38F0
102
{ACAD_REACTORS
330
3988
102
}
330
2
100
AcDbEntity
  8
KIJUN
100
AcDbSpline
210
0.0
220
0.0
230
1.0
 70
     8
 71
     3
 72
    10
 73
     6
 74
     4
 42
0.0000000001
 43
0.0000000001
 44
0.0000000001
 40
0.0
 40
0.0
 40
0.0
 40
0.0
 40
1.679068300682574
 40
4.753648354941246
 40
9.88820266255103
 40
9.88820266255103
 40
9.88820266255103
 40
9.88820266255103
 10
59.70625612607978
 20
90.25683235369319
 30
0.0
 10
59.89423446235008
 20
90.79692629122721
 30
0.0
 10
60.42642419436555
 20
92.32599848955805
 30
0.0
 10
59.01013553550353
 20
95.62845885744275
 30
0.0
 10
57.00748701792623
 20
97.47628664170875
 30
0.0
 10
55.75489361169343
 20
98.63204456832944
 30
0.0
 11
59.70625612607978
 21
90.25683235369319
 31
0.0
 11
60.11884780822993
 21
91.88441905251375
 31
0.0
 11
59.18920003297535
 21
94.81508408352794
 31
0.0
 11
55.75489361169343
 21
98.63204456832944
 31
0.0
  0
SPLINE
  5
38F1
102
{ACAD_REACTORS
330
3988
102
}
330
2
100
AcDbEntity
  8
KIJUN
100
AcDbSpline
210
0.0
220
0.0
230
1.0
 70
     8
 71
     3
 72
    12
 73
     8
 74
     6
 42
0.0000000001
 43
0.0000000001
 44
0.0000000001
 40
0.0
 40
0.0
 40
0.0
 40
0.0
 40
4.750532724615671
 40
7.838786658774177
 40
9.870981764174119
 40
11.83773960780457
 40
15.43636683672265
 40
15.43636683672265
 40
15.43636683672265
 40
15.43636683672265
 10
57.88720072758156
 20
99.01071258984757
 30
0.0
 10
59.41202351842116
 20
98.6615386620835
 30
0.0
 10
61.92811197475226
 20
98.08537171719205
 30
0.0
 10
65.4001549210991
 20
97.83969882014066
 30
0.0
 10
67.33600580661278
 20
99.85367350414831
 30
0.0
 10
66.16358982853956
 20
102.6700093822917
 30
0.0
 10
64.13102901539435
 20
102.7711910212154
 30
0.0
 10
62.81675721007127
 20
102.8366159641711
 30
0.0
 11
57.88720072758156
 21
99.01071258984757
 31
0.0
 11
62.55023482948672
 21
98.10314764334851
 31
0.0
 11
65.62522475533342
 21
98.38906601944007
 31
0.0
 11
66.91242969980521
 21
99.96161820532734
 31
0.0
 11
66.26882765992377
 21
101.8200887673063
 31
0.0
 11
62.81675721007127
 21
102.8366159641711
 31
0.0
  0
SPLINE
  5
38F2
102
{ACAD_REACTORS
330
3988
102
}
330
2
100
AcDbEntity
  8
KIJUN
100
AcDbSpline
210
0.0
220
0.0
230
1.0
 70
     8
 71
     3
 72
     9
 73
     5
 74
     3
 42
0.0000000001
 43
0.0000000001
 44
0.0000000001
 40
0.0
 40
0.0
 40
0.0
 40
0.0
 40
3.298286046548717
 40
11.54359994114996
 40
11.54359994114996
 40
11.54359994114996
 40
11.54359994114996
 10
77.7397408214656
 20
113.2233476583072
 30
0.0
 10
76.6753102125067
 20
113.5032792665088
 30
0.0
 10
72.94993256438147
 20
114.4830058427838
 30
0.0
 10
69.44136243047172
 20
116.0928741762752
 30
0.0
 10
66.9352757484321
 20
117.2427641418221
 30
0.0
 11
77.7397408214656
 21
113.2233476583072
 31
0.0
 11
74.5641487975006
 21
114.114586202238
 31
0.0
 11
66.9352757484321
 21
117.2427641418221
 31
0.0
  0
SPLINE
  5
38F3
102
{ACAD_REACTORS
330
3988
102
}
330
2
100
AcDbEntity
  8
KIJUN
100
AcDbSpline
210
0.0
220
0.0
230
1.0
 70
     8
 71
     3
 72
    10
 73
     6
 74
     4
 42
0.0000000001
 43
0.0000000001
 44
0.0000000001
 40
0.0
 40
0.0
 40
0.0
 40
0.0
 40
2.838553167207353
 40
6.972206244679009
 40
11.06087512908195
 40
11.06087512908195
 40
11.06087512908195
 40
11.06087512908195
 10
97.73974082146583
 20
108.2233476583071
 30
0.0
 10
98.38647063471137
 20
108.9169614691782
 30
0.0
 10
99.9750030231911
 20
110.6206528424521
 30
0.0
 10
100.9266161609617
 20
114.5985486146225
 30
0.0
 10
99.46603566371834
 20
117.0194962992098
 30
0.0
 10
98.73974082146629
 20
118.2233476583072
 30
0.0
 11
97.73974082146583
 21
108.2233476583071
 31
0.0
 11
99.51605578285876
 21
110.4374138815702
 31
0.0
 11
100.3825443484479
 21
114.479230964343
 31
0.0
 11
98.73974082146629
 21
118.2233476583072
 31
0.0
  0
ARC
  5
38F4
102
{ACAD_REACTORS
330
3988
102
}
330
2
100
AcDbEntity
  8
KIJUN
100
AcDbCircle
 10
105.2143901644367
 20
106.6746654917996
 30
0.0
 40
9.876979652603196
100
AcDbArc
 50
75.1860909300825
 51
120.3242154186375
  0
ARC
  5
38F5
102
{ACAD_REACTORS
330
3988
102
}
330
2
100
AcDbEntity
  8
KIJUN
100
AcDbCircle
 10
105.9566274998883
 20
117.1404649798104
 30
0.0
 40
9.093650226560564
100
AcDbArc
 50
225.8150098518108
 51
281.3080163249119
  0
ARC
  5
38F6
102
{ACAD_REACTORS
330
3988
102
}
330
2
100
AcDbEntity
  8
KIJUN
100
AcDbCircle
 10
104.1840311490723
 20
106.0501806890527
 30
0.0
 40
7.884912070642775
100
AcDbArc
 50
54.96601988457298
 51
118.821268019814
  0
ARC
  5
38F7
102
{ACAD_REACTORS
330
3988
102
}
330
2
100
AcDbEntity
  8
KIJUN
100
AcDbCircle
 10
104.9093107703199
 20
119.4146298195619
 30
0.0
 40
7.884912070642775
100
AcDbArc
 50
234.9660198845729
 51
298.8212680198141
  0
SPLINE
  5
38F8
102
{ACAD_REACTORS
330
3988
102
}
330
2
100
AcDbEntity
  8
KIJUN
100
AcDbSpline
210
0.0
220
0.0
230
1.0
 70
     8
 71
     3
 72
    12
 73
     8
 74
     6
 42
0.0000000001
 43
0.0000000001
 44
0.0000000001
 40
0.0
 40
0.0
 40
0.0
 40
0.0
 40
2.043409790124058
 40
3.776587578557873
 40
5.508470084182633
 40
7.766447981317909
 40
8.67910855213444
 40
8.67910855213444
 40
8.67910855213444
 40
8.67910855213444
 10
92.28594918414614
 20
116.8304468877985
 30
0.0
 10
92.76723052943424
 20
116.3066347927467
 30
0.0
 10
93.65672472643348
 20
115.3385361464391
 30
0.0
 10
95.64268378412526
 20
115.312164418809
 30
0.0
 10
97.03840215243543
 20
113.8063317297762
 30
0.0
 10
97.30029805665669
 20
111.9887947008398
 30
0.0
 10
96.75932142122718
 20
111.0680138419406
 30
0.0
 10
96.60360261257711
 20
110.8029693113913
 30
0.0
 11
92.28594918414614
 21
116.8304468877985
 31
0.0
 11
93.86799713171923
 21
115.5371380066898
 31
0.0
 11
95.54202445661667
 21
115.0882084333523
 31
0.0
 11
96.76692192978226
 21
113.8638542388801
 31
0.0
 11
97.01190177029889
 21
111.6192052548089
 31
0.0
 11
96.60360261257711
 21
110.8029693113913
 31
0.0
  0
SPLINE
  5
38F9
102
{ACAD_REACTORS
330
3988
102
}
330
2
100
AcDbEntity
  8
KIJUN
100
AcDbSpline
210
0.0
220
0.0
230
1.0
 70
     8
 71
     3
 72
    13
 73
     9
 74
     7
 42
0.0000000001
 43
0.0000000001
 44
0.0000000001
 40
0.0
 40
0.0
 40
0.0
 40
0.0
 40
1.300252800883378
 40
2.726279451585145
 40
3.518716173624111
 40
6.362274767887666
 40
11.61536619441314
 40
19.91625610893355
 40
19.91625610893355
 40
19.91625610893355
 40
19.91625610893355
 10
89.2122395407623
 20
113.8952876930175
 30
0.0
 10
89.43008222144101
 20
113.4931487719965
 30
0.0
 10
89.88683957171099
 20
112.64997190953
 30
0.0
 10
91.40814357268141
 20
112.6710062039444
 30
0.0
 10
91.68855333442184
 20
110.7033619073356
 30
0.0
 10
88.31713665665541
 20
109.1491078681824
 30
0.0
 10
83.14929322314673
 20
109.0971037553444
 30
0.0
 10
78.60452767103459
 20
109.7500784123916
 30
0.0
 10
75.82116848039277
 20
110.1499808918723
 30
0.0
 11
89.2122395407623
 21
113.8952876930175
 31
0.0
 11
90.0299836655995
 21
112.8843713302558
 31
0.0
 11
91.33654166207657
 21
112.3130061139943
 31
0.0
 11
91.49986184399063
 21
111.5375820515514
 31
0.0
 11
89.29504500875827
 21
109.7418626408176
 31
0.0
 11
84.06881475226828
 21
109.2113093055309
 31
0.0
 11
75.82116848039277
 21
110.1499808918723
 31
0.0
  0
ARC
  5
38FA
102
{ACAD_REACTORS
330
3988
102
}
330
2
100
AcDbEntity
  8
KIJUN
100
AcDbCircle
 10
80.98609833601017
 20
111.5400831867864
 30
0.0
 40
8.617879938161454
100
AcDbArc
 50
229.7063429260889
 51
271.7651259959703
  0
SPLINE
  5
38FB
102
{ACAD_REACTORS
330
3988
102
}
330
2
100
AcDbEntity
  8
KIJUN
100
AcDbSpline
210
0.0
220
0.0
230
1.0
 70
     8
 71
     3
 72
     9
 73
     5
 74
     3
 42
0.0000000001
 43
0.0000000001
 44
0.0000000001
 40
0.0
 40
0.0
 40
0.0
 40
0.0
 40
3.554775320166592
 40
8.775508189224474
 40
8.775508189224474
 40
8.775508189224474
 40
8.775508189224474
 10
44.73974082145196
 20
118.2233476582805
 30
0.0
 10
44.33695575802937
 20
117.0965356445324
 30
0.0
 10
43.34261904073827
 20
114.3148273328239
 30
0.0
 10
43.58857837062276
 20
111.3541713737216
 30
0.0
 10
43.73490470640763
 20
109.5928153876789
 30
0.0
 11
44.73974082145196
 21
118.2233476582805
 31
0.0
 11
43.73490470640763
 21
114.8135482567368
 31
0.0
 11
43.73490470640763
 21
109.5928153876789
 31
0.0
  0
SPLINE
  5
38FC
102
{ACAD_REACTORS
330
3988
102
}
330
2
100
AcDbEntity
  8
KIJUN
100
AcDbSpline
210
0.0
220
0.0
230
1.0
 70
     8
 71
     3
 72
     9
 73
     5
 74
     3
 42
0.0000000001
 43
0.0000000001
 44
0.0000000001
 40
0.0
 40
0.0
 40
0.0
 40
0.0
 40
1.903270086527242
 40
6.366034543970338
 40
6.366034543970338
 40
6.366034543970338
 40
6.366034543970338
 10
38.7397408214656
 20
118.2233476583072
 30
0.0
 10
38.61574175649236
 20
117.5950126410602
 30
0.0
 10
38.2009911981624
 20
115.4933653481743
 30
0.0
 10
38.84721625685126
 20
113.414360424685
 30
0.0
 10
39.30023771055312
 20
111.956921069728
 30
0.0
 11
38.7397408214656
 21
118.2233476583072
 31
0.0
 11
38.46257854283976
 21
116.340366486448
 31
0.0
 11
39.30023771055312
 21
111.956921069728
 31
0.0
  0
SPLINE
  5
38FD
102
{ACAD_REACTORS
330
3988
102
}
330
2
100
AcDbEntity
  8
KIJUN
100
AcDbSpline
210
0.0
220
0.0
230
1.0
 70
     8
 71
     3
 72
    10
 73
     6
 74
     4
 42
0.0000000001
 43
0.0000000001
 44
0.0000000001
 40
0.0
 40
0.0
 40
0.0
 40
0.0
 40
1.256965886039468
 40
4.369619398091235
 40
7.622235423781273
 40
7.622235423781273
 40
7.622235423781273
 40
7.622235423781273
 10
34.75672949384625
 20
119.2360528802958
 30
0.0
 10
34.49130869286057
 20
118.90959911123
 30
0.0
 10
33.56862026231119
 20
117.7747403710421
 30
0.0
 10
33.38086630006529
 20
114.8519460701526
 30
0.0
 10
34.88523330555876
 20
113.2619310701669
 30
0.0
 10
35.65395616977912
 20
112.4494425746875
 30
0.0
 11
34.75672949384625
 21
119.2360528802958
 31
0.0
 11
34.02791154698503
 21
118.2119495461542
 31
0.0
 11
33.78154125440528
 21
115.1090616066658
 31
0.0
 11
35.65395616977912
 21
112.4494425746875
 31
0.0
  0
ARC
  5
38FE
102
{ACAD_REACTORS
330
3988
102
}
330
2
100
AcDbEntity
  8
KIJUN
100
AcDbCircle
 10
38.42300529298654
 20
68.97699014376257
 30
0.0
 40
8.617879938161454
100
AcDbArc
 50
358.2348740040298
 51
40.2936570739044
  0
SPLINE
  5
38FF
102
{ACAD_REACTORS
330
3988
102
}
330
2
100
AcDbEntity
  8
KIJUN
100
AcDbSpline
210
0.0
220
0.0
230
1.0
 70
     8
 71
     3
 72
    13
 73
     9
 74
     7
 42
0.0000000001
 43
0.0000000001
 44
0.0000000001
 40
0.0
 40
0.0
 40
0.0
 40
0.0
 40
1.300252800883378
 40
2.726279451585054
 40
3.518716173624242
 40
6.362274767887726
 40
11.61536619441321
 40
19.91625610893364
 40
19.91625610893364
 40
19.91625610893364
 40
19.91625610893364
 10
36.06780078675547
 20
60.75084893901044
 30
0.0
 10
36.46993970777646
 20
60.53300625833172
 30
0.0
 10
37.31311657024298
 20
60.07624890806175
 30
0.0
 10
37.29208227582842
 20
58.55494490709128
 30
0.0
 10
39.25972657243728
 20
58.27453514535093
 30
0.0
 10
40.81398061159041
 20
61.64595182311735
 30
0.0
 10
40.86598472442864
 20
66.81379525662603
 30
0.0
 10
40.21301006738133
 20
71.35856080873818
 30
0.0
 10
39.8131075879005
 20
74.14191999937997
 30
0.0
 11
36.06780078675547
 21
60.75084893901044
 31
0.0
 11
37.07871714951716
 21
59.93310481417324
 31
0.0
 11
37.65008236577842
 21
58.62654681769618
 31
0.0
 11
38.42550642822152
 21
58.46322663578212
 31
0.0
 11
40.2212258389552
 21
60.66804347101447
 31
0.0
 11
40.75177917424207
 21
65.89427372750447
 31
0.0
 11
39.8131075879005
 21
74.14191999937997
 31
0.0
  0
SPLINE
  5
3903
102
{ACAD_REACTORS
330
3988
102
}
330
2
100
AcDbEntity
  8
KIJUN
100
AcDbSpline
210
0.0
220
0.0
230
1.0
 70
     8
 71
     3
 72
     9
 73
     5
 74
     3
 42
0.0000000001
 43
0.0000000001
 44
0.0000000001
 40
0.0
 40
0.0
 40
0.0
 40
0.0
 40
1.903270086527242
 40
6.366034543970338
 40
6.366034543970338
 40
6.366034543970338
 40
6.366034543970338
 10
31.7397408214656
 20
111.2233476583071
 30
0.0
 10
32.36807583871263
 20
111.3473467232804
 30
0.0
 10
34.46972313159859
 20
111.7620972816103
 30
0.0
 10
36.54872805508791
 20
111.1158722229214
 30
0.0
 10
38.00616741004478
 20
110.6628507692196
 30
0.0
 11
31.7397408214656
 21
111.2233476583071
 31
0.0
 11
33.62272199332483
 21
111.500509936933
 31
0.0
 11
38.00616741004478
 21
110.6628507692196
 31
0.0
  0
SPLINE
  5
3904
102
{ACAD_REACTORS
330
3988
102
}
330
2
100
AcDbEntity
  8
KIJUN
100
AcDbSpline
210
0.0
220
0.0
230
1.0
 70
     8
 71
     3
 72
     9
 73
     5
 74
     3
 42
0.0000000001
 43
0.0000000001
 44
0.0000000001
 40
0.0
 40
0.0
 40
0.0
 40
0.0
 40
3.554775320166592
 40
8.775508189224474
 40
8.775508189224474
 40
8.775508189224474
 40
8.775508189224474
 10
31.73974082149243
 20
105.2233476583208
 30
0.0
 10
32.86655283524061
 20
105.6261327217433
 30
0.0
 10
35.64826114694904
 20
106.6204694390344
 30
0.0
 10
38.60891710605137
 20
106.37451010915
 30
0.0
 10
40.37027309209406
 20
106.2281837733651
 30
0.0
 11
31.73974082149243
 21
105.2233476583208
 31
0.0
 11
35.14954022303618
 21
106.2281837733651
 31
0.0
 11
40.37027309209406
 21
106.2281837733651
 31
0.0
  0
SPLINE
  5
3905
102
{ACAD_REACTORS
330
3988
102
}
330
2
100
AcDbEntity
  8
KIJUN
100
AcDbSpline
210
0.0
220
0.0
230
1.0
 70
     8
 71
     3
 72
     9
 73
     5
 74
     3
 42
0.0000000001
 43
0.0000000001
 44
0.0000000001
 40
0.0
 40
0.0
 40
0.0
 40
0.0
 40
3.298286046548717
 40
11.54359994114992
 40
11.54359994114992
 40
11.54359994114992
 40
11.54359994114992
 10
36.7397408214656
 20
72.22334765830715
 30
0.0
 10
36.45980921326412
 20
73.28777826726602
 30
0.0
 10
35.4800826369891
 20
77.01315591539125
 30
0.0
 10
33.87021430349768
 20
80.52172604930104
 30
0.0
 10
32.72032433795085
 20
83.02781273134064
 30
0.0
 11
36.7397408214656
 21
72.22334765830715
 31
0.0
 11
35.84850227753487
 21
75.39893968227215
 31
0.0
 11
32.72032433795085
 21
83.02781273134064
 31
0.0
  0
SPLINE
  5
3906
102
{ACAD_REACTORS
330
3988
102
}
330
2
100
AcDbEntity
  8
KIJUN
100
AcDbSpline
210
0.0
220
0.0
230
1.0
 70
     8
 71
     3
 72
    20
 73
    16
 74
     0
 42
0.0000000001
 43
0.0000000001
 40
0.0
 40
0.0
 40
0.0
 40
0.0
 40
2.302488909262619
 40
5.789613645120237
 40
9.140476789306392
 40
13.78231166546171
 40
17.69301007249245
 40
21.2827909579658
 40
25.10760089554747
 40
29.97090112591266
 40
34.65181569174334
 40
39.07377039828995
 40
43.07994722000349
 40
47.39013510305229
 40
50.84017662933277
 40
50.84017662933277
 40
50.84017662933277
 40
50.84017662933277
 10
46.35600874451052
 20
90.63086557911061
 30
0.0
 10
46.92712879357213
 20
91.20913011419247
 30
0.0
 10
48.36321146730234
 20
92.66317761441291
 30
0.0
 10
47.08433766976168
 20
96.20158988181447
 30
0.0
 10
43.668132142172
 20
98.04312797593253
 30
0.0
 10
39.6588064196917
 20
98.88885194185332
 30
0.0
 10
35.61691849015415
 20
97.61316438871313
 30
0.0
 10
32.93258985266994
 20
94.7680046644839
 30
0.0
 10
31.54456271390654
 20
90.83556623362643
 30
0.0
 10
31.491532332519
 20
86.2619896851727
 30
0.0
 10
33.03306070296321
 20
81.87342456563033
 30
0.0
 10
35.64323077806921
 20
77.98790273878376
 30
0.0
 10
40.02947776019254
 20
77.16481192131664
 30
0.0
 10
44.06914278859585
 20
77.29036782628941
 30
0.0
 10
46.23798868310996
 20
78.86193232438813
 30
0.0
 10
47.29501206307668
 20
79.31252193345653
 30
0.0
  0
SPLINE
  5
3907
102
{ACAD_REACTORS
330
3988
102
}
330
2
100
AcDbEntity
  8
KIJUN
100
AcDbSpline
210
0.0
220
0.0
230
1.0
 70
     8
 71
     3
 72
    12
 73
     8
 74
     6
 42
0.0000000001
 43
0.0000000001
 44
0.0000000001
 40
0.0
 40
0.0
 40
0.0
 40
0.0
 40
4.750532724615649
 40
7.838786658774155
 40
9.870981764174011
 40
11.83773960780468
 40
15.43636683672272
 40
15.43636683672272
 40
15.43636683672272
 40
15.43636683672272
 10
50.9523758899254
 20
92.0758877521912
 30
0.0
 10
51.30154981768942
 20
90.55106496135158
 30
0.0
 10
51.8777167625808
 20
88.03497650502052
 30
0.0
 10
52.12338965963215
 20
84.56293355867364
 30
0.0
 10
50.10941497562464
 20
82.62708267315998
 30
0.0
 10
47.29307909748103
 20
83.79949865123306
 30
0.0
 10
47.19189745855738
 20
85.83205946437841
 30
0.0
 10
47.12647251560179
 20
87.14633126970147
 30
0.0
 11
50.9523758899254
 21
92.0758877521912
 31
0.0
 11
51.85994083642436
 21
87.41285365028602
 31
0.0
 11
51.5740224603328
 21
84.33786372443933
 31
0.0
 11
50.00147027444564
 21
83.05065877996753
 31
0.0
 11
48.14299971246646
 21
83.69426081984897
 31
0.0
 11
47.12647251560179
 21
87.14633126970147
 31
0.0
  0
SPLINE
  5
3908
102
{ACAD_REACTORS
330
3988
102
}
330
2
100
AcDbEntity
  8
KIJUN
100
AcDbSpline
210
0.0
220
0.0
230
1.0
 70
     8
 71
     3
 72
    10
 73
     6
 74
     4
 42
0.0000000001
 43
0.0000000001
 44
0.0000000001
 40
0.0
 40
0.0
 40
0.0
 40
0.0
 40
1.679068300682354
 40
4.753648354941134
 40
9.888202662550918
 40
9.888202662550918
 40
9.888202662550918
 40
9.888202662550918
 10
59.70625612607955
 20
90.25683235369298
 30
0.0
 10
59.16616218854563
 20
90.06885401742266
 30
0.0
 10
57.6370899902148
 20
89.53666428540717
 30
0.0
 10
54.33462962233011
 20
90.95295294426916
 30
0.0
 10
52.48680183806413
 20
92.95560146184655
 30
0.0
 10
51.33104391144343
 20
94.20819486807932
 30
0.0
 11
59.70625612607955
 21
90.25683235369298
 31
0.0
 11
58.07866942725922
 21
89.84424067154282
 31
0.0
 11
55.14800439624491
 21
90.7738884467974
 31
0.0
 11
51.33104391144343
 21
94.20819486807932
 31
0.0
  0
SPLINE
  5
3909
102
{ACAD_REACTORS
330
3988
102
}
330
2
100
AcDbEntity
  8
KIJUN
100
AcDbSpline
210
0.0
220
0.0
230
1.0
 70
     8
 71
     3
 72
    18
 73
    14
 74
    12
 42
0.0000000001
 43
0.0000000001
 44
0.0000000001
 40
0.0
 40
0.0
 40
0.0
 40
0.0
 40
4.619675220917303
 40
14.14063077092823
 40
21.72801653777056
 40
26.78993032250942
 40
32.46993392882738
 40
36.31751847891464
 40
40.63541158046709
 40
44.94012384755881
 40
48.33205570912197
 40
51.00086293295481
 40
52.21613600553861
 40
52.21613600553861
 40
52.21613600553861
 40
52.21613600553861
 10
29.73974082146583
 20
97.22334765830737
 30
0.0
 10
30.7014948342781
 20
98.48342944281384
 30
0.0
 10
33.64538325441163
 20
102.340486574276
 30
0.0
 10
41.35566367689614
 20
103.0679545258947
 30
0.0
 10
49.62837497383095
 20
102.0679046814776
 30
0.0
 10
51.7967483282548
 20
95.59539416683568
 30
0.0
 10
50.85888188077621
 20
90.67311221560354
 30
0.0
 10
47.8215052011638
 20
86.89495648562342
 30
0.0
 10
43.14591004884329
 20
86.17157909318875
 30
0.0
 10
39.82411666449275
 20
89.59455547494913
 30
0.0
 10
40.93173029925742
 20
93.73456978024382
 30
0.0
 10
43.84747379907486
 20
94.05310571811034
 30
0.0
 10
44.94150697144675
 20
93.35286133355404
 30
0.0
 10
45.28381427547538
 20
93.13376489891949
 30
0.0
 11
29.73974082146583
 21
97.22334765830737
 31
0.0
 11
32.84635765249777
 21
100.6424602642194
 31
0.0
 11
42.13871046239228
 21
102.7162909809678
 31
0.0
 11
49.41091814630431
 21
100.5521703334686
 31
0.0
 11
51.28810408424124
 21
95.85119765554964
 31
0.0
 11
50.21590905651419
 21
90.27330927460274
 31
0.0
 11
47.64264255430634
 21
87.41285365028602
 31
0.0
 11
43.35386411947342
 21
86.91227361338247
 31
0.0
 11
40.49467868248211
 21
90.13028640691619
 31
0.0
 11
41.56687315151748
 21
93.34829833574076
 31
0.0
 11
44.21161980644001
 21
93.70585550495775
 31
0.0
 11
45.28381427547538
 21
93.13376489891949
 31
0.0
  0
SPLINE
  5
390A
102
{ACAD_REACTORS
330
3988
102
}
330
2
100
AcDbEntity
  8
KIJUN
100
AcDbSpline
210
0.0
220
0.0
230
1.0
 70
     8
 71
     3
 72
    15
 73
    11
 74
     9
 42
0.0000000001
 43
0.0000000001
 44
0.0000000001
 40
0.0
 40
0.0
 40
0.0
 40
0.0
 40
2.061341394027812
 40
5.916664832693885
 40
9.474398966959846
 40
14.59088247103002
 40
20.09772421006534
 40
23.61899320236494
 40
26.73346382822572
 40
29.24443286346981
 40
29.24443286346981
 40
29.24443286346981
 40
29.24443286346981
 10
44.03876139709018
 20
93.75909906434003
 30
0.0
 10
43.72471213009458
 20
94.40690923805096
 30
0.0
 10
42.82329703255192
 20
96.26631772039237
 30
0.0
 10
39.11565587774345
 20
96.48802208221134
 30
0.0
 10
35.07084112052325
 20
94.99255368819971
 30
0.0
 10
33.16019562821862
 20
90.10689820185252
 30
0.0
 10
33.25405773995607
 20
85.41705310596485
 30
0.0
 10
34.65553847758901
 20
81.42073289109942
 30
0.0
 10
37.4721576720682
 20
79.69324747610592
 30
0.0
 10
39.36422007580524
 20
79.69074162808471
 30
0.0
 10
40.20876030639056
 20
79.68962311874725
 30
0.0
 11
44.03876139709018
 21
93.75909906434003
 31
0.0
 11
42.92498655533608
 21
95.49364048633265
 31
0.0
 11
39.13656583735542
 21
96.2087539600575
 31
0.0
 11
35.84850227753487
 21
94.85003758174253
 31
0.0
 11
33.56115415141858
 21
90.27330927460274
 31
0.0
 11
33.63263374544158
 21
84.76693146279036
 31
0.0
 11
35.06222618459105
 21
81.54891953396576
 31
0.0
 11
37.70697283951381
 21
79.90415742027744
 31
0.0
 11
40.20876030639056
 21
79.68962311874725
 31
0.0
  0
ARC
  5
390B
102
{ACAD_REACTORS
330
3988
102
}
330
2
100
AcDbEntity
  8
KIJUN
100
AcDbCircle
 10
39.7776477794373
 20
85.23820737563665
 30
0.0
 40
5.565307293105727
100
AcDbArc
 50
274.442827288074
 51
15.62603301966324
  0
SPLINE
  5
390C
102
{ACAD_REACTORS
330
3988
102
}
330
2
100
AcDbEntity
  8
KIJUN
100
AcDbSpline
210
0.0
220
0.0
230
1.0
 70
     8
 71
     3
 72
    17
 73
    13
 74
    11
 42
0.0000000001
 43
0.0000000001
 44
0.0000000001
 40
0.0
 40
0.0
 40
0.0
 40
0.0
 40
2.949823084141273
 40
5.888453522450511
 40
8.451628579939312
 40
11.53899255072341
 40
14.12231797883799
 40
16.11428112973078
 40
17.74751131390951
 40
19.38074235232496
 40
21.58817462881373
 40
22.24746366121447
 40
22.24746366121447
 40
22.24746366121447
 40
22.24746366121447
 10
43.20996375047821
 20
93.86267052023299
 30
0.0
 10
42.25162912087279
 20
94.05280532470035
 30
0.0
 10
40.33859611366477
 20
94.43235349663158
 30
0.0
 10
37.27987737599744
 20
93.68087547576054
 30
0.0
 10
36.0786668730027
 20
90.88858039005788
 30
0.0
 10
35.30902404480713
 20
88.21846874704137
 30
0.0
 10
35.63759750782196
 20
85.74015040338538
 30
0.0
 10
36.08509212480413
 20
83.44763275344588
 30
0.0
 10
37.95049267128729
 20
82.98362758530075
 30
0.0
 10
39.69739718559288
 20
82.47057711909311
 30
0.0
 10
40.53956557905968
 20
80.82521646636603
 30
0.0
 10
40.27061386523501
 20
79.9019549518633
 30
0.0
 10
40.20876030639056
 20
79.68962311874725
 30
0.0
 11
43.20996375047821
 21
93.86267052023299
 31
0.0
 11
40.28023990041356
 21
94.20643554186131
 31
0.0
 11
37.49253405744503
 21
93.27678776660627
 31
0.0
 11
36.20590024764942
 21
91.05993418217099
 31
0.0
 11
35.4911043074203
 21
88.05645569016746
 31
0.0
 11
35.70554308948909
 21
85.48204580122433
 31
0.0
 11
36.42033958840989
 21
83.62274938600558
 31
0.0
 11
37.92141162158259
 21
82.97914734612437
 31
0.0
 11
39.42248421344698
 21
82.33554444153401
 31
0.0
 11
40.35171949443657
 21
80.33322602333759
 31
0.0
 11
40.20876030639056
 21
79.68962311874725
 31
0.0
  0
ARC
  5
390D
102
{ACAD_REACTORS
330
3988
102
}
330
2
100
AcDbEntity
  8
KIJUN
100
AcDbCircle
 10
56.95589896627097
 20
93.00718951350154
 30
0.0
 40
5.272238596487925
100
AcDbArc
 50
245.1436411389812
 51
315.000000000005
  0
ARC
  5
390E
102
{ACAD_REACTORS
330
3988
102
}
330
2
100
AcDbEntity
  8
KIJUN
100
AcDbCircle
 10
49.23702209353428
 20
87.5584934769281
 30
0.0
 40
5.542737995000655
100
AcDbArc
 50
285.7306192746589
 51
6.889245673382576
  0
ARC
  5
390F
102
{ACAD_REACTORS
330
3988
102
}
330
2
100
AcDbEntity
  8
KIJUN
100
AcDbCircle
 10
45.41951981709098
 20
81.57353182861925
 30
0.0
 40
5.359758590449844
100
AcDbArc
 50
273.4251999393391
 51
6.963657876128313
  0
ARC
  5
3910
102
{ACAD_REACTORS
330
3988
102
}
330
2
100
AcDbEntity
  8
KIJUN
100
AcDbCircle
 10
34.24190038575352
 20
100.3478077672353
 30
0.0
 40
5.480117855903388
100
AcDbArc
 50
117.1671968579254
 51
214.7603162062316
  0
ARC
  5
3911
102
{ACAD_REACTORS
330
3988
102
}
330
2
100
AcDbEntity
  8
KIJUN
100
AcDbCircle
 10
33.58543162606839
 20
108.2233476583071
 30
0.0
 40
3.522296771453999
100
AcDbArc
 50
121.601087462143
 51
238.398912537857
  0
SPLINE
  5
3912
102
{ACAD_REACTORS
330
3988
102
}
330
2
100
AcDbEntity
  8
KIJUN
100
AcDbSpline
210
0.0
220
0.0
230
1.0
 70
     8
 71
     3
 72
    12
 73
     8
 74
     6
 42
0.0000000001
 43
0.0000000001
 44
0.0000000001
 40
0.0
 40
0.0
 40
0.0
 40
0.0
 40
2.043409790124058
 40
3.776587578557843
 40
5.508470084182603
 40
7.766447981317994
 40
8.679108552134625
 40
8.679108552134625
 40
8.679108552134625
 40
8.679108552134625
 10
33.13264159197434
 20
57.6771392956266
 30
0.0
 10
33.6564536870261
 20
57.19585795033849
 30
0.0
 10
34.62455233333384
 20
56.30636375333931
 30
0.0
 10
34.65092406096375
 20
54.3204046956475
 30
0.0
 10
36.15675674999659
 20
52.92468632733729
 30
0.0
 10
37.97429377893298
 20
52.66279042311605
 30
0.0
 10
38.89507463783235
 20
53.20376705854558
 30
0.0
 10
39.1601191683817
 20
53.35948586719564
 30
0.0
 11
33.13264159197434
 21
57.6771392956266
 31
0.0
 11
34.42595047308305
 21
56.09509134805353
 31
0.0
 11
34.87488004642046
 21
54.42106402315608
 31
0.0
 11
36.09923424089266
 21
53.19616654999049
 31
0.0
 11
38.34388322496398
 21
52.95118670947386
 31
0.0
 11
39.1601191683817
 21
53.35948586719564
 31
0.0
  0
ARC
  5
3913
102
{ACAD_REACTORS
330
3988
102
}
330
2
100
AcDbEntity
  8
KIJUN
100
AcDbCircle
 10
30.54845866021083
 20
45.05377770945279
 30
0.0
 40
7.884912070642775
100
AcDbArc
 50
331.1787319801808
 51
35.03398011542073
  0
ARC
  5
3914
102
{ACAD_REACTORS
330
3988
102
}
330
2
100
AcDbEntity
  8
KIJUN
100
AcDbCircle
 10
43.91290779072005
 20
45.77905733070042
 30
0.0
 40
7.884912070642775
100
AcDbArc
 50
151.1787319801808
 51
215.0339801154262
  0
ARC
  5
3915
102
{ACAD_REACTORS
330
3988
102
}
330
2
100
AcDbEntity
  8
KIJUN
100
AcDbCircle
 10
32.82262349996245
 20
44.00646097988442
 30
0.0
 40
9.093650226560564
100
AcDbArc
 50
348.6919836750876
 51
44.18499014820116
  0
ARC
  5
3916
102
{ACAD_REACTORS
330
3988
102
}
330
2
100
AcDbEntity
  8
KIJUN
100
AcDbCircle
 10
43.28842298797326
 20
44.74869831533601
 30
0.0
 40
9.876979652603196
100
AcDbArc
 50
149.6757845813618
 51
194.8139090699184
  0
SPLINE
  5
3917
102
{ACAD_REACTORS
330
3988
102
}
330
2
100
AcDbEntity
  8
KIJUN
100
AcDbSpline
210
0.0
220
0.0
230
1.0
 70
     8
 71
     3
 72
    10
 73
     6
 74
     4
 42
0.0000000001
 43
0.0000000001
 44
0.0000000001
 40
0.0
 40
0.0
 40
0.0
 40
0.0
 40
2.838553167207442
 40
6.972206244678988
 40
11.06087512908182
 40
11.06087512908182
 40
11.06087512908182
 40
11.06087512908182
 10
41.7397408214656
 20
52.22334765830692
 30
0.0
 10
41.04612701059454
 20
51.57661784506139
 30
0.0
 10
39.34243563732048
 20
49.98808545658173
 30
0.0
 10
35.36453986515022
 20
49.03647231881094
 30
0.0
 10
32.94359218056303
 20
50.49705281605442
 30
0.0
 10
31.7397408214656
 20
51.22334765830647
 30
0.0
 11
41.7397408214656
 21
52.22334765830692
 31
0.0
 11
39.52567459820239
 21
50.447032696914
 31
0.0
 11
35.48385751542969
 21
49.58054413132481
 31
0.0
 11
31.7397408214656
 21
51.22334765830647
 31
0.0
  0
ARC
  5
3918
102
{ACAD_REACTORS
330
3988
102
}
330
2
100
AcDbEntity
  8
KIJUN
100
AcDbCircle
 10
20.20601744244004
 20
65.96449331339158
 30
0.0
 40
25.54447741643297
100
AcDbArc
 50
327.4571510648333
 51
358.3373909970618
  0
ARC
  5
391A
102
{ACAD_REACTORS
330
3988
102
}
330
2
100
AcDbEntity
  8
KIJUN
100
AcDbCircle
 10
37.73974082146561
 20
43.92159252180795
 30
0.0
 40
4.34557655742099
100
AcDbArc
 50
203.0041944339764
 51
336.9958055660235
  0
LINE
  5
391C
102
{ACAD_REACTORS
330
3988
102
}
330
2
100
AcDbEntity
  8
KIJUN
100
AcDbLine
 10
42.98553346049539
 20
102.6830898566791
 30
0.0
 11
42.98553346049539
 21
106.9775550192773
 31
0.0
  0
LINE
  5
391D
102
{ACAD_REACTORS
330
3988
102
}
330
2
100
AcDbEntity
  8
KIJUN
100
AcDbLine
 10
47.27999862309434
 20
106.9775550192771
 30
0.0
 11
42.98553346049539
 21
106.9775550192771
 31
0.0
  0
ARC
  5
3922
102
{ACAD_REACTORS
330
3988
102
}
330
2
100
AcDbEntity
  8
KIJUN
100
AcDbCircle
 10
39.76050332524369
 20
117.2604753857738
 30
0.0
 40
12.02015299616005
100
AcDbArc
 50
167.5735406475961
 51
191.2765412453366
  0
ARC
  5
3923
102
{ACAD_REACTORS
330
3988
102
}
330
2
100
AcDbEntity
  8
KIJUN
100
AcDbCircle
 10
30.95910676827544
 20
120.0040481440922
 30
0.0
 40
2.571967820294777
100
AcDbArc
 50
49.36632657122
 51
137.7992324462419
  0
ARC
  5
3926
102
{ACAD_REACTORS
330
3988
102
}
330
2
100
AcDbEntity
  8
KIJUN
100
AcDbCircle
 10
32.35166228574899
 20
118.701331324748
 30
0.0
 40
4.478739433495188
100
AcDbArc
 50
137.4202438048856
 51
165.1782757989614
  0
ARC
  5
3927
102
{ACAD_REACTORS
330
3988
102
}
330
2
100
AcDbEntity
  8
KIJUN
100
AcDbCircle
 10
27.55549717444606
 20
115.8040737345744
 30
0.0
 40
7.977231836585744
100
AcDbArc
 50
25.4816377921476
 51
50.4591817574273
  0
ARC
  5
3928
102
{ACAD_REACTORS
330
3988
102
}
330
2
100
AcDbEntity
  8
KIJUN
100
AcDbCircle
 10
33.22656305156655
 20
116.5109332179601
 30
0.0
 40
5.492649760777986
100
AcDbArc
 50
196.9458917355997
 51
254.2944872506055
  0
ARC
  5
3929
102
{ACAD_REACTORS
330
3988
102
}
330
2
100
AcDbEntity
  8
KIJUN
100
AcDbCircle
 10
49.89722438877856
 20
88.1673650631248
 30
0.0
 40
22.09830229974086
100
AcDbArc
 50
155.8074488207066
 51
204.7159685116105
  0
ARC
  5
392A
102
{ACAD_REACTORS
330
3988
102
}
330
2
100
AcDbEntity
  8
KIJUN
100
AcDbCircle
 10
20.38354869389102
 20
74.945426035422
 30
0.0
 40
10.24533782088314
100
AcDbArc
 50
348.7035897355079
 51
22.87259146917139
  0
ARC
  5
392B
102
{ACAD_REACTORS
330
3988
102
}
330
2
100
AcDbEntity
  8
KIJUN
100
AcDbCircle
 10
45.59670359946855
 20
66.73870554052808
 30
0.0
 40
16.38457778709126
100
AcDbArc
 50
157.7658006043468
 51
165.5318369883077
  0
ARC
  5
392C
102
{ACAD_REACTORS
330
3988
102
}
330
2
100
AcDbEntity
  8
KIJUN
100
AcDbCircle
 10
31.87732853645392
 20
70.57175561867278
 30
0.0
 40
2.161349041003749
100
AcDbArc
 50
173.0773547012921
 51
241.8090376289535
  0
ARC
  5
392D
102
{ACAD_REACTORS
330
3988
102
}
330
2
100
AcDbEntity
  8
KIJUN
100
AcDbCircle
 10
32.7444525253971
 20
72.18792561562857
 30
0.0
 40
3.995445318085282
100
AcDbArc
 50
241.798048672664
 51
0.5079684423429205
  0
ARC
  5
392F
102
{ACAD_REACTORS
330
3988
102
}
330
2
100
AcDbEntity
  8
KIJUN
100
AcDbCircle
 10
-56.01542762803193
 20
65.3124097782661
 30
0.0
 40
93.01226981681741
100
AcDbArc
 50
358.1307784681247
 51
4.261081013367255
  0
ARC
  5
3931
102
{ACAD_REACTORS
330
3988
102
}
330
2
100
AcDbEntity
  8
KIJUN
100
AcDbCircle
 10
34.94451896801626
 20
62.51044545148952
 30
0.0
 40
2.016214617257551
100
AcDbArc
 50
289.7410860875526
 51
353.3943276658276
  0
ARC
  5
3932
102
{ACAD_REACTORS
330
3988
102
}
330
2
100
AcDbEntity
  8
KIJUN
100
AcDbCircle
 10
35.9143946785221
 20
58.86896296825576
 30
0.0
 40
1.76752676502341
100
AcDbArc
 50
99.40576013964687
 51
166.9585566572002
  0
ARC
  5
3933
102
{ACAD_REACTORS
330
3988
102
}
330
2
100
AcDbEntity
  8
KIJUN
100
AcDbCircle
 10
31.89364352273008
 20
59.63128706877741
 30
0.0
 40
2.327371367411619
100
AcDbArc
 50
289.1071962417681
 51
351.0151946301634
  0
ARC
  5
3934
102
{ACAD_REACTORS
330
3988
102
}
330
2
100
AcDbEntity
  8
KIJUN
100
AcDbCircle
 10
33.39037109023771
 20
54.29871869256434
 30
0.0
 40
3.218442322093757
100
AcDbArc
 50
103.1992627059681
 51
149.6339142459685
  0
ARC
  5
3935
102
{ACAD_REACTORS
330
3988
102
}
330
2
100
AcDbEntity
  8
KIJUN
100
AcDbCircle
 10
35.19048495471341
 20
54.53591425724146
 30
0.0
 40
4.783380869794868
100
AcDbArc
 50
163.1092361711737
 51
223.8295838233264
  0
ARC
  5
3936
102
{ACAD_REACTORS
330
3988
102
}
330
2
100
AcDbEntity
  8
KIJUN
100
AcDbCircle
 10
50.7933388733966
 20
45.32352481916126
 30
0.0
 40
19.94611511693081
100
AcDbArc
 50
162.7952006592419
 51
177.6573465118966
  0
ARC
  5
3937
102
{ACAD_REACTORS
330
3988
102
}
330
2
100
AcDbEntity
  8
KIJUN
100
AcDbCircle
 10
36.95717740643726
 20
52.9315424222413
 30
0.0
 40
11.18111502850503
100
AcDbArc
 50
244.8178426100201
 51
253.2763218675362
  0
ARC
  5
3938
102
{ACAD_REACTORS
330
3988
102
}
330
2
100
AcDbEntity
  8
KIJUN
100
AcDbCircle
 10
33.25207516672238
 20
44.83818193484295
 30
0.0
 40
2.282243475991269
100
AcDbArc
 50
198.083085020313
 51
242.5392929215226
  0
ARC
  5
3939
102
{ACAD_REACTORS
330
3988
102
}
330
2
100
AcDbEntity
  8
KIJUN
100
AcDbCircle
 10
37.74811972513158
 20
45.87168354375984
 30
0.0
 40
6.88940747329863
100
AcDbArc
 50
177.7776789615953
 51
194.6454832206361
  0
ARC
  5
393A
102
{ACAD_REACTORS
330
3988
102
}
330
2
100
AcDbEntity
  8
KIJUN
100
AcDbCircle
 10
30.06864084702661
 20
40.09788337152005
 30
0.0
 40
16.82977892853908
100
AcDbArc
 50
24.95023196347161
 51
46.09385515641485
  0
ARC
  5
393B
102
{ACAD_REACTORS
330
3988
102
}
330
2
100
AcDbEntity
  8
KIJUN
100
AcDbCircle
 10
46.34908912723992
 20
49.79204124040744
 30
0.0
 40
8.861783925580159
100
AcDbArc
 50
238.6585084020222
 51
250.3850654196495
  0
ARC
  5
393C
102
{ACAD_REACTORS
330
3988
102
}
330
2
100
AcDbEntity
  8
KIJUN
100
AcDbCircle
 10
39.06712216674495
 20
44.95626968781982
 30
0.0
 40
6.649626483978043
100
AcDbArc
 50
334.1685394707767
 51
19.69429282538174
  0
ARC
  5
393D
102
{ACAD_REACTORS
330
3988
102
}
330
2
100
AcDbEntity
  8
KIJUN
100
AcDbCircle
 10
43.88356817616347
 20
42.65224884534525
 30
0.0
 40
1.310756539547007
100
AcDbArc
 50
247.1328533972858
 51
333.0824268307956
  0
ARC
  5
393E
102
{ACAD_REACTORS
330
3988
102
}
330
2
100
AcDbEntity
  8
KIJUN
100
AcDbCircle
 10
35.17663653561566
 20
67.67963365616239
 30
0.0
 40
13.5858095490915
100
AcDbArc
 50
8.728614170533633
 51
38.96683458329669
  0
ARC
  5
393F
102
{ACAD_REACTORS
330
3988
102
}
330
2
100
AcDbEntity
  8
KIJUN
100
AcDbCircle
 10
49.87994007437286
 20
71.94173099781903
 30
0.0
 40
7.891636367092506
100
AcDbArc
 50
238.3565757829552
 51
247.8009422238935
  0
ARC
  5
3940
102
{ACAD_REACTORS
330
3988
102
}
330
2
100
AcDbEntity
  8
KIJUN
100
AcDbCircle
 10
36.23216010023087
 20
68.31299772174664
 30
0.0
 40
12.45510991368982
100
AcDbArc
 50
349.6759555007256
 51
6.585127587559367
  0
ARC
  5
3941
102
{ACAD_REACTORS
330
3988
102
}
330
2
100
AcDbEntity
  8
KIJUN
100
AcDbCircle
 10
43.88068713532374
 20
67.23102396198836
 30
0.0
 40
4.746399088593478
100
AcDbArc
 50
333.853375488513
 51
345.9762110315217
  0
ARC
  5
3942
102
{ACAD_REACTORS
330
3988
102
}
330
2
100
AcDbEntity
  8
KIJUN
100
AcDbCircle
 10
47.26606304024291
 20
65.51267883601433
 30
0.0
 40
0.9515785016034177
100
AcDbArc
 50
247.2631185688995
 51
336.9058897689222
  0
ARC
  5
3943
102
{ACAD_REACTORS
330
3988
102
}
330
2
100
AcDbEntity
  8
KIJUN
100
AcDbCircle
 10
81.82560200490815
 20
113.9210029931496
 30
0.0
 40
12.62638784733381
100
AcDbArc
 50
230.1788054813888
 51
272.868915195326
  0
ARC
  5
3945
102
{ACAD_REACTORS
330
3988
102
}
330
2
100
AcDbEntity
  8
KIJUN
100
AcDbCircle
 10
77.66404737245854
 20
99.88019176753937
 30
0.0
 40
8.302315392458082
100
AcDbArc
 50
23.11401596656811
 51
31.54216263702707
  0
ARC
  5
3946
102
{ACAD_REACTORS
330
3988
102
}
330
2
100
AcDbEntity
  8
KIJUN
100
AcDbCircle
 10
82.23228012466069
 20
108.8554890116569
 30
0.0
 40
7.548411336515858
100
AcDbArc
 50
271.710277516078
 51
284.9438748613119
  0
ARC
  5
3947
102
{ACAD_REACTORS
330
3988
102
}
330
2
100
AcDbEntity
  8
KIJUN
100
AcDbCircle
 10
83.28046542127264
 20
104.6754896392391
 30
0.0
 40
3.24014128827383
100
AcDbArc
 50
286.0964200526325
 51
299.4808602918397
  0
ARC
  5
3948
102
{ACAD_REACTORS
330
3988
102
}
330
2
100
AcDbEntity
  8
KIJUN
100
AcDbCircle
 10
84.36671874791546
 20
102.7355184878641
 30
0.0
 40
1.016817328896797
100
AcDbArc
 50
299.9946504478708
 51
23.40128446968435
  0
ARC
  5
3949
102
{ACAD_REACTORS
330
3988
102
}
330
2
100
AcDbEntity
  8
KIJUN
100
AcDbCircle
 10
104.6395636606112
 20
99.1697496063762
 30
0.0
 40
19.94611511693081
100
AcDbArc
 50
92.34265348810389
 51
107.2047993407573
  0
ARC
  5
394A
102
{ACAD_REACTORS
330
3988
102
}
330
2
100
AcDbEntity
  8
KIJUN
100
AcDbCircle
 10
97.0315460575312
 20
113.0059110733355
 30
0.0
 40
11.18111502850503
100
AcDbArc
 50
16.72367813246413
 51
25.18215738997919
  0
ARC
  5
394B
102
{ACAD_REACTORS
330
3988
102
}
330
2
100
AcDbEntity
  8
KIJUN
100
AcDbCircle
 10
105.1249065449295
 20
116.7110133130504
 30
0.0
 40
2.282243475991268
100
AcDbArc
 50
27.46070707847712
 51
71.91691497968616
  0
ARC
  5
394C
102
{ACAD_REACTORS
330
3988
102
}
330
2
100
AcDbEntity
  8
KIJUN
100
AcDbCircle
 10
104.0914049360126
 20
112.2149687546412
 30
0.0
 40
6.889407473298629
100
AcDbArc
 50
75.35451677936409
 51
92.22232103840534
  0
ARC
  5
394D
102
{ACAD_REACTORS
330
3988
102
}
330
2
100
AcDbEntity
  8
KIJUN
100
AcDbCircle
 10
109.8652051082525
 20
119.8944476327464
 30
0.0
 40
16.82977892853908
100
AcDbArc
 50
223.9061448435859
 51
245.0497680365278
  0
ARC
  5
394E
102
{ACAD_REACTORS
330
3988
102
}
330
2
100
AcDbEntity
  8
KIJUN
100
AcDbCircle
 10
100.1710472393651
 20
103.6139993525331
 30
0.0
 40
8.861783925580157
100
AcDbArc
 50
19.61493458035123
 51
31.34149159797754
  0
ARC
  5
394F
102
{ACAD_REACTORS
330
3988
102
}
330
2
100
AcDbEntity
  8
KIJUN
100
AcDbCircle
 10
105.0068187919527
 20
110.8959663130281
 30
0.0
 40
6.649626483978042
100
AcDbArc
 50
250.3057071746187
 51
295.831460529224
  0
ARC
  5
3950
102
{ACAD_REACTORS
330
3988
102
}
330
2
100
AcDbEntity
  8
KIJUN
100
AcDbCircle
 10
107.3108396344273
 20
106.0795203036095
 30
0.0
 40
1.310756539547007
100
AcDbArc
 50
296.9175731692036
 51
22.86714660271423
  0
ARC
  5
3951
102
{ACAD_REACTORS
330
3988
102
}
330
2
100
AcDbEntity
  8
KIJUN
100
AcDbCircle
 10
61.79572341664794
 20
100.0658640909943
 30
0.0
 40
22.09830229974086
100
AcDbArc
 50
65.28403148839005
 51
114.1925511792933
  0
ARC
  5
3952
102
{ACAD_REACTORS
330
3988
102
}
330
2
100
AcDbEntity
  8
KIJUN
100
AcDbCircle
 10
75.01766244435074
 20
129.5795397858818
 30
0.0
 40
10.24533782088314
100
AcDbArc
 50
247.1274085308296
 51
281.2964102644922
  0
ARC
  5
3953
102
{ACAD_REACTORS
330
3988
102
}
330
2
100
AcDbEntity
  8
KIJUN
100
AcDbCircle
 10
83.22438293924466
 20
104.3663848803043
 30
0.0
 40
16.38457778709126
100
AcDbArc
 50
104.4681630116924
 51
112.2341993956524
  0
ARC
  5
3954
102
{ACAD_REACTORS
330
3988
102
}
330
2
100
AcDbEntity
  8
KIJUN
100
AcDbCircle
 10
79.39133286109998
 20
118.0857599433189
 30
0.0
 40
2.161349041003749
100
AcDbArc
 50
28.19096237104643
 51
96.92264529870774
  0
ARC
  5
3955
102
{ACAD_REACTORS
330
3988
102
}
330
2
100
AcDbEntity
  8
KIJUN
100
AcDbCircle
 10
77.77516286414419
 20
117.2186359543758
 30
0.0
 40
3.995445318085282
100
AcDbArc
 50
269.4920315576574
 51
28.2019513273363
  0
ARC
  5
3956
102
{ACAD_REACTORS
330
3988
102
}
330
2
100
AcDbEntity
  8
KIJUN
100
AcDbCircle
 10
84.65067870150697
 20
205.9785161078047
 30
0.0
 40
93.01226981681741
100
AcDbArc
 50
265.7389189866326
 51
271.8692215318755
  0
ARC
  5
3957
102
{ACAD_REACTORS
330
3988
102
}
330
2
100
AcDbEntity
  8
KIJUN
100
AcDbCircle
 10
87.45264302828351
 20
115.0185695117565
 30
0.0
 40
2.016214617257551
100
AcDbArc
 50
276.6056723341718
 51
340.2589139124474
  0
ARC
  5
3958
102
{ACAD_REACTORS
330
3988
102
}
330
2
100
AcDbEntity
  8
KIJUN
100
AcDbCircle
 10
91.09412551151727
 20
114.0486938012507
 30
0.0
 40
1.76752676502341
100
AcDbArc
 50
103.0414433427996
 51
170.5942398603525
  0
ARC
  5
3959
102
{ACAD_REACTORS
330
3988
102
}
330
2
100
AcDbEntity
  8
KIJUN
100
AcDbCircle
 10
90.33180141099562
 20
118.0694449570427
 30
0.0
 40
2.327371367411619
100
AcDbArc
 50
278.9848053698364
 51
340.8928037582323
  0
ARC
  5
395A
102
{ACAD_REACTORS
330
3988
102
}
330
2
100
AcDbEntity
  8
KIJUN
100
AcDbCircle
 10
95.6643697872087
 20
116.5727173895351
 30
0.0
 40
3.218442322093757
100
AcDbArc
 50
120.366085754031
 51
166.8007372940324
  0
ARC
  5
395B
102
{ACAD_REACTORS
330
3988
102
}
330
2
100
AcDbEntity
  8
KIJUN
100
AcDbCircle
 10
95.42717422253158
 20
114.7726035250594
 30
0.0
 40
4.783380869794868
100
AcDbArc
 50
46.17041617667406
 51
106.890763828826
  0
DIMENSION
  5
395C
330
2
100
AcDbEntity
  8
SUNPOU
100
AcDbDimension
  2
*D25
 10
110.7403503290836
 20
140.5411174157011
 30
0.0
 11
69.24035032908363
 21
146.0411174157011
 31
0.0
 70
    32
 71
     5
 42
83.0
  3
STANDARD
100
AcDbAlignedDimension
 13
27.74035032908364
 23
117.2604753857738
 33
0.0
 14
110.7403503290836
 24
112.2233476583072
 34
0.0
100
AcDbRotatedDimension
1001
ACAD
1000
DSTYLE
1002
{
1070
    41
1040
2.0
1070
    42
1040
10.0
1070
    44
1040
0.0
1070
    73
1070
     0
1070
    74
1070
     0
1070
    77
1070
     1
1070
   140
1040
5.0
1070
   141
1040
0.0
1070
   146
1040
0.064286
1070
   147
1040
3.0
1070
   176
1070
    60
1070
   177
1070
    70
1070
   178
1070
    60
1070
   271
1070
     0
1070
   272
1070
     0
1070
   340
1005
1C
1070
   342
1005
109
1002
}
  0
DIMENSION
  5
3969
330
2
100
AcDbEntity
  8
SUNPOU
100
AcDbDimension
  2
*D26
 10
3.789962582177385
 20
39.57601596438697
 30
0.0
 11
-1.710037417822618
 21
81.07601596438696
 31
0.0
 70
    32
 71
     5
 42
82.99999999999998
  3
STANDARD
100
AcDbAlignedDimension
 13
30.95910676827544
 23
122.5760159643869
 33
0.0
 14
37.73974082146561
 24
39.57601596438696
 34
0.0
 50
90.0
100
AcDbRotatedDimension
1001
ACAD
1000
DSTYLE
1002
{
1070
    41
1040
2.0
1070
    42
1040
10.0
1070
    44
1040
0.0
1070
    73
1070
     0
1070
    74
1070
     0
1070
    77
1070
     1
1070
   140
1040
5.0
1070
   141
1040
0.0
1070
   146
1040
0.064286
1070
   147
1040
3.0
1070
   176
1070
    60
1070
   177
1070
    70
1070
   178
1070
    60
1070
   271
1070
     0
1070
   272
1070
     0
1070
   340
1005
1C
1070
   342
1005
109
1002
}
  0
ENDSEC
  0
SECTION
  2
OBJECTS
  0
DICTIONARY
  5
1A
330
0
100
AcDbDictionary
281
     1
  3
ACAD_COLOR
350
144
  3
ACAD_GROUP
350
18
  3
ACAD_LAYOUT
350
58
  3
ACAD_MATERIAL
350
143
  3
ACAD_MLINESTYLE
350
19
  3
ACAD_PLOTSETTINGS
350
59
  3
ACAD_PLOTSTYLENAME
350
56
  3
ACAD_TABLESTYLE
350
145
  3
ACDBHEADERROUNDTRIPXREC
350
3990
  3
AcDbVariableDictionary
350
1D1
  0
DICTIONARY
  5
1B4
330
A
100
AcDbDictionary
280
     1
281
     1
  3
ACAD_LAYERFILTERS
360
1A2A
  3
ACLYDICTIONARY
360
1A29
  0
DICTIONARY
  5
D13
330
2
100
AcDbDictionary
280
     1
281
     1
  3
ACAD_SORTENTS
360
D14
  0
DICTIONARY
  5
144
102
{ACAD_REACTORS
330
1A
102
}
330
1A
100
AcDbDictionary
281
     1
  0
DICTIONARY
  5
18
102
{ACAD_REACTORS
330
1A
102
}
330
1A
100
AcDbDictionary
281
     1
  3
*A1
350
E0D
  3
*A10
350
24D6
  3
*A11
350
2573
  3
*A12
350
1EFE
  3
*A13
350
265A
  3
*A14
350
26DD
  3
*A15
350
275E
  3
*A16
350
2EE1
  3
*A17
350
2F81
  3
*A18
350
307D
  3
*A19
350
3181
  3
*A2
350
2905
  3
*A20
350
31DF
  3
*A21
350
32E4
  3
*A22
350
3349
  3
*A23
350
2037
  3
*A24
350
3467
  3
*A25
350
34BB
  3
*A26
350
35A5
  3
*A27
350
FF8
  3
*A28
350
136A
  3
*A29
350
1555
  3
*A3
350
2A17
  3
*A30
350
17BC
  3
*A31
350
1A98
  3
*A32
350
1CBC
  3
*A33
350
3695
  3
*A34
350
36C9
  3
*A35
350
382B
  3
*A36
350
3878
  3
*A37
350
3988
  3
*A4
350
213E
  3
*A5
350
2B84
  3
*A6
350
2C6B
  3
*A7
350
2D78
  3
*A8
350
22C8
  3
*A9
350
241A
  0
DICTIONARY
  5
58
102
{ACAD_REACTORS
330
1A
102
}
330
1A
100
AcDbDictionary
281
     1
  3
Model
350
5A
  3
ﾚｲｱｳﾄ1
350
5B
  0
DICTIONARY
  5
143
102
{ACAD_REACTORS
330
1A
102
}
330
1A
100
AcDbDictionary
281
     1
  0
DICTIONARY
  5
19
102
{ACAD_REACTORS
330
1A
102
}
330
1A
100
AcDbDictionary
281
     1
  3
STANDARD
350
1D
  0
DICTIONARY
  5
59
102
{ACAD_REACTORS
330
1A
102
}
330
1A
100
AcDbDictionary
281
     1
  0
ACDBDICTIONARYWDFLT
  5
56
102
{ACAD_REACTORS
330
1A
102
}
330
1A
100
AcDbDictionary
281
     1
  3
Normal
350
57
100
AcDbDictionaryWithDefault
340
57
  0
DICTIONARY
  5
145
102
{ACAD_REACTORS
330
1A
102
}
330
1A
100
AcDbDictionary
281
     1
  3
Standard
350
146
  0
DICTIONARY
  5
3990
102
{ACAD_REACTORS
330
1A
102
}
330
1A
100
AcDbDictionary
281
     1
  0
DICTIONARY
  5
1D1
102
{ACAD_REACTORS
330
1A
102
}
330
1A
100
AcDbDictionary
281
     1
  3
CTABLESTYLE
350
1D2
  3
DIMASSOC
350
D03
  3
PROJECTNAME
350
D04
  0
DICTIONARY
  5
1A2A
102
{ACAD_REACTORS
330
1B4
102
}
330
1B4
100
AcDbDictionary
281
     1
  0
DICTIONARY
  5
1A29
102
{ACAD_REACTORS
330
1B4
102
}
330
1B4
100
AcDbDictionary
281
     1
1001
ACAD
1000
<All
  0
SORTENTSTABLE
  5
D14
102
{ACAD_REACTORS
330
D13
102
}
330
D13
100
AcDbSortentsTable
330
2
331
23
  5
23
331
21
  5
21
331
1F
  5
1F
331
20
  5
20
  0
GROUP
  5
E0D
102
{ACAD_REACTORS
330
18
102
}
330
18
100
AcDbGroup
300

 70
     1
 71
     1
  0
GROUP
  5
24D6
102
{ACAD_REACTORS
330
18
102
}
330
18
100
AcDbGroup
300

 70
     1
 71
     1
  0
GROUP
  5
2573
102
{ACAD_REACTORS
330
18
102
}
330
18
100
AcDbGroup
300

 70
     1
 71
     1
  0
GROUP
  5
1EFE
102
{ACAD_REACTORS
330
18
102
}
330
18
100
AcDbGroup
300

 70
     1
 71
     1
  0
GROUP
  5
265A
102
{ACAD_REACTORS
330
18
102
}
330
18
100
AcDbGroup
300

 70
     1
 71
     1
  0
GROUP
  5
26DD
102
{ACAD_REACTORS
330
18
102
}
330
18
100
AcDbGroup
300

 70
     1
 71
     1
  0
GROUP
  5
275E
102
{ACAD_REACTORS
330
18
102
}
330
18
100
AcDbGroup
300

 70
     1
 71
     1
  0
GROUP
  5
2EE1
102
{ACAD_REACTORS
330
18
102
}
330
18
100
AcDbGroup
300

 70
     1
 71
     1
  0
GROUP
  5
2F81
102
{ACAD_REACTORS
330
18
102
}
330
18
100
AcDbGroup
300

 70
     1
 71
     1
  0
GROUP
  5
307D
102
{ACAD_REACTORS
330
18
102
}
330
18
100
AcDbGroup
300

 70
     1
 71
     1
  0
GROUP
  5
3181
102
{ACAD_REACTORS
330
18
102
}
330
18
100
AcDbGroup
300

 70
     1
 71
     1
  0
GROUP
  5
2905
102
{ACAD_REACTORS
330
18
102
}
330
18
100
AcDbGroup
300

 70
     1
 71
     1
  0
GROUP
  5
31DF
102
{ACAD_REACTORS
330
18
102
}
330
18
100
AcDbGroup
300

 70
     1
 71
     1
  0
GROUP
  5
32E4
102
{ACAD_REACTORS
330
18
102
}
330
18
100
AcDbGroup
300

 70
     1
 71
     1
  0
GROUP
  5
3349
102
{ACAD_REACTORS
330
18
102
}
330
18
100
AcDbGroup
300

 70
     1
 71
     1
  0
GROUP
  5
2037
102
{ACAD_REACTORS
330
18
102
}
330
18
100
AcDbGroup
300

 70
     1
 71
     1
  0
GROUP
  5
3467
102
{ACAD_REACTORS
330
18
102
}
330
18
100
AcDbGroup
300

 70
     1
 71
     1
  0
GROUP
  5
34BB
102
{ACAD_REACTORS
330
18
102
}
330
18
100
AcDbGroup
300

 70
     1
 71
     1
  0
GROUP
  5
35A5
102
{ACAD_REACTORS
330
18
102
}
330
18
100
AcDbGroup
300

 70
     1
 71
     1
  0
GROUP
  5
FF8
102
{ACAD_REACTORS
330
18
102
}
330
18
100
AcDbGroup
300

 70
     1
 71
     1
  0
GROUP
  5
136A
102
{ACAD_REACTORS
330
18
102
}
330
18
100
AcDbGroup
300

 70
     1
 71
     1
  0
GROUP
  5
1555
102
{ACAD_REACTORS
330
18
102
}
330
18
100
AcDbGroup
300

 70
     1
 71
     1
  0
GROUP
  5
2A17
102
{ACAD_REACTORS
330
18
102
}
330
18
100
AcDbGroup
300

 70
     1
 71
     1
  0
GROUP
  5
17BC
102
{ACAD_REACTORS
330
18
102
}
330
18
100
AcDbGroup
300

 70
     1
 71
     1
  0
GROUP
  5
1A98
102
{ACAD_REACTORS
330
18
102
}
330
18
100
AcDbGroup
300

 70
     1
 71
     1
  0
GROUP
  5
1CBC
102
{ACAD_REACTORS
330
18
102
}
330
18
100
AcDbGroup
300

 70
     1
 71
     1
  0
GROUP
  5
3695
102
{ACAD_REACTORS
330
18
102
}
330
18
100
AcDbGroup
300

 70
     1
 71
     1
  0
GROUP
  5
36C9
102
{ACAD_REACTORS
330
18
102
}
330
18
100
AcDbGroup
300

 70
     1
 71
     1
  0
GROUP
  5
382B
102
{ACAD_REACTORS
330
18
102
}
330
18
100
AcDbGroup
300

 70
     1
 71
     1
  0
GROUP
  5
3878
102
{ACAD_REACTORS
330
18
102
}
330
18
100
AcDbGroup
300

 70
     1
 71
     1
  0
GROUP
  5
3988
102
{ACAD_REACTORS
330
18
102
}
330
18
100
AcDbGroup
300

 70
     1
 71
     1
340
395B
340
395A
340
3959
340
3958
340
3957
340
3956
340
3955
340
3954
340
3953
340
3952
340
3951
340
3950
340
394F
340
394E
340
394D
340
394C
340
394B
340
394A
340
3949
340
3948
340
3947
340
3946
340
3945
340
3943
340
3942
340
3941
340
3940
340
393F
340
393E
340
393D
340
393C
340
393B
340
393A
340
3939
340
3938
340
3937
340
3936
340
3935
340
3934
340
3933
340
3932
340
3931
340
392F
340
392D
340
392C
340
392B
340
392A
340
3929
340
3928
340
3927
340
3926
340
3923
340
3922
340
391D
340
391C
340
391A
340
3918
340
3917
340
3916
340
3915
340
3914
340
3913
340
3912
340
3911
340
3910
340
390F
340
390E
340
390D
340
390C
340
390B
340
390A
340
3909
340
3908
340
3907
340
3906
340
3905
340
3904
340
3903
340
38FF
340
38FE
340
38FD
340
38FC
340
38FB
340
38FA
340
38F9
340
38F8
340
38F7
340
38F6
340
38F5
340
38F4
340
38F3
340
38F2
340
38F1
340
38F0
340
38EF
340
38EE
340
38ED
340
38EC
340
38EB
340
38E9
340
38E8
340
38E7
340
38E5
340
38E3
340
38DF
340
38DE
340
38DD
  0
GROUP
  5
213E
102
{ACAD_REACTORS
330
18
102
}
330
18
100
AcDbGroup
300

 70
     1
 71
     1
  0
GROUP
  5
2B84
102
{ACAD_REACTORS
330
18
102
}
330
18
100
AcDbGroup
300

 70
     1
 71
     1
  0
GROUP
  5
2C6B
102
{ACAD_REACTORS
330
18
102
}
330
18
100
AcDbGroup
300

 70
     1
 71
     1
  0
GROUP
  5
2D78
102
{ACAD_REACTORS
330
18
102
}
330
18
100
AcDbGroup
300

 70
     1
 71
     1
  0
GROUP
  5
22C8
102
{ACAD_REACTORS
330
18
102
}
330
18
100
AcDbGroup
300

 70
     1
 71
     1
  0
GROUP
  5
241A
102
{ACAD_REACTORS
330
18
102
}
330
18
100
AcDbGroup
300

 70
     1
 71
     1
  0
LAYOUT
  5
5A
102
{ACAD_XDICTIONARY
360
3991
102
}
102
{ACAD_REACTORS
330
58
102
}
330
58
100
AcDbPlotSettings
  1

  2
なし
  4

  6

 40
0.0
 41
0.0
 42
0.0
 43
0.0
 44
0.0
 45
0.0
 46
0.0
 47
0.0
 48
0.0
 49
0.0
140
0.0
141
0.0
142
1.0
143
1.0
 70
  1712
 72
     0
 73
     0
 74
     0
  7
monochrome.ctb
 75
     0
147
1.0
148
0.0
149
0.0
100
AcDbLayout
  1
Model
 70
     1
 71
     0
 10
0.0
 20
0.0
 11
12.0
 21
9.0
 12
0.0
 22
0.0
 32
0.0
 14
0.0
 24
0.0
 34
0.0
 15
0.0
 25
0.0
 35
0.0
146
0.0
 13
0.0
 23
0.0
 33
0.0
 16
1.0
 26
0.0
 36
0.0
 17
0.0
 27
1.0
 37
0.0
 76
     0
330
2
  0
LAYOUT
  5
5B
102
{ACAD_XDICTIONARY
360
3993
102
}
102
{ACAD_REACTORS
330
58
102
}
330
58
100
AcDbPlotSettings
  1

  2
なし
  4

  6

 40
0.0
 41
0.0
 42
0.0
 43
0.0
 44
0.0
 45
0.0
 46
0.0
 47
0.0
 48
0.0
 49
0.0
140
0.0
141
0.0
142
1.0
143
1.0
 70
   688
 72
     0
 73
     0
 74
     5
  7
monochrome.ctb
 75
    16
147
1.0
148
0.0
149
0.0
100
AcDbLayout
  1
ﾚｲｱｳﾄ1
 70
     1
 71
     1
 10
0.0
 20
0.0
 11
12.0
 21
9.0
 12
0.0
 22
0.0
 32
0.0
 14
1.000000000000000E+20
 24
1.000000000000000E+20
 34
1.000000000000000E+20
 15
-1.000000000000000E+20
 25
-1.000000000000000E+20
 35
-1.000000000000000E+20
146
0.0
 13
0.0
 23
0.0
 33
0.0
 16
1.0
 26
0.0
 36
0.0
 17
0.0
 27
1.0
 37
0.0
 76
     0
330
7
  0
MLINESTYLE
  5
1D
102
{ACAD_REACTORS
330
19
102
}
330
19
100
AcDbMlineStyle
  2
STANDARD
 70
     0
  3

 62
   256
 51
90.0
 52
90.0
 71
     2
 49
0.5
 62
   256
  6
BYLAYER
 49
-0.5
 62
   256
  6
BYLAYER
  0
ACDBPLACEHOLDER
  5
57
102
{ACAD_REACTORS
330
56
102
}
330
56
  0
TABLESTYLE
  5
146
102
{ACAD_REACTORS
330
145
102
}
330
145
100
AcDbTableStyle
  3
Standard
 70
     0
 71
     0
 40
0.06
 41
0.06
280
     0
281
     0
  7
STANDARD
140
0.18
170
     2
 62
     0
 63
     7
283
     0
274
    -2
284
     1
 64
     0
275
    -2
285
     1
 65
     0
276
    -2
286
     1
 66
     0
277
    -2
287
     1
 67
     0
278
    -2
288
     1
 68
     0
279
    -2
289
     1
 69
     0
  7
STANDARD
140
0.25
170
     5
 62
     0
 63
     7
283
     0
274
    -2
284
     1
 64
     0
275
    -2
285
     1
 65
     0
276
    -2
286
     1
 66
     0
277
    -2
287
     1
 67
     0
278
    -2
288
     1
 68
     0
279
    -2
289
     1
 69
     0
  7
STANDARD
140
0.18
170
     5
 62
     0
 63
     7
283
     0
274
    -2
284
     1
 64
     0
275
    -2
285
     1
 65
     0
276
    -2
286
     1
 66
     0
277
    -2
287
     1
 67
     0
278
    -2
288
     1
 68
     0
279
    -2
289
     1
 69
     0
  0
DICTIONARYVAR
  5
1D2
102
{ACAD_REACTORS
330
1D1
102
}
330
1D1
100
DictionaryVariables
280
     0
  1
STANDARD
  0
DICTIONARYVAR
  5
D03
102
{ACAD_REACTORS
330
1D1
102
}
330
1D1
100
DictionaryVariables
280
     0
  1
1
  0
DICTIONARYVAR
  5
D04
102
{ACAD_REACTORS
330
1D1
102
}
330
1D1
100
DictionaryVariables
280
     0
  1

  0
DICTIONARY
  5
3991
330
5A
100
AcDbDictionary
280
     1
281
     1
  3
ACAD_XREC_ROUNDTRIP
360
3992
  0
DICTIONARY
  5
3993
330
5B
100
AcDbDictionary
280
     1
281
     1
  3
ACAD_XREC_ROUNDTRIP
360
3994
  0
XRECORD
  5
3992
102
{ACAD_REACTORS
330
3991
102
}
330
3991
100
AcDbXrecord
280
     1
102
SHADEPLOT
 70
     0
102
SHADEPLOTRESLEVEL
 70
     2
102
SHADEPLOTCUSTOMDPI
 70
   300
  0
XRECORD
  5
3994
102
{ACAD_REACTORS
330
3993
102
}
330
3993
100
AcDbXrecord
280
     1
102
SHADEPLOT
 70
     0
102
SHADEPLOTRESLEVEL
 70
     2
102
SHADEPLOTCUSTOMDPI
 70
   300
  0
ENDSEC
  0
EOF
